  0
SECTION
  2
HEADER
  9
$ACADVER
  1
AC1018
  9
$ACADMAINTVER
 70
     0
  9
$DWGCODEPAGE
  3
ANSI_932
  9
$INSBASE
 10
0.0
 20
0.0
 30
0.0
  9
$EXTMIN
 10
643.6427864142159
 20
103.49146281998
 30
0.0
  9
$EXTMAX
 10
1063.642786414216
 20
400.49146281998
 30
0.0
  9
$LIMMIN
 10
0.0
 20
0.0
  9
$LIMMAX
 10
12.0
 20
9.0
  9
$ORTHOMODE
 70
     1
  9
$REGENMODE
 70
     1
  9
$FILLMODE
 70
     1
  9
$QTEXTMODE
 70
     0
  9
$MIRRTEXT
 70
     1
  9
$LTSCALE
 40
1.0
  9
$ATTMODE
 70
     1
  9
$TEXTSIZE
 40
0.2
  9
$TRACEWID
 40
0.05
  9
$TEXTSTYLE
  7
Standard
  9
$CLAYER
  8
0
  9
$CELTYPE
  6
ByLayer
  9
$CECOLOR
 62
   256
  9
$CELTSCALE
 40
1.0
  9
$DISPSILH
 70
     0
  9
$DIMSCALE
 40
1.0
  9
$DIMASZ
 40
0.18
  9
$DIMEXO
 40
0.0625
  9
$DIMDLI
 40
0.38
  9
$DIMRND
 40
0.0
  9
$DIMDLE
 40
0.0
  9
$DIMEXE
 40
0.18
  9
$DIMTP
 40
0.0
  9
$DIMTM
 40
0.0
  9
$DIMTXT
 40
0.18
  9
$DIMCEN
 40
0.09
  9
$DIMTSZ
 40
0.0
  9
$DIMTOL
 70
     0
  9
$DIMLIM
 70
     0
  9
$DIMTIH
 70
     1
  9
$DIMTOH
 70
     1
  9
$DIMSE1
 70
     0
  9
$DIMSE2
 70
     0
  9
$DIMTAD
 70
     0
  9
$DIMZIN
 70
     0
  9
$DIMBLK
  1

  9
$DIMASO
 70
     1
  9
$DIMSHO
 70
     1
  9
$DIMPOST
  1

  9
$DIMAPOST
  1

  9
$DIMALT
 70
     0
  9
$DIMALTD
 70
     2
  9
$DIMALTF
 40
25.4
  9
$DIMLFAC
 40
1.0
  9
$DIMTOFL
 70
     0
  9
$DIMTVP
 40
0.0
  9
$DIMTIX
 70
     0
  9
$DIMSOXD
 70
     0
  9
$DIMSAH
 70
     0
  9
$DIMBLK1
  1

  9
$DIMBLK2
  1

  9
$DIMSTYLE
  2
Standard
  9
$DIMCLRD
 70
     0
  9
$DIMCLRE
 70
     0
  9
$DIMCLRT
 70
     0
  9
$DIMTFAC
 40
1.0
  9
$DIMGAP
 40
0.09
  9
$DIMJUST
 70
     0
  9
$DIMSD1
 70
     0
  9
$DIMSD2
 70
     0
  9
$DIMTOLJ
 70
     1
  9
$DIMTZIN
 70
     0
  9
$DIMALTZ
 70
     0
  9
$DIMALTTZ
 70
     0
  9
$DIMUPT
 70
     0
  9
$DIMDEC
 70
     4
  9
$DIMTDEC
 70
     4
  9
$DIMALTU
 70
     2
  9
$DIMALTTD
 70
     2
  9
$DIMTXSTY
  7
Standard
  9
$DIMAUNIT
 70
     0
  9
$DIMADEC
 70
     0
  9
$DIMALTRND
 40
0.0
  9
$DIMAZIN
 70
     0
  9
$DIMDSEP
 70
    46
  9
$DIMATFIT
 70
     3
  9
$DIMFRAC
 70
     0
  9
$DIMLDRBLK
  1

  9
$DIMLUNIT
 70
     2
  9
$DIMLWD
 70
    -2
  9
$DIMLWE
 70
    -2
  9
$DIMTMOVE
 70
     0
  9
$LUNITS
 70
     2
  9
$LUPREC
 70
     4
  9
$SKETCHINC
 40
0.1
  9
$FILLETRAD
 40
0.5
  9
$AUNITS
 70
     0
  9
$AUPREC
 70
     0
  9
$MENU
  1
.
  9
$ELEVATION
 40
0.0
  9
$PELEVATION
 40
0.0
  9
$THICKNESS
 40
0.0
  9
$LIMCHECK
 70
     0
  9
$CHAMFERA
 40
0.5
  9
$CHAMFERB
 40
0.5
  9
$CHAMFERC
 40
1.0
  9
$CHAMFERD
 40
0.0
  9
$SKPOLY
 70
     0
  9
$TDCREATE
 40
2456854.649164317
  9
$TDUCREATE
 40
2456854.274164317
  9
$TDUPDATE
 40
2457837.475332142
  9
$TDUUPDATE
 40
2457837.100332142
  9
$TDINDWG
 40
0.2419328241
  9
$TDUSRTIMER
 40
0.2419326389
  9
$USRTIMER
 70
     1
  9
$ANGBASE
 50
0.0
  9
$ANGDIR
 70
     0
  9
$PDMODE
 70
     0
  9
$PDSIZE
 40
0.0
  9
$PLINEWID
 40
0.0
  9
$SPLFRAME
 70
     0
  9
$SPLINETYPE
 70
     6
  9
$SPLINESEGS
 70
     8
  9
$HANDSEED
  5
97D6
  9
$SURFTAB1
 70
     6
  9
$SURFTAB2
 70
     6
  9
$SURFTYPE
 70
     6
  9
$SURFU
 70
     6
  9
$SURFV
 70
     6
  9
$UCSBASE
  2

  9
$UCSNAME
  2

  9
$UCSORG
 10
0.0
 20
0.0
 30
0.0
  9
$UCSXDIR
 10
1.0
 20
0.0
 30
0.0
  9
$UCSYDIR
 10
0.0
 20
1.0
 30
0.0
  9
$UCSORTHOREF
  2

  9
$UCSORTHOVIEW
 70
     0
  9
$UCSORGTOP
 10
0.0
 20
0.0
 30
0.0
  9
$UCSORGBOTTOM
 10
0.0
 20
0.0
 30
0.0
  9
$UCSORGLEFT
 10
0.0
 20
0.0
 30
0.0
  9
$UCSORGRIGHT
 10
0.0
 20
0.0
 30
0.0
  9
$UCSORGFRONT
 10
0.0
 20
0.0
 30
0.0
  9
$UCSORGBACK
 10
0.0
 20
0.0
 30
0.0
  9
$PUCSBASE
  2

  9
$PUCSNAME
  2

  9
$PUCSORG
 10
0.0
 20
0.0
 30
0.0
  9
$PUCSXDIR
 10
1.0
 20
0.0
 30
0.0
  9
$PUCSYDIR
 10
0.0
 20
1.0
 30
0.0
  9
$PUCSORTHOREF
  2

  9
$PUCSORTHOVIEW
 70
     0
  9
$PUCSORGTOP
 10
0.0
 20
0.0
 30
0.0
  9
$PUCSORGBOTTOM
 10
0.0
 20
0.0
 30
0.0
  9
$PUCSORGLEFT
 10
0.0
 20
0.0
 30
0.0
  9
$PUCSORGRIGHT
 10
0.0
 20
0.0
 30
0.0
  9
$PUCSORGFRONT
 10
0.0
 20
0.0
 30
0.0
  9
$PUCSORGBACK
 10
0.0
 20
0.0
 30
0.0
  9
$USERI1
 70
     0
  9
$USERI2
 70
     0
  9
$USERI3
 70
     0
  9
$USERI4
 70
     0
  9
$USERI5
 70
     0
  9
$USERR1
 40
18.0
  9
$USERR2
 40
0.0
  9
$USERR3
 40
0.0
  9
$USERR4
 40
0.0
  9
$USERR5
 40
0.0
  9
$WORLDVIEW
 70
     1
  9
$SHADEDGE
 70
     3
  9
$SHADEDIF
 70
    70
  9
$TILEMODE
 70
     1
  9
$MAXACTVP
 70
    64
  9
$PINSBASE
 10
0.0
 20
0.0
 30
0.0
  9
$PLIMCHECK
 70
     0
  9
$PEXTMIN
 10
1.000000000000000E+20
 20
1.000000000000000E+20
 30
1.000000000000000E+20
  9
$PEXTMAX
 10
-1.000000000000000E+20
 20
-1.000000000000000E+20
 30
-1.000000000000000E+20
  9
$PLIMMIN
 10
0.0
 20
0.0
  9
$PLIMMAX
 10
12.0
 20
9.0
  9
$UNITMODE
 70
     0
  9
$VISRETAIN
 70
     1
  9
$PLINEGEN
 70
     0
  9
$PSLTSCALE
 70
     1
  9
$TREEDEPTH
 70
  3020
  9
$CMLSTYLE
  2
Standard
  9
$CMLJUST
 70
     0
  9
$CMLSCALE
 40
1.0
  9
$PROXYGRAPHICS
 70
     1
  9
$MEASUREMENT
 70
     1
  9
$CELWEIGHT
370
    -1
  9
$ENDCAPS
280
     0
  9
$JOINSTYLE
280
     0
  9
$LWDISPLAY
290
     0
  9
$INSUNITS
 70
     1
  9
$HYPERLINKBASE
  1

  9
$STYLESHEET
  1
monochrome.ctb
  9
$XEDIT
290
     1
  9
$CEPSNTYPE
380
     0
  9
$PSTYLEMODE
290
     1
  9
$FINGERPRINTGUID
  2
{CA87C122-5CCD-4105-A728-D913CDBF588B}
  9
$VERSIONGUID
  2
{1EA715D4-81F1-4E4A-9F87-FC8BCB4C69A3}
  9
$EXTNAMES
290
     1
  9
$PSVPSCALE
 40
0.0
  9
$OLESTARTUP
290
     0
  9
$SORTENTS
280
   127
  9
$INDEXCTL
280
     0
  9
$HIDETEXT
280
     1
  9
$XCLIPFRAME
290
     0
  9
$HALOGAP
280
     0
  9
$OBSCOLOR
 70
   257
  9
$OBSLTYPE
280
     0
  9
$INTERSECTIONDISPLAY
280
     0
  9
$INTERSECTIONCOLOR
 70
   257
  9
$DIMASSOC
280
     2
  9
$PROJECTNAME
  1

  0
ENDSEC
  0
SECTION
  2
CLASSES
  0
CLASS
  1
ACDBDICTIONARYWDFLT
  2
AcDbDictionaryWithDefault
  3
ObjectDBX Classes
 90
        0
 91
        1
280
     0
281
     0
  0
CLASS
  1
VISUALSTYLE
  2
AcDbVisualStyle
  3
ObjectDBX Classes
 90
     4095
 91
       16
280
     0
281
     0
  0
CLASS
  1
MATERIAL
  2
AcDbMaterial
  3
ObjectDBX Classes
 90
        0
 91
        3
280
     0
281
     0
  0
CLASS
  1
SCALE
  2
AcDbScale
  3
ObjectDBX Classes
 90
     1153
 91
       33
280
     0
281
     0
  0
CLASS
  1
DICTIONARYVAR
  2
AcDbDictionaryVar
  3
ObjectDBX Classes
 90
        0
 91
        4
280
     0
281
     0
  0
CLASS
  1
ACDBPLACEHOLDER
  2
AcDbPlaceHolder
  3
ObjectDBX Classes
 90
        0
 91
        1
280
     0
281
     0
  0
CLASS
  1
LAYOUT
  2
AcDbLayout
  3
ObjectDBX Classes
 90
        0
 91
        3
280
     0
281
     0
  0
CLASS
  1
DIMASSOC
  2
AcDbDimAssoc
  3
"AcDbDimAssoc|Product Desc:     AcDim ARX App For Dimension|Company:          Autodesk, Inc.|WEB Address:      www.autodesk.com"
 90
        0
 91
        0
280
     0
281
     0
  0
ENDSEC
  0
SECTION
  2
TABLES
  0
TABLE
  2
VPORT
  5
8
330
0
100
AcDbSymbolTable
 70
     2
  0
VPORT
  5
97D5
330
8
100
AcDbSymbolTableRecord
100
AcDbViewportTableRecord
  2
*Active
 70
     0
 10
0.0
 20
0.0
 11
1.0
 21
1.0
 12
1028.772951200376
 22
202.9611500436655
 13
0.0
 23
0.0
 14
0.5
 24
0.5
 15
0.5
 25
0.5
 16
0.0
 26
0.0
 36
1.0
 17
0.0
 27
0.0
 37
0.0
 40
414.245517893459
 41
2.253393665158371
 42
50.0
 43
0.0
 44
0.0
 50
0.0
 51
0.0
 71
     0
 72
   100
 73
     1
 74
     3
 75
     0
 76
     0
 77
     0
 78
     0
281
     0
 65
     1
110
0.0
120
0.0
130
0.0
111
1.0
121
0.0
131
0.0
112
0.0
122
1.0
132
0.0
 79
     0
146
0.0
  0
ENDTAB
  0
TABLE
  2
LTYPE
  5
5
330
0
100
AcDbSymbolTable
 70
     2
  0
LTYPE
  5
14
330
5
100
AcDbSymbolTableRecord
100
AcDbLinetypeTableRecord
  2
ByBlock
 70
     0
  3

 72
    65
 73
     0
 40
0.0
  0
LTYPE
  5
15
330
5
100
AcDbSymbolTableRecord
100
AcDbLinetypeTableRecord
  2
ByLayer
 70
     0
  3

 72
    65
 73
     0
 40
0.0
  0
LTYPE
  5
16
330
5
100
AcDbSymbolTableRecord
100
AcDbLinetypeTableRecord
  2
Continuous
 70
     0
  3
Solid line
 72
    65
 73
     0
 40
0.0
  0
LTYPE
  5
41
330
5
100
AcDbSymbolTableRecord
100
AcDbLinetypeTableRecord
  2
DOT_CENTER
 70
     0
  3
Dot_Center
 72
    65
 73
     4
 40
14.0
 49
12.0
 74
     0
 49
-1.0
 74
     0
 49
0.0
 74
     0
 49
-1.0
 74
     0
  0
ENDTAB
  0
TABLE
  2
LAYER
  5
2
102
{ACAD_XDICTIONARY
360
24C
102
}
330
0
100
AcDbSymbolTable
 70
    10
  0
LAYER
  5
10
330
2
100
AcDbSymbolTableRecord
100
AcDbLayerTableRecord
  2
0
 70
     0
 62
     7
  6
Continuous
370
    18
390
F
  0
LAYER
  5
46
330
2
100
AcDbSymbolTableRecord
100
AcDbLayerTableRecord
  2
52
 70
     0
 62
     7
  6
Continuous
370
    18
390
F
  0
LAYER
  5
47
330
2
100
AcDbSymbolTableRecord
100
AcDbLayerTableRecord
  2
6
 70
     0
 62
     7
  6
Continuous
370
    18
390
F
  0
LAYER
  5
249
330
2
100
AcDbSymbolTableRecord
100
AcDbLayerTableRecord
  2
Defpoints
 70
     0
 62
     7
  6
Continuous
290
     0
370
    18
390
F
  0
LAYER
  5
24A
330
2
100
AcDbSymbolTableRecord
100
AcDbLayerTableRecord
  2
FRAME
 70
     0
 62
     7
  6
Continuous
370
    18
390
F
  0
LAYER
  5
B73
330
2
100
AcDbSymbolTableRecord
100
AcDbLayerTableRecord
  2
1
 70
     0
 62
     7
  6
Continuous
370
    18
390
F
  0
LAYER
  5
8F2F
330
2
100
AcDbSymbolTableRecord
100
AcDbLayerTableRecord
  2
DIMENSION
 70
     0
 62
     3
  6
Continuous
370
    -3
390
F
  0
LAYER
  5
9248
330
2
100
AcDbSymbolTableRecord
100
AcDbLayerTableRecord
  2
225
 70
     0
 62
     7
  6
Continuous
370
    -3
390
F
  0
LAYER
  5
96CF
102
{ACAD_XDICTIONARY
360
96D0
102
}
330
2
100
AcDbSymbolTableRecord
100
AcDbLayerTableRecord
  2
WAKU
 70
     0
 62
     4
  6
Continuous
370
    -3
390
F
  0
LAYER
  5
96D2
102
{ACAD_XDICTIONARY
360
96D3
102
}
330
2
100
AcDbSymbolTableRecord
100
AcDbLayerTableRecord
  2
MOJI1
 70
     0
 62
     2
  6
Continuous
370
    -3
390
F
  0
ENDTAB
  0
TABLE
  2
STYLE
  5
3
330
0
100
AcDbSymbolTable
 70
    10
  0
STYLE
  5
11
330
3
100
AcDbSymbolTableRecord
100
AcDbTextStyleTableRecord
  2
Standard
 70
     0
 40
0.0
 41
1.0
 50
0.0
 71
     0
 42
0.2
  3

  4

1001
ACAD
1000
MS Gothic
1071
    32817
  0
STYLE
  5
1D3
330
3
100
AcDbSymbolTableRecord
100
AcDbTextStyleTableRecord
  2
CONVERTER_12
 70
     0
 40
0.0
 41
0.99
 50
0.0
 71
     0
 42
0.2
  3
txt.shx
  4

  0
STYLE
  5
1D6
330
3
100
AcDbSymbolTableRecord
100
AcDbTextStyleTableRecord
  2
CONVERTER_13
 70
     0
 40
0.0
 41
1.169999999999999
 50
0.0
 71
     0
 42
0.2
  3
txt.shx
  4

  0
STYLE
  5
24B
330
3
100
AcDbSymbolTableRecord
100
AcDbTextStyleTableRecord
  2
SAXA2
 70
     0
 40
0.0
 41
1.0
 50
0.0
 71
     0
 42
0.2
  3
romans.shx
  4
extfont.shx
  0
STYLE
  5
8ED4
330
3
100
AcDbSymbolTableRecord
100
AcDbTextStyleTableRecord
  2
SAXA1
 70
     0
 40
0.0
 41
0.9
 50
15.0
 71
     0
 42
6.0
  3
romans.shx
  4
extfont.shx
  0
STYLE
  5
8ED5
330
3
100
AcDbSymbolTableRecord
100
AcDbTextStyleTableRecord
  2
ＭＳゴシック
 70
     0
 40
3.0
 41
0.9
 50
0.0
 71
     0
 42
7.121506805450962
  3

  4

1001
ACAD
1000
MS Gothic
1071
    32817
  0
STYLE
  5
9157
330
3
100
AcDbSymbolTableRecord
100
AcDbTextStyleTableRecord
  2
KNJ
 70
     0
 40
0.0
 41
0.8
 50
15.0
 71
     0
 42
6.552625264526795
  3
romans.shx
  4
extfont.shx
  0
STYLE
  5
9249
330
3
100
AcDbSymbolTableRecord
100
AcDbTextStyleTableRecord
  2
TAJIMA1
 70
     0
 40
0.0
 41
0.9
 50
15.0
 71
     0
 42
0.2
  3
SIMPLEX
  4
extfont.shx
  0
STYLE
  5
96D5
330
3
100
AcDbSymbolTableRecord
100
AcDbTextStyleTableRecord
  2
SAXA3
 70
     0
 40
0.0
 41
0.8
 50
0.0
 71
     0
 42
0.2
  3
romanc.shx
  4
extfont.shx
  0
STYLE
  5
96D6
330
3
100
AcDbSymbolTableRecord
100
AcDbTextStyleTableRecord
  2
MS P ゴシック
 70
     0
 40
6.0
 41
1.0
 50
0.0
 71
     0
 42
6.0
  3

  4

1001
ACAD
1000
MS PGothic
1071
    32818
  0
ENDTAB
  0
TABLE
  2
VIEW
  5
6
330
0
100
AcDbSymbolTable
 70
     0
  0
ENDTAB
  0
TABLE
  2
UCS
  5
7
330
0
100
AcDbSymbolTable
 70
     0
  0
ENDTAB
  0
TABLE
  2
APPID
  5
9
330
0
100
AcDbSymbolTable
 70
     1
  0
APPID
  5
12
330
9
100
AcDbSymbolTableRecord
100
AcDbRegAppTableRecord
  2
ACAD
 70
     0
  0
ENDTAB
  0
TABLE
  2
DIMSTYLE
  5
A
330
0
100
AcDbSymbolTable
 70
     4
100
AcDbDimStyleTable
 71
     2
340
8ED6
340
27
  0
DIMSTYLE
105
27
330
A
100
AcDbSymbolTableRecord
100
AcDbDimStyleTableRecord
  2
Standard
 70
     0
340
11
  0
DIMSTYLE
105
8ED6
102
{ACAD_REACTORS
330
95E0
330
95DF
102
}
330
A
100
AcDbSymbolTableRecord
100
AcDbDimStyleTableRecord
  2
SAXA-STANDARD
 70
     0
  3
 
 40
2.0
 41
3.0
 42
1.0
 43
1.0
 44
1.0
 73
     0
 74
     0
 77
     1
 78
     8
 79
     2
140
3.0
141
0.0
146
0.5
147
1.5
172
     1
173
     1
176
   256
177
   256
178
   256
179
     1
271
     3
272
     3
284
     8
289
     0
340
8ED4
341
21F
343
21F
344
21F
371
    -1
372
    -1
  0
DIMSTYLE
105
9158
330
A
100
AcDbSymbolTableRecord
100
AcDbDimStyleTableRecord
  2
TAMRA-ST
 70
     0
 40
1.199999999999999
 41
3.0
 42
1.0
 43
1.0
 44
1.0
 73
     0
 74
     0
 77
     3
 78
     8
 79
     2
140
3.0
141
0.0
146
0.5
147
0.8
172
     1
173
     1
176
     3
177
     3
178
     3
179
     3
284
     8
289
     1
340
9157
341
21F
343
21F
344
21F
  0
DIMSTYLE
105
924A
330
A
100
AcDbSymbolTableRecord
100
AcDbDimStyleTableRecord
  2
TAMRA-ST size X2
 70
     0
 41
3.0
 42
1.0
 43
1.0
 44
1.0
 73
     0
 74
     0
 77
     1
 78
     8
140
3.0
141
0.0
145
1.166666666666666
146
0.5
147
1.0
172
     1
176
   256
177
   256
178
   256
284
     8
289
     1
340
9249
341
21F
342
21F
  0
ENDTAB
  0
TABLE
  2
BLOCK_RECORD
  5
1
330
0
100
AcDbSymbolTable
 70
     4
  0
BLOCK_RECORD
  5
1F
330
1
100
AcDbSymbolTableRecord
100
AcDbBlockTableRecord
  2
*Model_Space
340
22
  0
BLOCK_RECORD
  5
1B
330
1
100
AcDbSymbolTableRecord
100
AcDbBlockTableRecord
  2
*Paper_Space
340
1E
  0
BLOCK_RECORD
  5
23
330
1
100
AcDbSymbolTableRecord
100
AcDbBlockTableRecord
  2
*Paper_Space0
340
26
  0
BLOCK_RECORD
  5
21F
330
1
100
AcDbSymbolTableRecord
100
AcDbBlockTableRecord
  2
_OPEN
340
0
102
{BLKREFS
331
967D
331
967E
331
9686
331
9687
102
}
  0
BLOCK_RECORD
  5
95E8
330
1
100
AcDbSymbolTableRecord
100
AcDbBlockTableRecord
  2
*D2
340
0
  0
BLOCK_RECORD
  5
95F4
330
1
100
AcDbSymbolTableRecord
100
AcDbBlockTableRecord
  2
*D3
340
0
  0
ENDTAB
  0
ENDSEC
  0
SECTION
  2
BLOCKS
  0
BLOCK
  5
20
330
1F
100
AcDbEntity
  8
0
100
AcDbBlockBegin
  2
*Model_Space
 70
     0
 10
0.0
 20
0.0
 30
0.0
  3
*Model_Space
  1

  0
ENDBLK
  5
21
330
1F
100
AcDbEntity
  8
0
100
AcDbBlockEnd
  0
BLOCK
  5
1C
330
1B
100
AcDbEntity
 67
     1
  8
0
100
AcDbBlockBegin
  2
*Paper_Space
 70
     0
 10
0.0
 20
0.0
 30
0.0
  3
*Paper_Space
  1

  0
ENDBLK
  5
1D
330
1B
100
AcDbEntity
 67
     1
  8
0
100
AcDbBlockEnd
  0
BLOCK
  5
24
330
23
100
AcDbEntity
  8
0
100
AcDbBlockBegin
  2
*Paper_Space0
 70
     0
 10
0.0
 20
0.0
 30
0.0
  3
*Paper_Space0
  1

  0
ENDBLK
  5
25
330
23
100
AcDbEntity
  8
0
100
AcDbBlockEnd
  0
BLOCK
  5
220
330
21F
100
AcDbEntity
  8
0
100
AcDbBlockBegin
  2
_OPEN
 70
     0
 10
0.0
 20
0.0
 30
0.0
  3
_OPEN
  1

  0
LINE
  5
221
330
21F
100
AcDbEntity
  8
0
  6
ByBlock
 62
     0
100
AcDbLine
 10
-1.0
 20
0.1666666666666666
 30
0.0
 11
0.0
 21
0.0
 31
0.0
  0
LINE
  5
222
330
21F
100
AcDbEntity
  8
0
  6
ByBlock
 62
     0
100
AcDbLine
 10
0.0
 20
0.0
 30
0.0
 11
-1.0
 21
-0.1666666666666666
 31
0.0
  0
LINE
  5
223
330
21F
100
AcDbEntity
  8
0
  6
ByBlock
 62
     0
100
AcDbLine
 10
0.0
 20
0.0
 30
0.0
 11
-1.0
 21
0.0
 31
0.0
  0
ENDBLK
  5
224
330
21F
100
AcDbEntity
  8
0
100
AcDbBlockEnd
  0
BLOCK
  5
95F2
330
95E8
100
AcDbEntity
  8
0
100
AcDbBlockBegin
  2
*D2
 70
     1
 10
0.0
 20
0.0
 30
0.0
  3
*D2
  1

  0
LINE
  5
9683
330
95E8
100
AcDbEntity
  8
DIMENSION
100
AcDbLine
 10
781.2008756796879
 20
320.0435924319837
 30
0.0
 11
766.2239975890098
 21
320.0435924319837
 31
0.0
  0
LINE
  5
9684
330
95E8
100
AcDbEntity
  8
DIMENSION
100
AcDbLine
 10
781.2008756796879
 20
184.0435924319837
 30
0.0
 11
766.2239975890097
 21
184.0435924319837
 31
0.0
  0
LINE
  5
9685
330
95E8
100
AcDbEntity
  8
DIMENSION
100
AcDbLine
 10
768.2239975890098
 20
314.0435924319837
 30
0.0
 11
768.2239975890097
 21
190.0435924319836
 31
0.0
  0
INSERT
  5
9686
330
95E8
100
AcDbEntity
  8
DIMENSION
100
AcDbBlockReference
  2
_OPEN
 10
768.2239975890098
 20
320.0435924319837
 30
0.0
 41
6.0
 42
6.0
 43
6.0
 50
90.0
  0
INSERT
  5
9687
330
95E8
100
AcDbEntity
  8
DIMENSION
100
AcDbBlockReference
  2
_OPEN
 10
768.2239975890097
 20
184.0435924319837
 30
0.0
 41
6.0
 42
6.0
 43
6.0
 50
270.0
  0
MTEXT
  5
9688
330
95E8
100
AcDbEntity
  8
DIMENSION
100
AcDbMText
 10
762.2239975890097
 20
252.0435924319837
 30
0.0
 40
6.0
 41
0.0
 71
     5
 72
     1
  1
\A1;170±1
  7
SAXA1
 11
0.0000000000000001
 21
1.0
 31
0.0
 73
     1
 44
1.0
  0
POINT
  5
9689
330
95E8
100
AcDbEntity
  8
Defpoints
 62
     0
100
AcDbPoint
 10
783.2008756796879
 20
320.0435924319837
 30
0.0
  0
POINT
  5
968A
330
95E8
100
AcDbEntity
  8
Defpoints
 62
     0
100
AcDbPoint
 10
783.2008756796879
 20
184.0435924319837
 30
0.0
  0
POINT
  5
968B
330
95E8
100
AcDbEntity
  8
Defpoints
 62
     0
100
AcDbPoint
 10
768.2239975890097
 20
184.0435924319837
 30
0.0
  0
ENDBLK
  5
95F3
330
95E8
100
AcDbEntity
  8
0
100
AcDbBlockEnd
  0
BLOCK
  5
95FE
330
95F4
100
AcDbEntity
  8
0
100
AcDbBlockBegin
  2
*D3
 70
     1
 10
0.0
 20
0.0
 30
0.0
  3
*D3
  1

  0
LINE
  5
967A
330
95F4
100
AcDbEntity
  8
DIMENSION
100
AcDbLine
 10
779.2008756796879
 20
318.0435924319837
 30
0.0
 11
779.2008756796879
 21
333.020470522662
 31
0.0
  0
LINE
  5
967B
330
95F4
100
AcDbEntity
  8
DIMENSION
100
AcDbLine
 10
915.2008756796879
 20
318.0435924319837
 30
0.0
 11
915.2008756796879
 21
333.020470522662
 31
0.0
  0
LINE
  5
967C
330
95F4
100
AcDbEntity
  8
DIMENSION
100
AcDbLine
 10
785.2008756796879
 20
331.020470522662
 30
0.0
 11
909.2008756796879
 21
331.020470522662
 31
0.0
  0
INSERT
  5
967D
330
95F4
100
AcDbEntity
  8
DIMENSION
100
AcDbBlockReference
  2
_OPEN
 10
779.2008756796879
 20
331.020470522662
 30
0.0
 41
6.0
 42
6.0
 43
6.0
 50
180.0
  0
INSERT
  5
967E
330
95F4
100
AcDbEntity
  8
DIMENSION
100
AcDbBlockReference
  2
_OPEN
 10
915.2008756796879
 20
331.020470522662
 30
0.0
 41
6.0
 42
6.0
 43
6.0
  0
MTEXT
  5
967F
330
95F4
100
AcDbEntity
  8
DIMENSION
100
AcDbMText
 10
847.2008756796878
 20
337.020470522662
 30
0.0
 40
6.0
 41
0.0
 71
     5
 72
     1
  1
\A1;170±1
  7
SAXA1
 73
     1
 44
1.0
  0
POINT
  5
9680
330
95F4
100
AcDbEntity
  8
Defpoints
 62
     0
100
AcDbPoint
 10
779.2008756796879
 20
316.0435924319837
 30
0.0
  0
POINT
  5
9681
330
95F4
100
AcDbEntity
  8
Defpoints
 62
     0
100
AcDbPoint
 10
915.2008756796879
 20
316.0435924319837
 30
0.0
  0
POINT
  5
9682
330
95F4
100
AcDbEntity
  8
Defpoints
 62
     0
100
AcDbPoint
 10
915.2008756796879
 20
331.020470522662
 30
0.0
  0
ENDBLK
  5
95FF
330
95F4
100
AcDbEntity
  8
0
100
AcDbBlockEnd
  0
ENDSEC
  0
SECTION
  2
ENTITIES
  0
LINE
  5
8D13
330
1F
100
AcDbEntity
  8
52
  6
Continuous
 62
     2
100
AcDbLine
 10
643.6427864142159
 20
105.49146281998
 30
0.0
 11
643.6427864142159
 21
103.49146281998
 31
0.0
  0
LINE
  5
8D14
330
1F
100
AcDbEntity
  8
52
  6
Continuous
 62
     2
100
AcDbLine
 10
643.6427864142159
 20
400.49146281998
 30
0.0
 11
643.6427864142159
 21
398.4914628199801
 31
0.0
  0
LINE
  5
8D19
330
1F
100
AcDbEntity
  8
52
  6
Continuous
 62
     2
100
AcDbLine
 10
643.6427864142159
 20
400.49146281998
 30
0.0
 11
645.6427864142159
 21
400.49146281998
 31
0.0
  0
LINE
  5
8D1A
330
1F
100
AcDbEntity
  8
52
  6
Continuous
 62
     2
100
AcDbLine
 10
645.6427864142159
 20
103.49146281998
 30
0.0
 11
643.6427864142159
 21
103.49146281998
 31
0.0
  0
LINE
  5
8D1B
330
1F
100
AcDbEntity
  8
52
  6
Continuous
 62
     2
100
AcDbLine
 10
1063.642786414216
 20
400.49146281998
 30
0.0
 11
1063.642786414216
 21
398.4914628199801
 31
0.0
  0
LINE
  5
8D20
330
1F
100
AcDbEntity
  8
52
  6
Continuous
 62
     2
100
AcDbLine
 10
1063.642786414216
 20
400.49146281998
 30
0.0
 11
1061.642786414216
 21
400.49146281998
 31
0.0
  0
LINE
  5
8D21
330
1F
100
AcDbEntity
  8
52
  6
Continuous
 62
     2
100
AcDbLine
 10
1063.642786414216
 20
103.49146281998
 30
0.0
 11
1063.642786414216
 21
105.49146281998
 31
0.0
  0
LINE
  5
8D26
330
1F
100
AcDbEntity
  8
52
  6
Continuous
 62
     2
100
AcDbLine
 10
1063.642786414216
 20
103.49146281998
 30
0.0
 11
1061.642786414216
 21
103.49146281998
 31
0.0
  0
LINE
  5
953B
330
1F
100
AcDbEntity
  8
0
  6
Continuous
 62
     4
100
AcDbLine
 10
845.0008756796881
 20
307.4435924319836
 30
0.0
 11
849.400875679688
 21
307.4435924319836
 31
0.0
  0
LINE
  5
953C
330
1F
100
AcDbEntity
  8
0
  6
Continuous
 62
     4
100
AcDbLine
 10
849.400875679688
 20
311.0435924319836
 30
0.0
 11
845.0008756796881
 21
311.0435924319836
 31
0.0
  0
LINE
  5
953D
330
1F
100
AcDbEntity
  8
0
  6
Continuous
 62
     4
100
AcDbLine
 10
804.0008756796881
 20
302.8435924319837
 30
0.0
 11
798.800875679688
 21
302.8435924319837
 31
0.0
  0
LINE
  5
953E
330
1F
100
AcDbEntity
  8
0
  6
Continuous
 62
     4
100
AcDbLine
 10
872.800875679688
 20
302.8435924319837
 30
0.0
 11
821.6008756796879
 21
302.8435924319837
 31
0.0
  0
LINE
  5
953F
330
1F
100
AcDbEntity
  8
0
  6
Continuous
 62
     4
100
AcDbLine
 10
783.2008756796881
 20
320.0435924319837
 30
0.0
 11
911.200875679688
 21
320.0435924319837
 31
0.0
  0
LINE
  5
9540
330
1F
100
AcDbEntity
  8
0
  6
Continuous
 62
     4
100
AcDbLine
 10
806.4008756796878
 20
203.6435924319837
 30
0.0
 11
806.4008756796878
 21
208.8435924319837
 31
0.0
  0
LINE
  5
9541
330
1F
100
AcDbEntity
  8
0
  6
Continuous
 62
     4
100
AcDbLine
 10
798.800875679688
 20
201.2435924319837
 30
0.0
 11
804.0008756796881
 21
201.2435924319837
 31
0.0
  0
LINE
  5
9542
330
1F
100
AcDbEntity
  8
0
  6
Continuous
 62
     4
100
AcDbLine
 10
804.0008756796881
 20
211.2435924319837
 30
0.0
 11
798.800875679688
 21
211.2435924319837
 31
0.0
  0
LINE
  5
9543
330
1F
100
AcDbEntity
  8
0
  6
Continuous
 62
     4
100
AcDbLine
 10
819.200875679688
 20
300.4435924319837
 30
0.0
 11
819.200875679688
 21
300.2435924319837
 31
0.0
  0
LINE
  5
9544
330
1F
100
AcDbEntity
  8
0
  6
Continuous
 62
     4
100
AcDbLine
 10
872.800875679688
 20
245.6435924319837
 30
0.0
 11
856.0008756796881
 21
245.6435924319837
 31
0.0
  0
LINE
  5
9545
330
1F
100
AcDbEntity
  8
0
  6
Continuous
 62
     4
100
AcDbLine
 10
856.0008756796881
 20
258.4435924319837
 30
0.0
 11
872.800875679688
 21
258.4435924319837
 31
0.0
  0
LINE
  5
9546
330
1F
100
AcDbEntity
  8
0
  6
Continuous
 62
     4
100
AcDbLine
 10
875.2008756796881
 20
260.8435924319837
 30
0.0
 11
875.2008756796881
 21
277.6435924319837
 31
0.0
  0
LINE
  5
9547
330
1F
100
AcDbEntity
  8
0
  6
Continuous
 62
     4
100
AcDbLine
 10
856.0008756796881
 20
224.0435924319836
 30
0.0
 11
872.800875679688
 21
224.0435924319836
 31
0.0
  0
LINE
  5
9548
330
1F
100
AcDbEntity
  8
0
  6
Continuous
 62
     4
100
AcDbLine
 10
806.4008756796878
 20
295.2435924319837
 30
0.0
 11
806.4008756796878
 21
300.4435924319837
 31
0.0
  0
LINE
  5
9549
330
1F
100
AcDbEntity
  8
0
  6
Continuous
 62
     4
100
AcDbLine
 10
821.6008756796879
 20
297.8435924319837
 30
0.0
 11
872.800875679688
 21
297.8435924319837
 31
0.0
  0
LINE
  5
954A
330
1F
100
AcDbEntity
  8
0
  6
Continuous
 62
     4
100
AcDbLine
 10
796.400875679688
 20
300.4435924319837
 30
0.0
 11
796.400875679688
 21
295.2435924319837
 31
0.0
  0
LINE
  5
954B
330
1F
100
AcDbEntity
  8
0
  6
Continuous
 62
     4
100
AcDbLine
 10
845.0008756796881
 20
283.6435924319837
 30
0.0
 11
849.400875679688
 21
283.6435924319837
 31
0.0
  0
LINE
  5
954C
330
1F
100
AcDbEntity
  8
0
  6
Continuous
 62
     4
100
AcDbLine
 10
838.4008756796879
 20
280.0435924319837
 30
0.0
 11
821.6008756796879
 21
280.0435924319837
 31
0.0
  0
LINE
  5
954D
330
1F
100
AcDbEntity
  8
0
  6
Continuous
 62
     4
100
AcDbLine
 10
872.800875679688
 20
280.0435924319837
 30
0.0
 11
856.0008756796881
 21
280.0435924319837
 31
0.0
  0
LINE
  5
954E
330
1F
100
AcDbEntity
  8
0
  6
Continuous
 62
     4
100
AcDbLine
 10
872.800875679688
 20
206.2435924319837
 30
0.0
 11
821.6008756796879
 21
206.2435924319837
 31
0.0
  0
LINE
  5
954F
330
1F
100
AcDbEntity
  8
0
  6
Continuous
 62
     4
100
AcDbLine
 10
821.6008756796879
 20
201.2435924319837
 30
0.0
 11
872.800875679688
 21
201.2435924319837
 31
0.0
  0
LINE
  5
9550
330
1F
100
AcDbEntity
  8
0
  6
Continuous
 62
     4
100
AcDbLine
 10
845.0008756796881
 20
193.0435924319836
 30
0.0
 11
849.400875679688
 21
193.0435924319836
 31
0.0
  0
LINE
  5
9551
330
1F
100
AcDbEntity
  8
0
  6
Continuous
 62
     4
100
AcDbLine
 10
849.400875679688
 20
196.6435924319837
 30
0.0
 11
845.0008756796881
 21
196.6435924319837
 31
0.0
  0
LINE
  5
9552
330
1F
100
AcDbEntity
  8
0
  6
Continuous
 62
     4
100
AcDbLine
 10
853.600875679688
 20
243.2435924319837
 30
0.0
 11
853.600875679688
 21
226.4435924319836
 31
0.0
  0
LINE
  5
9553
330
1F
100
AcDbEntity
  8
0
  6
Continuous
 62
     4
100
AcDbLine
 10
849.000875679688
 20
216.4435924319837
 30
0.0
 11
849.000875679688
 21
220.8435924319837
 31
0.0
  0
LINE
  5
9554
330
1F
100
AcDbEntity
  8
0
  6
Continuous
 62
     4
100
AcDbLine
 10
845.4008756796879
 20
220.8435924319837
 30
0.0
 11
845.4008756796879
 21
216.4435924319837
 31
0.0
  0
LINE
  5
9555
330
1F
100
AcDbEntity
  8
0
  6
Continuous
 62
     4
100
AcDbLine
 10
849.400875679688
 20
287.2435924319837
 30
0.0
 11
845.0008756796881
 21
287.2435924319837
 31
0.0
  0
LINE
  5
9556
330
1F
100
AcDbEntity
  8
0
  6
Continuous
 62
     4
100
AcDbLine
 10
859.000875679688
 20
253.8435924319836
 30
0.0
 11
854.6008756796879
 21
253.8435924319836
 31
0.0
  0
LINE
  5
9557
330
1F
100
AcDbEntity
  8
0
  6
Continuous
 62
     4
100
AcDbLine
 10
854.6008756796879
 20
250.2435924319836
 30
0.0
 11
859.000875679688
 21
250.2435924319836
 31
0.0
  0
LINE
  5
9558
330
1F
100
AcDbEntity
  8
0
  6
Continuous
 62
     4
100
AcDbLine
 10
853.600875679688
 20
277.6435924319837
 30
0.0
 11
853.600875679688
 21
260.8435924319837
 31
0.0
  0
LINE
  5
9559
330
1F
100
AcDbEntity
  8
0
  6
Continuous
 62
     4
100
AcDbLine
 10
798.800875679688
 20
224.0435924319836
 30
0.0
 11
799.000875679688
 21
224.0435924319836
 31
0.0
  0
LINE
  5
955A
330
1F
100
AcDbEntity
  8
0
  6
Continuous
 62
     4
100
AcDbLine
 10
796.400875679688
 20
277.6435924319837
 30
0.0
 11
796.400875679688
 21
226.4435924319837
 31
0.0
  0
LINE
  5
955B
330
1F
100
AcDbEntity
  8
0
  6
Continuous
 62
     4
100
AcDbLine
 10
801.4008756796879
 20
226.4435924319837
 30
0.0
 11
801.4008756796879
 21
277.6435924319837
 31
0.0
  0
LINE
  5
955C
330
1F
100
AcDbEntity
  8
0
  6
Continuous
 62
     4
100
AcDbLine
 10
819.200875679688
 20
203.8435924319837
 30
0.0
 11
819.200875679688
 21
203.6435924319837
 31
0.0
  0
LINE
  5
955D
330
1F
100
AcDbEntity
  8
0
  6
Continuous
 62
     4
100
AcDbLine
 10
819.200875679688
 20
243.2435924319837
 30
0.0
 11
819.200875679688
 21
226.4435924319837
 31
0.0
  0
LINE
  5
955E
330
1F
100
AcDbEntity
  8
0
  6
Continuous
 62
     4
100
AcDbLine
 10
796.400875679688
 20
208.8435924319837
 30
0.0
 11
796.400875679688
 21
203.6435924319837
 31
0.0
  0
LINE
  5
955F
330
1F
100
AcDbEntity
  8
0
  6
Continuous
 62
     4
100
AcDbLine
 10
798.800875679688
 20
292.8435924319837
 30
0.0
 11
804.0008756796881
 21
292.8435924319837
 31
0.0
  0
LINE
  5
9560
330
1F
100
AcDbEntity
  8
0
  6
Continuous
 62
     4
100
AcDbLine
 10
816.000875679688
 20
253.8435924319837
 30
0.0
 11
811.600875679688
 21
253.8435924319837
 31
0.0
  0
LINE
  5
9561
330
1F
100
AcDbEntity
  8
0
  6
Continuous
 62
     4
100
AcDbLine
 10
811.600875679688
 20
250.2435924319837
 30
0.0
 11
816.000875679688
 21
250.2435924319837
 31
0.0
  0
LINE
  5
9562
330
1F
100
AcDbEntity
  8
0
  6
Continuous
 62
     4
100
AcDbLine
 10
799.000875679688
 20
280.0435924319837
 30
0.0
 11
798.800875679688
 21
280.0435924319837
 31
0.0
  0
LINE
  5
9563
330
1F
100
AcDbEntity
  8
0
  6
Continuous
 62
     4
100
AcDbLine
 10
788.2008756796881
 20
254.2435924319836
 30
0.0
 11
788.2008756796881
 21
249.8435924319836
 31
0.0
  0
LINE
  5
9564
330
1F
100
AcDbEntity
  8
0
  6
Continuous
 62
     4
100
AcDbLine
 10
791.800875679688
 20
249.8435924319836
 30
0.0
 11
791.800875679688
 21
254.2435924319836
 31
0.0
  0
LINE
  5
9565
330
1F
100
AcDbEntity
  8
0
  6
Continuous
 62
     4
100
AcDbLine
 10
819.200875679688
 20
277.6435924319837
 30
0.0
 11
819.200875679688
 21
260.8435924319837
 31
0.0
  0
LINE
  5
9566
330
1F
100
AcDbEntity
  8
0
  6
Continuous
 62
     4
100
AcDbLine
 10
779.2008756796881
 20
188.0435924319837
 30
0.0
 11
779.2008756796881
 21
316.0435924319837
 31
0.0
  0
LINE
  5
9567
330
1F
100
AcDbEntity
  8
0
  6
Continuous
 62
     4
100
AcDbLine
 10
845.4008756796879
 20
244.6435924319836
 30
0.0
 11
845.4008756796879
 21
240.2435924319836
 31
0.0
  0
LINE
  5
9568
330
1F
100
AcDbEntity
  8
0
  6
Continuous
 62
     4
100
AcDbLine
 10
840.8008756796879
 20
226.4435924319837
 30
0.0
 11
840.8008756796879
 21
243.2435924319837
 31
0.0
  0
LINE
  5
9569
330
1F
100
AcDbEntity
  8
0
  6
Continuous
 62
     4
100
AcDbLine
 10
838.4008756796879
 20
245.6435924319837
 30
0.0
 11
821.6008756796879
 21
245.6435924319837
 31
0.0
  0
LINE
  5
956A
330
1F
100
AcDbEntity
  8
0
  6
Continuous
 62
     4
100
AcDbLine
 10
849.000875679688
 20
240.2435924319836
 30
0.0
 11
849.000875679688
 21
244.6435924319836
 31
0.0
  0
LINE
  5
956B
330
1F
100
AcDbEntity
  8
0
  6
Continuous
 62
     4
100
AcDbLine
 10
821.6008756796879
 20
224.0435924319837
 30
0.0
 11
838.4008756796879
 21
224.0435924319837
 31
0.0
  0
LINE
  5
956C
330
1F
100
AcDbEntity
  8
0
  6
Continuous
 62
     4
100
AcDbLine
 10
835.4008756796879
 20
250.2435924319836
 30
0.0
 11
839.800875679688
 21
250.2435924319836
 31
0.0
  0
LINE
  5
956D
330
1F
100
AcDbEntity
  8
0
  6
Continuous
 62
     4
100
AcDbLine
 10
839.800875679688
 20
253.8435924319836
 30
0.0
 11
835.4008756796879
 21
253.8435924319836
 31
0.0
  0
LINE
  5
956E
330
1F
100
AcDbEntity
  8
0
  6
Continuous
 62
     4
100
AcDbLine
 10
849.000875679688
 20
259.4435924319837
 30
0.0
 11
849.000875679688
 21
263.8435924319836
 31
0.0
  0
LINE
  5
956F
330
1F
100
AcDbEntity
  8
0
  6
Continuous
 62
     4
100
AcDbLine
 10
845.4008756796879
 20
263.8435924319836
 30
0.0
 11
845.4008756796879
 21
259.4435924319837
 31
0.0
  0
LINE
  5
9570
330
1F
100
AcDbEntity
  8
0
  6
Continuous
 62
     4
100
AcDbLine
 10
840.8008756796879
 20
260.8435924319837
 30
0.0
 11
840.8008756796879
 21
277.6435924319837
 31
0.0
  0
LINE
  5
9571
330
1F
100
AcDbEntity
  8
0
  6
Continuous
 62
     4
100
AcDbLine
 10
821.6008756796879
 20
258.4435924319837
 30
0.0
 11
838.4008756796879
 21
258.4435924319837
 31
0.0
  0
LINE
  5
9572
330
1F
100
AcDbEntity
  8
0
  6
Continuous
 62
     4
100
AcDbLine
 10
911.200875679688
 20
184.0435924319837
 30
0.0
 11
783.2008756796881
 21
184.0435924319837
 31
0.0
  0
LINE
  5
9573
330
1F
100
AcDbEntity
  8
0
  6
Continuous
 62
     4
100
AcDbLine
 10
890.400875679688
 20
201.2435924319837
 30
0.0
 11
895.600875679688
 21
201.2435924319837
 31
0.0
  0
LINE
  5
9574
330
1F
100
AcDbEntity
  8
0
  6
Continuous
 62
     4
100
AcDbLine
 10
875.2008756796881
 20
203.6435924319837
 30
0.0
 11
875.2008756796881
 21
203.8435924319837
 31
0.0
  0
LINE
  5
9575
330
1F
100
AcDbEntity
  8
0
  6
Continuous
 62
     4
100
AcDbLine
 10
895.600875679688
 20
211.2435924319837
 30
0.0
 11
890.400875679688
 21
211.2435924319837
 31
0.0
  0
LINE
  5
9576
330
1F
100
AcDbEntity
  8
0
  6
Continuous
 62
     4
100
AcDbLine
 10
898.000875679688
 20
203.6435924319837
 30
0.0
 11
898.000875679688
 21
208.8435924319837
 31
0.0
  0
LINE
  5
9577
330
1F
100
AcDbEntity
  8
0
  6
Continuous
 62
     4
100
AcDbLine
 10
888.0008756796881
 20
208.8435924319837
 30
0.0
 11
888.0008756796881
 21
203.6435924319837
 31
0.0
  0
LINE
  5
9578
330
1F
100
AcDbEntity
  8
0
  6
Continuous
 62
     4
100
AcDbLine
 10
875.2008756796881
 20
226.4435924319836
 30
0.0
 11
875.2008756796881
 21
243.2435924319837
 31
0.0
  0
LINE
  5
9579
330
1F
100
AcDbEntity
  8
0
  6
Continuous
 62
     4
100
AcDbLine
 10
895.4008756796879
 20
224.0435924319836
 30
0.0
 11
895.600875679688
 21
224.0435924319836
 31
0.0
  0
LINE
  5
957A
330
1F
100
AcDbEntity
  8
0
  6
Continuous
 62
     4
100
AcDbLine
 10
898.000875679688
 20
226.4435924319837
 30
0.0
 11
898.000875679688
 21
277.6435924319837
 31
0.0
  0
LINE
  5
957B
330
1F
100
AcDbEntity
  8
0
  6
Continuous
 62
     4
100
AcDbLine
 10
893.000875679688
 20
277.6435924319837
 30
0.0
 11
893.000875679688
 21
226.4435924319837
 31
0.0
  0
LINE
  5
957C
330
1F
100
AcDbEntity
  8
0
  6
Continuous
 62
     4
100
AcDbLine
 10
902.600875679688
 20
254.2435924319836
 30
0.0
 11
902.600875679688
 21
249.8435924319836
 31
0.0
  0
LINE
  5
957D
330
1F
100
AcDbEntity
  8
0
  6
Continuous
 62
     4
100
AcDbLine
 10
906.2008756796881
 20
249.8435924319836
 30
0.0
 11
906.2008756796881
 21
254.2435924319836
 31
0.0
  0
LINE
  5
957E
330
1F
100
AcDbEntity
  8
0
  6
Continuous
 62
     4
100
AcDbLine
 10
895.600875679688
 20
302.8435924319837
 30
0.0
 11
890.400875679688
 21
302.8435924319837
 31
0.0
  0
LINE
  5
957F
330
1F
100
AcDbEntity
  8
0
  6
Continuous
 62
     4
100
AcDbLine
 10
890.400875679688
 20
292.8435924319837
 30
0.0
 11
895.600875679688
 21
292.8435924319837
 31
0.0
  0
LINE
  5
9580
330
1F
100
AcDbEntity
  8
0
  6
Continuous
 62
     4
100
AcDbLine
 10
898.000875679688
 20
295.2435924319837
 30
0.0
 11
898.000875679688
 21
300.4435924319837
 31
0.0
  0
LINE
  5
9581
330
1F
100
AcDbEntity
  8
0
  6
Continuous
 62
     4
100
AcDbLine
 10
875.2008756796881
 20
300.2435924319837
 30
0.0
 11
875.2008756796881
 21
300.4435924319837
 31
0.0
  0
LINE
  5
9582
330
1F
100
AcDbEntity
  8
0
  6
Continuous
 62
     4
100
AcDbLine
 10
878.800875679688
 20
254.2435924319837
 30
0.0
 11
878.800875679688
 21
249.8435924319837
 31
0.0
  0
LINE
  5
9583
330
1F
100
AcDbEntity
  8
0
  6
Continuous
 62
     4
100
AcDbLine
 10
895.600875679688
 20
280.0435924319837
 30
0.0
 11
895.4008756796879
 21
280.0435924319837
 31
0.0
  0
LINE
  5
9584
330
1F
100
AcDbEntity
  8
0
  6
Continuous
 62
     4
100
AcDbLine
 10
888.0008756796881
 20
300.4435924319837
 30
0.0
 11
888.0008756796881
 21
295.2435924319837
 31
0.0
  0
LINE
  5
9585
330
1F
100
AcDbEntity
  8
0
  6
Continuous
 62
     4
100
AcDbLine
 10
882.400875679688
 20
249.8435924319837
 30
0.0
 11
882.400875679688
 21
254.2435924319837
 31
0.0
  0
LINE
  5
9586
330
1F
100
AcDbEntity
  8
0
  6
Continuous
 62
     4
100
AcDbLine
 10
915.2008756796881
 20
316.0435924319837
 30
0.0
 11
915.2008756796881
 21
188.0435924319837
 31
0.0
  0
ARC
  5
9587
330
1F
100
AcDbEntity
  8
0
  6
Continuous
 62
     4
100
AcDbCircle
 10
849.400875679688
 20
309.2435924319836
 30
0.0
 40
1.8
100
AcDbArc
 50
270.0
 51
90.0
  0
ARC
  5
9588
330
1F
100
AcDbEntity
  8
0
  6
Continuous
 62
     4
100
AcDbCircle
 10
845.0008756796881
 20
309.2435924319836
 30
0.0
 40
1.8
100
AcDbArc
 50
90.0
 51
270.0
  0
ARC
  5
9589
330
1F
100
AcDbEntity
  8
0
  6
Continuous
 62
     4
100
AcDbCircle
 10
804.0008756796881
 20
300.4435924319837
 30
0.0
 40
2.4
100
AcDbArc
 50
0.0
 51
90.0
  0
ARC
  5
958A
330
1F
100
AcDbEntity
  8
0
  6
Continuous
 62
     4
100
AcDbCircle
 10
798.800875679688
 20
300.4435924319837
 30
0.0
 40
2.4
100
AcDbArc
 50
90.0
 51
180.0
  0
ARC
  5
958B
330
1F
100
AcDbEntity
  8
0
  6
Continuous
 62
     4
100
AcDbCircle
 10
911.200875679688
 20
316.0435924319837
 30
0.0
 40
4.0
100
AcDbArc
 50
0.0
 51
90.0
  0
ARC
  5
958C
330
1F
100
AcDbEntity
  8
0
  6
Continuous
 62
     4
100
AcDbCircle
 10
804.0008756796881
 20
203.6435924319837
 30
0.0
 40
2.400000000000005
100
AcDbArc
 50
270.0
 51
0.0
  0
ARC
  5
958D
330
1F
100
AcDbEntity
  8
0
  6
Continuous
 62
     4
100
AcDbCircle
 10
821.6008756796879
 20
300.4435924319837
 30
0.0
 40
2.4
100
AcDbArc
 50
90.0
 51
180.0
  0
ARC
  5
958E
330
1F
100
AcDbEntity
  8
0
  6
Continuous
 62
     4
100
AcDbCircle
 10
821.6008756796879
 20
277.6435924319837
 30
0.0
 40
2.4
100
AcDbArc
 50
90.0
 51
180.0
  0
ARC
  5
958F
330
1F
100
AcDbEntity
  8
0
  6
Continuous
 62
     4
100
AcDbCircle
 10
804.0008756796881
 20
208.8435924319837
 30
0.0
 40
2.4
100
AcDbArc
 50
0.0
 51
90.0
  0
ARC
  5
9590
330
1F
100
AcDbEntity
  8
0
  6
Continuous
 62
     4
100
AcDbCircle
 10
872.800875679688
 20
300.2435924319837
 30
0.0
 40
2.4
100
AcDbArc
 50
270.0
 51
0.0
  0
ARC
  5
9591
330
1F
100
AcDbEntity
  8
0
  6
Continuous
 62
     4
100
AcDbCircle
 10
872.800875679688
 20
260.8435924319837
 30
0.0
 40
2.399999999999997
100
AcDbArc
 50
270.0
 51
0.0
  0
ARC
  5
9592
330
1F
100
AcDbEntity
  8
0
  6
Continuous
 62
     4
100
AcDbCircle
 10
872.800875679688
 20
277.6435924319837
 30
0.0
 40
2.399999999999999
100
AcDbArc
 50
0.0
 51
90.0
  0
ARC
  5
9593
330
1F
100
AcDbEntity
  8
0
  6
Continuous
 62
     4
100
AcDbCircle
 10
856.0008756796881
 20
243.2435924319837
 30
0.0
 40
2.400000000000007
100
AcDbArc
 50
90.0
 51
180.0
  0
ARC
  5
9594
330
1F
100
AcDbEntity
  8
0
  6
Continuous
 62
     4
100
AcDbCircle
 10
849.400875679688
 20
285.4435924319837
 30
0.0
 40
1.8
100
AcDbArc
 50
270.0
 51
90.0
  0
ARC
  5
9595
330
1F
100
AcDbEntity
  8
0
  6
Continuous
 62
     4
100
AcDbCircle
 10
847.2008756796881
 20
220.8435924319837
 30
0.0
 40
1.8
100
AcDbArc
 50
0.0
 51
180.0
  0
ARC
  5
9596
330
1F
100
AcDbEntity
  8
0
  6
Continuous
 62
     4
100
AcDbCircle
 10
847.2008756796881
 20
216.4435924319837
 30
0.0
 40
1.800000000000002
100
AcDbArc
 50
180.0
 51
0.0
  0
ARC
  5
9597
330
1F
100
AcDbEntity
  8
0
  6
Continuous
 62
     4
100
AcDbCircle
 10
856.0008756796881
 20
226.4435924319836
 30
0.0
 40
2.4
100
AcDbArc
 50
180.0
 51
270.0
  0
ARC
  5
9598
330
1F
100
AcDbEntity
  8
0
  6
Continuous
 62
     4
100
AcDbCircle
 10
849.400875679688
 20
194.8435924319837
 30
0.0
 40
1.8
100
AcDbArc
 50
270.0
 51
90.0
  0
ARC
  5
9599
330
1F
100
AcDbEntity
  8
0
  6
Continuous
 62
     4
100
AcDbCircle
 10
856.0008756796881
 20
260.8435924319837
 30
0.0
 40
2.4
100
AcDbArc
 50
180.0
 51
270.0
  0
ARC
  5
959A
330
1F
100
AcDbEntity
  8
0
  6
Continuous
 62
     4
100
AcDbCircle
 10
845.0008756796881
 20
285.4435924319837
 30
0.0
 40
1.8
100
AcDbArc
 50
90.0
 51
270.0
  0
ARC
  5
959B
330
1F
100
AcDbEntity
  8
0
  6
Continuous
 62
     4
100
AcDbCircle
 10
838.4008756796879
 20
277.6435924319837
 30
0.0
 40
2.4
100
AcDbArc
 50
0.0
 51
90.0
  0
ARC
  5
959C
330
1F
100
AcDbEntity
  8
0
  6
Continuous
 62
     4
100
AcDbCircle
 10
838.4008756796879
 20
260.8435924319837
 30
0.0
 40
2.399999999999997
100
AcDbArc
 50
270.0
 51
0.0
  0
ARC
  5
959D
330
1F
100
AcDbEntity
  8
0
  6
Continuous
 62
     4
100
AcDbCircle
 10
856.0008756796881
 20
277.6435924319837
 30
0.0
 40
2.4
100
AcDbArc
 50
90.0
 51
180.0
  0
ARC
  5
959E
330
1F
100
AcDbEntity
  8
0
  6
Continuous
 62
     4
100
AcDbCircle
 10
854.6008756796879
 20
252.0435924319836
 30
0.0
 40
1.8
100
AcDbArc
 50
90.0
 51
270.0
  0
ARC
  5
959F
330
1F
100
AcDbEntity
  8
0
  6
Continuous
 62
     4
100
AcDbCircle
 10
839.800875679688
 20
252.0435924319836
 30
0.0
 40
1.799999999999999
100
AcDbArc
 50
270.0
 51
90.0
  0
ARC
  5
95A0
330
1F
100
AcDbEntity
  8
0
  6
Continuous
 62
     4
100
AcDbCircle
 10
859.000875679688
 20
252.0435924319836
 30
0.0
 40
1.799999999999999
100
AcDbArc
 50
270.0
 51
90.0
  0
ARC
  5
95A1
330
1F
100
AcDbEntity
  8
0
  6
Continuous
 62
     4
100
AcDbCircle
 10
798.800875679688
 20
226.4435924319837
 30
0.0
 40
2.4
100
AcDbArc
 50
180.0
 51
270.0
  0
ARC
  5
95A2
330
1F
100
AcDbEntity
  8
0
  6
Continuous
 62
     4
100
AcDbCircle
 10
799.000875679688
 20
226.4435924319837
 30
0.0
 40
2.4
100
AcDbArc
 50
270.0
 51
0.0
  0
ARC
  5
95A3
330
1F
100
AcDbEntity
  8
0
  6
Continuous
 62
     4
100
AcDbCircle
 10
821.6008756796879
 20
203.6435924319837
 30
0.0
 40
2.4
100
AcDbArc
 50
180.0
 51
270.0
  0
ARC
  5
95A4
330
1F
100
AcDbEntity
  8
0
  6
Continuous
 62
     4
100
AcDbCircle
 10
821.6008756796879
 20
203.8435924319837
 30
0.0
 40
2.4
100
AcDbArc
 50
90.0
 51
180.0
  0
ARC
  5
95A5
330
1F
100
AcDbEntity
  8
0
  6
Continuous
 62
     4
100
AcDbCircle
 10
821.6008756796879
 20
226.4435924319837
 30
0.0
 40
2.399999999999994
100
AcDbArc
 50
180.0
 51
270.0
  0
ARC
  5
95A6
330
1F
100
AcDbEntity
  8
0
  6
Continuous
 62
     4
100
AcDbCircle
 10
798.800875679688
 20
203.6435924319837
 30
0.0
 40
2.4
100
AcDbArc
 50
180.0
 51
270.0
  0
ARC
  5
95A7
330
1F
100
AcDbEntity
  8
0
  6
Continuous
 62
     4
100
AcDbCircle
 10
798.800875679688
 20
208.8435924319837
 30
0.0
 40
2.4
100
AcDbArc
 50
90.0
 51
180.0
  0
ARC
  5
95A8
330
1F
100
AcDbEntity
  8
0
  6
Continuous
 62
     4
100
AcDbCircle
 10
799.000875679688
 20
277.6435924319837
 30
0.0
 40
2.4
100
AcDbArc
 50
0.0
 51
90.0
  0
ARC
  5
95A9
330
1F
100
AcDbEntity
  8
0
  6
Continuous
 62
     4
100
AcDbCircle
 10
811.600875679688
 20
252.0435924319837
 30
0.0
 40
1.8
100
AcDbArc
 50
90.0
 51
270.0
  0
ARC
  5
95AA
330
1F
100
AcDbEntity
  8
0
  6
Continuous
 62
     4
100
AcDbCircle
 10
816.000875679688
 20
252.0435924319837
 30
0.0
 40
1.799999999999999
100
AcDbArc
 50
270.0
 51
90.0
  0
ARC
  5
95AB
330
1F
100
AcDbEntity
  8
0
  6
Continuous
 62
     4
100
AcDbCircle
 10
821.6008756796879
 20
243.2435924319837
 30
0.0
 40
2.400000000000007
100
AcDbArc
 50
90.0
 51
180.0
  0
ARC
  5
95AC
330
1F
100
AcDbEntity
  8
0
  6
Continuous
 62
     4
100
AcDbCircle
 10
798.800875679688
 20
295.2435924319837
 30
0.0
 40
2.4
100
AcDbArc
 50
180.0
 51
270.0
  0
ARC
  5
95AD
330
1F
100
AcDbEntity
  8
0
  6
Continuous
 62
     4
100
AcDbCircle
 10
798.800875679688
 20
277.6435924319837
 30
0.0
 40
2.4
100
AcDbArc
 50
90.0
 51
180.0
  0
ARC
  5
95AE
330
1F
100
AcDbEntity
  8
0
  6
Continuous
 62
     4
100
AcDbCircle
 10
804.0008756796881
 20
295.2435924319837
 30
0.0
 40
2.4
100
AcDbArc
 50
270.0
 51
0.0
  0
ARC
  5
95AF
330
1F
100
AcDbEntity
  8
0
  6
Continuous
 62
     4
100
AcDbCircle
 10
790.000875679688
 20
249.8435924319836
 30
0.0
 40
1.8
100
AcDbArc
 50
180.0
 51
0.0
  0
ARC
  5
95B0
330
1F
100
AcDbEntity
  8
0
  6
Continuous
 62
     4
100
AcDbCircle
 10
790.000875679688
 20
254.2435924319836
 30
0.0
 40
1.800000000000034
100
AcDbArc
 50
0.0
 51
180.0
  0
ARC
  5
95B1
330
1F
100
AcDbEntity
  8
0
  6
Continuous
 62
     4
100
AcDbCircle
 10
821.6008756796879
 20
300.2435924319837
 30
0.0
 40
2.4
100
AcDbArc
 50
180.0
 51
270.0
  0
ARC
  5
95B2
330
1F
100
AcDbEntity
  8
0
  6
Continuous
 62
     4
100
AcDbCircle
 10
821.6008756796879
 20
260.8435924319837
 30
0.0
 40
2.399999999999994
100
AcDbArc
 50
180.0
 51
270.0
  0
ARC
  5
95B3
330
1F
100
AcDbEntity
  8
0
  6
Continuous
 62
     4
100
AcDbCircle
 10
783.2008756796881
 20
188.0435924319837
 30
0.0
 40
4.0
100
AcDbArc
 50
180.0
 51
270.0
  0
ARC
  5
95B4
330
1F
100
AcDbEntity
  8
0
  6
Continuous
 62
     4
100
AcDbCircle
 10
845.0008756796881
 20
194.8435924319837
 30
0.0
 40
1.8
100
AcDbArc
 50
90.0
 51
270.0
  0
ARC
  5
95B5
330
1F
100
AcDbEntity
  8
0
  6
Continuous
 62
     4
100
AcDbCircle
 10
838.4008756796879
 20
226.4435924319837
 30
0.0
 40
2.4
100
AcDbArc
 50
270.0
 51
0.0
  0
ARC
  5
95B6
330
1F
100
AcDbEntity
  8
0
  6
Continuous
 62
     4
100
AcDbCircle
 10
838.4008756796879
 20
243.2435924319837
 30
0.0
 40
2.4
100
AcDbArc
 50
0.0
 51
90.0
  0
ARC
  5
95B7
330
1F
100
AcDbEntity
  8
0
  6
Continuous
 62
     4
100
AcDbCircle
 10
847.2008756796881
 20
244.6435924319836
 30
0.0
 40
1.8
100
AcDbArc
 50
0.0
 51
180.0
  0
ARC
  5
95B8
330
1F
100
AcDbEntity
  8
0
  6
Continuous
 62
     4
100
AcDbCircle
 10
847.2008756796881
 20
240.2435924319836
 30
0.0
 40
1.799999999999994
100
AcDbArc
 50
180.0
 51
0.0
  0
ARC
  5
95B9
330
1F
100
AcDbEntity
  8
0
  6
Continuous
 62
     4
100
AcDbCircle
 10
847.2008756796881
 20
259.4435924319837
 30
0.0
 40
1.800000000000002
100
AcDbArc
 50
180.0
 51
0.0
  0
ARC
  5
95BA
330
1F
100
AcDbEntity
  8
0
  6
Continuous
 62
     4
100
AcDbCircle
 10
847.2008756796881
 20
263.8435924319836
 30
0.0
 40
1.8
100
AcDbArc
 50
0.0
 51
180.0
  0
ARC
  5
95BB
330
1F
100
AcDbEntity
  8
0
  6
Continuous
 62
     4
100
AcDbCircle
 10
835.4008756796879
 20
252.0435924319836
 30
0.0
 40
1.8
100
AcDbArc
 50
90.0
 51
270.0
  0
ARC
  5
95BC
330
1F
100
AcDbEntity
  8
0
  6
Continuous
 62
     4
100
AcDbCircle
 10
872.800875679688
 20
203.6435924319837
 30
0.0
 40
2.400000000000005
100
AcDbArc
 50
270.0
 51
0.0
  0
ARC
  5
95BD
330
1F
100
AcDbEntity
  8
0
  6
Continuous
 62
     4
100
AcDbCircle
 10
895.600875679688
 20
203.6435924319837
 30
0.0
 40
2.400000000000005
100
AcDbArc
 50
270.0
 51
0.0
  0
ARC
  5
95BE
330
1F
100
AcDbEntity
  8
0
  6
Continuous
 62
     4
100
AcDbCircle
 10
890.400875679688
 20
203.6435924319837
 30
0.0
 40
2.4
100
AcDbArc
 50
180.0
 51
270.0
  0
ARC
  5
95BF
330
1F
100
AcDbEntity
  8
0
  6
Continuous
 62
     4
100
AcDbCircle
 10
872.800875679688
 20
203.8435924319837
 30
0.0
 40
2.400000000000003
100
AcDbArc
 50
0.0
 51
90.0
  0
ARC
  5
95C0
330
1F
100
AcDbEntity
  8
0
  6
Continuous
 62
     4
100
AcDbCircle
 10
890.400875679688
 20
208.8435924319837
 30
0.0
 40
2.4
100
AcDbArc
 50
90.0
 51
180.0
  0
ARC
  5
95C1
330
1F
100
AcDbEntity
  8
0
  6
Continuous
 62
     4
100
AcDbCircle
 10
872.800875679688
 20
226.4435924319836
 30
0.0
 40
2.4
100
AcDbArc
 50
270.0
 51
0.0
  0
ARC
  5
95C2
330
1F
100
AcDbEntity
  8
0
  6
Continuous
 62
     4
100
AcDbCircle
 10
895.600875679688
 20
208.8435924319837
 30
0.0
 40
2.400000000000005
100
AcDbArc
 50
0.0
 51
90.0
  0
ARC
  5
95C3
330
1F
100
AcDbEntity
  8
0
  6
Continuous
 62
     4
100
AcDbCircle
 10
895.600875679688
 20
226.4435924319837
 30
0.0
 40
2.4
100
AcDbArc
 50
270.0
 51
0.0
  0
ARC
  5
95C4
330
1F
100
AcDbEntity
  8
0
  6
Continuous
 62
     4
100
AcDbCircle
 10
895.4008756796879
 20
226.4435924319837
 30
0.0
 40
2.4
100
AcDbArc
 50
180.0
 51
270.0
  0
ARC
  5
95C5
330
1F
100
AcDbEntity
  8
0
  6
Continuous
 62
     4
100
AcDbCircle
 10
895.600875679688
 20
277.6435924319837
 30
0.0
 40
2.400000000000005
100
AcDbArc
 50
0.0
 51
90.0
  0
ARC
  5
95C6
330
1F
100
AcDbEntity
  8
0
  6
Continuous
 62
     4
100
AcDbCircle
 10
904.4008756796879
 20
254.2435924319836
 30
0.0
 40
1.800000000000005
100
AcDbArc
 50
0.0
 51
180.0
  0
ARC
  5
95C7
330
1F
100
AcDbEntity
  8
0
  6
Continuous
 62
     4
100
AcDbCircle
 10
904.4008756796879
 20
249.8435924319836
 30
0.0
 40
1.8
100
AcDbArc
 50
180.0
 51
0.0
  0
ARC
  5
95C8
330
1F
100
AcDbEntity
  8
0
  6
Continuous
 62
     4
100
AcDbCircle
 10
895.600875679688
 20
300.4435924319837
 30
0.0
 40
2.400000000000005
100
AcDbArc
 50
0.0
 51
90.0
  0
ARC
  5
95C9
330
1F
100
AcDbEntity
  8
0
  6
Continuous
 62
     4
100
AcDbCircle
 10
890.400875679688
 20
295.2435924319837
 30
0.0
 40
2.4
100
AcDbArc
 50
180.0
 51
270.0
  0
ARC
  5
95CA
330
1F
100
AcDbEntity
  8
0
  6
Continuous
 62
     4
100
AcDbCircle
 10
895.600875679688
 20
295.2435924319837
 30
0.0
 40
2.4
100
AcDbArc
 50
270.0
 51
0.0
  0
ARC
  5
95CB
330
1F
100
AcDbEntity
  8
0
  6
Continuous
 62
     4
100
AcDbCircle
 10
872.800875679688
 20
300.4435924319837
 30
0.0
 40
2.400000000000003
100
AcDbArc
 50
0.0
 51
90.0
  0
ARC
  5
95CC
330
1F
100
AcDbEntity
  8
0
  6
Continuous
 62
     4
100
AcDbCircle
 10
872.800875679688
 20
243.2435924319837
 30
0.0
 40
2.399999999999999
100
AcDbArc
 50
0.0
 51
90.0
  0
ARC
  5
95CD
330
1F
100
AcDbEntity
  8
0
  6
Continuous
 62
     4
100
AcDbCircle
 10
895.4008756796879
 20
277.6435924319837
 30
0.0
 40
2.4
100
AcDbArc
 50
90.0
 51
180.0
  0
ARC
  5
95CE
330
1F
100
AcDbEntity
  8
0
  6
Continuous
 62
     4
100
AcDbCircle
 10
880.6008756796879
 20
254.2435924319837
 30
0.0
 40
1.8
100
AcDbArc
 50
0.0
 51
180.0
  0
ARC
  5
95CF
330
1F
100
AcDbEntity
  8
0
  6
Continuous
 62
     4
100
AcDbCircle
 10
890.400875679688
 20
300.4435924319837
 30
0.0
 40
2.4
100
AcDbArc
 50
90.0
 51
180.0
  0
ARC
  5
95D0
330
1F
100
AcDbEntity
  8
0
  6
Continuous
 62
     4
100
AcDbCircle
 10
880.6008756796879
 20
249.8435924319837
 30
0.0
 40
1.800000000000001
100
AcDbArc
 50
180.0
 51
0.0
  0
ARC
  5
95D1
330
1F
100
AcDbEntity
  8
0
  6
Continuous
 62
     4
100
AcDbCircle
 10
911.200875679688
 20
188.0435924319837
 30
0.0
 40
4.0
100
AcDbArc
 50
270.0
 51
0.0
  0
ARC
  5
95D2
330
1F
100
AcDbEntity
  8
0
  6
Continuous
 62
     4
100
AcDbCircle
 10
783.2008756796881
 20
316.0435924319837
 30
0.0
 40
4.0
100
AcDbArc
 50
90.0
 51
180.0
  0
CIRCLE
  5
95D3
330
1F
100
AcDbEntity
  8
0
  6
Continuous
 62
     4
100
AcDbCircle
 10
868.000875679688
 20
309.2435924319837
 30
0.0
 40
1.8
  0
CIRCLE
  5
95D4
330
1F
100
AcDbEntity
  8
0
  6
Continuous
 62
     4
100
AcDbCircle
 10
826.4008756796879
 20
309.2435924319837
 30
0.0
 40
1.8
  0
CIRCLE
  5
95D5
330
1F
100
AcDbEntity
  8
0
  6
Continuous
 62
     4
100
AcDbCircle
 10
868.000875679688
 20
194.8435924319837
 30
0.0
 40
1.8
  0
CIRCLE
  5
95D6
330
1F
100
AcDbEntity
  8
0
  6
Continuous
 62
     4
100
AcDbCircle
 10
813.800875679688
 20
285.4435924319837
 30
0.0
 40
1.8
  0
CIRCLE
  5
95D7
330
1F
100
AcDbEntity
  8
0
  6
Continuous
 62
     4
100
AcDbCircle
 10
790.000875679688
 20
272.8435924319836
 30
0.0
 40
1.8
  0
CIRCLE
  5
95D8
330
1F
100
AcDbEntity
  8
0
  6
Continuous
 62
     4
100
AcDbCircle
 10
790.000875679688
 20
231.2435924319836
 30
0.0
 40
1.8
  0
CIRCLE
  5
95D9
330
1F
100
AcDbEntity
  8
0
  6
Continuous
 62
     4
100
AcDbCircle
 10
813.800875679688
 20
218.6435924319837
 30
0.0
 40
1.8
  0
CIRCLE
  5
95DA
330
1F
100
AcDbEntity
  8
0
  6
Continuous
 62
     4
100
AcDbCircle
 10
826.4008756796879
 20
194.8435924319837
 30
0.0
 40
1.8
  0
CIRCLE
  5
95DB
330
1F
100
AcDbEntity
  8
0
  6
Continuous
 62
     4
100
AcDbCircle
 10
904.4008756796879
 20
231.2435924319836
 30
0.0
 40
1.8
  0
CIRCLE
  5
95DC
330
1F
100
AcDbEntity
  8
0
  6
Continuous
 62
     4
100
AcDbCircle
 10
904.4008756796879
 20
272.8435924319836
 30
0.0
 40
1.8
  0
CIRCLE
  5
95DD
330
1F
100
AcDbEntity
  8
0
  6
Continuous
 62
     4
100
AcDbCircle
 10
880.6008756796879
 20
285.4435924319837
 30
0.0
 40
1.8
  0
CIRCLE
  5
95DE
330
1F
100
AcDbEntity
  8
0
  6
Continuous
 62
     4
100
AcDbCircle
 10
880.6008756796879
 20
218.6435924319837
 30
0.0
 40
1.8
  0
DIMENSION
  5
95DF
330
1F
100
AcDbEntity
  8
DIMENSION
100
AcDbDimension
  2
*D3
 10
915.2008756796879
 20
331.020470522662
 30
0.0
 11
847.2008756796878
 21
337.020470522662
 31
0.0
 70
    32
  1
170±1
 71
     5
 42
136.0
  3
SAXA-STANDARD
100
AcDbAlignedDimension
 13
779.2008756796879
 23
316.0435924319837
 33
0.0
 14
915.2008756796879
 24
316.0435924319837
 34
0.0
100
AcDbRotatedDimension
1001
ACAD
1000
DSTYLE
1002
{
1070
    47
1040
1.0
1070
    48
1040
1.0
1070
    71
1070
     1
1070
   144
1040
1.0
1070
   146
1040
1.0
1070
   271
1070
     1
1002
}
  0
DIMENSION
  5
95E0
330
1F
100
AcDbEntity
  8
DIMENSION
100
AcDbDimension
  2
*D2
 10
768.2239975890097
 20
184.0435924319837
 30
0.0
 11
768.2239975890097
 21
252.0435924319837
 31
0.0
 70
   160
  1
170±1
 71
     5
 42
136.0
  3
SAXA-STANDARD
100
AcDbAlignedDimension
 13
783.2008756796879
 23
320.0435924319837
 33
0.0
 14
783.2008756796879
 24
184.0435924319837
 34
0.0
 50
90.0
100
AcDbRotatedDimension
1001
ACAD
1000
DSTYLE
1002
{
1070
    47
1040
1.0
1070
    48
1040
1.0
1070
    71
1070
     1
1070
   146
1040
1.0
1070
   271
1070
     1
1002
}
  0
LINE
  5
95E4
330
1F
100
AcDbEntity
  8
0
  6
Continuous
 62
     4
100
AcDbLine
 10
938.2347339661814
 20
184.0435924319836
 30
0.0
 11
938.2347339661812
 21
320.0435924319837
 31
0.0
  0
LINE
  5
95E5
330
1F
100
AcDbEntity
  8
0
  6
Continuous
 62
     4
100
AcDbLine
 10
936.9547339661812
 20
320.0435924319837
 30
0.0
 11
938.2347339661814
 21
320.0435924319837
 31
0.0
  0
LINE
  5
95E6
330
1F
100
AcDbEntity
  8
0
  6
Continuous
 62
     4
100
AcDbLine
 10
936.9547339661812
 20
184.0435924319836
 30
0.0
 11
936.9547339661812
 21
320.0435924319837
 31
0.0
  0
LINE
  5
95E7
330
1F
100
AcDbEntity
  8
0
  6
Continuous
 62
     4
100
AcDbLine
 10
936.9547339661812
 20
184.0435924319836
 30
0.0
 11
938.2347339661814
 21
184.0435924319836
 31
0.0
  0
TEXT
  5
96AD
330
1F
100
AcDbEntity
  8
DIMENSION
100
AcDbText
 10
959.4613467871035
 20
348.1924440150198
 30
0.0
 40
5.0
  1
%%ut=1.6
 41
0.9
 51
15.0
  7
SAXA1
 11
959.4613467871035
 21
348.1924440150198
 31
0.0
100
AcDbText
 73
     1
  0
LINE
  5
9727
330
1F
100
AcDbEntity
  8
FRAME
100
AcDbLine
 10
1053.142786414216
 20
110.91646281998
 30
0.0
 11
654.1427864142159
 21
110.91646281998
 31
0.0
  0
LINE
  5
9728
330
1F
100
AcDbEntity
  8
FRAME
100
AcDbLine
 10
654.1427864142159
 20
110.91646281998
 30
0.0
 11
654.1427864142159
 21
393.06646281998
 31
0.0
  0
LINE
  5
9729
330
1F
100
AcDbEntity
  8
WAKU
 62
     1
100
AcDbLine
 10
706.2464857687465
 20
118.49146281998
 30
0.0
 11
706.2464857687465
 21
140.99146281998
 31
0.0
  0
TEXT
  5
972A
330
1F
100
AcDbEntity
  8
MOJI1
100
AcDbText
 10
739.8422998458585
 20
135.1005692861467
 30
0.0
 40
4.5
  1
幅１７０±１ｘ厚さ１．６ｘ高さ１７０±１
 41
0.8
  7
SAXA3
100
AcDbText
  0
LINE
  5
972B
330
1F
100
AcDbEntity
  8
WAKU
 62
     4
100
AcDbLine
 10
863.5922998458577
 20
118.49146281998
 30
0.0
 11
863.5922998458577
 21
140.99146281998
 31
0.0
  0
TEXT
  5
972C
330
1F
100
AcDbEntity
  8
MOJI1
100
AcDbText
 10
710.1842271622074
 20
135.1005692861464
 30
0.0
 40
4.5
  1
外観寸法
 41
0.8
  7
SAXA3
 72
     4
 11
718.3442271622074
 21
137.3505692861464
 31
0.0
100
AcDbText
  0
LINE
  5
972D
330
1F
100
AcDbEntity
  8
WAKU
 62
     4
100
AcDbLine
 10
706.2464857687465
 20
140.99146281998
 30
0.0
 11
706.2464857687465
 21
118.49146281998
 31
0.0
  0
LINE
  5
972E
330
1F
100
AcDbEntity
  8
WAKU
 62
     1
100
AcDbLine
 10
736.4006716916354
 20
118.49146281998
 30
0.0
 11
736.4006716916354
 21
140.99146281998
 31
0.0
  0
LINE
  5
972F
330
1F
100
AcDbEntity
  8
WAKU
 62
     4
100
AcDbLine
 10
706.2464857687465
 20
118.4914628199799
 30
0.0
 11
863.5922998458577
 21
118.49146281998
 31
0.0
  0
LINE
  5
9730
330
1F
100
AcDbEntity
  8
WAKU
 62
     1
100
AcDbLine
 10
863.5922998458577
 20
125.99146281998
 30
0.0
 11
706.2464857687465
 21
125.9914628199799
 31
0.0
  0
LINE
  5
9731
330
1F
100
AcDbEntity
  8
WAKU
 62
     1
100
AcDbLine
 10
863.5922998458577
 20
133.49146281998
 30
0.0
 11
706.2464857687465
 21
133.4914628199799
 31
0.0
  0
LINE
  5
9732
330
1F
100
AcDbEntity
  8
WAKU
 62
     1
100
AcDbLine
 10
863.5922998458577
 20
140.99146281998
 30
0.0
 11
706.2464857687465
 21
140.99146281998
 31
0.0
  0
LINE
  5
9733
330
1F
100
AcDbEntity
  8
WAKU
 62
     4
100
AcDbLine
 10
863.5922998458577
 20
140.99146281998
 30
0.0
 11
706.2464857687465
 21
140.99146281998
 31
0.0
  0
TEXT
  5
9734
330
1F
100
AcDbEntity
  8
MOJI1
100
AcDbText
 10
709.9964857687465
 20
127.49146281998
 30
0.0
 40
4.5
  1
質　　量
 41
0.8
  7
SAXA3
100
AcDbText
  0
TEXT
  5
9735
330
1F
100
AcDbEntity
  8
MOJI1
100
AcDbText
 10
709.9964857687465
 20
119.99146281998
 30
0.0
 40
4.5
  1
色
 41
0.8
  7
SAXA3
100
AcDbText
  0
TEXT
  5
9736
330
1F
100
AcDbEntity
  8
MOJI1
100
AcDbText
 10
739.8422998458585
 20
119.9914628199803
 30
0.0
 40
4.5
  1
ニッケルめっき
 41
0.8
  7
SAXA3
100
AcDbText
  0
TEXT
  5
9737
330
1F
100
AcDbEntity
  8
MOJI1
100
AcDbText
 10
739.8422998458585
 20
127.4914628199803
 30
0.0
 40
4.5
  1
約０．３ｋｇ
 41
0.8
  7
SAXA3
100
AcDbText
  0
LINE
  5
9738
330
1F
100
AcDbEntity
  8
FRAME
100
AcDbLine
 10
1063.642786414216
 20
103.49146281998
 30
0.0
 11
643.6427864142159
 21
103.49146281998
 31
0.0
  0
LINE
  5
9739
330
1F
100
AcDbEntity
  8
FRAME
100
AcDbLine
 10
643.6427864142159
 20
103.49146281998
 30
0.0
 11
643.6427864142159
 21
400.49146281998
 31
0.0
  0
LINE
  5
973A
330
1F
100
AcDbEntity
  8
52
  6
Continuous
 62
     2
100
AcDbLine
 10
645.6427864142169
 20
103.49146281998
 30
0.0
 11
643.6427864142168
 21
103.49146281998
 31
0.0
  0
LINE
  5
973B
330
1F
100
AcDbEntity
  8
52
  6
Continuous
 62
     2
100
AcDbLine
 10
643.6427864142168
 20
105.49146281998
 30
0.0
 11
643.6427864142168
 21
103.49146281998
 31
0.0
  0
LINE
  5
973C
330
1F
100
AcDbEntity
  8
52
  6
Continuous
 62
     2
100
AcDbLine
 10
643.6427864142168
 20
105.49146281998
 30
0.0
 11
643.6427864142168
 21
103.49146281998
 31
0.0
  0
LINE
  5
973D
330
1F
100
AcDbEntity
  8
52
  6
Continuous
 62
     2
100
AcDbLine
 10
645.6427864142169
 20
103.49146281998
 30
0.0
 11
643.6427864142168
 21
103.49146281998
 31
0.0
  0
LINE
  5
973E
330
1F
100
AcDbEntity
  8
52
  6
Continuous
 62
     2
100
AcDbLine
 10
643.6427864142168
 20
103.49146281998
 30
0.0
 11
643.6427864142168
 21
105.49146281998
 31
0.0
  0
LINE
  5
973F
330
1F
100
AcDbEntity
  8
52
  6
Continuous
 62
     2
100
AcDbLine
 10
643.6427864142168
 20
103.49146281998
 30
0.0
 11
643.6427864142168
 21
105.49146281998
 31
0.0
  0
LINE
  5
9740
330
1F
100
AcDbEntity
  8
52
  6
Continuous
 62
     2
100
AcDbLine
 10
643.6427864142168
 20
105.49146281998
 30
0.0
 11
643.6427864142168
 21
103.49146281998
 31
0.0
  0
LINE
  5
9741
330
1F
100
AcDbEntity
  8
52
  6
Continuous
 62
     2
100
AcDbLine
 10
643.6427864142168
 20
105.49146281998
 30
0.0
 11
643.6427864142168
 21
103.49146281998
 31
0.0
  0
LINE
  5
9742
330
1F
100
AcDbEntity
  8
52
  6
Continuous
 62
     2
100
AcDbLine
 10
643.6427864142168
 20
105.49146281998
 30
0.0
 11
643.6427864142168
 21
103.49146281998
 31
0.0
  0
LINE
  5
9743
330
1F
100
AcDbEntity
  8
52
  6
Continuous
 62
     2
100
AcDbLine
 10
645.6427864142169
 20
103.49146281998
 30
0.0
 11
643.6427864142168
 21
103.49146281998
 31
0.0
  0
LINE
  5
9744
330
1F
100
AcDbEntity
  8
52
  6
Continuous
 62
     2
100
AcDbLine
 10
643.6427864142168
 20
105.49146281998
 30
0.0
 11
643.6427864142168
 21
103.49146281998
 31
0.0
  0
LINE
  5
9745
330
1F
100
AcDbEntity
  8
52
  6
Continuous
 62
     2
100
AcDbLine
 10
643.6427864142168
 20
103.49146281998
 30
0.0
 11
645.6427864142169
 21
103.49146281998
 31
0.0
  0
TEXT
  5
9747
330
1F
100
AcDbEntity
  8
MOJI1
100
AcDbText
 10
899.7311653237233
 20
119.9914628199803
 30
0.0
 40
4.5
  1
パナソニック システムソリューションズ ジャパン株式会社
 41
0.8
  7
SAXA3
 72
     2
 11
1015.411165323723
 21
119.9914628199803
 31
0.0
100
AcDbText
  0
TEXT
  5
9748
330
1F
100
AcDbEntity
  8
MOJI1
100
AcDbText
 10
895.7462036856604
 20
127.49146281998
 30
0.0
 40
4.5
  1
品　　番
 41
0.8
  7
SAXA3
100
AcDbText
  0
LINE
  5
9749
330
1F
100
AcDbEntity
  8
WAKU
 62
     1
100
AcDbLine
 10
922.1503896085486
 20
125.99146281998
 30
0.0
 11
922.1503896085486
 21
140.99146281998
 31
0.0
  0
TEXT
  5
974A
330
1F
100
AcDbEntity
  8
MOJI1
100
AcDbText
 10
925.5920177627722
 20
134.9914628199804
 30
0.0
 40
4.5
  1
ＩＰＯ電話機２用　壁掛取付用品
 41
0.8
  7
MS P ゴシック
100
AcDbText
  0
LINE
  5
974B
330
1F
100
AcDbEntity
  8
WAKU
 62
     4
100
AcDbLine
 10
1031.193272982574
 20
125.99146281998
 30
0.0
 11
1031.193272982575
 21
155.99146281998
 31
0.0
  0
TEXT
  5
974C
330
1F
100
AcDbEntity
  8
MOJI1
100
AcDbText
 10
932.314738334117
 20
143.99146281998
 30
0.0
 40
9.0
  1
仕様／外形寸法
 41
0.8
  7
SAXA3
 72
     4
 11
961.594738334117
 21
148.49146281998
 31
0.0
100
AcDbText
  0
LINE
  5
974D
330
1F
100
AcDbEntity
  8
WAKU
 62
     4
100
AcDbLine
 10
891.9962036856603
 20
155.99146281998
 30
0.0
 11
891.9962036856603
 21
125.99146281998
 31
0.0
  0
LINE
  5
974E
330
1F
100
AcDbEntity
  8
WAKU
 62
     4
100
AcDbLine
 10
891.9962036856603
 20
125.99146281998
 30
0.0
 11
1031.193272982575
 21
125.99146281998
 31
0.0
  0
LINE
  5
974F
330
1F
100
AcDbEntity
  8
WAKU
 62
     1
100
AcDbLine
 10
1031.193272982575
 20
133.49146281998
 30
0.0
 11
891.9962036856603
 21
133.49146281998
 31
0.0
  0
LINE
  5
9750
330
1F
100
AcDbEntity
  8
WAKU
 62
     1
100
AcDbLine
 10
1031.193272982574
 20
140.99146281998
 30
0.0
 11
891.9962036856603
 21
140.99146281998
 31
0.0
  0
LINE
  5
9751
330
1F
100
AcDbEntity
  8
WAKU
 62
     4
100
AcDbLine
 10
1031.193272982575
 20
155.99146281998
 30
0.0
 11
891.9962036856603
 21
155.99146281998
 31
0.0
  0
TEXT
  5
9752
330
1F
100
AcDbEntity
  8
MOJI1
100
AcDbText
 10
895.7462036856604
 20
134.99146281998
 30
0.0
 40
4.5
  1
品　　名
 41
0.8
  7
SAXA3
100
AcDbText
  0
LINE
  5
9753
330
1F
100
AcDbEntity
  8
FRAME
100
AcDbLine
 10
1053.142786414216
 20
110.91646281998
 30
0.0
 11
1053.142786414216
 21
393.06646281998
 31
0.0
  0
LINE
  5
9754
330
1F
100
AcDbEntity
  8
FRAME
100
AcDbLine
 10
1063.642786414216
 20
103.49146281998
 30
0.0
 11
1063.642786414216
 21
400.49146281998
 31
0.0
  0
LINE
  5
9755
330
1F
100
AcDbEntity
  8
FRAME
100
AcDbLine
 10
1063.642786414216
 20
103.49146281998
 30
0.0
 11
1063.642786414216
 21
400.49146281998
 31
0.0
  0
LINE
  5
9756
330
1F
100
AcDbEntity
  8
FRAME
100
AcDbLine
 10
1053.142786414216
 20
393.06646281998
 30
0.0
 11
654.1427864142159
 21
393.06646281998
 31
0.0
  0
LINE
  5
9757
330
1F
100
AcDbEntity
  8
WAKU
 62
     4
100
AcDbLine
 10
1042.891257433935
 20
380.0636149831971
 30
0.0
 11
1007.556610705127
 21
380.0636149831971
 31
0.0
  0
TEXT
  5
9758
330
1F
100
AcDbEntity
  8
MOJI1
100
AcDbText
 10
1028.973934069531
 20
381.5636149831971
 30
0.0
 40
4.5
  1
ｍｍ
 41
0.8
  7
SAXA3
100
AcDbText
  0
LINE
  5
9759
330
1F
100
AcDbEntity
  8
WAKU
 62
     4
100
AcDbLine
 10
1042.891257433935
 20
380.0636149831971
 30
0.0
 11
1042.891257433935
 21
387.5636149831974
 31
0.0
  0
TEXT
  5
975A
330
1F
100
AcDbEntity
  8
MOJI1
100
AcDbText
 10
1011.306610705126
 20
381.5636149831971
 30
0.0
 40
4.5
  1
単位
 41
0.8
  7
SAXA3
100
AcDbText
  0
LINE
  5
975B
330
1F
100
AcDbEntity
  8
WAKU
 62
     4
100
AcDbLine
 10
1007.556610705127
 20
387.5636149831971
 30
0.0
 11
1007.556610705127
 21
380.0636149831971
 31
0.0
  0
LINE
  5
975C
330
1F
100
AcDbEntity
  8
WAKU
 62
     4
100
AcDbLine
 10
1025.223934069531
 20
380.0636149831971
 30
0.0
 11
1025.223934069531
 21
387.5636149831974
 31
0.0
  0
LINE
  5
975D
330
1F
100
AcDbEntity
  8
WAKU
 62
     4
100
AcDbLine
 10
1042.891257433935
 20
387.5636149831971
 30
0.0
 11
1007.556610705127
 21
387.5636149831971
 31
0.0
  0
LINE
  5
975E
330
1F
100
AcDbEntity
  8
FRAME
100
AcDbLine
 10
1063.642786414216
 20
400.49146281998
 30
0.0
 11
643.6427864142159
 21
400.49146281998
 31
0.0
  0
LINE
  5
975F
330
1F
100
AcDbEntity
  8
FRAME
100
AcDbLine
 10
1063.642786414216
 20
400.49146281998
 30
0.0
 11
643.6427864142159
 21
400.49146281998
 31
0.0
  0
LINE
  5
9760
330
1F
100
AcDbEntity
  8
52
  6
Continuous
 62
     2
100
AcDbLine
 10
1063.642786414216
 20
400.49146281998
 30
0.0
 11
1061.642786414216
 21
400.49146281998
 31
0.0
  0
LINE
  5
9761
330
1F
100
AcDbEntity
  8
52
  6
Continuous
 62
     2
100
AcDbLine
 10
1063.642786414216
 20
400.49146281998
 30
0.0
 11
1063.642786414216
 21
398.4914628199801
 31
0.0
  0
LINE
  5
9762
330
1F
100
AcDbEntity
  8
52
  6
Continuous
 62
     2
100
AcDbLine
 10
1063.642786414216
 20
400.49146281998
 30
0.0
 11
1063.642786414216
 21
398.4914628199801
 31
0.0
  0
LINE
  5
9763
330
1F
100
AcDbEntity
  8
52
  6
Continuous
 62
     2
100
AcDbLine
 10
1063.642786414216
 20
400.49146281998
 30
0.0
 11
1063.642786414216
 21
398.4914628199801
 31
0.0
  0
LINE
  5
9764
330
1F
100
AcDbEntity
  8
52
  6
Continuous
 62
     2
100
AcDbLine
 10
1063.642786414216
 20
400.49146281998
 30
0.0
 11
1063.642786414216
 21
398.4914628199801
 31
0.0
  0
LINE
  5
9765
330
1F
100
AcDbEntity
  8
52
  6
Continuous
 62
     2
100
AcDbLine
 10
1063.642786414216
 20
400.49146281998
 30
0.0
 11
1061.642786414216
 21
400.49146281998
 31
0.0
  0
LINE
  5
9766
330
1F
100
AcDbEntity
  8
52
  6
Continuous
 62
     2
100
AcDbLine
 10
643.6427864142168
 20
400.49146281998
 30
0.0
 11
643.6427864142168
 21
398.4914628199801
 31
0.0
  0
LINE
  5
9767
330
1F
100
AcDbEntity
  8
52
  6
Continuous
 62
     2
100
AcDbLine
 10
643.6427864142168
 20
400.49146281998
 30
0.0
 11
643.6427864142168
 21
398.4914628199801
 31
0.0
  0
LINE
  5
9768
330
1F
100
AcDbEntity
  8
52
  6
Continuous
 62
     2
100
AcDbLine
 10
643.6427864142168
 20
400.49146281998
 30
0.0
 11
643.6427864142168
 21
398.4914628199801
 31
0.0
  0
LINE
  5
9769
330
1F
100
AcDbEntity
  8
52
  6
Continuous
 62
     2
100
AcDbLine
 10
643.6427864142168
 20
400.49146281998
 30
0.0
 11
643.6427864142168
 21
398.4914628199801
 31
0.0
  0
LINE
  5
976A
330
1F
100
AcDbEntity
  8
52
  6
Continuous
 62
     2
100
AcDbLine
 10
1063.642786414216
 20
400.49146281998
 30
0.0
 11
1063.642786414216
 21
398.4914628199801
 31
0.0
  0
LINE
  5
976B
330
1F
100
AcDbEntity
  8
52
  6
Continuous
 62
     2
100
AcDbLine
 10
1063.642786414216
 20
400.49146281998
 30
0.0
 11
1063.642786414216
 21
398.4914628199801
 31
0.0
  0
LINE
  5
976C
330
1F
100
AcDbEntity
  8
52
  6
Continuous
 62
     2
100
AcDbLine
 10
1063.642786414216
 20
400.49146281998
 30
0.0
 11
1063.642786414216
 21
398.4914628199801
 31
0.0
  0
LINE
  5
976D
330
1F
100
AcDbEntity
  8
52
  6
Continuous
 62
     2
100
AcDbLine
 10
1063.642786414216
 20
400.49146281998
 30
0.0
 11
1061.642786414216
 21
400.49146281998
 31
0.0
  0
LINE
  5
976E
330
1F
100
AcDbEntity
  8
52
  6
Continuous
 62
     2
100
AcDbLine
 10
1063.642786414216
 20
400.49146281998
 30
0.0
 11
1063.642786414216
 21
398.4914628199801
 31
0.0
  0
LINE
  5
976F
330
1F
100
AcDbEntity
  8
52
  6
Continuous
 62
     2
100
AcDbLine
 10
643.6427864142168
 20
400.49146281998
 30
0.0
 11
645.6427864142169
 21
400.49146281998
 31
0.0
  0
LINE
  5
9770
330
1F
100
AcDbEntity
  8
52
  6
Continuous
 62
     2
100
AcDbLine
 10
643.6427864142168
 20
400.49146281998
 30
0.0
 11
643.6427864142168
 21
398.4914628199801
 31
0.0
  0
TEXT
  5
9792
330
1F
100
AcDbEntity
  8
MOJI1
100
AcDbText
 10
925.5920177627722
 20
127.4914628199804
 30
0.0
 40
4.5
  1
４ＹＢ１２６１－１０３６Ｐ０１０
 41
0.8
  7
MS P ゴシック
100
AcDbText
  0
ENDSEC
  0
SECTION
  2
OBJECTS
  0
DICTIONARY
  5
C
330
0
100
AcDbDictionary
281
     1
  3
ACAD_COLOR
350
21C
  3
ACAD_GROUP
350
D
  3
ACAD_LAYOUT
350
1A
  3
ACAD_MATERIAL
350
3B
  3
ACAD_MLEADERSTYLE
350
1F0
  3
ACAD_MLINESTYLE
350
17
  3
ACAD_PLOTSETTINGS
350
19
  3
ACAD_PLOTSTYLENAME
350
E
  3
ACAD_SCALELIST
350
4B
  3
ACAD_VISUALSTYLE
350
2A
  3
AcDbVariableDictionary
350
1EE
  0
DICTIONARY
  5
24C
330
2
100
AcDbDictionary
280
     1
281
     1
  3
ACAD_LAYERFILTERS
360
8E9C
  3
ACAD_LAYERSTATES
360
24D
  0
DICTIONARY
  5
96D0
330
96CF
100
AcDbDictionary
280
     1
281
     1
  3
ADSK_XREC_LAYER_RECONCILED
360
96D1
  0
DICTIONARY
  5
96D3
330
96D2
100
AcDbDictionary
280
     1
281
     1
  3
ADSK_XREC_LAYER_RECONCILED
360
96D4
  0
DICTIONARY
  5
21C
102
{ACAD_REACTORS
330
C
102
}
330
C
100
AcDbDictionary
281
     1
  0
DICTIONARY
  5
D
102
{ACAD_REACTORS
330
C
102
}
330
C
100
AcDbDictionary
281
     1
  0
DICTIONARY
  5
1A
102
{ACAD_REACTORS
330
C
102
}
330
C
100
AcDbDictionary
281
     1
  3
Layout1
350
1E
  3
Layout2
350
26
  3
Model
350
22
  0
DICTIONARY
  5
3B
102
{ACAD_REACTORS
330
C
102
}
330
C
100
AcDbDictionary
281
     1
  3
ByBlock
350
3D
  3
ByLayer
350
3C
  3
Global
350
3E
  0
DICTIONARY
  5
1F0
102
{ACAD_REACTORS
330
C
102
}
330
C
100
AcDbDictionary
281
     1
  0
DICTIONARY
  5
17
102
{ACAD_REACTORS
330
C
102
}
330
C
100
AcDbDictionary
281
     1
  3
Standard
350
18
  0
DICTIONARY
  5
19
102
{ACAD_REACTORS
330
C
102
}
330
C
100
AcDbDictionary
281
     1
  0
ACDBDICTIONARYWDFLT
  5
E
102
{ACAD_REACTORS
330
C
102
}
330
C
100
AcDbDictionary
281
     1
  3
Normal
350
F
100
AcDbDictionaryWithDefault
340
F
  0
DICTIONARY
  5
4B
102
{ACAD_REACTORS
330
C
102
}
330
C
100
AcDbDictionary
281
     1
  3
A0
350
4C
  3
A1
350
4D
  3
A2
350
4E
  3
A3
350
4F
  3
A4
350
50
  3
A5
350
51
  3
A6
350
52
  3
A7
350
53
  3
A8
350
54
  3
A9
350
55
  3
B0
350
56
  3
B1
350
57
  3
B2
350
58
  3
B3
350
59
  3
B4
350
5A
  3
B5
350
5B
  3
B6
350
5C
  3
B7
350
5D
  3
B8
350
5E
  3
B9
350
5F
  3
C0
350
60
  3
C1
350
61
  3
C2
350
62
  3
C3
350
63
  3
C4
350
64
  3
C5
350
65
  3
C6
350
66
  3
C7
350
67
  3
C8
350
68
  3
C9
350
69
  3
D0
350
6A
  3
D1
350
6B
  3
D2
350
6C
  0
DICTIONARY
  5
2A
102
{ACAD_REACTORS
330
C
102
}
330
C
100
AcDbDictionary
281
     1
  3
2dWireframe
350
2F
  3
3D Hidden
350
31
  3
3dWireframe
350
30
  3
Basic
350
32
  3
Brighten
350
36
  3
ColorChange
350
3A
  3
Conceptual
350
34
  3
Dim
350
35
  3
Facepattern
350
39
  3
Flat
350
2B
  3
FlatWithEdges
350
2C
  3
Gouraud
350
2D
  3
GouraudWithEdges
350
2E
  3
Linepattern
350
38
  3
Realistic
350
33
  3
Thicken
350
37
  0
DICTIONARY
  5
1EE
102
{ACAD_REACTORS
330
C
102
}
330
C
100
AcDbDictionary
281
     1
  3
CANNOSCALE
350
1F1
  3
DIMASSOC
350
1F2
  3
HIDETEXT
350
1F3
  3
PROJECTNAME
350
9104
  0
DICTIONARY
  5
8E9C
102
{ACAD_REACTORS
330
24C
102
}
330
24C
100
AcDbDictionary
281
     1
  0
DICTIONARY
  5
24D
102
{ACAD_REACTORS
330
24C
102
}
330
24C
100
AcDbDictionary
281
     1
  0
XRECORD
  5
96D1
102
{ACAD_REACTORS
330
96D0
102
}
330
96D0
100
AcDbXrecord
280
     1
290
     1
  0
XRECORD
  5
96D4
102
{ACAD_REACTORS
330
96D3
102
}
330
96D3
100
AcDbXrecord
280
     1
290
     1
  0
LAYOUT
  5
1E
102
{ACAD_REACTORS
330
1A
102
}
330
1A
100
AcDbPlotSettings
  1

  2
none_device
  4

  6

 40
0.0
 41
0.0
 42
0.0
 43
0.0
 44
0.0
 45
0.0
 46
0.0
 47
0.0
 48
0.0
 49
0.0
140
0.0
141
0.0
142
1.0
143
1.0
 70
   688
 72
     0
 73
     0
 74
     5
  7
monochrome.ctb
 75
    16
147
1.0
 76
     0
 77
     2
 78
   300
148
0.0
149
0.0
100
AcDbLayout
  1
Layout1
 70
     1
 71
     1
 10
0.0
 20
0.0
 11
12.0
 21
9.0
 12
0.0
 22
0.0
 32
0.0
 14
1.000000000000000E+20
 24
1.000000000000000E+20
 34
1.000000000000000E+20
 15
-1.000000000000000E+20
 25
-1.000000000000000E+20
 35
-1.000000000000000E+20
146
0.0
 13
0.0
 23
0.0
 33
0.0
 16
1.0
 26
0.0
 36
0.0
 17
0.0
 27
1.0
 37
0.0
 76
     0
330
1B
  0
LAYOUT
  5
26
102
{ACAD_REACTORS
330
1A
102
}
330
1A
100
AcDbPlotSettings
  1

  2
none_device
  4

  6

 40
0.0
 41
0.0
 42
0.0
 43
0.0
 44
0.0
 45
0.0
 46
0.0
 47
0.0
 48
0.0
 49
0.0
140
0.0
141
0.0
142
1.0
143
1.0
 70
   688
 72
     0
 73
     0
 74
     5
  7
monochrome.ctb
 75
    16
147
1.0
 76
     0
 77
     2
 78
   300
148
0.0
149
0.0
100
AcDbLayout
  1
Layout2
 70
     1
 71
     2
 10
0.0
 20
0.0
 11
0.0
 21
0.0
 12
0.0
 22
0.0
 32
0.0
 14
0.0
 24
0.0
 34
0.0
 15
0.0
 25
0.0
 35
0.0
146
0.0
 13
0.0
 23
0.0
 33
0.0
 16
1.0
 26
0.0
 36
0.0
 17
0.0
 27
1.0
 37
0.0
 76
     0
330
23
  0
LAYOUT
  5
22
102
{ACAD_REACTORS
330
1A
102
}
330
1A
100
AcDbPlotSettings
  1

  2
KONICA MINOLTA C754SeriesPCL(1)
  4
A4
  6

 40
5.027083396911621
 41
5.027085304260253
 42
5.027084350585937
 43
5.027069091796875
 44
209.9733276367187
 45
296.9259948730469
 46
-3.89
 47
-3.419999999999999
 48
643.6427864142159
 49
103.49146281998
140
1063.642786414216
141
400.49146281998
142
1.0
143
1.429999999999999
 70
 11940
 72
     1
 73
     1
 74
     4
  7
monochrome.ctb
 75
     0
147
0.6993006993006994
 76
     0
 77
     2
 78
   300
148
-643.6427864142159
149
-103.49146281998
100
AcDbLayout
  1
Model
 70
     1
 71
     0
 10
0.0
 20
0.0
 11
12.0
 21
9.0
 12
0.0
 22
0.0
 32
0.0
 14
643.6427864142159
 24
103.49146281998
 34
0.0
 15
1063.642786414216
 25
400.49146281998
 35
0.0
146
0.0
 13
0.0
 23
0.0
 33
0.0
 16
1.0
 26
0.0
 36
0.0
 17
0.0
 27
1.0
 37
0.0
 76
     0
330
1F
  0
MATERIAL
  5
3D
330
3B
100
AcDbMaterial
  1
ByBlock
  0
MATERIAL
  5
3C
330
3B
100
AcDbMaterial
  1
ByLayer
  0
MATERIAL
  5
3E
330
3B
100
AcDbMaterial
  1
Global
  0
MLINESTYLE
  5
18
102
{ACAD_REACTORS
330
17
102
}
330
17
100
AcDbMlineStyle
  2
STANDARD
 70
     0
  3

 62
   256
 51
90.0
 52
90.0
 71
     2
 49
0.5
 62
   256
  6
BYLAYER
 49
-0.5
 62
   256
  6
BYLAYER
  0
ACDBPLACEHOLDER
  5
F
102
{ACAD_REACTORS
330
E
102
}
330
E
  0
ACAD_PROXY_OBJECT
  5
4C
102
{ACAD_REACTORS
330
4B
102
}
330
4B
100
AcDbProxyObject
 90
      499
 91
      503
 95
   393239
 70
     1
100
AcDbScale
 70
     0
300
1:1
140
1.0
141
1.0
290
     1
1001
ACAD
1000
AcRTDxfName
1000
SCALE
1000
AcRTDxfName
1000
SCALE
1000
AcRTDxfName
1000
SCALE
  0
ACAD_PROXY_OBJECT
  5
4D
102
{ACAD_REACTORS
330
4B
102
}
330
4B
100
AcDbProxyObject
 90
      499
 91
      503
 95
   393239
 70
     1
100
AcDbScale
 70
     0
300
1:2
140
1.0
141
2.0
290
     0
1001
ACAD
1000
AcRTDxfName
1000
SCALE
1000
AcRTDxfName
1000
SCALE
1000
AcRTDxfName
1000
SCALE
  0
ACAD_PROXY_OBJECT
  5
4E
102
{ACAD_REACTORS
330
4B
102
}
330
4B
100
AcDbProxyObject
 90
      499
 91
      503
 95
   393239
 70
     1
100
AcDbScale
 70
     0
300
1:4
140
1.0
141
4.0
290
     0
1001
ACAD
1000
AcRTDxfName
1000
SCALE
1000
AcRTDxfName
1000
SCALE
1000
AcRTDxfName
1000
SCALE
  0
ACAD_PROXY_OBJECT
  5
4F
102
{ACAD_REACTORS
330
4B
102
}
330
4B
100
AcDbProxyObject
 90
      499
 91
      503
 95
   393239
 70
     1
100
AcDbScale
 70
     0
300
1:5
140
1.0
141
5.0
290
     0
1001
ACAD
1000
AcRTDxfName
1000
SCALE
1000
AcRTDxfName
1000
SCALE
1000
AcRTDxfName
1000
SCALE
  0
ACAD_PROXY_OBJECT
  5
50
102
{ACAD_REACTORS
330
4B
102
}
330
4B
100
AcDbProxyObject
 90
      499
 91
      503
 95
   393239
 70
     1
100
AcDbScale
 70
     0
300
1:8
140
1.0
141
8.0
290
     0
1001
ACAD
1000
AcRTDxfName
1000
SCALE
1000
AcRTDxfName
1000
SCALE
1000
AcRTDxfName
1000
SCALE
  0
ACAD_PROXY_OBJECT
  5
51
102
{ACAD_REACTORS
330
4B
102
}
330
4B
100
AcDbProxyObject
 90
      499
 91
      503
 95
   393239
 70
     1
100
AcDbScale
 70
     0
300
1:10
140
1.0
141
10.0
290
     0
1001
ACAD
1000
AcRTDxfName
1000
SCALE
1000
AcRTDxfName
1000
SCALE
1000
AcRTDxfName
1000
SCALE
  0
ACAD_PROXY_OBJECT
  5
52
102
{ACAD_REACTORS
330
4B
102
}
330
4B
100
AcDbProxyObject
 90
      499
 91
      503
 95
   393239
 70
     1
100
AcDbScale
 70
     0
300
1:16
140
1.0
141
16.0
290
     0
1001
ACAD
1000
AcRTDxfName
1000
SCALE
1000
AcRTDxfName
1000
SCALE
1000
AcRTDxfName
1000
SCALE
  0
ACAD_PROXY_OBJECT
  5
53
102
{ACAD_REACTORS
330
4B
102
}
330
4B
100
AcDbProxyObject
 90
      499
 91
      503
 95
   393239
 70
     1
100
AcDbScale
 70
     0
300
1:20
140
1.0
141
20.0
290
     0
1001
ACAD
1000
AcRTDxfName
1000
SCALE
1000
AcRTDxfName
1000
SCALE
1000
AcRTDxfName
1000
SCALE
  0
ACAD_PROXY_OBJECT
  5
54
102
{ACAD_REACTORS
330
4B
102
}
330
4B
100
AcDbProxyObject
 90
      499
 91
      503
 95
   393239
 70
     1
100
AcDbScale
 70
     0
300
1:30
140
1.0
141
30.0
290
     0
1001
ACAD
1000
AcRTDxfName
1000
SCALE
1000
AcRTDxfName
1000
SCALE
1000
AcRTDxfName
1000
SCALE
  0
ACAD_PROXY_OBJECT
  5
55
102
{ACAD_REACTORS
330
4B
102
}
330
4B
100
AcDbProxyObject
 90
      499
 91
      503
 95
   393239
 70
     1
100
AcDbScale
 70
     0
300
1:40
140
1.0
141
40.0
290
     0
1001
ACAD
1000
AcRTDxfName
1000
SCALE
1000
AcRTDxfName
1000
SCALE
1000
AcRTDxfName
1000
SCALE
  0
ACAD_PROXY_OBJECT
  5
56
102
{ACAD_REACTORS
330
4B
102
}
330
4B
100
AcDbProxyObject
 90
      499
 91
      503
 95
   393239
 70
     1
100
AcDbScale
 70
     0
300
1:50
140
1.0
141
50.0
290
     0
1001
ACAD
1000
AcRTDxfName
1000
SCALE
1000
AcRTDxfName
1000
SCALE
1000
AcRTDxfName
1000
SCALE
  0
ACAD_PROXY_OBJECT
  5
57
102
{ACAD_REACTORS
330
4B
102
}
330
4B
100
AcDbProxyObject
 90
      499
 91
      503
 95
   393239
 70
     1
100
AcDbScale
 70
     0
300
1:100
140
1.0
141
100.0
290
     0
1001
ACAD
1000
AcRTDxfName
1000
SCALE
1000
AcRTDxfName
1000
SCALE
1000
AcRTDxfName
1000
SCALE
  0
ACAD_PROXY_OBJECT
  5
58
102
{ACAD_REACTORS
330
4B
102
}
330
4B
100
AcDbProxyObject
 90
      499
 91
      503
 95
   393239
 70
     1
100
AcDbScale
 70
     0
300
2:1
140
2.0
141
1.0
290
     0
1001
ACAD
1000
AcRTDxfName
1000
SCALE
1000
AcRTDxfName
1000
SCALE
1000
AcRTDxfName
1000
SCALE
  0
ACAD_PROXY_OBJECT
  5
59
102
{ACAD_REACTORS
330
4B
102
}
330
4B
100
AcDbProxyObject
 90
      499
 91
      503
 95
   393239
 70
     1
100
AcDbScale
 70
     0
300
4:1
140
4.0
141
1.0
290
     0
1001
ACAD
1000
AcRTDxfName
1000
SCALE
1000
AcRTDxfName
1000
SCALE
1000
AcRTDxfName
1000
SCALE
  0
ACAD_PROXY_OBJECT
  5
5A
102
{ACAD_REACTORS
330
4B
102
}
330
4B
100
AcDbProxyObject
 90
      499
 91
      503
 95
   393239
 70
     1
100
AcDbScale
 70
     0
300
8:1
140
8.0
141
1.0
290
     0
1001
ACAD
1000
AcRTDxfName
1000
SCALE
1000
AcRTDxfName
1000
SCALE
1000
AcRTDxfName
1000
SCALE
  0
ACAD_PROXY_OBJECT
  5
5B
102
{ACAD_REACTORS
330
4B
102
}
330
4B
100
AcDbProxyObject
 90
      499
 91
      503
 95
   393239
 70
     1
100
AcDbScale
 70
     0
300
10:1
140
10.0
141
1.0
290
     0
1001
ACAD
1000
AcRTDxfName
1000
SCALE
1000
AcRTDxfName
1000
SCALE
1000
AcRTDxfName
1000
SCALE
  0
ACAD_PROXY_OBJECT
  5
5C
102
{ACAD_REACTORS
330
4B
102
}
330
4B
100
AcDbProxyObject
 90
      499
 91
      503
 95
   393239
 70
     1
100
AcDbScale
 70
     0
300
100:1
140
100.0
141
1.0
290
     0
1001
ACAD
1000
AcRTDxfName
1000
SCALE
1000
AcRTDxfName
1000
SCALE
1000
AcRTDxfName
1000
SCALE
  0
ACAD_PROXY_OBJECT
  5
5D
102
{ACAD_REACTORS
330
4B
102
}
330
4B
100
AcDbProxyObject
 90
      499
 91
      503
 95
   393239
 70
     1
100
AcDbScale
 70
     0
300
1/128" = 1'-0"
140
0.0078125
141
12.0
290
     0
1001
ACAD
1000
AcRTDxfName
1000
SCALE
1000
AcRTDxfName
1000
SCALE
1000
AcRTDxfName
1000
SCALE
  0
ACAD_PROXY_OBJECT
  5
5E
102
{ACAD_REACTORS
330
4B
102
}
330
4B
100
AcDbProxyObject
 90
      499
 91
      503
 95
   393239
 70
     1
100
AcDbScale
 70
     0
300
1/64" = 1'-0"
140
0.015625
141
12.0
290
     0
1001
ACAD
1000
AcRTDxfName
1000
SCALE
1000
AcRTDxfName
1000
SCALE
1000
AcRTDxfName
1000
SCALE
  0
ACAD_PROXY_OBJECT
  5
5F
102
{ACAD_REACTORS
330
4B
102
}
330
4B
100
AcDbProxyObject
 90
      499
 91
      503
 95
   393239
 70
     1
100
AcDbScale
 70
     0
300
1/32" = 1'-0"
140
0.03125
141
12.0
290
     0
1001
ACAD
1000
AcRTDxfName
1000
SCALE
1000
AcRTDxfName
1000
SCALE
1000
AcRTDxfName
1000
SCALE
  0
ACAD_PROXY_OBJECT
  5
60
102
{ACAD_REACTORS
330
4B
102
}
330
4B
100
AcDbProxyObject
 90
      499
 91
      503
 95
   393239
 70
     1
100
AcDbScale
 70
     0
300
1/16" = 1'-0"
140
0.0625
141
12.0
290
     0
1001
ACAD
1000
AcRTDxfName
1000
SCALE
1000
AcRTDxfName
1000
SCALE
1000
AcRTDxfName
1000
SCALE
  0
ACAD_PROXY_OBJECT
  5
61
102
{ACAD_REACTORS
330
4B
102
}
330
4B
100
AcDbProxyObject
 90
      499
 91
      503
 95
   393239
 70
     1
100
AcDbScale
 70
     0
300
3/32" = 1'-0"
140
0.09375
141
12.0
290
     0
1001
ACAD
1000
AcRTDxfName
1000
SCALE
1000
AcRTDxfName
1000
SCALE
1000
AcRTDxfName
1000
SCALE
  0
ACAD_PROXY_OBJECT
  5
62
102
{ACAD_REACTORS
330
4B
102
}
330
4B
100
AcDbProxyObject
 90
      499
 91
      503
 95
   393239
 70
     1
100
AcDbScale
 70
     0
300
1/8" = 1'-0"
140
0.125
141
12.0
290
     0
1001
ACAD
1000
AcRTDxfName
1000
SCALE
1000
AcRTDxfName
1000
SCALE
1000
AcRTDxfName
1000
SCALE
  0
ACAD_PROXY_OBJECT
  5
63
102
{ACAD_REACTORS
330
4B
102
}
330
4B
100
AcDbProxyObject
 90
      499
 91
      503
 95
   393239
 70
     1
100
AcDbScale
 70
     0
300
3/16" = 1'-0"
140
0.1875
141
12.0
290
     0
1001
ACAD
1000
AcRTDxfName
1000
SCALE
1000
AcRTDxfName
1000
SCALE
1000
AcRTDxfName
1000
SCALE
  0
ACAD_PROXY_OBJECT
  5
64
102
{ACAD_REACTORS
330
4B
102
}
330
4B
100
AcDbProxyObject
 90
      499
 91
      503
 95
   393239
 70
     1
100
AcDbScale
 70
     0
300
1/4" = 1'-0"
140
0.25
141
12.0
290
     0
1001
ACAD
1000
AcRTDxfName
1000
SCALE
1000
AcRTDxfName
1000
SCALE
1000
AcRTDxfName
1000
SCALE
  0
ACAD_PROXY_OBJECT
  5
65
102
{ACAD_REACTORS
330
4B
102
}
330
4B
100
AcDbProxyObject
 90
      499
 91
      503
 95
   393239
 70
     1
100
AcDbScale
 70
     0
300
3/8" = 1'-0"
140
0.375
141
12.0
290
     0
1001
ACAD
1000
AcRTDxfName
1000
SCALE
1000
AcRTDxfName
1000
SCALE
1000
AcRTDxfName
1000
SCALE
  0
ACAD_PROXY_OBJECT
  5
66
102
{ACAD_REACTORS
330
4B
102
}
330
4B
100
AcDbProxyObject
 90
      499
 91
      503
 95
   393239
 70
     1
100
AcDbScale
 70
     0
300
1/2" = 1'-0"
140
0.5
141
12.0
290
     0
1001
ACAD
1000
AcRTDxfName
1000
SCALE
1000
AcRTDxfName
1000
SCALE
1000
AcRTDxfName
1000
SCALE
  0
ACAD_PROXY_OBJECT
  5
67
102
{ACAD_REACTORS
330
4B
102
}
330
4B
100
AcDbProxyObject
 90
      499
 91
      503
 95
   393239
 70
     1
100
AcDbScale
 70
     0
300
3/4" = 1'-0"
140
0.75
141
12.0
290
     0
1001
ACAD
1000
AcRTDxfName
1000
SCALE
1000
AcRTDxfName
1000
SCALE
1000
AcRTDxfName
1000
SCALE
  0
ACAD_PROXY_OBJECT
  5
68
102
{ACAD_REACTORS
330
4B
102
}
330
4B
100
AcDbProxyObject
 90
      499
 91
      503
 95
   393239
 70
     1
100
AcDbScale
 70
     0
300
1" = 1'-0"
140
1.0
141
12.0
290
     0
1001
ACAD
1000
AcRTDxfName
1000
SCALE
1000
AcRTDxfName
1000
SCALE
1000
AcRTDxfName
1000
SCALE
  0
ACAD_PROXY_OBJECT
  5
69
102
{ACAD_REACTORS
330
4B
102
}
330
4B
100
AcDbProxyObject
 90
      499
 91
      503
 95
   393239
 70
     1
100
AcDbScale
 70
     0
300
1-1/2" = 1'-0"
140
1.5
141
12.0
290
     0
1001
ACAD
1000
AcRTDxfName
1000
SCALE
1000
AcRTDxfName
1000
SCALE
1000
AcRTDxfName
1000
SCALE
  0
ACAD_PROXY_OBJECT
  5
6A
102
{ACAD_REACTORS
330
4B
102
}
330
4B
100
AcDbProxyObject
 90
      499
 91
      503
 95
   393239
 70
     1
100
AcDbScale
 70
     0
300
3" = 1'-0"
140
3.0
141
12.0
290
     0
1001
ACAD
1000
AcRTDxfName
1000
SCALE
1000
AcRTDxfName
1000
SCALE
1000
AcRTDxfName
1000
SCALE
  0
ACAD_PROXY_OBJECT
  5
6B
102
{ACAD_REACTORS
330
4B
102
}
330
4B
100
AcDbProxyObject
 90
      499
 91
      503
 95
   393239
 70
     1
100
AcDbScale
 70
     0
300
6" = 1'-0"
140
6.0
141
12.0
290
     0
1001
ACAD
1000
AcRTDxfName
1000
SCALE
1000
AcRTDxfName
1000
SCALE
1000
AcRTDxfName
1000
SCALE
  0
ACAD_PROXY_OBJECT
  5
6C
102
{ACAD_REACTORS
330
4B
102
}
330
4B
100
AcDbProxyObject
 90
      499
 91
      503
 95
   393239
 70
     1
100
AcDbScale
 70
     0
300
1'-0" = 1'-0"
140
12.0
141
12.0
290
     0
1001
ACAD
1000
AcRTDxfName
1000
SCALE
1000
AcRTDxfName
1000
SCALE
1000
AcRTDxfName
1000
SCALE
  0
ACAD_PROXY_OBJECT
  5
2F
102
{ACAD_XDICTIONARY
360
1FC
102
}
102
{ACAD_REACTORS
330
2A
102
}
330
2A
100
AcDbProxyObject
 90
      499
 91
      501
 95
   393239
 70
     1
100
AcDbVisualStyle
  2
2dWireframe
 70
     4
 71
     0
 72
     2
 73
     0
 90
        0
 40
-0.6
 41
-30.0
 62
     5
 63
     7
 74
     1
 91
        4
 64
     7
 65
   257
 75
     1
175
     1
 42
1.0
 92
        0
 66
   257
 43
1.0
 76
     1
 77
     6
 78
     2
 67
     7
 79
     5
170
     0
171
     0
290
     0
174
     0
 93
        1
 44
0.0
173
     0
291
     0
 45
0.0
1001
ACAD
1000
AcDbSavedByObjectVersion
1070
     0
1001
ACAD
1000
AcRTDxfName
1000
VISUALSTYLE
1000
AcRTDxfName
1000
VISUALSTYLE
1000
AcRTDxfName
1000
VISUALSTYLE
  0
ACAD_PROXY_OBJECT
  5
31
102
{ACAD_XDICTIONARY
360
200
102
}
102
{ACAD_REACTORS
330
2A
102
}
330
2A
100
AcDbProxyObject
 90
      499
 91
      501
 95
   393239
 70
     1
100
AcDbVisualStyle
  2
3D Hidden
 70
     6
 71
     1
 72
     2
 73
     2
 90
        0
 40
-0.6
 41
-30.0
 62
     5
 63
     7
 74
     2
 91
        2
 64
     7
 65
   257
 75
     2
175
     1
 42
40.0
 92
        0
 66
   257
 43
1.0
 76
     1
 77
     6
 78
     2
 67
     7
 79
     3
170
     0
171
     0
290
     0
174
     0
 93
        1
 44
0.0
173
     0
291
     0
 45
0.0
1001
ACAD
1000
AcDbSavedByObjectVersion
1070
     0
1001
ACAD
1000
AcRTDxfName
1000
VISUALSTYLE
1000
AcRTDxfName
1000
VISUALSTYLE
1000
AcRTDxfName
1000
VISUALSTYLE
  0
ACAD_PROXY_OBJECT
  5
30
102
{ACAD_XDICTIONARY
360
1FE
102
}
102
{ACAD_REACTORS
330
2A
102
}
330
2A
100
AcDbProxyObject
 90
      499
 91
      501
 95
   393239
 70
     1
100
AcDbVisualStyle
  2
3dWireframe
 70
     5
 71
     0
 72
     2
 73
     0
 90
        0
 40
-0.6
 41
-30.0
 62
     5
 63
     7
 74
     1
 91
        4
 64
     7
 65
   257
 75
     1
175
     1
 42
1.0
 92
        0
 66
   257
 43
1.0
 76
     1
 77
     6
 78
     2
 67
     7
 79
     5
170
     0
171
     0
290
     0
174
     0
 93
        1
 44
0.0
173
     0
291
     0
 45
0.0
1001
ACAD
1000
AcDbSavedByObjectVersion
1070
     0
1001
ACAD
1000
AcRTDxfName
1000
VISUALSTYLE
1000
AcRTDxfName
1000
VISUALSTYLE
1000
AcRTDxfName
1000
VISUALSTYLE
  0
ACAD_PROXY_OBJECT
  5
32
102
{ACAD_XDICTIONARY
360
202
102
}
102
{ACAD_REACTORS
330
2A
102
}
330
2A
100
AcDbProxyObject
 90
      499
 91
      501
 95
   393239
 70
     1
100
AcDbVisualStyle
  2
Basic
 70
     7
 71
     1
 72
     0
 73
     1
 90
        0
 40
-0.6
 41
-30.0
 62
     5
 63
     7
 74
     0
 91
        4
 64
     7
 65
   257
 75
     1
175
     1
 42
1.0
 92
        8
 66
     7
 43
1.0
 76
     1
 77
     6
 78
     2
 67
     7
 79
     5
170
     0
171
     0
290
     0
174
     0
 93
        1
 44
0.0
173
     0
291
     1
 45
0.0
1001
ACAD
1000
AcDbSavedByObjectVersion
1070
     0
1001
ACAD
1000
AcRTDxfName
1000
VISUALSTYLE
1000
AcRTDxfName
1000
VISUALSTYLE
1000
AcRTDxfName
1000
VISUALSTYLE
  0
ACAD_PROXY_OBJECT
  5
36
102
{ACAD_XDICTIONARY
360
20A
102
}
102
{ACAD_REACTORS
330
2A
102
}
330
2A
100
AcDbProxyObject
 90
      499
 91
      501
 95
   393239
 70
     1
100
AcDbVisualStyle
  2
Brighten
 70
    12
 71
     2
 72
     2
 73
     0
 90
        0
 40
-0.6
 41
-30.0
 62
     5
 63
     7
 74
     1
 91
        4
 64
     7
 65
   257
 75
     1
175
     1
 42
1.0
 92
        8
 66
     7
 43
1.0
 76
     1
 77
     6
 78
     2
 67
     7
 79
     5
170
     0
171
     0
290
     0
174
     0
 93
        1
 44
50.0
173
     0
291
     1
 45
0.0
1001
ACAD
1000
AcDbSavedByObjectVersion
1070
     0
1001
ACAD
1000
AcRTDxfName
1000
VISUALSTYLE
1000
AcRTDxfName
1000
VISUALSTYLE
1000
AcRTDxfName
1000
VISUALSTYLE
  0
ACAD_PROXY_OBJECT
  5
3A
102
{ACAD_XDICTIONARY
360
212
102
}
102
{ACAD_REACTORS
330
2A
102
}
330
2A
100
AcDbProxyObject
 90
      499
 91
      501
 95
   393239
 70
     1
100
AcDbVisualStyle
  2
ColorChange
 70
    16
 71
     2
 72
     2
 73
     3
 90
        0
 40
-0.6
 41
-30.0
 62
     5
 63
     8
 74
     1
 91
        4
 64
     7
 65
   257
 75
     1
175
     1
 42
1.0
 92
        8
 66
     8
 43
1.0
 76
     1
 77
     6
 78
     2
 67
     7
 79
     5
170
     0
171
     0
290
     0
174
     0
 93
        1
 44
0.0
173
     0
291
     1
 45
0.0
1001
ACAD
1000
AcDbSavedByObjectVersion
1070
     0
1001
ACAD
1000
AcRTDxfName
1000
VISUALSTYLE
1000
AcRTDxfName
1000
VISUALSTYLE
1000
AcRTDxfName
1000
VISUALSTYLE
  0
ACAD_PROXY_OBJECT
  5
34
102
{ACAD_XDICTIONARY
360
206
102
}
102
{ACAD_REACTORS
330
2A
102
}
330
2A
100
AcDbProxyObject
 90
      499
 91
      501
 95
   393239
 70
     1
100
AcDbVisualStyle
  2
Conceptual
 70
     9
 71
     3
 72
     2
 73
     0
 90
        0
 40
-0.6
 41
-30.0
 62
     5
 63
     7
 74
     2
 91
        2
 64
     7
 65
   257
 75
     1
175
     1
 42
40.0
 92
        8
 66
     7
 43
1.0
 76
     1
 77
     6
 78
     2
 67
     7
 79
     3
170
     0
171
     0
290
     0
174
     0
 93
        1
 44
0.0
173
     0
291
     0
 45
0.0
1001
ACAD
1000
AcDbSavedByObjectVersion
1070
     0
1001
ACAD
1000
AcRTDxfName
1000
VISUALSTYLE
1000
AcRTDxfName
1000
VISUALSTYLE
1000
AcRTDxfName
1000
VISUALSTYLE
  0
ACAD_PROXY_OBJECT
  5
35
102
{ACAD_XDICTIONARY
360
208
102
}
102
{ACAD_REACTORS
330
2A
102
}
330
2A
100
AcDbProxyObject
 90
      499
 91
      501
 95
   393239
 70
     1
100
AcDbVisualStyle
  2
Dim
 70
    11
 71
     2
 72
     2
 73
     0
 90
        0
 40
-0.6
 41
-30.0
 62
     5
 63
     7
 74
     1
 91
        4
 64
     7
 65
   257
 75
     1
175
     1
 42
1.0
 92
        8
 66
     7
 43
1.0
 76
     1
 77
     6
 78
     2
 67
     7
 79
     5
170
     0
171
     0
290
     0
174
     0
 93
        1
 44
-50.0
173
     0
291
     1
 45
0.0
1001
ACAD
1000
AcDbSavedByObjectVersion
1070
     0
1001
ACAD
1000
AcRTDxfName
1000
VISUALSTYLE
1000
AcRTDxfName
1000
VISUALSTYLE
1000
AcRTDxfName
1000
VISUALSTYLE
  0
ACAD_PROXY_OBJECT
  5
39
102
{ACAD_XDICTIONARY
360
210
102
}
102
{ACAD_REACTORS
330
2A
102
}
330
2A
100
AcDbProxyObject
 90
      499
 91
      501
 95
   393239
 70
     1
100
AcDbVisualStyle
  2
Facepattern
 70
    15
 71
     2
 72
     2
 73
     0
 90
        0
 40
-0.6
 41
-30.0
 62
     5
 63
     7
 74
     1
 91
        4
 64
     7
 65
   257
 75
     1
175
     1
 42
1.0
 92
        8
 66
     7
 43
1.0
 76
     1
 77
     6
 78
     2
 67
     7
 79
     5
170
     0
171
     0
290
     0
174
     0
 93
        1
 44
0.0
173
     0
291
     1
 45
0.0
1001
ACAD
1000
AcDbSavedByObjectVersion
1070
     0
1001
ACAD
1000
AcRTDxfName
1000
VISUALSTYLE
1000
AcRTDxfName
1000
VISUALSTYLE
1000
AcRTDxfName
1000
VISUALSTYLE
  0
ACAD_PROXY_OBJECT
  5
2B
102
{ACAD_XDICTIONARY
360
1F4
102
}
102
{ACAD_REACTORS
330
2A
102
}
330
2A
100
AcDbProxyObject
 90
      499
 91
      501
 95
   393239
 70
     1
100
AcDbVisualStyle
  2
Flat
 70
     0
 71
     2
 72
     1
 73
     1
 90
        2
 40
-0.6
 41
30.0
 62
     5
 63
     7
 74
     0
 91
        4
 64
     7
 65
   257
 75
     1
175
     1
 42
1.0
 92
        8
 66
     7
 43
1.0
 76
     1
 77
     6
 78
     2
 67
     7
 79
     5
170
     0
171
     0
290
     0
174
     0
 93
       13
 44
0.0
173
     0
291
     1
 45
0.0
1001
ACAD
1000
AcDbSavedByObjectVersion
1070
     0
1001
ACAD
1000
AcRTDxfName
1000
VISUALSTYLE
1000
AcRTDxfName
1000
VISUALSTYLE
1000
AcRTDxfName
1000
VISUALSTYLE
  0
ACAD_PROXY_OBJECT
  5
2C
102
{ACAD_XDICTIONARY
360
1F6
102
}
102
{ACAD_REACTORS
330
2A
102
}
330
2A
100
AcDbProxyObject
 90
      499
 91
      501
 95
   393239
 70
     1
100
AcDbVisualStyle
  2
FlatWithEdges
 70
     1
 71
     2
 72
     1
 73
     1
 90
        2
 40
-0.6
 41
30.0
 62
     5
 63
     7
 74
     1
 91
        4
 64
     7
 65
   257
 75
     1
175
     1
 42
1.0
 92
        0
 66
   257
 43
1.0
 76
     1
 77
     6
 78
     2
 67
     7
 79
     5
170
     0
171
     0
290
     0
174
     0
 93
       13
 44
0.0
173
     0
291
     1
 45
0.0
1001
ACAD
1000
AcDbSavedByObjectVersion
1070
     0
1001
ACAD
1000
AcRTDxfName
1000
VISUALSTYLE
1000
AcRTDxfName
1000
VISUALSTYLE
1000
AcRTDxfName
1000
VISUALSTYLE
  0
ACAD_PROXY_OBJECT
  5
2D
102
{ACAD_XDICTIONARY
360
1F8
102
}
102
{ACAD_REACTORS
330
2A
102
}
330
2A
100
AcDbProxyObject
 90
      499
 91
      501
 95
   393239
 70
     1
100
AcDbVisualStyle
  2
Gouraud
 70
     2
 71
     2
 72
     2
 73
     1
 90
        2
 40
-0.6
 41
30.0
 62
     5
 63
     7
 74
     0
 91
        4
 64
     7
 65
   257
 75
     1
175
     1
 42
1.0
 92
        0
 66
     7
 43
1.0
 76
     1
 77
     6
 78
     2
 67
     7
 79
     5
170
     0
171
     0
290
     0
174
     0
 93
       13
 44
0.0
173
     0
291
     1
 45
0.0
1001
ACAD
1000
AcDbSavedByObjectVersion
1070
     0
1001
ACAD
1000
AcRTDxfName
1000
VISUALSTYLE
1000
AcRTDxfName
1000
VISUALSTYLE
1000
AcRTDxfName
1000
VISUALSTYLE
  0
ACAD_PROXY_OBJECT
  5
2E
102
{ACAD_XDICTIONARY
360
1FA
102
}
102
{ACAD_REACTORS
330
2A
102
}
330
2A
100
AcDbProxyObject
 90
      499
 91
      501
 95
   393239
 70
     1
100
AcDbVisualStyle
  2
GouraudWithEdges
 70
     3
 71
     2
 72
     2
 73
     1
 90
        2
 40
-0.6
 41
30.0
 62
     5
 63
     7
 74
     1
 91
        4
 64
     7
 65
   257
 75
     1
175
     1
 42
1.0
 92
        0
 66
   257
 43
1.0
 76
     1
 77
     6
 78
     2
 67
     7
 79
     5
170
     0
171
     0
290
     0
174
     0
 93
       13
 44
0.0
173
     0
291
     1
 45
0.0
1001
ACAD
1000
AcDbSavedByObjectVersion
1070
     0
1001
ACAD
1000
AcRTDxfName
1000
VISUALSTYLE
1000
AcRTDxfName
1000
VISUALSTYLE
1000
AcRTDxfName
1000
VISUALSTYLE
  0
ACAD_PROXY_OBJECT
  5
38
102
{ACAD_XDICTIONARY
360
20E
102
}
102
{ACAD_REACTORS
330
2A
102
}
330
2A
100
AcDbProxyObject
 90
      499
 91
      501
 95
   393239
 70
     1
100
AcDbVisualStyle
  2
Linepattern
 70
    14
 71
     2
 72
     2
 73
     0
 90
        0
 40
-0.6
 41
-30.0
 62
     5
 63
     7
 74
     1
 91
        4
 64
     7
 65
   257
 75
     7
175
     7
 42
1.0
 92
        8
 66
     7
 43
1.0
 76
     1
 77
     6
 78
     2
 67
     7
 79
     5
170
     0
171
     0
290
     0
174
     0
 93
        1
 44
0.0
173
     0
291
     1
 45
0.0
1001
ACAD
1000
AcDbSavedByObjectVersion
1070
     0
1001
ACAD
1000
AcRTDxfName
1000
VISUALSTYLE
1000
AcRTDxfName
1000
VISUALSTYLE
1000
AcRTDxfName
1000
VISUALSTYLE
  0
ACAD_PROXY_OBJECT
  5
33
102
{ACAD_XDICTIONARY
360
204
102
}
102
{ACAD_REACTORS
330
2A
102
}
330
2A
100
AcDbProxyObject
 90
      499
 91
      501
 95
   393239
 70
     1
100
AcDbVisualStyle
  2
Realistic
 70
     8
 71
     2
 72
     2
 73
     0
 90
        0
 40
-0.6
 41
-30.0
 62
     5
 63
     7
 74
     1
 91
        0
 64
     7
 65
   257
 75
     1
175
     1
 42
1.0
 92
        8
 66
     8
 43
1.0
 76
     1
 77
     6
 78
     2
 67
     7
 79
     5
170
     0
171
     0
290
     0
174
     0
 93
       13
 44
0.0
173
     0
291
     0
 45
0.0
1001
ACAD
1000
AcDbSavedByObjectVersion
1070
     0
1001
ACAD
1000
AcRTDxfName
1000
VISUALSTYLE
1000
AcRTDxfName
1000
VISUALSTYLE
1000
AcRTDxfName
1000
VISUALSTYLE
  0
ACAD_PROXY_OBJECT
  5
37
102
{ACAD_XDICTIONARY
360
20C
102
}
102
{ACAD_REACTORS
330
2A
102
}
330
2A
100
AcDbProxyObject
 90
      499
 91
      501
 95
   393239
 70
     1
100
AcDbVisualStyle
  2
Thicken
 70
    13
 71
     2
 72
     2
 73
     0
 90
        0
 40
-0.6
 41
-30.0
 62
     5
 63
     7
 74
     1
 91
        4
 64
     7
 65
   257
 75
     1
175
     1
 42
1.0
 92
       12
 66
     7
 43
1.0
 76
     1
 77
     6
 78
     2
 67
     7
 79
     5
170
     0
171
     0
290
     0
174
     0
 93
        1
 44
0.0
173
     0
291
     1
 45
0.0
1001
ACAD
1000
AcDbSavedByObjectVersion
1070
     0
1001
ACAD
1000
AcRTDxfName
1000
VISUALSTYLE
1000
AcRTDxfName
1000
VISUALSTYLE
1000
AcRTDxfName
1000
VISUALSTYLE
  0
DICTIONARYVAR
  5
1F1
102
{ACAD_REACTORS
330
1EE
102
}
330
1EE
100
DictionaryVariables
280
     0
  1
1:1
  0
DICTIONARYVAR
  5
1F2
102
{ACAD_REACTORS
330
1EE
102
}
330
1EE
100
DictionaryVariables
280
     0
  1
2
  0
DICTIONARYVAR
  5
1F3
102
{ACAD_REACTORS
330
1EE
102
}
330
1EE
100
DictionaryVariables
280
     0
  1
1
  0
DICTIONARYVAR
  5
9104
102
{ACAD_REACTORS
330
1EE
102
}
330
1EE
100
DictionaryVariables
280
     0
  1

  0
DICTIONARY
  5
1FC
330
2F
100
AcDbDictionary
280
     1
281
     1
  3
ACAD_XREC_ROUNDTRIP
360
1FD
  0
DICTIONARY
  5
200
330
31
100
AcDbDictionary
280
     1
281
     1
  3
ACAD_XREC_ROUNDTRIP
360
201
  0
DICTIONARY
  5
1FE
330
30
100
AcDbDictionary
280
     1
281
     1
  3
ACAD_XREC_ROUNDTRIP
360
1FF
  0
DICTIONARY
  5
202
330
32
100
AcDbDictionary
280
     1
281
     1
  3
ACAD_XREC_ROUNDTRIP
360
203
  0
DICTIONARY
  5
20A
330
36
100
AcDbDictionary
280
     1
281
     1
  3
ACAD_XREC_ROUNDTRIP
360
20B
  0
DICTIONARY
  5
212
330
3A
100
AcDbDictionary
280
     1
281
     1
  3
ACAD_XREC_ROUNDTRIP
360
213
  0
DICTIONARY
  5
206
330
34
100
AcDbDictionary
280
     1
281
     1
  3
ACAD_XREC_ROUNDTRIP
360
207
  0
DICTIONARY
  5
208
330
35
100
AcDbDictionary
280
     1
281
     1
  3
ACAD_XREC_ROUNDTRIP
360
209
  0
DICTIONARY
  5
210
330
39
100
AcDbDictionary
280
     1
281
     1
  3
ACAD_XREC_ROUNDTRIP
360
211
  0
DICTIONARY
  5
1F4
330
2B
100
AcDbDictionary
280
     1
281
     1
  3
ACAD_XREC_ROUNDTRIP
360
1F5
  0
DICTIONARY
  5
1F6
330
2C
100
AcDbDictionary
280
     1
281
     1
  3
ACAD_XREC_ROUNDTRIP
360
1F7
  0
DICTIONARY
  5
1F8
330
2D
100
AcDbDictionary
280
     1
281
     1
  3
ACAD_XREC_ROUNDTRIP
360
1F9
  0
DICTIONARY
  5
1FA
330
2E
100
AcDbDictionary
280
     1
281
     1
  3
ACAD_XREC_ROUNDTRIP
360
1FB
  0
DICTIONARY
  5
20E
330
38
100
AcDbDictionary
280
     1
281
     1
  3
ACAD_XREC_ROUNDTRIP
360
20F
  0
DICTIONARY
  5
204
330
33
100
AcDbDictionary
280
     1
281
     1
  3
ACAD_XREC_ROUNDTRIP
360
205
  0
DICTIONARY
  5
20C
330
37
100
AcDbDictionary
280
     1
281
     1
  3
ACAD_XREC_ROUNDTRIP
360
20D
  0
XRECORD
  5
1FD
102
{ACAD_REACTORS
330
1FC
102
}
330
1FC
100
AcDbXrecord
280
     1
102
RTVSPropertyOp0
 70
     1
102
RTVSPropertyOp1
 70
     1
102
RTVSPropertyOp2
 70
     1
102
RTVSPropertyOp3
 70
     1
102
RTVSPropertyOp4
 70
     1
102
RTVSPropertyOp5
 70
     1
102
RTVSPropertyOp6
 70
     1
102
RTVSPropertyOp7
 70
     1
102
RTVSPropertyOp8
 70
     1
102
RTVSPropertyOp9
 70
     1
102
RTVSPropertyOp10
 70
     1
102
RTVSPropertyOp11
 70
     1
102
RTVSPropertyOp12
 70
     1
102
RTVSPropertyOp13
 70
     1
102
RTVSPropertyOp14
 70
     1
102
RTVSPropertyOp15
 70
     1
102
RTVSPropertyOp16
 70
     1
102
RTVSPropertyOp17
 70
     1
102
RTVSPropertyOp18
 70
     1
102
RTVSPropertyOp19
 70
     1
102
RTVSPropertyOp20
 70
     1
102
RTVSPropertyOp21
 70
     1
102
RTVSPropertyOp22
 70
     1
102
RTVSPropertyOp23
 70
     1
102
RTVSPropertyOp24
 70
     1
102
RTVSPropertyOp25
 70
     1
102
RTVSPropertyOp26
 70
     1
102
RTVSPropertyOp27
 70
     1
  0
XRECORD
  5
201
102
{ACAD_REACTORS
330
200
102
}
330
200
100
AcDbXrecord
280
     1
102
RTVSPropertyOp0
 70
     1
102
RTVSPropertyOp1
 70
     1
102
RTVSPropertyOp2
 70
     1
102
RTVSPropertyOp3
 70
     1
102
RTVSPropertyOp4
 70
     1
102
RTVSPropertyOp5
 70
     1
102
RTVSPropertyOp6
 70
     1
102
RTVSPropertyOp7
 70
     1
102
RTVSPropertyOp8
 70
     1
102
RTVSPropertyOp9
 70
     1
102
RTVSPropertyOp10
 70
     1
102
RTVSPropertyOp11
 70
     1
102
RTVSPropertyOp12
 70
     1
102
RTVSPropertyOp13
 70
     1
102
RTVSPropertyOp14
 70
     1
102
RTVSPropertyOp15
 70
     1
102
RTVSPropertyOp16
 70
     1
102
RTVSPropertyOp17
 70
     1
102
RTVSPropertyOp18
 70
     1
102
RTVSPropertyOp19
 70
     1
102
RTVSPropertyOp20
 70
     1
102
RTVSPropertyOp21
 70
     1
102
RTVSPropertyOp22
 70
     1
102
RTVSPropertyOp23
 70
     1
102
RTVSPropertyOp24
 70
     1
102
RTVSPropertyOp25
 70
     1
102
RTVSPropertyOp26
 70
     1
102
RTVSPropertyOp27
 70
     1
  0
XRECORD
  5
1FF
102
{ACAD_REACTORS
330
1FE
102
}
330
1FE
100
AcDbXrecord
280
     1
102
RTVSPropertyOp0
 70
     1
102
RTVSPropertyOp1
 70
     1
102
RTVSPropertyOp2
 70
     1
102
RTVSPropertyOp3
 70
     1
102
RTVSPropertyOp4
 70
     1
102
RTVSPropertyOp5
 70
     1
102
RTVSPropertyOp6
 70
     1
102
RTVSPropertyOp7
 70
     1
102
RTVSPropertyOp8
 70
     1
102
RTVSPropertyOp9
 70
     1
102
RTVSPropertyOp10
 70
     1
102
RTVSPropertyOp11
 70
     1
102
RTVSPropertyOp12
 70
     1
102
RTVSPropertyOp13
 70
     1
102
RTVSPropertyOp14
 70
     1
102
RTVSPropertyOp15
 70
     1
102
RTVSPropertyOp16
 70
     1
102
RTVSPropertyOp17
 70
     1
102
RTVSPropertyOp18
 70
     1
102
RTVSPropertyOp19
 70
     1
102
RTVSPropertyOp20
 70
     1
102
RTVSPropertyOp21
 70
     1
102
RTVSPropertyOp22
 70
     1
102
RTVSPropertyOp23
 70
     1
102
RTVSPropertyOp24
 70
     1
102
RTVSPropertyOp25
 70
     1
102
RTVSPropertyOp26
 70
     1
102
RTVSPropertyOp27
 70
     1
  0
XRECORD
  5
203
102
{ACAD_REACTORS
330
202
102
}
330
202
100
AcDbXrecord
280
     1
102
RTVSPropertyOp0
 70
     1
102
RTVSPropertyOp1
 70
     1
102
RTVSPropertyOp2
 70
     1
102
RTVSPropertyOp3
 70
     1
102
RTVSPropertyOp4
 70
     1
102
RTVSPropertyOp5
 70
     1
102
RTVSPropertyOp6
 70
     1
102
RTVSPropertyOp7
 70
     1
102
RTVSPropertyOp8
 70
     1
102
RTVSPropertyOp9
 70
     1
102
RTVSPropertyOp10
 70
     1
102
RTVSPropertyOp11
 70
     1
102
RTVSPropertyOp12
 70
     1
102
RTVSPropertyOp13
 70
     1
102
RTVSPropertyOp14
 70
     1
102
RTVSPropertyOp15
 70
     1
102
RTVSPropertyOp16
 70
     1
102
RTVSPropertyOp17
 70
     1
102
RTVSPropertyOp18
 70
     1
102
RTVSPropertyOp19
 70
     1
102
RTVSPropertyOp20
 70
     1
102
RTVSPropertyOp21
 70
     1
102
RTVSPropertyOp22
 70
     1
102
RTVSPropertyOp23
 70
     1
102
RTVSPropertyOp24
 70
     1
102
RTVSPropertyOp25
 70
     1
102
RTVSPropertyOp26
 70
     1
102
RTVSPropertyOp27
 70
     1
  0
XRECORD
  5
20B
102
{ACAD_REACTORS
330
20A
102
}
330
20A
100
AcDbXrecord
280
     1
102
RTVSPropertyOp0
 70
     1
102
RTVSPropertyOp1
 70
     1
102
RTVSPropertyOp2
 70
     1
102
RTVSPropertyOp3
 70
     1
102
RTVSPropertyOp4
 70
     1
102
RTVSPropertyOp5
 70
     1
102
RTVSPropertyOp6
 70
     1
102
RTVSPropertyOp7
 70
     1
102
RTVSPropertyOp8
 70
     1
102
RTVSPropertyOp9
 70
     1
102
RTVSPropertyOp10
 70
     1
102
RTVSPropertyOp11
 70
     1
102
RTVSPropertyOp12
 70
     1
102
RTVSPropertyOp13
 70
     1
102
RTVSPropertyOp14
 70
     1
102
RTVSPropertyOp15
 70
     1
102
RTVSPropertyOp16
 70
     1
102
RTVSPropertyOp17
 70
     1
102
RTVSPropertyOp18
 70
     1
102
RTVSPropertyOp19
 70
     1
102
RTVSPropertyOp20
 70
     1
102
RTVSPropertyOp21
 70
     1
102
RTVSPropertyOp22
 70
     1
102
RTVSPropertyOp23
 70
     1
102
RTVSPropertyOp24
 70
     1
102
RTVSPropertyOp25
 70
     1
102
RTVSPropertyOp26
 70
     1
102
RTVSPropertyOp27
 70
     1
  0
XRECORD
  5
213
102
{ACAD_REACTORS
330
212
102
}
330
212
100
AcDbXrecord
280
     1
102
RTVSPropertyOp0
 70
     1
102
RTVSPropertyOp1
 70
     1
102
RTVSPropertyOp2
 70
     1
102
RTVSPropertyOp3
 70
     1
102
RTVSPropertyOp4
 70
     1
102
RTVSPropertyOp5
 70
     1
102
RTVSPropertyOp6
 70
     1
102
RTVSPropertyOp7
 70
     1
102
RTVSPropertyOp8
 70
     1
102
RTVSPropertyOp9
 70
     1
102
RTVSPropertyOp10
 70
     1
102
RTVSPropertyOp11
 70
     1
102
RTVSPropertyOp12
 70
     1
102
RTVSPropertyOp13
 70
     1
102
RTVSPropertyOp14
 70
     1
102
RTVSPropertyOp15
 70
     1
102
RTVSPropertyOp16
 70
     1
102
RTVSPropertyOp17
 70
     1
102
RTVSPropertyOp18
 70
     1
102
RTVSPropertyOp19
 70
     1
102
RTVSPropertyOp20
 70
     1
102
RTVSPropertyOp21
 70
     1
102
RTVSPropertyOp22
 70
     1
102
RTVSPropertyOp23
 70
     1
102
RTVSPropertyOp24
 70
     1
102
RTVSPropertyOp25
 70
     1
102
RTVSPropertyOp26
 70
     1
102
RTVSPropertyOp27
 70
     1
  0
XRECORD
  5
207
102
{ACAD_REACTORS
330
206
102
}
330
206
100
AcDbXrecord
280
     1
102
RTVSPropertyOp0
 70
     1
102
RTVSPropertyOp1
 70
     1
102
RTVSPropertyOp2
 70
     1
102
RTVSPropertyOp3
 70
     1
102
RTVSPropertyOp4
 70
     1
102
RTVSPropertyOp5
 70
     1
102
RTVSPropertyOp6
 70
     1
102
RTVSPropertyOp7
 70
     1
102
RTVSPropertyOp8
 70
     1
102
RTVSPropertyOp9
 70
     1
102
RTVSPropertyOp10
 70
     1
102
RTVSPropertyOp11
 70
     1
102
RTVSPropertyOp12
 70
     1
102
RTVSPropertyOp13
 70
     1
102
RTVSPropertyOp14
 70
     1
102
RTVSPropertyOp15
 70
     1
102
RTVSPropertyOp16
 70
     1
102
RTVSPropertyOp17
 70
     1
102
RTVSPropertyOp18
 70
     1
102
RTVSPropertyOp19
 70
     1
102
RTVSPropertyOp20
 70
     1
102
RTVSPropertyOp21
 70
     1
102
RTVSPropertyOp22
 70
     1
102
RTVSPropertyOp23
 70
     1
102
RTVSPropertyOp24
 70
     1
102
RTVSPropertyOp25
 70
     1
102
RTVSPropertyOp26
 70
     1
102
RTVSPropertyOp27
 70
     1
  0
XRECORD
  5
209
102
{ACAD_REACTORS
330
208
102
}
330
208
100
AcDbXrecord
280
     1
102
RTVSPropertyOp0
 70
     1
102
RTVSPropertyOp1
 70
     1
102
RTVSPropertyOp2
 70
     1
102
RTVSPropertyOp3
 70
     1
102
RTVSPropertyOp4
 70
     1
102
RTVSPropertyOp5
 70
     1
102
RTVSPropertyOp6
 70
     1
102
RTVSPropertyOp7
 70
     1
102
RTVSPropertyOp8
 70
     1
102
RTVSPropertyOp9
 70
     1
102
RTVSPropertyOp10
 70
     1
102
RTVSPropertyOp11
 70
     1
102
RTVSPropertyOp12
 70
     1
102
RTVSPropertyOp13
 70
     1
102
RTVSPropertyOp14
 70
     1
102
RTVSPropertyOp15
 70
     1
102
RTVSPropertyOp16
 70
     1
102
RTVSPropertyOp17
 70
     1
102
RTVSPropertyOp18
 70
     1
102
RTVSPropertyOp19
 70
     1
102
RTVSPropertyOp20
 70
     1
102
RTVSPropertyOp21
 70
     1
102
RTVSPropertyOp22
 70
     1
102
RTVSPropertyOp23
 70
     1
102
RTVSPropertyOp24
 70
     1
102
RTVSPropertyOp25
 70
     1
102
RTVSPropertyOp26
 70
     1
102
RTVSPropertyOp27
 70
     1
  0
XRECORD
  5
211
102
{ACAD_REACTORS
330
210
102
}
330
210
100
AcDbXrecord
280
     1
102
RTVSPropertyOp0
 70
     1
102
RTVSPropertyOp1
 70
     1
102
RTVSPropertyOp2
 70
     1
102
RTVSPropertyOp3
 70
     1
102
RTVSPropertyOp4
 70
     1
102
RTVSPropertyOp5
 70
     1
102
RTVSPropertyOp6
 70
     1
102
RTVSPropertyOp7
 70
     1
102
RTVSPropertyOp8
 70
     1
102
RTVSPropertyOp9
 70
     1
102
RTVSPropertyOp10
 70
     1
102
RTVSPropertyOp11
 70
     1
102
RTVSPropertyOp12
 70
     1
102
RTVSPropertyOp13
 70
     1
102
RTVSPropertyOp14
 70
     1
102
RTVSPropertyOp15
 70
     1
102
RTVSPropertyOp16
 70
     1
102
RTVSPropertyOp17
 70
     1
102
RTVSPropertyOp18
 70
     1
102
RTVSPropertyOp19
 70
     1
102
RTVSPropertyOp20
 70
     1
102
RTVSPropertyOp21
 70
     1
102
RTVSPropertyOp22
 70
     1
102
RTVSPropertyOp23
 70
     1
102
RTVSPropertyOp24
 70
     1
102
RTVSPropertyOp25
 70
     1
102
RTVSPropertyOp26
 70
     1
102
RTVSPropertyOp27
 70
     1
  0
XRECORD
  5
1F5
102
{ACAD_REACTORS
330
1F4
102
}
330
1F4
100
AcDbXrecord
280
     1
102
RTVSPropertyOp0
 70
     1
102
RTVSPropertyOp1
 70
     1
102
RTVSPropertyOp2
 70
     1
102
RTVSPropertyOp3
 70
     1
102
RTVSPropertyOp4
 70
     1
102
RTVSPropertyOp5
 70
     1
102
RTVSPropertyOp6
 70
     1
102
RTVSPropertyOp7
 70
     1
102
RTVSPropertyOp8
 70
     1
102
RTVSPropertyOp9
 70
     1
102
RTVSPropertyOp10
 70
     1
102
RTVSPropertyOp11
 70
     1
102
RTVSPropertyOp12
 70
     1
102
RTVSPropertyOp13
 70
     1
102
RTVSPropertyOp14
 70
     1
102
RTVSPropertyOp15
 70
     1
102
RTVSPropertyOp16
 70
     1
102
RTVSPropertyOp17
 70
     1
102
RTVSPropertyOp18
 70
     1
102
RTVSPropertyOp19
 70
     1
102
RTVSPropertyOp20
 70
     1
102
RTVSPropertyOp21
 70
     1
102
RTVSPropertyOp22
 70
     1
102
RTVSPropertyOp23
 70
     1
102
RTVSPropertyOp24
 70
     1
102
RTVSPropertyOp25
 70
     1
102
RTVSPropertyOp26
 70
     1
102
RTVSPropertyOp27
 70
     1
  0
XRECORD
  5
1F7
102
{ACAD_REACTORS
330
1F6
102
}
330
1F6
100
AcDbXrecord
280
     1
102
RTVSPropertyOp0
 70
     1
102
RTVSPropertyOp1
 70
     1
102
RTVSPropertyOp2
 70
     1
102
RTVSPropertyOp3
 70
     1
102
RTVSPropertyOp4
 70
     1
102
RTVSPropertyOp5
 70
     1
102
RTVSPropertyOp6
 70
     1
102
RTVSPropertyOp7
 70
     1
102
RTVSPropertyOp8
 70
     1
102
RTVSPropertyOp9
 70
     1
102
RTVSPropertyOp10
 70
     1
102
RTVSPropertyOp11
 70
     1
102
RTVSPropertyOp12
 70
     1
102
RTVSPropertyOp13
 70
     1
102
RTVSPropertyOp14
 70
     1
102
RTVSPropertyOp15
 70
     1
102
RTVSPropertyOp16
 70
     1
102
RTVSPropertyOp17
 70
     1
102
RTVSPropertyOp18
 70
     1
102
RTVSPropertyOp19
 70
     1
102
RTVSPropertyOp20
 70
     1
102
RTVSPropertyOp21
 70
     1
102
RTVSPropertyOp22
 70
     1
102
RTVSPropertyOp23
 70
     1
102
RTVSPropertyOp24
 70
     1
102
RTVSPropertyOp25
 70
     1
102
RTVSPropertyOp26
 70
     1
102
RTVSPropertyOp27
 70
     1
  0
XRECORD
  5
1F9
102
{ACAD_REACTORS
330
1F8
102
}
330
1F8
100
AcDbXrecord
280
     1
102
RTVSPropertyOp0
 70
     1
102
RTVSPropertyOp1
 70
     1
102
RTVSPropertyOp2
 70
     1
102
RTVSPropertyOp3
 70
     1
102
RTVSPropertyOp4
 70
     1
102
RTVSPropertyOp5
 70
     1
102
RTVSPropertyOp6
 70
     1
102
RTVSPropertyOp7
 70
     1
102
RTVSPropertyOp8
 70
     1
102
RTVSPropertyOp9
 70
     1
102
RTVSPropertyOp10
 70
     1
102
RTVSPropertyOp11
 70
     1
102
RTVSPropertyOp12
 70
     1
102
RTVSPropertyOp13
 70
     1
102
RTVSPropertyOp14
 70
     1
102
RTVSPropertyOp15
 70
     1
102
RTVSPropertyOp16
 70
     1
102
RTVSPropertyOp17
 70
     1
102
RTVSPropertyOp18
 70
     1
102
RTVSPropertyOp19
 70
     1
102
RTVSPropertyOp20
 70
     1
102
RTVSPropertyOp21
 70
     1
102
RTVSPropertyOp22
 70
     1
102
RTVSPropertyOp23
 70
     1
102
RTVSPropertyOp24
 70
     1
102
RTVSPropertyOp25
 70
     1
102
RTVSPropertyOp26
 70
     1
102
RTVSPropertyOp27
 70
     1
  0
XRECORD
  5
1FB
102
{ACAD_REACTORS
330
1FA
102
}
330
1FA
100
AcDbXrecord
280
     1
102
RTVSPropertyOp0
 70
     1
102
RTVSPropertyOp1
 70
     1
102
RTVSPropertyOp2
 70
     1
102
RTVSPropertyOp3
 70
     1
102
RTVSPropertyOp4
 70
     1
102
RTVSPropertyOp5
 70
     1
102
RTVSPropertyOp6
 70
     1
102
RTVSPropertyOp7
 70
     1
102
RTVSPropertyOp8
 70
     1
102
RTVSPropertyOp9
 70
     1
102
RTVSPropertyOp10
 70
     1
102
RTVSPropertyOp11
 70
     1
102
RTVSPropertyOp12
 70
     1
102
RTVSPropertyOp13
 70
     1
102
RTVSPropertyOp14
 70
     1
102
RTVSPropertyOp15
 70
     1
102
RTVSPropertyOp16
 70
     1
102
RTVSPropertyOp17
 70
     1
102
RTVSPropertyOp18
 70
     1
102
RTVSPropertyOp19
 70
     1
102
RTVSPropertyOp20
 70
     1
102
RTVSPropertyOp21
 70
     1
102
RTVSPropertyOp22
 70
     1
102
RTVSPropertyOp23
 70
     1
102
RTVSPropertyOp24
 70
     1
102
RTVSPropertyOp25
 70
     1
102
RTVSPropertyOp26
 70
     1
102
RTVSPropertyOp27
 70
     1
  0
XRECORD
  5
20F
102
{ACAD_REACTORS
330
20E
102
}
330
20E
100
AcDbXrecord
280
     1
102
RTVSPropertyOp0
 70
     1
102
RTVSPropertyOp1
 70
     1
102
RTVSPropertyOp2
 70
     1
102
RTVSPropertyOp3
 70
     1
102
RTVSPropertyOp4
 70
     1
102
RTVSPropertyOp5
 70
     1
102
RTVSPropertyOp6
 70
     1
102
RTVSPropertyOp7
 70
     1
102
RTVSPropertyOp8
 70
     1
102
RTVSPropertyOp9
 70
     1
102
RTVSPropertyOp10
 70
     1
102
RTVSPropertyOp11
 70
     1
102
RTVSPropertyOp12
 70
     1
102
RTVSPropertyOp13
 70
     1
102
RTVSPropertyOp14
 70
     1
102
RTVSPropertyOp15
 70
     1
102
RTVSPropertyOp16
 70
     1
102
RTVSPropertyOp17
 70
     1
102
RTVSPropertyOp18
 70
     1
102
RTVSPropertyOp19
 70
     1
102
RTVSPropertyOp20
 70
     1
102
RTVSPropertyOp21
 70
     1
102
RTVSPropertyOp22
 70
     1
102
RTVSPropertyOp23
 70
     1
102
RTVSPropertyOp24
 70
     1
102
RTVSPropertyOp25
 70
     1
102
RTVSPropertyOp26
 70
     1
102
RTVSPropertyOp27
 70
     1
  0
XRECORD
  5
205
102
{ACAD_REACTORS
330
204
102
}
330
204
100
AcDbXrecord
280
     1
102
RTVSPropertyOp0
 70
     1
102
RTVSPropertyOp1
 70
     1
102
RTVSPropertyOp2
 70
     1
102
RTVSPropertyOp3
 70
     1
102
RTVSPropertyOp4
 70
     1
102
RTVSPropertyOp5
 70
     1
102
RTVSPropertyOp6
 70
     1
102
RTVSPropertyOp7
 70
     1
102
RTVSPropertyOp8
 70
     1
102
RTVSPropertyOp9
 70
     1
102
RTVSPropertyOp10
 70
     1
102
RTVSPropertyOp11
 70
     1
102
RTVSPropertyOp12
 70
     1
102
RTVSPropertyOp13
 70
     1
102
RTVSPropertyOp14
 70
     1
102
RTVSPropertyOp15
 70
     1
102
RTVSPropertyOp16
 70
     1
102
RTVSPropertyOp17
 70
     1
102
RTVSPropertyOp18
 70
     1
102
RTVSPropertyOp19
 70
     1
102
RTVSPropertyOp20
 70
     1
102
RTVSPropertyOp21
 70
     1
102
RTVSPropertyOp22
 70
     1
102
RTVSPropertyOp23
 70
     1
102
RTVSPropertyOp24
 70
     1
102
RTVSPropertyOp25
 70
     1
102
RTVSPropertyOp26
 70
     1
102
RTVSPropertyOp27
 70
     1
  0
XRECORD
  5
20D
102
{ACAD_REACTORS
330
20C
102
}
330
20C
100
AcDbXrecord
280
     1
102
RTVSPropertyOp0
 70
     1
102
RTVSPropertyOp1
 70
     1
102
RTVSPropertyOp2
 70
     1
102
RTVSPropertyOp3
 70
     1
102
RTVSPropertyOp4
 70
     1
102
RTVSPropertyOp5
 70
     1
102
RTVSPropertyOp6
 70
     1
102
RTVSPropertyOp7
 70
     1
102
RTVSPropertyOp8
 70
     1
102
RTVSPropertyOp9
 70
     1
102
RTVSPropertyOp10
 70
     1
102
RTVSPropertyOp11
 70
     1
102
RTVSPropertyOp12
 70
     1
102
RTVSPropertyOp13
 70
     1
102
RTVSPropertyOp14
 70
     1
102
RTVSPropertyOp15
 70
     1
102
RTVSPropertyOp16
 70
     1
102
RTVSPropertyOp17
 70
     1
102
RTVSPropertyOp18
 70
     1
102
RTVSPropertyOp19
 70
     1
102
RTVSPropertyOp20
 70
     1
102
RTVSPropertyOp21
 70
     1
102
RTVSPropertyOp22
 70
     1
102
RTVSPropertyOp23
 70
     1
102
RTVSPropertyOp24
 70
     1
102
RTVSPropertyOp25
 70
     1
102
RTVSPropertyOp26
 70
     1
102
RTVSPropertyOp27
 70
     1
  0
ENDSEC
  0
EOF
