  0
SECTION
  2
HEADER
  9
$ACADVER
  1
AC1015
  9
$ACADMAINTVER
 70
    20
  9
$DWGCODEPAGE
  3
ANSI_932
  9
$INSBASE
 10
0.0
 20
120.4992141396419
 30
0.0
  9
$EXTMIN
 10
-63.64758337617286
 20
-60.05865104962959
 30
-0.0015258207003583
  9
$EXTMAX
 10
61.41333275266106
 20
53.14284077744105
 30
0.0000000349246037
  9
$LIMMIN
 10
-1101.784450318844
 20
-1579.160531687244
  9
$LIMMAX
 10
-508.2420711400536
 20
-1161.440814074914
  9
$ORTHOMODE
 70
     1
  9
$REGENMODE
 70
     1
  9
$FILLMODE
 70
     1
  9
$QTEXTMODE
 70
     0
  9
$MIRRTEXT
 70
     1
  9
$LTSCALE
 40
1.0
  9
$ATTMODE
 70
     1
  9
$TEXTSIZE
 40
3.0
  9
$TRACEWID
 40
0.5
  9
$TEXTSTYLE
  7
STANDARD
  9
$CLAYER
  8
SUNPO
  9
$CELTYPE
  6
BYLAYER
  9
$CECOLOR
 62
   256
  9
$CELTSCALE
 40
1.0
  9
$DISPSILH
 70
     0
  9
$DIMSCALE
 40
1.0
  9
$DIMASZ
 40
2.0
  9
$DIMEXO
 40
2.0
  9
$DIMDLI
 40
8.0
  9
$DIMRND
 40
0.0
  9
$DIMDLE
 40
0.0
  9
$DIMEXE
 40
2.0
  9
$DIMTP
 40
0.0
  9
$DIMTM
 40
0.0
  9
$DIMTXT
 40
2.5
  9
$DIMCEN
 40
0.0
  9
$DIMTSZ
 40
0.0
  9
$DIMTOL
 70
     0
  9
$DIMLIM
 70
     0
  9
$DIMTIH
 70
     0
  9
$DIMTOH
 70
     0
  9
$DIMSE1
 70
     0
  9
$DIMSE2
 70
     0
  9
$DIMTAD
 70
     3
  9
$DIMZIN
 70
     0
  9
$DIMBLK
  1

  9
$DIMASO
 70
     1
  9
$DIMSHO
 70
     1
  9
$DIMPOST
  1

  9
$DIMAPOST
  1

  9
$DIMALT
 70
     0
  9
$DIMALTD
 70
     2
  9
$DIMALTF
 40
25.4
  9
$DIMLFAC
 40
1.0
  9
$DIMTOFL
 70
     1
  9
$DIMTVP
 40
0.0
  9
$DIMTIX
 70
     0
  9
$DIMSOXD
 70
     0
  9
$DIMSAH
 70
     1
  9
$DIMBLK1
  1
OPEN30
  9
$DIMBLK2
  1
OPEN30
  9
$DIMSTYLE
  2
STANDARD
  9
$DIMCLRD
 70
     0
  9
$DIMCLRE
 70
     0
  9
$DIMCLRT
 70
     0
  9
$DIMTFAC
 40
1.0
  9
$DIMGAP
 40
0.5
  9
$DIMJUST
 70
     0
  9
$DIMSD1
 70
     0
  9
$DIMSD2
 70
     0
  9
$DIMTOLJ
 70
     1
  9
$DIMTZIN
 70
     0
  9
$DIMALTZ
 70
     0
  9
$DIMALTTZ
 70
     0
  9
$DIMUPT
 70
     0
  9
$DIMDEC
 70
     4
  9
$DIMTDEC
 70
     4
  9
$DIMALTU
 70
     2
  9
$DIMALTTD
 70
     2
  9
$DIMTXSTY
  7
STANDARD
  9
$DIMAUNIT
 70
     0
  9
$DIMADEC
 70
     0
  9
$DIMALTRND
 40
0.0
  9
$DIMAZIN
 70
     0
  9
$DIMDSEP
 70
    46
  9
$DIMATFIT
 70
     3
  9
$DIMFRAC
 70
     0
  9
$DIMLDRBLK
  1
OPEN30
  9
$DIMLUNIT
 70
     2
  9
$DIMLWD
 70
    -2
  9
$DIMLWE
 70
    -2
  9
$DIMTMOVE
 70
     0
  9
$LUNITS
 70
     2
  9
$LUPREC
 70
     4
  9
$SKETCHINC
 40
0.1
  9
$FILLETRAD
 40
0.0
  9
$AUNITS
 70
     0
  9
$AUPREC
 70
     0
  9
$MENU
  1
ACAD
  9
$ELEVATION
 40
0.0
  9
$PELEVATION
 40
0.0
  9
$THICKNESS
 40
0.0
  9
$LIMCHECK
 70
     0
  9
$CHAMFERA
 40
0.0
  9
$CHAMFERB
 40
0.0
  9
$CHAMFERC
 40
0.0
  9
$CHAMFERD
 40
0.0
  9
$SKPOLY
 70
     0
  9
$TDCREATE
 40
2451815.565532581
  9
$TDUCREATE
 40
2451815.190532581
  9
$TDUPDATE
 40
2454078.577414097
  9
$TDUUPDATE
 40
2454078.202414097
  9
$TDINDWG
 40
1.3788231481
  9
$TDUSRTIMER
 40
1.3788231481
  9
$USRTIMER
 70
     1
  9
$ANGBASE
 50
0.0
  9
$ANGDIR
 70
     0
  9
$PDMODE
 70
     0
  9
$PDSIZE
 40
0.0
  9
$PLINEWID
 40
0.0
  9
$SPLFRAME
 70
     0
  9
$SPLINETYPE
 70
     6
  9
$SPLINESEGS
 70
     8
  9
$HANDSEED
  5
20D
  9
$SURFTAB1
 70
     6
  9
$SURFTAB2
 70
     6
  9
$SURFTYPE
 70
     6
  9
$SURFU
 70
     6
  9
$SURFV
 70
     6
  9
$UCSBASE
  2

  9
$UCSNAME
  2

  9
$UCSORG
 10
0.0
 20
0.0
 30
0.0
  9
$UCSXDIR
 10
1.0
 20
0.0
 30
0.0
  9
$UCSYDIR
 10
0.0
 20
1.0
 30
0.0
  9
$UCSORTHOREF
  2

  9
$UCSORTHOVIEW
 70
     0
  9
$UCSORGTOP
 10
0.0
 20
0.0
 30
0.0
  9
$UCSORGBOTTOM
 10
0.0
 20
0.0
 30
0.0
  9
$UCSORGLEFT
 10
0.0
 20
0.0
 30
0.0
  9
$UCSORGRIGHT
 10
0.0
 20
0.0
 30
0.0
  9
$UCSORGFRONT
 10
0.0
 20
0.0
 30
0.0
  9
$UCSORGBACK
 10
0.0
 20
0.0
 30
0.0
  9
$PUCSBASE
  2

  9
$PUCSNAME
  2

  9
$PUCSORG
 10
0.0
 20
0.0
 30
0.0
  9
$PUCSXDIR
 10
1.0
 20
0.0
 30
0.0
  9
$PUCSYDIR
 10
0.0
 20
1.0
 30
0.0
  9
$PUCSORTHOREF
  2

  9
$PUCSORTHOVIEW
 70
     0
  9
$PUCSORGTOP
 10
0.0
 20
0.0
 30
0.0
  9
$PUCSORGBOTTOM
 10
0.0
 20
0.0
 30
0.0
  9
$PUCSORGLEFT
 10
0.0
 20
0.0
 30
0.0
  9
$PUCSORGRIGHT
 10
0.0
 20
0.0
 30
0.0
  9
$PUCSORGFRONT
 10
0.0
 20
0.0
 30
0.0
  9
$PUCSORGBACK
 10
0.0
 20
0.0
 30
0.0
  9
$USERI1
 70
     0
  9
$USERI2
 70
     0
  9
$USERI3
 70
     0
  9
$USERI4
 70
     0
  9
$USERI5
 70
     0
  9
$USERR1
 40
0.0
  9
$USERR2
 40
0.0
  9
$USERR3
 40
0.0
  9
$USERR4
 40
0.0
  9
$USERR5
 40
0.0
  9
$WORLDVIEW
 70
     1
  9
$SHADEDGE
 70
     3
  9
$SHADEDIF
 70
    70
  9
$TILEMODE
 70
     1
  9
$MAXACTVP
 70
    48
  9
$PINSBASE
 10
0.0
 20
0.0
 30
0.0
  9
$PLIMCHECK
 70
     0
  9
$PEXTMIN
 10
1.000000000000000E+20
 20
1.000000000000000E+20
 30
1.000000000000000E+20
  9
$PEXTMAX
 10
-1.000000000000000E+20
 20
-1.000000000000000E+20
 30
-1.000000000000000E+20
  9
$PLIMMIN
 10
-0.1379166250153789
 20
-0.1712500016520342
  9
$PLIMMAX
 10
16.39708271176796
 20
11.52208270050409
  9
$UNITMODE
 70
     0
  9
$VISRETAIN
 70
     1
  9
$PLINEGEN
 70
     0
  9
$PSLTSCALE
 70
     1
  9
$TREEDEPTH
 70
  3020
  9
$CMLSTYLE
  2
STANDARD
  9
$CMLJUST
 70
     0
  9
$CMLSCALE
 40
1.0
  9
$PROXYGRAPHICS
 70
     1
  9
$MEASUREMENT
 70
     0
  9
$CELWEIGHT
370
    -1
  9
$ENDCAPS
280
     0
  9
$JOINSTYLE
280
     0
  9
$LWDISPLAY
290
     0
  9
$INSUNITS
 70
     0
  9
$HYPERLINKBASE
  1

  9
$STYLESHEET
  1

  9
$XEDIT
290
     1
  9
$CEPSNTYPE
380
     0
  9
$PSTYLEMODE
290
     1
  9
$FINGERPRINTGUID
  2
{1754B7AB-9B3C-11D4-AD9E-00104B1004F2}
  9
$VERSIONGUID
  2
{CD7DA924-0FD6-4B7F-8B4D-AB7D440C6235}
  9
$EXTNAMES
290
     1
  9
$PSVPSCALE
 40
0.0
  9
$OLESTARTUP
290
     0
  0
ENDSEC
  0
SECTION
  2
CLASSES
  0
CLASS
  1
ACDBDICTIONARYWDFLT
  2
AcDbDictionaryWithDefault
  3
ObjectDBX Classes
 90
        0
280
     0
281
     0
  0
CLASS
  1
ACDBPLACEHOLDER
  2
AcDbPlaceHolder
  3
ObjectDBX Classes
 90
        0
280
     0
281
     0
  0
CLASS
  1
LAYOUT
  2
AcDbLayout
  3
ObjectDBX Classes
 90
        0
280
     0
281
     0
  0
CLASS
  1
DICTIONARYVAR
  2
AcDbDictionaryVar
  3
ObjectDBX Classes
 90
        0
280
     0
281
     0
  0
CLASS
  1
SORTENTSTABLE
  2
AcDbSortentsTable
  3
ObjectDBX Classes
 90
    32768
280
     0
281
     0
  0
ENDSEC
  0
SECTION
  2
TABLES
  0
TABLE
  2
VPORT
  5
21
330
0
100
AcDbSymbolTable
 70
     2
  0
VPORT
  5
205
330
21
100
AcDbSymbolTableRecord
100
AcDbViewportTableRecord
  2
*Active
 70
     0
 10
0.0
 20
0.0
 11
1.0
 21
1.0
 12
-1.117125311755902
 22
-3.457905136094268
 13
0.0
 23
0.0
 14
1.0
 24
1.0
 15
0.0
 25
0.0
 16
0.0
 26
0.0
 36
1.0
 17
0.0
 27
0.0
 37
0.0
 40
114.0847284343039
 41
1.432291666666666
 42
50.0
 43
0.0
 44
0.0
 50
0.0
 51
0.0
 71
     0
 72
 10000
 73
     1
 74
     0
 75
     0
 76
     1
 77
     0
 78
     0
281
     0
 65
     1
110
0.0
120
0.0
130
0.0
111
1.0
121
0.0
131
0.0
112
0.0
122
1.0
132
0.0
 79
     0
146
0.0
  0
ENDTAB
  0
TABLE
  2
LTYPE
  5
1C
330
0
100
AcDbSymbolTable
 70
     1
  0
LTYPE
  5
1D
330
1C
100
AcDbSymbolTableRecord
100
AcDbLinetypeTableRecord
  2
BYBLOCK
 70
     0
  3

 72
    65
 73
     0
 40
0.0
  0
LTYPE
  5
1E
330
1C
100
AcDbSymbolTableRecord
100
AcDbLinetypeTableRecord
  2
BYLAYER
 70
     0
  3

 72
    65
 73
     0
 40
0.0
  0
LTYPE
  5
A
330
1C
100
AcDbSymbolTableRecord
100
AcDbLinetypeTableRecord
  2
CONTINUOUS
 70
     0
  3
Solid line
 72
    65
 73
     0
 40
0.0
  0
ENDTAB
  0
TABLE
  2
LAYER
  5
14
102
{ACAD_XDICTIONARY
360
15
102
}
330
0
100
AcDbSymbolTable
 70
     7
  0
LAYER
  5
6
330
14
100
AcDbSymbolTableRecord
100
AcDbLayerTableRecord
  2
0
 70
     0
 62
     7
  6
CONTINUOUS
370
    -3
390
7
  0
LAYER
  5
44
330
14
100
AcDbSymbolTableRecord
100
AcDbLayerTableRecord
  2
DEFPOINTS
 70
     0
 62
     7
  6
CONTINUOUS
290
     0
370
    -3
390
7
  0
LAYER
  5
1B2
330
14
100
AcDbSymbolTableRecord
100
AcDbLayerTableRecord
  2
WAKU
 70
     0
 62
     4
  6
CONTINUOUS
370
    -3
390
7
  0
LAYER
  5
36
330
14
100
AcDbSymbolTableRecord
100
AcDbLayerTableRecord
  2
MOJI1
 70
     0
 62
     2
  6
CONTINUOUS
370
    -3
390
7
  0
LAYER
  5
63
330
14
100
AcDbSymbolTableRecord
100
AcDbLayerTableRecord
  2
GAIKEI
 70
     0
 62
     7
  6
CONTINUOUS
370
    -3
390
7
  0
LAYER
  5
39
330
14
100
AcDbSymbolTableRecord
100
AcDbLayerTableRecord
  2
TOUROKU
 70
     0
 62
     1
  6
CONTINUOUS
370
    -3
390
7
  0
LAYER
  5
33
330
14
100
AcDbSymbolTableRecord
100
AcDbLayerTableRecord
  2
SUNPO
 70
     0
 62
     3
  6
CONTINUOUS
370
    -3
390
7
  0
ENDTAB
  0
TABLE
  2
STYLE
  5
19
330
0
100
AcDbSymbolTable
 70
     2
  0
STYLE
  5
1A
330
19
100
AcDbSymbolTableRecord
100
AcDbTextStyleTableRecord
  2
STANDARD
 70
     0
 40
0.0
 41
1.0
 50
0.0
 71
     0
 42
3.0
  3
MONOTXT.shx
  4
BIGFONT.shx
  0
STYLE
  5
37
330
19
100
AcDbSymbolTableRecord
100
AcDbTextStyleTableRecord
  2
KANJI
 70
     0
 40
0.0
 41
1.0
 50
0.0
 71
     0
 42
3.5
  3
MONOTXT
  4
BIGFONT
  0
ENDTAB
  0
TABLE
  2
VIEW
  5
1F
330
0
100
AcDbSymbolTable
 70
     0
  0
ENDTAB
  0
TABLE
  2
UCS
  5
20
330
0
100
AcDbSymbolTable
 70
     0
  0
ENDTAB
  0
TABLE
  2
APPID
  5
23
330
0
100
AcDbSymbolTable
 70
     1
  0
APPID
  5
24
330
23
100
AcDbSymbolTableRecord
100
AcDbRegAppTableRecord
  2
ACAD
 70
     0
  0
ENDTAB
  0
TABLE
  2
DIMSTYLE
  5
25
330
0
100
AcDbSymbolTable
 70
     1
100
AcDbDimStyleTable
 71
     1
340
26
  0
DIMSTYLE
105
26
102
{ACAD_REACTORS
330
55
330
48
330
3A
102
}
330
25
100
AcDbSymbolTableRecord
100
AcDbDimStyleTableRecord
  2
STANDARD
 70
     0
 40
0.0
 41
2.0
 42
2.0
 43
8.0
 44
2.0
 73
     0
 74
     0
 77
     3
140
3.0
141
0.0
173
     1
279
     2
288
     1
340
1A
341
27
343
27
344
27
  0
ENDTAB
  0
TABLE
  2
BLOCK_RECORD
  5
1
330
0
100
AcDbSymbolTable
 70
     7
  0
BLOCK_RECORD
  5
2
102
{ACAD_XDICTIONARY
360
3
102
}
330
1
100
AcDbSymbolTableRecord
100
AcDbBlockTableRecord
  2
*MODEL_SPACE
340
C
  0
BLOCK_RECORD
  5
E
102
{ACAD_XDICTIONARY
360
F
102
}
330
1
100
AcDbSymbolTableRecord
100
AcDbBlockTableRecord
  2
*PAPER_SPACE
340
13
  0
BLOCK_RECORD
  5
27
330
1
100
AcDbSymbolTableRecord
100
AcDbBlockTableRecord
  2
_OPEN30
340
0
102
{BLKREFS
331
5B
331
5C
331
4E
331
4F
331
40
331
41
331
1E5
331
1E6
331
1F1
331
1F2
331
1FD
331
1FE
102
}
  0
BLOCK_RECORD
  5
56
330
1
100
AcDbSymbolTableRecord
100
AcDbBlockTableRecord
  2
*D1
340
0
  0
BLOCK_RECORD
  5
49
330
1
100
AcDbSymbolTableRecord
100
AcDbBlockTableRecord
  2
*D2
340
0
  0
BLOCK_RECORD
  5
3B
330
1
100
AcDbSymbolTableRecord
100
AcDbBlockTableRecord
  2
*D3
340
0
  0
BLOCK_RECORD
  5
1E1
330
1
100
AcDbSymbolTableRecord
100
AcDbBlockTableRecord
  2
*D4
340
0
  0
BLOCK_RECORD
  5
1ED
330
1
100
AcDbSymbolTableRecord
100
AcDbBlockTableRecord
  2
*D5
340
0
  0
BLOCK_RECORD
  5
1F9
330
1
100
AcDbSymbolTableRecord
100
AcDbBlockTableRecord
  2
*D6
340
0
  0
ENDTAB
  0
ENDSEC
  0
SECTION
  2
BLOCKS
  0
BLOCK
  5
5
330
2
100
AcDbEntity
  8
0
100
AcDbBlockBegin
  2
*MODEL_SPACE
 70
     0
 10
0.0
 20
0.0
 30
0.0
  3
*MODEL_SPACE
  1

  0
ENDBLK
  5
B
330
2
100
AcDbEntity
  8
0
100
AcDbBlockEnd
  0
BLOCK
  5
11
330
E
100
AcDbEntity
 67
     1
  8
0
100
AcDbBlockBegin
  2
*PAPER_SPACE
 70
     0
 10
0.0
 20
0.0
 30
0.0
  3
*PAPER_SPACE
  1

  0
ENDBLK
  5
12
330
E
100
AcDbEntity
 67
     1
  8
0
100
AcDbBlockEnd
  0
BLOCK
  5
28
330
27
100
AcDbEntity
  8
0
100
AcDbBlockBegin
  2
_OPEN30
 70
     0
 10
0.0
 20
0.0
 30
0.0
  3
_OPEN30
  1

  0
LINE
  5
29
330
27
100
AcDbEntity
  8
0
  6
ByBlock
 62
     0
100
AcDbLine
 10
-1.0
 20
0.26794919
 30
0.0
 11
0.0
 21
0.0
 31
0.0
  0
LINE
  5
2A
330
27
100
AcDbEntity
  8
0
  6
ByBlock
 62
     0
100
AcDbLine
 10
0.0
 20
0.0
 30
0.0
 11
-1.0
 21
-0.26794919
 31
0.0
  0
LINE
  5
2B
330
27
100
AcDbEntity
  8
0
  6
ByBlock
 62
     0
100
AcDbLine
 10
0.0
 20
0.0
 30
0.0
 11
-1.0
 21
0.0
 31
0.0
  0
ENDBLK
  5
2C
330
27
100
AcDbEntity
  8
0
100
AcDbBlockEnd
  0
BLOCK
  5
57
330
56
100
AcDbEntity
  8
0
100
AcDbBlockBegin
  2
*D1
 70
     1
 10
0.0
 20
0.0
 30
0.0
  3
*D1
  1

  0
LINE
  5
58
330
56
100
AcDbEntity
  8
SUNPO
 62
     0
370
    -2
100
AcDbLine
 10
21.44705389277342
 20
83.61905128832487
 30
0.0
 11
21.44705389277342
 21
90.28923941631177
 31
0.0
  0
LINE
  5
59
330
56
100
AcDbEntity
  8
SUNPO
 62
     0
370
    -2
100
AcDbLine
 10
57.04715303246408
 20
83.61905128832489
 30
0.0
 11
57.04715303246408
 21
90.28923941631177
 31
0.0
  0
LINE
  5
5A
330
56
100
AcDbEntity
  8
SUNPO
 62
     0
370
    -2
100
AcDbLine
 10
23.44705389277342
 20
88.28923941631177
 30
0.0
 11
55.04715303246408
 21
88.28923941631177
 31
0.0
  0
INSERT
  5
5B
330
56
100
AcDbEntity
  8
SUNPO
 62
     0
370
    -2
100
AcDbBlockReference
  2
_OPEN30
 10
21.44705389277342
 20
88.28923941631177
 30
0.0
 41
2.0
 42
2.0
 43
2.0
 50
180.0
  0
INSERT
  5
5C
330
56
100
AcDbEntity
  8
SUNPO
 62
     0
370
    -2
100
AcDbBlockReference
  2
_OPEN30
 10
57.04715303246408
 20
88.28923941631177
 30
0.0
 41
2.0
 42
2.0
 43
2.0
  0
MTEXT
  5
5D
330
56
100
AcDbEntity
  8
SUNPO
 62
     0
100
AcDbMText
 10
39.24710346261875
 20
90.03923941631176
 30
0.0
 40
2.5
 41
0.0
 71
     5
 72
     1
  1
\A1;178
 73
     1
 44
1.0
1001
ACAD
1000
MTEXTBEGIN
1070
    73
1070
     1
1070
    44
1040
1.0
1070
    74
1070
     0
1000
MTEXTEND
  0
POINT
  5
5E
330
56
100
AcDbEntity
  8
DEFPOINTS
 62
     0
100
AcDbPoint
 10
21.44705389277342
 20
81.61905128832486
 30
0.0
  0
POINT
  5
5F
330
56
100
AcDbEntity
  8
DEFPOINTS
 62
     0
100
AcDbPoint
 10
57.04715303246408
 20
81.6190512883249
 30
0.0
  0
POINT
  5
60
330
56
100
AcDbEntity
  8
DEFPOINTS
 62
     0
100
AcDbPoint
 10
57.04715303246408
 20
88.28923941631177
 30
0.0
  0
ENDBLK
  5
61
330
56
100
AcDbEntity
  8
0
100
AcDbBlockEnd
  0
BLOCK
  5
4A
330
49
100
AcDbEntity
  8
0
100
AcDbBlockBegin
  2
*D2
 70
     1
 10
0.0
 20
0.0
 30
0.0
  3
*D2
  1

  0
LINE
  5
4B
330
49
100
AcDbEntity
  8
SUNPO
 62
     0
370
    -2
100
AcDbLine
 10
63.39840813548748
 20
71.65088135471274
 30
0.0
 11
71.3984081354875
 21
71.65088135471274
 31
0.0
  0
LINE
  5
4C
330
49
100
AcDbEntity
  8
SUNPO
 62
     0
370
    -2
100
AcDbLine
 10
63.39840813548749
 20
81.65090590178792
 30
0.0
 11
71.3984081354875
 21
81.65090590178792
 31
0.0
  0
LINE
  5
4D
330
49
100
AcDbEntity
  8
SUNPO
 62
     0
370
    -2
100
AcDbLine
 10
69.3984081354875
 20
73.65088135471274
 30
0.0
 11
69.3984081354875
 21
79.65090590178792
 31
0.0
  0
INSERT
  5
4E
330
49
100
AcDbEntity
  8
SUNPO
 62
     0
370
    -2
100
AcDbBlockReference
  2
_OPEN30
 10
69.3984081354875
 20
71.65088135471274
 30
0.0
 41
2.0
 42
2.0
 43
2.0
 50
270.0
  0
INSERT
  5
4F
330
49
100
AcDbEntity
  8
SUNPO
 62
     0
370
    -2
100
AcDbBlockReference
  2
_OPEN30
 10
69.3984081354875
 20
81.65090590178792
 30
0.0
 41
2.0
 42
2.0
 43
2.0
 50
90.0
  0
MTEXT
  5
50
330
49
100
AcDbEntity
  8
SUNPO
 62
     0
100
AcDbMText
 10
67.64840813548748
 20
76.65089362825034
 30
0.0
 40
2.5
 41
0.0
 71
     5
 72
     1
  1
\A1;50
 11
0.0000000000000001
 21
1.0
 31
0.0
 73
     1
 44
1.0
1001
ACAD
1000
MTEXTBEGIN
1070
    73
1070
     1
1070
    44
1040
1.0
1070
    74
1070
     0
1000
MTEXTEND
  0
POINT
  5
51
330
49
100
AcDbEntity
  8
DEFPOINTS
 62
     0
100
AcDbPoint
 10
61.39840813548748
 20
71.65088135471274
 30
0.0
  0
POINT
  5
52
330
49
100
AcDbEntity
  8
DEFPOINTS
 62
     0
100
AcDbPoint
 10
61.39840813548749
 20
81.65090590178792
 30
0.0
  0
POINT
  5
53
330
49
100
AcDbEntity
  8
DEFPOINTS
 62
     0
100
AcDbPoint
 10
69.3984081354875
 20
81.65090590178792
 30
0.0
  0
ENDBLK
  5
54
330
49
100
AcDbEntity
  8
0
100
AcDbBlockEnd
  0
BLOCK
  5
3C
330
3B
100
AcDbEntity
  8
0
100
AcDbBlockBegin
  2
*D3
 70
     1
 10
0.0
 20
0.0
 30
0.0
  3
*D3
  1

  0
LINE
  5
3D
330
3B
100
AcDbEntity
  8
SUNPO
 62
     0
370
    -2
100
AcDbLine
 10
78.7426387295275
 20
83.61905128832489
 30
0.0
 11
78.7426387295275
 21
90.2892394163118
 31
0.0
  0
LINE
  5
3E
330
3B
100
AcDbEntity
  8
SUNPO
 62
     0
370
    -2
100
AcDbLine
 10
109.7444619544678
 20
83.61905128832493
 30
0.0
 11
109.7444619544678
 21
90.2892394163118
 31
0.0
  0
LINE
  5
3F
330
3B
100
AcDbEntity
  8
SUNPO
 62
     0
370
    -2
100
AcDbLine
 10
80.7426387295275
 20
88.28923941631179
 30
0.0
 11
107.7444619544678
 21
88.28923941631179
 31
0.0
  0
INSERT
  5
40
330
3B
100
AcDbEntity
  8
SUNPO
 62
     0
370
    -2
100
AcDbBlockReference
  2
_OPEN30
 10
78.7426387295275
 20
88.28923941631179
 30
0.0
 41
2.0
 42
2.0
 43
2.0
 50
180.0
  0
INSERT
  5
41
330
3B
100
AcDbEntity
  8
SUNPO
 62
     0
370
    -2
100
AcDbBlockReference
  2
_OPEN30
 10
109.7444619544678
 20
88.28923941631179
 30
0.0
 41
2.0
 42
2.0
 43
2.0
  0
MTEXT
  5
42
330
3B
100
AcDbEntity
  8
SUNPO
 62
     0
100
AcDbMText
 10
94.24355034199768
 20
90.0392394163118
 30
0.0
 40
2.5
 41
0.0
 71
     5
 72
     1
  1
\A1;155
 73
     1
 44
1.0
1001
ACAD
1000
MTEXTBEGIN
1070
    73
1070
     1
1070
    44
1040
1.0
1070
    74
1070
     0
1000
MTEXTEND
  0
POINT
  5
43
330
3B
100
AcDbEntity
  8
DEFPOINTS
 62
     0
100
AcDbPoint
 10
78.7426387295275
 20
81.6190512883249
 30
0.0
  0
POINT
  5
45
330
3B
100
AcDbEntity
  8
DEFPOINTS
 62
     0
100
AcDbPoint
 10
109.7444619544678
 20
81.61905128832492
 30
0.0
  0
POINT
  5
46
330
3B
100
AcDbEntity
  8
DEFPOINTS
 62
     0
100
AcDbPoint
 10
109.7444619544678
 20
88.28923941631179
 30
0.0
  0
ENDBLK
  5
47
330
3B
100
AcDbEntity
  8
0
100
AcDbBlockEnd
  0
BLOCK
  5
1EB
330
1E1
100
AcDbEntity
  8
0
100
AcDbBlockBegin
  2
*D4
 70
     1
 10
0.0
 20
0.0
 30
0.0
  3
*D4
  1

  0
LINE
  5
1E2
330
1E1
100
AcDbEntity
  8
SUNPO
 62
     0
370
    -2
100
AcDbLine
 10
-44.17408948908869
 20
18.18811995042418
 30
0.0
 11
-44.17408948908869
 21
24.85830807841109
 31
0.0
  0
LINE
  5
1E3
330
1E1
100
AcDbEntity
  8
SUNPO
 62
     0
370
    -2
100
AcDbLine
 10
-8.57399034939803
 20
18.18811995042421
 30
0.0
 11
-8.57399034939803
 21
24.85830807841109
 31
0.0
  0
LINE
  5
1E4
330
1E1
100
AcDbEntity
  8
SUNPO
 62
     0
370
    -2
100
AcDbLine
 10
-42.17408948908869
 20
22.85830807841108
 30
0.0
 11
-10.57399034939803
 21
22.85830807841108
 31
0.0
  0
INSERT
  5
1E5
330
1E1
100
AcDbEntity
  8
SUNPO
 62
     0
370
    -2
100
AcDbBlockReference
  2
_OPEN30
 10
-44.17408948908869
 20
22.85830807841108
 30
0.0
 41
2.0
 42
2.0
 43
2.0
 50
180.0
  0
INSERT
  5
1E6
330
1E1
100
AcDbEntity
  8
SUNPO
 62
     0
370
    -2
100
AcDbBlockReference
  2
_OPEN30
 10
-8.57399034939803
 20
22.85830807841108
 30
0.0
 41
2.0
 42
2.0
 43
2.0
  0
MTEXT
  5
1E7
330
1E1
100
AcDbEntity
  8
SUNPO
 62
     0
100
AcDbMText
 10
-26.37403991924336
 20
24.60830807841109
 30
0.0
 40
2.5
 41
0.0
 71
     5
 72
     1
  1
\A1;178
 73
     1
 44
1.0
1001
ACAD
1000
MTEXTBEGIN
1070
    73
1070
     1
1070
    44
1040
1.0
1070
    74
1070
     0
1000
MTEXTEND
  0
POINT
  5
1E8
330
1E1
100
AcDbEntity
  8
DEFPOINTS
 62
     0
100
AcDbPoint
 10
-44.17408948908869
 20
16.18811995042418
 30
0.0
  0
POINT
  5
1E9
330
1E1
100
AcDbEntity
  8
DEFPOINTS
 62
     0
100
AcDbPoint
 10
-8.57399034939803
 20
16.18811995042421
 30
0.0
  0
POINT
  5
1EA
330
1E1
100
AcDbEntity
  8
DEFPOINTS
 62
     0
100
AcDbPoint
 10
-8.57399034939803
 20
22.85830807841108
 30
0.0
  0
ENDBLK
  5
1EC
330
1E1
100
AcDbEntity
  8
0
100
AcDbBlockEnd
  0
BLOCK
  5
1F7
330
1ED
100
AcDbEntity
  8
0
100
AcDbBlockBegin
  2
*D5
 70
     1
 10
0.0
 20
0.0
 30
0.0
  3
*D5
  1

  0
LINE
  5
1EE
330
1ED
100
AcDbEntity
  8
SUNPO
 62
     0
370
    -2
100
AcDbLine
 10
-2.222735246374626
 20
6.219950016812049
 30
0.0
 11
5.777264753625386
 21
6.219950016812046
 31
0.0
  0
LINE
  5
1EF
330
1ED
100
AcDbEntity
  8
SUNPO
 62
     0
370
    -2
100
AcDbLine
 10
-2.222735246374618
 20
16.21997456388723
 30
0.0
 11
5.777264753625388
 21
16.21997456388723
 31
0.0
  0
LINE
  5
1F0
330
1ED
100
AcDbEntity
  8
SUNPO
 62
     0
370
    -2
100
AcDbLine
 10
3.777264753625386
 20
8.219950016812047
 30
0.0
 11
3.777264753625388
 21
14.21997456388723
 31
0.0
  0
INSERT
  5
1F1
330
1ED
100
AcDbEntity
  8
SUNPO
 62
     0
370
    -2
100
AcDbBlockReference
  2
_OPEN30
 10
3.777264753625386
 20
6.219950016812046
 30
0.0
 41
2.0
 42
2.0
 43
2.0
 50
270.0
  0
INSERT
  5
1F2
330
1ED
100
AcDbEntity
  8
SUNPO
 62
     0
370
    -2
100
AcDbBlockReference
  2
_OPEN30
 10
3.777264753625388
 20
16.21997456388723
 30
0.0
 41
2.0
 42
2.0
 43
2.0
 50
90.0
  0
MTEXT
  5
1F3
330
1ED
100
AcDbEntity
  8
SUNPO
 62
     0
100
AcDbMText
 10
2.027264753625385
 20
11.21996229034964
 30
0.0
 40
2.5
 41
0.0
 71
     5
 72
     1
  1
\A1;50
 11
0.0000000000000001
 21
1.0
 31
0.0
 73
     1
 44
1.0
1001
ACAD
1000
MTEXTBEGIN
1070
    73
1070
     1
1070
    44
1040
1.0
1070
    74
1070
     0
1000
MTEXTEND
  0
POINT
  5
1F4
330
1ED
100
AcDbEntity
  8
DEFPOINTS
 62
     0
100
AcDbPoint
 10
-4.222735246374625
 20
6.219950016812049
 30
0.0
  0
POINT
  5
1F5
330
1ED
100
AcDbEntity
  8
DEFPOINTS
 62
     0
100
AcDbPoint
 10
-4.222735246374618
 20
16.21997456388723
 30
0.0
  0
POINT
  5
1F6
330
1ED
100
AcDbEntity
  8
DEFPOINTS
 62
     0
100
AcDbPoint
 10
3.777264753625388
 20
16.21997456388723
 30
0.0
  0
ENDBLK
  5
1F8
330
1ED
100
AcDbEntity
  8
0
100
AcDbBlockEnd
  0
BLOCK
  5
203
330
1F9
100
AcDbEntity
  8
0
100
AcDbBlockBegin
  2
*D6
 70
     1
 10
0.0
 20
0.0
 30
0.0
  3
*D6
  1

  0
LINE
  5
1FA
330
1F9
100
AcDbEntity
  8
SUNPO
 62
     0
370
    -2
100
AcDbLine
 10
13.12149534766539
 20
18.18811995042421
 30
0.0
 11
13.12149534766539
 21
24.85830807841111
 31
0.0
  0
LINE
  5
1FB
330
1F9
100
AcDbEntity
  8
SUNPO
 62
     0
370
    -2
100
AcDbLine
 10
44.12331857260577
 20
18.18811995042423
 30
0.0
 11
44.12331857260577
 21
24.85830807841111
 31
0.0
  0
LINE
  5
1FC
330
1F9
100
AcDbEntity
  8
SUNPO
 62
     0
370
    -2
100
AcDbLine
 10
15.12149534766539
 20
22.85830807841112
 30
0.0
 11
42.12331857260577
 21
22.85830807841112
 31
0.0
  0
INSERT
  5
1FD
330
1F9
100
AcDbEntity
  8
SUNPO
 62
     0
370
    -2
100
AcDbBlockReference
  2
_OPEN30
 10
13.12149534766539
 20
22.85830807841112
 30
0.0
 41
2.0
 42
2.0
 43
2.0
 50
180.0
  0
INSERT
  5
1FE
330
1F9
100
AcDbEntity
  8
SUNPO
 62
     0
370
    -2
100
AcDbBlockReference
  2
_OPEN30
 10
44.12331857260577
 20
22.85830807841112
 30
0.0
 41
2.0
 42
2.0
 43
2.0
  0
MTEXT
  5
1FF
330
1F9
100
AcDbEntity
  8
SUNPO
 62
     0
100
AcDbMText
 10
28.62240696013558
 20
24.60830807841111
 30
0.0
 40
2.5
 41
0.0
 71
     5
 72
     1
  1
\A1;155
 73
     1
 44
1.0
1001
ACAD
1000
MTEXTBEGIN
1070
    73
1070
     1
1070
    44
1040
1.0
1070
    74
1070
     0
1000
MTEXTEND
  0
POINT
  5
200
330
1F9
100
AcDbEntity
  8
DEFPOINTS
 62
     0
100
AcDbPoint
 10
13.12149534766539
 20
16.18811995042421
 30
0.0
  0
POINT
  5
201
330
1F9
100
AcDbEntity
  8
DEFPOINTS
 62
     0
100
AcDbPoint
 10
44.12331857260577
 20
16.18811995042424
 30
0.0
  0
POINT
  5
202
330
1F9
100
AcDbEntity
  8
DEFPOINTS
 62
     0
100
AcDbPoint
 10
44.12331857260577
 20
22.85830807841112
 30
0.0
  0
ENDBLK
  5
204
330
1F9
100
AcDbEntity
  8
0
100
AcDbBlockEnd
  0
ENDSEC
  0
SECTION
  2
ENTITIES
  0
TEXT
  5
35
330
2
100
AcDbEntity
  8
MOJI1
100
AcDbText
 10
-36.62114338186231
 20
49.0682828017417
 30
0.0
 40
4.0
  1
メモリ－カ－ドカメラレコ－ダ－
  7
KANJI
100
AcDbText
  0
TEXT
  5
38
330
2
100
AcDbEntity
  8
TOUROKU
100
AcDbText
 10
45.37880665106499
 20
43.06828280174147
 30
0.0
 40
2.0
  1
ＡＧＣＰＤ１５
 72
     2
 11
61.37880665106499
 21
43.06828280174147
 31
0.0
100
AcDbText
  0
DIMENSION
  5
3A
330
2
100
AcDbEntity
  8
SUNPO
100
AcDbDimension
  2
*D6
 10
44.12331857260577
 20
22.85830807841112
 30
0.0
 11
28.62240696013558
 21
24.60830807841111
 31
0.0
 70
    33
  1
155
 71
     5
 42
31.00182322494038
  3
STANDARD
100
AcDbAlignedDimension
 13
13.12149534766539
 23
16.18811995042421
 33
0.0
 14
44.12331857260577
 24
16.18811995042424
 34
0.0
1001
ACAD
1000
DSTYLE
1002
{
1070
    40
1040
1.0
1070
   140
1040
2.5
1070
   147
1040
0.5
1070
   172
1070
     1
1070
   279
1070
     0
1070
   288
1070
     0
1002
}
  0
DIMENSION
  5
48
330
2
100
AcDbEntity
  8
SUNPO
100
AcDbDimension
  2
*D5
 10
3.777264753625388
 20
16.21997456388723
 30
0.0
 11
2.027264753625385
 21
11.21996229034964
 31
0.0
 70
    33
  1
50
 71
     5
 42
10.00002454707518
  3
STANDARD
100
AcDbAlignedDimension
 13
-4.222735246374625
 23
6.219950016812049
 33
0.0
 14
-4.222735246374618
 24
16.21997456388723
 34
0.0
1001
ACAD
1000
DSTYLE
1002
{
1070
    40
1040
1.0
1070
   140
1040
2.5
1070
   147
1040
0.5
1070
   172
1070
     1
1070
   279
1070
     0
1070
   288
1070
     0
1002
}
  0
DIMENSION
  5
55
330
2
100
AcDbEntity
  8
SUNPO
100
AcDbDimension
  2
*D4
 10
-8.57399034939803
 20
22.85830807841108
 30
0.0
 11
-26.37403991924336
 21
24.60830807841109
 31
0.0
 70
    33
  1
178
 71
     5
 42
35.60009913969067
  3
STANDARD
100
AcDbAlignedDimension
 13
-44.17408948908869
 23
16.18811995042418
 33
0.0
 14
-8.57399034939803
 24
16.18811995042421
 34
0.0
1001
ACAD
1000
DSTYLE
1002
{
1070
    40
1040
1.0
1070
   140
1040
2.5
1070
   147
1040
0.5
1070
   172
1070
     1
1070
   279
1070
     0
1070
   288
1070
     0
1002
}
  0
LINE
  5
62
330
2
100
AcDbEntity
  8
GAIKEI
100
AcDbLine
 10
43.1234375760645
 20
6.419950016811981
 30
0.0
 11
44.12331857260577
 21
6.419950016811981
 31
0.0
  0
ARC
  5
64
330
2
100
AcDbEntity
  8
GAIKEI
 62
     1
100
AcDbCircle
 10
-32.56474994738389
 20
12.86003385323096
 30
0.0
 40
0.4000052107546454
100
AcDbArc
 50
325.5869464099961
 51
89.98579972550544
  0
ARC
  5
65
330
2
100
AcDbEntity
  8
GAIKEI
 62
     1
100
AcDbCircle
 10
-32.56466943386326
 20
12.86017394566022
 30
0.0
 40
0.6999602063524807
100
AcDbArc
 50
325.539941252411
 51
89.9984754864665
  0
ARC
  5
66
330
2
100
AcDbEntity
  8
GAIKEI
 62
     1
100
AcDbCircle
 10
-30.17286359508839
 20
11.2200298926856
 30
0.0
 40
2.20017910410223
100
AcDbArc
 50
145.566669445213
 51
220.2932817075179
  0
ARC
  5
67
330
2
100
AcDbEntity
  8
GAIKEI
 62
     1
100
AcDbCircle
 10
-30.17230716808794
 20
11.21983864649428
 30
0.0
 40
2.500688316627603
100
AcDbArc
 50
145.5632297930611
 51
220.2845403000278
  0
ARC
  5
68
330
2
100
AcDbEntity
  8
GAIKEI
 62
     1
100
AcDbCircle
 10
-32.46105451063769
 20
9.27979099282453
 30
0.0
 40
0.7998783457630169
100
AcDbArc
 50
269.9677456726024
 51
40.30273973749861
  0
ARC
  5
69
330
2
100
AcDbEntity
  8
GAIKEI
 62
     1
100
AcDbCircle
 10
-32.46063879676464
 20
9.279472642114569
 30
0.0
 40
0.4995589482239958
100
AcDbArc
 50
269.9006759620194
 51
40.35286560045465
  0
LINE
  5
6A
330
2
100
AcDbEntity
  8
GAIKEI
 62
     1
100
AcDbLine
 10
-35.83010032453009
 20
10.91038411037954
 30
0.0
 11
-36.47410889387774
 21
10.91038411037954
 31
0.0
  0
LINE
  5
6B
330
2
100
AcDbEntity
  8
GAIKEI
 62
     1
100
AcDbLine
 10
-35.83010032453009
 20
10.26609525295583
 30
0.0
 11
-35.83010032453009
 21
10.91038411037954
 31
0.0
  0
LINE
  5
6C
330
2
100
AcDbEntity
  8
GAIKEI
 62
     1
100
AcDbLine
 10
-36.47410889387774
 20
10.26609525295583
 30
0.0
 11
-35.83010032453009
 21
10.26609525295583
 31
0.0
  0
LINE
  5
6D
330
2
100
AcDbEntity
  8
GAIKEI
 62
     1
100
AcDbLine
 10
-36.47410889387774
 20
10.91038411037954
 30
0.0
 11
-36.47410889387774
 21
10.26609525295583
 31
0.0
  0
LINE
  5
6E
330
2
100
AcDbEntity
  8
GAIKEI
 62
     1
100
AcDbLine
 10
-36.87043623337772
 20
11.81487373171347
 30
0.0
 11
-35.43382312125582
 21
11.81487373171347
 31
0.0
  0
LINE
  5
6F
330
2
100
AcDbEntity
  8
GAIKEI
 62
     1
100
AcDbLine
 10
-36.77812802700666
 20
11.55327152742313
 30
0.0
 11
-35.52613132762687
 21
11.55327152742313
 31
0.0
  0
LINE
  5
70
330
2
100
AcDbEntity
  8
GAIKEI
 62
     1
100
AcDbLine
 10
-36.87043623337772
 20
9.361418772904585
 30
0.0
 11
-35.43382312125582
 21
9.361418772904585
 31
0.0
  0
LINE
  5
71
330
2
100
AcDbEntity
  8
GAIKEI
 62
     1
100
AcDbLine
 10
-36.77812802700666
 20
9.623020977194926
 30
0.0
 11
-35.52580090332523
 21
9.623020977194926
 31
0.0
  0
ARC
  5
72
330
2
100
AcDbEntity
  8
GAIKEI
 62
     1
100
AcDbCircle
 10
-35.52690735456312
 20
11.21334553594403
 30
0.0
 40
0.3399268772851903
100
AcDbArc
 50
0.2097761587844955
 51
89.86919802515012
  0
ARC
  5
73
330
2
100
AcDbEntity
  8
GAIKEI
 62
     1
100
AcDbCircle
 10
-35.52722757151659
 20
9.963266108026687
 30
0.0
 40
0.3402468968343533
100
AcDbArc
 50
270.1846019976914
 51
359.7996118667059
  0
ARC
  5
74
330
2
100
AcDbEntity
  8
GAIKEI
 62
     1
100
AcDbCircle
 10
-35.43532874919114
 20
9.871086414491287
 30
0.0
 40
0.5096698654972978
100
AcDbArc
 50
270.1692590783155
 51
359.8412742021978
  0
ARC
  5
75
330
2
100
AcDbEntity
  8
GAIKEI
 62
     1
100
AcDbCircle
 10
-35.43564938429583
 20
11.30488664963309
 30
0.0
 40
0.5099903519926609
100
AcDbArc
 50
0.1525281889632113
 51
89.79482476933675
  0
LINE
  5
76
330
2
100
AcDbEntity
  8
GAIKEI
 62
     1
100
AcDbLine
 10
-35.1869827556362
 20
11.21459010222577
 30
0.0
 11
-35.1869827556362
 21
9.962076119826974
 31
0.0
  0
LINE
  5
77
330
2
100
AcDbEntity
  8
GAIKEI
 62
     1
100
AcDbLine
 10
-34.92566083942185
 20
11.30624430308609
 30
0.0
 11
-34.92566083942185
 21
9.869674484097288
 31
0.0
  0
LINE
  5
78
330
2
100
AcDbEntity
  8
GAIKEI
 62
     1
100
AcDbLine
 10
-37.37859851521168
 20
11.30624430308609
 30
0.0
 11
-37.37859851521168
 21
9.869674484097288
 31
0.0
  0
LINE
  5
79
330
2
100
AcDbEntity
  8
GAIKEI
 62
     1
100
AcDbLine
 10
-37.11727659899734
 20
11.21459010222577
 30
0.0
 11
-37.11727659899734
 21
9.962076119826974
 31
0.0
  0
ARC
  5
7A
330
2
100
AcDbEntity
  8
GAIKEI
 62
     1
100
AcDbCircle
 10
-36.8686099703377
 20
11.30488664963309
 30
0.0
 40
0.5099903519926609
100
AcDbArc
 50
90.2051752306632
 51
179.84747181104
  0
ARC
  5
7B
330
2
100
AcDbEntity
  8
GAIKEI
 62
     1
100
AcDbCircle
 10
-36.86893060544239
 20
9.871086414491287
 30
0.0
 40
0.5096698654972978
100
AcDbArc
 50
180.1587257978022
 51
269.8307409216845
  0
ARC
  5
7C
330
2
100
AcDbEntity
  8
GAIKEI
 62
     1
100
AcDbCircle
 10
-36.77703178311694
 20
9.963266108026687
 30
0.0
 40
0.3402468968343533
100
AcDbArc
 50
180.2003881332941
 51
269.8153980023086
  0
ARC
  5
7D
330
2
100
AcDbEntity
  8
GAIKEI
 62
     1
100
AcDbCircle
 10
-36.77735200007041
 20
11.21334553594403
 30
0.0
 40
0.3399268772851903
100
AcDbArc
 50
90.13080197484988
 51
179.7902238412155
  0
ARC
  5
7E
330
2
100
AcDbEntity
  8
GAIKEI
 62
     1
100
AcDbCircle
 10
1343.573041325716
 20
511.1879743755491
 30
0.0
 40
1469.780084157938
100
AcDbArc
 50
199.9631343531546
 51
199.9773374072196
  0
ARC
  5
7F
330
2
100
AcDbEntity
  8
GAIKEI
 62
     1
100
AcDbCircle
 10
-30.56551428400505
 20
6.32363168021726
 30
0.0
 40
8.461921626117558
100
AcDbArc
 50
158.8096116298209
 51
161.2570748455086
  0
ARC
  5
80
330
2
100
AcDbEntity
  8
GAIKEI
 62
     1
100
AcDbCircle
 10
-38.17344878414039
 20
9.280771275074073
 30
0.0
 40
0.2995756583729083
100
AcDbArc
 50
19.81992995264354
 51
160.1800700473565
  0
ARC
  5
81
330
2
100
AcDbEntity
  8
GAIKEI
 62
     1
100
AcDbCircle
 10
11900.62442544675
 20
4349.746517112873
 30
0.0
 40
12703.13575132576
100
AcDbArc
 50
199.9793273279713
 51
199.9812039910274
  0
ARC
  5
82
330
2
100
AcDbEntity
  8
GAIKEI
 62
     1
100
AcDbCircle
 10
-294.787666300848
 20
102.5673643973225
 30
0.0
 40
272.8523380263734
100
AcDbArc
 50
339.9278608953971
 51
340.0176705676666
  0
ARC
  5
83
330
2
100
AcDbEntity
  8
GAIKEI
 62
     1
100
AcDbCircle
 10
-38.17344878414039
 20
9.257553132317639
 30
0.0
 40
0.1999972909952932
100
AcDbArc
 50
19.84527435577927
 51
160.1547256442207
  0
ARC
  5
84
330
2
100
AcDbEntity
  8
GAIKEI
 62
     1
100
AcDbCircle
 10
-37.37403002167397
 20
9.107327758566498
 30
0.0
 40
0.4999773781050729
100
AcDbArc
 50
200.0240374425576
 51
270.0225072313338
  0
ARC
  5
85
330
2
100
AcDbEntity
  8
GAIKEI
 62
     1
100
AcDbCircle
 10
-37.39179552996219
 20
9.180912410380756
 30
0.0
 40
0.4009979991549005
100
AcDbArc
 50
200.1711856704468
 51
269.9766552761686
  0
ARC
  5
86
330
2
100
AcDbEntity
  8
GAIKEI
 62
     1
100
AcDbCircle
 10
-38.97271429049894
 20
9.106842001552763
 30
0.0
 40
0.4994916090463637
100
AcDbArc
 50
269.9813253746153
 51
340.0149555852878
  0
ARC
  5
87
330
2
100
AcDbEntity
  8
GAIKEI
 62
     1
100
AcDbCircle
 10
-38.95465553784024
 20
9.180273139929909
 30
0.0
 40
0.4003586954293308
100
AcDbArc
 50
269.9995951583627
 51
339.8926557444446
  0
ARC
  5
88
330
2
100
AcDbEntity
  8
GAIKEI
 62
     1
100
AcDbCircle
 10
-40.53384807541735
 20
11.02002346278482
 30
0.0
 40
2.540110692844699
100
AcDbArc
 50
89.99683944659045
 51
270.0031605534095
  0
ARC
  5
89
330
2
100
AcDbEntity
  8
GAIKEI
 62
     1
100
AcDbCircle
 10
-40.53342761683595
 20
11.01997674810548
 30
0.0
 40
2.240062321137067
100
AcDbArc
 50
90.00717049099568
 51
269.9928295090043
  0
ARC
  5
8A
330
2
100
AcDbEntity
  8
GAIKEI
 62
     1
100
AcDbCircle
 10
-41.0579033109486
 20
12.25270259558761
 30
0.0
 40
0.2929034280259382
100
AcDbArc
 50
217.8478397779582
 51
280.6107938115363
  0
ARC
  5
8B
330
2
100
AcDbEntity
  8
GAIKEI
 62
     1
100
AcDbCircle
 10
-42.14062668547498
 20
11.12077514924033
 30
0.0
 40
0.3129516186883041
100
AcDbArc
 50
351.8080816277894
 51
50.084682084812
  0
ARC
  5
8C
330
2
100
AcDbEntity
  8
GAIKEI
 62
     1
100
AcDbCircle
 10
-41.69657647042081
 20
11.79058209845794
 30
0.0
 40
0.4956956517206016
100
AcDbArc
 50
34.73028273293544
 51
242.4115531644182
  0
CIRCLE
  5
8D
330
2
100
AcDbEntity
  8
GAIKEI
 62
     1
100
AcDbCircle
 10
-40.40001054540673
 20
10.57375813107302
 30
0.0
 40
1.516504072360405
  0
ARC
  5
8E
330
2
100
AcDbEntity
  8
GAIKEI
 62
     1
100
AcDbCircle
 10
-30.17271908335428
 20
11.21954185823557
 30
0.0
 40
0.4998733241183965
100
AcDbArc
 50
107.4959517815679
 51
72.57140599630727
  0
ARC
  5
8F
330
2
100
AcDbEntity
  8
GAIKEI
 62
     1
100
AcDbCircle
 10
-30.17271908335428
 20
11.21954185823557
 30
0.0
 40
0.7200855377718242
100
AcDbArc
 50
99.61634471832415
 51
80.4213528679991
  0
LINE
  5
90
330
2
100
AcDbEntity
  8
GAIKEI
 62
     1
100
AcDbLine
 10
-19.72459744855754
 20
13.51967923945858
 30
0.0
 11
-19.72459744855754
 21
14.0403610553551
 31
0.0
  0
LINE
  5
91
330
2
100
AcDbEntity
  8
GAIKEI
 62
     1
100
AcDbLine
 10
-19.64462191753156
 20
13.51967923945858
 30
0.0
 11
-19.64462191753156
 21
14.0403610553551
 31
0.0
  0
ARC
  5
92
330
2
100
AcDbEntity
  8
GAIKEI
 62
     1
100
AcDbCircle
 10
-19.58459902341596
 20
14.04041495485916
 30
0.0
 40
0.1399984355172268
100
AcDbArc
 50
90.28453983821606
 51
180.022058919192
  0
ARC
  5
93
330
2
100
AcDbEntity
  8
GAIKEI
 62
     1
100
AcDbCircle
 10
-19.5852396347752
 20
13.51973387945634
 30
0.0
 40
0.1393578244940794
100
AcDbArc
 50
180.0224647690473
 51
269.9775352309425
  0
ARC
  5
94
330
2
100
AcDbEntity
  8
GAIKEI
 62
     1
100
AcDbCircle
 10
-19.5846430554412
 20
14.04064698344791
 30
0.0
 40
0.0599795436172603
100
AcDbArc
 50
90.62209296879474
 51
180.2731353729313
  0
ARC
  5
95
330
2
100
AcDbEntity
  8
GAIKEI
 62
     1
100
AcDbCircle
 10
-19.58536920212267
 20
13.52007271799777
 30
0.0
 40
0.0592540218777657
100
AcDbArc
 50
180.3804775541728
 51
270.0724511504883
  0
ARC
  5
96
330
2
100
AcDbEntity
  8
GAIKEI
 62
     1
100
AcDbCircle
 10
-17.96450026248564
 20
13.52007271799777
 30
0.0
 40
0.0592540218777657
100
AcDbArc
 50
269.9275488495116
 51
359.6195224458238
  0
ARC
  5
97
330
2
100
AcDbEntity
  8
GAIKEI
 62
     1
100
AcDbCircle
 10
-17.96522640916711
 20
14.04064698344791
 30
0.0
 40
0.0599795436172603
100
AcDbArc
 50
359.7268646270654
 51
89.37790703120532
  0
ARC
  5
98
330
2
100
AcDbEntity
  8
GAIKEI
 62
     1
100
AcDbCircle
 10
-17.96462982983323
 20
13.51973387945634
 30
0.0
 40
0.1393578244940794
100
AcDbArc
 50
270.0224647690575
 51
359.9775352309527
  0
ARC
  5
99
330
2
100
AcDbEntity
  8
GAIKEI
 62
     1
100
AcDbCircle
 10
-17.96527044119236
 20
14.04041495485916
 30
0.0
 40
0.1399984355172268
100
AcDbArc
 50
359.9779410808047
 51
89.71546016178393
  0
LINE
  5
9A
330
2
100
AcDbEntity
  8
GAIKEI
 62
     1
100
AcDbLine
 10
-27.87253498745199
 20
7.694265296705566
 30
0.0
 11
-27.87253498745199
 21
15.01987445170516
 31
0.0
  0
LINE
  5
9B
330
2
100
AcDbEntity
  8
GAIKEI
 62
     1
100
AcDbLine
 10
-27.69202946649156
 20
7.89980988579083
 30
0.0
 11
-27.69202946649156
 21
14.93989892067924
 31
0.0
  0
ARC
  5
9C
330
2
100
AcDbEntity
  8
GAIKEI
 62
     1
100
AcDbCircle
 10
-27.67217068151737
 20
15.0198227367008
 30
0.0
 40
0.2003643126085695
100
AcDbArc
 50
90.04151833069528
 51
179.9852116802563
  0
ARC
  5
9D
330
2
100
AcDbEntity
  8
GAIKEI
 62
     1
100
AcDbCircle
 10
-27.59242351703526
 20
14.94054064066193
 30
0.0
 40
0.0996080166033018
100
AcDbArc
 50
89.95215597301484
 51
180.3691279300448
  0
ARC
  5
9E
330
2
100
AcDbEntity
  8
GAIKEI
 62
     1
100
AcDbCircle
 10
-27.67217068151737
 20
7.694317011709927
 30
0.0
 40
0.2003643126085695
100
AcDbArc
 50
180.0147883197404
 51
269.9584816693047
  0
ARC
  5
9F
330
2
100
AcDbEntity
  8
GAIKEI
 62
     1
100
AcDbCircle
 10
-27.59234537114057
 20
7.899431854673366
 30
0.0
 40
0.0996848121505163
100
AcDbArc
 50
179.7827187612227
 51
270.0028912942874
  0
ARC
  5
A0
330
2
100
AcDbEntity
  8
GAIKEI
 62
     1
100
AcDbCircle
 10
-27.67241008648691
 20
7.819926998072958
 30
0.0
 40
0.2001249224086484
100
AcDbArc
 50
180.026523786622
 51
270.0269736693599
  0
ARC
  5
A1
330
2
100
AcDbEntity
  8
GAIKEI
 62
     1
100
AcDbCircle
 10
-9.874339378121561
 20
7.819926998072958
 30
0.0
 40
0.2001249224086484
100
AcDbArc
 50
269.9730263306402
 51
359.9734762133747
  0
ARC
  5
A2
330
2
100
AcDbEntity
  8
GAIKEI
 62
     1
100
AcDbCircle
 10
-9.9544040934679
 20
7.899431854673366
 30
0.0
 40
0.0996848121505163
100
AcDbArc
 50
269.9971087057126
 51
0.2172812387772976
  0
ARC
  5
A3
330
2
100
AcDbEntity
  8
GAIKEI
 62
     1
100
AcDbCircle
 10
-9.874578783091095
 20
7.694317011709927
 30
0.0
 40
0.2003643126085695
100
AcDbArc
 50
270.0415183306953
 51
359.9852116802563
  0
ARC
  5
A4
330
2
100
AcDbEntity
  8
GAIKEI
 62
     1
100
AcDbCircle
 10
-9.954325947573096
 20
14.94054064066193
 30
0.0
 40
0.0996080166033018
100
AcDbArc
 50
359.6308720699519
 51
90.04784402698509
  0
ARC
  5
A5
330
2
100
AcDbEntity
  8
GAIKEI
 62
     1
100
AcDbCircle
 10
-9.874578783091095
 20
15.0198227367008
 30
0.0
 40
0.2003643126085695
100
AcDbArc
 50
0.0147883197403759
 51
89.95848166930471
  0
SPLINE
  5
A6
330
2
100
AcDbEntity
  8
GAIKEI
100
AcDbSpline
210
0.0
220
0.0
230
1.0
 70
     8
 71
     3
 72
     8
 73
     4
 74
     0
 42
0.0000000001
 43
0.0000000001
 40
0.0
 40
0.0
 40
0.0
 40
0.0
 40
1.0
 40
1.0
 40
1.0
 40
1.0
 10
-48.07420463762318
 20
6.219950016812049
 30
0.0
 10
-48.29479135345522
 20
6.219950016812049
 30
0.0
 10
-48.47408229275274
 20
6.398680379957568
 30
0.0
 10
-48.47408229275274
 20
6.619921101300292
 30
0.0
  0
SPLINE
  5
A7
330
2
100
AcDbEntity
  8
GAIKEI
100
AcDbSpline
210
0.0
220
0.0
230
1.0
 70
    24
 71
     3
 72
     8
 73
     4
 74
     0
 42
0.0000000001
 43
0.0000000001
 40
0.0
 40
0.0
 40
0.0
 40
0.0
 40
1.0
 40
1.0
 40
1.0
 40
1.0
 10
-48.47408229275274
 20
6.619921101300292
 30
0.0
 10
-48.47408229275274
 20
6.619921101300292
 30
0.0
 10
-48.47408229275274
 20
15.82000347939902
 30
0.0
 10
-48.47408229275274
 20
15.82000347939902
 30
0.0
  0
SPLINE
  5
A8
330
2
100
AcDbEntity
  8
GAIKEI
100
AcDbSpline
210
0.0
220
0.0
230
1.0
 70
     8
 71
     3
 72
     8
 73
     4
 74
     0
 42
0.0000000001
 43
0.0000000001
 40
1.0
 40
1.0
 40
1.0
 40
1.0
 40
2.0
 40
2.0
 40
2.0
 40
2.0
 10
-48.47408229275274
 20
15.82000347939902
 30
0.0
 10
-48.47408229275274
 20
16.04161791817643
 30
0.0
 10
-48.29479135345522
 20
16.21997456388726
 30
0.0
 10
-48.07420463762318
 20
16.21997456388726
 30
0.0
  0
LINE
  5
A9
330
2
100
AcDbEntity
  8
GAIKEI
100
AcDbLine
 10
-48.47408229275285
 20
15.82000347939896
 30
0.0
 11
-48.47408229275285
 21
6.619921101300235
 31
0.0
  0
ARC
  5
AA
330
2
100
AcDbEntity
  8
GAIKEI
100
AcDbCircle
 10
-48.07421124475101
 20
6.61982107726925
 30
0.0
 40
0.3998710605118574
100
AcDbArc
 50
179.9856679928851
 51
270.0009467065083
  0
ARC
  5
AB
330
2
100
AcDbEntity
  8
GAIKEI
100
AcDbCircle
 10
-48.07445044202151
 20
15.82034264482621
 30
0.0
 40
0.3996319946552986
100
AcDbArc
 50
89.96475868879844
 51
180.0486266118108
  0
LINE
  5
AC
330
2
100
AcDbEntity
  8
GAIKEI
100
AcDbLine
 10
-44.17408948908868
 20
6.219950016811992
 30
0.0
 11
-44.17408948908868
 21
16.2199745638872
 31
0.0
  0
ARC
  5
AD
330
2
100
AcDbEntity
  8
GAIKEI
100
AcDbCircle
 10
-43.97438142466373
 20
6.419658095736281
 30
0.0
 40
0.1997087328109911
100
AcDbArc
 50
180.1482357474225
 51
270.1466190753647
  0
ARC
  5
AE
330
2
100
AcDbEntity
  8
GAIKEI
100
AcDbCircle
 10
-43.97438141283848
 20
16.02026647307662
 30
0.0
 40
0.199708744666989
100
AcDbArc
 50
89.85338432597929
 51
179.8517608512286
  0
ARC
  5
AF
330
2
100
AcDbEntity
  8
GAIKEI
100
AcDbCircle
 10
-4.673629396465202
 20
15.82034264482621
 30
0.0
 40
0.3996319946552986
100
AcDbArc
 50
359.9513733881924
 51
90.03524131120153
  0
ARC
  5
B0
330
2
100
AcDbEntity
  8
GAIKEI
100
AcDbCircle
 10
-4.673868593735704
 20
6.61982107726925
 30
0.0
 40
0.3998710605118574
100
AcDbArc
 50
269.9990532934917
 51
0.0143320071116472
  0
LINE
  5
B1
330
2
100
AcDbEntity
  8
GAIKEI
100
AcDbLine
 10
-4.273997545733863
 20
15.82000347939896
 30
0.0
 11
-4.273997545733863
 21
6.619921101300235
 31
0.0
  0
LINE
  5
B2
330
2
100
AcDbEntity
  8
GAIKEI
 62
     1
100
AcDbLine
 10
-34.50751432312492
 20
9.380571791432998
 30
0.0
 11
-34.62252586365409
 21
9.380571791432998
 31
0.0
  0
LINE
  5
B3
330
2
100
AcDbEntity
  8
GAIKEI
 62
     1
100
AcDbLine
 10
-34.50751432312492
 20
12.43982271189145
 30
0.0
 11
-34.50751432312492
 21
9.380571791432998
 31
0.0
  0
LINE
  5
B4
330
2
100
AcDbEntity
  8
GAIKEI
 62
     1
100
AcDbLine
 10
-34.62252586365409
 20
12.43982271189145
 30
0.0
 11
-34.50751432312492
 21
12.43982271189145
 31
0.0
  0
LINE
  5
B5
330
2
100
AcDbEntity
  8
GAIKEI
 62
     1
100
AcDbLine
 10
-34.62252586365409
 20
9.380571791432998
 30
0.0
 11
-34.62252586365409
 21
12.43982271189145
 31
0.0
  0
SPLINE
  5
B6
330
2
100
AcDbEntity
  8
GAIKEI
 62
     1
100
AcDbSpline
210
0.0
220
0.0
230
1.0
 70
     8
 71
     3
 72
     8
 73
     4
 74
     0
 42
0.0000000001
 43
0.0000000001
 40
3.0
 40
3.0
 40
3.0
 40
3.0
 40
4.0
 40
4.0
 40
4.0
 40
4.0
 10
-29.69599578071436
 20
11.37014998441987
 30
0.0
 10
-29.74476590594278
 20
11.52552300789665
 30
0.0
 10
-29.86687807773112
 20
11.64819575583709
 30
0.0
 10
-30.02299853607733
 20
11.69715273978283
 30
0.0
  0
SPLINE
  5
B7
330
2
100
AcDbEntity
  8
GAIKEI
 62
     1
100
AcDbSpline
210
0.0
220
0.0
230
1.0
 70
     8
 71
     3
 72
     8
 73
     4
 74
     0
 42
0.0000000001
 43
0.0000000001
 40
2.0
 40
2.0
 40
2.0
 40
2.0
 40
3.0
 40
3.0
 40
3.0
 40
3.0
 10
-30.02299853607733
 20
10.74277184091636
 30
0.0
 10
-29.75952774461345
 20
10.82601739949592
 30
0.0
 10
-29.61293708085211
 20
11.10667919295599
 30
0.0
 10
-29.69599578071436
 20
11.37014998441987
 30
0.0
  0
SPLINE
  5
B8
330
2
100
AcDbEntity
  8
GAIKEI
 62
     1
100
AcDbSpline
210
0.0
220
0.0
230
1.0
 70
     8
 71
     3
 72
    11
 73
     7
 74
     0
 42
0.0000000001
 43
0.0000000001
 40
0.0
 40
0.0
 40
0.0
 40
0.0
 40
1.0
 40
1.0
 40
1.0
 40
2.0
 40
2.0
 40
2.0
 40
2.0
 10
-30.32300020678312
 20
11.69715273978283
 30
0.0
 10
-30.58628413952963
 20
11.61372032248596
 30
0.0
 10
-30.73306166200834
 20
11.3332453877432
 30
0.0
 10
-30.65000296214609
 20
11.06977459627933
 30
0.0
 10
-30.56694426228395
 20
10.80630380481546
 30
0.0
 10
-30.28609561010646
 20
10.66008685848891
 30
0.0
 10
-30.02299853607733
 20
10.74277184091636
 30
0.0
  0
SPLINE
  5
B9
330
2
100
AcDbEntity
  8
GAIKEI
 62
     1
100
AcDbSpline
210
0.0
220
0.0
230
1.0
 70
     8
 71
     3
 72
     8
 73
     4
 74
     0
 42
0.0000000001
 43
0.0000000001
 40
3.0
 40
3.0
 40
3.0
 40
3.0
 40
4.0
 40
4.0
 40
4.0
 40
4.0
 10
-29.46279610146118
 20
11.34034601900254
 30
0.0
 10
-29.51380853129783
 20
11.64184255944718
 30
0.0
 10
-29.75093224361533
 20
11.87915313048199
 30
0.0
 10
-30.0528959308534
 20
11.92969841352521
 30
0.0
  0
SPLINE
  5
BA
330
2
100
AcDbEntity
  8
GAIKEI
 62
     1
100
AcDbSpline
210
0.0
220
0.0
230
1.0
 70
     8
 71
     3
 72
     8
 73
     4
 74
     0
 42
0.0000000001
 43
0.0000000001
 40
2.0
 40
2.0
 40
2.0
 40
2.0
 40
3.0
 40
3.0
 40
3.0
 40
3.0
 10
-30.0528959308534
 20
10.50947873230461
 30
0.0
 10
-29.6607729124938
 20
10.57646758247466
 30
0.0
 10
-29.39636782744319
 20
10.94784928320831
 30
0.0
 10
-29.46279610146118
 20
11.34034601900254
 30
0.0
  0
SPLINE
  5
BB
330
2
100
AcDbEntity
  8
GAIKEI
 62
     1
100
AcDbSpline
210
0.0
220
0.0
230
1.0
 70
     8
 71
     3
 72
     8
 73
     4
 74
     0
 42
0.0000000001
 43
0.0000000001
 40
1.0
 40
1.0
 40
1.0
 40
1.0
 40
2.0
 40
2.0
 40
2.0
 40
2.0
 10
-30.88292235332321
 20
11.0999522791314
 30
0.0
 10
-30.81630722058785
 20
10.70754897269586
 30
0.0
 10
-30.4449255198542
 20
10.4437044637973
 30
0.0
 10
-30.0528959308534
 20
10.50947873230461
 30
0.0
  0
SPLINE
  5
BC
330
2
100
AcDbEntity
  8
GAIKEI
 62
     1
100
AcDbSpline
210
0.0
220
0.0
230
1.0
 70
     8
 71
     3
 72
     8
 73
     4
 74
     0
 42
0.0000000001
 43
0.0000000001
 40
0.0
 40
0.0
 40
0.0
 40
0.0
 40
1.0
 40
1.0
 40
1.0
 40
1.0
 10
-30.29300938264848
 20
11.92969841352521
 30
0.0
 10
-30.68522583036665
 20
11.86383071565927
 30
0.0
 10
-30.94888348054789
 20
11.49207529749094
 30
0.0
 10
-30.88292235332321
 20
11.0999522791314
 30
0.0
  0
LINE
  5
BD
330
2
100
AcDbEntity
  8
GAIKEI
 62
     1
100
AcDbLine
 10
-12.43804176548414
 20
7.617746651950596
 30
0.0
 11
-12.57444862914983
 21
7.619802097841443
 31
0.0
  0
LINE
  5
BE
330
2
100
AcDbEntity
  8
GAIKEI
 62
     1
100
AcDbLine
 10
-12.30182176053583
 20
7.611954031712741
 30
0.0
 11
-12.43804176548414
 21
7.617746651950596
 31
0.0
  0
LINE
  5
BF
330
2
100
AcDbEntity
  8
GAIKEI
 62
     1
100
AcDbLine
 10
-12.16747034276099
 20
7.602797954562561
 30
0.0
 11
-12.30182176053583
 21
7.611954031712741
 31
0.0
  0
LINE
  5
C0
330
2
100
AcDbEntity
  8
GAIKEI
 62
     1
100
AcDbLine
 10
-12.03620209382242
 20
7.588876980120005
 30
0.0
 11
-12.16747034276099
 21
7.602797954562561
 31
0.0
  0
LINE
  5
C1
330
2
100
AcDbEntity
  8
GAIKEI
 62
     1
100
AcDbLine
 10
-11.90820387243749
 20
7.571218831330384
 30
0.0
 11
-12.03620209382242
 21
7.588876980120005
 31
0.0
  0
LINE
  5
C2
330
2
100
AcDbEntity
  8
GAIKEI
 62
     1
100
AcDbLine
 10
-11.78440997219294
 20
7.551131519215232
 30
0.0
 11
-11.90820387243749
 21
7.571218831330384
 31
0.0
  0
LINE
  5
C3
330
2
100
AcDbEntity
  8
GAIKEI
 62
     1
100
AcDbLine
 10
-11.66594154539288
 20
7.526839885959702
 30
0.0
 11
-11.78440997219294
 21
7.551131519215232
 31
0.0
  0
LINE
  5
C4
330
2
100
AcDbEntity
  8
GAIKEI
 62
     1
100
AcDbLine
 10
-11.55326573883062
 20
7.499838801302587
 30
0.0
 11
-11.66594154539288
 21
7.526839885959702
 31
0.0
  0
LINE
  5
C5
330
2
100
AcDbEntity
  8
GAIKEI
 62
     1
100
AcDbLine
 10
-11.44703655801706
 20
7.468446536787723
 30
0.0
 11
-11.55326573883062
 21
7.499838801302587
 31
0.0
  0
LINE
  5
C6
330
2
100
AcDbEntity
  8
GAIKEI
 62
     1
100
AcDbLine
 10
-11.34846858461478
 20
7.435372543816754
 30
0.0
 11
-11.44703655801706
 21
7.468446536787723
 31
0.0
  0
LINE
  5
C7
330
2
100
AcDbEntity
  8
GAIKEI
 62
     1
100
AcDbLine
 10
-11.25765524798257
 20
7.399402240726828
 30
0.0
 11
-11.34846858461478
 21
7.435372543816754
 31
0.0
  0
LINE
  5
C8
330
2
100
AcDbEntity
  8
GAIKEI
 62
     1
100
AcDbLine
 10
-11.1753439829898
 20
7.360535627517947
 30
0.0
 11
-11.25765524798257
 21
7.399402240726828
 31
0.0
  0
LINE
  5
C9
330
2
100
AcDbEntity
  8
GAIKEI
 62
     1
100
AcDbLine
 10
-11.10228222450584
 20
7.319800427135589
 30
0.0
 11
-11.1753439829898
 21
7.360535627517947
 31
0.0
  0
LINE
  5
CA
330
2
100
AcDbEntity
  8
GAIKEI
 62
     1
100
AcDbLine
 10
-11.03875026060674
 20
7.276729492786387
 30
0.0
 11
-11.10228222450584
 21
7.319800427135589
 31
0.0
  0
LINE
  5
CB
330
2
100
AcDbEntity
  8
GAIKEI
 62
     1
100
AcDbLine
 10
-10.98512180872714
 20
7.231976829980965
 30
0.0
 11
-11.03875026060674
 21
7.276729492786387
 31
0.0
  0
LINE
  5
CC
330
2
100
AcDbEntity
  8
GAIKEI
 62
     1
100
AcDbLine
 10
-10.94167715694331
 20
7.186850449740916
 30
0.0
 11
-10.98512180872714
 21
7.231976829980965
 31
0.0
  0
LINE
  5
CD
330
2
100
AcDbEntity
  8
GAIKEI
 62
     1
100
AcDbLine
 10
-10.90860316397229
 20
7.140135770403333
 30
0.0
 11
-10.94167715694331
 21
7.186850449740916
 31
0.0
  0
LINE
  5
CE
330
2
100
AcDbEntity
  8
GAIKEI
 62
     1
100
AcDbLine
 10
-10.88702098211828
 20
7.091926221326957
 30
0.0
 11
-10.90860316397229
 21
7.140135770403333
 31
0.0
  0
LINE
  5
CF
330
2
100
AcDbEntity
  8
GAIKEI
 62
     1
100
AcDbLine
 10
-10.875902888436
 20
7.043342954815898
 30
0.0
 11
-10.88702098211828
 21
7.091926221326957
 31
0.0
  0
LINE
  5
D0
330
2
100
AcDbEntity
  8
GAIKEI
 62
     1
100
AcDbLine
 10
-10.875902888436
 20
6.995880840608947
 30
0.0
 11
-10.875902888436
 21
7.043342954815898
 31
0.0
  0
LINE
  5
D1
330
2
100
AcDbEntity
  8
GAIKEI
 62
     1
100
AcDbLine
 10
-10.88702098211828
 20
6.947297574097888
 30
0.0
 11
-10.875902888436
 21
6.995880840608947
 31
0.0
  0
LINE
  5
D2
330
2
100
AcDbEntity
  8
GAIKEI
 62
     1
100
AcDbLine
 10
-10.90860316397229
 20
6.899461742456196
 30
0.0
 11
-10.88702098211828
 21
6.947297574097888
 31
0.0
  0
LINE
  5
D3
330
2
100
AcDbEntity
  8
GAIKEI
 62
     1
100
AcDbLine
 10
-10.94167715694331
 20
6.852747063118613
 30
0.0
 11
-10.90860316397229
 21
6.899461742456196
 31
0.0
  0
LINE
  5
D4
330
2
100
AcDbEntity
  8
GAIKEI
 62
     1
100
AcDbLine
 10
-10.98512180872714
 20
6.80706010672651
 30
0.0
 11
-10.94167715694331
 21
6.852747063118613
 31
0.0
  0
LINE
  5
D5
330
2
100
AcDbEntity
  8
GAIKEI
 62
     1
100
AcDbLine
 10
-11.03875026060674
 20
6.762587731997143
 30
0.0
 11
-10.98512180872714
 21
6.80706010672651
 31
0.0
  0
LINE
  5
D6
330
2
100
AcDbEntity
  8
GAIKEI
 62
     1
100
AcDbLine
 10
-11.10228222450584
 20
6.719610227006569
 30
0.0
 11
-11.03875026060674
 21
6.762587731997143
 31
0.0
  0
LINE
  5
D7
330
2
100
AcDbEntity
  8
GAIKEI
 62
     1
100
AcDbLine
 10
-11.1753439829898
 20
6.678407879830842
 30
0.0
 11
-11.10228222450584
 21
6.719610227006569
 31
0.0
  0
LINE
  5
D8
330
2
100
AcDbEntity
  8
GAIKEI
 62
     1
100
AcDbLine
 10
-11.25765524798257
 20
6.640382130850071
 30
0.0
 11
-11.1753439829898
 21
6.678407879830842
 31
0.0
  0
LINE
  5
D9
330
2
100
AcDbEntity
  8
GAIKEI
 62
     1
100
AcDbLine
 10
-11.34846858461478
 20
6.603851251608091
 30
0.0
 11
-11.25765524798257
 21
6.640382130850071
 31
0.0
  0
LINE
  5
DA
330
2
100
AcDbEntity
  8
GAIKEI
 62
     1
100
AcDbLine
 10
-11.44703655801706
 20
6.570496970561066
 30
0.0
 11
-11.34846858461478
 21
6.603851251608091
 31
0.0
  0
LINE
  5
DB
330
2
100
AcDbEntity
  8
GAIKEI
 62
     1
100
AcDbLine
 10
-11.55326573883062
 20
6.540319287708996
 30
0.0
 11
-11.44703655801706
 21
6.570496970561066
 31
0.0
  0
LINE
  5
DC
330
2
100
AcDbEntity
  8
GAIKEI
 62
     1
100
AcDbLine
 10
-11.66594154539288
 20
6.512570768182513
 30
0.0
 11
-11.55326573883062
 21
6.540319287708996
 31
0.0
  0
LINE
  5
DD
330
2
100
AcDbEntity
  8
GAIKEI
 62
     1
100
AcDbLine
 10
-11.78440997219294
 20
6.488279134926926
 30
0.0
 11
-11.66594154539288
 21
6.512570768182513
 31
0.0
  0
LINE
  5
DE
330
2
100
AcDbEntity
  8
GAIKEI
 62
     1
100
AcDbLine
 10
-11.90820387243749
 20
6.467724676018406
 30
0.0
 11
-11.78440997219294
 21
6.488279134926926
 31
0.0
  0
LINE
  5
DF
330
2
100
AcDbEntity
  8
GAIKEI
 62
     1
100
AcDbLine
 10
-12.03620209382242
 20
6.450159956587526
 30
0.0
 11
-11.90820387243749
 21
6.467724676018406
 31
0.0
  0
LINE
  5
E0
330
2
100
AcDbEntity
  8
GAIKEI
 62
     1
100
AcDbLine
 10
-12.16747034276099
 20
6.437173275731652
 30
0.0
 11
-12.03620209382242
 21
6.450159956587526
 31
0.0
  0
LINE
  5
E1
330
2
100
AcDbEntity
  8
GAIKEI
 62
     1
100
AcDbLine
 10
-12.30182176053583
 20
6.427736910505473
 30
0.0
 11
-12.16747034276099
 21
6.437173275731652
 31
0.0
  0
LINE
  5
E2
330
2
100
AcDbEntity
  8
GAIKEI
 62
     1
100
AcDbLine
 10
-12.43804176548414
 20
6.421850860908932
 30
0.0
 11
-12.30182176053583
 21
6.427736910505473
 31
0.0
  0
LINE
  5
E3
330
2
100
AcDbEntity
  8
GAIKEI
 62
     1
100
AcDbLine
 10
-12.57444862914983
 20
6.419141409507346
 30
0.0
 11
-12.43804176548414
 21
6.421850860908932
 31
0.0
  0
LINE
  5
E4
330
2
100
AcDbEntity
  8
GAIKEI
 62
     1
100
AcDbLine
 10
-25.10926827527632
 20
6.421850860908932
 30
0.0
 11
-24.97230083545853
 21
6.419141409507346
 31
0.0
  0
LINE
  5
E5
330
2
100
AcDbEntity
  8
GAIKEI
 62
     1
100
AcDbLine
 10
-25.2451145627899
 20
6.427736910505473
 30
0.0
 11
-25.10926827527632
 21
6.421850860908932
 31
0.0
  0
LINE
  5
E6
330
2
100
AcDbEntity
  8
GAIKEI
 62
     1
100
AcDbLine
 10
-25.37946598056473
 20
6.437173275731652
 30
0.0
 11
-25.2451145627899
 21
6.427736910505473
 31
0.0
  0
LINE
  5
E7
330
2
100
AcDbEntity
  8
GAIKEI
 62
     1
100
AcDbLine
 10
-25.51054737078593
 20
6.450159956587526
 30
0.0
 11
-25.37946598056473
 21
6.437173275731652
 31
0.0
  0
LINE
  5
E8
330
2
100
AcDbEntity
  8
GAIKEI
 62
     1
100
AcDbLine
 10
-25.63854559217086
 20
6.467724676018406
 30
0.0
 11
-25.51054737078593
 21
6.450159956587526
 31
0.0
  0
LINE
  5
E9
330
2
100
AcDbEntity
  8
GAIKEI
 62
     1
100
AcDbLine
 10
-25.76252635113278
 20
6.488279134926926
 30
0.0
 11
-25.63854559217086
 21
6.467724676018406
 31
0.0
  0
LINE
  5
EA
330
2
100
AcDbEntity
  8
GAIKEI
 62
     1
100
AcDbLine
 10
-25.88099477793284
 20
6.512570768182513
 30
0.0
 11
-25.76252635113278
 21
6.488279134926926
 31
0.0
  0
LINE
  5
EB
330
2
100
AcDbEntity
  8
GAIKEI
 62
     1
100
AcDbLine
 10
-25.99367058449511
 20
6.540319287708996
 30
0.0
 11
-25.88099477793284
 21
6.512570768182513
 31
0.0
  0
LINE
  5
EC
330
2
100
AcDbEntity
  8
GAIKEI
 62
     1
100
AcDbLine
 10
-26.10008662402603
 20
6.570496970561066
 30
0.0
 11
-25.99367058449511
 21
6.540319287708996
 31
0.0
  0
LINE
  5
ED
330
2
100
AcDbEntity
  8
GAIKEI
 62
     1
100
AcDbLine
 10
-26.19865459742832
 20
6.603851251608091
 30
0.0
 11
-26.10008662402603
 21
6.570496970561066
 31
0.0
  0
LINE
  5
EE
330
2
100
AcDbEntity
  8
GAIKEI
 62
     1
100
AcDbLine
 10
-26.28946793406053
 20
6.640382130850071
 30
0.0
 11
-26.19865459742832
 21
6.603851251608091
 31
0.0
  0
LINE
  5
EF
330
2
100
AcDbEntity
  8
GAIKEI
 62
     1
100
AcDbLine
 10
-26.37140548161867
 20
6.678407879830842
 30
0.0
 11
-26.28946793406053
 21
6.640382130850071
 31
0.0
  0
LINE
  5
F0
330
2
100
AcDbEntity
  8
GAIKEI
 62
     1
100
AcDbLine
 10
-26.44465409881988
 20
6.719610227006569
 30
0.0
 11
-26.37140548161867
 21
6.678407879830842
 31
0.0
  0
LINE
  5
F1
330
2
100
AcDbEntity
  8
GAIKEI
 62
     1
100
AcDbLine
 10
-26.50818606271898
 20
6.762587731997143
 30
0.0
 11
-26.44465409881988
 21
6.719610227006569
 31
0.0
  0
LINE
  5
F2
330
2
100
AcDbEntity
  8
GAIKEI
 62
     1
100
AcDbLine
 10
-26.56200137331584
 20
6.80706010672651
 30
0.0
 11
-26.50818606271898
 21
6.762587731997143
 31
0.0
  0
LINE
  5
F3
330
2
100
AcDbEntity
  8
GAIKEI
 62
     1
100
AcDbLine
 10
-26.60563288381715
 20
6.852747063118613
 30
0.0
 11
-26.56200137331584
 21
6.80706010672651
 31
0.0
  0
LINE
  5
F4
330
2
100
AcDbEntity
  8
GAIKEI
 62
     1
100
AcDbLine
 10
-26.63833315935344
 20
6.899461742456196
 30
0.0
 11
-26.60563288381715
 21
6.852747063118613
 31
0.0
  0
LINE
  5
F5
330
2
100
AcDbEntity
  8
GAIKEI
 62
     1
100
AcDbLine
 10
-26.66010219992481
 20
6.947297574097888
 30
0.0
 11
-26.63833315935344
 21
6.899461742456196
 31
0.0
  0
LINE
  5
F6
330
2
100
AcDbEntity
  8
GAIKEI
 62
     1
100
AcDbLine
 10
-26.67103343488972
 20
6.995880840608947
 30
0.0
 11
-26.66010219992481
 21
6.947297574097888
 31
0.0
  0
LINE
  5
F7
330
2
100
AcDbEntity
  8
GAIKEI
 62
     1
100
AcDbLine
 10
-26.67103343488972
 20
7.043342954815898
 30
0.0
 11
-26.67103343488972
 21
6.995880840608947
 31
0.0
  0
LINE
  5
F8
330
2
100
AcDbEntity
  8
GAIKEI
 62
     1
100
AcDbLine
 10
-26.66010219992481
 20
7.091926221326957
 30
0.0
 11
-26.67103343488972
 21
7.043342954815898
 31
0.0
  0
LINE
  5
F9
330
2
100
AcDbEntity
  8
GAIKEI
 62
     1
100
AcDbLine
 10
-26.63833315935344
 20
7.140135770403333
 30
0.0
 11
-26.66010219992481
 21
7.091926221326957
 31
0.0
  0
LINE
  5
FA
330
2
100
AcDbEntity
  8
GAIKEI
 62
     1
100
AcDbLine
 10
-26.60563288381715
 20
7.186850449740916
 30
0.0
 11
-26.63833315935344
 21
7.140135770403333
 31
0.0
  0
LINE
  5
FB
330
2
100
AcDbEntity
  8
GAIKEI
 62
     1
100
AcDbLine
 10
-26.56200137331584
 20
7.231976829980965
 30
0.0
 11
-26.60563288381715
 21
7.186850449740916
 31
0.0
  0
LINE
  5
FC
330
2
100
AcDbEntity
  8
GAIKEI
 62
     1
100
AcDbLine
 10
-26.50818606271898
 20
7.276729492786387
 30
0.0
 11
-26.56200137331584
 21
7.231976829980965
 31
0.0
  0
LINE
  5
FD
330
2
100
AcDbEntity
  8
GAIKEI
 62
     1
100
AcDbLine
 10
-26.44465409881988
 20
7.319800427135589
 30
0.0
 11
-26.50818606271898
 21
7.276729492786387
 31
0.0
  0
LINE
  5
FE
330
2
100
AcDbEntity
  8
GAIKEI
 62
     1
100
AcDbLine
 10
-26.37140548161867
 20
7.360535627517947
 30
0.0
 11
-26.44465409881988
 21
7.319800427135589
 31
0.0
  0
LINE
  5
FF
330
2
100
AcDbEntity
  8
GAIKEI
 62
     1
100
AcDbLine
 10
-26.28946793406053
 20
7.399402240726828
 30
0.0
 11
-26.37140548161867
 21
7.360535627517947
 31
0.0
  0
LINE
  5
100
330
2
100
AcDbEntity
  8
GAIKEI
 62
     1
100
AcDbLine
 10
-26.19865459742832
 20
7.435372543816754
 30
0.0
 11
-26.28946793406053
 21
7.399402240726828
 31
0.0
  0
LINE
  5
101
330
2
100
AcDbEntity
  8
GAIKEI
 62
     1
100
AcDbLine
 10
-26.10008662402603
 20
7.468446536787723
 30
0.0
 11
-26.19865459742832
 21
7.435372543816754
 31
0.0
  0
LINE
  5
102
330
2
100
AcDbEntity
  8
GAIKEI
 62
     1
100
AcDbLine
 10
-25.99367058449511
 20
7.499838801302587
 30
0.0
 11
-26.10008662402603
 21
7.468446536787723
 31
0.0
  0
LINE
  5
103
330
2
100
AcDbEntity
  8
GAIKEI
 62
     1
100
AcDbLine
 10
-25.88099477793284
 20
7.526839885959702
 30
0.0
 11
-25.99367058449511
 21
7.499838801302587
 31
0.0
  0
LINE
  5
104
330
2
100
AcDbEntity
  8
GAIKEI
 62
     1
100
AcDbLine
 10
-25.76252635113278
 20
7.551131519215232
 30
0.0
 11
-25.88099477793284
 21
7.526839885959702
 31
0.0
  0
LINE
  5
105
330
2
100
AcDbEntity
  8
GAIKEI
 62
     1
100
AcDbLine
 10
-25.63854559217086
 20
7.571218831330384
 30
0.0
 11
-25.76252635113278
 21
7.551131519215232
 31
0.0
  0
LINE
  5
106
330
2
100
AcDbEntity
  8
GAIKEI
 62
     1
100
AcDbLine
 10
-25.51054737078593
 20
7.588876980120005
 30
0.0
 11
-25.63854559217086
 21
7.571218831330384
 31
0.0
  0
LINE
  5
107
330
2
100
AcDbEntity
  8
GAIKEI
 62
     1
100
AcDbLine
 10
-25.37946598056473
 20
7.602797954562561
 30
0.0
 11
-25.51054737078593
 21
7.588876980120005
 31
0.0
  0
LINE
  5
108
330
2
100
AcDbEntity
  8
GAIKEI
 62
     1
100
AcDbLine
 10
-25.2451145627899
 20
7.611954031712741
 30
0.0
 11
-25.37946598056473
 21
7.602797954562561
 31
0.0
  0
LINE
  5
109
330
2
100
AcDbEntity
  8
GAIKEI
 62
     1
100
AcDbLine
 10
-25.10926827527632
 20
7.617746651950596
 30
0.0
 11
-25.2451145627899
 21
7.611954031712741
 31
0.0
  0
LINE
  5
10A
330
2
100
AcDbEntity
  8
GAIKEI
 62
     1
100
AcDbLine
 10
-24.97230083545853
 20
7.619802097841443
 30
0.0
 11
-25.10926827527632
 21
7.617746651950596
 31
0.0
  0
SPLINE
  5
10B
330
2
100
AcDbEntity
  8
GAIKEI
100
AcDbSpline
210
0.0
220
0.0
230
1.0
 70
     8
 71
     3
 72
     8
 73
     4
 74
     0
 42
0.0000000001
 43
0.0000000001
 40
1.0
 40
1.0
 40
1.0
 40
1.0
 40
2.0
 40
2.0
 40
2.0
 40
2.0
 10
-4.273997545733863
 20
15.82000347939902
 30
0.0
 10
-4.273997545733863
 20
16.04161791817643
 30
0.0
 10
-4.453288485031379
 20
16.21997456388726
 30
0.0
 10
-4.67387520086342
 20
16.21997456388726
 30
0.0
  0
SPLINE
  5
10C
330
2
100
AcDbEntity
  8
GAIKEI
100
AcDbSpline
210
0.0
220
0.0
230
1.0
 70
    24
 71
     3
 72
     8
 73
     4
 74
     0
 42
0.0000000001
 43
0.0000000001
 40
0.0
 40
0.0
 40
0.0
 40
0.0
 40
1.0
 40
1.0
 40
1.0
 40
1.0
 10
-4.273997545733863
 20
6.619921101300292
 30
0.0
 10
-4.273997545733863
 20
6.619921101300292
 30
0.0
 10
-4.273997545733863
 20
15.82000347939902
 30
0.0
 10
-4.273997545733863
 20
15.82000347939902
 30
0.0
  0
ARC
  5
10D
330
2
100
AcDbEntity
  8
GAIKEI
100
AcDbCircle
 10
14.38155159524766
 20
15.14547912911337
 30
0.0
 40
1.08479488177614
100
AcDbArc
 50
97.90159894170354
 51
174.3917250753727
  0
SPLINE
  5
10E
330
2
100
AcDbEntity
  8
GAIKEI
100
AcDbSpline
210
0.0
220
0.0
230
1.0
 70
     8
 71
     3
 72
     8
 73
     4
 74
     0
 42
0.0000000001
 43
0.0000000001
 40
0.0
 40
0.0
 40
0.0
 40
0.0
 40
1.0
 40
1.0
 40
1.0
 40
1.0
 10
-4.67387520086342
 20
6.219950016812049
 30
0.0
 10
-4.453288485031379
 20
6.219950016812049
 30
0.0
 10
-4.273997545733863
 20
6.398680379957568
 30
0.0
 10
-4.273997545733863
 20
6.619921101300292
 30
0.0
  0
LINE
  5
10F
330
2
100
AcDbEntity
  8
GAIKEI
100
AcDbLine
 10
-8.57399034939803
 20
16.2199745638872
 30
0.0
 11
-4.67387520086342
 21
16.2199745638872
 31
0.0
  0
LINE
  5
110
330
2
100
AcDbEntity
  8
GAIKEI
100
AcDbLine
 10
-8.57399034939803
 20
6.219950016811992
 30
0.0
 11
-4.67387520086342
 21
6.219950016811992
 31
0.0
  0
LINE
  5
111
330
2
100
AcDbEntity
  8
GAIKEI
 62
     1
100
AcDbLine
 10
-13.07466941549646
 20
6.519577970083162
 30
0.0
 11
-12.87463715857299
 21
6.519577970083162
 31
0.0
  0
LINE
  5
112
330
2
100
AcDbEntity
  8
GAIKEI
 62
     1
100
AcDbLine
 10
-24.67229916475262
 20
6.519577970083162
 30
0.0
 11
-24.47254719590521
 21
6.519577970083162
 31
0.0
  0
LINE
  5
113
330
2
100
AcDbEntity
  8
GAIKEI
 62
     1
100
AcDbLine
 10
-13.07466941549646
 20
7.519365537265741
 30
0.0
 11
-12.87463715857299
 21
7.519365537265741
 31
0.0
  0
LINE
  5
114
330
2
100
AcDbEntity
  8
GAIKEI
 62
     1
100
AcDbLine
 10
-24.67229916475262
 20
7.519365537265741
 30
0.0
 11
-24.47254719590521
 21
7.519365537265741
 31
0.0
  0
LINE
  5
115
330
2
100
AcDbEntity
  8
GAIKEI
 62
     1
100
AcDbLine
 10
-13.01468776722706
 20
6.519577970083162
 30
0.0
 11
-13.01468776722706
 21
7.519365537265741
 31
0.0
  0
LINE
  5
116
330
2
100
AcDbEntity
  8
GAIKEI
 62
     1
100
AcDbLine
 10
-24.53215512673998
 20
6.519577970083162
 30
0.0
 11
-24.53215512673998
 21
7.519365537265741
 31
0.0
  0
LINE
  5
117
330
2
100
AcDbEntity
  8
GAIKEI
 62
     1
100
AcDbLine
 10
-12.87463715857299
 20
6.219950016811992
 30
0.0
 11
-12.87463715857299
 21
7.6198020978415
 31
0.0
  0
SPLINE
  5
118
330
2
100
AcDbEntity
  8
GAIKEI
100
AcDbSpline
210
0.0
220
0.0
230
1.0
 70
     8
 71
     3
 72
     8
 73
     4
 74
     0
 42
0.0000000001
 43
0.0000000001
 40
0.0
 40
0.0
 40
0.0
 40
0.0
 40
1.0
 40
1.0
 40
1.0
 40
1.0
 10
-8.774209465038865
 20
6.219950016812049
 30
0.0
 10
-8.663775963084816
 20
6.219950016812049
 30
0.0
 10
-8.57399034939803
 20
6.308988195629467
 30
0.0
 10
-8.57399034939803
 20
6.419141409507403
 30
0.0
  0
SPLINE
  5
119
330
2
100
AcDbEntity
  8
GAIKEI
100
AcDbSpline
210
0.0
220
0.0
230
1.0
 70
     8
 71
     3
 72
     8
 73
     4
 74
     0
 42
0.0000000001
 43
0.0000000001
 40
0.0
 40
0.0
 40
0.0
 40
0.0
 40
1.0
 40
1.0
 40
1.0
 40
1.0
 10
-8.57399034939803
 20
16.02078317119185
 30
0.0
 10
-8.57399034939803
 20
16.13093638506984
 30
0.0
 10
-8.663775963084816
 20
16.21997456388726
 30
0.0
 10
-8.774209465038865
 20
16.21997456388726
 30
0.0
  0
LINE
  5
11A
330
2
100
AcDbEntity
  8
GAIKEI
100
AcDbLine
 10
-8.57399034939803
 20
6.219950016811992
 30
0.0
 11
-8.57399034939803
 21
16.2199745638872
 31
0.0
  0
LINE
  5
11B
330
2
100
AcDbEntity
  8
GAIKEI
100
AcDbLine
 10
-8.774209465038865
 20
6.219950016811992
 30
0.0
 11
-43.97387037344785
 21
6.219950016811992
 31
0.0
  0
LINE
  5
11C
330
2
100
AcDbEntity
  8
GAIKEI
100
AcDbLine
 10
-8.774209465038865
 20
16.2199745638872
 30
0.0
 11
-43.97387037344785
 21
16.2199745638872
 31
0.0
  0
LINE
  5
11D
330
2
100
AcDbEntity
  8
GAIKEI
 62
     1
100
AcDbLine
 10
-13.07466941549646
 20
7.799747042649755
 30
0.0
 11
-9.954409123823069
 21
7.799747042649755
 31
0.0
  0
LINE
  5
11E
330
2
100
AcDbEntity
  8
GAIKEI
 62
     1
100
AcDbLine
 10
-27.59252719950254
 20
7.799747042649755
 30
0.0
 11
-24.47254719590521
 21
7.799747042649755
 31
0.0
  0
LINE
  5
11F
330
2
100
AcDbEntity
  8
GAIKEI
 62
     1
100
AcDbLine
 10
-27.59252719950254
 20
15.04014862253768
 30
0.0
 11
-9.954409123823069
 21
15.04014862253768
 31
0.0
  0
LINE
  5
120
330
2
100
AcDbEntity
  8
GAIKEI
 62
     1
100
AcDbLine
 10
-24.67229916475273
 20
6.419141409507346
 30
0.0
 11
-24.97230083545853
 21
6.419141409507346
 31
0.0
  0
LINE
  5
121
330
2
100
AcDbEntity
  8
GAIKEI
 62
     1
100
AcDbLine
 10
-12.87463715857299
 20
6.419141409507346
 30
0.0
 11
-12.57444862914983
 21
6.419141409507346
 31
0.0
  0
LINE
  5
122
330
2
100
AcDbEntity
  8
GAIKEI
 62
     1
100
AcDbLine
 10
-20.77539744557677
 20
6.248259112490529
 30
0.0
 11
-20.77539744557677
 21
6.419141409507346
 31
0.0
  0
LINE
  5
123
330
2
100
AcDbEntity
  8
GAIKEI
 62
     1
100
AcDbLine
 10
-16.77503259518366
 20
6.248259112490529
 30
0.0
 11
-16.77503259518366
 21
6.419141409507346
 31
0.0
  0
LINE
  5
124
330
2
100
AcDbEntity
  8
GAIKEI
 62
     1
100
AcDbLine
 10
-26.01413161404489
 20
7.493579034271363
 30
0.0
 11
-27.67231587181115
 21
7.493579034271363
 31
0.0
  0
LINE
  5
125
330
2
100
AcDbEntity
  8
GAIKEI
 62
     1
100
AcDbLine
 10
-11.53280470928084
 20
7.493579034271363
 30
0.0
 11
-9.874433592797203
 21
7.493579034271363
 31
0.0
  0
LINE
  5
126
330
2
100
AcDbEntity
  8
GAIKEI
 62
     1
100
AcDbLine
 10
-38.97287709164411
 20
8.607350419037572
 30
0.0
 11
-37.3738336179193
 21
8.607350419037572
 31
0.0
  0
LINE
  5
127
330
2
100
AcDbEntity
  8
GAIKEI
 62
     1
100
AcDbLine
 10
-17.90524754707675
 20
13.51967923945858
 30
0.0
 11
-17.90524754707675
 21
14.0403610553551
 31
0.0
  0
LINE
  5
128
330
2
100
AcDbEntity
  8
GAIKEI
 62
     1
100
AcDbLine
 10
-19.58529427477296
 20
13.46081874349323
 30
0.0
 11
-17.96457518983547
 21
13.46081874349323
 31
0.0
  0
LINE
  5
129
330
2
100
AcDbEntity
  8
GAIKEI
 62
     1
100
AcDbLine
 10
-19.58529427477296
 20
14.10062299170056
 30
0.0
 11
-17.96457518983547
 21
14.10062299170056
 31
0.0
  0
LINE
  5
12A
330
2
100
AcDbEntity
  8
GAIKEI
 62
     1
100
AcDbLine
 10
-19.58529427477296
 20
14.18041166400911
 30
0.0
 11
-17.96457518983547
 21
14.18041166400911
 31
0.0
  0
LINE
  5
12B
330
2
100
AcDbEntity
  8
GAIKEI
 62
     1
100
AcDbLine
 10
-19.58529427477296
 20
13.380376065674
 30
0.0
 11
-17.96457518983547
 21
13.380376065674
 31
0.0
  0
LINE
  5
12C
330
2
100
AcDbEntity
  8
GAIKEI
 62
     1
100
AcDbLine
 10
-17.82527201605077
 20
13.51967923945858
 30
0.0
 11
-17.82527201605077
 21
14.0403610553551
 31
0.0
  0
LINE
  5
12D
330
2
100
AcDbEntity
  8
GAIKEI
 62
     1
100
AcDbLine
 10
-30.32300020678324
 20
11.52001067573474
 30
0.0
 11
-30.32300020678324
 21
11.69715273978283
 31
0.0
  0
LINE
  5
12E
330
2
100
AcDbEntity
  8
GAIKEI
 62
     1
100
AcDbLine
 10
-30.32300020678324
 20
11.52001067573474
 30
0.0
 11
-30.02299853607744
 21
11.52001067573474
 31
0.0
  0
LINE
  5
12F
330
2
100
AcDbEntity
  8
GAIKEI
 62
     1
100
AcDbLine
 10
-30.29300938264848
 20
12.12020087586381
 30
0.0
 11
-30.0528959308534
 21
12.12020087586381
 31
0.0
  0
LINE
  5
130
330
2
100
AcDbEntity
  8
GAIKEI
 62
     1
100
AcDbLine
 10
-24.67229916475273
 20
6.219950016811992
 30
0.0
 11
-24.67229916475273
 21
7.619802097841443
 31
0.0
  0
SPLINE
  5
131
330
2
100
AcDbEntity
  8
GAIKEI
 62
     1
100
AcDbSpline
210
0.0
220
0.0
230
1.0
 70
     8
 71
     3
 72
    11
 73
     7
 74
     0
 42
0.0000000001
 43
0.0000000001
 40
0.0
 40
0.0
 40
0.0
 40
0.0
 40
1.0
 40
1.0
 40
1.0
 40
2.0
 40
2.0
 40
2.0
 40
2.0
 10
-40.53370795767077
 20
13.56013415176494
 30
0.0
 10
-41.93636291946049
 20
13.56013415176494
 30
0.0
 10
-43.07395879068891
 20
12.42253828053657
 30
0.0
 10
-43.07395879068891
 20
11.02035046554022
 30
0.0
 10
-43.07395879068891
 20
9.617041498239757
 30
0.0
 10
-41.93636291946049
 20
8.479912773804755
 30
0.0
 10
-40.53370795767077
 20
8.479912773804755
 30
0.0
  0
LINE
  5
132
330
2
100
AcDbEntity
  8
GAIKEI
 62
     1
100
AcDbLine
 10
-32.46150479749824
 20
8.479912773804699
 30
0.0
 11
-40.53370795767088
 21
8.479912773804699
 31
0.0
  0
LINE
  5
133
330
2
100
AcDbEntity
  8
GAIKEI
 62
     1
100
AcDbLine
 10
-40.53370795767088
 20
13.56013415176488
 30
0.0
 11
-32.56465080947564
 21
13.56013415176488
 31
0.0
  0
LINE
  5
134
330
2
100
AcDbEntity
  8
GAIKEI
 62
     1
100
AcDbLine
 10
-38.95465836670243
 20
8.779914444510552
 30
0.0
 11
-40.53370795767088
 21
8.779914444510552
 31
0.0
  0
SPLINE
  5
135
330
2
100
AcDbEntity
  8
GAIKEI
 62
     1
100
AcDbSpline
210
0.0
220
0.0
230
1.0
 70
     8
 71
     3
 72
    11
 73
     7
 74
     0
 42
0.0000000001
 43
0.0000000001
 40
0.0
 40
0.0
 40
0.0
 40
0.0
 40
1.0
 40
1.0
 40
1.0
 40
2.0
 40
2.0
 40
2.0
 40
2.0
 10
-40.53370795767077
 20
13.2600390517004
 30
0.0
 10
-41.7708995252469
 20
13.2600390517004
 30
0.0
 10
-42.77348997318969
 20
12.25670116888818
 30
0.0
 10
-42.77348997318969
 20
11.02035046554022
 30
0.0
 10
-42.77348997318969
 20
9.782598321812088
 30
0.0
 10
-41.7708995252469
 20
8.779914444510552
 30
0.0
 10
-40.53370795767077
 20
8.779914444510552
 30
0.0
  0
LINE
  5
136
330
2
100
AcDbEntity
  8
GAIKEI
 62
     1
100
AcDbLine
 10
-32.46150479749824
 20
8.779914444510552
 30
0.0
 11
-37.3919589135023
 21
8.779914444510552
 31
0.0
  0
LINE
  5
137
330
2
100
AcDbEntity
  8
GAIKEI
 62
     1
100
AcDbLine
 10
-40.53370795767088
 20
13.2600390517004
 30
0.0
 11
-32.56465080947564
 21
13.2600390517004
 31
0.0
  0
LINE
  5
138
330
2
100
AcDbEntity
  8
GAIKEI
100
AcDbLine
 10
-44.17399605973
 20
6.219950016811992
 30
0.0
 11
-48.07411120826461
 21
6.219950016811992
 31
0.0
  0
LINE
  5
139
330
2
100
AcDbEntity
  8
GAIKEI
100
AcDbLine
 10
-44.17399605973
 20
16.2199745638872
 30
0.0
 11
-48.07411120826461
 21
16.2199745638872
 31
0.0
  0
LINE
  5
13A
330
2
100
AcDbEntity
  8
GAIKEI
 62
     1
100
AcDbLine
 10
-24.47254719590532
 20
7.493579034271363
 30
0.0
 11
-13.07466941549646
 21
7.493579034271363
 31
0.0
  0
LINE
  5
13B
330
2
100
AcDbEntity
  8
GAIKEI
 62
     1
100
AcDbLine
 10
-24.47254719590532
 20
6.419141409507403
 30
0.0
 11
-13.07466941549646
 21
6.419141409507403
 31
0.0
  0
CIRCLE
  5
13C
330
2
100
AcDbEntity
  8
GAIKEI
 62
     1
100
AcDbCircle
 10
-30.17299937143034
 20
11.21954185823557
 30
0.0
 40
1.500148497567228
  0
CIRCLE
  5
13D
330
2
100
AcDbEntity
  8
GAIKEI
 62
     1
100
AcDbCircle
 10
-30.17271908335428
 20
11.21954185823557
 30
0.0
 40
1.150255549328865
  0
LINE
  5
13E
330
2
100
AcDbEntity
  8
GAIKEI
 62
     1
100
AcDbLine
 10
-30.05289593085351
 20
11.92958804957317
 30
0.0
 11
-30.05289593085351
 21
12.12020087586381
 31
0.0
  0
LINE
  5
13F
330
2
100
AcDbEntity
  8
GAIKEI
 62
     1
100
AcDbLine
 10
-30.29300938264848
 20
11.92950905860755
 30
0.0
 11
-30.29300938264848
 21
12.12020087586381
 31
0.0
  0
LINE
  5
140
330
2
100
AcDbEntity
  8
GAIKEI
 62
     1
100
AcDbLine
 10
-30.02299853607744
 20
11.52001067573479
 30
0.0
 11
-30.02299853607744
 21
11.69715273978283
 31
0.0
  0
CIRCLE
  5
141
330
2
100
AcDbEntity
  8
GAIKEI
 62
     1
100
AcDbCircle
 10
-41.69657647042081
 20
11.79058209845794
 30
0.0
 40
0.2117576414371826
  0
CIRCLE
  5
142
330
2
100
AcDbEntity
  8
GAIKEI
 62
     1
100
AcDbCircle
 10
-40.39973025733067
 20
10.57375813107302
 30
0.0
 40
1.241582747433805
  0
CIRCLE
  5
143
330
2
100
AcDbEntity
  8
GAIKEI
 62
     1
100
AcDbCircle
 10
-40.40001054540673
 20
10.57375813107302
 30
0.0
 40
0.3705408365055664
  0
CIRCLE
  5
144
330
2
100
AcDbEntity
  8
GAIKEI
 62
     1
100
AcDbCircle
 10
-34.01308615701621
 20
11.16311052559581
 30
0.0
 40
0.1838689778726563
  0
CIRCLE
  5
145
330
2
100
AcDbEntity
  8
GAIKEI
 62
     1
100
AcDbCircle
 10
-34.01308615701621
 20
12.08292256175247
 30
0.0
 40
0.1838689778726563
  0
LINE
  5
146
330
2
100
AcDbEntity
  8
GAIKEI
100
AcDbLine
 10
17.55444046482901
 20
6.219950016811992
 30
0.0
 11
43.1234375760645
 21
6.219950016811992
 31
0.0
  0
LINE
  5
147
330
2
100
AcDbEntity
  8
GAIKEI
100
AcDbLine
 10
17.55444046482901
 20
6.419950016812038
 30
0.0
 11
17.55444046482901
 21
6.219950016811992
 31
0.0
  0
LINE
  5
148
330
2
100
AcDbEntity
  8
GAIKEI
100
AcDbLine
 10
17.1062305100493
 20
6.419950016812038
 30
0.0
 11
17.1062305100493
 21
6.219950016811992
 31
0.0
  0
LINE
  5
149
330
2
100
AcDbEntity
  8
GAIKEI
 62
     1
100
AcDbLine
 10
17.1062305100493
 20
6.419950016812038
 30
0.0
 11
43.1234375760645
 21
6.419950016811981
 31
0.0
  0
ARC
  5
14A
330
2
100
AcDbEntity
  8
GAIKEI
100
AcDbCircle
 10
17.33033548743916
 20
6.422368049362376
 30
0.0
 40
0.2241180219712987
100
AcDbArc
 50
359.3818179072376
 51
180.6181820927624
  0
ARC
  5
14B
330
2
100
AcDbEntity
  8
GAIKEI
 62
     1
100
AcDbCircle
 10
45.3436622694027
 20
8.353950092937168
 30
0.0
 40
0.1
100
AcDbArc
 50
270.0
 51
0.0
  0
ARC
  5
14C
330
2
100
AcDbEntity
  8
GAIKEI
 62
     1
100
AcDbCircle
 10
45.3436622694027
 20
9.814189796594234
 30
0.0
 40
0.1
100
AcDbArc
 50
0.0
 51
89.99999999999998
  0
ARC
  5
14D
330
2
100
AcDbEntity
  8
GAIKEI
 62
     1
100
AcDbCircle
 10
45.3436622694027
 20
11.17420634290528
 30
0.0
 40
0.1
100
AcDbArc
 50
270.0
 51
0.0
  0
ARC
  5
14E
330
2
100
AcDbEntity
  8
GAIKEI
 62
     1
100
AcDbCircle
 10
45.3436622694027
 20
12.6344460465624
 30
0.0
 40
0.1
100
AcDbArc
 50
0.0
 51
89.99999999999998
  0
LINE
  5
14F
330
2
100
AcDbEntity
  8
GAIKEI
 62
     1
100
AcDbLine
 10
45.3436622694027
 20
9.9141897965942
 30
0.0
 11
44.12331857260577
 21
9.9141897965942
 31
0.0
  0
LINE
  5
150
330
2
100
AcDbEntity
  8
GAIKEI
 62
     1
100
AcDbLine
 10
45.3436622694027
 20
8.253950092937145
 30
0.0
 11
44.12331857260577
 21
8.253950092937145
 31
0.0
  0
LINE
  5
151
330
2
100
AcDbEntity
  8
GAIKEI
 62
     1
100
AcDbLine
 10
45.3436622694027
 20
12.73444604656237
 30
0.0
 11
44.12331857260565
 21
12.73444604656237
 31
0.0
  0
LINE
  5
152
330
2
100
AcDbEntity
  8
GAIKEI
 62
     1
100
AcDbLine
 10
45.3436622694027
 20
11.07420634290525
 30
0.0
 11
44.12331857260565
 21
11.07420634290525
 31
0.0
  0
LINE
  5
153
330
2
100
AcDbEntity
  8
GAIKEI
 62
     1
100
AcDbLine
 10
45.44366226940261
 20
12.63444604656234
 30
0.0
 11
45.44366226940261
 21
11.17420634290528
 31
0.0
  0
LINE
  5
154
330
2
100
AcDbEntity
  8
GAIKEI
 62
     1
100
AcDbLine
 10
45.44366226940272
 20
9.814189796594234
 30
0.0
 11
45.44366226940272
 21
8.353950092937111
 31
0.0
  0
LINE
  5
155
330
2
100
AcDbEntity
  8
GAIKEI
100
AcDbLine
 10
16.52166999792942
 20
16.21994687079865
 30
0.0
 11
16.52166999792942
 21
6.219950016811992
 31
0.0
  0
LINE
  5
156
330
2
100
AcDbEntity
  8
GAIKEI
100
AcDbLine
 10
16.76197030844187
 20
16.21994687079865
 30
0.0
 11
16.76197030844187
 21
6.219950016811992
 31
0.0
  0
LINE
  5
157
330
2
100
AcDbEntity
  8
GAIKEI
100
AcDbLine
 10
13.02105878708963
 20
9.697431089591475
 30
0.0
 11
13.12149534766539
 21
9.697431089591475
 31
0.0
  0
LINE
  5
158
330
2
100
AcDbEntity
  8
GAIKEI
100
AcDbLine
 10
13.02105878708963
 20
12.69772808472595
 30
0.0
 11
13.12149534766539
 21
12.69772808472595
 31
0.0
  0
LINE
  5
159
330
2
100
AcDbEntity
  8
GAIKEI
100
AcDbLine
 10
12.42124230439529
 20
12.34755484841156
 30
0.0
 11
12.42124230439529
 21
10.04704374975381
 31
0.0
  0
LINE
  5
15A
330
2
100
AcDbEntity
  8
GAIKEI
100
AcDbLine
 10
13.02105878708963
 20
9.697431089591475
 30
0.0
 11
12.42124230439529
 21
10.04704374975381
 31
0.0
  0
LINE
  5
15B
330
2
100
AcDbEntity
  8
GAIKEI
100
AcDbLine
 10
12.42124230439529
 20
12.34755484841156
 30
0.0
 11
13.02105878708963
 21
12.69772808472595
 31
0.0
  0
LINE
  5
15C
330
2
100
AcDbEntity
  8
GAIKEI
100
AcDbLine
 10
13.02105878708963
 20
12.69772808472595
 30
0.0
 11
13.02105878708963
 21
9.697431089591475
 31
0.0
  0
LINE
  5
15D
330
2
100
AcDbEntity
  8
GAIKEI
 62
     1
100
AcDbLine
 10
-9.854719998116792
 20
7.89980988579083
 30
0.0
 11
-9.854719998116792
 21
14.93989892067924
 31
0.0
  0
LINE
  5
15E
330
2
100
AcDbEntity
  8
GAIKEI
 62
     1
100
AcDbLine
 10
-27.67231587181115
 20
15.22018699670462
 30
0.0
 11
-9.874433592797203
 21
15.22018699670462
 31
0.0
  0
LINE
  5
15F
330
2
100
AcDbEntity
  8
GAIKEI
 62
     1
100
AcDbLine
 10
-9.674214477156482
 20
7.694265296705566
 30
0.0
 11
-9.674214477156482
 21
15.01987445170516
 31
0.0
  0
LINE
  5
160
330
2
100
AcDbEntity
  8
GAIKEI
 62
     1
100
AcDbLine
 10
-12.87463715857299
 20
7.6198020978415
 30
0.0
 11
-9.874433592797203
 21
7.6198020978415
 31
0.0
  0
LINE
  5
161
330
2
100
AcDbEntity
  8
GAIKEI
 62
     1
100
AcDbLine
 10
-24.47254719590532
 20
6.419141409507403
 30
0.0
 11
-24.47254719590532
 21
7.799747042649755
 31
0.0
  0
LINE
  5
162
330
2
100
AcDbEntity
  8
GAIKEI
 62
     1
100
AcDbLine
 10
-13.07466941549646
 20
6.419141409507403
 30
0.0
 11
-13.07466941549646
 21
7.799747042649755
 31
0.0
  0
LINE
  5
163
330
2
100
AcDbEntity
  8
GAIKEI
 62
     1
100
AcDbLine
 10
-27.67231587181115
 20
7.6198020978415
 30
0.0
 11
-24.67229916475273
 21
7.6198020978415
 31
0.0
  0
LINE
  5
164
330
2
100
AcDbEntity
  8
GAIKEI
 62
     1
100
AcDbLine
 10
31.99723837781258
 20
9.995500608257771
 30
0.0
 11
32.35721008084252
 21
9.620733575549252
 31
0.0
  0
LINE
  5
165
330
2
100
AcDbEntity
  8
GAIKEI
 62
     1
100
AcDbLine
 10
31.85186803907086
 20
9.789982231654676
 30
0.0
 11
32.06695674325195
 21
9.56605308734538
 31
0.0
  0
LINE
  5
166
330
2
100
AcDbEntity
  8
GAIKEI
 62
     1
100
AcDbLine
 10
31.37982018319215
 20
9.335445014850279
 30
0.0
 11
31.6021832556435
 21
9.103942515778555
 31
0.0
  0
LINE
  5
167
330
2
100
AcDbEntity
  8
GAIKEI
 62
     1
100
AcDbLine
 10
31.16906020520938
 20
9.198003881158115
 30
0.0
 11
31.53016089411304
 21
8.822061459711278
 31
0.0
  0
LINE
  5
168
330
2
100
AcDbEntity
  8
GAIKEI
 62
     1
100
AcDbLine
 10
30.40252003946174
 20
9.996049896861848
 30
0.0
 11
30.97431689570388
 21
9.400751407224447
 31
0.0
  0
LINE
  5
169
330
2
100
AcDbEntity
  8
GAIKEI
 62
     1
100
AcDbLine
 10
30.64089955581702
 20
10.10473629135214
 30
0.0
 11
31.18940417703439
 21
9.533687379478578
 31
0.0
  0
LINE
  5
16A
330
2
100
AcDbEntity
  8
GAIKEI
 62
     1
100
AcDbLine
 10
31.11249306939172
 20
10.55974652455109
 30
0.0
 11
31.66137886396305
 21
9.988300772576963
 31
0.0
  0
LINE
  5
16B
330
2
100
AcDbEntity
  8
GAIKEI
 62
     1
100
AcDbLine
 10
31.2297945464849
 20
10.79448743143365
 30
0.0
 11
31.80235762745784
 21
10.1983912241804
 31
0.0
  0
LINE
  5
16C
330
2
100
AcDbEntity
  8
GAIKEI
 62
     1
100
AcDbLine
 10
29.75925581223206
 20
12.3254673203528
 30
0.0
 11
30.99424691940536
 21
11.03971638837413
 31
0.0
  0
LINE
  5
16D
330
2
100
AcDbEntity
  8
GAIKEI
 62
     1
100
AcDbLine
 10
29.49913103194231
 20
12.23941994990684
 30
0.0
 11
30.89779735860796
 21
10.78326652289661
 31
0.0
  0
LINE
  5
16E
330
2
100
AcDbEntity
  8
GAIKEI
 62
     1
100
AcDbLine
 10
29.0251929892028
 20
11.78685060923027
 30
0.0
 11
30.4265153869716
 21
10.32793194295925
 31
0.0
  0
LINE
  5
16F
330
2
100
AcDbEntity
  8
GAIKEI
 62
     1
100
AcDbLine
 10
28.92743577312425
 20
11.53176214545573
 30
0.0
 11
30.16769826196301
 21
10.24052317081032
 31
0.0
  0
LINE
  5
170
330
2
100
AcDbEntity
  8
GAIKEI
 62
     1
100
AcDbLine
 10
28.95114510417969
 20
13.16679248454653
 30
0.0
 11
29.52370818515263
 21
12.57069627729328
 31
0.0
  0
LINE
  5
171
330
2
100
AcDbEntity
  8
GAIKEI
 62
     1
100
AcDbLine
 10
28.73554952658722
 20
13.03438570022644
 30
0.0
 11
29.28443532115855
 21
12.46293994825237
 31
0.0
  0
LINE
  5
172
330
2
100
AcDbEntity
  8
GAIKEI
 62
     1
100
AcDbLine
 10
28.26230419914001
 20
12.58109517271094
 30
0.0
 11
28.81080882035738
 21
12.01004626083738
 31
0.0
  0
LINE
  5
173
330
2
100
AcDbEntity
  8
GAIKEI
 62
     1
100
AcDbLine
 10
28.12081713938338
 20
12.37153390904154
 30
0.0
 11
28.69261399562552
 21
11.77623541940414
 31
0.0
  0
ARC
  5
174
330
2
100
AcDbEntity
  8
GAIKEI
100
AcDbCircle
 10
22.10564133069252
 20
8.419673618077752
 30
0.0
 40
8.984832697480753
100
AcDbArc
 50
180.7083917475253
 51
187.008755134422
  0
ARC
  5
175
330
2
100
AcDbEntity
  8
GAIKEI
100
AcDbCircle
 10
14.46297642856101
 20
7.418114603545234
 30
0.0
 40
1.278546652657287
100
AcDbArc
 50
184.251266051793
 51
249.5750525016926
  0
LINE
  5
176
330
2
100
AcDbEntity
  8
GAIKEI
100
AcDbLine
 10
13.12149534766539
 20
13.38878672079681
 30
0.0
 11
13.30194930522899
 21
15.25149248164138
 31
0.0
  0
ARC
  5
177
330
2
100
AcDbEntity
  8
GAIKEI
100
AcDbCircle
 10
14.38155159524766
 20
15.14547912911337
 30
0.0
 40
1.08479488177614
100
AcDbArc
 50
82.08776841343668
 51
82.09840105829643
  0
ARC
  5
178
330
2
100
AcDbEntity
  8
GAIKEI
100
AcDbCircle
 10
38.74668109668338
 20
11.80338287983056
 30
0.0
 40
4.483575576852117
100
AcDbArc
 50
12.53186952593626
 51
80.08187320497707
  0
LINE
  5
179
330
2
100
AcDbEntity
  8
GAIKEI
 62
     1
100
AcDbLine
 10
28.35494103119575
 20
13.43063772570758
 30
0.0
 11
28.54506035147952
 21
13.23270424114878
 31
0.0
  0
LINE
  5
17A
330
2
100
AcDbEntity
  8
GAIKEI
 62
     1
100
AcDbLine
 10
28.40748133640696
 20
13.73280157727333
 30
0.0
 11
28.75626435382495
 21
13.36968310046916
 31
0.0
  0
LINE
  5
17B
330
2
100
AcDbEntity
  8
GAIKEI
 62
     1
100
AcDbLine
 10
27.8931674770495
 20
12.96540391930733
 30
0.0
 11
28.07188819298236
 21
12.77933753733924
 31
0.0
  0
ARC
  5
17C
330
2
100
AcDbEntity
  8
GAIKEI
 62
     1
100
AcDbCircle
 10
29.96002718228718
 20
11.28231941589553
 30
0.0
 40
2.927783449122851
100
AcDbArc
 50
146.1357414158948
 51
302.837285337451
  0
LINE
  5
17D
330
2
100
AcDbEntity
  8
GAIKEI
 62
     1
100
AcDbLine
 10
27.60307262725488
 20
12.9105584292422
 30
0.0
 11
27.92607382987788
 21
12.57428143510788
 31
0.0
  0
LINE
  5
17E
330
2
100
AcDbEntity
  8
GAIKEI
 62
     1
100
AcDbLine
 10
26.57463766229333
 20
12.27873791992448
 30
0.0
 11
26.57463766229333
 21
12.74983587187535
 31
0.0
  0
ARC
  5
17F
330
2
100
AcDbEntity
  8
GAIKEI
 62
     1
100
AcDbCircle
 10
29.56514339246738
 20
11.17112974630299
 30
0.0
 40
3.189031261759099
100
AcDbArc
 50
159.6766364164038
 51
191.0446417400541
  0
ARC
  5
180
330
2
100
AcDbEntity
  8
GAIKEI
 62
     1
100
AcDbCircle
 10
29.43331386649666
 20
11.27270173501688
 30
0.0
 40
3.081636004264796
100
AcDbArc
 50
193.3683517303928
 51
260.6911047165759
  0
ARC
  5
181
330
2
100
AcDbEntity
  8
GAIKEI
 62
     1
100
AcDbCircle
 10
31.666646822628
 20
8.882681022412725
 30
0.0
 40
1.04891518094569
100
AcDbArc
 50
218.3652072451665
 51
261.5105134186375
  0
LINE
  5
182
330
2
100
AcDbEntity
  8
GAIKEI
 62
     1
100
AcDbLine
 10
30.84422336843287
 20
8.23164898110599
 30
0.0
 11
28.93483757747984
 21
8.23164898110599
 31
0.0
  0
ARC
  5
183
330
2
100
AcDbEntity
  8
GAIKEI
 62
     1
100
AcDbCircle
 10
34.96146638723784
 20
9.942730707364717
 30
0.0
 40
0.2830838212594616
100
AcDbArc
 50
155.2310671733309
 51
231.3222015991073
  0
ARC
  5
184
330
2
100
AcDbEntity
  8
GAIKEI
 62
     1
100
AcDbCircle
 10
34.29834134777767
 20
8.816210013928639
 30
0.0
 40
1.027803467944401
100
AcDbArc
 50
289.1460456035524
 51
61.7667698028524
  0
LINE
  5
185
330
2
100
AcDbEntity
  8
GAIKEI
 62
     1
100
AcDbLine
 10
34.6354374502711
 20
7.845258837812025
 30
0.0
 11
31.51179764530812
 21
7.845258837812025
 31
0.0
  0
ARC
  5
186
330
2
100
AcDbEntity
  8
GAIKEI
 62
     1
100
AcDbCircle
 10
32.91817334688179
 20
10.89743803328355
 30
0.0
 40
1.972249709396292
100
AcDbArc
 50
334.9167000232662
 51
354.2019876403524
  0
LINE
  5
187
330
2
100
AcDbEntity
  8
GAIKEI
 62
     1
100
AcDbLine
 10
34.8803334487491
 20
11.86299310282754
 30
0.0
 11
34.8803334487491
 21
10.69819784945002
 31
0.0
  0
ARC
  5
188
330
2
100
AcDbEntity
  8
GAIKEI
 62
     1
100
AcDbCircle
 10
31.91404406842313
 20
11.28629819650444
 30
0.0
 40
3.021828867228115
100
AcDbArc
 50
11.00198517696258
 51
82.49527881590458
  0
LINE
  5
189
330
2
100
AcDbEntity
  8
GAIKEI
 62
     1
100
AcDbLine
 10
30.48235778163351
 20
14.28224238776408
 30
0.0
 11
32.39248474992215
 21
14.28224238776408
 31
0.0
  0
ARC
  5
18A
330
2
100
AcDbEntity
  8
GAIKEI
 62
     1
100
AcDbCircle
 10
29.57629369796919
 20
13.59434620768058
 30
0.0
 40
1.137608578677163
100
AcDbArc
 50
36.33541414185303
 51
86.32998769795674
  0
ARC
  5
18B
330
2
100
AcDbEntity
  8
GAIKEI
 62
     1
100
AcDbCircle
 10
27.0726493556621
 20
13.71431667402726
 30
0.0
 40
1.085467118088696
100
AcDbArc
 50
111.9635271053794
 51
242.6903360877965
  0
LINE
  5
18C
330
2
100
AcDbEntity
  8
GAIKEI
 62
     1
100
AcDbLine
 10
29.64911203026398
 20
14.7296218432694
 30
0.0
 11
26.68246429088006
 21
14.7296218432694
 31
0.0
  0
ARC
  5
18D
330
2
100
AcDbEntity
  8
GAIKEI
 62
     1
100
AcDbCircle
 10
29.96002718228718
 20
11.28231941589553
 30
0.0
 40
2.927783449122851
100
AcDbArc
 50
325.3778961920517
 51
122.0518253853088
  0
CIRCLE
  5
18E
330
2
100
AcDbEntity
  8
GAIKEI
 62
     1
100
AcDbCircle
 10
29.96002718228718
 20
11.28231941589553
 30
0.0
 40
2.409591687166942
  0
CIRCLE
  5
18F
330
2
100
AcDbEntity
  8
GAIKEI
 62
     1
100
AcDbCircle
 10
29.96002718228718
 20
11.28231941589553
 30
0.0
 40
2.137541062528969
  0
CIRCLE
  5
190
330
2
100
AcDbEntity
  8
GAIKEI
 62
     1
100
AcDbCircle
 10
29.96002718228718
 20
11.28231941589553
 30
0.0
 40
1.360253360314041
  0
CIRCLE
  5
191
330
2
100
AcDbEntity
  8
GAIKEI
 62
     1
100
AcDbCircle
 10
29.96002718228718
 20
11.28231941589553
 30
0.0
 40
1.062293129793956
  0
CIRCLE
  5
192
330
2
100
AcDbEntity
  8
GAIKEI
 62
     1
100
AcDbCircle
 10
32.35443782655889
 20
8.812134231739946
 30
0.0
 40
0.8068698867207652
  0
CIRCLE
  5
193
330
2
100
AcDbEntity
  8
GAIKEI
 62
     1
100
AcDbCircle
 10
32.35443782655889
 20
8.812134231739946
 30
0.0
 40
0.5976814634387347
  0
CIRCLE
  5
194
330
2
100
AcDbEntity
  8
GAIKEI
 62
     1
100
AcDbCircle
 10
27.60075797933578
 20
13.71742499596917
 30
0.0
 40
0.5976814634387347
  0
CIRCLE
  5
195
330
2
100
AcDbEntity
  8
GAIKEI
 62
     1
100
AcDbCircle
 10
27.60075797933578
 20
13.71742499596917
 30
0.0
 40
0.8068698867207652
  0
CIRCLE
  5
196
330
2
100
AcDbEntity
  8
GAIKEI
 62
     1
100
AcDbCircle
 10
38.917008240196
 20
11.17757979159262
 30
0.0
 40
1.2600649744074
  0
LINE
  5
197
330
2
100
AcDbEntity
  8
GAIKEI
 62
     1
100
AcDbLine
 10
41.41267100925008
 20
11.32337242175066
 30
0.0
 11
41.41267100925008
 21
10.99443896958132
 31
0.0
  0
ARC
  5
198
330
2
100
AcDbEntity
  8
GAIKEI
 62
     1
100
AcDbCircle
 10
41.0609727754501
 20
11.32337242175066
 30
0.0
 40
0.3516982338
100
AcDbArc
 50
0.0
 51
89.99999999999998
  0
ARC
  5
199
330
2
100
AcDbEntity
  8
GAIKEI
 62
     1
100
AcDbCircle
 10
41.0609727754501
 20
10.99443896958132
 30
0.0
 40
0.3516982338
100
AcDbArc
 50
270.0
 51
0.0
  0
CIRCLE
  5
19A
330
2
100
AcDbEntity
  8
GAIKEI
 62
     1
100
AcDbCircle
 10
38.917008240196
 20
11.17757979159262
 30
0.0
 40
1.003158519861355
  0
LINE
  5
19B
330
2
100
AcDbEntity
  8
GAIKEI
 62
     1
100
AcDbLine
 10
40.07470706977417
 20
11.6750706555506
 30
0.0
 11
41.0609727754501
 21
11.6750706555506
 31
0.0
  0
LINE
  5
19C
330
2
100
AcDbEntity
  8
GAIKEI
 62
     1
100
AcDbLine
 10
40.05793370844847
 20
10.64274073578133
 30
0.0
 11
41.0609727754501
 21
10.64274073578133
 31
0.0
  0
CIRCLE
  5
19D
330
2
100
AcDbEntity
  8
GAIKEI
 62
     1
100
AcDbCircle
 10
37.2953019849887
 20
8.749707641662325
 30
0.0
 40
0.9934501996189396
  0
CIRCLE
  5
19E
330
2
100
AcDbEntity
  8
GAIKEI
 62
     1
100
AcDbCircle
 10
36.33497970323427
 20
13.60674861879874
 30
0.0
 40
0.9934501996189396
  0
CIRCLE
  5
19F
330
2
100
AcDbEntity
  8
GAIKEI
 62
     1
100
AcDbCircle
 10
24.95831519203969
 20
8.867858714736087
 30
0.0
 40
0.9934501996189396
  0
CIRCLE
  5
1A0
330
2
100
AcDbEntity
  8
GAIKEI
 62
     1
100
AcDbCircle
 10
23.97268465121297
 20
13.76709663587843
 30
0.0
 40
0.9934501996189396
  0
ARC
  5
1A1
330
2
100
AcDbEntity
  8
GAIKEI
 62
     1
100
AcDbCircle
 10
23.11006766768608
 20
11.21119135455029
 30
0.0
 40
0.3516982338
100
AcDbArc
 50
270.0
 51
0.0
  0
ARC
  5
1A2
330
2
100
AcDbEntity
  8
GAIKEI
 62
     1
100
AcDbCircle
 10
23.11006766768608
 20
11.54012480671957
 30
0.0
 40
0.3516982338
100
AcDbArc
 50
0.0
 51
89.99999999999998
  0
LINE
  5
1A3
330
2
100
AcDbEntity
  8
GAIKEI
 62
     1
100
AcDbLine
 10
23.46176590148608
 20
11.54012480671957
 30
0.0
 11
23.46176590148608
 21
11.21119135455029
 31
0.0
  0
LINE
  5
1A4
330
2
100
AcDbEntity
  8
GAIKEI
 62
     1
100
AcDbLine
 10
22.10702860068457
 20
10.8594931207503
 30
0.0
 11
23.11006766768608
 21
10.8594931207503
 31
0.0
  0
LINE
  5
1A5
330
2
100
AcDbEntity
  8
GAIKEI
 62
     1
100
AcDbLine
 10
22.12380196201016
 20
11.89182304051957
 30
0.0
 11
23.11006766768608
 21
11.89182304051957
 31
0.0
  0
CIRCLE
  5
1A6
330
2
100
AcDbEntity
  8
GAIKEI
 62
     1
100
AcDbCircle
 10
20.96610313243198
 20
11.39433217656159
 30
0.0
 40
1.2600649744074
  0
CIRCLE
  5
1A7
330
2
100
AcDbEntity
  8
GAIKEI
 62
     1
100
AcDbCircle
 10
20.96610313243198
 20
11.39433217656159
 30
0.0
 40
1.003158519861355
  0
LINE
  5
1A8
330
2
100
AcDbEntity
  8
GAIKEI
100
AcDbLine
 10
42.22268698427152
 20
14.63531385052846
 30
0.0
 11
44.12331857260577
 21
14.6353138505284
 31
0.0
  0
LINE
  5
1A9
330
2
100
AcDbEntity
  8
GAIKEI
100
AcDbLine
 10
40.43201023463498
 20
15.9423275301566
 30
0.0
 11
44.12331857260577
 21
15.9423275301566
 31
0.0
  0
LINE
  5
1AA
330
2
100
AcDbEntity
  8
GAIKEI
100
AcDbLine
 10
44.12331857260577
 20
15.9423275301566
 30
0.0
 11
44.12331857260577
 21
6.419950016811981
 31
0.0
  0
LINE
  5
1AB
330
2
100
AcDbEntity
  8
GAIKEI
100
AcDbLine
 10
43.1234375760645
 20
12.77624087231476
 30
0.0
 11
43.1234375760645
 21
6.219950016811992
 31
0.0
  0
LINE
  5
1AC
330
2
100
AcDbEntity
  8
GAIKEI
100
AcDbLine
 10
14.01678906195414
 20
6.219950016811992
 30
0.0
 11
17.1062305100493
 21
6.219950016811992
 31
0.0
  0
LINE
  5
1AD
330
2
100
AcDbEntity
  8
GAIKEI
100
AcDbLine
 10
13.12149534766539
 20
13.38878672079676
 30
0.0
 11
13.12149534766539
 21
8.308590057739593
 31
0.0
  0
LINE
  5
1AE
330
2
100
AcDbEntity
  8
GAIKEI
100
AcDbLine
 10
14.23222307283689
 20
16.21994687079865
 30
0.0
 11
39.51895720374617
 21
16.21994687079865
 31
0.0
  0
TEXT
  5
1AF
330
2
100
AcDbEntity
  8
MOJI1
100
AcDbText
 10
-61.12114338186268
 20
-53.93171719825881
 30
0.0
 40
3.0
  1
Ｐ２スロット数
100
AcDbText
  0
TEXT
  5
1B0
330
2
100
AcDbEntity
  8
MOJI1
100
AcDbText
 10
-21.12114338186268
 20
-53.93171719825881
 30
0.0
 40
3.0
  1
２
100
AcDbText
  0
LINE
  5
1B1
330
2
100
AcDbEntity
  8
WAKU
 62
     1
100
AcDbLine
 10
-63.62114338186268
 20
-54.9317171982588
 30
0.0
 11
61.3788566181372
 21
-54.9317171982588
 31
0.0
  0
TEXT
  5
1B3
330
2
100
AcDbEntity
  8
MOJI1
100
AcDbText
 10
-61.12114338186268
 20
-48.93171719825881
 30
0.0
 40
3.0
  1
動画圧縮方式
100
AcDbText
  0
TEXT
  5
1B4
330
2
100
AcDbEntity
  8
MOJI1
100
AcDbText
 10
-21.12114338186268
 20
-48.93171719825881
 30
0.0
 40
3.0
  1
ＭＰＥＧ４
 41
0.9
100
AcDbText
  0
TEXT
  5
1B5
330
2
100
AcDbEntity
  8
MOJI1
100
AcDbText
 10
-21.12114338186268
 20
-38.93171719825881
 30
0.0
 40
3.0
  1
Ｐ２メモリ－カ－ド
 41
0.85
100
AcDbText
  0
TEXT
  5
1B6
330
2
100
AcDbEntity
  8
MOJI1
100
AcDbText
 10
-61.12114338186268
 20
-38.93171719825881
 30
0.0
 40
3.0
  1
記録メディア
100
AcDbText
  0
TEXT
  5
1B7
330
2
100
AcDbEntity
  8
MOJI1
100
AcDbText
 10
-61.12114338186268
 20
-43.93171719825881
 30
0.0
 40
3.0
  1
記録フォ－マット
100
AcDbText
  0
TEXT
  5
1B8
330
2
100
AcDbEntity
  8
MOJI1
100
AcDbText
 10
-21.12114338186268
 20
-43.93171719825881
 30
0.0
 40
3.0
  1
独自フォ－マット
 41
0.9
100
AcDbText
  0
TEXT
  5
1B9
330
2
100
AcDbEntity
  8
MOJI1
100
AcDbText
 10
-21.12114338186268
 20
-33.93171719825881
 30
0.0
 40
3.0
  1
１０５０ｇ
100
AcDbText
  0
TEXT
  5
1BA
330
2
100
AcDbEntity
  8
MOJI1
100
AcDbText
 10
-61.12114338186268
 20
-33.93171719825881
 30
0.0
 40
3.0
  1
質　量
100
AcDbText
  0
TEXT
  5
1BB
330
2
100
AcDbEntity
  8
MOJI1
100
AcDbText
 10
-61.12114338186268
 20
-28.93171719825881
 30
0.0
 40
3.0
  1
入力電流
100
AcDbText
  0
TEXT
  5
1BC
330
2
100
AcDbEntity
  8
MOJI1
100
AcDbText
 10
-21.12114338186268
 20
-28.93171719825881
 30
0.0
 40
3.0
  1
２．1Ａ（ＤＣ１２Ｖ時）１．１Ａ（ＤＣ２４Ｖ時）
 41
0.9
100
AcDbText
  0
LINE
  5
1BD
330
2
100
AcDbEntity
  8
WAKU
 62
     1
100
AcDbLine
 10
-63.62114338186268
 20
-29.93171719825881
 30
0.0
 11
61.3788566181372
 21
-29.93171719825881
 31
0.0
  0
LINE
  5
1BE
330
2
100
AcDbEntity
  8
WAKU
 62
     1
100
AcDbLine
 10
-63.62114338186268
 20
-24.93171719825881
 30
0.0
 11
61.3788566181372
 21
-24.93171719825881
 31
0.0
  0
LINE
  5
1BF
330
2
100
AcDbEntity
  8
WAKU
 62
     4
100
AcDbLine
 10
-63.62114338186268
 20
-19.93171719825881
 30
0.0
 11
61.3788566181372
 21
-19.93171719825881
 31
0.0
  0
LINE
  5
1C0
330
2
100
AcDbEntity
  8
WAKU
 62
     4
100
AcDbLine
 10
61.3788566181372
 20
-59.9317171982588
 30
0.0
 11
-63.62114338186268
 21
-59.9317171982588
 31
0.0
  0
LINE
  5
1C1
330
2
100
AcDbEntity
  8
WAKU
 62
     1
100
AcDbLine
 10
-63.62114338186268
 20
-49.9317171982588
 30
0.0
 11
61.3788566181372
 21
-49.9317171982588
 31
0.0
  0
LINE
  5
1C2
330
2
100
AcDbEntity
  8
WAKU
 62
     1
100
AcDbLine
 10
-63.62114338186268
 20
-44.9317171982588
 30
0.0
 11
61.3788566181372
 21
-44.9317171982588
 31
0.0
  0
LINE
  5
1C3
330
2
100
AcDbEntity
  8
WAKU
 62
     1
100
AcDbLine
 10
-63.62114338186268
 20
-39.93171719825881
 30
0.0
 11
61.3788566181372
 21
-39.93171719825881
 31
0.0
  0
LINE
  5
1C4
330
2
100
AcDbEntity
  8
WAKU
 62
     1
100
AcDbLine
 10
-63.62114338186268
 20
-34.93171719825881
 30
0.0
 11
61.3788566181372
 21
-34.93171719825881
 31
0.0
  0
LINE
  5
1C5
330
2
100
AcDbEntity
  8
WAKU
 62
     4
100
AcDbLine
 10
-63.62114338186268
 20
-19.93171719825881
 30
0.0
 11
-63.62114338186268
 21
-59.9317171982588
 31
0.0
  0
TEXT
  5
1C6
330
2
100
AcDbEntity
  8
MOJI1
100
AcDbText
 10
-21.12114338186268
 20
-23.93171719825881
 30
0.0
 40
3.0
  1
ＤＣ１２Ｖ／ＤＣ２４Ｖ
 41
0.95
100
AcDbText
  0
TEXT
  5
1C7
330
2
100
AcDbEntity
  8
MOJI1
100
AcDbText
 10
-61.12114338186268
 20
-23.93171719825881
 30
0.0
 40
3.0
  1
電　源
100
AcDbText
  0
LINE
  5
1C8
330
2
100
AcDbEntity
  8
WAKU
 62
     4
100
AcDbLine
 10
-23.62114338186268
 20
-19.93171719825881
 30
0.0
 11
-23.62114338186268
 21
-59.9317171982588
 31
0.0
  0
LINE
  5
1C9
330
2
100
AcDbEntity
  8
WAKU
 62
     4
100
AcDbLine
 10
61.3788566181372
 20
-19.93171719825881
 30
0.0
 11
61.3788566181372
 21
-59.9317171982588
 31
0.0
  0
ENDSEC
  0
SECTION
  2
OBJECTS
  0
DICTIONARY
  5
9
330
0
100
AcDbDictionary
281
     1
  3
ACAD_COLOR
350
32
  3
ACAD_GROUP
350
2E
  3
ACAD_LAYOUT
350
D
  3
ACAD_MATERIAL
350
31
  3
ACAD_MLINESTYLE
350
2F
  3
ACAD_PLOTSETTINGS
350
30
  3
ACAD_PLOTSTYLENAME
350
8
  3
ACDBHEADERROUNDTRIPXREC
350
206
  3
AcDbVariableDictionary
350
1D9
  0
DICTIONARY
  5
15
330
14
100
AcDbDictionary
280
     1
281
     1
  3
ACAD_LAYERFILTERS
360
16
  3
ACAD_LAYERSTATES
360
18
  0
DICTIONARY
  5
3
330
2
100
AcDbDictionary
280
     1
281
     1
  3
ACAD_LAYOUTSELFREF
360
4
  0
DICTIONARY
  5
F
330
E
100
AcDbDictionary
280
     1
281
     1
  3
ACAD_LAYOUTSELFREF
360
10
  0
DICTIONARY
  5
32
102
{ACAD_REACTORS
330
9
102
}
330
9
100
AcDbDictionary
281
     1
  0
DICTIONARY
  5
2E
102
{ACAD_REACTORS
330
9
102
}
330
9
100
AcDbDictionary
281
     1
  0
DICTIONARY
  5
D
102
{ACAD_REACTORS
330
9
102
}
330
9
100
AcDbDictionary
281
     1
  3
Model
350
C
  3
ﾚｲｱｳﾄ1
350
13
  0
DICTIONARY
  5
31
102
{ACAD_REACTORS
330
9
102
}
330
9
100
AcDbDictionary
281
     1
  0
DICTIONARY
  5
2F
102
{ACAD_REACTORS
330
9
102
}
330
9
100
AcDbDictionary
281
     1
  3
STANDARD
350
34
  0
DICTIONARY
  5
30
102
{ACAD_REACTORS
330
9
102
}
330
9
100
AcDbDictionary
281
     1
  0
ACDBDICTIONARYWDFLT
  5
8
102
{ACAD_REACTORS
330
9
102
}
330
9
100
AcDbDictionary
281
     1
  3
Normal
350
7
100
AcDbDictionaryWithDefault
340
7
  0
DICTIONARY
  5
206
102
{ACAD_REACTORS
330
9
102
}
330
9
100
AcDbDictionary
281
     1
  3
COLORDICT
350
208
  3
MATERIALDICT
350
207
  0
DICTIONARY
  5
1D9
102
{ACAD_REACTORS
330
9
102
}
330
9
100
AcDbDictionary
281
     1
  3
DIMASSOC
350
1DB
  3
HIDETEXT
350
1DA
  3
PROJECTNAME
350
1DC
  0
DICTIONARY
  5
16
102
{ACAD_REACTORS
330
15
102
}
330
15
100
AcDbDictionary
280
     1
281
     1
  3
ロック画層
360
17
  0
DICTIONARY
  5
18
102
{ACAD_REACTORS
330
15
102
}
330
15
100
AcDbDictionary
281
     1
  0
XRECORD
  5
4
102
{ACAD_REACTORS
330
3
102
}
330
3
100
AcDbXrecord
280
     1
340
2
  0
XRECORD
  5
10
102
{ACAD_REACTORS
330
F
102
}
330
F
100
AcDbXrecord
280
     1
340
E
  0
LAYOUT
  5
C
102
{ACAD_XDICTIONARY
360
209
102
}
102
{ACAD_REACTORS
330
D
102
}
330
D
100
AcDbPlotSettings
  1

  2
\\URANUS\8FPAM09
  4
A4
  6

 40
4.180416584014892
 41
4.349743366241455
 42
4.222747802734375
 43
4.349761962890625
 44
210.0156707763672
 45
297.0106506347656
 46
6.099999999999999
 47
0.0
 48
0.0
 49
0.0
140
0.0
141
0.0
142
1.0
143
1.368214481139836
 70
 11956
 72
     1
 73
     0
 74
     1
  7
tmsacad.ctb
 75
     0
147
0.7308795614901817
148
0.5703548887991019
149
0.1303131444255996
100
AcDbLayout
  1
Model
 70
     1
 71
     0
 10
0.0
 20
0.0
 11
12.0
 21
9.0
 12
0.0
 22
0.0
 32
0.0
 14
0.0
 24
0.0
 34
0.0
 15
0.0
 25
0.0
 35
0.0
146
0.0
 13
0.0
 23
0.0
 33
0.0
 16
1.0
 26
0.0
 36
0.0
 17
0.0
 27
1.0
 37
0.0
 76
     0
330
2
  0
LAYOUT
  5
13
102
{ACAD_XDICTIONARY
360
20B
102
}
102
{ACAD_REACTORS
330
D
102
}
330
D
100
AcDbPlotSettings
  1

  2
C:\Documents and Settings\10773\Application Data\Autodesk\AutoCAD 2004\R16.0\jpn\plotters\8FPAM09.pc3
  4
A3
  6

 40
4.349750041961669
 41
3.545409202575683
 42
4.3497314453125
 43
3.503082275390625
 44
297.0106506347656
 45
419.9889831542968
 46
0.0
 47
0.0
 48
0.0
 49
0.0
140
0.0
141
0.0
142
1.0
143
1.0
 70
   688
 72
     0
 73
     1
 74
     5
  7
tmsacad.ctb
 75
    16
147
1.0
148
0.0
149
0.0
100
AcDbLayout
  1
ﾚｲｱｳﾄ1
 70
     1
 71
     1
 10
-0.1379166250153789
 20
-0.1712500016520342
 11
16.39708271176796
 21
11.52208270050409
 12
0.0
 22
0.0
 32
0.0
 14
1.000000000000000E+20
 24
1.000000000000000E+20
 34
1.000000000000000E+20
 15
-1.000000000000000E+20
 25
-1.000000000000000E+20
 35
-1.000000000000000E+20
146
0.0
 13
0.0
 23
0.0
 33
0.0
 16
1.0
 26
0.0
 36
0.0
 17
0.0
 27
1.0
 37
0.0
 76
     0
330
E
  0
MLINESTYLE
  5
34
102
{ACAD_REACTORS
330
2F
102
}
330
2F
100
AcDbMlineStyle
  2
STANDARD
 70
     0
  3

 62
   256
 51
90.0
 52
90.0
 71
     2
 49
0.5
 62
   256
  6
BYLAYER
 49
-0.5
 62
   256
  6
BYLAYER
  0
ACDBPLACEHOLDER
  5
7
102
{ACAD_REACTORS
330
8
102
}
330
8
  0
XRECORD
  5
208
102
{ACAD_REACTORS
330
206
102
}
330
206
100
AcDbXrecord
280
     1
340
32
  0
XRECORD
  5
207
102
{ACAD_REACTORS
330
206
102
}
330
206
100
AcDbXrecord
280
     1
340
31
  0
DICTIONARYVAR
  5
1DB
102
{ACAD_REACTORS
330
1D9
102
}
330
1D9
100
DictionaryVariables
280
     0
  1
1
  0
DICTIONARYVAR
  5
1DA
102
{ACAD_REACTORS
330
1D9
102
}
330
1D9
100
DictionaryVariables
280
     0
  1
1
  0
DICTIONARYVAR
  5
1DC
102
{ACAD_REACTORS
330
1D9
102
}
330
1D9
100
DictionaryVariables
280
     0
  1

  0
XRECORD
  5
17
102
{ACAD_REACTORS
330
16
102
}
330
16
100
AcDbXrecord
280
     1
  1
ロック画層
  1
*
  1
*
  1
*
 70
   256
  1
*
  1
*
  0
DICTIONARY
  5
209
330
C
100
AcDbDictionary
280
     1
281
     1
  3
ACAD_XREC_ROUNDTRIP
360
20A
  0
DICTIONARY
  5
20B
330
13
100
AcDbDictionary
280
     1
281
     1
  3
ACAD_XREC_ROUNDTRIP
360
20C
  0
XRECORD
  5
20A
102
{ACAD_REACTORS
330
209
102
}
330
209
100
AcDbXrecord
280
     1
102
SHADEPLOT
 70
     0
102
SHADEPLOTRESLEVEL
 70
     2
102
SHADEPLOTCUSTOMDPI
 70
   300
  0
XRECORD
  5
20C
102
{ACAD_REACTORS
330
20B
102
}
330
20B
100
AcDbXrecord
280
     1
102
SHADEPLOT
 70
     0
102
SHADEPLOTRESLEVEL
 70
     2
102
SHADEPLOTCUSTOMDPI
 70
   300
  0
ENDSEC
  0
EOF
