  0
SECTION
  2
HEADER
  9
$ACADVER
  1
AC1015
  9
$ACADMAINTVER
 70
    20
  9
$DWGCODEPAGE
  3
ANSI_932
  9
$INSBASE
 10
0.4999999440410648
 20
246.5008351249344
 30
0.0
  9
$EXTMIN
 10
-59.3572988958997
 20
-54.02883848271892
 30
-0.0015258207003583
  9
$EXTMAX
 10
65.67627009665159
 20
58.99575847107428
 30
0.0000000349246037
  9
$LIMMIN
 10
0.0
 20
0.0
  9
$LIMMAX
 10
420.0
 20
297.0
  9
$ORTHOMODE
 70
     1
  9
$REGENMODE
 70
     0
  9
$FILLMODE
 70
     1
  9
$QTEXTMODE
 70
     0
  9
$MIRRTEXT
 70
     0
  9
$LTSCALE
 40
1.0
  9
$ATTMODE
 70
     1
  9
$TEXTSIZE
 40
2.5
  9
$TRACEWID
 40
1.0
  9
$TEXTSTYLE
  7
Standard
  9
$CLAYER
  8
GAIKEI
  9
$CELTYPE
  6
ByLayer
  9
$CECOLOR
 62
   256
  9
$CELTSCALE
 40
1.0
  9
$DISPSILH
 70
     0
  9
$DIMSCALE
 40
1.0
  9
$DIMASZ
 40
2.0
  9
$DIMEXO
 40
2.0
  9
$DIMDLI
 40
8.0
  9
$DIMRND
 40
0.0
  9
$DIMDLE
 40
0.0
  9
$DIMEXE
 40
2.0
  9
$DIMTP
 40
0.0
  9
$DIMTM
 40
0.0
  9
$DIMTXT
 40
2.5
  9
$DIMCEN
 40
0.0
  9
$DIMTSZ
 40
0.0
  9
$DIMTOL
 70
     0
  9
$DIMLIM
 70
     0
  9
$DIMTIH
 70
     0
  9
$DIMTOH
 70
     0
  9
$DIMSE1
 70
     0
  9
$DIMSE2
 70
     0
  9
$DIMTAD
 70
     3
  9
$DIMZIN
 70
     0
  9
$DIMBLK
  1

  9
$DIMASO
 70
     1
  9
$DIMSHO
 70
     1
  9
$DIMPOST
  1

  9
$DIMAPOST
  1

  9
$DIMALT
 70
     0
  9
$DIMALTD
 70
     2
  9
$DIMALTF
 40
25.4
  9
$DIMLFAC
 40
1.0
  9
$DIMTOFL
 70
     1
  9
$DIMTVP
 40
0.0
  9
$DIMTIX
 70
     0
  9
$DIMSOXD
 70
     0
  9
$DIMSAH
 70
     1
  9
$DIMBLK1
  1
OPEN30
  9
$DIMBLK2
  1
OPEN30
  9
$DIMSTYLE
  2
STANDARD
  9
$DIMCLRD
 70
     0
  9
$DIMCLRE
 70
     0
  9
$DIMCLRT
 70
     0
  9
$DIMTFAC
 40
1.0
  9
$DIMGAP
 40
0.5
  9
$DIMJUST
 70
     0
  9
$DIMSD1
 70
     0
  9
$DIMSD2
 70
     0
  9
$DIMTOLJ
 70
     1
  9
$DIMTZIN
 70
     0
  9
$DIMALTZ
 70
     0
  9
$DIMALTTZ
 70
     0
  9
$DIMUPT
 70
     0
  9
$DIMDEC
 70
     4
  9
$DIMTDEC
 70
     4
  9
$DIMALTU
 70
     2
  9
$DIMALTTD
 70
     2
  9
$DIMTXSTY
  7
Standard
  9
$DIMAUNIT
 70
     0
  9
$DIMADEC
 70
     0
  9
$DIMALTRND
 40
0.0
  9
$DIMAZIN
 70
     0
  9
$DIMDSEP
 70
    46
  9
$DIMATFIT
 70
     3
  9
$DIMFRAC
 70
     0
  9
$DIMLDRBLK
  1
OPEN30
  9
$DIMLUNIT
 70
     2
  9
$DIMLWD
 70
    -2
  9
$DIMLWE
 70
    -2
  9
$DIMTMOVE
 70
     0
  9
$LUNITS
 70
     2
  9
$LUPREC
 70
     4
  9
$SKETCHINC
 40
1.0
  9
$FILLETRAD
 40
1.0
  9
$AUNITS
 70
     0
  9
$AUPREC
 70
     0
  9
$MENU
  1
.
  9
$ELEVATION
 40
0.0
  9
$PELEVATION
 40
0.0
  9
$THICKNESS
 40
0.0
  9
$LIMCHECK
 70
     0
  9
$CHAMFERA
 40
0.0
  9
$CHAMFERB
 40
0.0
  9
$CHAMFERC
 40
0.0
  9
$CHAMFERD
 40
0.0
  9
$SKPOLY
 70
     0
  9
$TDCREATE
 40
2454349.434269746
  9
$TDUCREATE
 40
2454349.059269746
  9
$TDUPDATE
 40
2455701.384950197
  9
$TDUUPDATE
 40
2455701.009950197
  9
$TDINDWG
 40
0.4975637731
  9
$TDUSRTIMER
 40
0.4975637731
  9
$USRTIMER
 70
     1
  9
$ANGBASE
 50
0.0
  9
$ANGDIR
 70
     0
  9
$PDMODE
 70
     0
  9
$PDSIZE
 40
0.0
  9
$PLINEWID
 40
0.0
  9
$SPLFRAME
 70
     0
  9
$SPLINETYPE
 70
     6
  9
$SPLINESEGS
 70
     8
  9
$HANDSEED
  5
38B
  9
$SURFTAB1
 70
     6
  9
$SURFTAB2
 70
     6
  9
$SURFTYPE
 70
     6
  9
$SURFU
 70
     6
  9
$SURFV
 70
     6
  9
$UCSBASE
  2

  9
$UCSNAME
  2

  9
$UCSORG
 10
0.0
 20
0.0
 30
0.0
  9
$UCSXDIR
 10
1.0
 20
0.0
 30
0.0
  9
$UCSYDIR
 10
0.0
 20
1.0
 30
0.0
  9
$UCSORTHOREF
  2

  9
$UCSORTHOVIEW
 70
     0
  9
$UCSORGTOP
 10
0.0
 20
0.0
 30
0.0
  9
$UCSORGBOTTOM
 10
0.0
 20
0.0
 30
0.0
  9
$UCSORGLEFT
 10
0.0
 20
0.0
 30
0.0
  9
$UCSORGRIGHT
 10
0.0
 20
0.0
 30
0.0
  9
$UCSORGFRONT
 10
0.0
 20
0.0
 30
0.0
  9
$UCSORGBACK
 10
0.0
 20
0.0
 30
0.0
  9
$PUCSBASE
  2

  9
$PUCSNAME
  2

  9
$PUCSORG
 10
0.0
 20
0.0
 30
0.0
  9
$PUCSXDIR
 10
1.0
 20
0.0
 30
0.0
  9
$PUCSYDIR
 10
0.0
 20
1.0
 30
0.0
  9
$PUCSORTHOREF
  2

  9
$PUCSORTHOVIEW
 70
     0
  9
$PUCSORGTOP
 10
0.0
 20
0.0
 30
0.0
  9
$PUCSORGBOTTOM
 10
0.0
 20
0.0
 30
0.0
  9
$PUCSORGLEFT
 10
0.0
 20
0.0
 30
0.0
  9
$PUCSORGRIGHT
 10
0.0
 20
0.0
 30
0.0
  9
$PUCSORGFRONT
 10
0.0
 20
0.0
 30
0.0
  9
$PUCSORGBACK
 10
0.0
 20
0.0
 30
0.0
  9
$USERI1
 70
     0
  9
$USERI2
 70
     0
  9
$USERI3
 70
     0
  9
$USERI4
 70
     0
  9
$USERI5
 70
     0
  9
$USERR1
 40
0.0
  9
$USERR2
 40
0.0
  9
$USERR3
 40
0.0
  9
$USERR4
 40
0.0
  9
$USERR5
 40
0.0
  9
$WORLDVIEW
 70
     1
  9
$SHADEDGE
 70
     3
  9
$SHADEDIF
 70
    70
  9
$TILEMODE
 70
     1
  9
$MAXACTVP
 70
    64
  9
$PINSBASE
 10
0.0
 20
0.0
 30
0.0
  9
$PLIMCHECK
 70
     0
  9
$PEXTMIN
 10
0.0
 20
0.0
 30
0.0
  9
$PEXTMAX
 10
0.0
 20
0.0
 30
0.0
  9
$PLIMMIN
 10
0.0
 20
0.0
  9
$PLIMMAX
 10
12.0
 20
9.0
  9
$UNITMODE
 70
     0
  9
$VISRETAIN
 70
     1
  9
$PLINEGEN
 70
     0
  9
$PSLTSCALE
 70
     1
  9
$TREEDEPTH
 70
  3020
  9
$CMLSTYLE
  2
Standard
  9
$CMLJUST
 70
     0
  9
$CMLSCALE
 40
20.0
  9
$PROXYGRAPHICS
 70
     1
  9
$MEASUREMENT
 70
     1
  9
$CELWEIGHT
370
    -1
  9
$ENDCAPS
280
     0
  9
$JOINSTYLE
280
     0
  9
$LWDISPLAY
290
     0
  9
$INSUNITS
 70
     4
  9
$HYPERLINKBASE
  1

  9
$STYLESHEET
  1

  9
$XEDIT
290
     1
  9
$CEPSNTYPE
380
     0
  9
$PSTYLEMODE
290
     1
  9
$FINGERPRINTGUID
  2
{FDEAD578-A652-11D2-9A35-0060089B3A3F}
  9
$VERSIONGUID
  2
{5F2DE246-4993-4F0D-886D-F9DB29CB6AD7}
  9
$EXTNAMES
290
     1
  9
$PSVPSCALE
 40
0.0
  9
$OLESTARTUP
290
     0
  0
ENDSEC
  0
SECTION
  2
CLASSES
  0
CLASS
  1
ACDBDICTIONARYWDFLT
  2
AcDbDictionaryWithDefault
  3
ObjectDBX Classes
 90
        0
280
     0
281
     0
  0
CLASS
  1
ACDBPLACEHOLDER
  2
AcDbPlaceHolder
  3
ObjectDBX Classes
 90
        0
280
     0
281
     0
  0
CLASS
  1
LAYOUT
  2
AcDbLayout
  3
ObjectDBX Classes
 90
        0
280
     0
281
     0
  0
CLASS
  1
DICTIONARYVAR
  2
AcDbDictionaryVar
  3
ObjectDBX Classes
 90
        0
280
     0
281
     0
  0
CLASS
  1
DIMASSOC
  2
AcDbDimAssoc
  3
"AcDbDimAssoc|Product Desc:     AcDim ARX App For Dimension|Company:          Autodesk, Inc.|WEB Address:      www.autodesk.com"
 90
    32768
280
     0
281
     0
  0
ENDSEC
  0
SECTION
  2
TABLES
  0
TABLE
  2
VPORT
  5
1B
330
0
100
AcDbSymbolTable
 70
     2
  0
VPORT
  5
383
330
1B
100
AcDbSymbolTableRecord
100
AcDbViewportTableRecord
  2
*Active
 70
     0
 10
0.0
 20
0.0
 11
1.0
 21
1.0
 12
3.159485600375937
 22
2.483459994177678
 13
0.0
 23
0.0
 14
10.0
 24
10.0
 15
10.0
 25
10.0
 16
0.0
 26
0.0
 36
1.0
 17
0.0
 27
0.0
 37
0.0
 40
113.8776127798595
 41
2.182619647355163
 42
50.0
 43
0.0
 44
0.0
 50
0.0
 51
0.0
 71
     0
 72
  1000
 73
     1
 74
     2
 75
     0
 76
     0
 77
     0
 78
     0
281
     0
 65
     1
110
0.0
120
0.0
130
0.0
111
1.0
121
0.0
131
0.0
112
0.0
122
1.0
132
0.0
 79
     0
146
0.0
  0
ENDTAB
  0
TABLE
  2
LTYPE
  5
16
330
0
100
AcDbSymbolTable
 70
     2
  0
LTYPE
  5
17
330
16
100
AcDbSymbolTableRecord
100
AcDbLinetypeTableRecord
  2
ByBlock
 70
     0
  3

 72
    65
 73
     0
 40
0.0
  0
LTYPE
  5
18
330
16
100
AcDbSymbolTableRecord
100
AcDbLinetypeTableRecord
  2
ByLayer
 70
     0
  3

 72
    65
 73
     0
 40
0.0
  0
LTYPE
  5
8
330
16
100
AcDbSymbolTableRecord
100
AcDbLinetypeTableRecord
  2
Continuous
 70
     0
  3
Solid line
 72
    65
 73
     0
 40
0.0
  0
LTYPE
  5
191
330
16
100
AcDbSymbolTableRecord
100
AcDbLinetypeTableRecord
  2
CENTERLINE
 70
     0
  3
_ 
 72
    65
 73
     5
 40
30.0
 49
12.0
 74
     0
 49
-1.5
 74
     0
 49
3.0
 74
     0
 49
-1.5
 74
     0
 49
12.0
 74
     0
  0
ENDTAB
  0
TABLE
  2
LAYER
  5
10
102
{ACAD_XDICTIONARY
360
11
102
}
330
0
100
AcDbSymbolTable
 70
     7
  0
LAYER
  5
4
330
10
100
AcDbSymbolTableRecord
100
AcDbLayerTableRecord
  2
0
 70
     0
 62
     7
  6
Continuous
370
    -3
390
5
  0
LAYER
  5
33C
330
10
100
AcDbSymbolTableRecord
100
AcDbLayerTableRecord
  2
WAKU
 70
     0
 62
     4
  6
Continuous
370
    -3
390
5
  0
LAYER
  5
31
330
10
100
AcDbSymbolTableRecord
100
AcDbLayerTableRecord
  2
MOJI1
 70
     0
 62
     2
  6
Continuous
370
    -3
390
5
  0
LAYER
  5
33
330
10
100
AcDbSymbolTableRecord
100
AcDbLayerTableRecord
  2
TOUROKU
 70
     0
 62
     1
  6
Continuous
370
    -3
390
5
  0
LAYER
  5
2E
330
10
100
AcDbSymbolTableRecord
100
AcDbLayerTableRecord
  2
GAIKEI
 70
     0
 62
     7
  6
Continuous
370
    -3
390
5
  0
LAYER
  5
3F
330
10
100
AcDbSymbolTableRecord
100
AcDbLayerTableRecord
  2
DEFPOINTS
 70
     0
 62
     7
  6
Continuous
290
     0
370
    -3
390
5
  0
LAYER
  5
35
330
10
100
AcDbSymbolTableRecord
100
AcDbLayerTableRecord
  2
SUNPO
 70
     0
 62
     3
  6
Continuous
370
    -3
390
5
  0
ENDTAB
  0
TABLE
  2
STYLE
  5
13
330
0
100
AcDbSymbolTable
 70
     1
  0
STYLE
  5
14
330
13
100
AcDbSymbolTableRecord
100
AcDbTextStyleTableRecord
  2
Standard
 70
     0
 40
0.0
 41
1.0
 50
0.0
 71
     0
 42
2.5
  3
MONOTXT.shx
  4
BIGFONT.shx
  0
ENDTAB
  0
TABLE
  2
VIEW
  5
19
330
0
100
AcDbSymbolTable
 70
     0
  0
ENDTAB
  0
TABLE
  2
UCS
  5
1A
330
0
100
AcDbSymbolTable
 70
     0
  0
ENDTAB
  0
TABLE
  2
APPID
  5
1D
330
0
100
AcDbSymbolTable
 70
     1
  0
APPID
  5
1E
330
1D
100
AcDbSymbolTableRecord
100
AcDbRegAppTableRecord
  2
ACAD
 70
     0
  0
ENDTAB
  0
TABLE
  2
DIMSTYLE
  5
1F
330
0
100
AcDbSymbolTable
 70
     2
100
AcDbDimStyleTable
 71
     2
340
20
340
27
  0
DIMSTYLE
105
27
330
1F
100
AcDbSymbolTableRecord
100
AcDbDimStyleTableRecord
  2
ISO-25
 70
     0
 41
2.5
 42
0.625
 43
3.75
 44
1.25
 73
     0
 74
     0
 77
     1
 78
     8
140
2.5
141
2.5
143
0.03937007874016
147
0.625
171
     3
172
     1
271
     2
272
     2
274
     3
278
    44
283
     0
284
     8
340
14
  0
DIMSTYLE
105
20
102
{ACAD_REACTORS
330
51
330
43
330
34
102
}
330
1F
100
AcDbSymbolTableRecord
100
AcDbDimStyleTableRecord
  2
STANDARD
 70
     0
 40
0.0
 41
2.0
 42
2.0
 43
8.0
 44
2.0
 73
     0
 74
     0
 77
     3
140
3.0
141
0.0
173
     1
279
     2
288
     1
340
14
341
21
343
21
344
21
  0
ENDTAB
  0
TABLE
  2
BLOCK_RECORD
  5
1
330
0
100
AcDbSymbolTable
 70
     7
  0
BLOCK_RECORD
  5
2
330
1
100
AcDbSymbolTableRecord
100
AcDbBlockTableRecord
  2
*Model_Space
340
A
  0
BLOCK_RECORD
  5
C
330
1
100
AcDbSymbolTableRecord
100
AcDbBlockTableRecord
  2
*Paper_Space
340
F
  0
BLOCK_RECORD
  5
21
330
1
100
AcDbSymbolTableRecord
100
AcDbBlockTableRecord
  2
_OPEN30
340
0
102
{BLKREFS
331
3B
331
3C
331
4A
331
4B
331
57
331
58
331
35E
331
35F
331
36B
331
36C
331
377
331
378
102
}
  0
BLOCK_RECORD
  5
52
330
1
100
AcDbSymbolTableRecord
100
AcDbBlockTableRecord
  2
*D1
340
0
  0
BLOCK_RECORD
  5
44
330
1
100
AcDbSymbolTableRecord
100
AcDbBlockTableRecord
  2
*D2
340
0
  0
BLOCK_RECORD
  5
36
330
1
100
AcDbSymbolTableRecord
100
AcDbBlockTableRecord
  2
*D3
340
0
  0
BLOCK_RECORD
  5
35A
330
1
100
AcDbSymbolTableRecord
100
AcDbBlockTableRecord
  2
*D4
340
0
  0
BLOCK_RECORD
  5
366
330
1
100
AcDbSymbolTableRecord
100
AcDbBlockTableRecord
  2
*D5
340
0
  0
BLOCK_RECORD
  5
373
330
1
100
AcDbSymbolTableRecord
100
AcDbBlockTableRecord
  2
*D6
340
0
  0
ENDTAB
  0
ENDSEC
  0
SECTION
  2
BLOCKS
  0
BLOCK
  5
3
330
2
100
AcDbEntity
  8
0
100
AcDbBlockBegin
  2
*Model_Space
 70
     0
 10
0.0
 20
0.0
 30
0.0
  3
*Model_Space
  1

  0
ENDBLK
  5
9
330
2
100
AcDbEntity
  8
0
100
AcDbBlockEnd
  0
BLOCK
  5
D
330
C
100
AcDbEntity
 67
     1
  8
0
100
AcDbBlockBegin
  2
*Paper_Space
 70
     0
 10
0.0
 20
0.0
 30
0.0
  3
*Paper_Space
  1

  0
ENDBLK
  5
E
330
C
100
AcDbEntity
 67
     1
  8
0
100
AcDbBlockEnd
  0
BLOCK
  5
22
330
21
100
AcDbEntity
  8
0
100
AcDbBlockBegin
  2
_OPEN30
 70
     0
 10
0.0
 20
0.0
 30
0.0
  3
_OPEN30
  1

  0
LINE
  5
23
330
21
100
AcDbEntity
  8
0
  6
ByBlock
 62
     0
100
AcDbLine
 10
-1.0
 20
0.26794919
 30
0.0
 11
0.0
 21
0.0
 31
0.0
  0
LINE
  5
24
330
21
100
AcDbEntity
  8
0
  6
ByBlock
 62
     0
100
AcDbLine
 10
0.0
 20
0.0
 30
0.0
 11
-1.0
 21
-0.26794919
 31
0.0
  0
LINE
  5
25
330
21
100
AcDbEntity
  8
0
  6
ByBlock
 62
     0
100
AcDbLine
 10
0.0
 20
0.0
 30
0.0
 11
-1.0
 21
0.0
 31
0.0
  0
ENDBLK
  5
26
330
21
100
AcDbEntity
  8
0
100
AcDbBlockEnd
  0
BLOCK
  5
53
330
52
100
AcDbEntity
  8
0
100
AcDbBlockBegin
  2
*D1
 70
     1
 10
0.0
 20
0.0
 30
0.0
  3
*D1
  1

  0
LINE
  5
54
330
52
100
AcDbEntity
  8
SUNPO
 62
     0
370
    -2
100
AcDbLine
 10
44.82343510962179
 20
197.884026850133
 30
0.0
 11
52.82343510962178
 21
197.884026850133
 31
0.0
  0
LINE
  5
55
330
52
100
AcDbEntity
  8
SUNPO
 62
     0
370
    -2
100
AcDbLine
 10
44.82343510962179
 20
209.0840268501331
 30
0.0
 11
52.82343510962179
 21
209.0840268501331
 31
0.0
  0
LINE
  5
56
330
52
100
AcDbEntity
  8
SUNPO
 62
     0
370
    -2
100
AcDbLine
 10
50.82343510962179
 20
199.884026850133
 30
0.0
 11
50.82343510962179
 21
207.0840268501331
 31
0.0
  0
INSERT
  5
57
330
52
100
AcDbEntity
  8
SUNPO
 62
     0
370
    -2
100
AcDbBlockReference
  2
_OPEN30
 10
50.82343510962179
 20
197.884026850133
 30
0.0
 41
2.0
 42
2.0
 43
2.0
 50
270.0
  0
INSERT
  5
58
330
52
100
AcDbEntity
  8
SUNPO
 62
     0
370
    -2
100
AcDbBlockReference
  2
_OPEN30
 10
50.82343510962179
 20
209.0840268501331
 30
0.0
 41
2.0
 42
2.0
 43
2.0
 50
90.0
  0
MTEXT
  5
59
330
52
100
AcDbEntity
  8
SUNPO
 62
     0
100
AcDbMText
 10
49.07343510962175
 20
203.4840268501331
 30
0.0
 40
2.5
 41
0.0
 71
     5
 72
     1
  1
\A1;56
 11
0.0000000000000001
 21
1.0
 31
0.0
 73
     1
 44
1.0
1001
ACAD
1000
MTEXTBEGIN
1070
    73
1070
     1
1070
    44
1040
1.0
1070
    74
1070
     0
1000
MTEXTEND
  0
POINT
  5
5A
330
52
100
AcDbEntity
  8
DEFPOINTS
 62
     0
100
AcDbPoint
 10
42.82343510962179
 20
197.884026850133
 30
0.0
  0
POINT
  5
5B
330
52
100
AcDbEntity
  8
DEFPOINTS
 62
     0
100
AcDbPoint
 10
42.82343510962179
 20
209.0840268501331
 30
0.0
  0
POINT
  5
5C
330
52
100
AcDbEntity
  8
DEFPOINTS
 62
     0
100
AcDbPoint
 10
50.82343510962179
 20
209.0840268501331
 30
0.0
  0
ENDBLK
  5
5D
330
52
100
AcDbEntity
  8
0
100
AcDbBlockEnd
  0
BLOCK
  5
45
330
44
100
AcDbEntity
  8
0
100
AcDbBlockBegin
  2
*D2
 70
     1
 10
0.0
 20
0.0
 30
0.0
  3
*D2
  1

  0
LINE
  5
46
330
44
100
AcDbEntity
  8
SUNPO
 62
     0
370
    -2
100
AcDbLine
 10
32.08508707462303
 20
211.0875682200318
 30
0.0
 11
32.08508707462303
 21
219.0875682200318
 31
0.0
  0
LINE
  5
47
330
44
100
AcDbEntity
  8
SUNPO
 62
     0
370
    -2
100
AcDbLine
 10
42.78508707462303
 20
211.0875682200318
 30
0.0
 11
42.78508707462303
 21
219.0875682200318
 31
0.0
  0
LINE
  5
48
330
44
100
AcDbEntity
  8
SUNPO
 62
     0
370
    -2
100
AcDbLine
 10
34.08508707462303
 20
217.0875682200318
 30
0.0
 11
40.78508707462303
 21
217.0875682200318
 31
0.0
  0
LINE
  5
49
330
44
100
AcDbEntity
  8
SUNPO
 62
     0
370
    -2
100
AcDbLine
 10
42.78508707462303
 20
217.0875682200318
 30
0.0
 11
57.45175374128969
 21
217.0875682200318
 31
0.0
  0
INSERT
  5
4A
330
44
100
AcDbEntity
  8
SUNPO
 62
     0
370
    -2
100
AcDbBlockReference
  2
_OPEN30
 10
32.08508707462303
 20
217.0875682200318
 30
0.0
 41
2.0
 42
2.0
 43
2.0
 50
180.0
  0
INSERT
  5
4B
330
44
100
AcDbEntity
  8
SUNPO
 62
     0
370
    -2
100
AcDbBlockReference
  2
_OPEN30
 10
42.78508707462303
 20
217.0875682200318
 30
0.0
 41
2.0
 42
2.0
 43
2.0
  0
MTEXT
  5
4C
330
44
100
AcDbEntity
  8
SUNPO
 62
     0
100
AcDbMText
 10
51.11842040795636
 20
218.8375682200318
 30
0.0
 40
2.5
 41
0.0
 71
     5
 72
     1
  1
\A1;φ53.5
 73
     1
 44
1.0
1001
ACAD
1000
MTEXTBEGIN
1070
    73
1070
     1
1070
    44
1040
1.0
1070
    74
1070
     0
1000
MTEXTEND
  0
POINT
  5
4D
330
44
100
AcDbEntity
  8
DEFPOINTS
 62
     0
100
AcDbPoint
 10
32.08508707462303
 20
209.0875682200318
 30
0.0
  0
POINT
  5
4E
330
44
100
AcDbEntity
  8
DEFPOINTS
 62
     0
100
AcDbPoint
 10
42.78508707462303
 20
209.0875682200318
 30
0.0
  0
POINT
  5
4F
330
44
100
AcDbEntity
  8
DEFPOINTS
 62
     0
100
AcDbPoint
 10
42.78508707462303
 20
217.0875682200318
 30
0.0
  0
ENDBLK
  5
50
330
44
100
AcDbEntity
  8
0
100
AcDbBlockEnd
  0
BLOCK
  5
37
330
36
100
AcDbEntity
  8
0
100
AcDbBlockBegin
  2
*D3
 70
     1
 10
0.0
 20
0.0
 30
0.0
  3
*D3
  1

  0
LINE
  5
38
330
36
100
AcDbEntity
  8
SUNPO
 62
     0
370
    -2
100
AcDbLine
 10
67.47504301180133
 20
211.0875682200318
 30
0.0
 11
67.47504301180133
 21
219.0875682200318
 31
0.0
  0
LINE
  5
39
330
36
100
AcDbEntity
  8
SUNPO
 62
     0
370
    -2
100
AcDbLine
 10
92.22504301180135
 20
211.0875682200318
 30
0.0
 11
92.22504301180135
 21
219.0875682200318
 31
0.0
  0
LINE
  5
3A
330
36
100
AcDbEntity
  8
SUNPO
 62
     0
370
    -2
100
AcDbLine
 10
69.47504301180133
 20
217.0875682200318
 30
0.0
 11
90.22504301180134
 21
217.0875682200318
 31
0.0
  0
INSERT
  5
3B
330
36
100
AcDbEntity
  8
SUNPO
 62
     0
370
    -2
100
AcDbBlockReference
  2
_OPEN30
 10
67.47504301180133
 20
217.0875682200318
 30
0.0
 41
2.0
 42
2.0
 43
2.0
 50
180.0
  0
INSERT
  5
3C
330
36
100
AcDbEntity
  8
SUNPO
 62
     0
370
    -2
100
AcDbBlockReference
  2
_OPEN30
 10
92.22504301180135
 20
217.0875682200318
 30
0.0
 41
2.0
 42
2.0
 43
2.0
  0
MTEXT
  5
3D
330
36
100
AcDbEntity
  8
SUNPO
 62
     0
100
AcDbMText
 10
79.85004301180135
 20
218.8375682200318
 30
0.0
 40
2.5
 41
0.0
 71
     5
 72
     1
  1
\A1;123.8
 73
     1
 44
1.0
1001
ACAD
1000
MTEXTBEGIN
1070
    73
1070
     1
1070
    44
1040
1.0
1070
    74
1070
     0
1000
MTEXTEND
  0
POINT
  5
3E
330
36
100
AcDbEntity
  8
DEFPOINTS
 62
     0
100
AcDbPoint
 10
67.47504301180133
 20
209.0875682200318
 30
0.0
  0
POINT
  5
40
330
36
100
AcDbEntity
  8
DEFPOINTS
 62
     0
100
AcDbPoint
 10
92.22504301180135
 20
209.0875682200318
 30
0.0
  0
POINT
  5
41
330
36
100
AcDbEntity
  8
DEFPOINTS
 62
     0
100
AcDbPoint
 10
92.22504301180135
 20
217.0875682200318
 30
0.0
  0
ENDBLK
  5
42
330
36
100
AcDbEntity
  8
0
100
AcDbBlockEnd
  0
BLOCK
  5
364
330
35A
100
AcDbEntity
  8
0
100
AcDbBlockBegin
  2
*D4
 70
     1
 10
0.0
 20
0.0
 30
0.0
  3
*D4
  1

  0
LINE
  5
35B
330
35A
100
AcDbEntity
  8
SUNPO
 62
     0
370
    -2
100
AcDbLine
 10
-17.02018976740972
 20
12.35803105006994
 30
0.0
 11
-9.020189767409727
 21
12.35803105006994
 31
0.0
  0
LINE
  5
35C
330
35A
100
AcDbEntity
  8
SUNPO
 62
     0
370
    -2
100
AcDbLine
 10
-17.02018976740972
 20
23.55803105006998
 30
0.0
 11
-9.020189767409725
 21
23.55803105006998
 31
0.0
  0
LINE
  5
35D
330
35A
100
AcDbEntity
  8
SUNPO
 62
     0
370
    -2
100
AcDbLine
 10
-11.02018976740972
 20
14.35803105006994
 30
0.0
 11
-11.02018976740972
 21
21.55803105006999
 31
0.0
  0
INSERT
  5
35E
330
35A
100
AcDbEntity
  8
SUNPO
 62
     0
370
    -2
100
AcDbBlockReference
  2
_OPEN30
 10
-11.02018976740972
 20
12.35803105006994
 30
0.0
 41
2.0
 42
2.0
 43
2.0
 50
270.0
  0
INSERT
  5
35F
330
35A
100
AcDbEntity
  8
SUNPO
 62
     0
370
    -2
100
AcDbBlockReference
  2
_OPEN30
 10
-11.02018976740972
 20
23.55803105006998
 30
0.0
 41
2.0
 42
2.0
 43
2.0
 50
90.0
  0
MTEXT
  5
360
330
35A
100
AcDbEntity
  8
SUNPO
 62
     0
100
AcDbMText
 10
-12.77018976740973
 20
17.95803105006996
 30
0.0
 40
2.5
 41
0.0
 71
     5
 72
     1
  1
\A1;56
 11
0.0000000000000001
 21
1.0
 31
0.0
 73
     1
 44
1.0
1001
ACAD
1000
MTEXTBEGIN
1070
    73
1070
     1
1070
    44
1040
1.0
1070
    74
1070
     0
1000
MTEXTEND
  0
POINT
  5
361
330
35A
100
AcDbEntity
  8
DEFPOINTS
 62
     0
100
AcDbPoint
 10
-19.02018976740972
 20
12.35803105006994
 30
0.0
  0
POINT
  5
362
330
35A
100
AcDbEntity
  8
DEFPOINTS
 62
     0
100
AcDbPoint
 10
-19.02018976740972
 20
23.55803105006998
 30
0.0
  0
POINT
  5
363
330
35A
100
AcDbEntity
  8
DEFPOINTS
 62
     0
100
AcDbPoint
 10
-11.02018976740972
 20
23.55803105006998
 30
0.0
  0
ENDBLK
  5
365
330
35A
100
AcDbEntity
  8
0
100
AcDbBlockEnd
  0
BLOCK
  5
371
330
366
100
AcDbEntity
  8
0
100
AcDbBlockBegin
  2
*D5
 70
     1
 10
0.0
 20
0.0
 30
0.0
  3
*D5
  1

  0
LINE
  5
367
330
366
100
AcDbEntity
  8
SUNPO
 62
     0
370
    -2
100
AcDbLine
 10
-29.75853780240849
 20
25.56157241996869
 30
0.0
 11
-29.75853780240849
 21
33.56157241996868
 31
0.0
  0
LINE
  5
368
330
366
100
AcDbEntity
  8
SUNPO
 62
     0
370
    -2
100
AcDbLine
 10
-19.05853780240849
 20
25.56157241996869
 30
0.0
 11
-19.05853780240849
 21
33.56157241996868
 31
0.0
  0
LINE
  5
369
330
366
100
AcDbEntity
  8
SUNPO
 62
     0
370
    -2
100
AcDbLine
 10
-27.75853780240849
 20
31.56157241996869
 30
0.0
 11
-21.05853780240849
 21
31.56157241996869
 31
0.0
  0
LINE
  5
36A
330
366
100
AcDbEntity
  8
SUNPO
 62
     0
370
    -2
100
AcDbLine
 10
-19.05853780240849
 20
31.56157241996869
 30
0.0
 11
-4.391871135741821
 21
31.56157241996869
 31
0.0
  0
INSERT
  5
36B
330
366
100
AcDbEntity
  8
SUNPO
 62
     0
370
    -2
100
AcDbBlockReference
  2
_OPEN30
 10
-29.75853780240849
 20
31.56157241996869
 30
0.0
 41
2.0
 42
2.0
 43
2.0
 50
180.0
  0
INSERT
  5
36C
330
366
100
AcDbEntity
  8
SUNPO
 62
     0
370
    -2
100
AcDbBlockReference
  2
_OPEN30
 10
-19.05853780240849
 20
31.56157241996869
 30
0.0
 41
2.0
 42
2.0
 43
2.0
  0
MTEXT
  5
36D
330
366
100
AcDbEntity
  8
SUNPO
 62
     0
100
AcDbMText
 10
-10.72520446907515
 20
33.31157241996868
 30
0.0
 40
2.5
 41
0.0
 71
     5
 72
     1
  1
\A1;φ53.5
 73
     1
 44
1.0
1001
ACAD
1000
MTEXTBEGIN
1070
    73
1070
     1
1070
    44
1040
1.0
1070
    74
1070
     0
1000
MTEXTEND
  0
POINT
  5
36E
330
366
100
AcDbEntity
  8
DEFPOINTS
 62
     0
100
AcDbPoint
 10
-29.75853780240849
 20
23.56157241996868
 30
0.0
  0
POINT
  5
36F
330
366
100
AcDbEntity
  8
DEFPOINTS
 62
     0
100
AcDbPoint
 10
-19.05853780240849
 20
23.56157241996868
 30
0.0
  0
POINT
  5
370
330
366
100
AcDbEntity
  8
DEFPOINTS
 62
     0
100
AcDbPoint
 10
-19.05853780240849
 20
31.56157241996869
 30
0.0
  0
ENDBLK
  5
372
330
366
100
AcDbEntity
  8
0
100
AcDbBlockEnd
  0
BLOCK
  5
37D
330
373
100
AcDbEntity
  8
0
100
AcDbBlockBegin
  2
*D6
 70
     1
 10
0.0
 20
0.0
 30
0.0
  3
*D6
  1

  0
LINE
  5
374
330
373
100
AcDbEntity
  8
SUNPO
 62
     0
370
    -2
100
AcDbLine
 10
5.631418134769816
 20
25.56157241996869
 30
0.0
 11
5.631418134769817
 21
33.56157241996866
 31
0.0
  0
LINE
  5
375
330
373
100
AcDbEntity
  8
SUNPO
 62
     0
370
    -2
100
AcDbLine
 10
30.38141813476983
 20
25.56157241996866
 30
0.0
 11
30.38141813476983
 21
33.56157241996866
 31
0.0
  0
LINE
  5
376
330
373
100
AcDbEntity
  8
SUNPO
 62
     0
370
    -2
100
AcDbLine
 10
7.631418134769817
 20
31.56157241996865
 30
0.0
 11
28.38141813476983
 21
31.56157241996865
 31
0.0
  0
INSERT
  5
377
330
373
100
AcDbEntity
  8
SUNPO
 62
     0
370
    -2
100
AcDbBlockReference
  2
_OPEN30
 10
5.631418134769817
 20
31.56157241996865
 30
0.0
 41
2.0
 42
2.0
 43
2.0
 50
180.0
  0
INSERT
  5
378
330
373
100
AcDbEntity
  8
SUNPO
 62
     0
370
    -2
100
AcDbBlockReference
  2
_OPEN30
 10
30.38141813476983
 20
31.56157241996865
 30
0.0
 41
2.0
 42
2.0
 43
2.0
  0
MTEXT
  5
379
330
373
100
AcDbEntity
  8
SUNPO
 62
     0
100
AcDbMText
 10
18.00641813476982
 20
33.31157241996866
 30
0.0
 40
2.5
 41
0.0
 71
     5
 72
     1
  1
\A1;123.8
 73
     1
 44
1.0
1001
ACAD
1000
MTEXTBEGIN
1070
    73
1070
     1
1070
    44
1040
1.0
1070
    74
1070
     0
1000
MTEXTEND
  0
POINT
  5
37A
330
373
100
AcDbEntity
  8
DEFPOINTS
 62
     0
100
AcDbPoint
 10
5.631418134769816
 20
23.56157241996868
 30
0.0
  0
POINT
  5
37B
330
373
100
AcDbEntity
  8
DEFPOINTS
 62
     0
100
AcDbPoint
 10
30.38141813476983
 20
23.56157241996866
 30
0.0
  0
POINT
  5
37C
330
373
100
AcDbEntity
  8
DEFPOINTS
 62
     0
100
AcDbPoint
 10
30.38141813476983
 20
31.56157241996865
 30
0.0
  0
ENDBLK
  5
37E
330
373
100
AcDbEntity
  8
0
100
AcDbBlockEnd
  0
ENDSEC
  0
SECTION
  2
ENTITIES
  0
TEXT
  5
30
330
2
100
AcDbEntity
  8
MOJI1
100
AcDbText
 10
-32.34362493299031
 20
54.97483932487142
 30
0.0
 40
4.0
  1
ＡＧ－ＭＤＲ１５専用コンパクトカメラヘッド
 41
0.95
100
AcDbText
  0
TEXT
  5
32
330
2
100
AcDbEntity
  8
TOUROKU
100
AcDbText
 10
47.25632509993684
 20
48.97483932487137
 30
0.0
 40
2.0
  1
ＡＧＭＤＣ１０Ｇ
 72
     2
 11
65.65632509993683
 21
48.97483932487137
 31
0.0
100
AcDbText
  0
DIMENSION
  5
34
330
2
100
AcDbEntity
  8
SUNPO
100
AcDbDimension
  2
*D6
 10
30.38141813476983
 20
31.56157241996865
 30
0.0
 11
18.00641813476982
 21
33.31157241996866
 31
0.0
 70
    33
  1
123.8
 71
     5
 42
24.75000000000001
  3
STANDARD
100
AcDbAlignedDimension
 13
5.631418134769816
 23
23.56157241996868
 33
0.0
 14
30.38141813476983
 24
23.56157241996866
 34
0.0
1001
ACAD
1000
DSTYLE
1002
{
1070
    40
1040
1.0
1070
   140
1040
2.5
1070
   147
1040
0.5
1070
   172
1070
     1
1070
   279
1070
     0
1070
   288
1070
     0
1002
}
  0
DIMENSION
  5
43
330
2
100
AcDbEntity
  8
SUNPO
100
AcDbDimension
  2
*D5
 10
-19.05853780240849
 20
31.56157241996869
 30
0.0
 11
-10.72520446907515
 21
33.31157241996868
 31
0.0
 70
    33
  1
φ53.5
 71
     5
 42
10.7
  3
STANDARD
100
AcDbAlignedDimension
 13
-29.75853780240849
 23
23.56157241996868
 33
0.0
 14
-19.05853780240849
 24
23.56157241996868
 34
0.0
1001
ACAD
1000
DSTYLE
1002
{
1070
    40
1040
1.0
1070
   140
1040
2.5
1070
   147
1040
0.5
1070
   172
1070
     1
1070
   279
1070
     0
1070
   288
1070
     0
1002
}
  0
DIMENSION
  5
51
330
2
100
AcDbEntity
  8
SUNPO
100
AcDbDimension
  2
*D4
 10
-11.02018976740972
 20
23.55803105006998
 30
0.0
 11
-12.77018976740973
 21
17.95803105006996
 31
0.0
 70
    33
  1
56
 71
     5
 42
11.20000000000004
  3
STANDARD
100
AcDbAlignedDimension
 13
-19.02018976740972
 23
12.35803105006994
 33
0.0
 14
-19.02018976740972
 24
23.55803105006998
 34
0.0
1001
ACAD
1000
DSTYLE
1002
{
1070
    40
1040
1.0
1070
   140
1040
2.5
1070
   147
1040
0.5
1070
   172
1070
     1
1070
   279
1070
     0
1070
   288
1070
     0
1002
}
  0
LINE
  5
5E
330
2
100
AcDbEntity
  8
GAIKEI
 62
     1
100
AcDbLine
 10
11.45444813476985
 20
16.43722505006997
 30
0.0
 11
11.49141813476984
 21
14.82899305006995
 31
0.0
  0
LINE
  5
5F
330
2
100
AcDbEntity
  8
GAIKEI
 62
     1
100
AcDbLine
 10
11.52582613476983
 20
16.44088905006995
 30
0.0
 11
11.49141813476984
 21
14.82899305006995
 31
0.0
  0
ARC
  5
60
330
2
100
AcDbEntity
  8
GAIKEI
 62
     1
100
AcDbCircle
 10
13.69209491366851
 20
23.47620861808883
 30
0.0
 40
0.0335657680508843
100
AcDbArc
 50
108.5471740930282
 51
110.7032799194087
  0
LINE
  5
61
330
2
100
AcDbEntity
  8
GAIKEI
 62
     1
100
AcDbLine
 10
13.67916159579526
 20
23.50646805682587
 30
0.0
 11
13.68022846162762
 21
23.50760683620399
 31
0.0
  0
LINE
  5
62
330
2
100
AcDbEntity
  8
GAIKEI
 62
     1
100
AcDbLine
 10
13.6781486895856
 20
23.50480153048116
 30
0.0
 11
13.67916159579526
 21
23.50646805682587
 31
0.0
  0
ARC
  5
63
330
2
100
AcDbEntity
  8
GAIKEI
 62
     1
100
AcDbCircle
 10
13.74336019840487
 20
23.47723739697949
 30
0.0
 40
0.0707977565900529
100
AcDbArc
 50
157.0867943670461
 51
170.4430128815121
  0
ARC
  5
64
330
2
100
AcDbEntity
  8
GAIKEI
 62
     1
100
AcDbCircle
 10
28.30613731893841
 20
22.47665269144426
 30
0.0
 40
14.67373403547013
100
AcDbArc
 50
176.9268117968561
 51
177.5840621701995
  0
ARC
  5
65
330
2
100
AcDbEntity
  8
GAIKEI
 62
     1
100
AcDbCircle
 10
15.75287828535029
 20
23.19062305891205
 30
0.0
 40
2.100631011545814
100
AcDbArc
 50
171.8342240284168
 51
178.0163721101416
  0
LINE
  5
66
330
2
100
AcDbEntity
  8
GAIKEI
 62
     1
100
AcDbLine
 10
13.6718241347699
 20
23.48483305007005
 30
0.0
 11
13.67134872454635
 21
23.50803105006997
 31
0.0
  0
ARC
  5
67
330
2
100
AcDbEntity
  8
GAIKEI
  6
Continuous
 62
     1
100
AcDbCircle
 10
-19.72315833049941
 20
16.80610946088001
 30
0.0
 40
0.5005921437740501
100
AcDbArc
 50
324.0280451616798
 51
325.4641749401803
  0
ARC
  5
68
330
2
100
AcDbEntity
  8
GAIKEI
  6
Continuous
 62
     1
100
AcDbCircle
 10
-19.46131032378326
 20
16.63058516092758
 30
0.0
 40
0.1854207183271758
100
AcDbArc
 50
324.2727965496872
 51
327.2263961530641
  0
ARC
  5
69
330
2
100
AcDbEntity
  8
GAIKEI
  6
Continuous
 62
     1
100
AcDbCircle
 10
-19.4797165041341
 20
16.64288180500659
 30
0.0
 40
0.2075537010013888
100
AcDbArc
 50
327.1227200865252
 51
328.8295795324523
  0
ARC
  5
6A
330
2
100
AcDbEntity
  8
GAIKEI
  6
Continuous
 62
     1
100
AcDbCircle
 10
-19.90639175991868
 20
16.87833020686184
 30
0.0
 40
0.694765622576342
100
AcDbArc
 50
330.4283237216487
 51
330.8238954532393
  0
ARC
  5
6B
330
2
100
AcDbEntity
  8
GAIKEI
  6
Continuous
 62
     1
100
AcDbCircle
 10
-19.52109881468021
 20
16.66360058982235
 30
0.0
 40
0.253677036886166
100
AcDbArc
 50
330.7464920094475
 51
331.941306560789
  0
ARC
  5
6C
330
2
100
AcDbEntity
  8
GAIKEI
  6
Continuous
 62
     1
100
AcDbCircle
 10
-19.47592422892973
 20
16.64198701756021
 30
0.0
 40
0.2036571131072708
100
AcDbArc
 50
331.3291714778374
 51
332.9097943753958
  0
ARC
  5
6D
330
2
100
AcDbEntity
  8
GAIKEI
  6
Continuous
 62
     1
100
AcDbCircle
 10
-19.5069803512132
 20
16.65758754633242
 30
0.0
 40
0.2384105911525643
100
AcDbArc
 50
332.9707710660449
 51
334.2851761301319
  0
ARC
  5
6E
330
2
100
AcDbEntity
  8
GAIKEI
  6
Continuous
 62
     1
100
AcDbCircle
 10
-19.5265759729067
 20
16.66608225216959
 30
0.0
 40
0.2597527303409709
100
AcDbArc
 50
334.4724377388423
 51
335.6551641226799
  0
ARC
  5
6F
330
2
100
AcDbEntity
  8
GAIKEI
  6
Continuous
 62
     1
100
AcDbCircle
 10
-19.51189692946377
 20
16.65934006857043
 30
0.0
 40
0.2435996372978843
100
AcDbArc
 50
335.6767019946625
 51
336.9399254639045
  0
ARC
  5
70
330
2
100
AcDbEntity
  8
GAIKEI
  6
Continuous
 62
     1
100
AcDbCircle
 10
-19.50587008524701
 20
16.657114055985
 30
0.0
 40
0.2371826556469941
100
AcDbArc
 50
336.8644235926611
 51
338.1617501873467
  0
ARC
  5
71
330
2
100
AcDbEntity
  8
GAIKEI
  6
Continuous
 62
     1
100
AcDbCircle
 10
-19.51057593198726
 20
16.65879405396669
 30
0.0
 40
0.2421758137957158
100
AcDbArc
 50
338.2069571385034
 51
339.4698774306079
  0
ARC
  5
72
330
2
100
AcDbEntity
  8
GAIKEI
  6
Continuous
 62
     1
100
AcDbCircle
 10
-19.51222858095036
 20
16.659383878743
 30
0.0
 40
0.243930352559068
100
AcDbArc
 50
339.4762709829473
 51
340.7228109485148
  0
ARC
  5
73
330
2
100
AcDbEntity
  8
GAIKEI
  6
Continuous
 62
     1
100
AcDbCircle
 10
-19.51121127307345
 20
16.65885508563832
 30
0.0
 40
0.2427955625171543
100
AcDbArc
 50
340.7613452772668
 51
342.0079199172155
  0
ARC
  5
74
330
2
100
AcDbEntity
  8
GAIKEI
  6
Continuous
 62
     1
100
AcDbCircle
 10
-19.51040784777785
 20
16.65868590074285
 30
0.0
 40
0.2419791823091205
100
AcDbArc
 50
341.987259737961
 51
343.2318609632895
  0
ARC
  5
75
330
2
100
AcDbEntity
  8
GAIKEI
  6
Continuous
 62
     1
100
AcDbCircle
 10
-19.51114748477528
 20
16.65873990174896
 30
0.0
 40
0.2427030031070387
100
AcDbArc
 50
343.2700293387175
 51
344.5036023885103
  0
ARC
  5
76
330
2
100
AcDbEntity
  8
GAIKEI
  6
Continuous
 62
     1
100
AcDbCircle
 10
-19.51110794219266
 20
16.65876413517705
 30
0.0
 40
0.2426713750099007
100
AcDbArc
 50
344.4955943467094
 51
345.7225380533151
  0
ARC
  5
77
330
2
100
AcDbEntity
  8
GAIKEI
  6
Continuous
 62
     1
100
AcDbCircle
 10
-19.51138673789427
 20
16.65866535523989
 30
0.0
 40
0.2429172542932347
100
AcDbArc
 50
345.7613343536768
 51
346.9797106599484
  0
ARC
  5
78
330
2
100
AcDbEntity
  8
GAIKEI
  6
Continuous
 62
     1
100
AcDbCircle
 10
-19.5110447278991
 20
16.65862995080329
 30
0.0
 40
0.2425760645097339
100
AcDbArc
 50
346.9696582712737
 51
348.1823719428486
  0
ARC
  5
79
330
2
100
AcDbEntity
  8
GAIKEI
  6
Continuous
 62
     1
100
AcDbCircle
 10
-19.51152919092305
 20
16.65855571609893
 30
0.0
 40
0.2430351167787228
100
AcDbArc
 50
348.2228923459767
 51
349.4258953172849
  0
ARC
  5
7A
330
2
100
AcDbEntity
  8
GAIKEI
  6
Continuous
 62
     1
100
AcDbCircle
 10
-19.51114644703654
 20
16.65855583592108
 30
0.0
 40
0.2426589046877641
100
AcDbArc
 50
349.4092835738106
 51
350.6056752516942
  0
ARC
  5
7B
330
2
100
AcDbEntity
  8
GAIKEI
  6
Continuous
 62
     1
100
AcDbCircle
 10
-19.51182443454559
 20
16.65847139662742
 30
0.0
 40
0.2433140936971729
100
AcDbArc
 50
350.6513522841991
 51
351.8369421888118
  0
ARC
  5
7C
330
2
100
AcDbEntity
  8
GAIKEI
  6
Continuous
 62
     1
100
AcDbCircle
 10
-19.51128303452759
 20
16.65844719720445
 30
0.0
 40
0.2427747488250243
100
AcDbArc
 50
351.8244529699477
 51
353.0044350047017
  0
ARC
  5
7D
330
2
100
AcDbEntity
  8
GAIKEI
  6
Continuous
 62
     1
100
AcDbCircle
 10
-19.51111228399372
 20
16.65827748560389
 30
0.0
 40
0.2425846447619834
100
AcDbArc
 50
353.0393087716733
 51
354.2114594817344
  0
ARC
  5
7E
330
2
100
AcDbEntity
  8
GAIKEI
  6
Continuous
 62
     1
100
AcDbCircle
 10
-19.51159288104952
 20
16.65834959888733
 30
0.0
 40
0.2430700654720037
100
AcDbArc
 50
354.2059734381787
 51
355.3676983742985
  0
ARC
  5
7F
330
2
100
AcDbEntity
  8
GAIKEI
  6
Continuous
 62
     1
100
AcDbCircle
 10
-19.51423559855413
 20
16.65836157911468
 30
0.0
 40
0.2457052007034184
100
AcDbArc
 50
355.4146829693946
 51
356.5549971044575
  0
ARC
  5
80
330
2
100
AcDbEntity
  8
GAIKEI
  6
Continuous
 62
     1
100
AcDbCircle
 10
-19.5108688751838
 20
16.65821576758367
 30
0.0
 40
0.242335805982092
100
AcDbArc
 50
356.5415773121566
 51
357.6887965625817
  0
ARC
  5
81
330
2
100
AcDbEntity
  8
GAIKEI
  6
Continuous
 62
     1
100
AcDbCircle
 10
-19.50302392257896
 20
16.65786248808007
 30
0.0
 40
0.2344829911182003
100
AcDbArc
 50
357.6977464398945
 51
358.8741028018656
  0
LINE
  5
82
330
2
100
AcDbEntity
  8
GAIKEI
  6
Continuous
 62
     1
100
AcDbLine
 10
-19.2685388024085
 20
16.65803105006995
 30
0.0
 11
-19.26858620240847
 21
16.65325505006996
 31
0.0
  0
ARC
  5
83
330
2
100
AcDbEntity
  8
GAIKEI
  6
Continuous
 62
     1
100
AcDbCircle
 10
-19.76480512386837
 20
16.65708566284218
 30
0.0
 40
0.4962672219402946
100
AcDbArc
 50
0.1091483147076318
 51
0.2329150244869555
  0
ARC
  5
84
330
2
100
AcDbEntity
  8
GAIKEI
  6
Continuous
 62
     1
100
AcDbCircle
 10
-19.45411130664496
 20
16.65865000100373
 30
0.0
 40
0.1855698572728709
100
AcDbArc
 50
0.1398816897024033
 51
0.3924469068662492
  0
ARC
  5
85
330
2
100
AcDbEntity
  8
GAIKEI
  6
Continuous
 62
     1
100
AcDbCircle
 10
-19.47589059155467
 20
16.65847218655059
 30
0.0
 40
0.2073498511973656
100
AcDbArc
 50
0.4003592952560585
 51
0.5473688320048849
  0
ARC
  5
86
330
2
100
AcDbEntity
  8
GAIKEI
  6
Continuous
 62
     1
100
AcDbCircle
 10
-19.91954439477291
 20
16.65279783156291
 30
0.0
 40
0.6510392007111307
100
AcDbArc
 50
0.6737256666454697
 51
0.7101630777477908
  0
ARC
  5
87
330
2
100
AcDbEntity
  8
GAIKEI
  6
Continuous
 62
     1
100
AcDbCircle
 10
-19.52037671789588
 20
16.65781246073803
 30
0.0
 40
0.2518400408560075
100
AcDbArc
 50
0.6949624363572089
 51
0.7996253170671056
  0
ARC
  5
88
330
2
100
AcDbEntity
  8
GAIKEI
  6
Continuous
 62
     1
100
AcDbCircle
 10
-19.47170819400446
 20
16.6587403606789
 30
0.0
 40
0.2031634592058766
100
AcDbArc
 50
0.7295130239699529
 51
0.8671512666365963
  0
ARC
  5
89
330
2
100
AcDbEntity
  8
GAIKEI
  6
Continuous
 62
     1
100
AcDbCircle
 10
-19.50519276698912
 20
16.6580938699098
 30
0.0
 40
0.2366540225617184
100
AcDbArc
 50
0.900963789008513
 51
1.016707533402404
  0
ARC
  5
8A
330
2
100
AcDbEntity
  8
GAIKEI
  6
Continuous
 62
     1
100
AcDbCircle
 10
-19.52599239737958
 20
16.65772984338372
 30
0.0
 40
0.2574568376547368
100
AcDbArc
 50
1.015572852996921
 51
1.120632449600887
  0
ARC
  5
8B
330
2
100
AcDbEntity
  8
GAIKEI
  6
Continuous
 62
     1
100
AcDbCircle
 10
-19.50992813805948
 20
16.65801235245553
 30
0.0
 40
0.2413901277968447
100
AcDbArc
 50
1.128161759105447
 51
1.240693319549614
  0
ARC
  5
8C
330
2
100
AcDbEntity
  8
GAIKEI
  6
Continuous
 62
     1
100
AcDbCircle
 10
-19.5040206727337
 20
16.65813557267546
 30
0.0
 40
0.235481379455574
100
AcDbArc
 50
1.241841761087457
 51
1.357688775367774
  0
ARC
  5
8D
330
2
100
AcDbEntity
  8
GAIKEI
  6
Continuous
 62
     1
100
AcDbCircle
 10
-19.50951282384966
 20
16.65800710874572
 30
0.0
 40
0.240975032523282
100
AcDbArc
 50
1.357283922240625
 51
1.470970932011281
  0
ARC
  5
8E
330
2
100
AcDbEntity
  8
GAIKEI
  6
Continuous
 62
     1
100
AcDbCircle
 10
-19.51041325737583
 20
16.65803073302692
 30
0.0
 40
0.241874567387941
100
AcDbArc
 50
1.459901179443035
 51
1.572696621265694
  0
ARC
  5
8F
330
2
100
AcDbEntity
  8
GAIKEI
  6
Continuous
 62
     1
100
AcDbCircle
 10
-19.50874372404797
 20
16.65804684659466
 30
0.0
 40
0.2402052225576424
100
AcDbArc
 50
1.579784094485548
 51
1.693369988689765
  0
ARC
  5
90
330
2
100
AcDbEntity
  8
GAIKEI
  6
Continuous
 62
     1
100
AcDbCircle
 10
-19.509030809769
 20
16.65804189616315
 30
0.0
 40
0.2404923292185117
100
AcDbArc
 50
1.692527730598774
 51
1.806461341343995
  0
ARC
  5
91
330
2
100
AcDbEntity
  8
GAIKEI
  6
Continuous
 62
     1
100
AcDbCircle
 10
-19.5082300020785
 20
16.65800978638299
 30
0.0
 40
0.2396929385899115
100
AcDbArc
 50
1.820167331482262
 51
1.934010644101092
  0
ARC
  5
92
330
2
100
AcDbEntity
  8
GAIKEI
  6
Continuous
 62
     1
100
AcDbCircle
 10
-19.50927315903584
 20
16.65808345122349
 30
0.0
 40
0.2407330398473412
100
AcDbArc
 50
1.908109031404739
 51
2.021942603743375
  0
ARC
  5
93
330
2
100
AcDbEntity
  8
GAIKEI
  6
Continuous
 62
     1
100
AcDbCircle
 10
-19.50893934543728
 20
16.65797037317128
 30
0.0
 40
0.2404034561170498
100
AcDbArc
 50
2.051682914474421
 51
2.165682713287756
  0
ARC
  5
94
330
2
100
AcDbEntity
  8
GAIKEI
  6
Continuous
 62
     1
100
AcDbCircle
 10
-19.50977014604285
 20
16.65805467189779
 30
0.0
 40
0.2412305054314605
100
AcDbArc
 50
2.138217970817904
 51
2.25230875530661
  0
ARC
  5
95
330
2
100
AcDbEntity
  8
GAIKEI
  6
Continuous
 62
     1
100
AcDbCircle
 10
-19.50859438514345
 20
16.65803919976619
 30
0.0
 40
0.2400562688389499
100
AcDbArc
 50
2.267027377857344
 51
2.381208666736858
  0
ARC
  5
96
330
2
100
AcDbEntity
  8
GAIKEI
  6
Continuous
 62
     1
100
AcDbCircle
 10
-19.50948108938678
 20
16.65802221687352
 30
0.0
 40
0.240942913846593
100
AcDbArc
 50
2.376483015382839
 51
2.490729185987119
  0
ARC
  5
97
330
2
100
AcDbEntity
  8
GAIKEI
  6
Continuous
 62
     1
100
AcDbCircle
 10
-19.50824954583805
 20
16.65801087197496
 30
0.0
 40
0.239713035575158
100
AcDbArc
 50
2.50623053817739
 51
2.620595700626638
  0
ARC
  5
98
330
2
100
AcDbEntity
  8
GAIKEI
  6
Continuous
 62
     1
100
AcDbCircle
 10
-19.5091429485916
 20
16.65799497124868
 30
0.0
 40
0.2406062323164765
100
AcDbArc
 50
2.61465096905785
 51
2.729078217198077
  0
ARC
  5
99
330
2
100
AcDbEntity
  8
GAIKEI
  6
Continuous
 62
     1
100
AcDbCircle
 10
-19.50899599360053
 20
16.65798253387402
 30
0.0
 40
0.2404600369657896
100
AcDbArc
 50
2.733705601080417
 51
2.848213773759887
  0
ARC
  5
9A
330
2
100
AcDbEntity
  8
GAIKEI
  6
Continuous
 62
     1
100
AcDbCircle
 10
-19.50980716290479
 20
16.65807395491646
 30
0.0
 40
0.2412656973802699
100
AcDbArc
 50
2.816957769168614
 51
2.931567332433957
  0
ARC
  5
9B
330
2
100
AcDbEntity
  8
GAIKEI
  6
Continuous
 62
     1
100
AcDbCircle
 10
-19.50839596381041
 20
16.65797812932084
 30
0.0
 40
0.2398613046491735
100
AcDbArc
 50
2.97166733198266
 51
3.086485589343156
  0
ARC
  5
9C
330
2
100
AcDbEntity
  8
GAIKEI
  6
Continuous
 62
     1
100
AcDbCircle
 10
-19.50955232125233
 20
16.65805271518633
 30
0.0
 40
0.2410120075189401
100
AcDbArc
 50
3.053978448452662
 51
3.168733474206598
  0
ARC
  5
9D
330
2
100
AcDbEntity
  8
GAIKEI
  6
Continuous
 62
     1
100
AcDbCircle
 10
-19.50919346819404
 20
16.65789958243951
 30
0.0
 40
0.2406622297734594
100
AcDbArc
 50
3.209857403485095
 51
3.324319693715369
  0
LINE
  5
9E
330
2
100
AcDbEntity
  8
GAIKEI
  6
Continuous
 62
     1
100
AcDbLine
 10
-19.26896440240847
 20
16.67233705006995
 30
0.0
 11
-19.2689362024085
 21
16.67185505006995
 31
0.0
  0
ARC
  5
9F
330
2
100
AcDbEntity
  8
GAIKEI
  6
Continuous
 62
     1
100
AcDbCircle
 10
-14.48911343312744
 20
14.81046254459971
 30
0.0
 40
5.119457906108956
100
AcDbArc
 50
162.5766382663945
 51
179.7926104494738
  0
SPLINE
  5
A0
330
2
100
AcDbEntity
  8
GAIKEI
  6
Continuous
 62
     1
100
AcDbSpline
210
0.0
220
0.0
230
1.0
 70
     8
 71
     3
 72
    16
 73
    12
 74
     0
 42
0.0000000001
 43
0.0000000001
 40
0.7455700300000001
 40
0.7455700300000001
 40
0.7455700300000001
 40
0.7455700300000001
 40
0.8198415199999999
 40
0.8198415199999999
 40
0.8261874999999999
 40
0.8261874999999999
 40
0.8290443299999999
 40
0.8290443299999999
 40
0.8858412599999999
 40
0.8858412599999999
 40
1.0
 40
1.0
 40
1.0
 40
1.0
 10
-19.34288436598804
 20
16.43708501312349
 30
0.0
 10
-19.34361596598803
 20
16.43492301312349
 30
0.0
 10
-19.34762300240845
 20
16.42286905006997
 30
0.0
 10
-19.35283020240848
 20
16.40622305006997
 30
0.0
 10
-19.3592632024085
 20
16.38538505006997
 30
0.0
 10
-19.36577080240846
 20
16.36597905006999
 30
0.0
 10
-19.3657338024085
 20
16.36616905006997
 30
0.0
 10
-19.37075440240846
 20
16.35164705006997
 30
0.0
 10
-19.37164560240848
 20
16.34937705006999
 30
0.0
 10
-19.37312820240845
 20
16.34510305006998
 30
0.0
 10
-19.37368600240847
 20
16.34336705006998
 30
0.0
 10
-19.37368200240848
 20
16.34338105006998
 30
0.0
  0
LINE
  5
A1
330
2
100
AcDbEntity
  8
GAIKEI
  6
Continuous
 62
     1
100
AcDbLine
 10
-19.27312140240849
 20
16.65803105006995
 30
0.0
 11
-19.2685378024085
 21
16.65803105006995
 31
0.0
  0
ARC
  5
A2
330
2
100
AcDbEntity
  8
GAIKEI
  6
Continuous
 62
     1
100
AcDbCircle
 10
-24.40853780240849
 20
18.15803105006995
 30
0.0
 40
5.35
100
AcDbArc
 50
341.2374700000001
 51
341.24565
  0
SPLINE
  5
A3
330
2
100
AcDbEntity
  8
GAIKEI
  6
Continuous
 62
     1
100
AcDbSpline
210
0.0
220
0.0
230
1.0
 70
     8
 71
     3
 72
     8
 73
     4
 74
     0
 42
0.0000000001
 43
0.0000000001
 40
4.6962859
 40
4.6962859
 40
4.6962859
 40
4.6962859
 40
5.7439809
 40
5.7439809
 40
5.7439809
 40
5.7439809
 10
-19.88903040240848
 20
15.31455905006999
 30
0.0
 10
-19.90383900240846
 20
15.15340905006997
 30
0.0
 10
-19.91125920240847
 20
14.99157105006998
 30
0.0
 10
-19.91126020240847
 20
14.82974305006999
 30
0.0
  0
LINE
  5
A4
330
2
100
AcDbEntity
  8
GAIKEI
  6
Continuous
 62
     1
100
AcDbLine
 10
28.81755013476982
 20
12.35803105006997
 30
0.0
 11
28.62338413476982
 21
12.35803105006997
 31
0.0
  0
LINE
  5
A5
330
2
100
AcDbEntity
  8
GAIKEI
  6
Continuous
 62
     1
100
AcDbLine
 10
28.62337813476984
 20
12.35803105006997
 30
0.0
 11
28.62216613476983
 21
12.35803105006997
 31
0.0
  0
LINE
  5
A6
330
2
100
AcDbEntity
  8
GAIKEI
  6
Continuous
 62
     1
100
AcDbLine
 10
28.62216613476983
 20
12.35803105006997
 30
0.0
 11
28.00456613476985
 21
12.35803105006997
 31
0.0
  0
LINE
  5
A7
330
2
100
AcDbEntity
  8
GAIKEI
  6
Continuous
 62
     1
100
AcDbLine
 10
28.00456613476985
 20
12.35803105006997
 30
0.0
 11
27.91818613476983
 21
12.35803105006997
 31
0.0
  0
LINE
  5
A8
330
2
100
AcDbEntity
  8
GAIKEI
  6
Continuous
 62
     1
100
AcDbLine
 10
27.91818613476983
 20
12.35803105006997
 30
0.0
 11
26.03957613476985
 21
12.35803105006997
 31
0.0
  0
LINE
  5
A9
330
2
100
AcDbEntity
  8
GAIKEI
  6
Continuous
 62
     1
100
AcDbLine
 10
26.03957613476985
 20
12.35803105006997
 30
0.0
 11
23.89474613476983
 21
12.35803105006997
 31
0.0
  0
LINE
  5
AA
330
2
100
AcDbEntity
  8
GAIKEI
  6
Continuous
 62
     1
100
AcDbLine
 10
23.89474613476983
 20
12.35803105006997
 30
0.0
 11
9.691418134769833
 21
12.35803105006997
 31
0.0
  0
LINE
  5
AB
330
2
100
AcDbEntity
  8
GAIKEI
  6
Continuous
 62
     1
100
AcDbLine
 10
9.691418134769833
 20
12.35803105006997
 30
0.0
 11
9.691418134769833
 21
13.15803105006995
 31
0.0
  0
LINE
  5
AC
330
2
100
AcDbEntity
  8
GAIKEI
  6
Continuous
 62
     1
100
AcDbLine
 10
9.691418134769833
 20
14.82899305006995
 30
0.0
 11
9.691418134769833
 21
13.15803105006995
 31
0.0
  0
LINE
  5
AD
330
2
100
AcDbEntity
  8
GAIKEI
  6
Continuous
 62
     1
100
AcDbLine
 10
9.691418134769833
 20
14.82899305006995
 30
0.0
 11
9.691418134769833
 21
16.43722305006997
 31
0.0
  0
LINE
  5
AE
330
2
100
AcDbEntity
  8
GAIKEI
  6
Continuous
 62
     1
100
AcDbLine
 10
9.691418134769833
 20
22.77149905006996
 30
0.0
 11
9.691418134769833
 21
16.43722305006997
 31
0.0
  0
LINE
  5
AF
330
2
100
AcDbEntity
  8
GAIKEI
  6
Continuous
 62
     1
100
AcDbLine
 10
30.38141813476983
 20
20.89432505006997
 30
0.0
 11
30.38141813476983
 21
17.82173905006996
 31
0.0
  0
SPLINE
  5
B0
330
2
100
AcDbEntity
  8
GAIKEI
  6
Continuous
 62
     1
100
AcDbSpline
210
0.0
220
0.0
230
1.0
 70
     8
 71
     3
 72
     8
 73
     4
 74
     0
 42
0.0000000001
 43
0.0000000001
 40
2.0
 40
2.0
 40
2.0
 40
2.0
 40
3.704819
 40
3.704819
 40
3.704819
 40
3.704819
 10
26.0313081347698
 20
13.15951505006998
 30
0.0
 10
25.31915613476986
 20
13.15905705006997
 30
0.0
 10
24.60695813476986
 20
13.15856505006997
 30
0.0
 10
23.89474613476983
 20
13.15803105006998
 30
0.0
  0
LINE
  5
B1
330
2
100
AcDbEntity
  8
GAIKEI
  6
Continuous
 62
     1
100
AcDbLine
 10
9.691418134769833
 20
13.15803105006995
 30
0.0
 11
23.89474613476983
 21
13.15803105006995
 31
0.0
  0
SPLINE
  5
B2
330
2
100
AcDbEntity
  8
GAIKEI
  6
Continuous
 62
     1
100
AcDbSpline
210
0.0
220
0.0
230
1.0
 70
    11
 71
     3
 72
    26
 73
    22
 74
     0
 42
0.0000000001
 43
0.0000000001
 40
2.0
 40
2.0
 40
2.0
 40
2.0
 40
5.9198987
 40
7.876669500000001
 40
10.792305
 40
15.071103
 40
19.266778
 40
27.152702
 40
31.836936
 40
35.722828
 40
37.603701
 40
40.420321
 40
44.385826
 40
47.85686199999999
 40
52.40529699999999
 40
56.95335299999999
 40
58.477024
 40
59.239452
 40
60.76536899999999
 40
65.35969099999999
 40
69.201582
 40
69.201582
 40
69.201582
 40
69.201582
 10
10.48142013476985
 20
20.09711305006999
 30
0.0
 10
10.42648213476985
 20
20.09711505006999
 30
0.0
 10
10.34413213476983
 20
20.11345705007
 30
0.0
 10
10.23630013476986
 20
20.17031305006998
 30
0.0
 10
10.14211213476983
 20
20.25297105006999
 30
0.0
 10
10.06795213476982
 20
20.38618705006996
 30
0.0
 10
10.04146613476985
 20
20.59543505006997
 30
0.0
 10
10.12686013476985
 20
20.79963705006997
 30
0.0
 10
10.31162613476982
 20
20.92752305006996
 30
0.0
 10
10.45849213476981
 20
20.95482705006998
 30
0.0
 10
10.57863413476985
 20
20.94192505006998
 30
0.0
 10
10.69235013476987
 20
20.90189105006999
 30
0.0
 10
10.80057213476982
 20
20.81674705006998
 30
0.0
 10
10.88342013476983
 20
20.68696105006998
 30
0.0
 10
10.91790213476986
 20
20.53044905006999
 30
0.0
 10
10.89272213476982
 20
20.39458305007
 30
0.0
 10
10.85274813476985
 20
20.31439505006998
 30
0.0
 10
10.82561813476985
 20
20.27203105006998
 30
0.0
 10
10.76831013476982
 20
20.20011905006999
 30
0.0
 10
10.65353013476982
 20
20.12008105006998
 30
0.0
 10
10.53526013476983
 20
20.09711505006999
 30
0.0
 10
10.48142013476985
 20
20.09711305006999
 30
0.0
  0
SPLINE
  5
B3
330
2
100
AcDbEntity
  8
GAIKEI
  6
Continuous
 62
     1
100
AcDbSpline
210
0.0
220
0.0
230
1.0
 70
     8
 71
     3
 72
     8
 73
     4
 74
     0
 42
0.0000000001
 43
0.0000000001
 40
2.0
 40
2.0
 40
2.0
 40
2.0
 40
5.194733
 40
5.194733
 40
5.194733
 40
5.194733
 10
25.48119013476986
 20
19.65802105006997
 30
0.0
 10
25.48118813476981
 20
19.72468505006998
 30
0.0
 10
25.48118813476981
 20
19.79135105006998
 30
0.0
 10
25.48118413476982
 20
19.85801905006997
 30
0.0
  0
SPLINE
  5
B4
330
2
100
AcDbEntity
  8
GAIKEI
  6
Continuous
 62
     1
100
AcDbSpline
210
0.0
220
0.0
230
1.0
 70
     8
 71
     3
 72
    10
 73
     6
 74
     0
 42
0.0000000001
 43
0.0000000001
 40
2.0
 40
2.0
 40
2.0
 40
2.0
 40
3.633383
 40
4.478959299999999
 40
5.4993709
 40
5.4993709
 40
5.4993709
 40
5.4993709
 10
25.48118413476982
 20
19.85801905006997
 30
0.0
 10
25.48118613476982
 20
19.89221905006997
 30
0.0
 10
25.46135013476988
 20
19.94393505006996
 30
0.0
 10
25.40154213476984
 20
19.98886505006999
 30
0.0
 10
25.36257613476982
 20
19.99801705006999
 30
0.0
 10
25.34121413476987
 20
19.99801905006998
 30
0.0
  0
SPLINE
  5
B5
330
2
100
AcDbEntity
  8
GAIKEI
  6
Continuous
 62
     1
100
AcDbSpline
210
0.0
220
0.0
230
1.0
 70
     8
 71
     3
 72
     8
 73
     4
 74
     0
 42
0.0000000001
 43
0.0000000001
 40
2.0
 40
2.0
 40
2.0
 40
2.0
 40
18.384452
 40
18.384452
 40
18.384452
 40
18.384452
 10
25.34121413476987
 20
19.99801905006998
 30
0.0
 10
24.99813013476984
 20
19.99802105006998
 30
0.0
 10
24.65504413476987
 20
19.99802705006999
 30
0.0
 10
24.31195813476984
 20
19.99803105006998
 30
0.0
  0
LINE
  5
B6
330
2
100
AcDbEntity
  8
GAIKEI
  6
Continuous
 62
     1
100
AcDbLine
 10
22.34141813476981
 20
19.99803105006995
 30
0.0
 11
24.31195813476984
 21
19.99803105006995
 31
0.0
  0
ARC
  5
B7
330
2
100
AcDbEntity
  8
GAIKEI
  6
Continuous
 62
     1
100
AcDbCircle
 10
22.34141813476981
 20
19.85803105006997
 30
0.0
 40
0.14
100
AcDbArc
 50
90.0
 51
180.0
  0
LINE
  5
B8
330
2
100
AcDbEntity
  8
GAIKEI
  6
Continuous
 62
     1
100
AcDbLine
 10
22.20141813476983
 20
19.65803105006995
 30
0.0
 11
22.20141813476983
 21
19.85803105006997
 31
0.0
  0
SPLINE
  5
B9
330
2
100
AcDbEntity
  8
GAIKEI
  6
Continuous
 62
     1
100
AcDbSpline
210
0.0
220
0.0
230
1.0
 70
     8
 71
     3
 72
     8
 73
     4
 74
     0
 42
0.0000000001
 43
0.0000000001
 40
2.0
 40
2.0
 40
2.0
 40
2.0
 40
5.194451499999999
 40
5.194451499999999
 40
5.194451499999999
 40
5.194451499999999
 10
25.48119613476985
 20
18.97802305006999
 30
0.0
 10
25.48119413476985
 20
19.04469105006998
 30
0.0
 10
25.48119413476985
 20
19.11135705006998
 30
0.0
 10
25.48119013476986
 20
19.17802105006998
 30
0.0
  0
SPLINE
  5
BA
330
2
100
AcDbEntity
  8
GAIKEI
  6
Continuous
 62
     1
100
AcDbSpline
210
0.0
220
0.0
230
1.0
 70
     8
 71
     3
 72
    10
 73
     6
 74
     0
 42
0.0000000001
 43
0.0000000001
 40
2.0
 40
2.0
 40
2.0
 40
2.0
 40
3.637667199999999
 40
4.481905799999999
 40
5.499065799999999
 40
5.499065799999999
 40
5.499065799999999
 40
5.499065799999999
 10
25.48119013476986
 20
19.17802105006998
 30
0.0
 10
25.48119413476985
 20
19.21231705007
 30
0.0
 10
25.46127413476984
 20
19.26409705006998
 30
0.0
 10
25.40139013476983
 20
19.30892105006998
 30
0.0
 10
25.36251613476987
 20
19.31802305006999
 30
0.0
 10
25.34122013476986
 20
19.31802105006997
 30
0.0
  0
SPLINE
  5
BB
330
2
100
AcDbEntity
  8
GAIKEI
  6
Continuous
 62
     1
100
AcDbSpline
210
0.0
220
0.0
230
1.0
 70
    24
 71
     3
 72
     8
 73
     4
 74
     0
 42
0.0000000001
 43
0.0000000001
 40
2.0
 40
2.0
 40
2.0
 40
2.0
 40
17.764936
 40
17.764936
 40
17.764936
 40
17.764936
 10
25.34122013476986
 20
19.31802105006997
 30
0.0
 10
25.01111013476986
 20
19.31802505006999
 30
0.0
 10
24.68099613476983
 20
19.31802905006998
 30
0.0
 10
24.35088213476985
 20
19.31803305006997
 30
0.0
  0
LINE
  5
BC
330
2
100
AcDbEntity
  8
GAIKEI
  6
Continuous
 62
     1
100
AcDbLine
 10
22.34141813476981
 20
19.31803105006995
 30
0.0
 11
24.35088213476985
 21
19.31803105006995
 31
0.0
  0
ARC
  5
BD
330
2
100
AcDbEntity
  8
GAIKEI
  6
Continuous
 62
     1
100
AcDbCircle
 10
22.34141813476981
 20
19.17803105006996
 30
0.0
 40
0.14
100
AcDbArc
 50
90.0
 51
180.0
  0
LINE
  5
BE
330
2
100
AcDbEntity
  8
GAIKEI
  6
Continuous
 62
     1
100
AcDbLine
 10
22.20141813476983
 20
18.97803105006997
 30
0.0
 11
22.20141813476983
 21
19.17803105006996
 31
0.0
  0
SPLINE
  5
BF
330
2
100
AcDbEntity
  8
GAIKEI
  6
Continuous
 62
     1
100
AcDbSpline
210
0.0
220
0.0
230
1.0
 70
     8
 71
     3
 72
     8
 73
     4
 74
     0
 42
0.0000000001
 43
0.0000000001
 40
2.0
 40
2.0
 40
2.0
 40
2.0
 40
5.194335099999999
 40
5.194335099999999
 40
5.194335099999999
 40
5.194335099999999
 10
25.48119613476985
 20
18.29803105006999
 30
0.0
 10
25.48119813476984
 20
18.36469705006999
 30
0.0
 10
25.48119613476985
 20
18.43136305006999
 30
0.0
 10
25.48119613476985
 20
18.49802905006999
 30
0.0
  0
SPLINE
  5
C0
330
2
100
AcDbEntity
  8
GAIKEI
  6
Continuous
 62
     1
100
AcDbSpline
210
0.0
220
0.0
230
1.0
 70
     8
 71
     3
 72
    10
 73
     6
 74
     0
 42
0.0000000001
 43
0.0000000001
 40
2.0
 40
2.0
 40
2.0
 40
2.0
 40
3.6479828
 40
4.489168599999999
 40
5.498782199999999
 40
5.498782199999999
 40
5.498782199999999
 40
5.498782199999999
 10
25.48119613476985
 20
18.49802905006999
 30
0.0
 10
25.48119613476985
 20
18.53254105006999
 30
0.0
 10
25.46108213476987
 20
18.58447305006999
 30
0.0
 10
25.40101613476986
 20
18.62904505006997
 30
0.0
 10
25.36236413476985
 20
18.63802705006998
 30
0.0
 10
25.34122613476984
 20
18.63803105006997
 30
0.0
  0
SPLINE
  5
C1
330
2
100
AcDbEntity
  8
GAIKEI
  6
Continuous
 62
     1
100
AcDbSpline
210
0.0
220
0.0
230
1.0
 70
     8
 71
     3
 72
     8
 73
     4
 74
     0
 42
0.0000000001
 43
0.0000000001
 40
2.0
 40
2.0
 40
2.0
 40
2.0
 40
17.42706
 40
17.42706
 40
17.42706
 40
17.42706
 10
25.34122613476984
 20
18.63803105006997
 30
0.0
 10
25.01819013476984
 20
18.63802905006997
 30
0.0
 10
24.69515013476985
 20
18.63803105006997
 30
0.0
 10
24.37211013476986
 20
18.63803105006997
 30
0.0
  0
LINE
  5
C2
330
2
100
AcDbEntity
  8
GAIKEI
  6
Continuous
 62
     1
100
AcDbLine
 10
22.34141813476981
 20
18.63803105006997
 30
0.0
 11
24.37211213476985
 21
18.63803105006997
 31
0.0
  0
ARC
  5
C3
330
2
100
AcDbEntity
  8
GAIKEI
  6
Continuous
 62
     1
100
AcDbCircle
 10
22.34141813476981
 20
18.49803105006995
 30
0.0
 40
0.14
100
AcDbArc
 50
90.0
 51
180.0
  0
LINE
  5
C4
330
2
100
AcDbEntity
  8
GAIKEI
  6
Continuous
 62
     1
100
AcDbLine
 10
22.20141813476983
 20
18.29803105006996
 30
0.0
 11
22.20141813476983
 21
18.49803105006995
 31
0.0
  0
LINE
  5
C5
330
2
100
AcDbEntity
  8
GAIKEI
  6
Continuous
 62
     1
100
AcDbLine
 10
13.68141813476984
 20
23.50803105006997
 30
0.0
 11
25.29159813476986
 21
23.50803105006997
 31
0.0
  0
ARC
  5
C6
330
2
100
AcDbEntity
  8
GAIKEI
  6
Continuous
 62
     1
100
AcDbCircle
 10
25.29159813476986
 20
-176.49196894993
 30
0.0
 40
200.0
100
AcDbArc
 50
89.16957199999959
 51
90.0
  0
LINE
  5
C7
330
2
100
AcDbEntity
  8
GAIKEI
  6
Continuous
 62
     1
100
AcDbLine
 10
28.19023813476986
 20
23.48702505006995
 30
0.0
 11
28.38536213476982
 21
23.48419705006995
 31
0.0
  0
ARC
  5
C8
330
2
100
AcDbEntity
  8
GAIKEI
  6
Continuous
 62
     1
100
AcDbCircle
 10
28.36217213476982
 20
21.88436505006996
 30
0.0
 40
1.6
100
AcDbArc
 50
7.040837999999792
 51
89.16957199999959
  0
ARC
  5
C9
330
2
100
AcDbEntity
  8
GAIKEI
  6
Continuous
 62
     1
100
AcDbCircle
 10
-1.808581665230178
 20
18.15803105006995
 30
0.0
 40
32.0
100
AcDbArc
 50
5.497952200000111
 51
7.040837999999792
  0
ARC
  5
CA
330
2
100
AcDbEntity
  8
GAIKEI
  6
Continuous
 62
     1
100
AcDbCircle
 10
30.24328613476985
 20
21.24311905006996
 30
0.0
 40
0.2
100
AcDbArc
 50
185.4979500000003
 51
245.0000000000001
  0
LINE
  5
CB
330
2
100
AcDbEntity
  8
GAIKEI
  6
Continuous
 62
     1
100
AcDbLine
 10
30.15876213476986
 20
21.06185705006996
 30
0.0
 11
30.32368013476986
 21
20.98495505006997
 31
0.0
  0
ARC
  5
CC
330
2
100
AcDbEntity
  8
GAIKEI
  6
Continuous
 62
     1
100
AcDbCircle
 10
30.28141813476987
 20
20.89432505006997
 30
0.0
 40
0.1
100
AcDbArc
 50
0.0
 51
65.00000000000013
  0
SPLINE
  5
CD
330
2
100
AcDbEntity
  8
GAIKEI
  6
Continuous
 62
     1
100
AcDbSpline
210
0.0
220
0.0
230
1.0
 70
     8
 71
     3
 72
    12
 73
     8
 74
     0
 42
0.0000000001
 43
0.0000000001
 40
0.0
 40
0.0
 40
0.0
 40
0.0
 40
0.32283715
 40
0.32283715
 40
0.58542516
 40
0.58542516
 40
1.0
 40
1.0
 40
1.0
 40
1.0
 10
13.64544613476982
 20
23.09520305006998
 30
0.0
 10
13.64375213476984
 20
23.05467505006999
 30
0.0
 10
13.61853613476984
 20
23.01139505006998
 30
0.0
 10
13.53398013476982
 20
22.93629305006999
 30
0.0
 10
13.48203413476983
 20
22.90407505006999
 30
0.0
 10
13.31704613476984
 20
22.83427705006997
 30
0.0
 10
13.19083413476983
 20
22.80682505006999
 30
0.0
 10
13.05601213476984
 20
22.80548505006999
 30
0.0
  0
ARC
  5
CE
330
2
100
AcDbEntity
  8
GAIKEI
  6
Continuous
 62
     1
100
AcDbCircle
 10
30.28141813476987
 20
17.82173905006996
 30
0.0
 40
0.1
100
AcDbArc
 50
294.9999999999999
 51
0.0
  0
ARC
  5
CF
330
2
100
AcDbEntity
  8
GAIKEI
  6
Continuous
 62
     1
100
AcDbCircle
 10
30.38547213476983
 20
17.53924705006994
 30
0.0
 40
0.2
100
AcDbArc
 50
114.9999999999999
 51
178.89888
  0
ARC
  5
D0
330
2
100
AcDbEntity
  8
GAIKEI
  6
Continuous
 62
     1
100
AcDbCircle
 10
28.81755013476982
 20
13.35803105006997
 30
0.0
 40
1.0
100
AcDbArc
 50
270.0
 51
351.0925599999997
  0
LINE
  5
D1
330
2
100
AcDbEntity
  8
GAIKEI
  6
Continuous
 62
     1
100
AcDbLine
 10
29.80549013476986
 20
13.20319305006995
 30
0.0
 11
29.60506013476982
 21
13.20319305006995
 31
0.0
  0
SPLINE
  5
D2
330
2
100
AcDbEntity
  8
GAIKEI
  6
Continuous
 62
     1
100
AcDbSpline
210
0.0
220
0.0
230
1.0
 70
     8
 71
     3
 72
    11
 73
     7
 74
     0
 42
0.0000000001
 43
0.0000000001
 40
0.0
 40
0.0
 40
0.0
 40
0.0
 40
0.30380917
 40
0.50009222
 40
0.69635405
 40
1.0
 40
1.0
 40
1.0
 40
1.0
 10
28.00456613476985
 20
12.35803305006999
 30
0.0
 10
28.00552013476983
 20
12.35803105006999
 30
0.0
 10
28.00705613476987
 20
12.40924105006996
 30
0.0
 10
28.00883013476982
 20
12.58333305006999
 30
0.0
 10
28.01012013476987
 20
12.82275105007
 30
0.0
 10
28.01050413476986
 20
13.03044705006999
 30
0.0
 10
28.01050813476985
 20
13.15952105006999
 30
0.0
  0
SPLINE
  5
D3
330
2
100
AcDbEntity
  8
GAIKEI
  6
Continuous
 62
     1
100
AcDbSpline
210
0.0
220
0.0
230
1.0
 70
     8
 71
     3
 72
    33
 73
    29
 74
     0
 42
0.0000000001
 43
0.0000000001
 40
2.0
 40
2.0
 40
2.0
 40
2.0
 40
2.032951399999999
 40
2.0661627
 40
2.099601799999999
 40
2.133227199999999
 40
2.1669937
 40
2.2008516
 40
2.234749799999999
 40
2.268635499999999
 40
2.418962399999999
 40
2.5372034
 40
2.672175399999999
 40
2.7954205
 40
2.8192526
 40
2.8310537
 40
2.852941799999999
 40
2.873101899999999
 40
2.888083399999999
 40
2.902953399999999
 40
2.9128087
 40
2.9275117
 40
2.937265
 40
2.9518306
 40
2.961504
 40
2.975969399999999
 40
2.985590099999999
 40
3.0
 40
3.0
 40
3.0
 40
3.0
 10
28.01050813476985
 20
13.15952105006999
 30
0.0
 10
28.03313413476985
 20
13.15848705006999
 30
0.0
 10
28.07850213476985
 20
13.15669305006997
 30
0.0
 10
28.14651813476985
 20
13.15476305006999
 30
0.0
 10
28.21464413476986
 20
13.15352305006999
 30
0.0
 10
28.28273413476984
 20
13.15291505006996
 30
0.0
 10
28.35062813476986
 20
13.15287505006998
 30
0.0
 10
28.41818613476983
 20
13.15336705006999
 30
0.0
 10
28.48522013476986
 20
13.15430705006997
 30
0.0
 10
28.62774213476985
 20
13.15728505006999
 30
0.0
 10
28.81998213476982
 20
13.16433305006998
 30
0.0
 10
29.06016013476983
 20
13.17714705006997
 30
0.0
 10
29.26568013476981
 20
13.18931105006999
 30
0.0
 10
29.39643213476984
 20
13.19688505006996
 30
0.0
 10
29.45828413476983
 20
13.20021905006999
 30
0.0
 10
29.47954413476987
 20
13.20130305006998
 30
0.0
 10
29.49841613476986
 20
13.20222905006997
 30
0.0
 10
29.51693413476983
 20
13.20304705006998
 30
0.0
 10
29.53203013476985
 20
13.20363705006997
 30
0.0
 10
29.54321213476982
 20
13.20400705006997
 30
0.0
 10
29.55362613476984
 20
13.20429305006999
 30
0.0
 10
29.56207613476983
 20
13.20446305006999
 30
0.0
 10
29.57097013476982
 20
13.20456105006997
 30
0.0
 10
29.57808413476982
 20
13.20456305006999
 30
0.0
 10
29.58544213476983
 20
13.20446105006999
 30
0.0
 10
29.59120413476984
 20
13.20427505006998
 30
0.0
 10
29.59701213476984
 20
13.20395905006998
 30
0.0
 10
29.60015413476987
 20
13.20367105006997
 30
0.0
 10
29.60187213476985
 20
13.20350905006998
 30
0.0
  0
SPLINE
  5
D4
330
2
100
AcDbEntity
  8
GAIKEI
  6
Continuous
 62
     1
100
AcDbSpline
210
0.0
220
0.0
230
1.0
 70
     8
 71
     3
 72
    11
 73
     7
 74
     0
 42
0.0000000001
 43
0.0000000001
 40
0.0
 40
0.0
 40
0.0
 40
0.0
 40
0.25
 40
0.5
 40
0.75
 40
1.0
 40
1.0
 40
1.0
 40
1.0
 10
28.00456613476985
 20
12.35803305006999
 30
0.0
 10
28.00366413476985
 20
12.35803105006999
 30
0.0
 10
28.00185813476981
 20
12.40008105006998
 30
0.0
 10
27.99959213476984
 20
12.57882905006997
 30
0.0
 10
27.99813013476984
 20
12.84683905006997
 30
0.0
 10
27.99784013476983
 20
13.05781105006997
 30
0.0
 10
27.99788013476984
 20
13.16307105006998
 30
0.0
  0
SPLINE
  5
D5
330
2
100
AcDbEntity
  8
GAIKEI
  6
Continuous
 62
     1
100
AcDbSpline
210
0.0
220
0.0
230
1.0
 70
     8
 71
     3
 72
     8
 73
     4
 74
     0
 42
0.0000000001
 43
0.0000000001
 40
0.0
 40
0.0
 40
0.0
 40
0.0
 40
1.0
 40
1.0
 40
1.0
 40
1.0
 10
27.99788013476984
 20
13.16307105006998
 30
0.0
 10
28.00209013476985
 20
13.16188705006999
 30
0.0
 10
28.00629813476985
 20
13.16070705006999
 30
0.0
 10
28.01050813476985
 20
13.15952105006999
 30
0.0
  0
SPLINE
  5
D6
330
2
100
AcDbEntity
  8
GAIKEI
  6
Continuous
 62
     1
100
AcDbSpline
210
0.0
220
0.0
230
1.0
 70
     8
 71
     3
 72
    11
 73
     7
 74
     0
 42
0.0000000001
 43
0.0000000001
 40
0.0
 40
0.0
 40
0.0
 40
0.0
 40
0.30273444
 40
0.49924592
 40
0.69604592
 40
1.0
 40
1.0
 40
1.0
 40
1.0
 10
28.00456613476985
 20
12.35803305006999
 30
0.0
 10
27.99243213476984
 20
12.35803105006999
 30
0.0
 10
27.97287613476982
 20
12.41099305006997
 30
0.0
 10
27.95043613476986
 20
12.59076505006999
 30
0.0
 10
27.93431813476985
 20
12.83775705006997
 30
0.0
 10
27.92988413476985
 20
13.05071305006999
 30
0.0
 10
27.93020813476983
 20
13.18213705006997
 30
0.0
  0
SPLINE
  5
D7
330
2
100
AcDbEntity
  8
GAIKEI
  6
Continuous
 62
     1
100
AcDbSpline
210
0.0
220
0.0
230
1.0
 70
     8
 71
     3
 72
     8
 73
     4
 74
     0
 42
0.0000000001
 43
0.0000000001
 40
0.0
 40
0.0
 40
0.0
 40
0.0
 40
1.0
 40
1.0
 40
1.0
 40
1.0
 10
27.93020813476983
 20
13.18213705006997
 30
0.0
 10
27.95253213476986
 20
13.17580705006998
 30
0.0
 10
27.97526813476987
 20
13.16943905006997
 30
0.0
 10
27.99788013476984
 20
13.16307105006998
 30
0.0
  0
SPLINE
  5
D8
330
2
100
AcDbEntity
  8
GAIKEI
  6
Continuous
 62
     1
100
AcDbSpline
210
0.0
220
0.0
230
1.0
 70
     8
 71
     3
 72
    11
 73
     7
 74
     0
 42
0.0000000001
 43
0.0000000001
 40
2.0
 40
2.0
 40
2.0
 40
2.0
 40
2.377571399999999
 40
2.377571399999999
 40
2.702978799999999
 40
3.0
 40
3.0
 40
3.0
 40
3.0
 10
27.93020813476983
 20
13.18213705006997
 30
0.0
 10
27.91383613476984
 20
13.18121305006997
 30
0.0
 10
27.89745013476983
 20
13.18042505006997
 30
0.0
 10
27.86692013476983
 20
13.17923105006997
 30
0.0
 10
27.83987213476985
 20
13.17837105006998
 30
0.0
 10
27.81280813476985
 20
13.17804505006998
 30
0.0
 10
27.79989013476984
 20
13.17791705006999
 30
0.0
  0
SPLINE
  5
D9
330
2
100
AcDbEntity
  8
GAIKEI
  6
Continuous
 62
     1
100
AcDbSpline
210
0.0
220
0.0
230
1.0
 70
     8
 71
     3
 72
     8
 73
     4
 74
     0
 42
0.0000000001
 43
0.0000000001
 40
2.0
 40
2.0
 40
2.0
 40
2.0
 40
3.4774148
 40
3.4774148
 40
3.4774148
 40
3.4774148
 10
27.79989013476984
 20
13.17791705006999
 30
0.0
 10
27.21466213476981
 20
13.17219705007
 30
0.0
 10
26.62321613476985
 20
13.16606905006998
 30
0.0
 10
26.0313081347698
 20
13.15951505006998
 30
0.0
  0
SPLINE
  5
DA
330
2
100
AcDbEntity
  8
GAIKEI
  6
Continuous
 62
     1
100
AcDbSpline
210
0.0
220
0.0
230
1.0
 70
     8
 71
     3
 72
    11
 73
     7
 74
     0
 42
0.0000000001
 43
0.0000000001
 40
2.0
 40
2.0
 40
2.0
 40
2.0
 40
52.071292
 40
77.109578
 40
89.62905199999999
 40
90.489077
 40
90.489077
 40
90.489077
 40
90.489077
 10
28.39007013476987
 20
19.35016705006998
 30
0.0
 10
28.43616013476981
 20
18.17979905006999
 30
0.0
 10
28.40319813476981
 20
16.41954105006999
 30
0.0
 10
28.18640413476988
 20
14.38046505006997
 30
0.0
 10
28.05260813476986
 20
13.49162705006998
 30
0.0
 10
28.00120613476986
 20
13.18291305007
 30
0.0
 10
27.99788013476984
 20
13.16307105006998
 30
0.0
  0
LINE
  5
DB
330
2
100
AcDbEntity
  8
GAIKEI
  6
Continuous
 62
     1
100
AcDbLine
 10
28.32024213476984
 20
19.34741505006997
 30
0.0
 11
28.39007413476986
 21
19.35016505006996
 31
0.0
  0
SPLINE
  5
DC
330
2
100
AcDbEntity
  8
GAIKEI
  6
Continuous
 62
     1
100
AcDbSpline
210
0.0
220
0.0
230
1.0
 70
     8
 71
     3
 72
    11
 73
     7
 74
     0
 42
0.0000000001
 43
0.0000000001
 40
2.0
 40
2.0
 40
2.0
 40
2.0
 40
52.071292
 40
77.109578
 40
89.62905199999999
 40
90.38020899999999
 40
90.38020899999999
 40
90.38020899999999
 40
90.38020899999999
 10
28.32024213476984
 20
19.34741905006999
 30
0.0
 10
28.36622413476982
 20
18.17975305006999
 30
0.0
 10
28.33333813476986
 20
16.42356305006998
 30
0.0
 10
28.11704413476986
 20
14.38919705006998
 30
0.0
 10
27.98393413476981
 20
13.50492705006997
 30
0.0
 10
27.93310813476984
 20
13.19942505006997
 30
0.0
 10
27.93020813476983
 20
13.18213705006997
 30
0.0
  0
LINE
  5
DD
330
2
100
AcDbEntity
  8
GAIKEI
  6
Continuous
 62
     1
100
AcDbLine
 10
9.691418134769833
 20
16.43722305006997
 30
0.0
 11
11.45444813476985
 21
16.43722305006997
 31
0.0
  0
LINE
  5
DE
330
2
100
AcDbEntity
  8
GAIKEI
  6
Continuous
 62
     1
100
AcDbLine
 10
11.49141813476984
 20
14.82899305006995
 30
0.0
 11
9.691418134769833
 21
14.82899305006995
 31
0.0
  0
SPLINE
  5
DF
330
2
100
AcDbEntity
  8
GAIKEI
  6
Continuous
 62
     1
100
AcDbSpline
210
0.0
220
0.0
230
1.0
 70
     8
 71
     3
 72
    13
 73
     9
 74
     0
 42
0.0000000001
 43
0.0000000001
 40
2.0
 40
2.0
 40
2.0
 40
2.0
 40
3.059126299999999
 40
4.1178578
 40
5.1639583
 40
5.677893599999999
 40
5.933018999999999
 40
6.257981599999999
 40
6.257981599999999
 40
6.257981599999999
 40
6.257981599999999
 10
28.13103613476983
 20
19.76236105006998
 30
0.0
 10
28.15633413476985
 20
19.73379305006998
 30
0.0
 10
28.20380213476983
 20
19.67338305006999
 30
0.0
 10
28.26228013476987
 20
19.57515305006998
 30
0.0
 10
28.29740213476987
 20
19.48624105006996
 30
0.0
 10
28.31237413476981
 20
19.42096505006998
 30
0.0
 10
28.31812413476985
 20
19.38090505007
 30
0.0
 10
28.31976813476984
 20
19.35944705006997
 30
0.0
 10
28.32024213476984
 20
19.34741905006999
 30
0.0
  0
SPLINE
  5
E0
330
2
100
AcDbEntity
  8
GAIKEI
  6
Continuous
 62
     1
100
AcDbSpline
210
0.0
220
0.0
230
1.0
 70
     8
 71
     3
 72
    13
 73
     9
 74
     0
 42
0.0000000001
 43
0.0000000001
 40
2.0
 40
2.0
 40
2.0
 40
2.0
 40
3.059126299999999
 40
4.1178578
 40
5.1639583
 40
5.677893599999999
 40
5.933018999999999
 40
6.257981599999999
 40
6.257981599999999
 40
6.257981599999999
 40
6.257981599999999
 10
28.21429813476982
 20
19.83597705006997
 30
0.0
 10
28.23927013476987
 20
19.80156905006998
 30
0.0
 10
28.28604213476984
 20
19.72946305006999
 30
0.0
 10
28.34081413476986
 20
19.61307105006997
 30
0.0
 10
28.37202213476985
 20
19.50969705006997
 30
0.0
 10
28.38450013476984
 20
19.43459305006999
 30
0.0
 10
28.38890413476986
 20
19.38860905006999
 30
0.0
 10
28.38994813476984
 20
19.36398705006996
 30
0.0
 10
28.39007013476987
 20
19.35016705006998
 30
0.0
  0
SPLINE
  5
E1
330
2
100
AcDbEntity
  8
GAIKEI
  6
Continuous
 62
     1
100
AcDbSpline
210
0.0
220
0.0
230
1.0
 70
     8
 71
     3
 72
     8
 73
     4
 74
     0
 42
0.0000000001
 43
0.0000000001
 40
2.0
 40
2.0
 40
2.0
 40
2.0
 40
3.0
 40
3.0
 40
3.0
 40
3.0
 10
26.39405013476983
 20
20.31854705006998
 30
0.0
 10
26.41619813476984
 20
20.31844305006999
 30
0.0
 10
26.43835813476983
 20
20.31821505007
 30
0.0
 10
26.46052413476986
 20
20.31786305007
 30
0.0
  0
SPLINE
  5
E2
330
2
100
AcDbEntity
  8
GAIKEI
  6
Continuous
 62
     1
100
AcDbSpline
210
0.0
220
0.0
230
1.0
 70
     8
 71
     3
 72
     8
 73
     4
 74
     0
 42
0.0000000001
 43
0.0000000001
 40
2.0
 40
2.0
 40
2.0
 40
2.0
 40
3.0
 40
3.0
 40
3.0
 40
3.0
 10
26.40564213476984
 20
20.65567305006999
 30
0.0
 10
26.42910613476983
 20
20.65406305006996
 30
0.0
 10
26.45255613476985
 20
20.65231105006998
 30
0.0
 10
26.47600013476984
 20
20.65041905006999
 30
0.0
  0
SPLINE
  5
E3
330
2
100
AcDbEntity
  8
GAIKEI
  6
Continuous
 62
     1
100
AcDbSpline
210
0.0
220
0.0
230
1.0
 70
     8
 71
     3
 72
    11
 73
     7
 74
     0
 42
0.0000000001
 43
0.0000000001
 40
2.0
 40
2.0
 40
2.0
 40
2.0
 40
2.621843299999999
 40
3.247049399999999
 40
3.867076399999999
 40
4.478607599999999
 40
4.478607599999999
 40
4.478607599999999
 40
4.478607599999999
 10
14.32297413476982
 20
20.31619505006998
 30
0.0
 10
14.42604013476983
 20
20.31397905006997
 30
0.0
 10
14.63116213476985
 20
20.30680905006997
 30
0.0
 10
14.93608613476982
 20
20.29227505006998
 30
0.0
 10
15.24207413476984
 20
20.27915105006997
 30
0.0
 10
15.44866213476985
 20
20.27522305007
 30
0.0
 10
15.55131413476982
 20
20.27522305007
 30
0.0
  0
SPLINE
  5
E4
330
2
100
AcDbEntity
  8
GAIKEI
  6
Continuous
 62
     1
100
AcDbSpline
210
0.0
220
0.0
230
1.0
 70
     8
 71
     3
 72
    11
 73
     7
 74
     0
 42
0.0000000001
 43
0.0000000001
 40
2.0
 40
2.0
 40
2.0
 40
2.0
 40
2.621843299999999
 40
3.247049399999999
 40
3.867076399999999
 40
4.478607599999999
 40
4.478607599999999
 40
4.478607599999999
 40
4.478607599999999
 10
14.31383813476986
 20
20.68920105006998
 30
0.0
 10
14.41746413476983
 20
20.69643305006997
 30
0.0
 10
14.62371413476984
 20
20.71244905006998
 30
0.0
 10
14.93066413476981
 20
20.73688105007
 30
0.0
 10
15.23916213476985
 20
20.75644305007001
 30
0.0
 10
15.44769413476984
 20
20.76193305006999
 30
0.0
 10
15.55131413476982
 20
20.76193105006999
 30
0.0
  0
SPLINE
  5
E5
330
2
100
AcDbEntity
  8
GAIKEI
  6
Continuous
 62
     1
100
AcDbSpline
210
0.0
220
0.0
230
1.0
 70
     8
 71
     3
 72
     9
 73
     5
 74
     0
 42
0.0000000001
 43
0.0000000001
 40
2.0
 40
2.0
 40
2.0
 40
2.0
 40
2.7152832
 40
3.430373299999999
 40
3.430373299999999
 40
3.430373299999999
 40
3.430373299999999
 10
13.79083013476986
 20
20.31629105006999
 30
0.0
 10
13.87964013476983
 20
20.31821105006998
 30
0.0
 10
14.05717813476985
 20
20.32006905006998
 30
0.0
 10
14.23444413476983
 20
20.31810505006999
 30
0.0
 10
14.32297413476982
 20
20.31619505006998
 30
0.0
  0
SPLINE
  5
E6
330
2
100
AcDbEntity
  8
GAIKEI
  6
Continuous
 62
     1
100
AcDbSpline
210
0.0
220
0.0
230
1.0
 70
     8
 71
     3
 72
     9
 73
     5
 74
     0
 42
0.0000000001
 43
0.0000000001
 40
2.0
 40
2.0
 40
2.0
 40
2.0
 40
2.7152832
 40
3.430373299999999
 40
3.430373299999999
 40
3.430373299999999
 40
3.430373299999999
 10
13.76795813476985
 20
20.63895505007
 30
0.0
 10
13.85872813476987
 20
20.64940505006999
 30
0.0
 10
14.04052413476984
 20
20.66820705006998
 30
0.0
 10
14.22269413476982
 20
20.68288705006998
 30
0.0
 10
14.31383813476986
 20
20.68920105006998
 30
0.0
  0
SPLINE
  5
E7
330
2
100
AcDbEntity
  8
GAIKEI
  6
Continuous
 62
     1
100
AcDbSpline
210
0.0
220
0.0
230
1.0
 70
     8
 71
     3
 72
     9
 73
     5
 74
     0
 42
0.0000000001
 43
0.0000000001
 40
2.0
 40
2.0
 40
2.0
 40
2.0
 40
3.4540775
 40
4.929514099999999
 40
4.929514099999999
 40
4.929514099999999
 40
4.929514099999999
 10
12.81963213476984
 20
20.29198705006999
 30
0.0
 10
12.98032613476982
 20
20.29595905006997
 30
0.0
 10
13.30402813476985
 20
20.30401505006998
 30
0.0
 10
13.62777013476983
 20
20.31216905006997
 30
0.0
 10
13.79083013476986
 20
20.31629105006999
 30
0.0
  0
SPLINE
  5
E8
330
2
100
AcDbEntity
  8
GAIKEI
  6
Continuous
 62
     1
100
AcDbSpline
210
0.0
220
0.0
230
1.0
 70
     8
 71
     3
 72
     9
 73
     5
 74
     0
 42
0.0000000001
 43
0.0000000001
 40
2.0
 40
2.0
 40
2.0
 40
2.0
 40
3.4540775
 40
4.929514099999999
 40
4.929514099999999
 40
4.929514099999999
 40
4.929514099999999
 10
12.80318213476983
 20
20.53013305006999
 30
0.0
 10
12.96285813476982
 20
20.54766705006997
 30
0.0
 10
13.28446013476986
 20
20.58347905006997
 30
0.0
 10
13.60601413476985
 20
20.62022505006999
 30
0.0
 10
13.76795813476985
 20
20.63895505007
 30
0.0
  0
SPLINE
  5
E9
330
2
100
AcDbEntity
  8
GAIKEI
  6
Continuous
 62
     1
100
AcDbSpline
210
0.0
220
0.0
230
1.0
 70
     8
 71
     3
 72
    32
 73
    28
 74
     0
 42
0.0000000001
 43
0.0000000001
 40
2.0
 40
2.0
 40
2.0
 40
2.0
 40
2.1143909
 40
2.2737568
 40
2.485015
 40
2.905514899999999
 40
3.116057099999999
 40
3.221684399999999
 40
3.4340591
 40
3.540982899999999
 40
3.975478799999999
 40
4.197684099999999
 40
4.3101598
 40
4.538008099999999
 40
4.653441799999999
 40
5.1257214
 40
5.6158565
 40
6.102912799999999
 40
7.1291656
 40
8.2257306
 40
8.510972699999999
 40
8.6552617
 40
8.873786199999999
 40
9.0948299
 40
9.696658300000001
 40
9.9270518
 40
10.144841
 40
10.144841
 40
10.144841
 40
10.144841
 10
11.52582613476983
 20
19.32877905006998
 30
0.0
 10
11.52559213476985
 20
19.33772105007
 30
0.0
 10
11.52532213476985
 20
19.35909105006999
 30
0.0
 10
11.52619413476986
 20
19.39683505006999
 30
0.0
 10
11.53071213476983
 20
19.45798505006999
 30
0.0
 10
11.54126413476984
 20
19.52200505006999
 30
0.0
 10
11.55552013476983
 20
19.57639105006999
 30
0.0
 10
11.56751013476986
 20
19.61473705006998
 30
0.0
 10
11.57856213476986
 20
19.64497705007
 30
0.0
 10
11.60057813476987
 20
19.69745105006998
 30
0.0
 10
11.62695813476983
 20
19.74849505006998
 30
0.0
 10
11.65793213476985
 20
19.79691305006997
 30
0.0
 10
11.68210413476981
 20
19.83117305006999
 30
0.0
 10
11.70289613476984
 20
19.85795905006998
 30
0.0
 10
11.74207813476982
 20
19.90410905006996
 30
0.0
 10
11.79817013476986
 20
19.96103305006997
 30
0.0
 10
11.88116613476984
 20
20.02853105006997
 30
0.0
 10
12.00429413476985
 20
20.10952705006997
 30
0.0
 10
12.17758213476986
 20
20.19150705006999
 30
0.0
 10
12.34666213476987
 20
20.24042105006998
 30
0.0
 10
12.45559613476985
 20
20.26179705006999
 30
0.0
 10
12.50204213476985
 20
20.26962505006998
 30
0.0
 10
12.54401613476983
 20
20.27575705006999
 30
0.0
 10
12.61910013476984
 20
20.28473105006998
 30
0.0
 10
12.69534813476986
 20
20.29016705006998
 30
0.0
 10
12.77142013476987
 20
20.29213505006999
 30
0.0
 10
12.80387813476983
 20
20.29217305006998
 30
0.0
 10
12.81963213476984
 20
20.29198705006999
 30
0.0
  0
SPLINE
  5
EA
330
2
100
AcDbEntity
  8
GAIKEI
  6
Continuous
 62
     1
100
AcDbSpline
210
0.0
220
0.0
230
1.0
 70
     8
 71
     3
 72
    32
 73
    28
 74
     0
 42
0.0000000001
 43
0.0000000001
 40
2.0
 40
2.0
 40
2.0
 40
2.0
 40
2.1143909
 40
2.2737568
 40
2.485015
 40
2.905514899999999
 40
3.116057099999999
 40
3.221684399999999
 40
3.4340591
 40
3.540982899999999
 40
3.975478799999999
 40
4.197684099999999
 40
4.3101598
 40
4.538008099999999
 40
4.653441799999999
 40
5.1257214
 40
5.6158565
 40
6.102912799999999
 40
7.1291656
 40
8.2257306
 40
8.510972699999999
 40
8.6552617
 40
8.873786199999999
 40
9.0948299
 40
9.696658300000001
 40
9.9270518
 40
10.144841
 40
10.144841
 40
10.144841
 40
10.144841
 10
11.45444813476985
 20
19.33166305006998
 30
0.0
 10
11.45445013476984
 20
19.34122305006997
 30
0.0
 10
11.45475213476982
 20
19.36406305007
 30
0.0
 10
11.45651213476981
 20
19.40443905006998
 30
0.0
 10
11.46210213476985
 20
19.46997305006999
 30
0.0
 10
11.47323413476982
 20
19.53889905006997
 30
0.0
 10
11.48761013476985
 20
19.59787305006998
 30
0.0
 10
11.49957613476982
 20
19.63963305006999
 30
0.0
 10
11.51052613476986
 20
19.67271905006998
 30
0.0
 10
11.53225813476985
 20
19.73043305006999
 30
0.0
 10
11.55819213476985
 20
19.78712305006996
 30
0.0
 10
11.58865813476984
 20
19.84165305006996
 30
0.0
 10
11.61245813476984
 20
19.88054305007
 30
0.0
 10
11.63295213476982
 20
19.91121105006999
 30
0.0
 10
11.67164213476985
 20
19.96454105006998
 30
0.0
 10
11.72719813476982
 20
20.03147305006999
 30
0.0
 10
11.80994413476986
 20
20.11356305006998
 30
0.0
 10
11.93372213476982
 20
20.21613905006999
 30
0.0
 10
12.11062413476986
 20
20.32856105006999
 30
0.0
 10
12.28796013476983
 20
20.40663105006999
 30
0.0
 10
12.40441013476982
 20
20.44596505006999
 30
0.0
 10
12.45434013476983
 20
20.46131105006998
 30
0.0
 10
12.49968213476984
 20
20.47413105006999
 30
0.0
 10
12.58126013476982
 20
20.49477905006998
 30
0.0
 10
12.66499013476982
 20
20.51150705006998
 30
0.0
 10
12.74938413476985
 20
20.52391105006998
 30
0.0
 10
12.78557613476982
 20
20.52823905007
 30
0.0
 10
12.80318213476983
 20
20.53013305006999
 30
0.0
  0
LINE
  5
EB
330
2
100
AcDbEntity
  8
GAIKEI
  6
Continuous
 62
     1
100
AcDbLine
 10
11.52582613476983
 20
19.32877905006995
 30
0.0
 11
11.52582613476983
 21
16.44088905006995
 31
0.0
  0
LINE
  5
EC
330
2
100
AcDbEntity
  8
GAIKEI
  6
Continuous
 62
     1
100
AcDbLine
 10
11.45444813476985
 20
16.43722505006997
 30
0.0
 11
11.45444813476985
 21
19.33166305006995
 31
0.0
  0
SPLINE
  5
ED
330
2
100
AcDbEntity
  8
GAIKEI
  6
Continuous
 62
     1
100
AcDbSpline
210
0.0
220
0.0
230
1.0
 70
     8
 71
     3
 72
    14
 73
    10
 74
     0
 42
0.0000000001
 43
0.0000000001
 40
2.0
 40
2.0
 40
2.0
 40
2.0
 40
2.9574812
 40
3.8559347
 40
4.4003964
 40
4.7699649
 40
5.3159663
 40
5.601457599999998
 40
5.899895299999999
 40
5.899895299999999
 40
5.899895299999999
 40
5.899895299999999
 10
26.41763413476986
 20
16.33634505006998
 30
0.0
 10
26.48716413476984
 20
16.34626705006997
 30
0.0
 10
26.62145813476985
 20
16.36871905006998
 30
0.0
 10
26.79262613476988
 20
16.40915305006999
 30
0.0
 10
26.91865413476984
 20
16.45046305006997
 30
0.0
 10
27.01653013476982
 20
16.49230705006999
 30
0.0
 10
27.09238613476987
 20
16.53661505007
 30
0.0
 10
27.15018813476985
 20
16.59507705006999
 30
0.0
 10
27.16583213476986
 20
16.63536705006999
 30
0.0
 10
27.16630813476985
 20
16.65660505006997
 30
0.0
  0
SPLINE
  5
EE
330
2
100
AcDbEntity
  8
GAIKEI
  6
Continuous
 62
     1
100
AcDbSpline
210
0.0
220
0.0
230
1.0
 70
     8
 71
     3
 72
    18
 73
    14
 74
     0
 42
0.0000000001
 43
0.0000000001
 40
2.0
 40
2.0
 40
2.0
 40
2.0
 40
2.2983787
 40
2.2983787
 40
2.504806799999999
 40
2.504806799999999
 40
3.023406399999999
 40
3.023406399999999
 40
3.987503899999999
 40
3.987503899999999
 40
4.907317400000001
 40
4.907317400000001
 40
5.818342999999999
 40
5.818342999999999
 40
5.818342999999999
 40
5.818342999999999
 10
27.16630813476985
 20
16.65660505006997
 30
0.0
 10
27.16677013476982
 20
16.67747505006997
 30
0.0
 10
27.15989213476985
 20
16.69818105006999
 30
0.0
 10
27.14129413476985
 20
16.72858705006999
 30
0.0
 10
27.13185613476986
 20
16.73991105006999
 30
0.0
 10
27.09543613476984
 20
16.77638105006997
 30
0.0
 10
27.06392813476987
 20
16.79684705006997
 30
0.0
 10
26.97057413476983
 20
16.84761705006997
 30
0.0
 10
26.90497813476986
 20
16.87147305006999
 30
0.0
 10
26.77523613476984
 20
16.91108105006998
 30
0.0
 10
26.71072013476982
 20
16.92678305006998
 30
0.0
 10
26.58145213476985
 20
16.95375105006997
 30
0.0
 10
26.51664413476982
 20
16.96500505006997
 30
0.0
 10
26.45160613476986
 20
16.97474705006999
 30
0.0
  0
SPLINE
  5
EF
330
2
100
AcDbEntity
  8
GAIKEI
  6
Continuous
 62
     1
100
AcDbSpline
210
0.0
220
0.0
230
1.0
 70
     8
 71
     3
 72
     8
 73
     4
 74
     0
 42
0.0000000001
 43
0.0000000001
 40
2.0
 40
2.0
 40
2.0
 40
2.0
 40
5.239141799999999
 40
5.239141799999999
 40
5.239141799999999
 40
5.239141799999999
 10
15.55131413476982
 20
17.13726305006997
 30
0.0
 10
15.18430213476984
 20
17.11953105006998
 30
0.0
 10
14.81748013476982
 20
17.09632305007
 30
0.0
 10
14.45176613476985
 20
17.06113105006997
 30
0.0
  0
SPLINE
  5
F0
330
2
100
AcDbEntity
  8
GAIKEI
  6
Continuous
 62
     1
100
AcDbSpline
210
0.0
220
0.0
230
1.0
 70
     8
 71
     3
 72
     8
 73
     4
 74
     0
 42
0.0000000001
 43
0.0000000001
 40
2.0
 40
2.0
 40
2.0
 40
2.0
 40
3.327434799999999
 40
3.327434799999999
 40
3.327434799999999
 40
3.327434799999999
 10
14.45176613476985
 20
17.06113105006997
 30
0.0
 10
14.33116413476983
 20
17.04977305006997
 30
0.0
 10
14.21066613476984
 20
17.03735105006998
 30
0.0
 10
14.09034413476985
 20
17.02346105006998
 30
0.0
  0
SPLINE
  5
F1
330
2
100
AcDbEntity
  8
GAIKEI
  6
Continuous
 62
     1
100
AcDbSpline
210
0.0
220
0.0
230
1.0
 70
     8
 71
     3
 72
    11
 73
     7
 74
     0
 42
0.0000000001
 43
0.0000000001
 40
2.0
 40
2.0
 40
2.0
 40
2.0
 40
4.5238619
 40
5.7157989
 40
6.3247447
 40
6.942844
 40
6.942844
 40
6.942844
 40
6.942844
 10
14.09034413476985
 20
17.02346105006998
 30
0.0
 10
13.88548013476986
 20
16.99995905006997
 30
0.0
 10
13.58470413476982
 20
16.95928705006997
 30
0.0
 10
13.23842813476983
 20
16.88952905006999
 30
0.0
 10
13.04798013476983
 20
16.83762105006997
 30
0.0
 10
12.95344013476983
 20
16.80418705006997
 30
0.0
 10
12.90749413476987
 20
16.78310105006997
 30
0.0
  0
SPLINE
  5
F2
330
2
100
AcDbEntity
  8
GAIKEI
  6
Continuous
 62
     1
100
AcDbSpline
210
0.0
220
0.0
230
1.0
 70
     8
 71
     3
 72
    10
 73
     6
 74
     0
 42
0.0000000001
 43
0.0000000001
 40
2.0
 40
2.0
 40
2.0
 40
2.0
 40
2.942895099999999
 40
3.452030099999999
 40
4.0574598
 40
4.0574598
 40
4.0574598
 40
4.0574598
 10
12.90749413476987
 20
16.78310105006997
 30
0.0
 10
12.87889413476984
 20
16.77344705006999
 30
0.0
 10
12.83695013476983
 20
16.75471705006998
 30
0.0
 10
12.78880613476985
 20
16.71594905006998
 30
0.0
 10
12.77134013476984
 20
16.68720305006997
 30
0.0
 10
12.76855013476984
 20
16.66914905006999
 30
0.0
  0
SPLINE
  5
F3
330
2
100
AcDbEntity
  8
GAIKEI
  6
Continuous
 62
     1
100
AcDbSpline
210
0.0
220
0.0
230
1.0
 70
     8
 71
     3
 72
    10
 73
     6
 74
     0
 42
0.0000000001
 43
0.0000000001
 40
2.0
 40
2.0
 40
2.0
 40
2.0
 40
2.822412599999999
 40
2.822412599999999
 40
3.359050199999999
 40
3.359050199999999
 40
3.359050199999999
 40
3.359050199999999
 10
12.76855013476984
 20
16.66914905006999
 30
0.0
 10
12.76633613476986
 20
16.65485105006999
 30
0.0
 10
12.76900813476982
 20
16.63896505007
 30
0.0
 10
12.78209813476985
 20
16.61499105006999
 30
0.0
 10
12.78927213476982
 20
16.60617705006998
 30
0.0
 10
12.79751213476982
 20
16.59832305006998
 30
0.0
  0
SPLINE
  5
F4
330
2
100
AcDbEntity
  8
GAIKEI
  6
Continuous
 62
     1
100
AcDbSpline
210
0.0
220
0.0
230
1.0
 70
     8
 71
     3
 72
    12
 73
     8
 74
     0
 42
0.0000000001
 43
0.0000000001
 40
2.0
 40
2.0
 40
2.0
 40
2.0
 40
2.2512857
 40
2.555215299999999
 40
3.1027447
 40
4.1041609
 40
6.0938318
 40
6.0938318
 40
6.0938318
 40
6.0938318
 10
12.79751213476982
 20
16.59832305006998
 30
0.0
 10
12.80849413476983
 20
16.58682705006998
 30
0.0
 10
12.83633413476986
 20
16.56506505006999
 30
0.0
 10
12.89732413476986
 20
16.53103705006998
 30
0.0
 10
13.00612213476984
 20
16.48703705007
 30
0.0
 10
13.22135613476985
 20
16.42557505006999
 30
0.0
 10
13.40704613476987
 20
16.38971305006998
 30
0.0
 10
13.53099613476985
 20
16.36881105006998
 30
0.0
  0
SPLINE
  5
F5
330
2
100
AcDbEntity
  8
GAIKEI
  6
Continuous
 62
     1
100
AcDbSpline
210
0.0
220
0.0
230
1.0
 70
     8
 71
     3
 72
    10
 73
     6
 74
     0
 42
0.0000000001
 43
0.0000000001
 40
2.0
 40
2.0
 40
2.0
 40
2.0
 40
2.993617799999999
 40
4.285817099999999
 40
6.559459099999999
 40
6.559459099999999
 40
6.559459099999999
 40
6.559459099999999
 10
13.53099613476985
 20
16.36881105006998
 30
0.0
 10
13.63082813476984
 20
16.35200705006997
 30
0.0
 10
13.86125013476982
 20
16.31808305006998
 30
0.0
 10
14.32262813476984
 20
16.26441905006999
 30
0.0
 10
14.68453213476982
 20
16.23350505006999
 30
0.0
 10
14.91544813476986
 20
16.21640305006997
 30
0.0
  0
SPLINE
  5
F6
330
2
100
AcDbEntity
  8
GAIKEI
  6
Continuous
 62
     1
100
AcDbSpline
210
0.0
220
0.0
230
1.0
 70
     8
 71
     3
 72
     8
 73
     4
 74
     0
 42
0.0000000001
 43
0.0000000001
 40
2.0
 40
2.0
 40
2.0
 40
2.0
 40
3.8718061
 40
3.8718061
 40
3.8718061
 40
3.8718061
 10
14.91544813476986
 20
16.21640305006997
 30
0.0
 10
15.12723213476983
 20
16.20126505006999
 30
0.0
 10
15.33922813476982
 20
16.18904705006997
 30
0.0
 10
15.55131413476982
 20
16.17880305006997
 30
0.0
  0
SPLINE
  5
F7
330
2
100
AcDbEntity
  8
GAIKEI
  6
Continuous
 62
     1
100
AcDbSpline
210
0.0
220
0.0
230
1.0
 70
     8
 71
     3
 72
     9
 73
     5
 74
     0
 42
0.0000000001
 43
0.0000000001
 40
2.3520786
 40
2.3520786
 40
2.3520786
 40
2.3520786
 40
3.5811453
 40
5.036638099999999
 40
5.036638099999999
 40
5.036638099999999
 40
5.036638099999999
 10
28.01050813476985
 20
13.15952105006999
 30
0.0
 10
28.16720813476985
 20
14.09439505006998
 30
0.0
 10
28.41344213476986
 20
16.15247305007
 30
0.0
 10
28.44730613476986
 20
18.22587305006999
 30
0.0
 10
28.40314213476984
 20
19.34754905006997
 30
0.0
  0
SPLINE
  5
F8
330
2
100
AcDbEntity
  8
GAIKEI
  6
Continuous
 62
     1
100
AcDbSpline
210
0.0
220
0.0
230
1.0
 70
     8
 71
     3
 72
     8
 73
     4
 74
     0
 42
0.0000000001
 43
0.0000000001
 40
2.024167599999999
 40
2.024167599999999
 40
2.024167599999999
 40
2.024167599999999
 40
2.031438099999999
 40
2.031438099999999
 40
2.031438099999999
 40
2.031438099999999
 10
28.40314213476984
 20
19.34754905006997
 30
0.0
 10
28.39879413476984
 20
19.34842505006997
 30
0.0
 10
28.39443613476982
 20
19.34929705006999
 30
0.0
 10
28.39007013476987
 20
19.35016705006998
 30
0.0
  0
SPLINE
  5
F9
330
2
100
AcDbEntity
  8
GAIKEI
  6
Continuous
 62
     1
100
AcDbSpline
210
0.0
220
0.0
230
1.0
 70
     8
 71
     3
 72
    25
 73
    21
 74
     0
 42
0.0000000001
 43
0.0000000001
 40
2.0
 40
2.0
 40
2.0
 40
2.0
 40
2.214460799999999
 40
2.6367395
 40
2.8439711
 40
3.2504127
 40
4.030222499999999
 40
4.764282499999999
 40
5.451114299999999
 40
6.090219199999999
 40
6.392147399999999
 40
6.465837
 40
6.611106299999999
 40
6.6827035
 40
6.8238683
 40
7.098382
 40
7.165463799999999
 40
7.2978689
 40
7.363198599999998
 40
7.4922865
 40
7.4922865
 40
7.4922865
 40
7.4922865
 10
26.47600013476984
 20
20.65041905006999
 30
0.0
 10
26.50096013476986
 20
20.64704705006997
 30
0.0
 10
26.57448013476983
 20
20.63648505006998
 30
0.0
 10
26.67171813476983
 20
20.62018905007
 30
0.0
 10
26.79068813476983
 20
20.59718105006999
 30
0.0
 10
26.95016613476986
 20
20.56216705006997
 30
0.0
 10
27.16800413476983
 20
20.50235305006999
 30
0.0
 10
27.41308213476987
 20
20.41411705006999
 30
0.0
 10
27.63612813476982
 20
20.31103305006997
 30
0.0
 10
27.80508013476981
 20
20.21151105006999
 30
0.0
 10
27.90536413476985
 20
20.13995105006998
 30
0.0
 10
27.95552413476986
 20
20.10109105006998
 30
0.0
 10
27.98306813476984
 20
20.07870905006999
 30
0.0
 10
28.01639013476984
 20
20.05023505006997
 30
0.0
 10
28.06089613476985
 20
20.01026905006998
 30
0.0
 10
28.10312613476987
 20
19.96822705006997
 30
0.0
 10
28.14278013476985
 20
19.92486905006998
 30
0.0
 10
28.16425413476986
 20
19.89995505006999
 30
0.0
 10
28.19000813476981
 20
19.86834905006998
 30
0.0
 10
28.20480813476985
 20
19.84902905006999
 30
0.0
 10
28.21429813476982
 20
19.83597705006997
 30
0.0
  0
SPLINE
  5
FA
330
2
100
AcDbEntity
  8
GAIKEI
  6
Continuous
 62
     1
100
AcDbSpline
210
0.0
220
0.0
230
1.0
 70
     8
 71
     3
 72
     8
 73
     4
 74
     0
 42
0.0000000001
 43
0.0000000001
 40
0.0
 40
0.0
 40
0.0
 40
0.0
 40
0.0060346027
 40
0.0060346027
 40
0.0060346027
 40
0.0060346027
 10
28.17971413476982
 20
20.96300905006998
 30
0.0
 10
28.19281413476983
 20
20.61911905006997
 30
0.0
 10
28.20415013476986
 20
20.23361305006998
 30
0.0
 10
28.21429813476982
 20
19.83597705006997
 30
0.0
  0
SPLINE
  5
FB
330
2
100
AcDbEntity
  8
GAIKEI
  6
Continuous
 62
     1
100
AcDbSpline
210
0.0
220
0.0
230
1.0
 70
     8
 71
     3
 72
    30
 73
    26
 74
     0
 42
0.0000000001
 43
0.0000000001
 40
2.770836399999999
 40
2.770836399999999
 40
2.770836399999999
 40
2.770836399999999
 40
2.793489899999999
 40
2.825510299999999
 40
2.841516899999999
 40
2.889526
 40
3.146923299999999
 40
3.179308799999999
 40
3.1955092
 40
3.244146699999999
 40
3.276606499999999
 40
3.2928483
 40
3.341628599999999
 40
3.4722336
 40
3.521476099999999
 40
3.547634299999999
 40
3.5767936
 40
3.615806999999999
 40
3.6549998
 40
3.6845327
 40
3.714203899999999
 40
3.7540178
 40
3.794179299999999
 40
3.824577599999999
 40
3.855691699999999
 40
3.855691699999999
 40
3.855691699999999
 40
3.855691699999999
 10
26.47600013476984
 20
20.65041905006999
 30
0.0
 10
26.48803013476982
 20
20.65204305006998
 30
0.0
 10
26.51706413476984
 20
20.65605705006999
 30
0.0
 10
26.55461013476986
 20
20.66127305006998
 30
0.0
 10
26.60563613476984
 20
20.66839705006998
 30
0.0
 10
26.77644613476986
 20
20.69242705006997
 30
0.0
 10
26.95605613476983
 20
20.71868305006999
 30
0.0
 10
27.11835013476985
 20
20.74408505006997
 30
0.0
 10
27.16988813476985
 20
20.75225905007
 30
0.0
 10
27.22143213476983
 20
20.76056305006998
 30
0.0
 10
27.27293813476985
 20
20.76906505006997
 30
0.0
 10
27.32448213476982
 20
20.77768705006997
 30
0.0
 10
27.42780213476988
 20
20.79536105006997
 30
0.0
 10
27.54812613476986
 20
20.81712105006997
 30
0.0
 10
27.65590413476985
 20
20.83800905006999
 30
0.0
 10
27.71044213476983
 20
20.84893505007
 30
0.0
 10
27.75952213476984
 20
20.85901105007
 30
0.0
 10
27.81519413476985
 20
20.87082105006999
 30
0.0
 10
27.87080413476985
 20
20.88310505006999
 30
0.0
 10
27.9213481347698
 20
20.89471305006998
 30
0.0
 10
27.97197413476983
 20
20.90676505006996
 30
0.0
 10
28.02768413476986
 20
20.92063905006998
 30
0.0
 10
28.08327613476985
 20
20.93529705006998
 30
0.0
 10
28.13401413476981
 20
20.94944505006998
 30
0.0
 10
28.16442013476984
 20
20.95837905006999
 30
0.0
 10
28.17971413476982
 20
20.96300905006998
 30
0.0
  0
SPLINE
  5
FC
330
2
100
AcDbEntity
  8
GAIKEI
  6
Continuous
 62
     1
100
AcDbSpline
210
0.0
220
0.0
230
1.0
 70
     8
 71
     3
 72
    14
 73
    10
 74
     0
 42
0.0000000001
 43
0.0000000001
 40
0.0
 40
0.0
 40
0.0
 40
0.0
 40
0.34579053
 40
0.34579053
 40
0.6017541600000001
 40
0.6017541600000001
 40
0.8157656299999999
 40
0.8157656299999999
 40
1.0
 40
1.0
 40
1.0
 40
1.0
 10
28.40314213476984
 20
19.34754905006997
 30
0.0
 10
28.39905213476982
 20
19.45147105006998
 30
0.0
 10
28.39611413476985
 20
19.64082305006997
 30
0.0
 10
28.39181613476984
 20
20.04423705006997
 30
0.0
 10
28.39045413476981
 20
20.21310105006998
 30
0.0
 10
28.38817213476983
 20
20.51493905006998
 30
0.0
 10
28.38723013476982
 20
20.64884705006997
 30
0.0
 10
28.38578213476984
 20
20.88964505006999
 30
0.0
 10
28.38538013476983
 20
20.97716305006998
 30
0.0
 10
28.38537613476984
 20
21.03322905006999
 30
0.0
  0
SPLINE
  5
FD
330
2
100
AcDbEntity
  8
GAIKEI
  6
Continuous
 62
     1
100
AcDbSpline
210
0.0
220
0.0
230
1.0
 70
     8
 71
     3
 72
    13
 73
     9
 74
     0
 42
0.0000000001
 43
0.0000000001
 40
2.0
 40
2.0
 40
2.0
 40
2.0
 40
2.024167599999999
 40
2.024167599999999
 40
2.0490186
 40
2.070708799999999
 40
2.090876999999999
 40
2.111231399999999
 40
2.111231399999999
 40
2.111231399999999
 40
2.111231399999999
 10
28.17971413476982
 20
20.96300905006998
 30
0.0
 10
28.19501013476986
 20
20.96637505006999
 30
0.0
 10
28.21013213476982
 20
20.97120905006997
 30
0.0
 10
28.24079613476982
 20
20.98109505007
 30
0.0
 10
28.26973813476985
 20
20.99071105006999
 30
0.0
 10
28.31078013476986
 20
21.00509705006999
 30
0.0
 10
28.34868413476982
 20
21.01902705006998
 30
0.0
 10
28.37314613476986
 20
21.02842505006998
 30
0.0
 10
28.38537613476984
 20
21.03322905006999
 30
0.0
  0
SPLINE
  5
FE
330
2
100
AcDbEntity
  8
GAIKEI
  6
Continuous
 62
     1
100
AcDbSpline
210
0.0
220
0.0
230
1.0
 70
     8
 71
     3
 72
    18
 73
    14
 74
     0
 42
0.0000000001
 43
0.0000000001
 40
2.2171036
 40
2.2171036
 40
2.2171036
 40
2.2171036
 40
2.420059799999999
 40
2.420059799999999
 40
2.6233212
 40
2.6233212
 40
2.8265541
 40
2.8265541
 40
3.029536299999999
 40
3.029536299999999
 40
3.435624199999999
 40
3.435624199999999
 40
3.8418626
 40
3.8418626
 40
3.8418626
 40
3.8418626
 10
28.38537613476984
 20
21.03322905006999
 30
0.0
 10
28.38537013476986
 20
21.21966905006997
 30
0.0
 10
28.38535813476983
 20
21.39981305006998
 30
0.0
 10
28.38537013476986
 20
21.74135705006998
 30
0.0
 10
28.38538213476983
 20
21.90253505006999
 30
0.0
 10
28.38538213476983
 20
22.20470305006998
 30
0.0
 10
28.38536813476981
 20
22.34585705006998
 30
0.0
 10
28.38535813476983
 20
22.60650505006998
 30
0.0
 10
28.38537213476985
 20
22.72539105006999
 30
0.0
 10
28.38539213476986
 20
23.04390905007
 30
0.0
 10
28.38535213476985
 20
23.20872705006997
 30
0.0
 10
28.38538613476988
 20
23.42827905006999
 30
0.0
 10
28.38536213476982
 20
23.48419705006998
 30
0.0
 10
28.38536413476982
 20
23.48419905006998
 30
0.0
  0
SPLINE
  5
FF
330
2
100
AcDbEntity
  8
GAIKEI
  6
Continuous
 62
     1
100
AcDbSpline
210
0.0
220
0.0
230
1.0
 70
     8
 71
     3
 72
    21
 73
    17
 74
     0
 42
0.0000000001
 43
0.0000000001
 40
2.0499944
 40
2.0499944
 40
2.0499944
 40
2.0499944
 40
7.1236008
 40
12.175403
 40
17.22723
 40
22.300927
 40
27.374443
 40
32.42622
 40
37.478072
 40
42.55185899999999
 40
47.625285
 40
52.677037
 40
57.728915
 40
62.80279300000001
 40
67.87626299999999
 40
70.322407
 40
70.322407
 40
70.322407
 40
70.322407
 10
28.19023813476986
 20
23.48702505006997
 30
0.0
 10
28.19023813476986
 20
23.48702505006997
 30
0.0
 10
28.18278813476985
 20
23.47706105006998
 30
0.0
 10
28.17604613476982
 20
23.43169305006998
 30
0.0
 10
28.18283613476984
 20
23.35560305006999
 30
0.0
 10
28.19393613476984
 20
23.25131305006999
 30
0.0
 10
28.18276613476985
 20
23.11837905006999
 30
0.0
 10
28.17604013476984
 20
22.95567305006998
 30
0.0
 10
28.18287813476985
 20
22.76499105006999
 30
0.0
 10
28.19393413476985
 20
22.55085705006997
 30
0.0
 10
28.18272813476983
 20
22.31195305006997
 30
0.0
 10
28.17604413476983
 20
22.04660505006998
 30
0.0
 10
28.18290613476984
 20
21.75850905006999
 30
0.0
 10
28.19395013476981
 20
21.45393705006998
 30
0.0
 10
28.18458013476982
 20
21.18594305006997
 30
0.0
 10
28.18064813476985
 20
21.01827705007
 30
0.0
 10
28.17971413476982
 20
20.96300905006998
 30
0.0
  0
LINE
  5
100
330
2
100
AcDbEntity
  8
GAIKEI
  6
Continuous
 62
     1
100
AcDbLine
 10
30.32368013476986
 20
17.73110705006996
 30
0.0
 11
30.30094813476984
 21
17.72050705006995
 31
0.0
  0
ARC
  5
101
330
2
100
AcDbEntity
  8
GAIKEI
  6
Continuous
 62
     1
100
AcDbCircle
 10
-1.808581665230178
 20
18.15803105006995
 30
0.0
 40
32.0
100
AcDbArc
 50
351.0925599999997
 51
358.8988799999997
  0
ARC
  5
102
330
2
100
AcDbEntity
  8
GAIKEI
  6
Continuous
 62
     1
100
AcDbCircle
 10
28.09141813476981
 20
12.83803105006996
 30
0.0
 40
0.5200000000000001
100
AcDbArc
 50
247.3801400000001
 51
270.0
  0
ARC
  5
103
330
2
100
AcDbEntity
  8
GAIKEI
  6
Continuous
 62
     1
100
AcDbCircle
 10
28.09141813476981
 20
12.83803105006996
 30
0.0
 40
0.5200000000000001
100
AcDbArc
 50
270.0
 51
292.6198599999998
  0
SPLINE
  5
104
330
2
100
AcDbEntity
  8
GAIKEI
  6
Continuous
 62
     1
100
AcDbSpline
210
0.0
220
0.0
230
1.0
 70
     8
 71
     3
 72
    25
 73
    21
 74
     0
 42
0.0000000001
 43
0.0000000001
 40
2.0
 40
2.0
 40
2.0
 40
2.0
 40
2.214460799999999
 40
2.6367395
 40
2.8439711
 40
3.2504127
 40
4.030222499999999
 40
4.764282499999999
 40
5.451114299999999
 40
6.090219199999999
 40
6.392147399999999
 40
6.465837
 40
6.611106299999999
 40
6.6827035
 40
6.8238683
 40
7.098382
 40
7.165463799999999
 40
7.2978689
 40
7.363198599999998
 40
7.4922865
 40
7.4922865
 40
7.4922865
 40
7.4922865
 10
26.46052413476986
 20
20.31786305007
 30
0.0
 10
26.48392613476983
 20
20.31748905006998
 30
0.0
 10
26.55291413476982
 20
20.31589305006997
 30
0.0
 10
26.64440213476985
 20
20.31163905006997
 30
0.0
 10
26.75664413476983
 20
20.30367705006998
 30
0.0
 10
26.90748013476986
 20
20.28919105006997
 30
0.0
 10
27.11458213476988
 20
20.25841705007
 30
0.0
 10
27.34913813476982
 20
20.20444105006999
 30
0.0
 10
27.56404413476986
 20
20.13425505006998
 30
0.0
 10
27.72798013476984
 20
20.06135305006998
 30
0.0
 10
27.82586413476986
 20
20.00664105006999
 30
0.0
 10
27.87495813476983
 20
19.97647305006998
 30
0.0
 10
27.90196213476986
 20
19.95895705006998
 30
0.0
 10
27.93469413476987
 20
19.93649705006999
 30
0.0
 10
27.97848613476987
 20
19.90474105006999
 30
0.0
 10
28.02024013476984
 20
19.87088505006997
 30
0.0
 10
28.05959213476985
 20
19.83559505006997
 30
0.0
 10
28.08101013476983
 20
19.81520105006999
 30
0.0
 10
28.10667413476983
 20
19.78918705006998
 30
0.0
 10
28.12145413476981
 20
19.77319705006999
 30
0.0
 10
28.13103613476983
 20
19.76236105006998
 30
0.0
  0
SPLINE
  5
105
330
2
100
AcDbEntity
  8
GAIKEI
  6
Continuous
 62
     1
100
AcDbSpline
210
0.0
220
0.0
230
1.0
 70
     8
 71
     3
 72
     8
 73
     4
 74
     0
 42
0.0000000001
 43
0.0000000001
 40
2.0
 40
2.0
 40
2.0
 40
2.0
 40
3.0
 40
3.0
 40
3.0
 40
3.0
 10
24.30040013476986
 20
16.16471705006998
 30
0.0
 10
24.24778013476987
 20
16.16249905006998
 30
0.0
 10
24.19515613476983
 20
16.16035705006999
 30
0.0
 10
24.14253213476985
 20
16.15828705006999
 30
0.0
  0
SPLINE
  5
106
330
2
100
AcDbEntity
  8
GAIKEI
  6
Continuous
 62
     1
100
AcDbSpline
210
0.0
220
0.0
230
1.0
 70
     8
 71
     3
 72
    10
 73
     6
 74
     0
 42
0.0000000001
 43
0.0000000001
 40
3.221887799999999
 40
3.221887799999999
 40
3.221887799999999
 40
3.221887799999999
 40
4.8524829
 40
6.658941999999999
 40
8.0174119
 40
8.0174119
 40
8.0174119
 40
8.0174119
 10
24.73144813476984
 20
16.18505505006999
 30
0.0
 10
24.92314013476983
 20
16.19519905006999
 30
0.0
 10
25.32700213476983
 20
16.21996705006998
 30
0.0
 10
25.8895581347698
 20
16.26779705006998
 30
0.0
 10
26.25947413476985
 20
16.31276505006997
 30
0.0
 10
26.41763413476986
 20
16.33634505006998
 30
0.0
  0
SPLINE
  5
107
330
2
100
AcDbEntity
  8
GAIKEI
  6
Continuous
 62
     1
100
AcDbSpline
210
0.0
220
0.0
230
1.0
 70
     8
 71
     3
 72
     8
 73
     4
 74
     0
 42
0.0000000001
 43
0.0000000001
 40
2.0
 40
2.0
 40
2.0
 40
2.0
 40
3.221887799999999
 40
3.221887799999999
 40
3.221887799999999
 40
3.221887799999999
 10
24.30040013476986
 20
16.16471705006998
 30
0.0
 10
24.44411813476984
 20
16.17074705006999
 30
0.0
 10
24.58781013476983
 20
16.17745105006997
 30
0.0
 10
24.73144813476984
 20
16.18505505006999
 30
0.0
  0
SPLINE
  5
108
330
2
100
AcDbEntity
  8
GAIKEI
  6
Continuous
 62
     1
100
AcDbSpline
210
0.0
220
0.0
230
1.0
 70
     8
 71
     3
 72
    12
 73
     8
 74
     0
 42
0.0000000001
 43
0.0000000001
 40
2.0
 40
2.0
 40
2.0
 40
2.0
 40
2.6104484
 40
3.510173299999999
 40
4.8572793
 40
6.202369
 40
7.9940312
 40
7.9940312
 40
7.9940312
 40
7.9940312
 10
26.45160613476986
 20
16.97474705006999
 30
0.0
 10
26.38105013476985
 20
16.98555305006999
 30
0.0
 10
26.20614813476982
 20
17.01000305006999
 30
0.0
 10
25.87419013476984
 20
17.04821905006997
 30
0.0
 10
25.45578813476982
 20
17.08559505006997
 30
0.0
 10
24.93264413476982
 20
17.12137505006998
 30
0.0
 10
24.56627813476985
 20
17.13987505006997
 30
0.0
 10
24.35695413476987
 20
17.14892905006997
 30
0.0
  0
SPLINE
  5
109
330
2
100
AcDbEntity
  8
GAIKEI
  6
Continuous
 62
     1
100
AcDbSpline
210
0.0
220
0.0
230
1.0
 70
     8
 71
     3
 72
     9
 73
     5
 74
     0
 42
0.0000000001
 43
0.0000000001
 40
19.07105
 40
19.07105
 40
19.07105
 40
19.07105
 40
19.447525
 40
22.336521
 40
22.336521
 40
22.336521
 40
22.336521
 10
22.94341013476986
 20
17.19410905006998
 30
0.0
 10
22.99774813476984
 20
17.19288705006997
 30
0.0
 10
23.46905013476987
 20
17.18184305006997
 30
0.0
 10
23.94026413476985
 20
17.16695505006998
 30
0.0
 10
24.35695413476987
 20
17.14892905006997
 30
0.0
  0
SPLINE
  5
10A
330
2
100
AcDbEntity
  8
GAIKEI
  6
Continuous
 62
     1
100
AcDbSpline
210
0.0
220
0.0
230
1.0
 70
     8
 71
     3
 72
    12
 73
     8
 74
     0
 42
0.0000000001
 43
0.0000000001
 40
18.69233
 40
18.69233
 40
18.69233
 40
18.69233
 40
20.874154
 40
23.781114
 40
28.869375
 40
33.958089
 40
35.76338
 40
35.76338
 40
35.76338
 40
35.76338
 10
15.55131413476982
 20
17.13726305006997
 30
0.0
 10
15.86592813476983
 20
17.15251905007
 30
0.0
 10
16.60006813476985
 20
17.18073105006999
 30
0.0
 10
18.06896613476982
 20
17.21420305006998
 30
0.0
 10
19.95786413476986
 20
17.22808505006998
 30
0.0
 10
21.68773613476986
 20
17.21812905006999
 30
0.0
 10
22.68285013476987
 20
17.19998305006999
 30
0.0
 10
22.94341013476986
 20
17.19410905006998
 30
0.0
  0
SPLINE
  5
10B
330
2
100
AcDbEntity
  8
GAIKEI
  6
Continuous
 62
     1
100
AcDbSpline
210
0.0
220
0.0
230
1.0
 70
     8
 71
     3
 72
    16
 73
    12
 74
     0
 42
0.0000000001
 43
0.0000000001
 40
3.5590056
 40
3.5590056
 40
3.5590056
 40
3.5590056
 40
5.740544899999999
 40
5.740544899999999
 40
8.647563599999999
 40
8.647563599999999
 40
13.735783
 40
13.735783
 40
18.825105
 40
18.825105
 40
23.419846
 40
23.419846
 40
23.419846
 40
23.419846
 10
24.14253213476985
 20
16.15828705006999
 30
0.0
 10
23.82814413476984
 20
16.14593105006997
 30
0.0
 10
23.51365813476986
 20
16.13613505006998
 30
0.0
 10
22.78000813476984
 20
16.11738705006999
 30
0.0
 10
22.36080613476986
 20
16.10980105006999
 30
0.0
 10
21.20780213476985
 20
16.09474505006997
 30
0.0
 10
20.47394413476985
 20
16.09145905006997
 30
0.0
 10
19.00610613476982
 20
16.09468905006997
 30
0.0
 10
18.27210613476984
 20
16.10116905006998
 30
0.0
 10
16.87569213476985
 20
16.12803505006997
 30
0.0
 10
16.21320413476985
 20
16.14670105006999
 30
0.0
 10
15.55131413476982
 20
16.17880305006997
 30
0.0
  0
SPLINE
  5
10C
330
2
100
AcDbEntity
  8
GAIKEI
  6
Continuous
 62
     1
100
AcDbSpline
210
0.0
220
0.0
230
1.0
 70
    24
 71
     3
 72
     8
 73
     4
 74
     0
 42
0.0000000001
 43
0.0000000001
 40
2.0
 40
2.0
 40
2.0
 40
2.0
 40
17.496054
 40
17.496054
 40
17.496054
 40
17.496054
 10
24.36770013476985
 20
18.83802905006999
 30
0.0
 10
24.69221013476982
 20
18.83802905006999
 30
0.0
 10
25.01671813476986
 20
18.83802905006999
 30
0.0
 10
25.34122613476984
 20
18.83802905006999
 30
0.0
  0
SPLINE
  5
10D
330
2
100
AcDbEntity
  8
GAIKEI
  6
Continuous
 62
     1
100
AcDbSpline
210
0.0
220
0.0
230
1.0
 70
     8
 71
     3
 72
    12
 73
     8
 74
     0
 42
0.0000000001
 43
0.0000000001
 40
2.0
 40
2.0
 40
2.0
 40
2.0
 40
3.6634589
 40
3.6634589
 40
4.500155099999999
 40
4.500155099999999
 40
5.498655
 40
5.498655
 40
5.498655
 40
5.498655
 10
25.34122613476984
 20
18.83802905006999
 30
0.0
 10
25.37605813476984
 20
18.83802705006999
 30
0.0
 10
25.41074213476986
 20
18.85161705006999
 30
0.0
 10
25.44916413476983
 20
18.88718905006999
 30
0.0
 10
25.45976813476983
 20
18.90155105006997
 30
0.0
 10
25.47642613476984
 20
18.93619105006999
 30
0.0
 10
25.48119413476985
 20
18.95711105006998
 30
0.0
 10
25.48119613476985
 20
18.97802305006999
 30
0.0
  0
SPLINE
  5
10E
330
2
100
AcDbEntity
  8
GAIKEI
  6
Continuous
 62
     1
100
AcDbSpline
210
0.0
220
0.0
230
1.0
 70
     8
 71
     3
 72
     8
 73
     4
 74
     0
 42
0.0000000001
 43
0.0000000001
 40
2.0
 40
2.0
 40
2.0
 40
2.0
 40
17.915341
 40
17.915341
 40
17.915341
 40
17.915341
 10
24.34127013476985
 20
19.51803105006996
 30
0.0
 10
24.67459013476986
 20
19.51802705006997
 30
0.0
 10
25.00790613476983
 20
19.51802505006998
 30
0.0
 10
25.34122013476986
 20
19.51801905006999
 30
0.0
  0
SPLINE
  5
10F
330
2
100
AcDbEntity
  8
GAIKEI
  6
Continuous
 62
     1
100
AcDbSpline
210
0.0
220
0.0
230
1.0
 70
     8
 71
     3
 72
    12
 73
     8
 74
     0
 42
0.0000000001
 43
0.0000000001
 40
2.0
 40
2.0
 40
2.0
 40
2.0
 40
3.666083099999999
 40
3.666083099999999
 40
4.501924099999999
 40
4.501924099999999
 40
5.498372799999999
 40
5.498372799999999
 40
5.498372799999999
 40
5.498372799999999
 10
25.34122013476986
 20
19.51801905006999
 30
0.0
 10
25.37611213476987
 20
19.51802105006999
 30
0.0
 10
25.41085213476981
 20
19.53165905006997
 30
0.0
 10
25.44926013476981
 20
19.56730705006998
 30
0.0
 10
25.45983813476983
 20
19.58166505006997
 30
0.0
 10
25.47644013476986
 20
19.61626705006998
 30
0.0
 10
25.48119013476986
 20
19.63714705006998
 30
0.0
 10
25.48119013476986
 20
19.65802105006997
 30
0.0
  0
SPLINE
  5
110
330
2
100
AcDbEntity
  8
GAIKEI
  6
Continuous
 62
     1
100
AcDbSpline
210
0.0
220
0.0
230
1.0
 70
     8
 71
     3
 72
    10
 73
     6
 74
     0
 42
0.0000000001
 43
0.0000000001
 40
2.0
 40
2.0
 40
2.0
 40
2.0
 40
2.979683299999999
 40
3.4740001
 40
3.5974884
 40
3.5974884
 40
3.5974884
 40
3.5974884
 10
24.29099613476984
 20
20.27524105006998
 30
0.0
 10
24.45615213476981
 20
20.27553305006998
 30
0.0
 10
24.70356013476987
 20
20.28367105006998
 30
0.0
 10
24.96787813476982
 20
20.29445705006998
 30
0.0
 10
25.07066213476986
 20
20.29820505006998
 30
0.0
 10
25.09121413476987
 20
20.29892705006998
 30
0.0
  0
SPLINE
  5
111
330
2
100
AcDbEntity
  8
GAIKEI
  6
Continuous
 62
     1
100
AcDbSpline
210
0.0
220
0.0
230
1.0
 70
     8
 71
     3
 72
    15
 73
    11
 74
     0
 42
0.0000000001
 43
0.0000000001
 40
0.0
 40
0.0
 40
0.0
 40
0.0
 40
0.14962383
 40
0.25649903
 40
0.38475035
 40
0.51083419
 40
0.6347505100000001
 40
0.75649926
 40
0.8579573599999999
 40
1.0
 40
1.0
 40
1.0
 40
1.0
 10
25.09121413476987
 20
20.29892705006998
 30
0.0
 10
25.10042813476986
 20
20.29921105006997
 30
0.0
 10
25.11622213476983
 20
20.29969305006998
 30
0.0
 10
25.13991213476982
 20
20.30041505006997
 30
0.0
 10
25.16215213476983
 20
20.30109105006997
 30
0.0
 10
25.18544213476986
 20
20.30179705006998
 30
0.0
 10
25.20833013476983
 20
20.30248905006999
 30
0.0
 10
25.22970413476986
 20
20.30313305006999
 30
0.0
 10
25.25219413476987
 20
20.30380905006999
 30
0.0
 10
25.26718613476987
 20
20.30425705006999
 30
0.0
 10
25.27593413476984
 20
20.30451905006998
 30
0.0
  0
SPLINE
  5
112
330
2
100
AcDbEntity
  8
GAIKEI
  6
Continuous
 62
     1
100
AcDbSpline
210
0.0
220
0.0
230
1.0
 70
     8
 71
     3
 72
    10
 73
     6
 74
     0
 42
0.0000000001
 43
0.0000000001
 40
0.0
 40
0.0
 40
0.0
 40
0.0
 40
0.29166342
 40
0.7083300900000001
 40
1.0
 40
1.0
 40
1.0
 40
1.0
 10
25.27593413476984
 20
20.30451905006998
 30
0.0
 10
25.28344213476987
 20
20.30468505006997
 30
0.0
 10
25.30167813476988
 20
20.30508305006998
 30
0.0
 10
25.32742413476984
 20
20.30564305006999
 30
0.0
 10
25.34566013476985
 20
20.30603705006999
 30
0.0
 10
25.35317013476981
 20
20.30619905006998
 30
0.0
  0
SPLINE
  5
113
330
2
100
AcDbEntity
  8
GAIKEI
  6
Continuous
 62
     1
100
AcDbSpline
210
0.0
220
0.0
230
1.0
 70
     8
 71
     3
 72
    10
 73
     6
 74
     0
 42
0.0000000001
 43
0.0000000001
 40
2.181229999999999
 40
2.181229999999999
 40
2.181229999999999
 40
2.181229999999999
 40
3.298655799999999
 40
3.298655799999999
 40
4.611333099999999
 40
4.611333099999999
 40
4.611333099999999
 40
4.611333099999999
 10
25.35317013476981
 20
20.30619905006998
 30
0.0
 10
25.51263813476988
 20
20.30985705006998
 30
0.0
 10
25.67214613476983
 20
20.31278705006997
 30
0.0
 10
26.01909213476984
 20
20.31718905007
 30
0.0
 10
26.20654213476985
 20
20.31847105006997
 30
0.0
 10
26.39405013476983
 20
20.31854705006998
 30
0.0
  0
SPLINE
  5
114
330
2
100
AcDbEntity
  8
GAIKEI
  6
Continuous
 62
     1
100
AcDbSpline
210
0.0
220
0.0
230
1.0
 70
    24
 71
     3
 72
     8
 73
     4
 74
     0
 42
0.0000000001
 43
0.0000000001
 40
2.0
 40
2.0
 40
2.0
 40
2.0
 40
17.357732
 40
17.357732
 40
17.357732
 40
17.357732
 10
24.37646613476983
 20
18.15803105006998
 30
0.0
 10
24.69805413476985
 20
18.15803105006998
 30
0.0
 10
25.01964213476981
 20
18.15803105006998
 30
0.0
 10
25.34122613476984
 20
18.15803105006998
 30
0.0
  0
SPLINE
  5
115
330
2
100
AcDbEntity
  8
GAIKEI
  6
Continuous
 62
     1
100
AcDbSpline
210
0.0
220
0.0
230
1.0
 70
     8
 71
     3
 72
    12
 73
     8
 74
     0
 42
0.0000000001
 43
0.0000000001
 40
2.0
 40
2.0
 40
2.0
 40
2.0
 40
3.6609425
 40
3.6609425
 40
4.4984584
 40
4.4984584
 40
5.498924599999999
 40
5.498924599999999
 40
5.498924599999999
 40
5.498924599999999
 10
25.34122613476984
 20
18.15803105006998
 30
0.0
 10
25.37600413476986
 20
18.15803105006998
 30
0.0
 10
25.41063613476985
 20
18.17157705006997
 30
0.0
 10
25.44907013476984
 20
18.20707705006998
 30
0.0
 10
25.45969813476984
 20
18.22144105006998
 30
0.0
 10
25.47641013476982
 20
18.25611705006997
 30
0.0
 10
25.48119813476984
 20
18.27707705006998
 30
0.0
 10
25.48119613476985
 20
18.29803105006999
 30
0.0
  0
LINE
  5
116
330
2
100
AcDbEntity
  8
GAIKEI
  6
Continuous
 62
     1
100
AcDbLine
 10
24.36770013476985
 20
18.83803105006996
 30
0.0
 11
22.34141813476981
 21
18.83803105006996
 31
0.0
  0
ARC
  5
117
330
2
100
AcDbEntity
  8
GAIKEI
  6
Continuous
 62
     1
100
AcDbCircle
 10
22.34141813476981
 20
18.97803105006997
 30
0.0
 40
0.14
100
AcDbArc
 50
180.0
 51
270.0
  0
LINE
  5
118
330
2
100
AcDbEntity
  8
GAIKEI
  6
Continuous
 62
     1
100
AcDbLine
 10
24.34127413476983
 20
19.51803105006996
 30
0.0
 11
22.34141813476981
 21
19.51803105006996
 31
0.0
  0
ARC
  5
119
330
2
100
AcDbEntity
  8
GAIKEI
  6
Continuous
 62
     1
100
AcDbCircle
 10
22.34141813476981
 20
19.65803105006995
 30
0.0
 40
0.14
100
AcDbArc
 50
180.0
 51
270.0
  0
SPLINE
  5
11A
330
2
100
AcDbEntity
  8
GAIKEI
  6
Continuous
 62
     1
100
AcDbSpline
210
0.0
220
0.0
230
1.0
 70
     8
 71
     3
 72
    22
 73
    18
 74
     0
 42
0.0000000001
 43
0.0000000001
 40
9.344390800000001
 40
9.344390800000001
 40
9.344390800000001
 40
9.344390800000001
 40
9.4192788
 40
9.519778
 40
9.653776999999999
 40
9.9217749
 40
10.189773
 40
10.457771
 40
10.993767
 40
11.529762
 40
12.601754
 40
13.673746
 40
15.57245
 40
15.57245
 40
17.961713
 40
22.24968
 40
26.537647
 40
26.537647
 40
26.537647
 40
26.537647
 10
24.29099613476984
 20
20.27524105006998
 30
0.0
 10
24.27830613476988
 20
20.27521305006999
 30
0.0
 10
24.24858813476982
 20
20.27522905006998
 30
0.0
 10
24.19616613476984
 20
20.27522105007
 30
0.0
 10
24.11102213476983
 20
20.27522505006999
 30
0.0
 10
23.99749813476984
 20
20.27522305007
 30
0.0
 10
23.86127013476983
 20
20.27522305007
 30
0.0
 10
23.67963213476986
 20
20.27522305007
 30
0.0
 10
23.45258413476984
 20
20.27522305007
 30
0.0
 10
23.08930613476986
 20
20.27522305007
 30
0.0
 10
22.63521013476986
 20
20.27522305007
 30
0.0
 10
21.95021613476985
 20
20.27522305007
 30
0.0
 10
21.44686213476985
 20
20.27522305007
 30
0.0
 10
20.72030813476982
 20
20.27522305007
 30
0.0
 10
19.58891813476987
 20
20.27522305007
 30
0.0
 10
17.73097413476984
 20
20.27522305007
 30
0.0
 10
16.27786613476985
 20
20.27522305007
 30
0.0
 10
15.55131413476982
 20
20.27522305007
 30
0.0
  0
LINE
  5
11B
330
2
100
AcDbEntity
  8
GAIKEI
  6
Continuous
 62
     1
100
AcDbLine
 10
24.37646813476983
 20
18.15803105006995
 30
0.0
 11
22.34141813476981
 21
18.15803105006995
 31
0.0
  0
ARC
  5
11C
330
2
100
AcDbEntity
  8
GAIKEI
  6
Continuous
 62
     1
100
AcDbCircle
 10
22.34141813476981
 20
18.29803105006996
 30
0.0
 40
0.14
100
AcDbArc
 50
180.0
 51
270.0
  0
SPLINE
  5
11D
330
2
100
AcDbEntity
  8
GAIKEI
  6
Continuous
 62
     1
100
AcDbSpline
210
0.0
220
0.0
230
1.0
 70
     8
 71
     3
 72
    10
 73
     6
 74
     0
 42
0.0000000001
 43
0.0000000001
 40
2.1811999
 40
2.1811999
 40
2.1811999
 40
2.1811999
 40
3.298655799999999
 40
3.298655799999999
 40
4.611333099999999
 40
4.611333099999999
 40
4.611333099999999
 40
4.611333099999999
 10
25.35803813476986
 20
20.71667305006997
 30
0.0
 10
25.51874613476986
 20
20.70909705006997
 30
0.0
 10
25.67941213476985
 20
20.70081705006999
 30
0.0
 10
26.02864413476982
 20
20.68073105007
 30
0.0
 10
26.21718413476981
 20
20.66873905006997
 30
0.0
 10
26.40564213476984
 20
20.65567305006999
 30
0.0
  0
SPLINE
  5
11E
330
2
100
AcDbEntity
  8
GAIKEI
  6
Continuous
 62
     1
100
AcDbSpline
210
0.0
220
0.0
230
1.0
 70
     8
 71
     3
 72
     8
 73
     4
 74
     0
 42
0.0000000001
 43
0.0000000001
 40
0.0
 40
0.0
 40
0.0
 40
0.0
 40
1.0
 40
1.0
 40
1.0
 40
1.0
 10
25.27593413476984
 20
20.30451905006998
 30
0.0
 10
25.27723613476985
 20
20.44982505006999
 30
0.0
 10
25.28182613476986
 20
20.59276705006999
 30
0.0
 10
25.28331213476986
 20
20.72031105006999
 30
0.0
  0
SPLINE
  5
11F
330
2
100
AcDbEntity
  8
GAIKEI
  6
Continuous
 62
     1
100
AcDbSpline
210
0.0
220
0.0
230
1.0
 70
     8
 71
     3
 72
    10
 73
     6
 74
     0
 42
0.0000000001
 43
0.0000000001
 40
0.0
 40
0.0
 40
0.0
 40
0.0
 40
0.29166501
 40
0.7083316800000001
 40
1.0
 40
1.0
 40
1.0
 40
1.0
 10
25.28331213476986
 20
20.72031105006999
 30
0.0
 10
25.29057813476982
 20
20.71996105006997
 30
0.0
 10
25.30822213476984
 20
20.71910305006998
 30
0.0
 10
25.33312813476982
 20
20.71788905006997
 30
0.0
 10
25.35077213476984
 20
20.71702905006998
 30
0.0
 10
25.35803813476986
 20
20.71667305006997
 30
0.0
  0
SPLINE
  5
120
330
2
100
AcDbEntity
  8
GAIKEI
  6
Continuous
 62
     1
100
AcDbSpline
210
0.0
220
0.0
230
1.0
 70
     8
 71
     3
 72
    10
 73
     6
 74
     0
 42
0.0000000001
 43
0.0000000001
 40
0.0
 40
0.0
 40
0.0
 40
0.0
 40
0.4805006600000001
 40
0.60745058
 40
1.0
 40
1.0
 40
1.0
 40
1.0
 10
25.09478813476983
 20
20.72979305006999
 30
0.0
 10
25.12498213476983
 20
20.72827705006998
 30
0.0
 10
25.16315613476985
 20
20.72635705006999
 30
0.0
 10
25.22599813476984
 20
20.72319705006998
 30
0.0
 10
25.25864613476983
 20
20.72155505006998
 30
0.0
 10
25.28331213476986
 20
20.72031105006999
 30
0.0
  0
SPLINE
  5
121
330
2
100
AcDbEntity
  8
GAIKEI
  6
Continuous
 62
     1
100
AcDbSpline
210
0.0
220
0.0
230
1.0
 70
     8
 71
     3
 72
    10
 73
     6
 74
     0
 42
0.0000000001
 43
0.0000000001
 40
2.0
 40
2.0
 40
2.0
 40
2.0
 40
2.979683299999999
 40
3.4740001
 40
3.5974883
 40
3.5974883
 40
3.5974883
 40
3.5974883
 10
24.29099613476984
 20
20.76191305006998
 30
0.0
 10
24.45697413476984
 20
20.76152905006998
 30
0.0
 10
24.70559013476986
 20
20.75139905006998
 30
0.0
 10
24.97097413476985
 20
20.73651505006998
 30
0.0
 10
25.07415413476986
 20
20.73090105006997
 30
0.0
 10
25.09478813476983
 20
20.72979305006999
 30
0.0
  0
SPLINE
  5
122
330
2
100
AcDbEntity
  8
GAIKEI
  6
Continuous
 62
     1
100
AcDbSpline
210
0.0
220
0.0
230
1.0
 70
     8
 71
     3
 72
    21
 73
    17
 74
     0
 42
0.0000000001
 43
0.0000000001
 40
14.714182
 40
14.714182
 40
14.714182
 40
14.714182
 40
17.22743
 40
22.300901
 40
27.37477800000001
 40
32.426656
 40
37.478408
 40
42.55183399999999
 40
47.625621
 40
52.67747299999999
 40
57.72925
 40
62.802766
 40
67.876463
 40
72.92829000000001
 40
77.980092
 40
83.053699
 40
83.053699
 40
83.053699
 40
83.053699
 10
25.28108013476981
 20
20.96836905006998
 30
0.0
 10
25.28201413476984
 20
21.02516705006999
 30
0.0
 10
25.28593613476983
 20
21.19463705006999
 30
0.0
 10
25.29528013476983
 20
21.46686305007
 30
0.0
 10
25.28432413476986
 20
21.77482105006999
 30
0.0
 10
25.27751413476983
 20
22.06180105006999
 30
0.0
 10
25.28414613476986
 20
22.32665505006997
 30
0.0
 10
25.29526613476986
 20
22.56819305006997
 30
0.0
 10
25.28429413476982
 20
22.78460105006997
 30
0.0
 10
25.27751213476984
 20
22.97443105006999
 30
0.0
 10
25.28418413476982
 20
23.13697105006998
 30
0.0
 10
25.29526613476986
 20
23.27143705006998
 30
0.0
 10
25.28425413476987
 20
23.37676705006999
 30
0.0
 10
25.27751813476982
 20
23.45231505006998
 30
0.0
 10
25.28420613476987
 20
23.49786705006997
 30
0.0
 10
25.29159813476986
 20
23.50803105006997
 30
0.0
 10
25.29159813476986
 20
23.50803305006997
 30
0.0
  0
SPLINE
  5
123
330
2
100
AcDbEntity
  8
GAIKEI
  6
Continuous
 62
     1
100
AcDbSpline
210
0.0
220
0.0
230
1.0
 70
     8
 71
     3
 72
     9
 73
     5
 74
     0
 42
0.0000000001
 43
0.0000000001
 40
11.112864
 40
11.112864
 40
11.112864
 40
11.112864
 40
12.175688
 40
14.714182
 40
14.714182
 40
14.714182
 40
14.714182
 10
25.28331213476986
 20
20.72031105006999
 30
0.0
 10
25.27967013476985
 20
20.74507305006997
 30
0.0
 10
25.27933813476983
 20
20.82867105007
 30
0.0
 10
25.28014213476985
 20
20.91100505006997
 30
0.0
 10
25.28108013476981
 20
20.96836905006998
 30
0.0
  0
SPLINE
  5
124
330
2
100
AcDbEntity
  8
GAIKEI
  6
Continuous
 62
     1
100
AcDbSpline
210
0.0
220
0.0
230
1.0
 70
     8
 71
     3
 72
    22
 73
    18
 74
     0
 42
0.0000000001
 43
0.0000000001
 40
2.0
 40
2.0
 40
2.0
 40
2.0
 40
6.287966899999999
 40
10.575934
 40
12.960478
 40
12.960478
 40
14.863901
 40
15.935892
 40
17.007884
 40
17.54388
 40
18.079876
 40
18.34787399999999
 40
18.615872
 40
18.88387
 40
19.017869
 40
19.118368
 40
19.193256
 40
19.193256
 40
19.193256
 40
19.193256
 10
15.55131413476982
 20
20.76193105006999
 30
0.0
 10
16.27786613476985
 20
20.76193305006999
 30
0.0
 10
17.73097413476984
 20
20.76193305006999
 30
0.0
 10
19.58811813476984
 20
20.76193305006999
 30
0.0
 10
20.71871013476982
 20
20.76193305006999
 30
0.0
 10
21.44526213476985
 20
20.76193305006999
 30
0.0
 10
21.94941813476987
 20
20.76193305006999
 30
0.0
 10
22.63521013476986
 20
20.76193305006999
 30
0.0
 10
23.08930613476986
 20
20.76193305006999
 30
0.0
 10
23.45258413476984
 20
20.76193305006999
 30
0.0
 10
23.67963213476986
 20
20.76193305006999
 30
0.0
 10
23.86127013476983
 20
20.76193305006999
 30
0.0
 10
23.99749813476984
 20
20.76193505006998
 30
0.0
 10
24.11102213476983
 20
20.76193105006999
 30
0.0
 10
24.19616613476984
 20
20.76193505006998
 30
0.0
 10
24.24858813476982
 20
20.76192705006997
 30
0.0
 10
24.27830613476988
 20
20.76194305006999
 30
0.0
 10
24.29099613476984
 20
20.76191305006998
 30
0.0
  0
SPLINE
  5
125
330
2
100
AcDbEntity
  8
GAIKEI
  6
Continuous
 62
     1
100
AcDbSpline
210
0.0
220
0.0
230
1.0
 70
     8
 71
     3
 72
     8
 73
     4
 74
     0
 42
0.0000000001
 43
0.0000000001
 40
4.5077831
 40
4.5077831
 40
4.5077831
 40
4.5077831
 40
5.036638099999999
 40
5.036638099999999
 40
5.036638099999999
 40
5.036638099999999
 10
29.99339213476981
 20
18.12246705006998
 30
0.0
 10
29.99387413476984
 20
18.55148305006997
 30
0.0
 10
29.98567813476984
 20
18.98050905007
 30
0.0
 10
29.96879813476983
 20
19.40919105006998
 30
0.0
  0
SPLINE
  5
126
330
2
100
AcDbEntity
  8
GAIKEI
  6
Continuous
 62
     1
100
AcDbSpline
210
0.0
220
0.0
230
1.0
 70
     8
 71
     3
 72
    16
 73
    12
 74
     0
 42
0.0000000001
 43
0.0000000001
 40
0.0
 40
0.0
 40
0.0
 40
0.0
 40
0.27577119
 40
0.27577119
 40
0.4112956000000001
 40
0.4112956000000001
 40
0.61498054
 40
0.61498054
 40
0.9354989099999999
 40
0.9354989099999999
 40
1.0
 40
1.0
 40
1.0
 40
1.0
 10
29.96879813476983
 20
19.40919105006998
 30
0.0
 10
29.94913613476985
 20
19.36116905006997
 30
0.0
 10
29.89186213476984
 20
19.32338905006998
 30
0.0
 10
29.72896413476986
 20
19.28402705006999
 30
0.0
 10
29.66490813476986
 20
19.27433305006997
 30
0.0
 10
29.48120013476984
 20
19.25764505006998
 30
0.0
 10
29.35107613476987
 20
19.25448305006998
 30
0.0
 10
28.97855813476986
 20
19.26476705006999
 30
0.0
 10
28.74263413476985
 20
19.28818905006997
 30
0.0
 10
28.48830413476986
 20
19.33112705006999
 30
0.0
 10
28.44567613476982
 20
19.33897905006998
 30
0.0
 10
28.40314213476984
 20
19.34754905006997
 30
0.0
  0
SPLINE
  5
127
330
2
100
AcDbEntity
  8
GAIKEI
  6
Continuous
 62
     1
100
AcDbSpline
210
0.0
220
0.0
230
1.0
 70
     8
 71
     3
 72
     9
 73
     5
 74
     0
 42
0.0000000001
 43
0.0000000001
 40
2.478102
 40
2.478102
 40
2.478102
 40
2.478102
 40
3.5811453
 40
4.5077831
 40
4.5077831
 40
4.5077831
 40
4.5077831
 10
29.60505413476983
 20
13.20319905006997
 30
0.0
 10
29.74446213476984
 20
14.08708305006999
 30
0.0
 10
29.93235013476982
 20
15.72431705007
 30
0.0
 10
29.99255013476983
 20
17.37076505006999
 30
0.0
 10
29.99339213476981
 20
18.12246705006998
 30
0.0
  0
SPLINE
  5
128
330
2
100
AcDbEntity
  8
GAIKEI
  6
Continuous
 62
     1
100
AcDbSpline
210
0.0
220
0.0
230
1.0
 70
     8
 71
     3
 72
    14
 73
    10
 74
     0
 42
0.0000000001
 43
0.0000000001
 40
0.8162367699999999
 40
0.8162367699999999
 40
0.8162367699999999
 40
0.8162367699999999
 40
1.229506699999999
 40
1.229506699999999
 40
1.441614699999999
 40
1.441614699999999
 40
1.621129699999999
 40
1.621129699999999
 40
1.8162368
 40
1.8162368
 40
1.8162368
 40
1.8162368
 10
28.38537613476984
 20
21.03322905006999
 30
0.0
 10
28.67401813476983
 20
21.14658305006998
 30
0.0
 10
28.98087013476981
 20
21.15830705006999
 30
0.0
 10
29.39228013476986
 20
21.02561505006997
 30
0.0
 10
29.51640613476985
 20
20.95633705006997
 30
0.0
 10
29.70765013476984
 20
20.79402505006999
 30
0.0
 10
29.77947413476983
 20
20.70725105006997
 30
0.0
 10
29.89359813476983
 20
20.50764905006997
 30
0.0
 10
29.93207813476983
 20
20.39452105006998
 30
0.0
 10
29.95012213476986
 20
20.27583505006999
 30
0.0
  0
SPLINE
  5
129
330
2
100
AcDbEntity
  8
GAIKEI
  6
Continuous
 62
     1
100
AcDbSpline
210
0.0
220
0.0
230
1.0
 70
     8
 71
     3
 72
    18
 73
    14
 74
     0
 42
0.0000000001
 43
0.0000000001
 40
2.2171036
 40
2.2171036
 40
2.2171036
 40
2.2171036
 40
2.420059799999999
 40
2.420059799999999
 40
2.6233212
 40
2.6233212
 40
2.8265541
 40
2.8265541
 40
3.029536299999999
 40
3.029536299999999
 40
3.435624199999999
 40
3.435624199999999
 40
3.8418626
 40
3.8418626
 40
3.8418626
 40
3.8418626
 10
29.95012213476986
 20
20.27583505006999
 30
0.0
 10
29.95011613476981
 20
20.41334105006999
 30
0.0
 10
29.95010413476985
 20
20.54542705006998
 30
0.0
 10
29.95011613476981
 20
20.79636505007
 30
0.0
 10
29.95013013476984
 20
20.91538305006998
 30
0.0
 10
29.95013013476984
 20
21.13845505006998
 30
0.0
 10
29.95011413476982
 20
21.24262505006999
 30
0.0
 10
29.95010413476985
 20
21.43403305006998
 30
0.0
 10
29.95011813476981
 20
21.52129705006999
 30
0.0
 10
29.95014013476987
 20
21.75626305007
 30
0.0
 10
29.95009613476987
 20
21.87752905007
 30
0.0
 10
29.95013213476983
 20
22.03909705006998
 30
0.0
 10
29.95010813476984
 20
22.08048705006999
 30
0.0
 10
29.95010413476985
 20
22.08049105006998
 30
0.0
  0
SPLINE
  5
12A
330
2
100
AcDbEntity
  8
GAIKEI
  6
Continuous
 62
     1
100
AcDbSpline
210
0.0
220
0.0
230
1.0
 70
     8
 71
     3
 72
    12
 73
     8
 74
     0
 42
0.0000000001
 43
0.0000000001
 40
0.0
 40
0.0
 40
0.0
 40
0.0
 40
0.077991223
 40
0.077991223
 40
0.5983698000000001
 40
0.5983698000000001
 40
1.0
 40
1.0
 40
1.0
 40
1.0
 10
29.96879813476983
 20
19.40919105006998
 30
0.0
 10
29.96793613476985
 20
19.43143305006998
 30
0.0
 10
29.96713213476983
 20
19.45364705006997
 30
0.0
 10
29.96129613476984
 20
19.62394305006998
 30
0.0
 10
29.95742213476984
 20
19.78704105006997
 30
0.0
 10
29.95255413476986
 20
20.03312105006998
 30
0.0
 10
29.95013413476982
 20
20.17267105006999
 30
0.0
 10
29.95012213476986
 20
20.27583505006999
 30
0.0
  0
SPLINE
  5
12B
330
2
100
AcDbEntity
  8
GAIKEI
  6
Continuous
 62
     1
100
AcDbSpline
210
0.0
220
0.0
230
1.0
 70
     8
 71
     3
 72
     8
 73
     4
 74
     0
 42
0.0000000001
 43
0.0000000001
 40
0.11504875
 40
0.11504875
 40
0.11504875
 40
0.11504875
 40
0.13033167
 40
0.13033167
 40
0.13033167
 40
0.13033167
 10
29.89590013476982
 20
22.33865105006998
 30
0.0
 10
29.89292013476984
 20
22.34991305006997
 30
0.0
 10
29.88949213476985
 20
22.36103705007
 30
0.0
 10
29.88579813476986
 20
22.37206705006997
 30
0.0
  0
SPLINE
  5
12C
330
2
100
AcDbEntity
  8
GAIKEI
  6
Continuous
 62
     1
100
AcDbSpline
210
0.0
220
0.0
230
1.0
 70
     8
 71
     3
 72
     8
 73
     4
 74
     0
 42
0.0000000001
 43
0.0000000001
 40
0.23875066
 40
0.23875066
 40
0.23875066
 40
0.23875066
 40
0.25464957
 40
0.25464957
 40
0.25464957
 40
0.25464957
 10
29.79242213476982
 20
22.60027105006998
 30
0.0
 10
29.78749213476982
 20
22.61127305007
 30
0.0
 10
29.78197813476981
 20
22.62198105006999
 30
0.0
 10
29.77625213476983
 20
22.63257705006998
 30
0.0
  0
SPLINE
  5
12D
330
2
100
AcDbEntity
  8
GAIKEI
  6
Continuous
 62
     1
100
AcDbSpline
210
0.0
220
0.0
230
1.0
 70
     8
 71
     3
 72
     8
 73
     4
 74
     0
 42
0.0000000001
 43
0.0000000001
 40
0.31574089
 40
0.31574089
 40
0.31574089
 40
0.31574089
 40
0.38599045
 40
0.38599045
 40
0.38599045
 40
0.38599045
 10
29.70099613476987
 20
22.74904305006999
 30
0.0
 10
29.67725213476985
 20
22.79709305006997
 30
0.0
 10
29.64609213476985
 20
22.84040905006998
 30
0.0
 10
29.61232813476982
 20
22.88179505006997
 30
0.0
  0
SPLINE
  5
12E
330
2
100
AcDbEntity
  8
GAIKEI
  6
Continuous
 62
     1
100
AcDbSpline
210
0.0
220
0.0
230
1.0
 70
     8
 71
     3
 72
     8
 73
     4
 74
     0
 42
0.0000000001
 43
0.0000000001
 40
0.5640637
 40
0.5640637
 40
0.5640637
 40
0.5640637
 40
0.6394664500000001
 40
0.6394664500000001
 40
0.6394664500000001
 40
0.6394664500000001
 10
29.31560213476985
 20
23.16152305007
 30
0.0
 10
29.27231013476984
 20
23.20122905006997
 30
0.0
 10
29.22380213476981
 20
23.23344905006996
 30
0.0
 10
29.17379013476983
 20
23.26273505006998
 30
0.0
  0
SPLINE
  5
12F
330
2
100
AcDbEntity
  8
GAIKEI
  6
Continuous
 62
     1
100
AcDbSpline
210
0.0
220
0.0
230
1.0
 70
     8
 71
     3
 72
     8
 73
     4
 74
     0
 42
0.0000000001
 43
0.0000000001
 40
0.6994067600000001
 40
0.6994067600000001
 40
0.6994067600000001
 40
0.6994067600000001
 40
0.76380319
 40
0.76380319
 40
0.76380319
 40
0.76380319
 10
29.04956413476987
 20
23.32218505006998
 30
0.0
 10
29.00769813476984
 20
23.34888705006997
 30
0.0
 10
28.96232413476986
 20
23.36805505006998
 30
0.0
 10
28.91616413476981
 20
23.38500305007
 30
0.0
  0
SPLINE
  5
130
330
2
100
AcDbEntity
  8
GAIKEI
  6
Continuous
 62
     1
100
AcDbSpline
210
0.0
220
0.0
230
1.0
 70
     8
 71
     3
 72
     8
 73
     4
 74
     0
 42
0.0000000001
 43
0.0000000001
 40
0.8582733499999999
 40
0.8582733499999999
 40
0.8582733499999999
 40
0.8582733499999999
 40
0.88435842
 40
0.88435842
 40
0.88435842
 40
0.88435842
 10
28.70790213476983
 20
23.44225705006997
 30
0.0
 10
28.68929213476986
 20
23.45038305007
 30
0.0
 10
28.66974613476987
 20
23.45433705007
 30
0.0
 10
28.65012213476985
 20
23.45792905006999
 30
0.0
  0
LINE
  5
131
330
2
100
AcDbEntity
  8
GAIKEI
  6
Continuous
 62
     1
100
AcDbLine
 10
5.821418134769828
 20
23.27803105006996
 30
0.0
 11
6.481418134769853
 21
23.27803105006996
 31
0.0
  0
LINE
  5
132
330
2
100
AcDbEntity
  8
GAIKEI
  6
Continuous
 62
     1
100
AcDbLine
 10
6.541418134769855
 20
23.35803105006997
 30
0.0
 11
6.701418134769824
 21
23.35803105006997
 31
0.0
  0
LINE
  5
133
330
2
100
AcDbEntity
  8
GAIKEI
  6
Continuous
 62
     1
100
AcDbLine
 10
6.481418134769853
 20
23.27803105006996
 30
0.0
 11
5.821418134769828
 21
23.27803105006996
 31
0.0
  0
LINE
  5
134
330
2
100
AcDbEntity
  8
GAIKEI
  6
Continuous
 62
     1
100
AcDbLine
 10
5.651418134769869
 20
22.65803105006995
 30
0.0
 11
4.731418134769853
 21
22.65803105006995
 31
0.0
  0
LINE
  5
135
330
2
100
AcDbEntity
  8
GAIKEI
  6
Continuous
 62
     1
100
AcDbLine
 10
5.651418134769869
 20
13.65803105006995
 30
0.0
 11
4.731418134769853
 21
13.65803105006995
 31
0.0
  0
LINE
  5
136
330
2
100
AcDbEntity
  8
GAIKEI
  6
Continuous
 62
     1
100
AcDbLine
 10
4.731418134769853
 20
13.65803105006995
 30
0.0
 11
4.731418134769853
 21
22.65803105006995
 31
0.0
  0
CIRCLE
  5
137
330
2
100
AcDbEntity
  8
GAIKEI
  6
Continuous
 62
     1
100
AcDbCircle
 10
-24.40853780240849
 20
18.15803105006995
 30
0.0
 40
3.9
  0
ARC
  5
138
330
2
100
AcDbEntity
  8
GAIKEI
  6
Continuous
 62
     1
100
AcDbCircle
 10
-28.40853780240849
 20
13.15803105006995
 30
0.0
 40
0.8
100
AcDbArc
 50
180.0
 51
270.0
  0
LINE
  5
139
330
2
100
AcDbEntity
  8
GAIKEI
  6
Continuous
 62
     1
100
AcDbLine
 10
-24.46853780240849
 20
12.36085505006997
 30
0.0
 11
-24.46853780240849
 21
12.35803105006997
 31
0.0
  0
LINE
  5
13A
330
2
100
AcDbEntity
  8
GAIKEI
  6
Continuous
 62
     1
100
AcDbLine
 10
-29.2085378024085
 20
14.82899305006995
 30
0.0
 11
-29.2085378024085
 21
13.15803105006995
 31
0.0
  0
LINE
  5
13B
330
2
100
AcDbEntity
  8
GAIKEI
  6
Continuous
 62
     1
100
AcDbLine
 10
-28.40853780240849
 20
12.35803105006997
 30
0.0
 11
-24.46853780240849
 21
12.35803105006997
 31
0.0
  0
ARC
  5
13C
330
2
100
AcDbEntity
  8
GAIKEI
  6
Continuous
 62
     1
100
AcDbCircle
 10
-28.00853780240851
 20
12.83803105006996
 30
0.0
 40
0.5200000000000001
100
AcDbArc
 50
247.3801400000001
 51
270.0
  0
ARC
  5
13D
330
2
100
AcDbEntity
  8
GAIKEI
  6
Continuous
 62
     1
100
AcDbCircle
 10
-28.00853780240851
 20
12.83803105006996
 30
0.0
 40
0.5200000000000001
100
AcDbArc
 50
270.0
 51
292.6198599999998
  0
SPLINE
  5
13E
330
2
100
AcDbEntity
  8
GAIKEI
  6
Continuous
 62
     1
100
AcDbSpline
210
0.0
220
0.0
230
1.0
 70
     8
 71
     3
 72
    16
 73
    12
 74
     0
 42
0.0000000001
 43
0.0000000001
 40
0.7455700300000001
 40
0.7455700300000001
 40
0.7455700300000001
 40
0.7455700300000001
 40
0.8198415199999999
 40
0.8198415199999999
 40
0.8261874999999999
 40
0.8261874999999999
 40
0.8290443299999999
 40
0.8290443299999999
 40
0.8858412599999999
 40
0.8858412599999999
 40
1.0
 40
1.0
 40
1.0
 40
1.0
 10
-29.47419123882894
 20
16.43708501312349
 30
0.0
 10
-29.47345963882894
 20
16.43492301312349
 30
0.0
 10
-29.46945260240852
 20
16.42286905006997
 30
0.0
 10
-29.4642454024085
 20
16.40622305006997
 30
0.0
 10
-29.45781240240848
 20
16.38538505006997
 30
0.0
 10
-29.45130480240852
 20
16.36597905006999
 30
0.0
 10
-29.45134180240848
 20
16.36616905006997
 30
0.0
 10
-29.44632120240851
 20
16.35164705006997
 30
0.0
 10
-29.4454300024085
 20
16.34937705006999
 30
0.0
 10
-29.44394740240852
 20
16.34510305006998
 30
0.0
 10
-29.4433896024085
 20
16.34336705006998
 30
0.0
 10
-29.44339360240849
 20
16.34338105006998
 30
0.0
  0
ARC
  5
13F
330
2
100
AcDbEntity
  8
GAIKEI
  6
Continuous
 62
     1
100
AcDbCircle
 10
-34.32796217168954
 20
14.81046254459971
 30
0.0
 40
5.119457906108956
100
AcDbArc
 50
0.2073895505261809
 51
17.42336173360548
  0
LINE
  5
140
330
2
100
AcDbEntity
  8
GAIKEI
  6
Continuous
 62
     1
100
AcDbLine
 10
-20.39746880240853
 20
12.35803105006997
 30
0.0
 11
-20.40853780240849
 21
12.35803105006997
 31
0.0
  0
LINE
  5
141
330
2
100
AcDbEntity
  8
GAIKEI
  6
Continuous
 62
     1
100
AcDbLine
 10
-20.40853780240849
 20
12.35803105006997
 30
0.0
 11
-24.40853780240849
 21
12.35803105006997
 31
0.0
  0
LINE
  5
142
330
2
100
AcDbEntity
  8
GAIKEI
  6
Continuous
 62
     1
100
AcDbLine
 10
-24.40853780240849
 20
12.35803105006997
 30
0.0
 11
-24.40853780240849
 21
12.36085505006997
 31
0.0
  0
LINE
  5
143
330
2
100
AcDbEntity
  8
GAIKEI
  6
Continuous
 62
     1
100
AcDbLine
 10
-19.60853780240848
 20
14.82899305006995
 30
0.0
 11
-19.60853780240848
 21
13.15803105006995
 31
0.0
  0
ARC
  5
144
330
2
100
AcDbEntity
  8
GAIKEI
  6
Continuous
 62
     1
100
AcDbCircle
 10
-20.80853780240852
 20
12.83803105006996
 30
0.0
 40
0.5200000000000001
100
AcDbArc
 50
247.3801400000001
 51
270.0
  0
ARC
  5
145
330
2
100
AcDbEntity
  8
GAIKEI
  6
Continuous
 62
     1
100
AcDbCircle
 10
-20.80853780240852
 20
12.83803105006996
 30
0.0
 40
0.5200000000000001
100
AcDbArc
 50
270.0
 51
292.6198599999998
  0
ARC
  5
146
330
2
100
AcDbEntity
  8
GAIKEI
  6
Continuous
 62
     1
100
AcDbCircle
 10
9.531418134769864
 20
12.66075305006995
 30
0.0
 40
0.3
100
AcDbArc
 50
180.0
 51
268.5000000000006
  0
LINE
  5
147
330
2
100
AcDbEntity
  8
GAIKEI
  6
Continuous
 62
     1
100
AcDbLine
 10
9.231418134769853
 20
12.66075305006995
 30
0.0
 11
9.231418134769853
 21
13.16058105006996
 31
0.0
  0
LINE
  5
148
330
2
100
AcDbEntity
  8
GAIKEI
  6
Continuous
 62
     1
100
AcDbLine
 10
9.231418134769853
 20
13.16058105006996
 30
0.0
 11
9.231418134769853
 21
14.82974305006996
 31
0.0
  0
LINE
  5
149
330
2
100
AcDbEntity
  8
GAIKEI
  6
Continuous
 62
     1
100
AcDbLine
 10
9.231418134769853
 20
14.82974305006996
 30
0.0
 11
9.231418134769853
 21
15.31455905006996
 31
0.0
  0
LINE
  5
14A
330
2
100
AcDbEntity
  8
GAIKEI
  6
Continuous
 62
     1
100
AcDbLine
 10
9.63141813476983
 20
12.35803105006997
 30
0.0
 11
9.523566134769851
 21
12.36085505006997
 31
0.0
  0
LINE
  5
14B
330
2
100
AcDbEntity
  8
GAIKEI
  6
Continuous
 62
     1
100
AcDbLine
 10
6.761418134769826
 20
12.98318505006995
 30
0.0
 11
6.761418134769826
 21
23.33287705006995
 31
0.0
  0
LINE
  5
14C
330
2
100
AcDbEntity
  8
GAIKEI
  6
Continuous
 62
     1
100
AcDbLine
 10
9.691418134769833
 20
23.50803105006997
 30
0.0
 11
9.691418134769833
 21
22.77735105006997
 31
0.0
  0
LINE
  5
14D
330
2
100
AcDbEntity
  8
GAIKEI
  6
Continuous
 62
     1
100
AcDbLine
 10
9.63141813476983
 20
16.43708505006995
 30
0.0
 11
9.63141813476983
 21
23.50803105006997
 31
0.0
  0
LINE
  5
14E
330
2
100
AcDbEntity
  8
GAIKEI
  6
Continuous
 62
     1
100
AcDbLine
 10
9.63141813476983
 20
16.43708505006995
 30
0.0
 11
9.63141813476983
 21
14.82927505006995
 31
0.0
  0
LINE
  5
14F
330
2
100
AcDbEntity
  8
GAIKEI
  6
Continuous
 62
     1
100
AcDbLine
 10
9.63141813476983
 20
14.82927505006995
 30
0.0
 11
9.63141813476983
 21
13.15775705006996
 31
0.0
  0
LINE
  5
150
330
2
100
AcDbEntity
  8
GAIKEI
  6
Continuous
 62
     1
100
AcDbLine
 10
9.631416134769835
 20
13.15776105006995
 30
0.0
 11
9.631416134769835
 21
12.35802905006994
 31
0.0
  0
SPLINE
  5
151
330
2
100
AcDbEntity
  8
GAIKEI
  6
Continuous
 62
     1
100
AcDbSpline
210
0.0
220
0.0
230
1.0
 70
     8
 71
     3
 72
    10
 73
     6
 74
     0
 42
0.0000000001
 43
0.0000000001
 40
0.0
 40
0.0
 40
0.0
 40
0.0
 40
0.0006132259
 40
0.0010458706
 40
0.001648707
 40
0.001648707
 40
0.001648707
 40
0.001648707
 10
10.03310413476981
 20
22.91408105007
 30
0.0
 10
9.99005813476981
 20
22.91408105007
 30
0.0
 10
9.923826134769853
 20
22.92732505006998
 30
0.0
 10
9.849356134769834
 20
22.96385305006999
 30
0.0
 10
9.831710134769821
 20
22.99357105006999
 30
0.0
 10
9.831424134769861
 20
23.01106105006997
 30
0.0
  0
SPLINE
  5
152
330
2
100
AcDbEntity
  8
GAIKEI
  6
Continuous
 62
     1
100
AcDbSpline
210
0.0
220
0.0
230
1.0
 70
     8
 71
     3
 72
    10
 73
     6
 74
     0
 42
0.0000000001
 43
0.0000000001
 40
0.0000150344
 40
0.0000150344
 40
0.0000150344
 40
0.0000150344
 40
0.0012151092
 40
0.0020757929
 40
0.0032952842
 40
0.0032952842
 40
0.0032952842
 40
0.0032952842
 10
13.43142013476984
 20
23.09952305006999
 30
0.0
 10
13.43089013476981
 20
23.06652905006999
 30
0.0
 10
13.39450613476981
 20
23.01146705007
 30
0.0
 10
13.24586613476981
 20
22.93877505006998
 30
0.0
 10
13.11385813476983
 20
22.91408105007
 30
0.0
 10
13.02822613476985
 20
22.91408105007
 30
0.0
  0
LINE
  5
153
330
2
100
AcDbEntity
  8
GAIKEI
  6
Continuous
 62
     1
100
AcDbLine
 10
9.831418134769819
 20
23.01184105006996
 30
0.0
 11
9.831418134769819
 21
23.50803105006997
 31
0.0
  0
LINE
  5
154
330
2
100
AcDbEntity
  8
GAIKEI
  6
Continuous
 62
     1
100
AcDbLine
 10
13.02823013476984
 20
22.91408105006997
 30
0.0
 11
10.03310213476982
 21
22.91408105006997
 31
0.0
  0
LINE
  5
155
330
2
100
AcDbEntity
  8
GAIKEI
  6
Continuous
 62
     1
100
AcDbLine
 10
13.43141813476984
 20
23.50803105006997
 30
0.0
 11
13.43141813476984
 21
23.09952505006996
 31
0.0
  0
LINE
  5
156
330
2
100
AcDbEntity
  8
GAIKEI
  6
Continuous
 62
     1
100
AcDbLine
 10
6.861384134769821
 20
23.43549505006996
 30
0.0
 11
6.761418134769826
 21
23.33287705006995
 31
0.0
  0
LINE
  5
157
330
2
100
AcDbEntity
  8
GAIKEI
  6
Continuous
 62
     1
100
AcDbLine
 10
6.761418134769826
 20
12.98318505006995
 30
0.0
 11
6.861384134769821
 21
12.88056705006997
 31
0.0
  0
LINE
  5
158
330
2
100
AcDbEntity
  8
GAIKEI
  6
Continuous
 62
     1
100
AcDbLine
 10
9.523566134769851
 20
14.82974305006996
 30
0.0
 11
9.231418134769853
 21
14.82974305006996
 31
0.0
  0
SPLINE
  5
159
330
2
100
AcDbEntity
  8
GAIKEI
  6
Continuous
 62
     1
100
AcDbSpline
210
0.0
220
0.0
230
1.0
 70
     8
 71
     3
 72
    10
 73
     6
 74
     0
 42
0.0000000001
 43
0.0000000001
 40
2.0
 40
2.0
 40
2.0
 40
2.0
 40
3.047695099999999
 40
3.047695099999999
 40
5.7439809
 40
5.7439809
 40
5.7439809
 40
5.7439809
 10
9.523564134769856
 20
14.82974505006999
 30
0.0
 10
9.523526134769838
 20
14.98241105006997
 30
0.0
 10
9.523496134769857
 20
15.13508905006998
 30
0.0
 10
9.523434134769843
 20
15.67836905006999
 30
0.0
 10
9.523464134769824
 20
16.06575505006998
 30
0.0
 10
9.523564134769856
 20
16.43776505006997
 30
0.0
  0
SPLINE
  5
15A
330
2
100
AcDbEntity
  8
GAIKEI
  6
Continuous
 62
     1
100
AcDbSpline
210
0.0
220
0.0
230
1.0
 70
     8
 71
     3
 72
     9
 73
     5
 74
     0
 42
0.0000000001
 43
0.0000000001
 40
0.0
 40
0.0
 40
0.0
 40
0.0
 40
0.0031511409
 40
0.006448047
 40
0.006448047
 40
0.006448047
 40
0.006448047
 10
9.231420134769848
 20
15.31455905006999
 30
0.0
 10
9.232302134769838
 20
15.49327305006997
 30
0.0
 10
9.317540134769842
 20
15.86386705006998
 30
0.0
 10
9.44688613476984
 20
16.24354105006998
 30
0.0
 10
9.523564134769856
 20
16.43776505006997
 30
0.0
  0
LINE
  5
15B
330
2
100
AcDbEntity
  8
GAIKEI
  6
Continuous
 62
     1
100
AcDbLine
 10
9.523566134769851
 20
13.16058105006996
 30
0.0
 11
9.231418134769853
 21
13.16058105006996
 31
0.0
  0
LINE
  5
15C
330
2
100
AcDbEntity
  8
GAIKEI
  6
Continuous
 62
     1
100
AcDbLine
 10
9.523566134769851
 20
14.82974305006996
 30
0.0
 11
9.523566134769851
 21
13.16058105006996
 31
0.0
  0
SPLINE
  5
15D
330
2
100
AcDbEntity
  8
GAIKEI
  6
Continuous
 62
     1
100
AcDbSpline
210
0.0
220
0.0
230
1.0
 70
     8
 71
     3
 72
    11
 73
     7
 74
     0
 42
0.0000000001
 43
0.0000000001
 40
2.0
 40
2.0
 40
2.0
 40
2.0
 40
2.351891999999999
 40
2.820989599999999
 40
3.221549299999999
 40
3.6937259
 40
3.6937259
 40
3.6937259
 40
3.6937259
 10
9.523564134769856
 20
13.16058305006999
 30
0.0
 10
9.522712134769847
 20
13.07363705006997
 30
0.0
 10
9.521046134769846
 20
12.87059505006999
 30
0.0
 10
9.520022134769874
 20
12.60606105006997
 30
0.0
 10
9.520776134769846
 20
12.40891105006997
 30
0.0
 10
9.522420134769845
 20
12.36088505006998
 30
0.0
 10
9.523564134769856
 20
12.36085905006999
 30
0.0
  0
SPLINE
  5
15E
330
2
100
AcDbEntity
  8
GAIKEI
  6
Continuous
 62
     1
100
AcDbSpline
210
0.0
220
0.0
230
1.0
 70
     8
 71
     3
 72
     8
 73
     4
 74
     0
 42
0.0000000001
 43
0.0000000001
 40
2.0
 40
2.0
 40
2.0
 40
2.0
 40
2.2696327
 40
2.2696327
 40
2.2696327
 40
2.2696327
 10
9.631416134769835
 20
14.82927305006998
 30
0.0
 10
9.595468134769816
 20
14.82943105006998
 30
0.0
 10
9.559516134769864
 20
14.82958705006999
 30
0.0
 10
9.523564134769856
 20
14.82974505006999
 30
0.0
  0
SPLINE
  5
15F
330
2
100
AcDbEntity
  8
GAIKEI
  6
Continuous
 62
     1
100
AcDbSpline
210
0.0
220
0.0
230
1.0
 70
     8
 71
     3
 72
     8
 73
     4
 74
     0
 42
0.0000000001
 43
0.0000000001
 40
2.730367299999999
 40
2.730367299999999
 40
2.730367299999999
 40
2.730367299999999
 40
3.0
 40
3.0
 40
3.0
 40
3.0
 10
9.523564134769856
 20
16.43776505006997
 30
0.0
 10
9.559516134769864
 20
16.43753905006997
 30
0.0
 10
9.595468134769816
 20
16.43731105006998
 30
0.0
 10
9.631416134769835
 20
16.43708705006998
 30
0.0
  0
LINE
  5
160
330
2
100
AcDbEntity
  8
GAIKEI
  6
Continuous
 62
     1
100
AcDbLine
 10
9.523566134769851
 20
13.16058105006996
 30
0.0
 11
9.63141813476983
 21
13.15775705006996
 31
0.0
  0
LINE
  5
161
330
2
100
AcDbEntity
  8
GAIKEI
  6
Continuous
 62
     1
100
AcDbLine
 10
9.831418134769819
 20
23.50803105006997
 30
0.0
 11
9.691420134769828
 21
23.50803105006997
 31
0.0
  0
LINE
  5
162
330
2
100
AcDbEntity
  8
GAIKEI
  6
Continuous
 62
     1
100
AcDbLine
 10
13.67134872454635
 20
23.50803105006997
 30
0.0
 11
13.43142013476984
 21
23.50803105006997
 31
0.0
  0
LINE
  5
163
330
2
100
AcDbEntity
  8
GAIKEI
  6
Continuous
 62
     1
100
AcDbLine
 10
9.63141813476983
 20
23.50803105006997
 30
0.0
 11
6.861386134769816
 21
23.43549505006996
 31
0.0
  0
LINE
  5
164
330
2
100
AcDbEntity
  8
GAIKEI
  6
Continuous
 62
     1
100
AcDbLine
 10
6.861386134769816
 20
12.88056705006997
 30
0.0
 11
9.231420134769848
 21
12.81850505006997
 31
0.0
  0
LINE
  5
165
330
2
100
AcDbEntity
  8
GAIKEI
  6
Continuous
 62
     1
100
AcDbLine
 10
9.691418134769833
 20
23.44803105006997
 30
0.0
 11
9.63141813476983
 21
23.44803105006997
 31
0.0
  0
LINE
  5
166
330
2
100
AcDbEntity
  8
GAIKEI
  6
Continuous
 62
     1
100
AcDbLine
 10
9.851418134769858
 20
22.97033905006995
 30
0.0
 11
9.851418134769858
 21
23.45803105006996
 31
0.0
  0
LINE
  5
167
330
2
100
AcDbEntity
  8
GAIKEI
  6
Continuous
 62
     1
100
AcDbLine
 10
13.41141813476986
 20
23.45803105006996
 30
0.0
 11
13.41141813476986
 21
23.04969705006997
 31
0.0
  0
SPLINE
  5
168
330
2
100
AcDbEntity
  8
GAIKEI
  6
Continuous
 62
     1
100
AcDbSpline
210
0.0
220
0.0
230
1.0
 70
     8
 71
     3
 72
     8
 73
     4
 74
     0
 42
0.0000000001
 43
0.0000000001
 40
4.868137599999999
 40
4.868137599999999
 40
4.868137599999999
 40
4.868137599999999
 40
5.144811299999999
 40
5.144811299999999
 40
5.144811299999999
 40
5.144811299999999
 10
13.06909413476984
 20
22.91506105007
 30
0.0
 10
13.05003413476981
 20
22.91402705006999
 30
0.0
 10
13.03073413476983
 20
22.91349105006998
 30
0.0
 10
13.01141813476982
 20
22.91348905006998
 30
0.0
  0
LINE
  5
169
330
2
100
AcDbEntity
  8
GAIKEI
  6
Continuous
 62
     1
100
AcDbLine
 10
9.951418134769824
 20
23.55803105006996
 30
0.0
 11
9.951418134769824
 21
23.05203505006995
 31
0.0
  0
SPLINE
  5
16A
330
2
100
AcDbEntity
  8
GAIKEI
  6
Continuous
 62
     1
100
AcDbSpline
210
0.0
220
0.0
230
1.0
 70
     8
 71
     3
 72
    10
 73
     6
 74
     0
 42
0.0000000001
 43
0.0000000001
 40
2.0
 40
2.0
 40
2.0
 40
2.0
 40
2.532833
 40
2.7951617
 40
3.053785899999999
 40
3.053785899999999
 40
3.053785899999999
 40
3.053785899999999
 10
9.951420134769819
 20
23.05203705006997
 30
0.0
 10
9.951418134769824
 20
23.04002105006998
 30
0.0
 10
9.966066134769846
 20
23.02161505006998
 30
0.0
 10
10.01065213476983
 20
23.00606305007
 30
0.0
 10
10.03787613476982
 20
23.00321705006997
 30
0.0
 10
10.05141813476984
 20
23.00321905006999
 30
0.0
  0
LINE
  5
16B
330
2
100
AcDbEntity
  8
GAIKEI
  6
Continuous
 62
     1
100
AcDbLine
 10
10.05141813476984
 20
23.00321705006997
 30
0.0
 11
13.01141813476982
 21
23.00321705006997
 31
0.0
  0
SPLINE
  5
16C
330
2
100
AcDbEntity
  8
GAIKEI
  6
Continuous
 62
     1
100
AcDbSpline
210
0.0
220
0.0
230
1.0
 70
     8
 71
     3
 72
    14
 73
    10
 74
     0
 42
0.0000000001
 43
0.0000000001
 40
2.0
 40
2.0
 40
2.0
 40
2.0
 40
2.895181
 40
2.895181
 40
3.647756899999999
 40
3.647756899999999
 40
4.289145099999998
 40
4.289145099999998
 40
5.144811299999999
 40
5.144811299999999
 40
5.144811299999999
 40
5.144811299999999
 10
13.01141813476982
 20
23.00321905006999
 30
0.0
 10
13.05829013476983
 20
23.00321705006997
 30
0.0
 10
13.10504213476986
 20
23.00893305006997
 30
0.0
 10
13.18039813476986
 20
23.02757505006997
 30
0.0
 10
13.21083013476982
 20
23.03911505007
 30
0.0
 10
13.25664213476983
 20
23.06357705007
 30
0.0
 10
13.27367213476987
 20
23.07605305006999
 30
0.0
 10
13.30281413476984
 20
23.10627705006999
 30
0.0
 10
13.31141813476984
 20
23.12442305006999
 30
0.0
 10
13.31141613476984
 20
23.14199105006998
 30
0.0
  0
LINE
  5
16D
330
2
100
AcDbEntity
  8
GAIKEI
  6
Continuous
 62
     1
100
AcDbLine
 10
13.31141813476984
 20
23.14199305006997
 30
0.0
 11
13.31141813476984
 21
23.55803105006996
 31
0.0
  0
LINE
  5
16E
330
2
100
AcDbEntity
  8
GAIKEI
  6
Continuous
 62
     1
100
AcDbLine
 10
13.31141613476984
 20
23.55803105006996
 30
0.0
 11
9.951420134769819
 21
23.55803105006996
 31
0.0
  0
LINE
  5
16F
330
2
100
AcDbEntity
  8
GAIKEI
  6
Continuous
 62
     1
100
AcDbLine
 10
10.43141813476984
 20
20.56803105006995
 30
0.0
 11
10.43141813476984
 21
20.71803105006996
 31
0.0
  0
LINE
  5
170
330
2
100
AcDbEntity
  8
GAIKEI
  6
Continuous
 62
     1
100
AcDbLine
 10
10.43141813476984
 20
20.71803105006996
 30
0.0
 11
10.53141813476986
 21
20.71803105006996
 31
0.0
  0
LINE
  5
171
330
2
100
AcDbEntity
  8
GAIKEI
  6
Continuous
 62
     1
100
AcDbLine
 10
10.53141813476986
 20
20.71803105006996
 30
0.0
 11
10.53141813476986
 21
20.56803105006995
 31
0.0
  0
LINE
  5
172
330
2
100
AcDbEntity
  8
GAIKEI
  6
Continuous
 62
     1
100
AcDbLine
 10
10.53141813476986
 20
20.56803105006995
 30
0.0
 11
10.68141813476984
 21
20.56803105006995
 31
0.0
  0
LINE
  5
173
330
2
100
AcDbEntity
  8
GAIKEI
  6
Continuous
 62
     1
100
AcDbLine
 10
10.68141813476984
 20
20.56803105006995
 30
0.0
 11
10.68141813476984
 21
20.46803105006995
 31
0.0
  0
LINE
  5
174
330
2
100
AcDbEntity
  8
GAIKEI
  6
Continuous
 62
     1
100
AcDbLine
 10
10.68141813476984
 20
20.46803105006995
 30
0.0
 11
10.53141813476986
 21
20.46803105006995
 31
0.0
  0
LINE
  5
175
330
2
100
AcDbEntity
  8
GAIKEI
  6
Continuous
 62
     1
100
AcDbLine
 10
10.53141813476986
 20
20.46803105006995
 30
0.0
 11
10.53141813476986
 21
20.31803105006995
 31
0.0
  0
LINE
  5
176
330
2
100
AcDbEntity
  8
GAIKEI
  6
Continuous
 62
     1
100
AcDbLine
 10
10.53141813476986
 20
20.31803105006995
 30
0.0
 11
10.43141813476984
 21
20.31803105006995
 31
0.0
  0
LINE
  5
177
330
2
100
AcDbEntity
  8
GAIKEI
  6
Continuous
 62
     1
100
AcDbLine
 10
10.43141813476984
 20
20.31803105006995
 30
0.0
 11
10.43141813476984
 21
20.46803105006995
 31
0.0
  0
LINE
  5
178
330
2
100
AcDbEntity
  8
GAIKEI
  6
Continuous
 62
     1
100
AcDbLine
 10
10.43141813476984
 20
20.46803105006995
 30
0.0
 11
10.28141813476986
 21
20.46803105006995
 31
0.0
  0
LINE
  5
179
330
2
100
AcDbEntity
  8
GAIKEI
  6
Continuous
 62
     1
100
AcDbLine
 10
10.28141813476986
 20
20.46803105006995
 30
0.0
 11
10.28141813476986
 21
20.56803105006995
 31
0.0
  0
LINE
  5
17A
330
2
100
AcDbEntity
  8
GAIKEI
  6
Continuous
 62
     1
100
AcDbLine
 10
10.28141813476986
 20
20.56803105006995
 30
0.0
 11
10.43141813476984
 21
20.56803105006995
 31
0.0
  0
CIRCLE
  5
17B
330
2
100
AcDbEntity
  8
GAIKEI
  6
Continuous
 62
     1
100
AcDbCircle
 10
10.48141813476985
 20
20.51803105006996
 30
0.0
 40
0.31
  0
LINE
  5
17C
330
2
100
AcDbEntity
  8
GAIKEI
  6
Continuous
 62
     1
100
AcDbLine
 10
5.63141813476983
 20
22.65401705006997
 30
0.0
 11
5.651418134769869
 21
22.67436305006996
 31
0.0
  0
LINE
  5
17D
330
2
100
AcDbEntity
  8
GAIKEI
  6
Continuous
 62
     1
100
AcDbLine
 10
6.481418134769853
 20
13.01803105006996
 30
0.0
 11
6.481418134769853
 21
23.29803105006996
 31
0.0
  0
LINE
  5
17E
330
2
100
AcDbEntity
  8
GAIKEI
  6
Continuous
 62
     1
100
AcDbLine
 10
6.701418134769824
 20
23.35803105006997
 30
0.0
 11
6.741418134769844
 21
23.31803105006995
 31
0.0
  0
LINE
  5
17F
330
2
100
AcDbEntity
  8
GAIKEI
  6
Continuous
 62
     1
100
AcDbLine
 10
6.741418134769844
 20
12.99803105006995
 30
0.0
 11
6.701418134769824
 21
12.95803105006996
 31
0.0
  0
LINE
  5
180
330
2
100
AcDbEntity
  8
GAIKEI
  6
Continuous
 62
     1
100
AcDbLine
 10
6.741418134769844
 20
23.31803105006995
 30
0.0
 11
6.741418134769844
 21
12.99803105006995
 31
0.0
  0
LINE
  5
181
330
2
100
AcDbEntity
  8
GAIKEI
  6
Continuous
 62
     1
100
AcDbLine
 10
6.481418134769853
 20
13.03803105006994
 30
0.0
 11
5.821418134769828
 21
13.03803105006994
 31
0.0
  0
LINE
  5
182
330
2
100
AcDbEntity
  8
GAIKEI
  6
Continuous
 62
     1
100
AcDbLine
 10
5.821418134769828
 20
23.27803105006996
 30
0.0
 11
6.481418134769853
 21
23.27803105006996
 31
0.0
  0
LINE
  5
183
330
2
100
AcDbEntity
  8
GAIKEI
  6
Continuous
 62
     1
100
AcDbLine
 10
5.821418134769828
 20
23.27803105006996
 30
0.0
 11
5.821418134769828
 21
13.03803105006994
 31
0.0
  0
LINE
  5
184
330
2
100
AcDbEntity
  8
GAIKEI
  6
Continuous
 62
     1
100
AcDbLine
 10
6.541418134769855
 20
12.95803105006996
 30
0.0
 11
6.481418134769853
 21
13.01803105006996
 31
0.0
  0
LINE
  5
185
330
2
100
AcDbEntity
  8
GAIKEI
  6
Continuous
 62
     1
100
AcDbLine
 10
6.481418134769853
 20
23.29803105006996
 30
0.0
 11
6.541418134769855
 21
23.35803105006997
 31
0.0
  0
LINE
  5
186
330
2
100
AcDbEntity
  8
GAIKEI
  6
Continuous
 62
     1
100
AcDbLine
 10
6.701418134769824
 20
12.95803105006996
 30
0.0
 11
6.541418134769855
 21
12.95803105006996
 31
0.0
  0
LINE
  5
187
330
2
100
AcDbEntity
  8
GAIKEI
  6
Continuous
 62
     1
100
AcDbLine
 10
6.541418134769855
 20
23.35803105006997
 30
0.0
 11
6.701418134769824
 21
23.35803105006997
 31
0.0
  0
LINE
  5
188
330
2
100
AcDbEntity
  8
GAIKEI
  6
Continuous
 62
     1
100
AcDbLine
 10
5.821418134769828
 20
13.03803105006994
 30
0.0
 11
5.771418134769817
 21
13.06403105006995
 31
0.0
  0
LINE
  5
189
330
2
100
AcDbEntity
  8
GAIKEI
  6
Continuous
 62
     1
100
AcDbLine
 10
5.771418134769817
 20
23.25203105006997
 30
0.0
 11
5.821418134769828
 21
23.27803105006996
 31
0.0
  0
LINE
  5
18A
330
2
100
AcDbEntity
  8
GAIKEI
  6
Continuous
 62
     1
100
AcDbLine
 10
5.771418134769817
 20
13.06403105006995
 30
0.0
 11
5.651418134769869
 21
13.24803105006995
 31
0.0
  0
LINE
  5
18B
330
2
100
AcDbEntity
  8
GAIKEI
  6
Continuous
 62
     1
100
AcDbLine
 10
5.651418134769869
 20
23.06803105006995
 30
0.0
 11
5.771418134769817
 21
23.25203105006997
 31
0.0
  0
LINE
  5
18C
330
2
100
AcDbEntity
  8
GAIKEI
  6
Continuous
 62
     1
100
AcDbLine
 10
5.651418134769869
 20
13.24803105006995
 30
0.0
 11
5.651418134769869
 21
23.06803105006995
 31
0.0
  0
LINE
  5
18D
330
2
100
AcDbEntity
  8
GAIKEI
  6
Continuous
 62
     1
100
AcDbLine
 10
6.741418134769844
 20
22.65213305006995
 30
0.0
 11
6.761418134769826
 21
22.67248905006994
 31
0.0
  0
ARC
  5
18E
330
2
100
AcDbEntity
  8
GAIKEI
  6
Continuous
 62
     1
100
AcDbCircle
 10
-24.40853780240849
 20
18.15803105006995
 30
0.0
 40
2.8
100
AcDbArc
 50
126.8699000000011
 51
233.1300999999989
  0
ARC
  5
18F
330
2
100
AcDbEntity
  8
GAIKEI
  6
Continuous
 62
     1
100
AcDbCircle
 10
-24.40853780240849
 20
18.15803105006995
 30
0.0
 40
2.8
100
AcDbArc
 50
306.8699000000011
 51
53.13009999999884
  0
LINE
  5
190
330
2
100
AcDbEntity
  8
GAIKEI
  6
CENTERLINE
 62
     1
100
AcDbLine
 10
38.38141813476983
 20
20.05803105006996
 30
0.0
 11
38.38141813476983
 21
18.65803105006995
 31
0.0
  0
LINE
  5
192
330
2
100
AcDbEntity
  8
GAIKEI
  6
CENTERLINE
 62
     1
100
AcDbLine
 10
30.38141813476983
 20
20.55803105006996
 30
0.0
 11
36.38141813476983
 21
20.55803105006996
 31
0.0
  0
LINE
  5
193
330
2
100
AcDbEntity
  8
GAIKEI
  6
CENTERLINE
 62
     1
100
AcDbLine
 10
30.38141813476983
 20
18.15803105006995
 30
0.0
 11
36.38141813476983
 21
18.15803105006995
 31
0.0
  0
LINE
  5
194
330
2
100
AcDbEntity
  8
GAIKEI
  6
CENTERLINE
 62
     1
100
AcDbLine
 10
36.38141813476983
 20
20.55803105006996
 30
0.0
 11
36.38141813476983
 21
18.15803105006995
 31
0.0
  0
LINE
  5
195
330
2
100
AcDbEntity
  8
GAIKEI
  6
CENTERLINE
 62
     1
100
AcDbLine
 10
38.38141813476983
 20
20.05803105006996
 30
0.0
 11
40.38141813476983
 21
20.05803105006996
 31
0.0
  0
LINE
  5
196
330
2
100
AcDbEntity
  8
GAIKEI
  6
CENTERLINE
 62
     1
100
AcDbLine
 10
38.38141813476983
 20
18.65803105006995
 30
0.0
 11
40.58141813476981
 21
18.65803105006995
 31
0.0
  0
LINE
  5
197
330
2
100
AcDbEntity
  8
GAIKEI
  6
CENTERLINE
 62
     1
100
AcDbLine
 10
38.38141813476983
 20
20.05803105006996
 30
0.0
 11
36.38141813476983
 21
20.55803105006996
 31
0.0
  0
LINE
  5
198
330
2
100
AcDbEntity
  8
GAIKEI
  6
CENTERLINE
 62
     1
100
AcDbLine
 10
38.38141813476983
 20
18.65803105006995
 30
0.0
 11
36.38141813476983
 21
18.15803105006995
 31
0.0
  0
LINE
  5
199
330
2
100
AcDbEntity
  8
GAIKEI
  6
CENTERLINE
 62
     1
100
AcDbLine
 10
33.18141813476984
 20
20.55803105006996
 30
0.0
 11
33.18141813476984
 21
18.15803105006995
 31
0.0
  0
LINE
  5
19A
330
2
100
AcDbEntity
  8
GAIKEI
  6
CENTERLINE
 62
     1
100
AcDbLine
 10
32.58141813476982
 20
20.55803105006996
 30
0.0
 11
32.58141813476982
 21
18.15803105006995
 31
0.0
  0
LINE
  5
19B
330
2
100
AcDbEntity
  8
GAIKEI
  6
CENTERLINE
 62
     1
100
AcDbLine
 10
48.38141813476983
 20
12.05803105006995
 30
0.0
 11
48.38141813476983
 21
9.917056650069952
 31
0.0
  0
LINE
  5
19C
330
2
100
AcDbEntity
  8
GAIKEI
  6
CENTERLINE
 62
     1
100
AcDbLine
 10
46.98141813476979
 20
12.05803105006995
 30
0.0
 11
46.98141813476979
 21
9.917056650069952
 31
0.0
  0
ARC
  5
19D
330
2
100
AcDbEntity
  8
GAIKEI
  6
CENTERLINE
 62
     1
100
AcDbCircle
 10
40.38141813476983
 20
12.05803105006995
 30
0.0
 40
8.0
100
AcDbArc
 50
0.0
 51
90.0
  0
ARC
  5
19E
330
2
100
AcDbEntity
  8
GAIKEI
  6
CENTERLINE
 62
     1
100
AcDbCircle
 10
40.38141813476983
 20
12.05803105006995
 30
0.0
 40
6.6
100
AcDbArc
 50
0.0
 51
90.0
  0
SPLINE
  5
19F
330
2
100
AcDbEntity
  8
GAIKEI
  6
CENTERLINE
 62
     1
100
AcDbSpline
210
0.0
220
0.0
230
1.0
 70
     8
 71
     3
 72
    11
 73
     7
 74
     0
 42
0.0000000001
 43
0.0000000001
 40
0.0
 40
0.0
 40
0.0
 40
0.0
 40
0.25
 40
0.5
 40
0.75
 40
1.0
 40
1.0
 40
1.0
 40
1.0
 10
46.98141813476979
 20
9.91705665006998
 30
0.0
 10
47.09808413476986
 20
9.983723250069971
 30
0.0
 10
47.33141813476982
 20
10.05991365006997
 30
0.0
 10
47.68141813476984
 20
9.91705665006998
 30
0.0
 10
48.0314181347698
 20
9.774199450069971
 30
0.0
 10
48.26475213476982
 20
9.850389850069973
 30
0.0
 10
48.38141813476983
 20
9.91705665006998
 30
0.0
  0
SPLINE
  5
1A0
330
2
100
AcDbEntity
  8
GAIKEI
  6
CENTERLINE
 62
     1
100
AcDbSpline
210
0.0
220
0.0
230
1.0
 70
     8
 71
     3
 72
     9
 73
     5
 74
     0
 42
0.0000000001
 43
0.0000000001
 40
0.5
 40
0.5
 40
0.5
 40
0.5
 40
0.75
 40
1.0
 40
1.0
 40
1.0
 40
1.0
 10
47.68141813476984
 20
9.91705665006998
 30
0.0
 10
47.56475213476983
 20
9.869437450069995
 30
0.0
 10
47.33141813476982
 20
9.774199450069971
 30
0.0
 10
47.09808413476986
 20
9.850389850069973
 30
0.0
 10
46.98141813476979
 20
9.91705665006998
 30
0.0
  0
ARC
  5
1A1
330
2
100
AcDbEntity
  8
GAIKEI
  6
Continuous
 62
     1
100
AcDbCircle
 10
-22.17620720240848
 20
16.51803105006996
 30
0.0
 40
0.7501923800000001
100
AcDbArc
 50
294.9828999999994
 51
323.6968299999994
  0
ARC
  5
1A2
330
2
100
AcDbEntity
  8
GAIKEI
  6
Continuous
 62
     1
100
AcDbCircle
 10
-26.64086860240849
 20
16.51803105006996
 30
0.0
 40
0.7501923800000001
100
AcDbArc
 50
216.3031700000006
 51
245.0171000000005
  0
ARC
  5
1A3
330
2
100
AcDbEntity
  8
GAIKEI
  6
Continuous
 62
     1
100
AcDbCircle
 10
-24.40853780240849
 20
18.15803105006995
 30
0.0
 40
3.520192399999999
100
AcDbArc
 50
213.8678699999998
 51
216.3031700000006
  0
ARC
  5
1A4
330
2
100
AcDbEntity
  8
GAIKEI
  6
Continuous
 62
     1
100
AcDbCircle
 10
-26.7085378024085
 20
16.61436705006997
 30
0.0
 40
0.7501923800000001
100
AcDbArc
 50
180.0
 51
213.8678699999998
  0
LINE
  5
1A5
330
2
100
AcDbEntity
  8
GAIKEI
  6
Continuous
 62
     1
100
AcDbLine
 10
-27.4587302024085
 20
16.61436705006997
 30
0.0
 11
-27.4587302024085
 21
19.70169505006996
 31
0.0
  0
ARC
  5
1A6
330
2
100
AcDbEntity
  8
GAIKEI
  6
Continuous
 62
     1
100
AcDbCircle
 10
-26.7085378024085
 20
19.70169505006996
 30
0.0
 40
0.7501923800000001
100
AcDbArc
 50
146.1321300000001
 51
180.0
  0
ARC
  5
1A7
330
2
100
AcDbEntity
  8
GAIKEI
  6
Continuous
 62
     1
100
AcDbCircle
 10
-24.40853780240849
 20
18.15803105006995
 30
0.0
 40
3.520192399999999
100
AcDbArc
 50
143.6968299999993
 51
146.1321300000001
  0
ARC
  5
1A8
330
2
100
AcDbEntity
  8
GAIKEI
  6
Continuous
 62
     1
100
AcDbCircle
 10
-26.64086860240849
 20
19.79803105006996
 30
0.0
 40
0.7501923800000001
100
AcDbArc
 50
114.9828599999994
 51
143.6968299999993
  0
ARC
  5
1A9
330
2
100
AcDbEntity
  8
GAIKEI
  6
Continuous
 62
     1
100
AcDbCircle
 10
-22.17620720240848
 20
19.79803105006996
 30
0.0
 40
0.7501923800000001
100
AcDbArc
 50
36.30317000000059
 51
65.0171370000003
  0
ARC
  5
1AA
330
2
100
AcDbEntity
  8
GAIKEI
  6
Continuous
 62
     1
100
AcDbCircle
 10
-24.40853780240849
 20
18.15803105006995
 30
0.0
 40
3.520192399999999
100
AcDbArc
 50
33.86787099999982
 51
36.30317000000059
  0
ARC
  5
1AB
330
2
100
AcDbEntity
  8
GAIKEI
  6
Continuous
 62
     1
100
AcDbCircle
 10
-22.10853780240848
 20
19.70169505006996
 30
0.0
 40
0.7501923800000001
100
AcDbArc
 50
0.0
 51
33.86787099999982
  0
LINE
  5
1AC
330
2
100
AcDbEntity
  8
GAIKEI
  6
Continuous
 62
     1
100
AcDbLine
 10
-21.35834560240852
 20
19.70169505006996
 30
0.0
 11
-21.35834560240852
 21
16.61436705006997
 31
0.0
  0
ARC
  5
1AD
330
2
100
AcDbEntity
  8
GAIKEI
  6
Continuous
 62
     1
100
AcDbCircle
 10
-22.10853780240848
 20
16.61436705006997
 30
0.0
 40
0.7501923800000001
100
AcDbArc
 50
326.1321300000001
 51
0.0
  0
ARC
  5
1AE
330
2
100
AcDbEntity
  8
GAIKEI
  6
Continuous
 62
     1
100
AcDbCircle
 10
-24.40853780240849
 20
18.15803105006995
 30
0.0
 40
3.520192399999999
100
AcDbArc
 50
323.6968299999994
 51
326.1321300000001
  0
LINE
  5
1AF
330
2
100
AcDbEntity
  8
GAIKEI
  6
Continuous
 62
     1
100
AcDbLine
 10
-26.64086860240849
 20
20.39803105006996
 30
0.0
 11
-22.17620720240848
 21
20.39803105006996
 31
0.0
  0
ARC
  5
1B0
330
2
100
AcDbEntity
  8
GAIKEI
  6
Continuous
 62
     1
100
AcDbCircle
 10
-22.17620720240848
 20
19.79803105006996
 30
0.0
 40
0.6000000000000001
100
AcDbArc
 50
36.30317000000059
 51
90.0
  0
ARC
  5
1B1
330
2
100
AcDbEntity
  8
GAIKEI
  6
Continuous
 62
     1
100
AcDbCircle
 10
-26.64086860240849
 20
19.79803105006996
 30
0.0
 40
0.6000000000000001
100
AcDbArc
 50
90.0
 51
143.6968299999993
  0
ARC
  5
1B2
330
2
100
AcDbEntity
  8
GAIKEI
  6
Continuous
 62
     1
100
AcDbCircle
 10
-24.40853780240849
 20
18.15803105006995
 30
0.0
 40
3.37
100
AcDbArc
 50
33.86787099999982
 51
36.30317000000059
  0
ARC
  5
1B3
330
2
100
AcDbEntity
  8
GAIKEI
  6
Continuous
 62
     1
100
AcDbCircle
 10
-24.40853780240849
 20
18.15803105006995
 30
0.0
 40
3.37
100
AcDbArc
 50
143.6968299999993
 51
146.1321300000001
  0
ARC
  5
1B4
330
2
100
AcDbEntity
  8
GAIKEI
  6
Continuous
 62
     1
100
AcDbCircle
 10
-22.10853780240848
 20
19.70169505006996
 30
0.0
 40
0.6000000000000001
100
AcDbArc
 50
0.0
 51
33.86787099999982
  0
ARC
  5
1B5
330
2
100
AcDbEntity
  8
GAIKEI
  6
Continuous
 62
     1
100
AcDbCircle
 10
-26.7085378024085
 20
19.70169505006996
 30
0.0
 40
0.6000000000000001
100
AcDbArc
 50
146.1321300000001
 51
180.0
  0
LINE
  5
1B6
330
2
100
AcDbEntity
  8
GAIKEI
  6
Continuous
 62
     1
100
AcDbLine
 10
-21.50853780240851
 20
19.70169505006996
 30
0.0
 11
-21.50853780240851
 21
16.61436705006997
 31
0.0
  0
LINE
  5
1B7
330
2
100
AcDbEntity
  8
GAIKEI
  6
Continuous
 62
     1
100
AcDbLine
 10
-27.30853780240853
 20
16.61436705006997
 30
0.0
 11
-27.30853780240853
 21
19.70169505006996
 31
0.0
  0
ARC
  5
1B8
330
2
100
AcDbEntity
  8
GAIKEI
  6
Continuous
 62
     1
100
AcDbCircle
 10
-22.10853780240848
 20
16.61436705006997
 30
0.0
 40
0.6000000000000001
100
AcDbArc
 50
326.1321300000001
 51
0.0
  0
ARC
  5
1B9
330
2
100
AcDbEntity
  8
GAIKEI
  6
Continuous
 62
     1
100
AcDbCircle
 10
-26.7085378024085
 20
16.61436705006997
 30
0.0
 40
0.6000000000000001
100
AcDbArc
 50
180.0
 51
213.8678699999998
  0
ARC
  5
1BA
330
2
100
AcDbEntity
  8
GAIKEI
  6
Continuous
 62
     1
100
AcDbCircle
 10
-24.40853780240849
 20
18.15803105006995
 30
0.0
 40
3.37
100
AcDbArc
 50
323.6968299999994
 51
326.1321300000001
  0
ARC
  5
1BB
330
2
100
AcDbEntity
  8
GAIKEI
  6
Continuous
 62
     1
100
AcDbCircle
 10
-24.40853780240849
 20
18.15803105006995
 30
0.0
 40
3.37
100
AcDbArc
 50
213.8678699999998
 51
216.3031700000006
  0
ARC
  5
1BC
330
2
100
AcDbEntity
  8
GAIKEI
  6
Continuous
 62
     1
100
AcDbCircle
 10
-22.17620720240848
 20
16.51803105006996
 30
0.0
 40
0.6000000000000001
100
AcDbArc
 50
270.0
 51
323.6968299999994
  0
ARC
  5
1BD
330
2
100
AcDbEntity
  8
GAIKEI
  6
Continuous
 62
     1
100
AcDbCircle
 10
-26.64086860240849
 20
16.51803105006996
 30
0.0
 40
0.6000000000000001
100
AcDbArc
 50
216.3031700000006
 51
270.0
  0
LINE
  5
1BE
330
2
100
AcDbEntity
  8
GAIKEI
  6
Continuous
 62
     1
100
AcDbLine
 10
-22.17620720240848
 20
15.91803105006994
 30
0.0
 11
-26.64086860240849
 21
15.91803105006994
 31
0.0
  0
ARC
  5
1BF
330
2
100
AcDbEntity
  8
GAIKEI
  6
Continuous
 62
     1
100
AcDbCircle
 10
-24.40853780240849
 20
18.15803105006995
 30
0.0
 40
4.91
100
AcDbArc
 50
90.0
 51
270.0
  0
ARC
  5
1C0
330
2
100
AcDbEntity
  8
GAIKEI
  6
Continuous
 62
     1
100
AcDbCircle
 10
-24.40853780240849
 20
18.15803105006995
 30
0.0
 40
4.91
100
AcDbArc
 50
270.0
 51
90.0
  0
ARC
  5
1C1
330
2
100
AcDbEntity
  8
GAIKEI
  6
Continuous
 62
     1
100
AcDbCircle
 10
-24.40853780240849
 20
18.15803105006995
 30
0.0
 40
4.629999999999999
100
AcDbArc
 50
270.6000000000002
 51
90.60000000000012
  0
ARC
  5
1C2
330
2
100
AcDbEntity
  8
GAIKEI
  6
Continuous
 62
     1
100
AcDbCircle
 10
-24.40853780240849
 20
18.15803105006995
 30
0.0
 40
4.629999999999999
100
AcDbArc
 50
90.60000000000012
 51
270.6000000000002
  0
LINE
  5
1C3
330
2
100
AcDbEntity
  8
GAIKEI
  6
Continuous
 62
     1
100
AcDbLine
 10
-24.40853780240849
 20
12.95803105006996
 30
0.0
 11
-24.40853780240849
 21
13.01803105006996
 31
0.0
  0
LINE
  5
1C4
330
2
100
AcDbEntity
  8
GAIKEI
  6
Continuous
 62
     1
100
AcDbLine
 10
-24.40853780240849
 20
23.29803105006996
 30
0.0
 11
-24.40853780240849
 21
23.35803105006997
 31
0.0
  0
LINE
  5
1C5
330
2
100
AcDbEntity
  8
GAIKEI
  6
Continuous
 62
     1
100
AcDbLine
 10
-24.40853780240849
 20
13.03803105006994
 30
0.0
 11
-24.40853780240849
 21
13.06403105006995
 31
0.0
  0
ARC
  5
1C6
330
2
100
AcDbEntity
  8
GAIKEI
  6
Continuous
 62
     1
100
AcDbCircle
 10
-24.40853780240849
 20
18.15803105006995
 30
0.0
 40
5.094
100
AcDbArc
 50
90.0
 51
270.0
  0
LINE
  5
1C7
330
2
100
AcDbEntity
  8
GAIKEI
  6
Continuous
 62
     1
100
AcDbLine
 10
-24.40853780240849
 20
23.25203105006997
 30
0.0
 11
-24.40853780240849
 21
23.27803105006996
 31
0.0
  0
ARC
  5
1C8
330
2
100
AcDbEntity
  8
GAIKEI
  6
Continuous
 62
     1
100
AcDbCircle
 10
-24.40853780240849
 20
18.15803105006995
 30
0.0
 40
5.094
100
AcDbArc
 50
270.0
 51
90.0
  0
LINE
  5
1C9
330
2
100
AcDbEntity
  8
GAIKEI
  6
Continuous
 62
     1
100
AcDbLine
 10
-24.40853780240849
 20
13.06403105006995
 30
0.0
 11
-24.40853780240849
 21
13.24803105006995
 31
0.0
  0
LINE
  5
1CA
330
2
100
AcDbEntity
  8
GAIKEI
  6
Continuous
 62
     1
100
AcDbLine
 10
-24.40853780240849
 20
23.06803105006995
 30
0.0
 11
-24.40853780240849
 21
23.25203105006997
 31
0.0
  0
ARC
  5
1CB
330
2
100
AcDbEntity
  8
GAIKEI
  6
Continuous
 62
     1
100
AcDbCircle
 10
-24.40853780240849
 20
18.15803105006995
 30
0.0
 40
4.2188
100
AcDbArc
 50
270.0
 51
90.0
  0
ARC
  5
1CC
330
2
100
AcDbEntity
  8
GAIKEI
  6
Continuous
 62
     1
100
AcDbCircle
 10
-24.40853780240849
 20
18.15803105006995
 30
0.0
 40
4.2188
100
AcDbArc
 50
90.0
 51
270.0
  0
LINE
  5
1CD
330
2
100
AcDbEntity
  8
GAIKEI
  6
Continuous
 62
     1
100
AcDbLine
 10
-21.53389040240847
 20
15.53964705006996
 30
0.0
 11
-27.28318540240849
 21
15.53964705006996
 31
0.0
  0
ARC
  5
1CE
330
2
100
AcDbEntity
  8
GAIKEI
  6
Continuous
 62
     1
100
AcDbCircle
 10
-24.40853780240849
 20
18.15803105006995
 30
0.0
 40
3.749961799999999
100
AcDbArc
 50
136.7976419262173
 51
218.2192899999998
  0
ARC
  5
1CF
330
2
100
AcDbEntity
  8
GAIKEI
  6
Continuous
 62
     1
100
AcDbCircle
 10
-24.40853780240849
 20
18.15803105006995
 30
0.0
 40
3.749961799999999
100
AcDbArc
 50
321.7807100000002
 51
43.2023580737813
  0
LINE
  5
1D0
330
2
100
AcDbEntity
  8
GAIKEI
  6
Continuous
 62
     1
100
AcDbLine
 10
-21.46238560240852
 20
20.47803105006997
 30
0.0
 11
-27.35469020240851
 21
20.47803105006997
 31
0.0
  0
ARC
  5
1D1
330
2
100
AcDbEntity
  8
GAIKEI
  6
Continuous
 62
     1
100
AcDbCircle
 10
-24.40853780240849
 20
18.15803105006995
 30
0.0
 40
4.4959854
100
AcDbArc
 50
270.0
 51
90.0
  0
ARC
  5
1D2
330
2
100
AcDbEntity
  8
GAIKEI
  6
Continuous
 62
     1
100
AcDbCircle
 10
-24.40853780240849
 20
18.15803105006995
 30
0.0
 40
4.4959854
100
AcDbArc
 50
90.0
 51
270.0
  0
ARC
  5
1D3
330
2
100
AcDbEntity
  8
GAIKEI
  6
Continuous
 62
     1
100
AcDbCircle
 10
-24.40853780240849
 20
18.15803105006995
 30
0.0
 40
4.339999999999999
100
AcDbArc
 50
89.99997599999888
 51
270.0
  0
ARC
  5
1D4
330
2
100
AcDbEntity
  8
GAIKEI
  6
Continuous
 62
     1
100
AcDbCircle
 10
-24.40853780240849
 20
18.15803105006995
 30
0.0
 40
4.339999999999999
100
AcDbArc
 50
270.0
 51
90.0
  0
LINE
  5
1D5
330
2
100
AcDbEntity
  8
GAIKEI
  6
Continuous
 62
     1
100
AcDbLine
 10
-27.14203665743204
 20
20.72516905006998
 30
0.0
 11
-21.67503894738488
 21
20.72516905006992
 31
0.0
  0
LINE
  5
1D6
330
2
100
AcDbEntity
  8
GAIKEI
  6
Continuous
 62
     1
100
AcDbLine
 10
-27.35469040240849
 20
15.83803105006996
 30
0.0
 11
-21.46238540240847
 21
15.83803105006996
 31
0.0
  0
LINE
  5
1D7
330
2
100
AcDbEntity
  8
GAIKEI
  6
Continuous
 62
     1
100
AcDbLine
 10
-24.40853780240849
 20
22.45803105006996
 30
0.0
 11
-24.40853600240848
 21
22.49803105006995
 31
0.0
  0
LINE
  5
1D8
330
2
100
AcDbEntity
  8
GAIKEI
  6
Continuous
 62
     1
100
AcDbLine
 10
-24.40853780240849
 20
13.81803105006994
 30
0.0
 11
-24.40853780240849
 21
13.85803105006997
 31
0.0
  0
ARC
  5
1D9
330
2
100
AcDbEntity
  8
GAIKEI
  6
Continuous
 62
     1
100
AcDbCircle
 10
-26.74853780240852
 20
22.91349105006995
 30
0.0
 40
0.1
100
AcDbArc
 50
116.2002299999988
 51
176.6672399999999
  0
ARC
  5
1DA
330
2
100
AcDbEntity
  8
GAIKEI
  6
Continuous
 62
     1
100
AcDbCircle
 10
-22.06853780240852
 20
22.91349105006995
 30
0.0
 40
0.1
100
AcDbArc
 50
0.0
 51
63.79977100000095
  0
ARC
  5
1DB
330
2
100
AcDbEntity
  8
GAIKEI
  6
Continuous
 62
     1
100
AcDbCircle
 10
-24.40853780240849
 20
18.15803105006995
 30
0.0
 40
5.4
100
AcDbArc
 50
115.001470000001
 51
116.2002299999988
  0
ARC
  5
1DC
330
2
100
AcDbEntity
  8
GAIKEI
  6
Continuous
 62
     1
100
AcDbCircle
 10
-24.40853780240849
 20
18.15803105006995
 30
0.0
 40
5.4
100
AcDbArc
 50
64.99852999999899
 51
115.001470000001
  0
ARC
  5
1DD
330
2
100
AcDbEntity
  8
GAIKEI
  6
Continuous
 62
     1
100
AcDbCircle
 10
-24.40853780240849
 20
18.15803105006995
 30
0.0
 40
5.4
100
AcDbArc
 50
63.79976799999869
 51
64.99852999999899
  0
LINE
  5
1DE
330
2
100
AcDbEntity
  8
GAIKEI
  6
Continuous
 62
     1
100
AcDbLine
 10
-20.4082638024085
 20
12.35803105006997
 30
0.0
 11
-20.41108800240852
 21
12.36085505006997
 31
0.0
  0
ARC
  5
1DF
330
2
100
AcDbEntity
  8
GAIKEI
  6
Continuous
 62
     1
100
AcDbCircle
 10
-20.40853820240852
 20
13.15803105006995
 30
0.0
 40
0.80038794
100
AcDbArc
 50
270.0473800000004
 51
359.95262
  0
LINE
  5
1E0
330
2
100
AcDbEntity
  8
GAIKEI
  6
Continuous
 62
     1
100
AcDbLine
 10
-19.61136220240848
 20
14.82974305006996
 30
0.0
 11
-19.91125940240852
 21
14.82974305006996
 31
0.0
  0
SPLINE
  5
1E1
330
2
100
AcDbEntity
  8
GAIKEI
  6
Continuous
 62
     1
100
AcDbSpline
210
0.0
220
0.0
230
1.0
 70
     8
 71
     3
 72
     9
 73
     5
 74
     0
 42
0.0000000001
 43
0.0000000001
 40
0.0
 40
0.0
 40
0.0
 40
0.0
 40
0.0031511409
 40
0.006448047
 40
0.006448047
 40
0.006448047
 40
0.006448047
 10
-19.8890300024085
 20
15.31455905006999
 30
0.0
 10
-19.77657600240849
 20
15.49327305006997
 30
0.0
 10
-19.57082680240847
 20
15.86386705006998
 30
0.0
 10
-19.41456720240848
 20
16.24354105006998
 30
0.0
 10
-19.34563560240849
 20
16.43776705006999
 30
0.0
  0
LINE
  5
1E2
330
2
100
AcDbEntity
  8
GAIKEI
  6
Continuous
 62
     1
100
AcDbLine
 10
-19.60853780240848
 20
13.16058105006996
 30
0.0
 11
-19.91125940240852
 21
13.16058105006996
 31
0.0
  0
LINE
  5
1E3
330
2
100
AcDbEntity
  8
GAIKEI
  6
Continuous
 62
     1
100
AcDbLine
 10
-19.91125940240852
 20
13.16058105006996
 30
0.0
 11
-19.91125940240852
 21
14.82974305006996
 31
0.0
  0
LINE
  5
1E4
330
2
100
AcDbEntity
  8
GAIKEI
  6
Continuous
 62
     1
100
AcDbLine
 10
-20.41108800240852
 20
12.36085505006997
 30
0.0
 11
-20.41108800240852
 21
12.66075305006995
 31
0.0
  0
SPLINE
  5
1E5
330
2
100
AcDbEntity
  8
GAIKEI
  6
Continuous
 62
     1
100
AcDbSpline
210
0.0
220
0.0
230
1.0
 70
     8
 71
     3
 72
    11
 73
     7
 74
     0
 42
0.0000000001
 43
0.0000000001
 40
2.0
 40
2.0
 40
2.0
 40
2.0
 40
2.4721766
 40
2.872736299999999
 40
3.3418339
 40
3.6937259
 40
3.6937259
 40
3.6937259
 40
3.6937259
 10
-20.41108940240849
 20
12.66075305006998
 30
0.0
 10
-20.3381548024085
 20
12.66075305006998
 30
0.0
 10
-20.20336020240848
 20
12.69074305006998
 30
0.0
 10
-20.03205480240848
 20
12.81394905006999
 30
0.0
 10
-19.93204180240849
 20
12.97929905006998
 30
0.0
 10
-19.91125940240852
 20
13.10622705006997
 30
0.0
 10
-19.91125980240849
 20
13.16058105006999
 30
0.0
  0
LINE
  5
1E6
330
2
100
AcDbEntity
  8
GAIKEI
  6
Continuous
 62
     1
100
AcDbLine
 10
-28.40598780240851
 20
12.35803105006997
 30
0.0
 11
-28.40598780240851
 21
12.66075305006995
 31
0.0
  0
LINE
  5
1E7
330
2
100
AcDbEntity
  8
GAIKEI
  6
Continuous
 62
     1
100
AcDbLine
 10
-28.40598780240851
 20
12.66075305006995
 30
0.0
 11
-20.41108800240852
 21
12.66075305006995
 31
0.0
  0
LINE
  5
1E8
330
2
100
AcDbEntity
  8
GAIKEI
  6
Continuous
 62
     1
100
AcDbLine
 10
-29.2085378024085
 20
13.16058105006993
 30
0.0
 11
-28.90581640240851
 21
13.16058105006996
 31
0.0
  0
SPLINE
  5
1E9
330
2
100
AcDbEntity
  8
GAIKEI
  6
Continuous
 62
     1
100
AcDbSpline
210
0.0
220
0.0
230
1.0
 70
     8
 71
     3
 72
    11
 73
     7
 74
     0
 42
0.0000000001
 43
0.0000000001
 40
2.0
 40
2.0
 40
2.0
 40
2.0
 40
2.4721766
 40
2.872736299999999
 40
3.3418339
 40
3.6937259
 40
3.6937259
 40
3.6937259
 40
3.6937259
 10
-28.90581540240851
 20
13.16058105006999
 30
0.0
 10
-28.90581640240851
 20
13.08764905006998
 30
0.0
 10
-28.87582700240853
 20
12.95285305006999
 30
0.0
 10
-28.75262060240851
 20
12.78154905006997
 30
0.0
 10
-28.5872700024085
 20
12.68153505006998
 30
0.0
 10
-28.46034160240851
 20
12.66075305006998
 30
0.0
 10
-28.4059888024085
 20
12.66075305006998
 30
0.0
  0
LINE
  5
1EA
330
2
100
AcDbEntity
  8
GAIKEI
  6
Continuous
 62
     1
100
AcDbLine
 10
-28.90581640240851
 20
14.82974305006996
 30
0.0
 11
-29.20571360240848
 21
14.82974305006996
 31
0.0
  0
LINE
  5
1EB
330
2
100
AcDbEntity
  8
GAIKEI
  6
Continuous
 62
     1
100
AcDbLine
 10
-28.90581640240851
 20
14.82974305006996
 30
0.0
 11
-28.90581640240851
 21
13.16058105006996
 31
0.0
  0
SPLINE
  5
1EC
330
2
100
AcDbEntity
  8
GAIKEI
  6
Continuous
 62
     1
100
AcDbSpline
210
0.0
220
0.0
230
1.0
 70
     8
 71
     3
 72
     9
 73
     5
 74
     0
 42
0.0000000001
 43
0.0000000001
 40
0.0
 40
0.0
 40
0.0
 40
0.0
 40
0.0031994157
 40
0.0064485234
 40
0.0064485234
 40
0.0064485234
 40
0.0064485234
 10
-29.47143960240851
 20
16.43776705006999
 30
0.0
 10
-29.40438580240851
 20
16.24932705006998
 30
0.0
 10
-29.24907300240852
 20
15.86936705006997
 30
0.0
 10
-29.04376120240852
 20
15.49874905006999
 30
0.0
 10
-28.9280452024085
 20
15.31455905006999
 30
0.0
  0
SPLINE
  5
1ED
330
2
100
AcDbEntity
  8
GAIKEI
  6
Continuous
 62
     1
100
AcDbSpline
210
0.0
220
0.0
230
1.0
 70
     8
 71
     3
 72
     8
 73
     4
 74
     0
 42
0.0000000001
 43
0.0000000001
 40
4.6962859
 40
4.6962859
 40
4.6962859
 40
4.6962859
 40
5.7439809
 40
5.7439809
 40
5.7439809
 40
5.7439809
 10
-28.9280452024085
 20
15.31455905006999
 30
0.0
 10
-28.91323660240852
 20
15.15340905006997
 30
0.0
 10
-28.90581640240851
 20
14.99157105006998
 30
0.0
 10
-28.90581540240851
 20
14.82974305006999
 30
0.0
  0
ARC
  5
1EE
330
2
100
AcDbEntity
  8
GAIKEI
  6
Continuous
 62
     1
100
AcDbCircle
 10
-24.40853780240849
 20
18.15803105006995
 30
0.0
 40
5.3395256
100
AcDbArc
 50
212.1762699999998
 51
327.8237300000002
  0
ARC
  5
1EF
330
2
100
AcDbEntity
  8
GAIKEI
  6
Continuous
 62
     1
100
AcDbCircle
 10
-24.40853780240849
 20
18.15803105006995
 30
0.0
 40
5.35
100
AcDbArc
 50
341.2359200000003
 51
198.7640799999997
  0
LINE
  5
1F0
330
2
100
AcDbEntity
  8
GAIKEI
  6
Continuous
 62
     1
100
AcDbLine
 10
-21.7096064024085
 20
22.77736705006995
 30
0.0
 11
-21.7096054024085
 21
22.77736705006995
 31
0.0
  0
ARC
  5
1F1
330
2
100
AcDbEntity
  8
GAIKEI
  6
Continuous
 62
     1
100
AcDbCircle
 10
-21.70960500240852
 20
22.77594308722215
 30
0.0
 40
0.0014239629039907
100
AcDbArc
 50
89.98390526035123
 51
90.01609473953479
  0
ARC
  5
1F2
330
2
100
AcDbEntity
  8
GAIKEI
  6
Continuous
 62
     1
100
AcDbCircle
 10
-21.70960410240849
 20
22.77564196516246
 30
0.0
 40
0.0017250849799628
100
AcDbArc
 50
89.98339334559368
 51
90.01660665450076
  0
ARC
  5
1F3
330
2
100
AcDbEntity
  8
GAIKEI
  6
Continuous
 62
     1
100
AcDbCircle
 10
-21.71294088801011
 20
22.77603097582838
 30
0.0
 40
0.0035947975695111
100
AcDbArc
 50
21.78424318071588
 51
21.81857581994956
  0
ARC
  5
1F4
330
2
100
AcDbEntity
  8
GAIKEI
  6
Continuous
 62
     1
100
AcDbCircle
 10
-21.70960230240849
 20
22.77574931152631
 30
0.0
 40
0.001615738621024
100
AcDbArc
 50
89.98226947739723
 51
90.01773052260276
  0
ARC
  5
1F5
330
2
100
AcDbEntity
  8
GAIKEI
  6
Continuous
 62
     1
100
AcDbCircle
 10
-21.70960140240851
 20
22.7761159868981
 30
0.0
 40
0.0012490632359029
100
AcDbArc
 50
89.98165159979206
 51
90.01834840034147
  0
ARC
  5
1F6
330
2
100
AcDbEntity
  8
GAIKEI
  6
Continuous
 62
     1
100
AcDbCircle
 10
-21.7096006024085
 20
22.77615707772574
 30
0.0
 40
0.0012079724104394
100
AcDbArc
 50
89.98102745383121
 51
90.01897254603527
  0
ARC
  5
1F7
330
2
100
AcDbEntity
  8
GAIKEI
  6
Continuous
 62
     1
100
AcDbCircle
 10
-21.71251464575573
 20
22.77619811273436
 30
0.0
 40
0.0031393825459129
100
AcDbArc
 50
21.78175287566641
 51
21.82106598478219
  0
ARC
  5
1F8
330
2
100
AcDbEntity
  8
GAIKEI
  6
Continuous
 62
     1
100
AcDbCircle
 10
-21.70959900240848
 20
22.77623675845899
 30
0.0
 40
0.0011262916820081
100
AcDbArc
 50
89.97965153024169
 51
90.02034846990161
  0
ARC
  5
1F9
330
2
100
AcDbEntity
  8
GAIKEI
  6
Continuous
 62
     1
100
AcDbCircle
 10
-21.70959820240853
 20
22.77627740815475
 30
0.0
 40
0.0010856419888997
100
AcDbArc
 50
89.978889622302
 51
90.02111037754492
  0
ARC
  5
1FA
330
2
100
AcDbEntity
  8
GAIKEI
  6
Continuous
 62
     1
100
AcDbCircle
 10
-21.70959740240852
 20
22.77631584635427
 30
0.0
 40
0.0010472037920827
100
AcDbArc
 50
89.97811475428513
 51
90.02188524571486
  0
ARC
  5
1FB
330
2
100
AcDbEntity
  8
GAIKEI
  6
Continuous
 62
     1
100
AcDbCircle
 10
-21.7121172959445
 20
22.77635377265483
 30
0.0
 40
0.0027148702378437
100
AcDbArc
 50
21.77867933671531
 51
21.82413966396789
  0
ARC
  5
1FC
330
2
100
AcDbEntity
  8
GAIKEI
  6
Continuous
 62
     1
100
AcDbCircle
 10
-21.7095958024085
 20
22.77638912466262
 30
0.0
 40
0.000971925489644
100
AcDbArc
 50
89.97641968154786
 51
90.02358031828277
  0
ARC
  5
1FD
330
2
100
AcDbEntity
  8
GAIKEI
  6
Continuous
 62
     1
100
AcDbCircle
 10
-21.70959510240852
 20
22.77666086053589
 30
0.0
 40
0.0007001895983376
100
AcDbArc
 50
89.97545131436195
 51
90.02454868586928
  0
ARC
  5
1FE
330
2
100
AcDbEntity
  8
GAIKEI
  6
Continuous
 62
     1
100
AcDbCircle
 10
-21.70959440240847
 20
22.77646456782372
 30
0.0
 40
0.0008964823354851
100
AcDbArc
 50
89.97443528823639
 51
90.0255647117636
  0
ARC
  5
1FF
330
2
100
AcDbEntity
  8
GAIKEI
  6
Continuous
 62
     1
100
AcDbCircle
 10
-21.70959370240848
 20
22.77671421399432
 30
0.0
 40
0.0006468361451981
100
AcDbArc
 50
89.9734264469939
 51
90.02657355275207
  0
ARC
  5
200
330
2
100
AcDbEntity
  8
GAIKEI
  6
Continuous
 62
     1
100
AcDbCircle
 10
-21.7116769434387
 20
22.77652647365727
 30
0.0
 40
0.0022444734378251
100
AcDbArc
 50
21.77391554816094
 51
21.82890345262046
  0
ARC
  5
201
330
2
100
AcDbEntity
  8
GAIKEI
  6
Continuous
 62
     1
100
AcDbCircle
 10
-21.70959230240851
 20
22.77676513112701
 30
0.0
 40
0.0005939190187077
100
AcDbArc
 50
89.97105879084397
 51
90.02894120915604
  0
ARC
  5
202
330
2
100
AcDbEntity
  8
GAIKEI
  6
Continuous
 62
     1
100
AcDbCircle
 10
-21.70959170240849
 20
22.77680117835524
 30
0.0
 40
0.0005578717953626
100
AcDbArc
 50
89.96918873694289
 51
90.03081126305712
  0
ARC
  5
203
330
2
100
AcDbEntity
  8
GAIKEI
  6
Continuous
 62
     1
100
AcDbCircle
 10
-21.7095910024085
 20
22.7766274810912
 30
0.0
 40
0.0007315690881101
100
AcDbArc
 50
89.96867238730406
 51
90.03132761247121
  0
ARC
  5
204
330
2
100
AcDbEntity
  8
GAIKEI
  6
Continuous
 62
     1
100
AcDbCircle
 10
-21.70959030240851
 20
22.77679568506162
 30
0.0
 40
0.0005633650882154
100
AcDbArc
 50
89.96948917321436
 51
90.03051082707223
  0
ARC
  5
205
330
2
100
AcDbEntity
  8
GAIKEI
  6
Continuous
 62
     1
100
AcDbCircle
 10
-21.71121717927082
 20
22.77686980701128
 30
0.0
 40
0.0016991360486137
100
AcDbArc
 50
16.66403895797958
 51
16.73444951002505
  0
ARC
  5
206
330
2
100
AcDbEntity
  8
GAIKEI
  6
Continuous
 62
     1
100
AcDbCircle
 10
-21.70958910240847
 20
22.77696814743922
 30
0.0
 40
0.0003889027464479
100
AcDbArc
 50
89.95580196891017
 51
90.04419803066971
  0
ARC
  5
207
330
2
100
AcDbEntity
  8
GAIKEI
  6
Continuous
 62
     1
100
AcDbCircle
 10
-21.70958850240851
 20
22.77687262878246
 30
0.0
 40
0.0004844213804014
100
AcDbArc
 50
89.9645169771494
 51
90.03548302318604
  0
ARC
  5
208
330
2
100
AcDbEntity
  8
GAIKEI
  6
Continuous
 62
     1
100
AcDbCircle
 10
-21.70958800240851
 20
22.77644419989107
 30
0.0
 40
0.0009128502008044
100
AcDbArc
 50
89.98744683853344
 51
90.01255316146655
  0
ARC
  5
209
330
2
100
AcDbEntity
  8
GAIKEI
  6
Continuous
 62
     1
100
AcDbCircle
 10
-21.70958750240851
 20
22.77703280089992
 30
0.0
 40
0.0003242493088283
100
AcDbArc
 50
89.94698913472541
 51
90.05301086477302
  0
ARC
  5
20A
330
2
100
AcDbEntity
  8
GAIKEI
  6
Continuous
 62
     1
100
AcDbCircle
 10
-21.71015467080002
 20
22.77707206587582
 30
0.0
 40
0.0006350089497485
100
AcDbArc
 50
26.46417268569675
 51
26.66592940789313
  0
ARC
  5
20B
330
2
100
AcDbEntity
  8
GAIKEI
  6
Continuous
 62
     1
100
AcDbCircle
 10
-21.70958560240848
 20
22.7767199283526
 30
0.0
 40
0.0006351220007676
100
AcDbArc
 50
89.94587264674354
 51
90.05412735325647
  0
LINE
  5
20C
330
2
100
AcDbEntity
  8
GAIKEI
  6
Continuous
 62
     1
100
AcDbLine
 10
13.41142013476985
 20
23.45803305006996
 30
0.0
 11
13.41139213476981
 21
23.46040305006994
 31
0.0
  0
ARC
  5
20D
330
2
100
AcDbEntity
  8
GAIKEI
  6
Continuous
 62
     1
100
AcDbCircle
 10
13.31424425831756
 20
23.45809997327962
 30
0.0
 40
0.0971751720445848
100
AcDbArc
 50
1.358051997376036
 51
2.7669969613849
  0
ARC
  5
20E
330
2
100
AcDbEntity
  8
GAIKEI
  6
Continuous
 62
     1
100
AcDbCircle
 10
13.3103175879271
 20
23.45796618171113
 30
0.0
 40
0.1011037385465638
100
AcDbArc
 50
2.735305675114694
 51
4.103527944218673
  0
ARC
  5
20F
330
2
100
AcDbEntity
  8
GAIKEI
  6
Continuous
 62
     1
100
AcDbCircle
 10
13.30873722642309
 20
23.45780981540264
 30
0.0
 40
0.1026912469480734
100
AcDbArc
 50
4.127450595474332
 51
5.485827254121198
  0
ARC
  5
210
330
2
100
AcDbEntity
  8
GAIKEI
  6
Continuous
 62
     1
100
AcDbCircle
 10
13.31006163446204
 20
23.45787217329607
 30
0.0
 40
0.1013669640229553
100
AcDbArc
 50
5.522307564138926
 51
6.910800873904322
  0
ARC
  5
211
330
2
100
AcDbEntity
  8
GAIKEI
  6
Continuous
 62
     1
100
AcDbCircle
 10
13.31024237073353
 20
23.45790383728351
 30
0.0
 40
0.1011837313854641
100
AcDbArc
 50
6.905315545843671
 51
8.30841999791691
  0
ARC
  5
212
330
2
100
AcDbEntity
  8
GAIKEI
  6
Continuous
 62
     1
100
AcDbCircle
 10
13.31016061605152
 20
23.45779366580112
 30
0.0
 40
0.1012805946171773
100
AcDbArc
 50
8.363408188327658
 51
9.777304099129883
  0
ARC
  5
213
330
2
100
AcDbEntity
  8
GAIKEI
  6
Continuous
 62
     1
100
AcDbCircle
 10
13.3099545987028
 20
23.45777295898816
 30
0.0
 40
0.1014871370748262
100
AcDbArc
 50
9.769072989149211
 51
11.19067832501199
  0
ARC
  5
214
330
2
100
AcDbEntity
  8
GAIKEI
  6
Continuous
 62
     1
100
AcDbCircle
 10
13.31026219780949
 20
23.45773215770845
 30
0.0
 40
0.1011933540639761
100
AcDbArc
 50
11.24714144778763
 51
12.68370145485567
  0
ARC
  5
215
330
2
100
AcDbEntity
  8
GAIKEI
  6
Continuous
 62
     1
100
AcDbCircle
 10
13.31015544338669
 20
23.45780866876825
 30
0.0
 40
0.1012807514238708
100
AcDbArc
 50
12.62821416941346
 51
14.07367774904246
  0
ARC
  5
216
330
2
100
AcDbEntity
  8
GAIKEI
  6
Continuous
 62
     1
100
AcDbCircle
 10
13.31024195380632
 20
23.45767444131582
 30
0.0
 40
0.1012295906982245
100
AcDbArc
 50
14.15927662187494
 51
15.61760978383604
  0
ARC
  5
217
330
2
100
AcDbEntity
  8
GAIKEI
  6
Continuous
 62
     1
100
AcDbCircle
 10
13.31023163016044
 20
23.45772401975802
 30
0.0
 40
0.1012261985024726
100
AcDbArc
 50
15.58901046321936
 51
17.05526254208782
  0
ARC
  5
218
330
2
100
AcDbEntity
  8
GAIKEI
  6
Continuous
 62
     1
100
AcDbCircle
 10
13.31035280014555
 20
23.45765558642268
 30
0.0
 40
0.1011304787723047
100
AcDbArc
 50
17.11246300226955
 51
18.59100729158312
  0
ARC
  5
219
330
2
100
AcDbEntity
  8
GAIKEI
  6
Continuous
 62
     1
100
AcDbCircle
 10
13.31023021525698
 20
23.45759262796509
 30
0.0
 40
0.1012667409067389
100
AcDbArc
 50
18.60265795881814
 51
20.08862841016584
  0
ARC
  5
21A
330
2
100
AcDbEntity
  8
GAIKEI
  6
Continuous
 62
     1
100
AcDbCircle
 10
13.31049969938721
 20
23.45763706496859
 30
0.0
 40
0.1009984013981666
100
AcDbArc
 50
20.1174622823757
 51
21.61464029895119
  0
ARC
  5
21B
330
2
100
AcDbEntity
  8
GAIKEI
  6
Continuous
 62
     1
100
AcDbCircle
 10
13.31032934022948
 20
23.4576686848842
 30
0.0
 40
0.1011451757060168
100
AcDbArc
 50
21.56243982375006
 51
23.06635338092699
  0
ARC
  5
21C
330
2
100
AcDbEntity
  8
GAIKEI
  6
Continuous
 62
     1
100
AcDbCircle
 10
13.3105166699886
 20
23.45757378658902
 30
0.0
 40
0.1010101313343846
100
AcDbArc
 50
23.15751068645379
 51
24.67156747161398
  0
ARC
  5
21D
330
2
100
AcDbEntity
  8
GAIKEI
  6
Continuous
 62
     1
100
AcDbCircle
 10
13.31044534426888
 20
23.45760426019532
 30
0.0
 40
0.1010622422771072
100
AcDbArc
 50
24.63898888841494
 51
26.15907473594113
  0
ARC
  5
21E
330
2
100
AcDbEntity
  8
GAIKEI
  6
Continuous
 62
     1
100
AcDbCircle
 10
13.31061919331267
 20
23.45757175821152
 30
0.0
 40
0.100920584439901
100
AcDbArc
 50
26.21915029062347
 51
27.74820528092808
  0
ARC
  5
21F
330
2
100
AcDbEntity
  8
GAIKEI
  6
Continuous
 62
     1
100
AcDbCircle
 10
13.31056794825304
 20
23.45757771900662
 30
0.0
 40
0.1009631653675737
100
AcDbArc
 50
27.73167177835555
 51
29.26599116767524
  0
ARC
  5
220
330
2
100
AcDbEntity
  8
GAIKEI
  6
Continuous
 62
     1
100
AcDbCircle
 10
13.31065358337065
 20
23.45758139053675
 30
0.0
 40
0.1008866732767724
100
AcDbArc
 50
29.28794766132748
 51
30.82999443643566
  0
ARC
  5
221
330
2
100
AcDbEntity
  8
GAIKEI
  6
Continuous
 62
     1
100
AcDbCircle
 10
13.31062272184141
 20
23.45754293556047
 30
0.0
 40
0.1009328831683185
100
AcDbArc
 50
30.83976087609297
 51
32.38626627507677
  0
ARC
  5
222
330
2
100
AcDbEntity
  8
GAIKEI
  6
Continuous
 62
     1
100
AcDbCircle
 10
13.31077134463032
 20
23.45762965178989
 30
0.0
 40
0.1007609305860933
100
AcDbArc
 50
32.38989295859675
 51
33.94281642900952
  0
ARC
  5
223
330
2
100
AcDbEntity
  8
GAIKEI
  6
Continuous
 62
     1
100
AcDbCircle
 10
13.31069062408193
 20
23.45752372072076
 30
0.0
 40
0.1008870532762333
100
AcDbArc
 50
33.96712815902547
 51
35.52366531421233
  0
ARC
  5
224
330
2
100
AcDbEntity
  8
GAIKEI
  6
Continuous
 62
     1
100
AcDbCircle
 10
13.31083229127864
 20
23.45759363618353
 30
0.0
 40
0.1007311333850765
100
AcDbArc
 50
35.53811946735584
 51
37.09970733262483
  0
ARC
  5
225
330
2
100
AcDbEntity
  8
GAIKEI
  6
Continuous
 62
     1
100
AcDbCircle
 10
13.3108556914085
 20
23.45761845541836
 30
0.0
 40
0.1006974988460844
100
AcDbArc
 50
37.09647521883231
 51
38.66080348253472
  0
ARC
  5
226
330
2
100
AcDbEntity
  8
GAIKEI
  6
Continuous
 62
     1
100
AcDbCircle
 10
13.31092827449527
 20
23.45757176634416
 30
0.0
 40
0.1006700220660513
100
AcDbArc
 50
38.70735996330863
 51
40.27533509349754
  0
ARC
  5
227
330
2
100
AcDbEntity
  8
GAIKEI
  6
Continuous
 62
     1
100
AcDbCircle
 10
13.31091675359755
 20
23.45763267991521
 30
0.0
 40
0.1006394480695901
100
AcDbArc
 50
40.24463657871519
 51
41.81444330038589
  0
ARC
  5
228
330
2
100
AcDbEntity
  8
GAIKEI
  6
Continuous
 62
     1
100
AcDbCircle
 10
13.31093122565897
 20
23.45759336402819
 30
0.0
 40
0.1006548821665033
100
AcDbArc
 50
41.8366155278955
 51
43.40859780560984
  0
ARC
  5
229
330
2
100
AcDbEntity
  8
GAIKEI
  6
Continuous
 62
     1
100
AcDbCircle
 10
13.31097225050121
 20
23.45760104446302
 30
0.0
 40
0.100619803358115
100
AcDbArc
 50
43.42147401350882
 51
44.99441180233246
  0
ARC
  5
22A
330
2
100
AcDbEntity
  8
GAIKEI
  6
Continuous
 62
     1
100
AcDbCircle
 10
13.31109693732958
 20
23.4576970113294
 30
0.0
 40
0.1004637777038303
100
AcDbArc
 50
45.0059850817032
 51
46.57975279515779
  0
ARC
  5
22B
330
2
100
AcDbEntity
  8
GAIKEI
  6
Continuous
 62
     1
100
AcDbCircle
 10
13.3110607340252
 20
23.4576313814533
 30
0.0
 40
0.1005363326640629
100
AcDbArc
 50
46.59047531830803
 51
48.16431134802566
  0
ARC
  5
22C
330
2
100
AcDbEntity
  8
GAIKEI
  6
Continuous
 62
     1
100
AcDbCircle
 10
13.31116052188878
 20
23.45769142311272
 30
0.0
 40
0.1004250456676468
100
AcDbArc
 50
48.18388086539764
 51
49.75703925549836
  0
ARC
  5
22D
330
2
100
AcDbEntity
  8
GAIKEI
  6
Continuous
 62
     1
100
AcDbCircle
 10
13.31113279854782
 20
23.45775226992842
 30
0.0
 40
0.1003965288992838
100
AcDbArc
 50
49.72252908884809
 51
51.29477585435221
  0
ARC
  5
22E
330
2
100
AcDbEntity
  8
GAIKEI
  6
Continuous
 62
     1
100
AcDbCircle
 10
13.31122882116313
 20
23.45768394749075
 30
0.0
 40
0.1003898705907348
100
AcDbArc
 50
51.36192625506113
 51
52.93194965920351
  0
ARC
  5
22F
330
2
100
AcDbEntity
  8
GAIKEI
  6
Continuous
 62
     1
100
AcDbCircle
 10
13.31122938430138
 20
23.45778620748928
 30
0.0
 40
0.1003079544995278
100
AcDbArc
 50
52.89699845115443
 51
54.46517474886671
  0
ARC
  5
230
330
2
100
AcDbEntity
  8
GAIKEI
  6
Continuous
 62
     1
100
AcDbCircle
 10
13.31120403201885
 20
23.45780097632485
 30
0.0
 40
0.1003106751183063
100
AcDbArc
 50
54.44848800209748
 51
56.01303083995497
  0
ARC
  5
231
330
2
100
AcDbEntity
  8
GAIKEI
  6
Continuous
 62
     1
100
AcDbCircle
 10
13.31125585693166
 20
23.45786340492447
 30
0.0
 40
0.1002299414993481
100
AcDbArc
 50
56.01764602065517
 51
57.57942274696127
  0
ARC
  5
232
330
2
100
AcDbEntity
  8
GAIKEI
  6
Continuous
 62
     1
100
AcDbCircle
 10
13.311348892625
 20
23.45779756916087
 30
0.0
 40
0.1002357012100622
100
AcDbArc
 50
57.64448990053952
 51
59.20115355897176
  0
ARC
  5
233
330
2
100
AcDbEntity
  8
GAIKEI
  6
Continuous
 62
     1
100
AcDbCircle
 10
13.31132831106941
 20
23.45788827382301
 30
0.0
 40
0.1001683474141263
100
AcDbArc
 50
59.16447607397165
 51
60.71758182826595
  0
ARC
  5
234
330
2
100
AcDbEntity
  8
GAIKEI
  6
Continuous
 62
     1
100
AcDbCircle
 10
13.31135523930049
 20
23.45789999143796
 30
0.0
 40
0.1001449576600704
100
AcDbArc
 50
60.72774057914634
 51
62.27459647482615
  0
ARC
  5
235
330
2
100
AcDbEntity
  8
GAIKEI
  6
Continuous
 62
     1
100
AcDbCircle
 10
13.31134638967029
 20
23.45792090953864
 30
0.0
 40
0.1001305599146265
100
AcDbArc
 50
62.2645453618303
 51
63.80668524982526
  0
ARC
  5
236
330
2
100
AcDbEntity
  8
GAIKEI
  6
Continuous
 62
     1
100
AcDbCircle
 10
13.31137587933443
 20
23.45787233470949
 30
0.0
 40
0.1001611412715051
100
AcDbArc
 50
63.83408712156755
 51
65.36784925418238
  0
ARC
  5
237
330
2
100
AcDbEntity
  8
GAIKEI
  6
Continuous
 62
     1
100
AcDbCircle
 10
13.31136875555921
 20
23.4580539084121
 30
0.0
 40
0.0999990932159358
100
AcDbArc
 50
65.32077816116771
 51
66.85014368077209
  0
ARC
  5
238
330
2
100
AcDbEntity
  8
GAIKEI
  6
Continuous
 62
     1
100
AcDbCircle
 10
13.31152575215475
 20
23.458092244809
 30
0.0
 40
0.0999022061017414
100
AcDbArc
 50
66.9242903282703
 51
68.44691646704434
  0
ARC
  5
239
330
2
100
AcDbEntity
  8
GAIKEI
  6
Continuous
 62
     1
100
AcDbCircle
 10
13.3114093033293
 20
23.45812827524844
 30
0.0
 40
0.0999115479249788
100
AcDbArc
 50
68.377215961584
 51
69.89068145717656
  0
ARC
  5
23A
330
2
100
AcDbEntity
  8
GAIKEI
  6
Continuous
 62
     1
100
AcDbCircle
 10
13.311270655817
 20
23.45753205711281
 30
0.0
 40
0.1005191161794811
100
AcDbArc
 50
69.93331274099529
 51
71.42888269402068
  0
ARC
  5
23B
330
2
100
AcDbEntity
  8
GAIKEI
  6
Continuous
 62
     1
100
AcDbCircle
 10
13.31147894179406
 20
23.45824503539754
 30
0.0
 40
0.0997769325015868
100
AcDbArc
 50
71.41186796552434
 51
72.91156423022147
  0
ARC
  5
23C
330
2
100
AcDbEntity
  8
GAIKEI
  6
Continuous
 62
     1
100
AcDbCircle
 10
13.31193672425667
 20
23.45971136103029
 30
0.0
 40
0.0982408237487055
100
AcDbArc
 50
72.91546971966997
 51
74.42996770890896
  0
ARC
  5
23D
330
2
100
AcDbEntity
  8
GAIKEI
  6
Continuous
 62
     1
100
AcDbCircle
 10
13.31134093801012
 20
23.4578642913568
 30
0.0
 40
0.1001800607166628
100
AcDbArc
 50
74.38527745288829
 51
75.85527904288337
  0
ARC
  5
23E
330
2
100
AcDbEntity
  8
GAIKEI
  6
Continuous
 62
     1
100
AcDbCircle
 10
13.30987781667534
 20
23.45228773747249
 30
0.0
 40
0.1059451028688276
100
AcDbArc
 50
75.8249893187196
 51
77.19759322902358
  0
ARC
  5
23F
330
2
100
AcDbEntity
  8
GAIKEI
  6
Continuous
 62
     1
100
AcDbCircle
 10
13.31185674425484
 20
23.45955697579532
 30
0.0
 40
0.0984185847791521
100
AcDbArc
 50
77.3832718897303
 51
78.8717290565356
  0
ARC
  5
240
330
2
100
AcDbEntity
  8
GAIKEI
  6
Continuous
 62
     1
100
AcDbCircle
 10
13.31443166544966
 20
23.4720288387901
 30
0.0
 40
0.0856843309148418
100
AcDbArc
 50
78.95154346785284
 51
80.68403963565982
  0
ARC
  5
241
330
2
100
AcDbEntity
  8
GAIKEI
  6
Continuous
 62
     1
100
AcDbCircle
 10
13.31035304924717
 20
23.4544716706261
 30
0.0
 40
0.1036769187573905
100
AcDbArc
 50
80.03042623410367
 51
81.3710904020958
  0
ARC
  5
242
330
2
100
AcDbEntity
  8
GAIKEI
  6
Continuous
 62
     1
100
AcDbCircle
 10
13.28995919203396
 20
23.32323258327449
 30
0.0
 40
0.2364907339991426
100
AcDbArc
 50
81.25657636033368
 51
81.78567499220852
  0
ARC
  5
243
330
2
100
AcDbEntity
  8
GAIKEI
  6
Continuous
 62
     1
100
AcDbCircle
 10
13.3137031263401
 20
23.47073729429963
 30
0.0
 40
0.0871406536203204
100
AcDbArc
 50
83.3805994491716
 51
85.18992675457766
  0
ARC
  5
244
330
2
100
AcDbEntity
  8
GAIKEI
  6
Continuous
 62
     1
100
AcDbCircle
 10
13.3143619566996
 20
23.47974824744347
 30
0.0
 40
0.078106253784812
100
AcDbArc
 50
85.11724120258065
 51
88.17886187072678
  0
ARC
  5
245
330
2
100
AcDbEntity
  8
GAIKEI
  6
Continuous
 62
     1
100
AcDbCircle
 10
13.30606705575951
 20
23.35530086087096
 30
0.0
 40
0.2028007452129414
100
AcDbArc
 50
86.95379748847393
 51
88.48858938636302
  0
LINE
  5
246
330
2
100
AcDbEntity
  8
GAIKEI
  6
Continuous
 62
     1
100
AcDbLine
 10
9.951420134769819
 20
23.55803105006996
 30
0.0
 11
9.949052134769829
 21
23.55800305006997
 31
0.0
  0
ARC
  5
247
330
2
100
AcDbEntity
  8
GAIKEI
  6
Continuous
 62
     1
100
AcDbCircle
 10
9.951273140533885
 20
23.46076755273992
 30
0.0
 40
0.0972608595871146
100
AcDbArc
 50
91.30849469574558
 51
92.71733394157548
  0
ARC
  5
248
330
2
100
AcDbEntity
  8
GAIKEI
  6
Continuous
 62
     1
100
AcDbCircle
 10
9.951572159643433
 20
23.45700651653493
 30
0.0
 40
0.1010319146048423
100
AcDbArc
 50
92.78560058693958
 51
94.15373148399023
  0
ARC
  5
249
330
2
100
AcDbEntity
  8
GAIKEI
  6
Continuous
 62
     1
100
AcDbCircle
 10
9.951560510608317
 20
23.45525881969505
 30
0.0
 40
0.1027742699183656
100
AcDbArc
 50
94.07668111050702
 51
95.43497863500261
  0
ARC
  5
24A
330
2
100
AcDbEntity
  8
GAIKEI
  6
Continuous
 62
     1
100
AcDbCircle
 10
9.951664087865879
 20
23.45666852969515
 30
0.0
 40
0.1013809841099687
100
AcDbArc
 50
95.56871309328395
 51
96.95713723812424
  0
ARC
  5
24B
330
2
100
AcDbEntity
  8
GAIKEI
  6
Continuous
 62
     1
100
AcDbCircle
 10
9.951549893649769
 20
23.45684919699397
 30
0.0
 40
0.1011878564203004
100
AcDbArc
 50
96.9053441469537
 51
98.3083913970643
  0
ARC
  5
24C
330
2
100
AcDbEntity
  8
GAIKEI
  6
Continuous
 62
     1
100
AcDbCircle
 10
9.9515789834943
 20
23.45676933922127
 30
0.0
 40
0.1012710810401379
100
AcDbArc
 50
98.31814803844544
 51
99.73199882480964
  0
ARC
  5
24D
330
2
100
AcDbEntity
  8
GAIKEI
  6
Continuous
 62
     1
100
AcDbCircle
 10
9.951680642189558
 20
23.4565652632341
 30
0.0
 40
0.1014894258498638
100
AcDbArc
 50
99.76908902001705
 51
101.1906622943929
  0
ARC
  5
24E
330
2
100
AcDbEntity
  8
GAIKEI
  6
Continuous
 62
     1
100
AcDbCircle
 10
9.951721308948265
 20
23.45687378331974
 30
0.0
 40
0.1011947132812372
100
AcDbArc
 50
101.2471510960453
 51
102.6836918066538
  0
ARC
  5
24F
330
2
100
AcDbEntity
  8
GAIKEI
  6
Continuous
 62
     1
100
AcDbCircle
 10
9.951722877846179
 20
23.45668771092386
 30
0.0
 40
0.1013765970751742
100
AcDbArc
 50
102.6614661810703
 51
104.1069242605227
  0
ARC
  5
250
330
2
100
AcDbEntity
  8
GAIKEI
  6
Continuous
 62
     1
100
AcDbCircle
 10
9.951699028059294
 20
23.45693297960969
 30
0.0
 40
0.1011329187424033
100
AcDbArc
 50
104.1276875563365
 51
105.5860287393807
  0
ARC
  5
251
330
2
100
AcDbEntity
  8
GAIKEI
  6
Continuous
 62
     1
100
AcDbCircle
 10
9.95180587879156
 20
23.45676687866438
 30
0.0
 40
0.1013216377948656
100
AcDbArc
 50
105.6189923980365
 51
107.0852668213438
  0
ARC
  5
252
330
2
100
AcDbEntity
  8
GAIKEI
  6
Continuous
 62
     1
100
AcDbCircle
 10
9.951794834852307
 20
23.45696608631357
 30
0.0
 40
0.1011279881874227
100
AcDbArc
 50
107.112444794271
 51
108.5910254992645
  0
ARC
  5
253
330
2
100
AcDbEntity
  8
GAIKEI
  6
Continuous
 62
     1
100
AcDbCircle
 10
9.951781293976466
 20
23.45692252680359
 30
0.0
 40
0.1011649612415859
100
AcDbArc
 50
108.5758914925142
 51
110.0619130724675
  0
ARC
  5
254
330
2
100
AcDbEntity
  8
GAIKEI
  6
Continuous
 62
     1
100
AcDbCircle
 10
9.951813545570985
 20
23.45704021405169
 30
0.0
 40
0.1010655031049953
100
AcDbArc
 50
110.10197458874
 51
111.5992181259706
  0
ARC
  5
255
330
2
100
AcDbEntity
  8
GAIKEI
  6
Continuous
 62
     1
100
AcDbCircle
 10
9.951780447079954
 20
23.45694725737764
 30
0.0
 40
0.10113976943679
100
AcDbArc
 50
111.5623996268094
 51
113.0663935779629
  0
ARC
  5
256
330
2
100
AcDbEntity
  8
GAIKEI
  6
Continuous
 62
     1
100
AcDbCircle
 10
9.951874833041927
 20
23.45713537004801
 30
0.0
 40
0.1010038038747254
100
AcDbArc
 50
113.1574632590766
 51
114.6716148989907
  0
ARC
  5
257
330
2
100
AcDbEntity
  8
GAIKEI
  6
Continuous
 62
     1
100
AcDbCircle
 10
9.951843800940764
 20
23.45706483836048
 30
0.0
 40
0.1010549601971344
100
AcDbArc
 50
114.6389341160035
 51
116.1591295082417
  0
ARC
  5
258
330
2
100
AcDbEntity
  8
GAIKEI
  6
Continuous
 62
     1
100
AcDbCircle
 10
9.951875719342069
 20
23.45723938969863
 30
0.0
 40
0.1009124145992779
100
AcDbArc
 50
116.2190883910206
 51
117.7482671805328
  0
ARC
  5
259
330
2
100
AcDbEntity
  8
GAIKEI
  6
Continuous
 62
     1
100
AcDbCircle
 10
9.951868126528779
 20
23.45711418154073
 30
0.0
 40
0.1010197098347734
100
AcDbArc
 50
117.7113923217221
 51
119.2458499251823
  0
ARC
  5
25A
330
2
100
AcDbEntity
  8
GAIKEI
  6
Continuous
 62
     1
100
AcDbCircle
 10
9.951862808725877
 20
23.45727511345467
 30
0.0
 40
0.1008767207624931
100
AcDbArc
 50
119.2878715873761
 51
120.8300705102675
  0
ARC
  5
25B
330
2
100
AcDbEntity
  8
GAIKEI
  6
Continuous
 62
     1
100
AcDbCircle
 10
9.951826495066256
 20
23.45724584818515
 30
0.0
 40
0.1008832506389523
100
AcDbArc
 50
120.8038427019715
 51
122.3505138386407
  0
ARC
  5
25C
330
2
100
AcDbEntity
  8
GAIKEI
  6
Continuous
 62
     1
100
AcDbCircle
 10
9.951886986619683
 20
23.45739493688236
 30
0.0
 40
0.10078975578486
100
AcDbArc
 50
122.4249147900751
 51
123.978016442178
  0
ARC
  5
25D
330
2
100
AcDbEntity
  8
GAIKEI
  6
Continuous
 62
     1
100
AcDbCircle
 10
9.951919379020068
 20
23.45738736020903
 30
0.0
 40
0.1008141445915257
100
AcDbArc
 50
123.9908760927386
 51
125.5476050653461
  0
ARC
  5
25E
330
2
100
AcDbEntity
  8
GAIKEI
  6
Continuous
 62
     1
100
AcDbCircle
 10
9.95184967028274
 20
23.45745592426752
 30
0.0
 40
0.1007178328301531
100
AcDbArc
 50
125.5380163511304
 51
127.09981044871
  0
ARC
  5
25F
330
2
100
AcDbEntity
  8
GAIKEI
  6
Continuous
 62
     1
100
AcDbCircle
 10
9.951823236972984
 20
23.45740628586094
 30
0.0
 40
0.1007414919326528
100
AcDbArc
 50
127.0707904635933
 51
128.6353336222912
  0
ARC
  5
260
330
2
100
AcDbEntity
  8
GAIKEI
  6
Continuous
 62
     1
100
AcDbCircle
 10
9.951868588878937
 20
23.45755190427303
 30
0.0
 40
0.1006561394845636
100
AcDbArc
 50
128.7072518282443
 51
130.2754432284149
  0
ARC
  5
261
330
2
100
AcDbEntity
  8
GAIKEI
  6
Continuous
 62
     1
100
AcDbCircle
 10
9.951806455490952
 20
23.45754121741803
 30
0.0
 40
0.1006241407036013
100
AcDbArc
 50
130.2445171684568
 51
131.8145627106461
  0
ARC
  5
262
330
2
100
AcDbEntity
  8
GAIKEI
  6
Continuous
 62
     1
100
AcDbCircle
 10
9.951844421603198
 20
23.45763049270542
 30
0.0
 40
0.1005829544219059
100
AcDbArc
 50
131.8645872101299
 51
133.4368554949162
  0
ARC
  5
263
330
2
100
AcDbEntity
  8
GAIKEI
  6
Continuous
 62
     1
100
AcDbCircle
 10
9.95176661943168
 20
23.45759715005414
 30
0.0
 40
0.1005537037184552
100
AcDbArc
 50
133.3916019889525
 51
134.9647793545212
  0
ARC
  5
264
330
2
100
AcDbEntity
  8
GAIKEI
  6
Continuous
 62
     1
100
AcDbCircle
 10
9.951822248592861
 20
23.45764167571485
 30
0.0
 40
0.1005615364839722
100
AcDbArc
 50
135.0051324771416
 51
136.5789817071849
  0
ARC
  5
265
330
2
100
AcDbEntity
  8
GAIKEI
  6
Continuous
 62
     1
100
AcDbCircle
 10
9.951820325316759
 20
23.45767132845441
 30
0.0
 40
0.1005397596683479
100
AcDbArc
 50
136.5905021429186
 51
138.1642845234003
  0
ARC
  5
266
330
2
100
AcDbEntity
  8
GAIKEI
  6
Continuous
 62
     1
100
AcDbCircle
 10
9.951767218962004
 20
23.45776520757585
 30
0.0
 40
0.1004375810658703
100
AcDbArc
 50
138.1839790428222
 51
139.7569410780772
  0
ARC
  5
267
330
2
100
AcDbEntity
  8
GAIKEI
  6
Continuous
 62
     1
100
AcDbCircle
 10
9.951708629315419
 20
23.45773606020924
 30
0.0
 40
0.1004117070623852
100
AcDbArc
 50
139.7226479261586
 51
141.2946570170362
  0
ARC
  5
268
330
2
100
AcDbEntity
  8
GAIKEI
  6
Continuous
 62
     1
100
AcDbCircle
 10
9.951702054256656
 20
23.4578351136212
 30
0.0
 40
0.1003446631327127
100
AcDbArc
 50
141.3364460704958
 51
142.9062752281391
  0
ARC
  5
269
330
2
100
AcDbEntity
  8
GAIKEI
  6
Continuous
 62
     1
100
AcDbCircle
 10
9.951671914967619
 20
23.45783772972564
 30
0.0
 40
0.1003190459930422
100
AcDbArc
 50
142.8970851470692
 51
144.4650880529504
  0
ARC
  5
26A
330
2
100
AcDbEntity
  8
GAIKEI
  6
Continuous
 62
     1
100
AcDbCircle
 10
9.951731509810599
 20
23.45788490750184
 30
0.0
 40
0.1003401488863751
100
AcDbArc
 50
144.5067881287008
 51
146.0711590643126
  0
ARC
  5
26B
330
2
100
AcDbEntity
  8
GAIKEI
  6
Continuous
 62
     1
100
AcDbCircle
 10
9.951596580305363
 20
23.45786301309642
 30
0.0
 40
0.1002404578657182
100
AcDbArc
 50
146.0177279498125
 51
147.5793408177978
  0
ARC
  5
26C
330
2
100
AcDbEntity
  8
GAIKEI
  6
Continuous
 62
     1
100
AcDbCircle
 10
9.951660880167935
 20
23.45788311195457
 30
0.0
 40
0.1002839731764322
100
AcDbArc
 50
147.6087299129635
 51
149.1652429362804
  0
ARC
  5
26D
330
2
100
AcDbEntity
  8
GAIKEI
  6
Continuous
 62
     1
100
AcDbCircle
 10
9.951568627256051
 20
23.45793676080103
 30
0.0
 40
0.1001772618435786
100
AcDbArc
 50
149.1645451808629
 51
150.7175127211661
  0
ARC
  5
26E
330
2
100
AcDbEntity
  8
GAIKEI
  6
Continuous
 62
     1
100
AcDbCircle
 10
9.951556420446763
 20
23.45796423082646
 30
0.0
 40
0.1001531804248776
100
AcDbArc
 50
150.727804083003
 51
152.2745329711849
  0
ARC
  5
26F
330
2
100
AcDbEntity
  8
GAIKEI
  6
Continuous
 62
     1
100
AcDbCircle
 10
9.951460609941307
 20
23.45795692562822
 30
0.0
 40
0.1000717818727277
100
AcDbArc
 50
152.2453096548643
 51
153.7873347731487
  0
ARC
  5
270
330
2
100
AcDbEntity
  8
GAIKEI
  6
Continuous
 62
     1
100
AcDbCircle
 10
9.951582885765674
 20
23.45798792882925
 30
0.0
 40
0.100167822120096
100
AcDbArc
 50
153.8341382730081
 51
155.3677981028629
  0
ARC
  5
271
330
2
100
AcDbEntity
  8
GAIKEI
  6
Continuous
 62
     1
100
AcDbCircle
 10
9.951400624707957
 20
23.45798129920411
 30
0.0
 40
0.1000049432376262
100
AcDbArc
 50
155.3208228958316
 51
156.8500989463306
  0
ARC
  5
272
330
2
100
AcDbEntity
  8
GAIKEI
  6
Continuous
 62
     1
100
AcDbCircle
 10
9.951361617092857
 20
23.45813874787851
 30
0.0
 40
0.0999072613139751
100
AcDbArc
 50
156.9243288520285
 51
158.4468779428397
  0
ARC
  5
273
330
2
100
AcDbEntity
  8
GAIKEI
  6
Continuous
 62
     1
100
AcDbCircle
 10
9.95132484976051
 20
23.45802271669973
 30
0.0
 40
0.0999157642770092
100
AcDbArc
 50
158.3772478969277
 51
159.8906495219731
  0
ARC
  5
274
330
2
100
AcDbEntity
  8
GAIKEI
  6
Continuous
 62
     1
100
AcDbCircle
 10
9.951920363578608
 20
23.45788443673971
 30
0.0
 40
0.1005225448155739
100
AcDbArc
 50
159.9333382481469
 51
161.428857187183
  0
ARC
  5
275
330
2
100
AcDbEntity
  8
GAIKEI
  6
Continuous
 62
     1
100
AcDbCircle
 10
9.951206585059594
 20
23.45809307330723
 30
0.0
 40
0.0997794909058745
100
AcDbArc
 50
161.4118871930456
 51
162.9115450024616
  0
ARC
  5
276
330
2
100
AcDbEntity
  8
GAIKEI
  6
Continuous
 62
     1
100
AcDbCircle
 10
9.94973946022344
 20
23.45855116018995
 30
0.0
 40
0.0982425287810464
100
AcDbArc
 50
162.9154828627486
 51
164.4299545658303
  0
ARC
  5
277
330
2
100
AcDbEntity
  8
GAIKEI
  6
Continuous
 62
     1
100
AcDbCircle
 10
9.951585738798826
 20
23.45795562870961
 30
0.0
 40
0.1001809352899486
100
AcDbArc
 50
164.3852838698727
 51
165.8552726261404
  0
ARC
  5
278
330
2
100
AcDbEntity
  8
GAIKEI
  6
Continuous
 62
     1
100
AcDbCircle
 10
9.957161536815192
 20
23.4564927105194
 30
0.0
 40
0.1059451948474688
100
AcDbArc
 50
165.8249899144769
 51
167.1975926330733
  0
ARC
  5
279
330
2
100
AcDbEntity
  8
GAIKEI
  6
Continuous
 62
     1
100
AcDbCircle
 10
9.949814534592519
 20
23.45847280514738
 30
0.0
 40
0.0983425369771538
100
AcDbArc
 50
167.37403840797
 51
168.8625062771779
  0
ARC
  5
27A
330
2
100
AcDbEntity
  8
GAIKEI
  6
Continuous
 62
     1
100
AcDbCircle
 10
9.937484123623733
 20
23.46098168844256
 30
0.0
 40
0.0857597622275147
100
AcDbArc
 50
168.9158469392849
 51
170.6483710200009
  0
ARC
  5
27B
330
2
100
AcDbEntity
  8
GAIKEI
  6
Continuous
 62
     1
100
AcDbCircle
 10
9.954887447585633
 20
23.45696939011023
 30
0.0
 40
0.1035899360746045
100
AcDbArc
 50
170.0227699145335
 51
171.3634681379693
  0
ARC
  5
27C
330
2
100
AcDbEntity
  8
GAIKEI
  6
Continuous
 62
     1
100
AcDbCircle
 10
10.08620846899737
 20
23.43679374129556
 30
0.0
 40
0.2364516871685353
100
AcDbArc
 50
171.3084735953892
 51
171.8375883616709
  0
ARC
  5
27D
330
2
100
AcDbEntity
  8
GAIKEI
  6
Continuous
 62
     1
100
AcDbCircle
 10
9.938708845113922
 20
23.4603203464051
 30
0.0
 40
0.0871375933641922
100
AcDbArc
 50
173.3805676747868
 51
175.189958528711
  0
ARC
  5
27E
330
2
100
AcDbEntity
  8
GAIKEI
  6
Continuous
 62
     1
100
AcDbCircle
 10
9.929696073868512
 20
23.4609416806465
 30
0.0
 40
0.0781045825153239
100
AcDbArc
 50
175.0897537860307
 51
178.1515261463258
  0
ARC
  5
27F
330
2
100
AcDbEntity
  8
GAIKEI
  6
Continuous
 62
     1
100
AcDbCircle
 10
10.05413373403814
 20
23.45268447205928
 30
0.0
 40
0.2027881464480536
100
AcDbArc
 50
176.9537498091204
 51
178.4886370658258
  0
LINE
  5
280
330
2
100
AcDbEntity
  8
GAIKEI
  6
Continuous
 62
     1
100
AcDbLine
 10
-21.69958380240848
 20
22.77150105006996
 30
0.0
 11
-21.69958400240853
 21
22.77150105006996
 31
0.0
  0
LINE
  5
281
330
2
100
AcDbEntity
  8
GAIKEI
  6
Continuous
 62
     1
100
AcDbLine
 10
-21.69958400240853
 20
22.77150105006996
 30
0.0
 11
-21.69958400240853
 21
22.77150105006996
 31
0.0
  0
LINE
  5
282
330
2
100
AcDbEntity
  8
GAIKEI
  6
Continuous
 62
     1
100
AcDbLine
 10
-21.69958400240853
 20
22.77150105006996
 30
0.0
 11
-21.69958400240853
 21
22.77150105006996
 31
0.0
  0
LINE
  5
283
330
2
100
AcDbEntity
  8
GAIKEI
  6
Continuous
 62
     1
100
AcDbLine
 10
-21.69958400240853
 20
22.77150105006996
 30
0.0
 11
-21.69958420240852
 21
22.77150105006996
 31
0.0
  0
LINE
  5
284
330
2
100
AcDbEntity
  8
GAIKEI
  6
Continuous
 62
     1
100
AcDbLine
 10
-21.69958420240852
 20
22.77150105006996
 30
0.0
 11
-21.69958420240852
 21
22.77150105006996
 31
0.0
  0
LINE
  5
285
330
2
100
AcDbEntity
  8
GAIKEI
  6
Continuous
 62
     1
100
AcDbLine
 10
-21.69958420240852
 20
22.77150105006996
 30
0.0
 11
-21.69958420240852
 21
22.77150105006996
 31
0.0
  0
LINE
  5
286
330
2
100
AcDbEntity
  8
GAIKEI
  6
Continuous
 62
     1
100
AcDbLine
 10
-21.69958420240852
 20
22.77150105006996
 30
0.0
 11
-21.69958440240851
 21
22.77150105006996
 31
0.0
  0
LINE
  5
287
330
2
100
AcDbEntity
  8
GAIKEI
  6
Continuous
 62
     1
100
AcDbLine
 10
-21.69958440240851
 20
22.77150105006996
 30
0.0
 11
-21.69958440240851
 21
22.77150105006996
 31
0.0
  0
LINE
  5
288
330
2
100
AcDbEntity
  8
GAIKEI
  6
Continuous
 62
     1
100
AcDbLine
 10
-21.69958440240851
 20
22.77150105006996
 30
0.0
 11
-21.69958440240851
 21
22.77150105006996
 31
0.0
  0
LINE
  5
289
330
2
100
AcDbEntity
  8
GAIKEI
  6
Continuous
 62
     1
100
AcDbLine
 10
-21.69958440240851
 20
22.77150105006996
 30
0.0
 11
-21.69958460240849
 21
22.77150105006996
 31
0.0
  0
LINE
  5
28A
330
2
100
AcDbEntity
  8
GAIKEI
  6
Continuous
 62
     1
100
AcDbLine
 10
-21.69958460240849
 20
22.77150105006996
 30
0.0
 11
-21.69958460240849
 21
22.77149905006996
 31
0.0
  0
LINE
  5
28B
330
2
100
AcDbEntity
  8
GAIKEI
  6
Continuous
 62
     1
100
AcDbLine
 10
-21.69958460240849
 20
22.77149905006996
 30
0.0
 11
-21.69958460240849
 21
22.77149905006996
 31
0.0
  0
LINE
  5
28C
330
2
100
AcDbEntity
  8
GAIKEI
  6
Continuous
 62
     1
100
AcDbLine
 10
-21.69958460240849
 20
22.77149905006996
 30
0.0
 11
-21.69958480240848
 21
22.77149905006996
 31
0.0
  0
LINE
  5
28D
330
2
100
AcDbEntity
  8
GAIKEI
  6
Continuous
 62
     1
100
AcDbLine
 10
-21.69958480240848
 20
22.77149905006996
 30
0.0
 11
-21.69958480240848
 21
22.77149905006996
 31
0.0
  0
LINE
  5
28E
330
2
100
AcDbEntity
  8
GAIKEI
  6
Continuous
 62
     1
100
AcDbLine
 10
-21.69958480240848
 20
22.77149905006996
 30
0.0
 11
-21.69958480240848
 21
22.77149905006996
 31
0.0
  0
LINE
  5
28F
330
2
100
AcDbEntity
  8
GAIKEI
  6
Continuous
 62
     1
100
AcDbLine
 10
-21.69958480240848
 20
22.77149905006996
 30
0.0
 11
-21.69958500240853
 21
22.77149905006996
 31
0.0
  0
LINE
  5
290
330
2
100
AcDbEntity
  8
GAIKEI
  6
Continuous
 62
     1
100
AcDbLine
 10
-21.69958500240853
 20
22.77149905006996
 30
0.0
 11
-21.69958500240853
 21
22.77149905006996
 31
0.0
  0
LINE
  5
291
330
2
100
AcDbEntity
  8
GAIKEI
  6
Continuous
 62
     1
100
AcDbLine
 10
-21.69958500240853
 20
22.77149905006996
 30
0.0
 11
-21.69958520240852
 21
22.77149905006996
 31
0.0
  0
LINE
  5
292
330
2
100
AcDbEntity
  8
GAIKEI
  6
Continuous
 62
     1
100
AcDbLine
 10
-29.09990240240848
 20
20.72972305006997
 30
0.0
 11
-29.09990120240849
 21
20.72972505006996
 31
0.0
  0
ARC
  5
293
330
2
100
AcDbEntity
  8
GAIKEI
  6
Continuous
 62
     1
100
AcDbCircle
 10
-29.09036597791845
 20
20.72305188292554
 30
0.0
 40
0.011638370410548
100
AcDbArc
 50
145.0019705000358
 51
145.0139890919194
  0
ARC
  5
294
330
2
100
AcDbEntity
  8
GAIKEI
  6
Continuous
 62
     1
100
AcDbCircle
 10
-29.08085963442471
 20
20.72401717967753
 30
0.0
 40
0.0198778926637052
100
AcDbArc
 50
163.2947371727017
 51
163.3067743742528
  0
ARC
  5
295
330
2
100
AcDbEntity
  8
GAIKEI
  6
Continuous
 62
     1
100
AcDbCircle
 10
-29.09039351805927
 20
20.72307898103091
 30
0.0
 40
0.0116015796763312
100
AcDbArc
 50
145.0019514707688
 51
145.0140081758054
  0
ARC
  5
296
330
2
100
AcDbEntity
  8
GAIKEI
  6
Continuous
 62
     1
100
AcDbCircle
 10
-29.09040688362018
 20
20.7240402187835
 30
0.0
 40
0.0110668188184284
100
AcDbArc
 50
149.0302057392427
 51
149.0422810768655
  0
ARC
  5
297
330
2
100
AcDbEntity
  8
GAIKEI
  6
Continuous
 62
     1
100
AcDbCircle
 10
-29.09042097593482
 20
20.72310402155588
 30
0.0
 40
0.0115648893566396
100
AcDbArc
 50
145.0019323946425
 51
145.0140273503401
  0
ARC
  5
298
330
2
100
AcDbEntity
  8
GAIKEI
  6
Continuous
 62
     1
100
AcDbCircle
 10
-29.09043449953674
 20
20.72406234833349
 30
0.0
 40
0.0110315813073962
100
AcDbArc
 50
149.0301864535064
 51
149.0423003626481
  0
ARC
  5
299
330
2
100
AcDbEntity
  8
GAIKEI
  6
Continuous
 62
     1
100
AcDbCircle
 10
-29.09044832650597
 20
20.72407336453111
 30
0.0
 40
0.011014056992326
100
AcDbArc
 50
149.0301768881818
 51
149.0423100716225
  0
ARC
  5
29A
330
2
100
AcDbEntity
  8
GAIKEI
  6
Continuous
 62
     1
100
AcDbCircle
 10
-29.08103137107588
 20
20.72314200410219
 30
0.0
 40
0.0199819510119253
100
AcDbArc
 50
160.7038779149981
 51
160.7160296393531
  0
ARC
  5
29B
330
2
100
AcDbEntity
  8
GAIKEI
  6
Continuous
 62
     1
100
AcDbCircle
 10
-29.090476063148
 20
20.72409756651632
 30
0.0
 40
0.0109786786924381
100
AcDbArc
 50
149.0301573388567
 51
149.0423296209387
  0
ARC
  5
29C
330
2
100
AcDbEntity
  8
GAIKEI
  6
Continuous
 62
     1
100
AcDbCircle
 10
-29.09049072420169
 20
20.72316932530515
 30
0.0
 40
0.011471938573214
100
AcDbArc
 50
145.0018832422795
 51
145.0140761966769
  0
ARC
  5
29D
330
2
100
AcDbEntity
  8
GAIKEI
  6
Continuous
 62
     1
100
AcDbCircle
 10
-29.09050268959135
 20
20.72411910239833
 30
0.0
 40
0.0109445950873783
100
AcDbArc
 50
149.0301384572433
 51
149.0423486462111
  0
ARC
  5
29E
330
2
100
AcDbEntity
  8
GAIKEI
  6
Continuous
 62
     1
100
AcDbCircle
 10
-29.0905113438381
 20
20.72412701493039
 30
0.0
 40
0.0109331031679271
100
AcDbArc
 50
149.0301319682916
 51
149.0423549915147
  0
ARC
  5
29F
330
2
100
AcDbEntity
  8
GAIKEI
  6
Continuous
 62
     1
100
AcDbCircle
 10
-29.09053203540111
 20
20.72320690315149
 30
0.0
 40
0.0114168733332366
100
AcDbArc
 50
145.0018538653907
 51
145.0141056281763
  0
ARC
  5
2A0
330
2
100
AcDbEntity
  8
GAIKEI
  6
Continuous
 62
     1
100
AcDbCircle
 10
-29.08123995585777
 20
20.7241638961074
 30
0.0
 40
0.019464747360688
100
AcDbArc
 50
163.2946094260279
 51
163.3069021209194
  0
ARC
  5
2A1
330
2
100
AcDbEntity
  8
GAIKEI
  6
Continuous
 62
     1
100
AcDbCircle
 10
-29.090552595041
 20
20.72322911491136
 30
0.0
 40
0.011388603383286
100
AcDbArc
 50
145.0018387082825
 51
145.0141208836679
  0
ARC
  5
2A2
330
2
100
AcDbEntity
  8
GAIKEI
  6
Continuous
 62
     1
100
AcDbCircle
 10
-29.09050870957401
 20
20.72413855437196
 30
0.0
 40
0.0109301110313463
100
AcDbArc
 50
149.0301302952695
 51
149.0423566645653
  0
ARC
  5
2A3
330
2
100
AcDbEntity
  8
GAIKEI
  6
Continuous
 62
     1
100
AcDbCircle
 10
-29.09060303102967
 20
20.72419786724532
 30
0.0
 40
0.0108187148294319
100
AcDbArc
 50
149.0300673500969
 51
149.0424196096796
  0
ARC
  5
2A4
330
2
100
AcDbEntity
  8
GAIKEI
  6
Continuous
 62
     1
100
AcDbCircle
 10
-29.09080032150792
 20
20.72341118343826
 30
0.0
 40
0.0110815762043368
100
AcDbArc
 50
145.0016685627501
 51
145.0142910292283
  0
ARC
  5
2A5
330
2
100
AcDbEntity
  8
GAIKEI
  6
Continuous
 62
     1
100
AcDbCircle
 10
-29.09054920088016
 20
20.72417112913968
 30
0.0
 40
0.0108784589447804
100
AcDbArc
 50
149.030101197357
 51
149.0423856187392
  0
ARC
  5
2A6
330
2
100
AcDbEntity
  8
GAIKEI
  6
Continuous
 62
     1
100
AcDbCircle
 10
-29.08990121965877
 20
20.72378506043998
 30
0.0
 40
0.0116327289613649
100
AcDbArc
 50
149.0304996040318
 51
149.0419874994876
  0
ARC
  5
2A7
330
2
100
AcDbEntity
  8
GAIKEI
  6
Continuous
 62
     1
100
AcDbCircle
 10
-29.08182696716762
 20
20.7234562727254
 30
0.0
 40
0.0191214446883471
100
AcDbArc
 50
160.7036044626967
 51
160.7163030408889
  0
ARC
  5
2A8
330
2
100
AcDbEntity
  8
GAIKEI
  6
Continuous
 62
     1
100
AcDbCircle
 10
-29.09231626872696
 20
20.72524164986319
 30
0.0
 40
0.0088132899061066
100
AcDbArc
 50
149.028661999214
 51
149.0438249605477
  0
ARC
  5
2A9
330
2
100
AcDbEntity
  8
GAIKEI
  6
Continuous
 62
     1
100
AcDbCircle
 10
-29.08993538200139
 20
20.72282220579063
 30
0.0
 40
0.0121295572180331
100
AcDbArc
 50
145.0022138739921
 51
145.0137457726068
  0
ARC
  5
2AA
330
2
100
AcDbEntity
  8
GAIKEI
  6
Continuous
 62
     1
100
AcDbCircle
 10
-29.07096385420454
 20
20.71532642596799
 30
0.0
 40
0.032319286032575
100
AcDbArc
 50
153.4329667671011
 51
153.4369308787377
  0
ARC
  5
2AB
330
2
100
AcDbEntity
  8
GAIKEI
  6
Continuous
 62
     1
100
AcDbCircle
 10
-29.09283744483696
 20
20.72485932977389
 30
0.0
 40
0.0085842085306905
100
AcDbArc
 50
144.9998324895106
 51
145.0161271570739
  0
ARC
  5
2AC
330
2
100
AcDbEntity
  8
GAIKEI
  6
Continuous
 62
     1
100
AcDbCircle
 10
-29.09171971053229
 20
20.72530343453923
 30
0.0
 40
0.0092995254257035
100
AcDbArc
 50
151.1751431746963
 51
151.2032693518607
  0
ARC
  5
2AD
330
2
100
AcDbEntity
  8
GAIKEI
  6
Continuous
 62
     1
100
AcDbCircle
 10
-29.07493783427481
 20
20.7173262160031
 30
0.0
 40
0.0278699804355964
100
AcDbArc
 50
153.4280533789979
 51
153.4418442668461
  0
LINE
  5
2AE
330
2
100
AcDbEntity
  8
GAIKEI
  6
Continuous
 62
     1
100
AcDbLine
 10
-28.70903620240847
 20
21.33982505006995
 30
0.0
 11
-28.7091400024085
 21
21.33973305006995
 31
0.0
  0
ARC
  5
2AF
330
2
100
AcDbEntity
  8
GAIKEI
  6
Continuous
 62
     1
100
AcDbCircle
 10
-28.69558701212446
 20
21.32477900220687
 30
0.0
 40
0.020181850587396
100
AcDbArc
 50
132.1863037954261
 51
132.5821864588258
  0
ARC
  5
2B0
330
2
100
AcDbEntity
  8
GAIKEI
  6
Continuous
 62
     1
100
AcDbCircle
 10
-28.6954440537956
 20
21.32484651915016
 30
0.0
 40
0.02022943285993
100
AcDbArc
 50
133.0097156824542
 51
133.4068531196694
  0
ARC
  5
2B1
330
2
100
AcDbEntity
  8
GAIKEI
  6
Continuous
 62
     1
100
AcDbCircle
 10
-28.69584163804774
 20
21.3248458009312
 30
0.0
 40
0.0199588422182486
100
AcDbArc
 50
132.576229567518
 51
132.9735762482904
  0
ARC
  5
2B2
330
2
100
AcDbEntity
  8
GAIKEI
  6
Continuous
 62
     1
100
AcDbCircle
 10
-28.69562251667418
 20
21.32486164043527
 30
0.0
 40
0.0200973479821109
100
AcDbArc
 50
133.4614339929184
 51
133.8578691005735
  0
ARC
  5
2B3
330
2
100
AcDbEntity
  8
GAIKEI
  6
Continuous
 62
     1
100
AcDbCircle
 10
-28.69541732234149
 20
21.32483458061432
 30
0.0
 40
0.0202594451561453
100
AcDbArc
 50
134.2232866942988
 51
134.6192621765842
  0
ARC
  5
2B4
330
2
100
AcDbEntity
  8
GAIKEI
  6
Continuous
 62
     1
100
AcDbCircle
 10
-28.69579186947289
 20
21.32483841270354
 30
0.0
 40
0.0199953801135152
100
AcDbArc
 50
133.8630269477741
 51
134.2585911621805
  0
ARC
  5
2B5
330
2
100
AcDbEntity
  8
GAIKEI
  6
Continuous
 62
     1
100
AcDbCircle
 10
-28.6955894734914
 20
21.32481664301625
 30
0.0
 40
0.0201526409998528
100
AcDbArc
 50
134.6275200506701
 51
135.0227611178418
  0
ARC
  5
2B6
330
2
100
AcDbEntity
  8
GAIKEI
  6
Continuous
 62
     1
100
AcDbCircle
 10
-28.6956668179032
 20
21.32484293570491
 30
0.0
 40
0.0200793765659739
100
AcDbArc
 50
134.9198368852572
 51
135.3145013523337
  0
ARC
  5
2B7
330
2
100
AcDbEntity
  8
GAIKEI
  6
Continuous
 62
     1
100
AcDbCircle
 10
-28.69546087287427
 20
21.32484769108126
 30
0.0
 40
0.0202229978592507
100
AcDbArc
 50
135.734398120144
 51
136.1287150778883
  0
ARC
  5
2B8
330
2
100
AcDbEntity
  8
GAIKEI
  6
Continuous
 62
     1
100
AcDbCircle
 10
-28.69582998291719
 20
21.32481820705948
 30
0.0
 40
0.0199792617800774
100
AcDbArc
 50
135.334138010362
 51
135.7279572525998
  0
ARC
  5
2B9
330
2
100
AcDbEntity
  8
GAIKEI
  6
Continuous
 62
     1
100
AcDbCircle
 10
-28.69561811752248
 20
21.32484889885816
 30
0.0
 40
0.0201102570595011
100
AcDbArc
 50
136.2119434144664
 51
136.6053140549916
  0
ARC
  5
2BA
330
2
100
AcDbEntity
  8
GAIKEI
  6
Continuous
 62
     1
100
AcDbCircle
 10
-28.69568427662506
 20
21.32480910167928
 30
0.0
 40
0.0200896624367858
100
AcDbArc
 50
136.3932078393101
 51
136.7858037973403
  0
ARC
  5
2BB
330
2
100
AcDbEntity
  8
GAIKEI
  6
Continuous
 62
     1
100
AcDbCircle
 10
-28.69548197338827
 20
21.32484989167398
 30
0.0
 40
0.0202098711603141
100
AcDbArc
 50
137.262805630954
 51
137.655282345356
  0
ARC
  5
2BC
330
2
100
AcDbEntity
  8
GAIKEI
  6
Continuous
 62
     1
100
AcDbCircle
 10
-28.69557808743713
 20
21.32486733056709
 30
0.0
 40
0.0201271528636131
100
AcDbArc
 50
137.5076748993177
 51
137.9002284356775
  0
ARC
  5
2BD
330
2
100
AcDbEntity
  8
GAIKEI
  6
Continuous
 62
     1
100
AcDbCircle
 10
-28.69561940356687
 20
21.32480663798029
 30
0.0
 40
0.0201373182761253
100
AcDbArc
 50
137.6932872595024
 51
138.0844958157481
  0
ARC
  5
2BE
330
2
100
AcDbEntity
  8
GAIKEI
  6
Continuous
 62
     1
100
AcDbCircle
 10
-28.69559821497541
 20
21.32475016012955
 30
0.0
 40
0.020190833718879
100
AcDbArc
 50
138.0054024736976
 51
138.3936769444773
  0
ARC
  5
2BF
330
2
100
AcDbEntity
  8
GAIKEI
  6
Continuous
 62
     1
100
AcDbCircle
 10
-28.69579876019458
 20
21.32486347618595
 30
0.0
 40
0.0199656969790541
100
AcDbArc
 50
138.2546836498948
 51
138.6458099067202
  0
ARC
  5
2C0
330
2
100
AcDbEntity
  8
GAIKEI
  6
Continuous
 62
     1
100
AcDbCircle
 10
-28.69586657497791
 20
21.32508210157701
 30
0.0
 40
0.0197707040776425
100
AcDbArc
 50
138.9915533031625
 51
139.3897547427173
  0
ARC
  5
2C1
330
2
100
AcDbEntity
  8
GAIKEI
  6
Continuous
 62
     1
100
AcDbCircle
 10
-28.69551263887627
 20
21.32474353197685
 30
0.0
 40
0.0202597922662791
100
AcDbArc
 50
139.3143977206915
 51
139.7011438652977
  0
ARC
  5
2C2
330
2
100
AcDbEntity
  8
GAIKEI
  6
Continuous
 62
     1
100
AcDbCircle
 10
-28.69450398714736
 20
21.32395706804314
 30
0.0
 40
0.0215378009851132
100
AcDbArc
 50
139.8409370524828
 51
140.201985031241
  0
ARC
  5
2C3
330
2
100
AcDbEntity
  8
GAIKEI
  6
Continuous
 62
     1
100
AcDbCircle
 10
-28.69580423437589
 20
21.32502426390769
 30
0.0
 40
0.0198557234409568
100
AcDbArc
 50
140.1663951650066
 51
140.5635714028058
  0
ARC
  5
2C4
330
2
100
AcDbEntity
  8
GAIKEI
  6
Continuous
 62
     1
100
AcDbCircle
 10
-28.69805683027278
 20
21.32678976186946
 30
0.0
 40
0.0169946272389574
100
AcDbArc
 50
140.3365033414136
 51
140.8078922663786
  0
ARC
  5
2C5
330
2
100
AcDbEntity
  8
GAIKEI
  6
Continuous
 62
     1
100
AcDbCircle
 10
-28.69498951403591
 20
21.32423044580588
 30
0.0
 40
0.0209892323688442
100
AcDbArc
 50
140.6843854388767
 51
141.043358582151
  0
ARC
  5
2C6
330
2
100
AcDbEntity
  8
GAIKEI
  6
Continuous
 62
     1
100
AcDbCircle
 10
-28.66875537232841
 20
21.30357741704714
 30
0.0
 40
0.054376431747444
100
AcDbArc
 50
141.5006619150312
 51
141.6271095622906
  0
ARC
  5
2C7
330
2
100
AcDbEntity
  8
GAIKEI
  6
Continuous
 62
     1
100
AcDbCircle
 10
-28.6977483148828
 20
21.32657642048781
 30
0.0
 40
0.0173691147149551
100
AcDbArc
 50
141.7352305948919
 51
142.2376607891867
  0
ARC
  5
2C8
330
2
100
AcDbEntity
  8
GAIKEI
  6
Continuous
 62
     1
100
AcDbCircle
 10
-28.69918752820178
 20
21.32766820398268
 30
0.0
 40
0.0155627496006524
100
AcDbArc
 50
142.1705141107383
 51
143.0324945218126
  0
ARC
  5
2C9
330
2
100
AcDbEntity
  8
GAIKEI
  6
Continuous
 62
     1
100
AcDbCircle
 10
-28.67867723962326
 20
21.31191076781556
 30
0.0
 40
0.0414267045683647
100
AcDbArc
 50
142.6788203518382
 51
143.1019872470463
  0
LINE
  5
2CA
330
2
100
AcDbEntity
  8
GAIKEI
  6
Continuous
 62
     1
100
AcDbLine
 10
13.05601213476984
 20
22.80548505006996
 30
0.0
 11
12.94327813476985
 21
22.80436105006996
 31
0.0
  0
ARC
  5
2CB
330
2
100
AcDbEntity
  8
GAIKEI
  6
Continuous
 62
     1
100
AcDbCircle
 10
129.8301480104024
 20
-11723.00625574876
 30
0.0
 40
11746.39219445927
100
AcDbArc
 50
90.57015249816206
 51
90.57070221678932
  0
ARC
  5
2CC
330
2
100
AcDbEntity
  8
GAIKEI
  6
Continuous
 62
     1
100
AcDbCircle
 10
129.828326949835
 20
-11709.05602487384
 30
0.0
 40
11732.44263827193
100
AcDbArc
 50
90.57137189507965
 51
90.57192207207094
  0
ARC
  5
2CD
330
2
100
AcDbEntity
  8
GAIKEI
  6
Continuous
 62
     1
100
AcDbCircle
 10
129.8556271304486
 20
-11698.26422639931
 30
0.0
 40
11721.65165071522
100
AcDbArc
 50
90.57258205350491
 51
90.5731325513536
  0
ARC
  5
2CE
330
2
100
AcDbEntity
  8
GAIKEI
  6
Continuous
 62
     1
100
AcDbCircle
 10
129.7235193079208
 20
-11691.94316362657
 30
0.0
 40
11715.32958292914
100
AcDbArc
 50
90.57279571955444
 51
90.57334630907709
  0
ARC
  5
2CF
330
2
100
AcDbEntity
  8
GAIKEI
  6
Continuous
 62
     1
100
AcDbCircle
 10
129.5670852090834
 20
-11683.3963475334
 30
0.0
 40
11706.78162959203
100
AcDbArc
 50
90.57299929985099
 51
90.5735500956395
  0
ARC
  5
2D0
330
2
100
AcDbEntity
  8
GAIKEI
  6
Continuous
 62
     1
100
AcDbCircle
 10
129.410722962828
 20
-11675.06390058478
 30
0.0
 40
11698.44803513879
100
AcDbArc
 50
90.5731928301299
 51
90.57374383218325
  0
ARC
  5
2D1
330
2
100
AcDbEntity
  8
GAIKEI
  6
Continuous
 62
     1
100
AcDbCircle
 10
129.4574502048388
 20
-11665.83591479841
 30
0.0
 40
11689.22098074832
100
AcDbArc
 50
90.57442578960102
 51
90.57497702083837
  0
ARC
  5
2D2
330
2
100
AcDbEntity
  8
GAIKEI
  6
Continuous
 62
     1
100
AcDbCircle
 10
129.3060316783155
 20
-11657.79427207053
 30
0.0
 40
11681.17822365618
100
AcDbArc
 50
90.57463017881509
 51
90.57518159339537
  0
ARC
  5
2D3
330
2
100
AcDbEntity
  8
GAIKEI
  6
Continuous
 62
     1
100
AcDbCircle
 10
129.1449424598004
 20
-11648.99581960109
 30
0.0
 40
11672.37859763661
100
AcDbArc
 50
90.57482445587391
 51
90.57537609963913
  0
ARC
  5
2D4
330
2
100
AcDbEntity
  8
GAIKEI
  6
Continuous
 62
     1
100
AcDbCircle
 10
129.1867031034927
 20
-11639.30508793464
 30
0.0
 40
11662.68877479267
100
AcDbArc
 50
90.57605933056725
 51
90.57661122643386
  0
ARC
  5
2D5
330
2
100
AcDbEntity
  8
GAIKEI
  6
Continuous
 62
     1
100
AcDbCircle
 10
129.0402979870207
 20
-11631.76575416563
 30
0.0
 40
11655.14834966151
100
AcDbArc
 50
90.57626453162766
 51
90.57681658792402
  0
ARC
  5
2D6
330
2
100
AcDbEntity
  8
GAIKEI
  6
Continuous
 62
     1
100
AcDbCircle
 10
129.1648696826722
 20
-11630.10287676627
 30
0.0
 40
11653.48681147122
100
AcDbArc
 50
90.57751133533404
 51
90.57806325411808
  0
ARC
  5
2D7
330
2
100
AcDbEntity
  8
GAIKEI
  6
Continuous
 62
     1
100
AcDbCircle
 10
128.9161601794213
 20
-11613.25286651081
 30
0.0
 40
11636.63514984232
100
AcDbArc
 50
90.57767576468958
 51
90.57822832518782
  0
ARC
  5
2D8
330
2
100
AcDbEntity
  8
GAIKEI
  6
Continuous
 62
     1
100
AcDbCircle
 10
128.5610377236141
 20
-11586.06847877596
 30
0.0
 40
11609.44856288669
100
AcDbArc
 50
90.57782973040676
 51
90.57838343682
  0
ARC
  5
2D9
330
2
100
AcDbEntity
  8
GAIKEI
  6
Continuous
 62
     1
100
AcDbCircle
 10
128.6918031794213
 20
-11603.0933719042
 30
0.0
 40
11626.47390866719
100
AcDbArc
 50
90.57818089716837
 51
90.57873345766696
  0
ARC
  5
2DA
330
2
100
AcDbEntity
  8
GAIKEI
  6
Continuous
 62
     1
100
AcDbCircle
 10
129.4640176027358
 20
-11661.26118394825
 30
0.0
 40
11684.6465547277
100
AcDbArc
 50
90.57963885807028
 51
90.58018825584353
  0
ARC
  5
2DB
330
2
100
AcDbEntity
  8
GAIKEI
  6
Continuous
 62
     1
100
AcDbCircle
 10
128.2861600553153
 20
-11563.61360045192
 30
0.0
 40
11586.9920521019
100
AcDbArc
 50
90.57925360487002
 51
90.5798079988302
  0
ARC
  5
2DC
330
2
100
AcDbEntity
  8
GAIKEI
  6
Continuous
 62
     1
100
AcDbCircle
 10
126.2149685252514
 20
-11343.06115290361
 30
0.0
 40
11366.42993929599
100
AcDbArc
 50
90.58061840576677
 51
90.58118421304909
  0
ARC
  5
2DD
330
2
100
AcDbEntity
  8
GAIKEI
  6
Continuous
 62
     1
100
AcDbCircle
 10
128.9996477046613
 20
-11618.39496541879
 30
0.0
 40
11641.77783321428
100
AcDbArc
 50
90.5811434319126
 51
90.58169342556062
  0
ARC
  5
2DE
330
2
100
AcDbEntity
  8
GAIKEI
  6
Continuous
 62
     1
100
AcDbCircle
 10
136.3221485398947
 20
-12360.34729186495
 30
0.0
 40
12383.76626447485
100
AcDbArc
 50
90.58072000564497
 51
90.58123378835968
  0
ARC
  5
2DF
330
2
100
AcDbEntity
  8
GAIKEI
  6
Continuous
 62
     1
100
AcDbCircle
 10
126.4131048138966
 20
-11370.92308726844
 30
0.0
 40
11394.29245084647
100
AcDbArc
 50
90.58187970329397
 51
90.58244686275562
  0
ARC
  5
2E0
330
2
100
AcDbEntity
  8
GAIKEI
  6
Continuous
 62
     1
100
AcDbCircle
 10
110.0088278039949
 20
-9753.344421784088
 30
0.0
 40
9776.630608101697
100
AcDbArc
 50
90.58268110678289
 51
90.58335726573666
  0
ARC
  5
2E1
330
2
100
AcDbEntity
  8
GAIKEI
  6
Continuous
 62
     1
100
AcDbCircle
 10
133.3298371567994
 20
-12056.05575480019
 30
0.0
 40
12079.46002863198
100
AcDbArc
 50
90.58276501863423
 51
90.58327870967646
  0
ARC
  5
2E2
330
2
100
AcDbEntity
  8
GAIKEI
  6
Continuous
 62
     1
100
AcDbCircle
 10
333.7504042416735
 20
-31699.41556250147
 30
0.0
 40
31723.84225012904
100
AcDbArc
 50
90.58407627794839
 51
90.58425306980582
  0
ARC
  5
2E3
330
2
100
AcDbEntity
  8
GAIKEI
  6
Continuous
 62
     1
100
AcDbCircle
 10
111.586297925239
 20
-9911.741825114811
 30
0.0
 40
9935.035862991359
100
AcDbArc
 50
90.58434273207074
 51
90.58506722574371
  0
ARC
  5
2E4
330
2
100
AcDbEntity
  8
GAIKEI
  6
Continuous
 62
     1
100
AcDbCircle
 10
100.7900253290244
 20
-8857.561458681162
 30
0.0
 40
8880.800214106029
100
AcDbArc
 50
90.58486533623781
 51
90.5861129174591
  0
ARC
  5
2E5
330
2
100
AcDbEntity
  8
GAIKEI
  6
Continuous
 62
     1
100
AcDbCircle
 10
252.7914660566692
 20
-23726.33598435117
 30
0.0
 40
23750.35166426876
100
AcDbArc
 50
90.58585845956493
 51
90.58646920965639
  0
LINE
  5
2E6
330
2
100
AcDbEntity
  8
GAIKEI
  6
Continuous
 62
     1
100
AcDbLine
 10
26.39405013476983
 20
20.31854705006995
 30
0.0
 11
26.39441813476981
 21
20.33013705006997
 31
0.0
  0
ARC
  5
2E7
330
2
100
AcDbEntity
  8
GAIKEI
  6
Continuous
 62
     1
100
AcDbCircle
 10
95.28223677660037
 20
18.12716375744236
 30
0.0
 40
68.92303423789299
100
AcDbArc
 50
178.1587046730961
 51
178.1683543824396
  0
ARC
  5
2E8
330
2
100
AcDbEntity
  8
GAIKEI
  6
Continuous
 62
     1
100
AcDbCircle
 10
95.69529429155148
 20
18.11705691439073
 30
0.0
 40
69.33620329228386
100
AcDbArc
 50
178.1517173824617
 51
178.161324509582
  0
ARC
  5
2E9
330
2
100
AcDbEntity
  8
GAIKEI
  6
Continuous
 62
     1
100
AcDbCircle
 10
95.79653360881264
 20
18.10348649897577
 30
0.0
 40
69.4378283889176
100
AcDbArc
 50
178.1336186255066
 51
178.1432200459671
  0
ARC
  5
2EA
330
2
100
AcDbEntity
  8
GAIKEI
  6
Continuous
 62
     1
100
AcDbCircle
 10
95.43811071330901
 20
18.12755183996774
 30
0.0
 40
69.07881296889399
100
AcDbArc
 50
178.1342316156224
 51
178.1438862524026
  0
ARC
  5
2EB
330
2
100
AcDbEntity
  8
GAIKEI
  6
Continuous
 62
     1
100
AcDbCircle
 10
95.1700473136832
 20
18.13647197752883
 30
0.0
 40
68.81060126208139
100
AcDbArc
 50
178.1246939913935
 51
178.1343879789153
  0
ARC
  5
2EC
330
2
100
AcDbEntity
  8
GAIKEI
  6
Continuous
 62
     1
100
AcDbCircle
 10
94.89093353725314
 20
18.13252069678359
 30
0.0
 40
68.53176752761505
100
AcDbArc
 50
178.1040274618683
 51
178.1137559872858
  0
ARC
  5
2ED
330
2
100
AcDbEntity
  8
GAIKEI
  6
Continuous
 62
     1
100
AcDbCircle
 10
94.56904064733953
 20
18.1528495515663
 30
0.0
 40
68.20937896642032
100
AcDbArc
 50
178.1023823923279
 51
178.1121485037766
  0
ARC
  5
2EE
330
2
100
AcDbEntity
  8
GAIKEI
  6
Continuous
 62
     1
100
AcDbCircle
 10
94.15888579508987
 20
18.1640405553168
 30
0.0
 40
67.79907851339403
100
AcDbArc
 50
178.0905417275478
 51
178.1003568612652
  0
ARC
  5
2EF
330
2
100
AcDbEntity
  8
GAIKEI
  6
Continuous
 62
     1
100
AcDbCircle
 10
93.70873458067046
 20
18.18714503074773
 30
0.0
 40
67.34840789608823
100
AcDbArc
 50
178.0875608366022
 51
178.097426344769
  0
ARC
  5
2F0
330
2
100
AcDbEntity
  8
GAIKEI
  6
Continuous
 62
     1
100
AcDbCircle
 10
93.18727758746565
 20
18.18838867046864
 30
0.0
 40
66.82720180817163
100
AcDbArc
 50
178.0637843866615
 51
178.0737063884668
  0
ARC
  5
2F1
330
2
100
AcDbEntity
  8
GAIKEI
  6
Continuous
 62
     1
100
AcDbCircle
 10
92.64769766726374
 20
18.22421069884112
 30
0.0
 40
66.28672196927308
100
AcDbArc
 50
178.0689933123134
 51
178.0789719681854
  0
ARC
  5
2F2
330
2
100
AcDbEntity
  8
GAIKEI
  6
Continuous
 62
     1
100
AcDbCircle
 10
92.07697844506743
 20
18.22596276291759
 30
0.0
 40
65.71627013020547
100
AcDbArc
 50
178.0437156622082
 51
178.0537531723048
  0
ARC
  5
2F3
330
2
100
AcDbEntity
  8
GAIKEI
  6
Continuous
 62
     1
100
AcDbCircle
 10
91.38150625418802
 20
18.26554050373301
 30
0.0
 40
65.01985414453331
100
AcDbArc
 50
178.0475372097938
 51
178.057650464911
  0
ARC
  5
2F4
330
2
100
AcDbEntity
  8
GAIKEI
  6
Continuous
 62
     1
100
AcDbCircle
 10
90.58379961804888
 20
18.28525902594339
 30
0.0
 40
64.22193924457497
100
AcDbArc
 50
178.0306686019952
 51
178.0408719031592
  0
ARC
  5
2F5
330
2
100
AcDbEntity
  8
GAIKEI
  6
Continuous
 62
     1
100
AcDbCircle
 10
89.96262445503282
 20
18.2972323298423
 30
0.0
 40
63.60072020422331
100
AcDbArc
 50
178.0119603082691
 51
178.0222183154432
  0
ARC
  5
2F6
330
2
100
AcDbEntity
  8
GAIKEI
  6
Continuous
 62
     1
100
AcDbCircle
 10
89.540930214495
 20
18.32392587676534
 30
0.0
 40
63.17835491182944
100
AcDbArc
 50
178.0126094193083
 51
178.0228869987207
  0
ARC
  5
2F7
330
2
100
AcDbEntity
  8
GAIKEI
  6
Continuous
 62
     1
100
AcDbCircle
 10
88.23160677677856
 20
18.37221389977492
 30
0.0
 40
61.86814451259761
100
AcDbArc
 50
178.0047963409687
 51
178.0152508497476
  0
ARC
  5
2F8
330
2
100
AcDbEntity
  8
GAIKEI
  6
Continuous
 62
     1
100
AcDbCircle
 10
86.26615914023028
 20
18.43298022995094
 30
0.0
 40
59.90177330269165
100
AcDbArc
 50
177.9866763781184
 51
177.9974320793504
  0
ARC
  5
2F9
330
2
100
AcDbEntity
  8
GAIKEI
  6
Continuous
 62
     1
100
AcDbCircle
 10
86.79822918338562
 20
18.41621294268879
 30
0.0
 40
60.4341039883042
100
AcDbArc
 50
177.9779510904947
 51
177.9885115506294
  0
ARC
  5
2FA
330
2
100
AcDbEntity
  8
GAIKEI
  6
Continuous
 62
     1
100
AcDbCircle
 10
89.65801099402591
 20
18.31176889273263
 30
0.0
 40
63.29579038612806
100
AcDbArc
 50
177.9648408550154
 51
177.9748061953481
  0
ARC
  5
2FB
330
2
100
AcDbEntity
  8
GAIKEI
  6
Continuous
 62
     1
100
AcDbCircle
 10
83.73804780229988
 20
18.51852781317987
 30
0.0
 40
57.37221890441471
100
AcDbArc
 50
177.95015365896
 51
177.9612399339209
  0
ARC
  5
2FC
330
2
100
AcDbEntity
  8
GAIKEI
  6
Continuous
 62
     1
100
AcDbCircle
 10
74.78925764674563
 20
18.84913291191253
 30
0.0
 40
48.41733090121767
100
AcDbArc
 50
177.9490124891337
 51
177.962348127637
  0
ARC
  5
2FD
330
2
100
AcDbEntity
  8
GAIKEI
  6
Continuous
 62
     1
100
AcDbCircle
 10
84.93325412324043
 20
18.47459773436964
 30
0.0
 40
58.56823413318227
100
AcDbArc
 50
177.9276976370916
 51
177.9380036122919
  0
ARC
  5
2FE
330
2
100
AcDbEntity
  8
GAIKEI
  6
Continuous
 62
     1
100
AcDbCircle
 10
174.472754407017
 20
15.25658966120937
 30
0.0
 40
148.165541556147
100
AcDbArc
 50
177.9324972504928
 51
177.9361663347033
  0
ARC
  5
2FF
330
2
100
AcDbEntity
  8
GAIKEI
  6
Continuous
 62
     1
100
AcDbCircle
 10
73.23193852539668
 20
18.90224453176211
 30
0.0
 40
46.8591087211855
100
AcDbArc
 50
177.9066352916884
 51
177.9212810096449
  0
ARC
  5
300
330
2
100
AcDbEntity
  8
GAIKEI
  6
Continuous
 62
     1
100
AcDbCircle
 10
66.68285196633508
 20
19.1407291461845
 30
0.0
 40
40.30568147058781
100
AcDbArc
 50
177.8795356158604
 51
177.905356715093
  0
ARC
  5
301
330
2
100
AcDbEntity
  8
GAIKEI
  6
Continuous
 62
     1
100
AcDbCircle
 10
130.3544675697255
 20
16.80433347011134
 30
0.0
 40
104.0201476920075
100
AcDbArc
 50
177.8781423038372
 51
177.8911547941452
  0
LINE
  5
302
330
2
100
AcDbEntity
  8
GAIKEI
  6
Continuous
 62
     1
100
AcDbLine
 10
28.13103613476983
 20
19.76236105006995
 30
0.0
 11
28.13377013476986
 21
19.76483105006997
 31
0.0
  0
ARC
  5
303
330
2
100
AcDbEntity
  8
GAIKEI
  6
Continuous
 62
     1
100
AcDbCircle
 10
31.47748631736295
 20
16.06106743228076
 30
0.0
 40
4.989819921218984
100
AcDbArc
 50
132.0330272210237
 51
132.0753688932755
  0
ARC
  5
304
330
2
100
AcDbEntity
  8
GAIKEI
  6
Continuous
 62
     1
100
AcDbCircle
 10
31.48979590556451
 20
16.04478832737098
 30
0.0
 40
5.010153674730637
100
AcDbArc
 50
131.9707162107727
 51
132.0129370118519
  0
ARC
  5
305
330
2
100
AcDbEntity
  8
GAIKEI
  6
Continuous
 62
     1
100
AcDbCircle
 10
31.50198884164723
 20
16.03434656524482
 30
0.0
 40
5.026071452099709
100
AcDbArc
 50
131.9523181782443
 51
131.9944544107549
  0
ARC
  5
306
330
2
100
AcDbEntity
  8
GAIKEI
  6
Continuous
 62
     1
100
AcDbCircle
 10
31.50622039986121
 20
16.029730094753
 30
0.0
 40
5.032333575267717
100
AcDbArc
 50
131.9108933221881
 51
131.9530109908688
  0
ARC
  5
307
330
2
100
AcDbEntity
  8
GAIKEI
  6
Continuous
 62
     1
100
AcDbCircle
 10
31.51188744509875
 20
16.02079089477604
 30
0.0
 40
5.042771734052915
100
AcDbArc
 50
131.8488851883674
 51
131.8909664169312
  0
ARC
  5
308
330
2
100
AcDbEntity
  8
GAIKEI
  6
Continuous
 62
     1
100
AcDbCircle
 10
31.51773064415954
 20
16.01709626773242
 30
0.0
 40
5.049422637622104
100
AcDbArc
 50
131.8282622352195
 51
131.870304938105
  0
ARC
  5
309
330
2
100
AcDbEntity
  8
GAIKEI
  6
Continuous
 62
     1
100
AcDbCircle
 10
31.52365709410986
 20
16.00785178489156
 30
0.0
 40
5.060263789872816
100
AcDbArc
 50
131.7664548096319
 51
131.8084580701031
  0
ARC
  5
30A
330
2
100
AcDbEntity
  8
GAIKEI
  6
Continuous
 62
     1
100
AcDbCircle
 10
31.52846943229076
 20
16.00530537712143
 30
0.0
 40
5.065368901655229
100
AcDbArc
 50
131.745891609872
 51
131.787869408101
  0
ARC
  5
30B
330
2
100
AcDbEntity
  8
GAIKEI
  6
Continuous
 62
     1
100
AcDbCircle
 10
31.53320794840602
 20
16.00011033671484
 30
0.0
 40
5.072399985983185
100
AcDbArc
 50
131.7048015757364
 51
131.7467548972061
  0
ARC
  5
30C
330
2
100
AcDbEntity
  8
GAIKEI
  6
Continuous
 62
     1
100
AcDbCircle
 10
31.53427911776936
 20
15.99596252262486
 30
0.0
 40
5.076209690820803
100
AcDbArc
 50
131.6407406025412
 51
131.6826811355956
  0
ARC
  5
30D
330
2
100
AcDbEntity
  8
GAIKEI
  6
Continuous
 62
     1
100
AcDbCircle
 10
31.53650853052619
 20
15.9932402229154
 30
0.0
 40
5.079725488300715
100
AcDbArc
 50
131.5972170446522
 51
131.6391304195062
  0
ARC
  5
30E
330
2
100
AcDbEntity
  8
GAIKEI
  6
Continuous
 62
     1
100
AcDbCircle
 10
31.54189437601917
 20
15.99003781560378
 30
0.0
 40
5.085696309548678
100
AcDbArc
 50
131.5767601730576
 51
131.6186411872563
  0
ARC
  5
30F
330
2
100
AcDbEntity
  8
GAIKEI
  6
Continuous
 62
     1
100
AcDbCircle
 10
31.53760827397747
 20
15.99156838233816
 30
0.0
 40
5.081707459511309
100
AcDbArc
 50
131.5101608171853
 51
131.5520616557232
  0
ARC
  5
310
330
2
100
AcDbEntity
  8
GAIKEI
  6
Continuous
 62
     1
100
AcDbCircle
 10
31.53748718161313
 20
15.99493551053953
 30
0.0
 40
5.07910622218344
100
AcDbArc
 50
131.4923405379613
 51
131.5343115752874
  0
ARC
  5
311
330
2
100
AcDbEntity
  8
GAIKEI
  6
Continuous
 62
     1
100
AcDbCircle
 10
31.5404873266956
 20
15.98787978553787
 30
0.0
 40
5.086379507803367
100
AcDbArc
 50
131.4231316490735
 51
131.4649979038819
  0
ARC
  5
312
330
2
100
AcDbEntity
  8
GAIKEI
  6
Continuous
 62
     1
100
AcDbCircle
 10
31.56079557406224
 20
15.9673760094534
 30
0.0
 40
5.115190645806876
100
AcDbArc
 50
131.4001369593179
 51
131.4417525794741
  0
ARC
  5
313
330
2
100
AcDbEntity
  8
GAIKEI
  6
Continuous
 62
     1
100
AcDbCircle
 10
31.53407621476436
 20
15.99781976154503
 30
0.0
 40
5.07468462204595
100
AcDbArc
 50
131.3591762224254
 51
131.4011578938468
  0
ARC
  5
314
330
2
100
AcDbEntity
  8
GAIKEI
  6
Continuous
 62
     1
100
AcDbCircle
 10
31.46979697662369
 20
16.06838443012677
 30
0.0
 40
4.979246053005955
100
AcDbArc
 50
131.2977046992385
 51
131.3405428737794
  0
ARC
  5
315
330
2
100
AcDbEntity
  8
GAIKEI
  6
Continuous
 62
     1
100
AcDbCircle
 10
31.55026368094997
 20
15.98020813160548
 30
0.0
 40
5.098598313032997
100
AcDbArc
 50
131.2814567977525
 51
131.3231018679413
  0
ARC
  5
316
330
2
100
AcDbEntity
  8
GAIKEI
  6
Continuous
 62
     1
100
AcDbCircle
 10
31.76258316982808
 20
15.73753916496201
 30
0.0
 40
5.421038243385239
100
AcDbArc
 50
131.236733050554
 51
131.2756485040535
  0
ARC
  5
317
330
2
100
AcDbEntity
  8
GAIKEI
  6
Continuous
 62
     1
100
AcDbCircle
 10
31.47746397783902
 20
16.06159742815222
 30
0.0
 40
4.989406431938814
100
AcDbArc
 50
131.1846238562561
 51
131.2275756139447
  0
ARC
  5
318
330
2
100
AcDbEntity
  8
GAIKEI
  6
Continuous
 62
     1
100
AcDbCircle
 10
31.00900204962153
 20
16.59717955843729
 30
0.0
 40
4.277855462987395
100
AcDbArc
 50
131.1349456988369
 51
131.1861455044961
  0
ARC
  5
319
330
2
100
AcDbEntity
  8
GAIKEI
  6
Continuous
 62
     1
100
AcDbCircle
 10
31.66811816404345
 20
15.84526262926496
 30
0.0
 40
5.27776072850109
100
AcDbArc
 50
131.1153700767506
 51
131.1543166303991
  0
ARC
  5
31A
330
2
100
AcDbEntity
  8
GAIKEI
  6
Continuous
 62
     1
100
AcDbCircle
 10
37.26204272338919
 20
9.432958863133791
 30
0.0
 40
13.78714553113174
100
AcDbArc
 50
131.0927672426801
 51
131.1062452726542
  0
ARC
  5
31B
330
2
100
AcDbEntity
  8
GAIKEI
  6
Continuous
 62
     1
100
AcDbCircle
 10
31.04648677327976
 20
16.55426561900987
 30
0.0
 40
4.334838744493562
100
AcDbArc
 50
130.9897824556271
 51
131.0446837288716
  0
ARC
  5
31C
330
2
100
AcDbEntity
  8
GAIKEI
  6
Continuous
 62
     1
100
AcDbCircle
 10
30.73934362578353
 20
16.90845933992671
 30
0.0
 40
3.866021251459039
100
AcDbArc
 50
130.9023056977846
 51
130.9969630413288
  0
ARC
  5
31D
330
2
100
AcDbEntity
  8
GAIKEI
  6
Continuous
 62
     1
100
AcDbCircle
 10
34.96171824505206
 20
12.04676875406699
 30
0.0
 40
10.3053114471695
100
AcDbArc
 50
130.9008246359254
 51
130.9472854162018
  0
ARC
  5
31E
330
2
100
AcDbEntity
  8
GAIKEI
  6
Continuous
 62
     1
100
AcDbCircle
 10
13.79294989506059
 20
23.46500538418053
 30
0.0
 40
0.1217902618871985
100
AcDbArc
 50
166.4408251410696
 51
169.0225295333258
  0
LINE
  5
31F
330
2
100
AcDbEntity
  8
GAIKEI
  6
Continuous
 62
     1
100
AcDbLine
 10
28.62216613476983
 20
12.35803105006997
 30
0.0
 11
28.66553013476983
 21
12.35897305006995
 31
0.0
  0
ARC
  5
320
330
2
100
AcDbEntity
  8
GAIKEI
  6
Continuous
 62
     1
100
AcDbCircle
 10
28.62469090833826
 20
13.29854196429113
 30
0.0
 40
0.9404560526607657
100
AcDbArc
 50
272.4888471255648
 51
275.1653310137418
  0
ARC
  5
321
330
2
100
AcDbEntity
  8
GAIKEI
  6
Continuous
 62
     1
100
AcDbCircle
 10
28.62004949530365
 20
13.35403954868693
 30
0.0
 40
0.9961462009503339
100
AcDbArc
 50
275.1438263285972
 51
277.7101462238223
  0
ARC
  5
322
330
2
100
AcDbEntity
  8
GAIKEI
  6
Continuous
 62
     1
100
AcDbCircle
 10
28.61674307341753
 20
13.38041326565033
 30
0.0
 40
1.022725113795986
100
AcDbArc
 50
277.6954788241621
 51
280.2294899630672
  0
ARC
  5
323
330
2
100
AcDbEntity
  8
GAIKEI
  6
Continuous
 62
     1
100
AcDbCircle
 10
28.61810691083707
 20
13.35915886938892
 30
0.0
 40
1.001569318459634
100
AcDbArc
 50
280.3686401094904
 51
282.9891475387371
  0
ARC
  5
324
330
2
100
AcDbEntity
  8
GAIKEI
  6
Continuous
 62
     1
100
AcDbCircle
 10
28.61918112147959
 20
13.35521811684248
 30
0.0
 40
0.9974879657354943
100
AcDbArc
 50
282.9799011053382
 51
285.6409584780257
  0
ARC
  5
325
330
2
100
AcDbEntity
  8
GAIKEI
  6
Continuous
 62
     1
100
AcDbCircle
 10
28.61727285350372
 20
13.35628046195535
 30
0.0
 40
0.9990266614033036
100
AcDbArc
 50
285.7299216265958
 51
288.4158048613589
  0
ARC
  5
326
330
2
100
AcDbEntity
  8
GAIKEI
  6
Continuous
 62
     1
100
AcDbCircle
 10
28.61641151492899
 20
13.35980463539343
 30
0.0
 40
1.00264250791247
100
AcDbArc
 50
288.3988845301448
 51
291.100521698472
  0
ARC
  5
327
330
2
100
AcDbEntity
  8
GAIKEI
  6
Continuous
 62
     1
100
AcDbCircle
 10
28.61613262458929
 20
13.35578804986619
 30
0.0
 40
0.9989970924066005
100
AcDbArc
 50
291.1983769652472
 51
293.9333931669585
  0
ARC
  5
328
330
2
100
AcDbEntity
  8
GAIKEI
  6
Continuous
 62
     1
100
AcDbCircle
 10
28.61609562209594
 20
13.35698311780069
 30
0.0
 40
1.000104518268825
100
AcDbArc
 50
293.907556186646
 51
296.6595139267105
  0
ARC
  5
329
330
2
100
AcDbEntity
  8
GAIKEI
  6
Continuous
 62
     1
100
AcDbCircle
 10
28.61537999912923
 20
13.35484101743941
 30
0.0
 40
0.998512521623013
100
AcDbArc
 50
296.7513626848848
 51
299.5255204583214
  0
ARC
  5
32A
330
2
100
AcDbEntity
  8
GAIKEI
  6
Continuous
 62
     1
100
AcDbCircle
 10
28.61515913209485
 20
13.35637512158314
 30
0.0
 40
0.9999564059985145
100
AcDbArc
 50
299.4932134384688
 51
302.2773582310259
  0
ARC
  5
32B
330
2
100
AcDbEntity
  8
GAIKEI
  6
Continuous
 62
     1
100
AcDbCircle
 10
28.61439547646751
 20
13.35485986878714
 30
0.0
 40
0.9990841660709154
100
AcDbArc
 50
302.3607898796039
 51
305.1587619889227
  0
ARC
  5
32C
330
2
100
AcDbEntity
  8
GAIKEI
  6
Continuous
 62
     1
100
AcDbCircle
 10
28.61478461753222
 20
13.35536288028732
 30
0.0
 40
0.9992715082206364
100
AcDbArc
 50
305.12391209963
 51
307.9290579435725
  0
ARC
  5
32D
330
2
100
AcDbEntity
  8
GAIKEI
  6
Continuous
 62
     1
100
AcDbCircle
 10
28.61486906734638
 20
13.35306739083796
 30
0.0
 40
0.9974098853782676
100
AcDbArc
 50
308.0062859815992
 51
310.8216229830721
  0
ARC
  5
32E
330
2
100
AcDbEntity
  8
GAIKEI
  6
Continuous
 62
     1
100
AcDbCircle
 10
28.61424911038995
 20
13.35520364994772
 30
0.0
 40
0.9994321960049852
100
AcDbArc
 50
310.7684604379238
 51
313.5785542902808
  0
ARC
  5
32F
330
2
100
AcDbEntity
  8
GAIKEI
  6
Continuous
 62
     1
100
AcDbCircle
 10
28.61019674630836
 20
13.3577483433919
 30
0.0
 40
1.004069834074612
100
AcDbArc
 50
313.6459733603647
 51
316.4400861420901
  0
ARC
  5
330
330
2
100
AcDbEntity
  8
GAIKEI
  6
Continuous
 62
     1
100
AcDbCircle
 10
26.35394827604449
 20
15.29931037141045
 30
0.0
 40
3.97977200989536
100
AcDbArc
 50
318.5691139032696
 51
319.9753160547334
  0
ARC
  5
331
330
2
100
AcDbEntity
  8
GAIKEI
  6
Continuous
 62
     1
100
AcDbCircle
 10
28.61175058063736
 20
13.35740401818049
 30
0.0
 40
1.002558089912751
100
AcDbArc
 50
321.9768920411196
 51
324.7451439416291
  0
ARC
  5
332
330
2
100
AcDbEntity
  8
GAIKEI
  6
Continuous
 62
     1
100
AcDbCircle
 10
28.56686645659494
 20
13.38842051063929
 30
0.0
 40
1.057113460322773
100
AcDbArc
 50
324.7765759202782
 51
327.37364324585
  0
ARC
  5
333
330
2
100
AcDbEntity
  8
GAIKEI
  6
Continuous
 62
     1
100
AcDbCircle
 10
28.62394880857698
 20
13.34586688909545
 30
0.0
 40
0.9861083063845757
100
AcDbArc
 50
327.6677864375592
 51
330.47149872659
  0
ARC
  5
334
330
2
100
AcDbEntity
  8
GAIKEI
  6
Continuous
 62
     1
100
AcDbCircle
 10
28.72955897239768
 20
13.28440353761522
 30
0.0
 40
0.8639243525899043
100
AcDbArc
 50
330.5662881797386
 51
333.8071820828334
  0
ARC
  5
335
330
2
100
AcDbEntity
  8
GAIKEI
  6
Continuous
 62
     1
100
AcDbCircle
 10
28.58471665222703
 20
13.37857890308959
 30
0.0
 40
1.035666078905329
100
AcDbArc
 50
332.668987491274
 51
335.2017332356305
  0
ARC
  5
336
330
2
100
AcDbEntity
  8
GAIKEI
  6
Continuous
 62
     1
100
AcDbCircle
 10
27.50742729192172
 20
13.88283408562938
 30
0.0
 40
2.225123671131726
100
AcDbArc
 50
335.0493936110177
 51
336.1127606746945
  0
ARC
  5
337
330
2
100
AcDbEntity
  8
GAIKEI
  6
Continuous
 62
     1
100
AcDbCircle
 10
28.72070555467809
 20
13.2979163856954
 30
0.0
 40
0.8799908804398761
100
AcDbArc
 50
338.9470700112745
 51
342.3023910523074
  0
ARC
  5
338
330
2
100
AcDbEntity
  8
GAIKEI
  6
Continuous
 62
     1
100
AcDbCircle
 10
28.80829633516083
 20
13.27248819459521
 30
0.0
 40
0.7888190644822038
100
AcDbArc
 50
342.127905091124
 51
347.7655077969993
  0
ARC
  5
339
330
2
100
AcDbEntity
  8
GAIKEI
  6
Continuous
 62
     1
100
AcDbCircle
 10
27.62546465458007
 20
13.60815658751036
 30
0.0
 40
2.017404240670397
100
AcDbArc
 50
345.5671128816283
 51
348.4291628402043
  0
TEXT
  5
33A
330
2
100
AcDbEntity
  8
MOJI1
100
AcDbText
 10
-16.84362493299031
 20
-53.02516067512858
 30
0.0
 40
3.0
  1
Ｆ値：Ｆ＝１．８～２．８ｍｍ
100
AcDbText
  0
LINE
  5
33B
330
2
100
AcDbEntity
  8
WAKU
100
AcDbLine
 10
65.6563750670098
 20
-54.02516067512857
 30
0.0
 11
65.6563750670098
 21
-19.02516067512857
 31
0.0
  0
TEXT
  5
33D
330
2
100
AcDbEntity
  8
MOJI1
100
AcDbText
 10
-16.84362493299031
 20
-38.02516067512858
 30
0.0
 40
3.0
  1
１／４．１型プログレッシブ対応３ＭＯＳ
100
AcDbText
  0
LINE
  5
33E
330
2
100
AcDbEntity
  8
WAKU
100
AcDbLine
 10
-19.34362493299031
 20
-54.02516067512857
 30
0.0
 11
-19.34362493299031
 21
-19.02516067512857
 31
0.0
  0
TEXT
  5
33F
330
2
100
AcDbEntity
  8
MOJI1
100
AcDbText
 10
-16.84362493299031
 20
-43.02516067512857
 30
0.0
 40
3.0
  1
有効画素　約２５１万画素×３（１６：９）
100
AcDbText
  0
TEXT
  5
340
330
2
100
AcDbEntity
  8
MOJI1
100
AcDbText
 10
-16.84362493299031
 20
-33.02516067512858
 30
0.0
 40
3.0
  1
約２７５ｇ
100
AcDbText
  0
TEXT
  5
341
330
2
100
AcDbEntity
  8
MOJI1
100
AcDbText
 10
-16.84362493299031
 20
-28.02516067512858
 30
0.0
 40
3.0
  1
３．５Ｗ
100
AcDbText
  0
TEXT
  5
342
330
2
100
AcDbEntity
  8
MOJI1
100
AcDbText
 10
-16.84362493299031
 20
-23.02516067512858
 30
0.0
 40
3.0
  1
ＤＣ８Ｖ－９Ｖ（本体：ＡＧ－ＭＤＲ１５より供給）
 41
0.85
100
AcDbText
  0
TEXT
  5
343
330
2
100
AcDbEntity
  8
MOJI1
100
AcDbText
 10
-56.84362493299031
 20
-23.02516067512858
 30
0.0
 40
3.0
  1
電　源
100
AcDbText
  0
TEXT
  5
344
330
2
100
AcDbEntity
  8
MOJI1
100
AcDbText
 10
-56.84362493299031
 20
-33.02516067512858
 30
0.0
 40
3.0
  1
質　量
100
AcDbText
  0
TEXT
  5
345
330
2
100
AcDbEntity
  8
MOJI1
100
AcDbText
 10
-56.84362493299031
 20
-28.02516067512858
 30
0.0
 40
3.0
  1
消費電力
100
AcDbText
  0
TEXT
  5
346
330
2
100
AcDbEntity
  8
MOJI1
100
AcDbText
 10
-56.84362493299031
 20
-43.02516067512857
 30
0.0
 40
3.0
  1
画素数
100
AcDbText
  0
TEXT
  5
347
330
2
100
AcDbEntity
  8
MOJI1
100
AcDbText
 10
-56.84362493299031
 20
-38.02516067512858
 30
0.0
 40
3.0
  1
撮像素子
100
AcDbText
  0
TEXT
  5
348
330
2
100
AcDbEntity
  8
MOJI1
100
AcDbText
 10
-56.84362493299031
 20
-48.02516067512858
 30
0.0
 40
3.0
  1
レンズ
100
AcDbText
  0
LINE
  5
349
330
2
100
AcDbEntity
  8
WAKU
100
AcDbLine
 10
-59.34362493299031
 20
-19.02516067512857
 30
0.0
 11
-59.34362493299031
 21
-54.02516067512857
 31
0.0
  0
LINE
  5
34A
330
2
100
AcDbEntity
  8
WAKU
100
AcDbLine
 10
-59.34362493299031
 20
-54.02516067512857
 30
0.0
 11
65.6563750670098
 21
-54.02516067512857
 31
0.0
  0
LINE
  5
34B
330
2
100
AcDbEntity
  8
WAKU
100
AcDbLine
 10
65.6563750670098
 20
-19.02516067512857
 30
0.0
 11
-59.34362493299031
 21
-19.02516067512857
 31
0.0
  0
LINE
  5
34C
330
2
100
AcDbEntity
  8
WAKU
 62
     1
100
AcDbLine
 10
-59.34362493299031
 20
-49.02516067512857
 30
0.0
 11
65.6563750670098
 21
-49.02516067512857
 31
0.0
  0
LINE
  5
34D
330
2
100
AcDbEntity
  8
WAKU
 62
     1
100
AcDbLine
 10
-59.34362493299031
 20
-44.02516067512857
 30
0.0
 11
65.6563750670098
 21
-44.02516067512857
 31
0.0
  0
LINE
  5
34E
330
2
100
AcDbEntity
  8
WAKU
 62
     1
100
AcDbLine
 10
-59.34362493299031
 20
-39.02516067512858
 30
0.0
 11
65.6563750670098
 21
-39.02516067512858
 31
0.0
  0
LINE
  5
34F
330
2
100
AcDbEntity
  8
WAKU
 62
     1
100
AcDbLine
 10
-59.34362493299031
 20
-34.02516067512858
 30
0.0
 11
65.6563750670098
 21
-34.02516067512858
 31
0.0
  0
LINE
  5
350
330
2
100
AcDbEntity
  8
WAKU
 62
     1
100
AcDbLine
 10
-59.34362493299031
 20
-29.02516067512858
 30
0.0
 11
65.6563750670098
 21
-29.02516067512858
 31
0.0
  0
LINE
  5
351
330
2
100
AcDbEntity
  8
WAKU
 62
     1
100
AcDbLine
 10
-59.34362493299031
 20
-24.02516067512858
 30
0.0
 11
65.6563750670098
 21
-24.02516067512858
 31
0.0
  0
TEXT
  5
352
330
2
100
AcDbEntity
  8
MOJI1
100
AcDbText
 10
-16.84362493299031
 20
-48.02516067512858
 30
0.0
 40
3.0
  1
焦点距離：ｆ＝４．０ｍｍ～４８ｍｍ
100
AcDbText
  0
ENDSEC
  0
SECTION
  2
OBJECTS
  0
DICTIONARY
  5
7
330
0
100
AcDbDictionary
281
     1
  3
ACAD_COLOR
350
2D
  3
ACAD_GROUP
350
29
  3
ACAD_LAYOUT
350
B
  3
ACAD_MATERIAL
350
2C
  3
ACAD_MLINESTYLE
350
2A
  3
ACAD_PLOTSETTINGS
350
2B
  3
ACAD_PLOTSTYLENAME
350
6
  3
ACDBHEADERROUNDTRIPXREC
350
384
  3
AcDbVariableDictionary
350
37F
  0
DICTIONARY
  5
11
330
10
100
AcDbDictionary
280
     1
281
     1
  3
ACAD_LAYERSTATES
360
12
  0
DICTIONARY
  5
2D
102
{ACAD_REACTORS
330
7
102
}
330
7
100
AcDbDictionary
281
     1
  0
DICTIONARY
  5
29
102
{ACAD_REACTORS
330
7
102
}
330
7
100
AcDbDictionary
281
     1
  0
DICTIONARY
  5
B
102
{ACAD_REACTORS
330
7
102
}
330
7
100
AcDbDictionary
281
     1
  3
Model
350
A
  3
レイアウト1
350
F
  0
DICTIONARY
  5
2C
102
{ACAD_REACTORS
330
7
102
}
330
7
100
AcDbDictionary
281
     1
  0
DICTIONARY
  5
2A
102
{ACAD_REACTORS
330
7
102
}
330
7
100
AcDbDictionary
281
     1
  3
Standard
350
2F
  0
DICTIONARY
  5
2B
102
{ACAD_REACTORS
330
7
102
}
330
7
100
AcDbDictionary
281
     1
  0
ACDBDICTIONARYWDFLT
  5
6
102
{ACAD_REACTORS
330
7
102
}
330
7
100
AcDbDictionary
281
     1
  3
Normal
350
5
100
AcDbDictionaryWithDefault
340
5
  0
DICTIONARY
  5
384
102
{ACAD_REACTORS
330
7
102
}
330
7
100
AcDbDictionary
281
     1
  3
COLORDICT
350
386
  3
MATERIALDICT
350
385
  0
DICTIONARY
  5
37F
102
{ACAD_REACTORS
330
7
102
}
330
7
100
AcDbDictionary
281
     1
  3
DIMASSOC
350
381
  3
HIDETEXT
350
380
  3
PROJECTNAME
350
382
  0
DICTIONARY
  5
12
102
{ACAD_REACTORS
330
11
102
}
330
11
100
AcDbDictionary
281
     1
  0
LAYOUT
  5
A
102
{ACAD_XDICTIONARY
360
387
102
}
102
{ACAD_REACTORS
330
B
102
}
330
B
100
AcDbPlotSettings
  1

  2
10F06M_RICOH_SP-8100
  4
A4
  6

 40
5.873749732971191
 41
5.873747825622558
 42
5.873748779296875
 43
5.873748779296875
 44
209.9733276367187
 45
296.9259948730469
 46
5.429999999999999
 47
0.0
 48
4666.425699
 49
-6797.381196
140
11360.039443
141
-2036.726114
142
1.0
143
1.382388793903341
 70
 11956
 72
     1
 73
     0
 74
     1
  7
tmsacad.ctb
 75
     0
147
0.7233854935820042
148
0.0064050313486632
149
0.0060110292993159
100
AcDbLayout
  1
Model
 70
     1
 71
     0
 10
0.0
 20
0.0
 11
12.0
 21
9.0
 12
0.0
 22
0.0
 32
0.0
 14
0.0
 24
0.0
 34
0.0
 15
0.0
 25
0.0
 35
0.0
146
0.0
 13
0.0
 23
0.0
 33
0.0
 16
1.0
 26
0.0
 36
0.0
 17
0.0
 27
1.0
 37
0.0
 76
     0
330
2
  0
LAYOUT
  5
F
102
{ACAD_XDICTIONARY
360
389
102
}
102
{ACAD_REACTORS
330
B
102
}
330
B
100
AcDbPlotSettings
  1

  2
None
  4

  6

 40
0.0
 41
0.0
 42
0.0
 43
0.0
 44
0.0
 45
0.0
 46
0.0
 47
0.0
 48
0.0
 49
0.0
140
0.0
141
0.0
142
1.0
143
1.0
 70
   688
 72
     0
 73
     0
 74
     5
  7

 75
    16
147
1.0
148
0.0
149
0.0
100
AcDbLayout
  1
レイアウト1
 70
     1
 71
     1
 10
0.0
 20
0.0
 11
12.0
 21
9.0
 12
0.0
 22
0.0
 32
0.0
 14
0.0
 24
0.0
 34
0.0
 15
0.0
 25
0.0
 35
0.0
146
0.0
 13
0.0
 23
0.0
 33
0.0
 16
1.0
 26
0.0
 36
0.0
 17
0.0
 27
1.0
 37
0.0
 76
     0
330
C
  0
MLINESTYLE
  5
2F
102
{ACAD_REACTORS
330
2A
102
}
330
2A
100
AcDbMlineStyle
  2
STANDARD
 70
     0
  3

 62
   256
 51
90.0
 52
90.0
 71
     2
 49
0.5
 62
   256
  6
BYLAYER
 49
-0.5
 62
   256
  6
BYLAYER
  0
ACDBPLACEHOLDER
  5
5
102
{ACAD_REACTORS
330
6
102
}
330
6
  0
XRECORD
  5
386
102
{ACAD_REACTORS
330
384
102
}
330
384
100
AcDbXrecord
280
     1
340
2D
  0
XRECORD
  5
385
102
{ACAD_REACTORS
330
384
102
}
330
384
100
AcDbXrecord
280
     1
340
2C
  0
DICTIONARYVAR
  5
381
102
{ACAD_REACTORS
330
37F
102
}
330
37F
100
DictionaryVariables
280
     0
  1
1
  0
DICTIONARYVAR
  5
380
102
{ACAD_REACTORS
330
37F
102
}
330
37F
100
DictionaryVariables
280
     0
  1
1
  0
DICTIONARYVAR
  5
382
102
{ACAD_REACTORS
330
37F
102
}
330
37F
100
DictionaryVariables
280
     0
  1

  0
DICTIONARY
  5
387
330
A
100
AcDbDictionary
280
     1
281
     1
  3
ACAD_XREC_ROUNDTRIP
360
388
  0
DICTIONARY
  5
389
330
F
100
AcDbDictionary
280
     1
281
     1
  3
ACAD_XREC_ROUNDTRIP
360
38A
  0
XRECORD
  5
388
102
{ACAD_REACTORS
330
387
102
}
330
387
100
AcDbXrecord
280
     1
102
SHADEPLOT
 70
     1
102
SHADEPLOTRESLEVEL
 70
     2
102
SHADEPLOTCUSTOMDPI
 70
   300
  0
XRECORD
  5
38A
102
{ACAD_REACTORS
330
389
102
}
330
389
100
AcDbXrecord
280
     1
102
SHADEPLOT
 70
     0
102
SHADEPLOTRESLEVEL
 70
     2
102
SHADEPLOTCUSTOMDPI
 70
   300
  0
ENDSEC
  0
EOF
