  0
SECTION
  2
HEADER
  9
$ACADVER
  1
AC1015
  9
$ACADMAINTVER
 70
    20
  9
$DWGCODEPAGE
  3
ANSI_932
  9
$INSBASE
 10
0.0
 20
246.4992141396417
 30
0.0
  9
$EXTMIN
 10
-57.54711800618679
 20
-57.9028686618185
 30
-0.0015258207003583
  9
$EXTMAX
 10
67.53339096377795
 20
55.22821325380665
 30
0.0000000349246037
  9
$LIMMIN
 10
-1101.784450318844
 20
-1579.160531687244
  9
$LIMMAX
 10
-508.2420711400536
 20
-1161.440814074914
  9
$ORTHOMODE
 70
     1
  9
$REGENMODE
 70
     1
  9
$FILLMODE
 70
     1
  9
$QTEXTMODE
 70
     0
  9
$MIRRTEXT
 70
     1
  9
$LTSCALE
 40
1.0
  9
$ATTMODE
 70
     1
  9
$TEXTSIZE
 40
3.0
  9
$TRACEWID
 40
0.5
  9
$TEXTSTYLE
  7
STANDARD
  9
$CLAYER
  8
GAIKEI
  9
$CELTYPE
  6
BYLAYER
  9
$CECOLOR
 62
   256
  9
$CELTSCALE
 40
1.0
  9
$DISPSILH
 70
     0
  9
$DIMSCALE
 40
1.0
  9
$DIMASZ
 40
2.0
  9
$DIMEXO
 40
2.0
  9
$DIMDLI
 40
8.0
  9
$DIMRND
 40
0.0
  9
$DIMDLE
 40
0.0
  9
$DIMEXE
 40
2.0
  9
$DIMTP
 40
0.0
  9
$DIMTM
 40
0.0
  9
$DIMTXT
 40
2.5
  9
$DIMCEN
 40
0.0
  9
$DIMTSZ
 40
0.0
  9
$DIMTOL
 70
     0
  9
$DIMLIM
 70
     0
  9
$DIMTIH
 70
     0
  9
$DIMTOH
 70
     0
  9
$DIMSE1
 70
     0
  9
$DIMSE2
 70
     0
  9
$DIMTAD
 70
     3
  9
$DIMZIN
 70
     0
  9
$DIMBLK
  1

  9
$DIMASO
 70
     1
  9
$DIMSHO
 70
     1
  9
$DIMPOST
  1

  9
$DIMAPOST
  1

  9
$DIMALT
 70
     0
  9
$DIMALTD
 70
     2
  9
$DIMALTF
 40
25.4
  9
$DIMLFAC
 40
1.0
  9
$DIMTOFL
 70
     1
  9
$DIMTVP
 40
0.0
  9
$DIMTIX
 70
     0
  9
$DIMSOXD
 70
     0
  9
$DIMSAH
 70
     1
  9
$DIMBLK1
  1
OPEN30
  9
$DIMBLK2
  1
OPEN30
  9
$DIMSTYLE
  2
STANDARD
  9
$DIMCLRD
 70
     0
  9
$DIMCLRE
 70
     0
  9
$DIMCLRT
 70
     0
  9
$DIMTFAC
 40
1.0
  9
$DIMGAP
 40
0.5
  9
$DIMJUST
 70
     0
  9
$DIMSD1
 70
     0
  9
$DIMSD2
 70
     0
  9
$DIMTOLJ
 70
     1
  9
$DIMTZIN
 70
     0
  9
$DIMALTZ
 70
     0
  9
$DIMALTTZ
 70
     0
  9
$DIMUPT
 70
     0
  9
$DIMDEC
 70
     4
  9
$DIMTDEC
 70
     4
  9
$DIMALTU
 70
     2
  9
$DIMALTTD
 70
     2
  9
$DIMTXSTY
  7
STANDARD
  9
$DIMAUNIT
 70
     0
  9
$DIMADEC
 70
     0
  9
$DIMALTRND
 40
0.0
  9
$DIMAZIN
 70
     0
  9
$DIMDSEP
 70
    46
  9
$DIMATFIT
 70
     3
  9
$DIMFRAC
 70
     0
  9
$DIMLDRBLK
  1
OPEN30
  9
$DIMLUNIT
 70
     2
  9
$DIMLWD
 70
    -2
  9
$DIMLWE
 70
    -2
  9
$DIMTMOVE
 70
     0
  9
$LUNITS
 70
     2
  9
$LUPREC
 70
     4
  9
$SKETCHINC
 40
0.1
  9
$FILLETRAD
 40
0.0
  9
$AUNITS
 70
     0
  9
$AUPREC
 70
     0
  9
$MENU
  1
ACAD
  9
$ELEVATION
 40
0.0
  9
$PELEVATION
 40
0.0
  9
$THICKNESS
 40
0.0
  9
$LIMCHECK
 70
     0
  9
$CHAMFERA
 40
0.0
  9
$CHAMFERB
 40
0.0
  9
$CHAMFERC
 40
0.0
  9
$CHAMFERD
 40
0.0
  9
$SKPOLY
 70
     0
  9
$TDCREATE
 40
2451815.565532581
  9
$TDUCREATE
 40
2451815.190532581
  9
$TDUPDATE
 40
2454211.695468924
  9
$TDUUPDATE
 40
2454211.320468924
  9
$TDINDWG
 40
1.1352248727
  9
$TDUSRTIMER
 40
1.1352248727
  9
$USRTIMER
 70
     1
  9
$ANGBASE
 50
0.0
  9
$ANGDIR
 70
     0
  9
$PDMODE
 70
     0
  9
$PDSIZE
 40
0.0
  9
$PLINEWID
 40
0.0
  9
$SPLFRAME
 70
     0
  9
$SPLINETYPE
 70
     6
  9
$SPLINESEGS
 70
     8
  9
$HANDSEED
  5
191
  9
$SURFTAB1
 70
     6
  9
$SURFTAB2
 70
     6
  9
$SURFTYPE
 70
     6
  9
$SURFU
 70
     6
  9
$SURFV
 70
     6
  9
$UCSBASE
  2

  9
$UCSNAME
  2

  9
$UCSORG
 10
0.0
 20
0.0
 30
0.0
  9
$UCSXDIR
 10
1.0
 20
0.0
 30
0.0
  9
$UCSYDIR
 10
0.0
 20
1.0
 30
0.0
  9
$UCSORTHOREF
  2

  9
$UCSORTHOVIEW
 70
     0
  9
$UCSORGTOP
 10
0.0
 20
0.0
 30
0.0
  9
$UCSORGBOTTOM
 10
0.0
 20
0.0
 30
0.0
  9
$UCSORGLEFT
 10
0.0
 20
0.0
 30
0.0
  9
$UCSORGRIGHT
 10
0.0
 20
0.0
 30
0.0
  9
$UCSORGFRONT
 10
0.0
 20
0.0
 30
0.0
  9
$UCSORGBACK
 10
0.0
 20
0.0
 30
0.0
  9
$PUCSBASE
  2

  9
$PUCSNAME
  2

  9
$PUCSORG
 10
0.0
 20
0.0
 30
0.0
  9
$PUCSXDIR
 10
1.0
 20
0.0
 30
0.0
  9
$PUCSYDIR
 10
0.0
 20
1.0
 30
0.0
  9
$PUCSORTHOREF
  2

  9
$PUCSORTHOVIEW
 70
     0
  9
$PUCSORGTOP
 10
0.0
 20
0.0
 30
0.0
  9
$PUCSORGBOTTOM
 10
0.0
 20
0.0
 30
0.0
  9
$PUCSORGLEFT
 10
0.0
 20
0.0
 30
0.0
  9
$PUCSORGRIGHT
 10
0.0
 20
0.0
 30
0.0
  9
$PUCSORGFRONT
 10
0.0
 20
0.0
 30
0.0
  9
$PUCSORGBACK
 10
0.0
 20
0.0
 30
0.0
  9
$USERI1
 70
     0
  9
$USERI2
 70
     0
  9
$USERI3
 70
     0
  9
$USERI4
 70
     0
  9
$USERI5
 70
     0
  9
$USERR1
 40
0.0
  9
$USERR2
 40
0.0
  9
$USERR3
 40
0.0
  9
$USERR4
 40
0.0
  9
$USERR5
 40
0.0
  9
$WORLDVIEW
 70
     1
  9
$SHADEDGE
 70
     3
  9
$SHADEDIF
 70
    70
  9
$TILEMODE
 70
     1
  9
$MAXACTVP
 70
    48
  9
$PINSBASE
 10
0.0
 20
0.0
 30
0.0
  9
$PLIMCHECK
 70
     0
  9
$PEXTMIN
 10
1.000000000000000E+20
 20
1.000000000000000E+20
 30
1.000000000000000E+20
  9
$PEXTMAX
 10
-1.000000000000000E+20
 20
-1.000000000000000E+20
 30
-1.000000000000000E+20
  9
$PLIMMIN
 10
0.0
 20
0.0
  9
$PLIMMAX
 10
12.0
 20
9.0
  9
$UNITMODE
 70
     0
  9
$VISRETAIN
 70
     1
  9
$PLINEGEN
 70
     0
  9
$PSLTSCALE
 70
     1
  9
$TREEDEPTH
 70
  3020
  9
$CMLSTYLE
  2
STANDARD
  9
$CMLJUST
 70
     0
  9
$CMLSCALE
 40
1.0
  9
$PROXYGRAPHICS
 70
     1
  9
$MEASUREMENT
 70
     0
  9
$CELWEIGHT
370
    -1
  9
$ENDCAPS
280
     0
  9
$JOINSTYLE
280
     0
  9
$LWDISPLAY
290
     0
  9
$INSUNITS
 70
     0
  9
$HYPERLINKBASE
  1

  9
$STYLESHEET
  1

  9
$XEDIT
290
     1
  9
$CEPSNTYPE
380
     0
  9
$PSTYLEMODE
290
     1
  9
$FINGERPRINTGUID
  2
{1754B7AB-9B3C-11D4-AD9E-00104B1004F2}
  9
$VERSIONGUID
  2
{8DDC4559-D4A8-46F7-A932-CF96CE96AD03}
  9
$EXTNAMES
290
     1
  9
$PSVPSCALE
 40
0.0
  9
$OLESTARTUP
290
     0
  0
ENDSEC
  0
SECTION
  2
CLASSES
  0
CLASS
  1
ACDBDICTIONARYWDFLT
  2
AcDbDictionaryWithDefault
  3
ObjectDBX Classes
 90
        0
280
     0
281
     0
  0
CLASS
  1
ACDBPLACEHOLDER
  2
AcDbPlaceHolder
  3
ObjectDBX Classes
 90
        0
280
     0
281
     0
  0
CLASS
  1
LAYOUT
  2
AcDbLayout
  3
ObjectDBX Classes
 90
        0
280
     0
281
     0
  0
CLASS
  1
DICTIONARYVAR
  2
AcDbDictionaryVar
  3
ObjectDBX Classes
 90
        0
280
     0
281
     0
  0
CLASS
  1
SORTENTSTABLE
  2
AcDbSortentsTable
  3
ObjectDBX Classes
 90
    32768
280
     0
281
     0
  0
CLASS
  1
DIMASSOC
  2
AcDbDimAssoc
  3
"AcDbDimAssoc|Product Desc:     AcDim ARX App For Dimension|Company:          Autodesk, Inc.|WEB Address:      www.autodesk.com"
 90
    32768
280
     0
281
     0
  0
ENDSEC
  0
SECTION
  2
TABLES
  0
TABLE
  2
VPORT
  5
20
330
0
100
AcDbSymbolTable
 70
     2
  0
VPORT
  5
189
330
20
100
AcDbSymbolTableRecord
100
AcDbViewportTableRecord
  2
*Active
 70
     0
 10
0.0
 20
0.0
 11
1.0
 21
1.0
 12
4.993136478795573
 22
-1.337327704005929
 13
0.0
 23
0.0
 14
1.0
 24
1.0
 15
0.0
 25
0.0
 16
0.0
 26
0.0
 36
1.0
 17
0.0
 27
0.0
 37
0.0
 40
114.0013210072838
 41
1.410783055198973
 42
50.0
 43
0.0
 44
0.0
 50
0.0
 51
0.0
 71
     0
 72
 10000
 73
     1
 74
     0
 75
     0
 76
     1
 77
     0
 78
     0
281
     0
 65
     1
110
0.0
120
0.0
130
0.0
111
1.0
121
0.0
131
0.0
112
0.0
122
1.0
132
0.0
 79
     0
146
0.0
  0
ENDTAB
  0
TABLE
  2
LTYPE
  5
1B
330
0
100
AcDbSymbolTable
 70
     1
  0
LTYPE
  5
1C
330
1B
100
AcDbSymbolTableRecord
100
AcDbLinetypeTableRecord
  2
BYBLOCK
 70
     0
  3

 72
    65
 73
     0
 40
0.0
  0
LTYPE
  5
1D
330
1B
100
AcDbSymbolTableRecord
100
AcDbLinetypeTableRecord
  2
BYLAYER
 70
     0
  3

 72
    65
 73
     0
 40
0.0
  0
LTYPE
  5
A
330
1B
100
AcDbSymbolTableRecord
100
AcDbLinetypeTableRecord
  2
CONTINUOUS
 70
     0
  3
Solid line
 72
    65
 73
     0
 40
0.0
  0
ENDTAB
  0
TABLE
  2
LAYER
  5
14
102
{ACAD_XDICTIONARY
360
15
102
}
330
0
100
AcDbSymbolTable
 70
     7
  0
LAYER
  5
6
330
14
100
AcDbSymbolTableRecord
100
AcDbLayerTableRecord
  2
0
 70
     0
 62
     7
  6
CONTINUOUS
370
    -3
390
7
  0
LAYER
  5
126
330
14
100
AcDbSymbolTableRecord
100
AcDbLayerTableRecord
  2
DEFPOINTS
 70
     0
 62
     7
  6
CONTINUOUS
290
     0
370
    -3
390
7
  0
LAYER
  5
146
330
14
100
AcDbSymbolTableRecord
100
AcDbLayerTableRecord
  2
WAKU
 70
     0
 62
     4
  6
CONTINUOUS
370
    -3
390
7
  0
LAYER
  5
35
330
14
100
AcDbSymbolTableRecord
100
AcDbLayerTableRecord
  2
MOJI1
 70
     0
 62
     2
  6
CONTINUOUS
370
    -3
390
7
  0
LAYER
  5
32
330
14
100
AcDbSymbolTableRecord
100
AcDbLayerTableRecord
  2
GAIKEI
 70
     0
 62
     7
  6
CONTINUOUS
370
    -3
390
7
  0
LAYER
  5
37
330
14
100
AcDbSymbolTableRecord
100
AcDbLayerTableRecord
  2
TOUROKU
 70
     0
 62
     1
  6
CONTINUOUS
370
    -3
390
7
  0
LAYER
  5
11C
330
14
100
AcDbSymbolTableRecord
100
AcDbLayerTableRecord
  2
SUNPO
 70
     0
 62
     3
  6
CONTINUOUS
370
    -3
390
7
  0
ENDTAB
  0
TABLE
  2
STYLE
  5
18
330
0
100
AcDbSymbolTable
 70
     1
  0
STYLE
  5
19
330
18
100
AcDbSymbolTableRecord
100
AcDbTextStyleTableRecord
  2
STANDARD
 70
     0
 40
0.0
 41
1.0
 50
0.0
 71
     0
 42
3.0
  3
MONOTXT.shx
  4
BIGFONT.shx
  0
ENDTAB
  0
TABLE
  2
VIEW
  5
1E
330
0
100
AcDbSymbolTable
 70
     0
  0
ENDTAB
  0
TABLE
  2
UCS
  5
1F
330
0
100
AcDbSymbolTable
 70
     0
  0
ENDTAB
  0
TABLE
  2
APPID
  5
22
330
0
100
AcDbSymbolTable
 70
     1
  0
APPID
  5
23
330
22
100
AcDbSymbolTableRecord
100
AcDbRegAppTableRecord
  2
ACAD
 70
     0
  0
ENDTAB
  0
TABLE
  2
DIMSTYLE
  5
24
330
0
100
AcDbSymbolTable
 70
     1
100
AcDbDimStyleTable
 71
     1
340
25
  0
DIMSTYLE
105
25
102
{ACAD_REACTORS
330
137
330
12A
330
11B
102
}
330
24
100
AcDbSymbolTableRecord
100
AcDbDimStyleTableRecord
  2
STANDARD
 70
     0
 40
0.0
 41
2.0
 42
2.0
 43
8.0
 44
2.0
 73
     0
 74
     0
 77
     3
140
3.0
141
0.0
173
     1
279
     2
288
     1
340
19
341
26
343
26
344
26
  0
ENDTAB
  0
TABLE
  2
BLOCK_RECORD
  5
1
330
0
100
AcDbSymbolTable
 70
     7
  0
BLOCK_RECORD
  5
2
102
{ACAD_XDICTIONARY
360
3
102
}
330
1
100
AcDbSymbolTableRecord
100
AcDbBlockTableRecord
  2
*MODEL_SPACE
340
C
  0
BLOCK_RECORD
  5
E
102
{ACAD_XDICTIONARY
360
F
102
}
330
1
100
AcDbSymbolTableRecord
100
AcDbBlockTableRecord
  2
*PAPER_SPACE
340
13
  0
BLOCK_RECORD
  5
26
330
1
100
AcDbSymbolTableRecord
100
AcDbBlockTableRecord
  2
_OPEN30
340
0
102
{BLKREFS
331
13D
331
13E
331
130
331
131
331
122
331
123
331
165
331
166
331
171
331
172
331
17D
331
17E
102
}
  0
BLOCK_RECORD
  5
138
330
1
100
AcDbSymbolTableRecord
100
AcDbBlockTableRecord
  2
*D1
340
0
  0
BLOCK_RECORD
  5
12B
330
1
100
AcDbSymbolTableRecord
100
AcDbBlockTableRecord
  2
*D2
340
0
  0
BLOCK_RECORD
  5
11D
330
1
100
AcDbSymbolTableRecord
100
AcDbBlockTableRecord
  2
*D3
340
0
  0
BLOCK_RECORD
  5
161
330
1
100
AcDbSymbolTableRecord
100
AcDbBlockTableRecord
  2
*D4
340
0
  0
BLOCK_RECORD
  5
16D
330
1
100
AcDbSymbolTableRecord
100
AcDbBlockTableRecord
  2
*D5
340
0
  0
BLOCK_RECORD
  5
179
330
1
100
AcDbSymbolTableRecord
100
AcDbBlockTableRecord
  2
*D6
340
0
  0
ENDTAB
  0
ENDSEC
  0
SECTION
  2
BLOCKS
  0
BLOCK
  5
5
330
2
100
AcDbEntity
  8
0
100
AcDbBlockBegin
  2
*MODEL_SPACE
 70
     0
 10
0.0
 20
0.0
 30
0.0
  3
*MODEL_SPACE
  1

  0
ENDBLK
  5
B
330
2
100
AcDbEntity
  8
0
100
AcDbBlockEnd
  0
BLOCK
  5
11
330
E
100
AcDbEntity
 67
     1
  8
0
100
AcDbBlockBegin
  2
*PAPER_SPACE
 70
     0
 10
0.0
 20
0.0
 30
0.0
  3
*PAPER_SPACE
  1

  0
ENDBLK
  5
12
330
E
100
AcDbEntity
 67
     1
  8
0
100
AcDbBlockEnd
  0
BLOCK
  5
27
330
26
100
AcDbEntity
  8
0
100
AcDbBlockBegin
  2
_OPEN30
 70
     0
 10
0.0
 20
0.0
 30
0.0
  3
_OPEN30
  1

  0
LINE
  5
28
330
26
100
AcDbEntity
  8
0
  6
ByBlock
 62
     0
100
AcDbLine
 10
-1.0
 20
0.26794919
 30
0.0
 11
0.0
 21
0.0
 31
0.0
  0
LINE
  5
29
330
26
100
AcDbEntity
  8
0
  6
ByBlock
 62
     0
100
AcDbLine
 10
0.0
 20
0.0
 30
0.0
 11
-1.0
 21
-0.26794919
 31
0.0
  0
LINE
  5
2A
330
26
100
AcDbEntity
  8
0
  6
ByBlock
 62
     0
100
AcDbLine
 10
0.0
 20
0.0
 30
0.0
 11
-1.0
 21
0.0
 31
0.0
  0
ENDBLK
  5
2B
330
26
100
AcDbEntity
  8
0
100
AcDbBlockEnd
  0
BLOCK
  5
139
330
138
100
AcDbEntity
  8
0
100
AcDbBlockBegin
  2
*D1
 70
     1
 10
0.0
 20
0.0
 30
0.0
  3
*D1
  1

  0
LINE
  5
13A
330
138
100
AcDbEntity
  8
SUNPO
 62
     0
370
    -2
100
AcDbLine
 10
67.27594092951178
 20
210.7951804265063
 30
0.0
 11
67.27594092951178
 21
218.7951804265063
 31
0.0
  0
LINE
  5
13B
330
138
100
AcDbEntity
  8
SUNPO
 62
     0
370
    -2
100
AcDbLine
 10
98.47594092951181
 20
210.7951804265063
 30
0.0
 11
98.47594092951181
 21
218.7951804265063
 31
0.0
  0
LINE
  5
13C
330
138
100
AcDbEntity
  8
SUNPO
 62
     0
370
    -2
100
AcDbLine
 10
69.27594092951178
 20
216.7951804265063
 30
0.0
 11
96.4759409295118
 21
216.7951804265063
 31
0.0
  0
INSERT
  5
13D
330
138
100
AcDbEntity
  8
SUNPO
 62
     0
370
    -2
100
AcDbBlockReference
  2
_OPEN30
 10
67.27594092951178
 20
216.7951804265063
 30
0.0
 41
2.0
 42
2.0
 43
2.0
 50
180.0
  0
INSERT
  5
13E
330
138
100
AcDbEntity
  8
SUNPO
 62
     0
370
    -2
100
AcDbBlockReference
  2
_OPEN30
 10
98.47594092951181
 20
216.7951804265063
 30
0.0
 41
2.0
 42
2.0
 43
2.0
  0
MTEXT
  5
13F
330
138
100
AcDbEntity
  8
SUNPO
 62
     0
100
AcDbMText
 10
82.87594092951179
 20
218.5451804265063
 30
0.0
 40
2.5
 41
0.0
 71
     5
 72
     1
  1
\A1;156
 73
     1
 44
1.0
1001
ACAD
1000
MTEXTBEGIN
1070
    73
1070
     1
1070
    44
1040
1.0
1070
    74
1070
     0
1000
MTEXTEND
  0
POINT
  5
140
330
138
100
AcDbEntity
  8
DEFPOINTS
 62
     0
100
AcDbPoint
 10
67.27594092951178
 20
208.7951804265063
 30
0.0
  0
POINT
  5
141
330
138
100
AcDbEntity
  8
DEFPOINTS
 62
     0
100
AcDbPoint
 10
98.47594092951181
 20
208.7951804265063
 30
0.0
  0
POINT
  5
142
330
138
100
AcDbEntity
  8
DEFPOINTS
 62
     0
100
AcDbPoint
 10
98.47594092951181
 20
216.7951804265063
 30
0.0
  0
ENDBLK
  5
143
330
138
100
AcDbEntity
  8
0
100
AcDbBlockEnd
  0
BLOCK
  5
12C
330
12B
100
AcDbEntity
  8
0
100
AcDbBlockBegin
  2
*D2
 70
     1
 10
0.0
 20
0.0
 30
0.0
  3
*D2
  1

  0
LINE
  5
12D
330
12B
100
AcDbEntity
  8
SUNPO
 62
     0
370
    -2
100
AcDbLine
 10
49.73765537103328
 20
193.3983543060712
 30
0.0
 11
57.73765537103329
 21
193.3983543060712
 31
0.0
  0
LINE
  5
12E
330
12B
100
AcDbEntity
  8
SUNPO
 62
     0
370
    -2
100
AcDbLine
 10
49.7376553710333
 20
208.7983543060712
 30
0.0
 11
57.7376553710333
 21
208.7983543060712
 31
0.0
  0
LINE
  5
12F
330
12B
100
AcDbEntity
  8
SUNPO
 62
     0
370
    -2
100
AcDbLine
 10
55.7376553710333
 20
195.3983543060712
 30
0.0
 11
55.7376553710333
 21
206.7983543060712
 31
0.0
  0
INSERT
  5
130
330
12B
100
AcDbEntity
  8
SUNPO
 62
     0
370
    -2
100
AcDbBlockReference
  2
_OPEN30
 10
55.7376553710333
 20
193.3983543060712
 30
0.0
 41
2.0
 42
2.0
 43
2.0
 50
270.0
  0
INSERT
  5
131
330
12B
100
AcDbEntity
  8
SUNPO
 62
     0
370
    -2
100
AcDbBlockReference
  2
_OPEN30
 10
55.7376553710333
 20
208.7983543060712
 30
0.0
 41
2.0
 42
2.0
 43
2.0
 50
90.0
  0
MTEXT
  5
132
330
12B
100
AcDbEntity
  8
SUNPO
 62
     0
100
AcDbMText
 10
53.98765537103327
 20
201.0983543060712
 30
0.0
 40
2.5
 41
0.0
 71
     5
 72
     1
  1
\A1;77
 11
0.0000000000000001
 21
1.0
 31
0.0
 73
     1
 44
1.0
1001
ACAD
1000
MTEXTBEGIN
1070
    73
1070
     1
1070
    44
1040
1.0
1070
    74
1070
     0
1000
MTEXTEND
  0
POINT
  5
133
330
12B
100
AcDbEntity
  8
DEFPOINTS
 62
     0
100
AcDbPoint
 10
47.73765537103328
 20
193.3983543060712
 30
0.0
  0
POINT
  5
134
330
12B
100
AcDbEntity
  8
DEFPOINTS
 62
     0
100
AcDbPoint
 10
47.7376553710333
 20
208.7983543060712
 30
0.0
  0
POINT
  5
135
330
12B
100
AcDbEntity
  8
DEFPOINTS
 62
     0
100
AcDbPoint
 10
55.7376553710333
 20
208.7983543060712
 30
0.0
  0
ENDBLK
  5
136
330
12B
100
AcDbEntity
  8
0
100
AcDbBlockEnd
  0
BLOCK
  5
11E
330
11D
100
AcDbEntity
  8
0
100
AcDbBlockBegin
  2
*D3
 70
     1
 10
0.0
 20
0.0
 30
0.0
  3
*D3
  1

  0
LINE
  5
11F
330
11D
100
AcDbEntity
  8
SUNPO
 62
     0
370
    -2
100
AcDbLine
 10
30.92237877083029
 20
210.8036824240615
 30
0.0
 11
30.92237877083029
 21
218.8036824240615
 31
0.0
  0
LINE
  5
120
330
11D
100
AcDbEntity
  8
SUNPO
 62
     0
370
    -2
100
AcDbLine
 10
47.72237877083035
 20
210.8036824240615
 30
0.0
 11
47.72237877083035
 21
218.8036824240615
 31
0.0
  0
LINE
  5
121
330
11D
100
AcDbEntity
  8
SUNPO
 62
     0
370
    -2
100
AcDbLine
 10
32.92237877083028
 20
216.8036824240615
 30
0.0
 11
45.72237877083035
 21
216.8036824240615
 31
0.0
  0
INSERT
  5
122
330
11D
100
AcDbEntity
  8
SUNPO
 62
     0
370
    -2
100
AcDbBlockReference
  2
_OPEN30
 10
30.92237877083029
 20
216.8036824240615
 30
0.0
 41
2.0
 42
2.0
 43
2.0
 50
180.0
  0
INSERT
  5
123
330
11D
100
AcDbEntity
  8
SUNPO
 62
     0
370
    -2
100
AcDbBlockReference
  2
_OPEN30
 10
47.72237877083035
 20
216.8036824240615
 30
0.0
 41
2.0
 42
2.0
 43
2.0
  0
MTEXT
  5
124
330
11D
100
AcDbEntity
  8
SUNPO
 62
     0
100
AcDbMText
 10
39.32237877083032
 20
218.5536824240615
 30
0.0
 40
2.5
 41
0.0
 71
     5
 72
     1
  1
\A1;84
 73
     1
 44
1.0
1001
ACAD
1000
MTEXTBEGIN
1070
    73
1070
     1
1070
    44
1040
1.0
1070
    74
1070
     0
1000
MTEXTEND
  0
POINT
  5
125
330
11D
100
AcDbEntity
  8
DEFPOINTS
 62
     0
100
AcDbPoint
 10
30.92237877083029
 20
208.8036824240615
 30
0.0
  0
POINT
  5
127
330
11D
100
AcDbEntity
  8
DEFPOINTS
 62
     0
100
AcDbPoint
 10
47.72237877083035
 20
208.8036824240615
 30
0.0
  0
POINT
  5
128
330
11D
100
AcDbEntity
  8
DEFPOINTS
 62
     0
100
AcDbPoint
 10
47.72237877083035
 20
216.8036824240615
 30
0.0
  0
ENDBLK
  5
129
330
11D
100
AcDbEntity
  8
0
100
AcDbBlockEnd
  0
BLOCK
  5
16B
330
161
100
AcDbEntity
  8
0
100
AcDbBlockBegin
  2
*D4
 70
     1
 10
0.0
 20
0.0
 30
0.0
  3
*D4
  1

  0
LINE
  5
162
330
161
100
AcDbEntity
  8
SUNPO
 62
     0
370
    -2
100
AcDbLine
 10
7.795225979758939
 20
21.50496012743369
 30
0.0
 11
7.79522597975894
 21
29.50496012743369
 31
0.0
  0
LINE
  5
163
330
161
100
AcDbEntity
  8
SUNPO
 62
     0
370
    -2
100
AcDbLine
 10
38.99522597975897
 20
21.50496012743369
 30
0.0
 11
38.99522597975897
 21
29.50496012743369
 31
0.0
  0
LINE
  5
164
330
161
100
AcDbEntity
  8
SUNPO
 62
     0
370
    -2
100
AcDbLine
 10
9.795225979758939
 20
27.50496012743369
 30
0.0
 11
36.99522597975897
 21
27.50496012743369
 31
0.0
  0
INSERT
  5
165
330
161
100
AcDbEntity
  8
SUNPO
 62
     0
370
    -2
100
AcDbBlockReference
  2
_OPEN30
 10
7.79522597975894
 20
27.50496012743369
 30
0.0
 41
2.0
 42
2.0
 43
2.0
 50
180.0
  0
INSERT
  5
166
330
161
100
AcDbEntity
  8
SUNPO
 62
     0
370
    -2
100
AcDbBlockReference
  2
_OPEN30
 10
38.99522597975897
 20
27.50496012743369
 30
0.0
 41
2.0
 42
2.0
 43
2.0
  0
MTEXT
  5
167
330
161
100
AcDbEntity
  8
SUNPO
 62
     0
100
AcDbMText
 10
23.39522597975896
 20
29.25496012743369
 30
0.0
 40
2.5
 41
0.0
 71
     5
 72
     1
  1
\A1;156
 73
     1
 44
1.0
1001
ACAD
1000
MTEXTBEGIN
1070
    73
1070
     1
1070
    44
1040
1.0
1070
    74
1070
     0
1000
MTEXTEND
  0
POINT
  5
168
330
161
100
AcDbEntity
  8
DEFPOINTS
 62
     0
100
AcDbPoint
 10
7.795225979758939
 20
19.50496012743369
 30
0.0
  0
POINT
  5
169
330
161
100
AcDbEntity
  8
DEFPOINTS
 62
     0
100
AcDbPoint
 10
38.99522597975897
 20
19.50496012743369
 30
0.0
  0
POINT
  5
16A
330
161
100
AcDbEntity
  8
DEFPOINTS
 62
     0
100
AcDbPoint
 10
38.99522597975897
 20
27.50496012743369
 30
0.0
  0
ENDBLK
  5
16C
330
161
100
AcDbEntity
  8
0
100
AcDbBlockEnd
  0
BLOCK
  5
177
330
16D
100
AcDbEntity
  8
0
100
AcDbBlockBegin
  2
*D5
 70
     1
 10
0.0
 20
0.0
 30
0.0
  3
*D5
  1

  0
LINE
  5
16E
330
16D
100
AcDbEntity
  8
SUNPO
 62
     0
370
    -2
100
AcDbLine
 10
-9.743059578719559
 20
4.108134006998596
 30
0.0
 11
-1.743059578719535
 21
4.108134006998593
 31
0.0
  0
LINE
  5
16F
330
16D
100
AcDbEntity
  8
SUNPO
 62
     0
370
    -2
100
AcDbLine
 10
-9.743059578719531
 20
19.50813400699857
 30
0.0
 11
-1.74305957871953
 21
19.50813400699857
 31
0.0
  0
LINE
  5
170
330
16D
100
AcDbEntity
  8
SUNPO
 62
     0
370
    -2
100
AcDbLine
 10
-3.743059578719534
 20
6.108134006998594
 30
0.0
 11
-3.743059578719531
 21
17.50813400699857
 31
0.0
  0
INSERT
  5
171
330
16D
100
AcDbEntity
  8
SUNPO
 62
     0
370
    -2
100
AcDbBlockReference
  2
_OPEN30
 10
-3.743059578719535
 20
4.108134006998594
 30
0.0
 41
2.0
 42
2.0
 43
2.0
 50
270.0
  0
INSERT
  5
172
330
16D
100
AcDbEntity
  8
SUNPO
 62
     0
370
    -2
100
AcDbBlockReference
  2
_OPEN30
 10
-3.743059578719531
 20
19.50813400699857
 30
0.0
 41
2.0
 42
2.0
 43
2.0
 50
90.0
  0
MTEXT
  5
173
330
16D
100
AcDbEntity
  8
SUNPO
 62
     0
100
AcDbMText
 10
-5.493059578719535
 20
11.80813400699858
 30
0.0
 40
2.5
 41
0.0
 71
     5
 72
     1
  1
\A1;77
 11
0.0000000000000001
 21
1.0
 31
0.0
 73
     1
 44
1.0
1001
ACAD
1000
MTEXTBEGIN
1070
    73
1070
     1
1070
    44
1040
1.0
1070
    74
1070
     0
1000
MTEXTEND
  0
POINT
  5
174
330
16D
100
AcDbEntity
  8
DEFPOINTS
 62
     0
100
AcDbPoint
 10
-11.74305957871956
 20
4.108134006998596
 30
0.0
  0
POINT
  5
175
330
16D
100
AcDbEntity
  8
DEFPOINTS
 62
     0
100
AcDbPoint
 10
-11.74305957871953
 20
19.50813400699857
 30
0.0
  0
POINT
  5
176
330
16D
100
AcDbEntity
  8
DEFPOINTS
 62
     0
100
AcDbPoint
 10
-3.743059578719531
 20
19.50813400699857
 30
0.0
  0
ENDBLK
  5
178
330
16D
100
AcDbEntity
  8
0
100
AcDbBlockEnd
  0
BLOCK
  5
183
330
179
100
AcDbEntity
  8
0
100
AcDbBlockBegin
  2
*D6
 70
     1
 10
0.0
 20
0.0
 30
0.0
  3
*D6
  1

  0
LINE
  5
17A
330
179
100
AcDbEntity
  8
SUNPO
 62
     0
370
    -2
100
AcDbLine
 10
-28.55833617892255
 20
21.51346212498882
 30
0.0
 11
-28.55833617892255
 21
29.51346212498882
 31
0.0
  0
LINE
  5
17B
330
179
100
AcDbEntity
  8
SUNPO
 62
     0
370
    -2
100
AcDbLine
 10
-11.75833617892248
 20
21.51346212498882
 30
0.0
 11
-11.75833617892248
 21
29.51346212498882
 31
0.0
  0
LINE
  5
17C
330
179
100
AcDbEntity
  8
SUNPO
 62
     0
370
    -2
100
AcDbLine
 10
-26.55833617892255
 20
27.51346212498882
 30
0.0
 11
-13.75833617892248
 21
27.51346212498882
 31
0.0
  0
INSERT
  5
17D
330
179
100
AcDbEntity
  8
SUNPO
 62
     0
370
    -2
100
AcDbBlockReference
  2
_OPEN30
 10
-28.55833617892255
 20
27.51346212498882
 30
0.0
 41
2.0
 42
2.0
 43
2.0
 50
180.0
  0
INSERT
  5
17E
330
179
100
AcDbEntity
  8
SUNPO
 62
     0
370
    -2
100
AcDbBlockReference
  2
_OPEN30
 10
-11.75833617892248
 20
27.51346212498882
 30
0.0
 41
2.0
 42
2.0
 43
2.0
  0
MTEXT
  5
17F
330
179
100
AcDbEntity
  8
SUNPO
 62
     0
100
AcDbMText
 10
-20.15833617892252
 20
29.26346212498882
 30
0.0
 40
2.5
 41
0.0
 71
     5
 72
     1
  1
\A1;84
 73
     1
 44
1.0
1001
ACAD
1000
MTEXTBEGIN
1070
    73
1070
     1
1070
    44
1040
1.0
1070
    74
1070
     0
1000
MTEXTEND
  0
POINT
  5
180
330
179
100
AcDbEntity
  8
DEFPOINTS
 62
     0
100
AcDbPoint
 10
-28.55833617892255
 20
19.51346212498882
 30
0.0
  0
POINT
  5
181
330
179
100
AcDbEntity
  8
DEFPOINTS
 62
     0
100
AcDbPoint
 10
-11.75833617892248
 20
19.51346212498882
 30
0.0
  0
POINT
  5
182
330
179
100
AcDbEntity
  8
DEFPOINTS
 62
     0
100
AcDbPoint
 10
-11.75833617892248
 20
27.51346212498882
 30
0.0
  0
ENDBLK
  5
184
330
179
100
AcDbEntity
  8
0
100
AcDbBlockEnd
  0
ENDSEC
  0
SECTION
  2
ENTITIES
  0
TEXT
  5
34
330
2
100
AcDbEntity
  8
MOJI1
100
AcDbText
 10
-30.48071494975318
 20
51.20899384056923
 30
0.0
 40
4.0
  1
コンバーチブルカメラ
100
AcDbText
  0
TEXT
  5
36
330
2
100
AcDbEntity
  8
TOUROKU
100
AcDbText
 10
54.05256841650778
 20
45.20899384056917
 30
0.0
 40
2.0
  1
ＡＷＥ３５０
 72
     2
 11
67.51923508317445
 21
45.20899384056917
 31
0.0
100
AcDbText
  0
CIRCLE
  5
38
330
2
100
AcDbEntity
  8
GAIKEI
  6
Continuous
 62
     1
100
AcDbCircle
 10
-20.09167909013786
 20
11.80813400699856
 30
0.0
 40
3.2
  0
CIRCLE
  5
39
330
2
100
AcDbEntity
  8
GAIKEI
  6
Continuous
 62
     1
100
AcDbCircle
 10
-20.09167909013786
 20
11.80813400699856
 30
0.0
 40
2.95
  0
CIRCLE
  5
3A
330
2
100
AcDbEntity
  8
GAIKEI
  6
Continuous
 62
     1
100
AcDbCircle
 10
-20.09167909013786
 20
11.80813400699856
 30
0.0
 40
2.5
  0
ARC
  5
3B
330
2
100
AcDbEntity
  8
GAIKEI
  6
Continuous
100
AcDbCircle
 10
-27.25054262278252
 20
4.808134006998557
 30
0.0
 40
0.7000000000000001
100
AcDbArc
 50
190.8470214218994
 51
270.0
  0
ARC
  5
3C
330
2
100
AcDbEntity
  8
GAIKEI
  6
Continuous
100
AcDbCircle
 10
1.108320909862186
 20
11.80813400699856
 30
0.0
 40
13.4
100
AcDbArc
 50
165.4338850202004
 51
194.5661149797995
  0
ARC
  5
3D
330
2
100
AcDbEntity
  8
GAIKEI
  6
Continuous
100
AcDbCircle
 10
-41.41817001722256
 20
11.80813400699856
 30
0.0
 40
13.4
100
AcDbArc
 50
345.4338850202004
 51
14.49968223073731
  0
ARC
  5
3E
330
2
100
AcDbEntity
  8
GAIKEI
  6
Continuous
100
AcDbCircle
 10
9.28182998277748
 20
11.80813400699856
 30
0.0
 40
38.0
100
AcDbArc
 50
169.9205749725006
 51
174.7676081683576
  0
ARC
  5
3F
330
2
100
AcDbEntity
  8
GAIKEI
  6
Continuous
100
AcDbCircle
 10
9.28182998277748
 20
11.80813400699856
 30
0.0
 40
38.0
100
AcDbArc
 50
185.2324497698278
 51
190.0794250274994
  0
ARC
  5
40
330
2
100
AcDbEntity
  8
GAIKEI
  6
Continuous
 62
     1
100
AcDbCircle
 10
-16.2916790901379
 20
8.558134006998557
 30
0.0
 40
0.4
100
AcDbArc
 50
180.0
 51
270.0
  0
ARC
  5
41
330
2
100
AcDbEntity
  8
GAIKEI
  6
Continuous
 62
     1
100
AcDbCircle
 10
-13.39167909013781
 20
8.558134006998557
 30
0.0
 40
0.4
100
AcDbArc
 50
270.0
 51
0.0
  0
ARC
  5
42
330
2
100
AcDbEntity
  8
GAIKEI
  6
Continuous
 62
     1
100
AcDbCircle
 10
-13.39167909013781
 20
15.05813400699856
 30
0.0
 40
0.4
100
AcDbArc
 50
0.0
 51
90.0
  0
ARC
  5
43
330
2
100
AcDbEntity
  8
GAIKEI
  6
Continuous
 62
     1
100
AcDbCircle
 10
-16.2916790901379
 20
15.05813400699856
 30
0.0
 40
0.4
100
AcDbArc
 50
90.0
 51
180.0
  0
CIRCLE
  5
44
330
2
100
AcDbEntity
  8
GAIKEI
  6
Continuous
 62
     1
100
AcDbCircle
 10
-27.21817001722252
 20
4.808134006998557
 30
0.0
 40
0.5
  0
ARC
  5
45
330
2
100
AcDbEntity
  8
GAIKEI
  6
Continuous
 62
     1
100
AcDbCircle
 10
-12.05167909013789
 20
11.10813400699857
 30
0.0
 40
0.1
100
AcDbArc
 50
270.0
 51
0.0
  0
ARC
  5
46
330
2
100
AcDbEntity
  8
GAIKEI
  6
Continuous
 62
     1
100
AcDbCircle
 10
-12.05167909013789
 20
12.5081340069986
 30
0.0
 40
0.1
100
AcDbArc
 50
0.0
 51
90.0
  0
ARC
  5
47
330
2
100
AcDbEntity
  8
GAIKEI
  6
Continuous
100
AcDbCircle
 10
36.79522597975893
 20
19.30813400699856
 30
0.0
 40
0.2
100
AcDbArc
 50
0.0
 51
90.0
  0
ARC
  5
48
330
2
100
AcDbEntity
  8
GAIKEI
  6
Continuous
 62
     1
100
AcDbCircle
 10
36.79522597975893
 20
18.30813400699856
 30
0.0
 40
0.2
100
AcDbArc
 50
0.0
 51
90.0
  0
ARC
  5
49
330
2
100
AcDbEntity
  8
GAIKEI
  6
Continuous
 62
     1
100
AcDbCircle
 10
36.79522597975893
 20
5.308134006998557
 30
0.0
 40
0.2
100
AcDbArc
 50
270.0
 51
0.0
  0
ARC
  5
4A
330
2
100
AcDbEntity
  8
GAIKEI
  6
Continuous
 62
     1
100
AcDbCircle
 10
36.79522597975893
 20
8.208134006998591
 30
0.0
 40
0.2
100
AcDbArc
 50
0.0
 51
90.0
  0
ARC
  5
4B
330
2
100
AcDbEntity
  8
GAIKEI
  6
Continuous
 62
     1
100
AcDbCircle
 10
36.79522597975893
 20
15.40813400699858
 30
0.0
 40
0.2
100
AcDbArc
 50
270.0
 51
0.0
  0
ARC
  5
4C
330
2
100
AcDbEntity
  8
GAIKEI
  6
Continuous
100
AcDbCircle
 10
36.79522597975893
 20
4.308134006998557
 30
0.0
 40
0.2
100
AcDbArc
 50
270.0
 51
0.0
  0
ARC
  5
4D
330
2
100
AcDbEntity
  8
GAIKEI
  6
Continuous
 62
     1
100
AcDbCircle
 10
37.53522597975893
 20
7.158945772838592
 30
0.0
 40
0.06
100
AcDbArc
 50
0.0
 51
78.69006752599898
  0
ARC
  5
4E
330
2
100
AcDbEntity
  8
GAIKEI
  6
Continuous
 62
     1
100
AcDbCircle
 10
37.53522597975893
 20
4.557323786498557
 30
0.0
 40
0.06
100
AcDbArc
 50
281.3096430919998
 51
359.9985243247001
  0
ARC
  5
4F
330
2
100
AcDbEntity
  8
GAIKEI
  6
Continuous
 62
     1
100
AcDbCircle
 10
37.08928586367893
 20
4.468134217958606
 30
0.0
 40
0.06
100
AcDbArc
 50
269.9989928044013
 51
279.9990716653981
  0
ARC
  5
50
330
2
100
AcDbEntity
  8
GAIKEI
  6
Continuous
 62
     1
100
AcDbCircle
 10
37.08928520699897
 20
7.248133927398612
 30
0.0
 40
0.06
100
AcDbArc
 50
79.88134374579982
 51
90.00038011570012
  0
ARC
  5
51
330
2
100
AcDbEntity
  8
GAIKEI
  6
Continuous
 62
     1
100
AcDbCircle
 10
8.195225979758902
 20
5.308134006998557
 30
0.0
 40
0.2
100
AcDbArc
 50
180.0
 51
270.0
  0
ARC
  5
52
330
2
100
AcDbEntity
  8
GAIKEI
  6
Continuous
 62
     1
100
AcDbCircle
 10
8.195225979758902
 20
18.30813400699856
 30
0.0
 40
0.2
100
AcDbArc
 50
90.0
 51
180.0
  0
ARC
  5
53
330
2
100
AcDbEntity
  8
GAIKEI
  6
Continuous
 62
     1
100
AcDbCircle
 10
8.195225979758902
 20
8.208134006998591
 30
0.0
 40
0.2
100
AcDbArc
 50
90.0
 51
180.0
  0
ARC
  5
54
330
2
100
AcDbEntity
  8
GAIKEI
  6
Continuous
 62
     1
100
AcDbCircle
 10
8.195225979758902
 20
15.40813400699858
 30
0.0
 40
0.2
100
AcDbArc
 50
180.0
 51
270.0
  0
ARC
  5
55
330
2
100
AcDbEntity
  8
GAIKEI
  6
Continuous
100
AcDbCircle
 10
8.195225979758902
 20
4.308134006998557
 30
0.0
 40
0.2
100
AcDbArc
 50
180.0
 51
270.0
  0
ARC
  5
56
330
2
100
AcDbEntity
  8
GAIKEI
  6
Continuous
100
AcDbCircle
 10
8.195225979758902
 20
19.30813400699856
 30
0.0
 40
0.2
100
AcDbArc
 50
90.0
 51
180.0
  0
ARC
  5
57
330
2
100
AcDbEntity
  8
GAIKEI
  6
Continuous
 62
     1
100
AcDbCircle
 10
9.595225979758879
 20
11.80813400699856
 30
0.0
 40
0.8
100
AcDbArc
 50
90.0
 51
270.0
  0
ARC
  5
58
330
2
100
AcDbEntity
  8
GAIKEI
  6
Continuous
 62
     1
100
AcDbCircle
 10
11.29522597975892
 20
11.80813400699856
 30
0.0
 40
0.8
100
AcDbArc
 50
270.0
 51
90.0
  0
ARC
  5
59
330
2
100
AcDbEntity
  8
GAIKEI
  6
Continuous
 62
     1
100
AcDbCircle
 10
37.79522597975893
 20
4.908134006998579
 30
0.0
 40
0.1
100
AcDbArc
 50
270.0
 51
0.0
  0
ARC
  5
5A
330
2
100
AcDbEntity
  8
GAIKEI
  6
Continuous
 62
     1
100
AcDbCircle
 10
38.30772597975897
 20
7.308134006998557
 30
0.0
 40
0.3125
100
AcDbArc
 50
181.3226837957003
 51
239.4897625938999
  0
ARC
  5
5B
330
2
100
AcDbEntity
  8
GAIKEI
  6
Continuous
 62
     1
100
AcDbCircle
 10
37.99522597975897
 20
5.814408613678608
 30
0.0
 40
0.1
100
AcDbArc
 50
97.18075578150095
 51
180.0
  0
ARC
  5
5C
330
2
100
AcDbEntity
  8
GAIKEI
  6
Continuous
 62
     1
100
AcDbCircle
 10
37.89522597975895
 20
6.608134006998568
 30
0.0
 40
0.7000000000000001
100
AcDbArc
 50
277.180755781501
 51
54.07138777679914
  0
ARC
  5
5D
330
2
100
AcDbEntity
  8
GAIKEI
  6
Continuous
 62
     1
100
AcDbCircle
 10
38.1952259797589
 20
7.308134006998557
 30
0.0
 40
0.2
100
AcDbArc
 50
311.5401857299978
 51
182.0626332427
  0
ARC
  5
5E
330
2
100
AcDbEntity
  8
GAIKEI
  6
Continuous
 62
     1
100
AcDbCircle
 10
37.89522597975895
 20
6.608134006998568
 30
0.0
 40
0.5
100
AcDbArc
 50
270.0
 51
59.48976259389986
  0
ARC
  5
5F
330
2
100
AcDbEntity
  8
GAIKEI
  6
Continuous
 62
     1
100
AcDbCircle
 10
36.66929479627891
 20
5.408134006998579
 30
0.0
 40
1.26593118348
100
AcDbArc
 50
13.70834846669966
 51
14.3391296404001
  0
ARC
  5
60
330
2
100
AcDbEntity
  8
GAIKEI
  6
Continuous
 62
     1
100
AcDbCircle
 10
36.66929479627891
 20
5.408134006998579
 30
0.0
 40
1.26593118348
100
AcDbArc
 50
345.6608703595999
 51
346.2916515333003
  0
LINE
  5
61
330
2
100
AcDbEntity
  8
GAIKEI
  6
Continuous
 62
     1
100
AcDbLine
 10
-11.95167926673787
 20
12.50813357331856
 30
0.0
 11
-11.95167926673787
 21
11.10813343903856
 31
0.0
  0
LINE
  5
62
330
2
100
AcDbEntity
  8
GAIKEI
  6
Continuous
 62
     1
100
AcDbLine
 10
-12.25168076209786
 20
12.60813578279857
 30
0.0
 11
-12.25168076209786
 21
11.00813636261858
 31
0.0
  0
LINE
  5
63
330
2
100
AcDbEntity
  8
GAIKEI
  6
Continuous
 62
     1
100
AcDbLine
 10
-12.99167760657792
 20
8.558133561118552
 30
0.0
 11
-12.99167760657792
 21
15.05813345123857
 31
0.0
  0
LINE
  5
64
330
2
100
AcDbEntity
  8
GAIKEI
  6
Continuous
100
AcDbLine
 10
-13.05930562781782
 20
19.50813424469856
 30
0.0
 11
-27.25054114108252
 21
19.50813424469856
 31
0.0
  0
LINE
  5
65
330
2
100
AcDbEntity
  8
GAIKEI
  6
Continuous
 62
     1
100
AcDbLine
 10
-16.69167722815791
 20
15.05813345123857
 30
0.0
 11
-16.69167722815791
 21
8.558133561118552
 31
0.0
  0
LINE
  5
66
330
2
100
AcDbEntity
  8
GAIKEI
  6
Continuous
 62
     1
100
AcDbLine
 10
-13.39168131139786
 20
15.4581320230186
 30
0.0
 11
-16.29167865637782
 21
15.4581320230186
 31
0.0
  0
LINE
  5
67
330
2
100
AcDbEntity
  8
GAIKEI
  6
Continuous
100
AcDbLine
 10
-28.50306197035268
 20
15.20813163239859
 30
0.0
 11
-28.50007085300251
 21
15.20813163239859
 31
0.0
  0
LINE
  5
68
330
2
100
AcDbEntity
  8
GAIKEI
  6
Continuous
 62
     1
100
AcDbLine
 10
-18.93168154943782
 20
11.12813182771856
 30
0.0
 11
-18.93168154943782
 21
12.48813518463856
 31
0.0
  0
LINE
  5
69
330
2
100
AcDbEntity
  8
GAIKEI
  6
Continuous
 62
     1
100
AcDbLine
 10
-12.05168147619793
 20
12.60813578279857
 30
0.0
 11
-12.25168076209786
 21
12.60813578279857
 31
0.0
  0
LINE
  5
6A
330
2
100
AcDbEntity
  8
GAIKEI
  6
Continuous
 62
     1
100
AcDbLine
 10
-21.25167942541782
 20
12.48813518463856
 30
0.0
 11
-21.25167942541782
 21
11.12813182771856
 31
0.0
  0
LINE
  5
6B
330
2
100
AcDbEntity
  8
GAIKEI
  6
Continuous
 62
     1
100
AcDbLine
 10
-18.93168154943782
 20
12.48813518463856
 30
0.0
 11
-21.25167942541782
 21
12.48813518463856
 31
0.0
  0
LINE
  5
6C
330
2
100
AcDbEntity
  8
GAIKEI
  6
Continuous
 62
     1
100
AcDbLine
 10
-21.25167942541782
 20
11.12813182771856
 30
0.0
 11
-18.93168154943782
 21
11.12813182771856
 31
0.0
  0
LINE
  5
6D
330
2
100
AcDbEntity
  8
GAIKEI
  6
Continuous
 62
     1
100
AcDbLine
 10
-12.05168147619793
 20
11.00813636261858
 30
0.0
 11
-12.25168076209786
 21
11.00813636261858
 31
0.0
  0
LWPOLYLINE
  5
6E
330
2
100
AcDbEntity
  8
GAIKEI
  6
Continuous
100
AcDbPolyline
 90
        5
 70
     0
 43
0.0
 10
-28.48758725924256
 20
8.408135379958594
 10
-28.47465708956247
 20
8.410280997638551
 10
-28.46311797824251
 20
8.416491996178592
 10
-28.45420185884257
 20
8.426101078198541
 10
-28.44887374606253
 20
8.438076499338592
  0
LINE
  5
6F
330
2
100
AcDbEntity
  8
GAIKEI
  6
Continuous
100
AcDbLine
 10
-28.50007057160015
 20
8.408135379958565
 30
0.0
 11
-28.48758725924256
 21
8.408135379958594
 31
0.0
  0
LINE
  5
70
330
2
100
AcDbEntity
  8
GAIKEI
  6
Continuous
 62
     1
100
AcDbLine
 10
-16.29167865637782
 20
8.158134989338577
 30
0.0
 11
-13.39168131139786
 21
8.158134989338577
 31
0.0
  0
LINE
  5
71
330
2
100
AcDbEntity
  8
GAIKEI
  6
Continuous
 62
     1
100
AcDbLine
 10
-26.85817029146256
 20
4.908135044258585
 30
0.0
 11
-26.85817029146256
 21
4.708135758378602
 31
0.0
  0
LINE
  5
72
330
2
100
AcDbEntity
  8
GAIKEI
  6
Continuous
 62
     1
100
AcDbLine
 10
-27.11816987642249
 20
4.708135758378602
 30
0.0
 11
-27.11816987642249
 21
4.448136173418561
 31
0.0
  0
LINE
  5
73
330
2
100
AcDbEntity
  8
GAIKEI
  6
Continuous
 62
     1
100
AcDbLine
 10
-27.11816987642249
 20
5.16813462921857
 30
0.0
 11
-27.11816987642249
 21
4.908135044258585
 31
0.0
  0
LINE
  5
74
330
2
100
AcDbEntity
  8
GAIKEI
  6
Continuous
 62
     1
100
AcDbLine
 10
-27.31816916232253
 20
4.908135044258585
 30
0.0
 11
-27.31816916232253
 21
5.16813462921857
 31
0.0
  0
LINE
  5
75
330
2
100
AcDbEntity
  8
GAIKEI
  6
Continuous
 62
     1
100
AcDbLine
 10
-27.31816916232253
 20
4.448136173418561
 30
0.0
 11
-27.31816916232253
 21
4.708135758378602
 31
0.0
  0
LINE
  5
76
330
2
100
AcDbEntity
  8
GAIKEI
  6
Continuous
 62
     1
100
AcDbLine
 10
-27.57816874728246
 20
4.708135758378602
 30
0.0
 11
-27.57816874728246
 21
4.908135044258585
 31
0.0
  0
LINE
  5
77
330
2
100
AcDbEntity
  8
GAIKEI
  6
Continuous
 62
     1
100
AcDbLine
 10
-27.31816916232253
 20
5.16813462921857
 30
0.0
 11
-27.11816987642249
 21
5.16813462921857
 31
0.0
  0
LINE
  5
78
330
2
100
AcDbEntity
  8
GAIKEI
  6
Continuous
100
AcDbLine
 10
-28.00924412836204
 20
5.059109675418568
 30
0.0
 11
-27.93803708224255
 21
4.67640320221858
 31
0.0
  0
LINE
  5
79
330
2
100
AcDbEntity
  8
GAIKEI
  6
Continuous
100
AcDbLine
 10
-28.06823176941018
 20
5.108134330158605
 30
0.0
 11
-28.07260529512246
 21
5.108134330158577
 31
0.0
  0
LINE
  5
7A
330
2
100
AcDbEntity
  8
GAIKEI
  6
Continuous
 62
     1
100
AcDbLine
 10
-27.11816987642249
 20
4.908135044258585
 30
0.0
 11
-26.85817029146256
 21
4.908135044258585
 31
0.0
  0
LINE
  5
7B
330
2
100
AcDbEntity
  8
GAIKEI
  6
Continuous
 62
     1
100
AcDbLine
 10
-27.57816874728246
 20
4.908135044258585
 30
0.0
 11
-27.31816916232253
 21
4.908135044258585
 31
0.0
  0
LINE
  5
7C
330
2
100
AcDbEntity
  8
GAIKEI
  6
Continuous
 62
     1
100
AcDbLine
 10
-27.31816916232253
 20
4.708135758378602
 30
0.0
 11
-27.57816874728246
 21
4.708135758378602
 31
0.0
  0
LINE
  5
7D
330
2
100
AcDbEntity
  8
GAIKEI
  6
Continuous
 62
     1
100
AcDbLine
 10
-26.85817029146256
 20
4.708135758378602
 30
0.0
 11
-27.11816987642249
 21
4.708135758378602
 31
0.0
  0
LINE
  5
7E
330
2
100
AcDbEntity
  8
GAIKEI
  6
Continuous
 62
     1
100
AcDbLine
 10
-27.11816987642249
 20
4.448136173418561
 30
0.0
 11
-27.31816916232253
 21
4.448136173418561
 31
0.0
  0
LWPOLYLINE
  5
7F
330
2
100
AcDbEntity
  8
GAIKEI
  6
Continuous
100
AcDbPolyline
 90
        5
 70
     0
 43
0.0
 10
-28.07260529512257
 20
5.108134330158577
 10
-28.09310672336255
 20
5.111742868978581
 10
-28.11114428438259
 20
5.122142441718551
 10
-28.12453642916251
 20
5.138080582598547
 10
-28.13168164400258
 20
5.157632395338566
  0
LINE
  5
80
330
2
100
AcDbEntity
  8
GAIKEI
  6
Continuous
100
AcDbLine
 10
-27.25054114108252
 20
4.10813276765856
 30
0.0
 11
-13.05930562781782
 21
4.10813276765856
 31
0.0
  0
LWPOLYLINE
  5
81
330
2
100
AcDbEntity
  8
GAIKEI
  6
Continuous
 62
     1
100
AcDbPolyline
 90
       10
 70
     0
 43
0.0
 10
37.89509321415892
 20
5.108134006998568
 10
37.90022151279891
 20
5.129923331698591
 10
37.90496423433888
 20
5.151808430598578
 10
37.90932382871893
 20
5.173805690358562
 10
37.91330270089896
 20
5.195940476158568
 10
37.91689669095888
 20
5.218209617598574
 10
37.92009671349888
 20
5.24057409175856
 10
37.92289022897899
 20
5.262943606418559
 10
37.92527208249885
 20
5.285240484778569
 10
37.9273018555989
 20
5.308134006998557
  0
LINE
  5
82
330
2
100
AcDbEntity
  8
GAIKEI
  6
Continuous
 62
     1
100
AcDbLine
 10
38.99522597975897
 20
14.35813400699857
 30
0.0
 11
38.99522597975897
 21
12.45813400699859
 31
0.0
  0
LINE
  5
83
330
2
100
AcDbEntity
  8
GAIKEI
  6
Continuous
 62
     1
100
AcDbLine
 10
38.99522597975897
 20
17.7581340069986
 30
0.0
 11
38.99522597975897
 21
15.85813400699857
 31
0.0
  0
LWPOLYLINE
  5
84
330
2
100
AcDbEntity
  8
GAIKEI
  6
Continuous
 62
     1
100
AcDbPolyline
 90
        5
 70
     0
 43
0.0
 10
37.89522597975895
 20
5.310305899178558
 10
37.89814658899889
 20
5.358083704178568
 10
37.89916542415892
 20
5.408134698818571
 10
37.89814649599885
 20
5.458186593198547
 10
37.89522597975895
 20
5.505962147958598
  0
LINE
  5
85
330
2
100
AcDbEntity
  8
GAIKEI
  6
Continuous
 62
     1
100
AcDbLine
 10
38.35522597975899
 20
17.75813251515859
 30
0.0
 11
38.35522597975899
 21
17.90813400699858
 31
0.0
  0
LINE
  5
86
330
2
100
AcDbEntity
  8
GAIKEI
  6
Continuous
 62
     1
100
AcDbLine
 10
38.35522597975899
 20
15.70813400699859
 30
0.0
 11
38.35522597975899
 21
15.85813718137859
 31
0.0
  0
LINE
  5
87
330
2
100
AcDbEntity
  8
GAIKEI
  6
Continuous
 62
     1
100
AcDbLine
 10
38.35522597975899
 20
14.35813251515856
 30
0.0
 11
38.35522597975899
 21
14.5081340069986
 31
0.0
  0
LINE
  5
88
330
2
100
AcDbEntity
  8
GAIKEI
  6
Continuous
 62
     1
100
AcDbLine
 10
38.35522597975899
 20
12.30813400699856
 30
0.0
 11
38.35522597975899
 21
12.45813718137856
 31
0.0
  0
LINE
  5
89
330
2
100
AcDbEntity
  8
GAIKEI
  6
Continuous
 62
     1
100
AcDbLine
 10
37.97522597975888
 20
11.2080385506386
 30
0.0
 11
37.97522597975888
 21
8.808229463378609
 31
0.0
  0
LINE
  5
8A
330
2
100
AcDbEntity
  8
GAIKEI
  6
Continuous
 62
     1
100
AcDbLine
 10
37.95522597975889
 20
17.75813083261857
 30
0.0
 11
37.95522597975889
 21
17.90813400699858
 31
0.0
  0
LINE
  5
8B
330
2
100
AcDbEntity
  8
GAIKEI
  6
Continuous
 62
     1
100
AcDbLine
 10
37.95522597975889
 20
15.70813400699859
 30
0.0
 11
37.95522597975889
 21
15.85813549885858
 31
0.0
  0
LINE
  5
8C
330
2
100
AcDbEntity
  8
GAIKEI
  6
Continuous
 62
     1
100
AcDbLine
 10
37.95522597975889
 20
14.3581308326186
 30
0.0
 11
37.95522597975889
 21
14.5081340069986
 31
0.0
  0
LINE
  5
8D
330
2
100
AcDbEntity
  8
GAIKEI
  6
Continuous
 62
     1
100
AcDbLine
 10
37.95522597975889
 20
12.30813400699856
 30
0.0
 11
37.95522597975889
 21
12.45813549885861
 31
0.0
  0
LINE
  5
8E
330
2
100
AcDbEntity
  8
GAIKEI
  6
Continuous
 62
     1
100
AcDbLine
 10
37.89522597975895
 20
4.908134006998579
 30
0.0
 11
37.89522597975895
 21
5.814408613678608
 31
0.0
  0
LINE
  5
8F
330
2
100
AcDbEntity
  8
GAIKEI
  6
Continuous
 62
     1
100
AcDbLine
 10
37.89522597975895
 20
7.345432341618561
 30
0.0
 11
37.89522597975895
 21
6.570835672378564
 31
0.0
  0
LINE
  5
90
330
2
100
AcDbEntity
  8
GAIKEI
  6
Continuous
 62
     1
100
AcDbLine
 10
37.59522597975888
 20
7.158945772838592
 30
0.0
 11
37.59522597975888
 21
4.55732224117861
 31
0.0
  0
LINE
  5
91
330
2
100
AcDbEntity
  8
GAIKEI
  6
Continuous
 62
     1
100
AcDbLine
 10
37.59522597975888
 20
7.358134006998568
 30
0.0
 11
37.59522597975888
 21
7.345432341618561
 31
0.0
  0
LINE
  5
92
330
2
100
AcDbEntity
  8
GAIKEI
  6
Continuous
 62
     1
100
AcDbLine
 10
37.53522597975893
 20
8.808134006998557
 30
0.0
 11
37.53522597975893
 21
8.108149768638611
 31
0.0
  0
LINE
  5
93
330
2
100
AcDbEntity
  8
GAIKEI
  6
Continuous
 62
     1
100
AcDbLine
 10
37.53522597975893
 20
12.45813400699859
 30
0.0
 11
37.53522597975893
 21
11.20813400699859
 31
0.0
  0
LINE
  5
94
330
2
100
AcDbEntity
  8
GAIKEI
  6
Continuous
 62
     1
100
AcDbLine
 10
37.53522597975893
 20
15.10811824537859
 30
0.0
 11
37.53522597975893
 21
14.35813400699857
 31
0.0
  0
LWPOLYLINE
  5
95
330
2
100
AcDbEntity
  8
GAIKEI
  6
Continuous
 62
     1
100
AcDbPolyline
 90
       10
 70
     0
 43
0.0
 10
37.9273018555989
 20
5.508134006998545
 10
37.92525722183893
 20
5.531179311158552
 10
37.92286873717888
 20
5.553509850958562
 10
37.92007735729885
 20
5.575838349078594
 10
37.91688348019898
 20
5.598145156858549
 10
37.91329464895898
 20
5.620374737798556
 10
37.90931927035888
 20
5.642486444578594
 10
37.90496155551887
 20
5.664472496938572
 10
37.90021978615892
 20
5.686352321598576
 10
37.89509321415892
 20
5.708134006998591
  0
LINE
  5
96
330
2
100
AcDbEntity
  8
GAIKEI
  6
Continuous
 62
     1
100
AcDbLine
 10
37.05522597975892
 20
7.808414517238588
 30
0.0
 11
37.05522597975892
 21
8.407853496778557
 31
0.0
  0
LINE
  5
97
330
2
100
AcDbEntity
  8
GAIKEI
  6
Continuous
 62
     1
100
AcDbLine
 10
37.05522597975892
 20
7.308134006998557
 30
0.0
 11
37.05522597975892
 21
7.558134006998557
 31
0.0
  0
LINE
  5
98
330
2
100
AcDbEntity
  8
GAIKEI
  6
Continuous
100
AcDbLine
 10
36.99522597975897
 20
19.30813400699856
 30
0.0
 11
36.99522597975897
 21
4.308134006998557
 31
0.0
  0
LINE
  5
99
330
2
100
AcDbEntity
  8
GAIKEI
  6
Continuous
100
AcDbLine
 10
35.79522597975893
 20
4.108134006998568
 30
0.0
 11
35.79522597975893
 21
19.5081340069986
 31
0.0
  0
LWPOLYLINE
  5
9A
330
2
100
AcDbEntity
  8
GAIKEI
  6
Continuous
 62
     1
100
AcDbPolyline
 90
        6
 70
     0
 43
0.0
 10
37.95522604957887
 20
17.7581340069986
 10
37.96504932681887
 20
17.75611457607857
 10
37.99345026399897
 20
17.75082769119859
 10
38.03810124529889
 20
17.7441992843386
 10
38.09408813591892
 20
17.73885299571856
 10
38.15522597975894
 20
17.73684278805859
  0
LWPOLYLINE
  5
9B
330
2
100
AcDbEntity
  8
GAIKEI
  6
Continuous
 62
     1
100
AcDbPolyline
 90
        6
 70
     0
 43
0.0
 10
38.35522591103893
 20
15.85813400699857
 10
38.34542658049895
 20
15.86014863341859
 10
38.31707981859893
 20
15.86542691295858
 10
38.2723905202389
 20
15.8720637481386
 10
38.21642197227891
 20
15.8774111967586
 10
38.15522597975894
 20
15.87942522595858
  0
LINE
  5
9C
330
2
100
AcDbEntity
  8
GAIKEI
  6
Continuous
100
AcDbLine
 10
8.195225979758902
 20
19.5081340069986
 30
0.0
 11
36.79522597975893
 21
19.5081340069986
 31
0.0
  0
LWPOLYLINE
  5
9D
330
2
100
AcDbEntity
  8
GAIKEI
  6
Continuous
 62
     1
100
AcDbPolyline
 90
        6
 70
     0
 43
0.0
 10
37.95522604957887
 20
14.35813400699857
 10
37.96504932681887
 20
14.35611457607859
 10
37.99345026399897
 20
14.35082769119856
 10
38.03810124529889
 20
14.34419928433857
 10
38.09408813591892
 20
14.33885299571858
 10
38.15522597975894
 20
14.33684278805856
  0
LINE
  5
9E
330
2
100
AcDbEntity
  8
GAIKEI
  6
Continuous
 62
     1
100
AcDbLine
 10
8.195225979758902
 20
18.5081340069986
 30
0.0
 11
36.79522597975893
 21
18.5081340069986
 31
0.0
  0
LINE
  5
9F
330
2
100
AcDbEntity
  8
GAIKEI
  6
Continuous
 62
     1
100
AcDbLine
 10
37.95529487041893
 20
17.90813400699858
 30
0.0
 11
38.35515708907895
 21
17.90813400699858
 31
0.0
  0
LINE
  5
A0
330
2
100
AcDbEntity
  8
GAIKEI
  6
Continuous
 62
     1
100
AcDbLine
 10
38.35521860705887
 20
17.7581340069986
 30
0.0
 11
38.99522597975897
 21
17.7581340069986
 31
0.0
  0
LINE
  5
A1
330
2
100
AcDbEntity
  8
GAIKEI
  6
Continuous
 62
     1
100
AcDbLine
 10
36.99522597975897
 20
17.7581340069986
 30
0.0
 11
37.95524166661892
 21
17.7581340069986
 31
0.0
  0
LWPOLYLINE
  5
A2
330
2
100
AcDbEntity
  8
GAIKEI
  6
Continuous
 62
     1
100
AcDbPolyline
 90
        6
 70
     0
 43
0.0
 10
38.15522597975894
 20
17.73684278805859
 10
38.21642289845886
 20
17.73885687813856
 10
38.27239129541886
 20
17.74420436289858
 10
38.31708096343891
 20
17.75084129759858
 10
38.34543063293893
 20
17.7561201936586
 10
38.35522595717896
 20
17.7581340069986
  0
LWPOLYLINE
  5
A3
330
2
100
AcDbEntity
  8
GAIKEI
  6
Continuous
 62
     1
100
AcDbPolyline
 90
        6
 70
     0
 43
0.0
 10
38.35522591103893
 20
12.45813400699859
 10
38.34542658049895
 20
12.46014863341855
 10
38.31707981859893
 20
12.4654269129586
 10
38.2723905202389
 20
12.47206374813856
 10
38.21642197227891
 20
12.47741119675856
 10
38.15522597975894
 20
12.47942522595861
  0
LINE
  5
A4
330
2
100
AcDbEntity
  8
GAIKEI
  6
Continuous
 62
     1
100
AcDbLine
 10
38.35521029287895
 20
15.85813400699857
 30
0.0
 11
38.99522597975897
 21
15.85813400699857
 31
0.0
  0
LINE
  5
A5
330
2
100
AcDbEntity
  8
GAIKEI
  6
Continuous
 62
     1
100
AcDbLine
 10
36.99522597975897
 20
15.85813400699857
 30
0.0
 11
37.95523335245889
 21
15.85813400699857
 31
0.0
  0
LINE
  5
A6
330
2
100
AcDbEntity
  8
GAIKEI
  6
Continuous
 62
     1
100
AcDbLine
 10
37.95529487041893
 20
15.70813400699859
 30
0.0
 11
38.35515708907895
 21
15.70813400699859
 31
0.0
  0
LINE
  5
A7
330
2
100
AcDbEntity
  8
GAIKEI
  6
Continuous
 62
     1
100
AcDbLine
 10
8.195225979758902
 20
15.20813400699859
 30
0.0
 11
36.79522597975893
 21
15.20813400699859
 31
0.0
  0
LINE
  5
A8
330
2
100
AcDbEntity
  8
GAIKEI
  6
Continuous
 62
     1
100
AcDbLine
 10
36.99522597975897
 20
15.10813400699857
 30
0.0
 11
37.53522597975893
 21
15.10813400699857
 31
0.0
  0
LWPOLYLINE
  5
A9
330
2
100
AcDbEntity
  8
GAIKEI
  6
Continuous
 62
     1
100
AcDbPolyline
 90
        6
 70
     0
 43
0.0
 10
38.15522597975894
 20
15.87942522595858
 10
38.0940874867589
 20
15.87741497565855
 10
38.03809945983892
 20
15.87206850627859
 10
37.99344902727887
 20
15.86544011057856
 10
37.9650525958989
 20
15.86015409375858
 10
37.95522600269896
 20
15.85813400699857
  0
LWPOLYLINE
  5
AA
330
2
100
AcDbEntity
  8
GAIKEI
  6
Continuous
 62
     1
100
AcDbPolyline
 90
        5
 70
     0
 43
0.0
 10
38.30596973987895
 20
7.174958109818589
 10
38.28789320321892
 20
7.18347290661859
 10
38.26103088051889
 20
7.190606557138551
 10
38.22928509941892
 20
7.197588077758553
 10
38.1952259782189
 20
7.206351947698578
  0
LINE
  5
AB
330
2
100
AcDbEntity
  8
GAIKEI
  6
Continuous
 62
     1
100
AcDbLine
 10
38.04662184457891
 20
7.286165888698576
 30
0.0
 11
38.02202089899891
 21
7.296554698478587
 31
0.0
  0
LINE
  5
AC
330
2
100
AcDbEntity
  8
GAIKEI
  6
Continuous
 62
     1
100
AcDbLine
 10
7.795225979758924
 20
14.6981340069986
 30
0.0
 11
7.85522597975887
 21
14.6981340069986
 31
0.0
  0
LINE
  5
AD
330
2
100
AcDbEntity
  8
GAIKEI
  6
Continuous
 62
     1
100
AcDbLine
 10
37.95529487041893
 20
14.5081340069986
 30
0.0
 11
38.35515708907895
 21
14.5081340069986
 31
0.0
  0
LINE
  5
AE
330
2
100
AcDbEntity
  8
GAIKEI
  6
Continuous
 62
     1
100
AcDbLine
 10
38.35521860705887
 20
14.35813400699857
 30
0.0
 11
38.99522597975897
 21
14.35813400699857
 31
0.0
  0
LINE
  5
AF
330
2
100
AcDbEntity
  8
GAIKEI
  6
Continuous
 62
     1
100
AcDbLine
 10
36.99522597975897
 20
14.35813400699857
 30
0.0
 11
37.95524166661892
 21
14.35813400699857
 31
0.0
  0
LWPOLYLINE
  5
B0
330
2
100
AcDbEntity
  8
GAIKEI
  6
Continuous
 62
     1
100
AcDbPolyline
 90
        6
 70
     0
 43
0.0
 10
38.15522597975894
 20
14.33684278805856
 10
38.21642289845886
 20
14.33885687813858
 10
38.27239129541886
 20
14.34420436289861
 10
38.31708096343891
 20
14.35084129759855
 10
38.34543063293893
 20
14.35612019365857
 10
38.35522595717896
 20
14.35813400699857
  0
LWPOLYLINE
  5
B1
330
2
100
AcDbEntity
  8
GAIKEI
  6
Continuous
 62
     1
100
AcDbPolyline
 90
        4
 70
     0
 43
0.0
 10
38.1952259782189
 20
7.206351947698578
 10
38.15256341565896
 20
7.222052870838581
 10
38.11312759099894
 20
7.242890323578592
 10
38.04662184457891
 20
7.286165888698576
  0
LINE
  5
B2
330
2
100
AcDbEntity
  8
GAIKEI
  6
Continuous
 62
     1
100
AcDbLine
 10
11.29522597975892
 20
12.60813400699857
 30
0.0
 11
9.595225979758879
 21
12.60813400699857
 31
0.0
  0
LINE
  5
B3
330
2
100
AcDbEntity
  8
GAIKEI
  6
Continuous
 62
     1
100
AcDbLine
 10
38.35521029287895
 20
12.45813400699859
 30
0.0
 11
38.99522597975897
 21
12.45813400699859
 31
0.0
  0
LINE
  5
B4
330
2
100
AcDbEntity
  8
GAIKEI
  6
Continuous
 62
     1
100
AcDbLine
 10
36.99522597975897
 20
12.45813400699859
 30
0.0
 11
37.95523335245889
 21
12.45813400699859
 31
0.0
  0
LINE
  5
B5
330
2
100
AcDbEntity
  8
GAIKEI
  6
Continuous
 62
     1
100
AcDbLine
 10
37.95529487041893
 20
12.30813400699856
 30
0.0
 11
38.35515708907895
 21
12.30813400699856
 31
0.0
  0
LINE
  5
B6
330
2
100
AcDbEntity
  8
GAIKEI
  6
Continuous
 62
     1
100
AcDbLine
 10
36.99522597975897
 20
11.20813400699859
 30
0.0
 11
37.97522597975888
 21
11.20813400699859
 31
0.0
  0
LINE
  5
B7
330
2
100
AcDbEntity
  8
GAIKEI
  6
Continuous
 62
     1
100
AcDbLine
 10
9.595225979758879
 20
11.0081340069986
 30
0.0
 11
11.29522597975892
 21
11.0081340069986
 31
0.0
  0
LWPOLYLINE
  5
B8
330
2
100
AcDbEntity
  8
GAIKEI
  6
Continuous
 62
     1
100
AcDbPolyline
 90
        6
 70
     0
 43
0.0
 10
38.15522597975894
 20
12.47942522595861
 10
38.0940874867589
 20
12.47741497565857
 10
38.03809945983892
 20
12.47206850627856
 10
37.99344902727887
 20
12.46544011057858
 10
37.9650525958989
 20
12.46015409375855
 10
37.95522600269896
 20
12.45813400699859
  0
LINE
  5
B9
330
2
100
AcDbEntity
  8
GAIKEI
  6
Continuous
 62
     1
100
AcDbLine
 10
37.10105177703895
 20
7.306968847538598
 30
0.0
 11
37.54699294785894
 21
7.217780613378579
 31
0.0
  0
LINE
  5
BA
330
2
100
AcDbEntity
  8
GAIKEI
  6
Continuous
 62
     1
100
AcDbLine
 10
37.1011761259789
 20
7.3069419415786
 30
0.0
 11
37.09982559713888
 21
7.307196282338566
 31
0.0
  0
LWPOLYLINE
  5
BB
330
2
100
AcDbEntity
  8
GAIKEI
  6
Continuous
 62
     1
100
AcDbPolyline
 90
        4
 70
     0
 43
0.0
 10
37.99530874193897
 20
7.300942379298589
 10
37.99896694025893
 20
7.30040405049857
 10
38.00801010225894
 20
7.298988363378555
 10
38.02202089899891
 20
7.296554698478587
  0
LINE
  5
BC
330
2
100
AcDbEntity
  8
GAIKEI
  6
Continuous
 62
     1
100
AcDbLine
 10
37.05522597975892
 20
8.408134006998579
 30
0.0
 11
36.99522597975897
 21
8.413134006998575
 31
0.0
  0
LINE
  5
BD
330
2
100
AcDbEntity
  8
GAIKEI
  6
Continuous
 62
     1
100
AcDbLine
 10
7.795225979758924
 20
8.91813400699857
 30
0.0
 11
7.85522597975887
 21
8.91813400699857
 31
0.0
  0
LINE
  5
BE
330
2
100
AcDbEntity
  8
GAIKEI
  6
Continuous
 62
     1
100
AcDbLine
 10
36.99522597975897
 20
8.808134006998557
 30
0.0
 11
37.97522597975888
 21
8.808134006998557
 31
0.0
  0
LINE
  5
BF
330
2
100
AcDbEntity
  8
GAIKEI
  6
Continuous
 62
     1
100
AcDbLine
 10
8.195225979758902
 20
8.408134006998579
 30
0.0
 11
36.79522597975893
 21
8.408134006998579
 31
0.0
  0
LINE
  5
C0
330
2
100
AcDbEntity
  8
GAIKEI
  6
Continuous
 62
     1
100
AcDbLine
 10
37.05522597975892
 20
8.108134006998568
 30
0.0
 11
37.53522597975893
 21
8.108134006998568
 31
0.0
  0
LINE
  5
C1
330
2
100
AcDbEntity
  8
GAIKEI
  6
Continuous
 62
     1
100
AcDbLine
 10
37.05522597975892
 20
7.558134006998557
 30
0.0
 11
36.99522597975897
 21
7.558134006998557
 31
0.0
  0
LINE
  5
C2
330
2
100
AcDbEntity
  8
GAIKEI
  6
Continuous
 62
     1
100
AcDbLine
 10
37.05522597975892
 20
7.358134006998568
 30
0.0
 11
37.59522597975888
 21
7.358134006998568
 31
0.0
  0
LINE
  5
C3
330
2
100
AcDbEntity
  8
GAIKEI
  6
Continuous
 62
     1
100
AcDbLine
 10
37.59522597975888
 20
7.345432341618561
 30
0.0
 11
37.89522597975895
 21
7.345432341618561
 31
0.0
  0
LINE
  5
C4
330
2
100
AcDbEntity
  8
GAIKEI
  6
Continuous
 62
     1
100
AcDbLine
 10
37.08928480893894
 20
7.308134006998557
 30
0.0
 11
36.99522597975897
 21
7.308134006998557
 31
0.0
  0
LINE
  5
C5
330
2
100
AcDbEntity
  8
GAIKEI
  6
Continuous
 62
     1
100
AcDbLine
 10
37.59522597975888
 20
6.570835672378564
 30
0.0
 11
37.89522597975895
 21
6.570835672378564
 31
0.0
  0
LINE
  5
C6
330
2
100
AcDbEntity
  8
GAIKEI
  6
Continuous
 62
     1
100
AcDbLine
 10
37.59522597975888
 20
6.108134006998568
 30
0.0
 11
37.89522597975895
 21
6.108134006998568
 31
0.0
  0
LINE
  5
C7
330
2
100
AcDbEntity
  8
GAIKEI
  6
Continuous
 62
     1
100
AcDbLine
 10
37.89522597975895
 20
5.708134006998591
 30
0.0
 11
37.89916542415892
 21
5.708134006998591
 31
0.0
  0
LINE
  5
C8
330
2
100
AcDbEntity
  8
GAIKEI
  6
Continuous
 62
     1
100
AcDbLine
 10
37.05522597975892
 20
7.808134006998557
 30
0.0
 11
36.99563977285891
 21
7.803168489758604
 31
0.0
  0
LINE
  5
C9
330
2
100
AcDbEntity
  8
GAIKEI
  6
Continuous
 62
     1
100
AcDbLine
 10
37.89509321415892
 20
5.508134006998602
 30
0.0
 11
37.9273018555989
 21
5.508134006998602
 31
0.0
  0
LINE
  5
CA
330
2
100
AcDbEntity
  8
GAIKEI
  6
Continuous
 62
     1
100
AcDbLine
 10
37.9273018555989
 20
5.308134006998557
 30
0.0
 11
37.89509321415892
 21
5.308134006998557
 31
0.0
  0
LINE
  5
CB
330
2
100
AcDbEntity
  8
GAIKEI
  6
Continuous
 62
     1
100
AcDbLine
 10
8.195225979758902
 20
5.108134006998568
 30
0.0
 11
36.79522597975893
 21
5.108134006998568
 31
0.0
  0
LINE
  5
CC
330
2
100
AcDbEntity
  8
GAIKEI
  6
Continuous
 62
     1
100
AcDbLine
 10
37.89916542415892
 20
5.108134006998568
 30
0.0
 11
37.89522597975895
 21
5.108134006998568
 31
0.0
  0
LINE
  5
CD
330
2
100
AcDbEntity
  8
GAIKEI
  6
Continuous
 62
     1
100
AcDbLine
 10
37.79522597975893
 20
4.808134006998557
 30
0.0
 11
37.59522597975888
 21
4.808134006998557
 31
0.0
  0
LINE
  5
CE
330
2
100
AcDbEntity
  8
GAIKEI
  6
Continuous
 62
     1
100
AcDbLine
 10
37.08928480893894
 20
4.408134006998579
 30
0.0
 11
36.99522597975897
 21
4.408134006998579
 31
0.0
  0
LINE
  5
CF
330
2
100
AcDbEntity
  8
GAIKEI
  6
Continuous
100
AcDbLine
 10
8.195225979758902
 20
4.108134006998568
 30
0.0
 11
36.79522597975893
 21
4.108134006998568
 31
0.0
  0
LINE
  5
D0
330
2
100
AcDbEntity
  8
GAIKEI
  6
Continuous
 62
     1
100
AcDbLine
 10
37.09970292269896
 20
4.409050241258569
 30
0.0
 11
37.10117579589894
 21
4.409326074038574
 31
0.0
  0
LINE
  5
D1
330
2
100
AcDbEntity
  8
GAIKEI
  6
Continuous
 62
     1
100
AcDbLine
 10
37.10105177703895
 20
4.409299166458595
 30
0.0
 11
37.54699294785894
 21
4.498487400618557
 31
0.0
  0
LINE
  5
D2
330
2
100
AcDbEntity
  8
GAIKEI
  6
Continuous
 62
     1
100
AcDbLine
 10
7.85522597975887
 20
14.7581340069986
 30
0.0
 11
7.99522597975897
 21
15.0081340069986
 31
0.0
  0
LINE
  5
D3
330
2
100
AcDbEntity
  8
GAIKEI
  6
Continuous
 62
     1
100
AcDbLine
 10
9.195225979758902
 20
11.11928122769859
 30
0.0
 11
9.195225979758902
 21
4.108134006998568
 31
0.0
  0
LINE
  5
D4
330
2
100
AcDbEntity
  8
GAIKEI
  6
Continuous
 62
     1
100
AcDbLine
 10
9.195225979758902
 20
19.5081340069986
 30
0.0
 11
9.195225979758902
 21
12.4969877598586
 31
0.0
  0
LINE
  5
D5
330
2
100
AcDbEntity
  8
GAIKEI
  6
Continuous
 62
     1
100
AcDbLine
 10
7.85522597975887
 20
8.858134006998568
 30
0.0
 11
7.99522597975897
 21
8.608134006998568
 31
0.0
  0
LINE
  5
D6
330
2
100
AcDbEntity
  8
GAIKEI
  6
Continuous
100
AcDbLine
 10
7.99522597975897
 20
4.308134006998557
 30
0.0
 11
7.99522597975897
 21
19.30813400699856
 31
0.0
  0
LINE
  5
D7
330
2
100
AcDbEntity
  8
GAIKEI
  6
Continuous
 62
     1
100
AcDbLine
 10
7.85522597975887
 20
14.7581340069986
 30
0.0
 11
7.85522597975887
 21
8.858134006998568
 31
0.0
  0
LINE
  5
D8
330
2
100
AcDbEntity
  8
GAIKEI
  6
Continuous
 62
     1
100
AcDbLine
 10
7.795225979758924
 20
14.6981340069986
 30
0.0
 11
7.795225979758924
 21
8.91813400699857
 31
0.0
  0
ARC
  5
D9
330
2
100
AcDbEntity
  8
GAIKEI
  6
Continuous
100
AcDbCircle
 10
-28.50007057160015
 20
8.348135379958591
 30
0.0
 40
0.06
100
AcDbArc
 50
90.0
 51
185.2324497698196
  0
ARC
  5
DA
330
2
100
AcDbEntity
  8
GAIKEI
  6
Continuous
100
AcDbCircle
 10
-28.50306197035268
 20
15.14813163239856
 30
0.0
 40
0.06
100
AcDbArc
 50
14.49968223073731
 51
88.57323539570767
  0
ARC
  5
DB
330
2
100
AcDbEntity
  8
GAIKEI
  6
Continuous
100
AcDbCircle
 10
-28.50007407037331
 20
15.26809442852183
 30
0.0
 40
0.06
100
AcDbArc
 50
174.7676081683592
 51
268.5732353957043
  0
ARC
  5
DC
330
2
100
AcDbEntity
  8
GAIKEI
  6
Continuous
100
AcDbCircle
 10
-28.06823176941018
 20
5.048134330158603
 30
0.0
 40
0.06
100
AcDbArc
 50
10.54002905515502
 51
90.0
  0
ARC
  5
DD
330
2
100
AcDbEntity
  8
GAIKEI
  6
Continuous
100
AcDbCircle
 10
-28.06823176941018
 20
18.56813268219861
 30
0.0
 40
0.06
100
AcDbArc
 50
270.0
 51
349.4599709448449
  0
LWPOLYLINE
  5
DE
330
2
100
AcDbEntity
  8
GAIKEI
  6
Continuous
100
AcDbPolyline
 90
        5
 70
     0
 43
0.0
 10
-28.07260529512257
 20
18.50813268219863
 10
-28.09310672336255
 20
18.50452414337863
 10
-28.11114428438259
 20
18.49412457063866
 10
-28.12453642916251
 20
18.47818642975866
 10
-28.13168164400258
 20
18.45863461701864
  0
LINE
  5
DF
330
2
100
AcDbEntity
  8
GAIKEI
  6
Continuous
 62
     1
100
AcDbLine
 10
-27.11816987642249
 20
19.16813083893865
 30
0.0
 11
-27.31816916232253
 21
19.16813083893865
 31
0.0
  0
LINE
  5
E0
330
2
100
AcDbEntity
  8
GAIKEI
  6
Continuous
 62
     1
100
AcDbLine
 10
-26.85817029146256
 20
18.90813125397861
 30
0.0
 11
-27.11816987642249
 21
18.90813125397861
 31
0.0
  0
LINE
  5
E1
330
2
100
AcDbEntity
  8
GAIKEI
  6
Continuous
 62
     1
100
AcDbLine
 10
-27.31816916232253
 20
18.90813125397861
 30
0.0
 11
-27.57816874728246
 21
18.90813125397861
 31
0.0
  0
LINE
  5
E2
330
2
100
AcDbEntity
  8
GAIKEI
  6
Continuous
 62
     1
100
AcDbLine
 10
-27.57816874728246
 20
18.70813196809862
 30
0.0
 11
-27.31816916232253
 21
18.70813196809862
 31
0.0
  0
LINE
  5
E3
330
2
100
AcDbEntity
  8
GAIKEI
  6
Continuous
 62
     1
100
AcDbLine
 10
-27.11816987642249
 20
18.70813196809862
 30
0.0
 11
-26.85817029146256
 21
18.70813196809862
 31
0.0
  0
LINE
  5
E4
330
2
100
AcDbEntity
  8
GAIKEI
  6
Continuous
100
AcDbLine
 10
-28.06823176941018
 20
18.50813268219861
 30
0.0
 11
-28.07260529512246
 21
18.50813268219863
 31
0.0
  0
LINE
  5
E5
330
2
100
AcDbEntity
  8
GAIKEI
  6
Continuous
100
AcDbLine
 10
-28.00924412836204
 20
18.55715733693864
 30
0.0
 11
-27.93803708224255
 21
18.93986381013863
 31
0.0
  0
LINE
  5
E6
330
2
100
AcDbEntity
  8
GAIKEI
  6
Continuous
 62
     1
100
AcDbLine
 10
-27.31816916232253
 20
18.44813238313864
 30
0.0
 11
-27.11816987642249
 21
18.44813238313864
 31
0.0
  0
LINE
  5
E7
330
2
100
AcDbEntity
  8
GAIKEI
  6
Continuous
 62
     1
100
AcDbLine
 10
-27.57816874728246
 20
18.90813125397861
 30
0.0
 11
-27.57816874728246
 21
18.70813196809862
 31
0.0
  0
LINE
  5
E8
330
2
100
AcDbEntity
  8
GAIKEI
  6
Continuous
 62
     1
100
AcDbLine
 10
-27.31816916232253
 20
19.16813083893865
 30
0.0
 11
-27.31816916232253
 21
18.90813125397861
 31
0.0
  0
LINE
  5
E9
330
2
100
AcDbEntity
  8
GAIKEI
  6
Continuous
 62
     1
100
AcDbLine
 10
-27.31816916232253
 20
18.70813196809862
 30
0.0
 11
-27.31816916232253
 21
18.44813238313864
 31
0.0
  0
LINE
  5
EA
330
2
100
AcDbEntity
  8
GAIKEI
  6
Continuous
 62
     1
100
AcDbLine
 10
-27.11816987642249
 20
18.44813238313864
 30
0.0
 11
-27.11816987642249
 21
18.70813196809862
 31
0.0
  0
LINE
  5
EB
330
2
100
AcDbEntity
  8
GAIKEI
  6
Continuous
 62
     1
100
AcDbLine
 10
-27.11816987642249
 20
18.90813125397861
 30
0.0
 11
-27.11816987642249
 21
19.16813083893865
 31
0.0
  0
LINE
  5
EC
330
2
100
AcDbEntity
  8
GAIKEI
  6
Continuous
 62
     1
100
AcDbLine
 10
-26.85817029146256
 20
18.70813196809862
 30
0.0
 11
-26.85817029146256
 21
18.90813125397861
 31
0.0
  0
CIRCLE
  5
ED
330
2
100
AcDbEntity
  8
GAIKEI
  6
Continuous
 62
     1
100
AcDbCircle
 10
-27.21817001722252
 20
18.80813300535865
 30
0.0
 40
0.5
  0
ARC
  5
EE
330
2
100
AcDbEntity
  8
GAIKEI
  6
Continuous
100
AcDbCircle
 10
-27.25054262278252
 20
18.80813300535865
 30
0.0
 40
0.7000000000000001
100
AcDbArc
 50
90.00000000000003
 51
169.1529785781005
  0
ARC
  5
EF
330
2
100
AcDbEntity
  8
GAIKEI
  6
Continuous
100
AcDbCircle
 10
-12.24161499949017
 20
5.048134330158603
 30
0.0
 40
0.06
100
AcDbArc
 50
90.0
 51
169.459970944845
  0
ARC
  5
F0
330
2
100
AcDbEntity
  8
GAIKEI
  6
Continuous
100
AcDbCircle
 10
-11.80977619730019
 20
8.348135379958591
 30
0.0
 40
0.06
100
AcDbArc
 50
354.7675502301804
 51
90.0
  0
LWPOLYLINE
  5
F1
330
2
100
AcDbEntity
  8
GAIKEI
  6
Continuous
100
AcDbPolyline
 90
        5
 70
     0
 43
0.0
 10
-12.23724147377777
 20
5.108134330158577
 10
-12.21674004553779
 20
5.111742868978581
 10
-12.19870248451775
 20
5.122142441718551
 10
-12.18531033973784
 20
5.138080582598547
 10
-12.17816512489776
 20
5.157632395338566
  0
LINE
  5
F2
330
2
100
AcDbEntity
  8
GAIKEI
  6
Continuous
 62
     1
100
AcDbLine
 10
-13.19167689247786
 20
4.448136173418561
 30
0.0
 11
-12.99167760657781
 21
4.448136173418561
 31
0.0
  0
LINE
  5
F3
330
2
100
AcDbEntity
  8
GAIKEI
  6
Continuous
 62
     1
100
AcDbLine
 10
-13.45167647743778
 20
4.708135758378602
 30
0.0
 11
-13.19167689247786
 21
4.708135758378602
 31
0.0
  0
LINE
  5
F4
330
2
100
AcDbEntity
  8
GAIKEI
  6
Continuous
 62
     1
100
AcDbLine
 10
-12.99167760657781
 20
4.708135758378602
 30
0.0
 11
-12.73167802161788
 21
4.708135758378602
 31
0.0
  0
LINE
  5
F5
330
2
100
AcDbEntity
  8
GAIKEI
  6
Continuous
 62
     1
100
AcDbLine
 10
-12.73167802161788
 20
4.908135044258585
 30
0.0
 11
-12.99167760657781
 21
4.908135044258585
 31
0.0
  0
LINE
  5
F6
330
2
100
AcDbEntity
  8
GAIKEI
  6
Continuous
 62
     1
100
AcDbLine
 10
-13.19167689247786
 20
4.908135044258585
 30
0.0
 11
-13.45167647743778
 21
4.908135044258585
 31
0.0
  0
LINE
  5
F7
330
2
100
AcDbEntity
  8
GAIKEI
  6
Continuous
100
AcDbLine
 10
-12.24161499949017
 20
5.108134330158605
 30
0.0
 11
-12.23724147377788
 21
5.108134330158577
 31
0.0
  0
LINE
  5
F8
330
2
100
AcDbEntity
  8
GAIKEI
  6
Continuous
100
AcDbLine
 10
-12.3006026405383
 20
5.059109675418568
 30
0.0
 11
-12.3718096866578
 21
4.67640320221858
 31
0.0
  0
LINE
  5
F9
330
2
100
AcDbEntity
  8
GAIKEI
  6
Continuous
 62
     1
100
AcDbLine
 10
-12.99167760657781
 20
5.16813462921857
 30
0.0
 11
-13.19167689247786
 21
5.16813462921857
 31
0.0
  0
LINE
  5
FA
330
2
100
AcDbEntity
  8
GAIKEI
  6
Continuous
100
AcDbLine
 10
-12.73167802161788
 20
4.708135758378602
 30
0.0
 11
-12.73167802161788
 21
4.908135044258585
 31
0.0
  0
LINE
  5
FB
330
2
100
AcDbEntity
  8
GAIKEI
  6
Continuous
 62
     1
100
AcDbLine
 10
-12.99167760657781
 20
4.448136173418561
 30
0.0
 11
-12.99167760657781
 21
4.708135758378602
 31
0.0
  0
LINE
  5
FC
330
2
100
AcDbEntity
  8
GAIKEI
  6
Continuous
 62
     1
100
AcDbLine
 10
-12.99167760657781
 20
4.908135044258585
 30
0.0
 11
-12.99167760657781
 21
5.16813462921857
 31
0.0
  0
LINE
  5
FD
330
2
100
AcDbEntity
  8
GAIKEI
  6
Continuous
 62
     1
100
AcDbLine
 10
-13.19167689247786
 20
5.16813462921857
 30
0.0
 11
-13.19167689247786
 21
4.908135044258585
 31
0.0
  0
LINE
  5
FE
330
2
100
AcDbEntity
  8
GAIKEI
  6
Continuous
 62
     1
100
AcDbLine
 10
-13.19167689247786
 20
4.708135758378602
 30
0.0
 11
-13.19167689247786
 21
4.448136173418561
 31
0.0
  0
LINE
  5
FF
330
2
100
AcDbEntity
  8
GAIKEI
  6
Continuous
 62
     1
100
AcDbLine
 10
-13.45167647743778
 20
4.908135044258585
 30
0.0
 11
-13.45167647743778
 21
4.708135758378602
 31
0.0
  0
LINE
  5
100
330
2
100
AcDbEntity
  8
GAIKEI
  6
Continuous
100
AcDbLine
 10
-11.80977619730019
 20
8.408135379958565
 30
0.0
 11
-11.82225950965778
 21
8.408135379958594
 31
0.0
  0
LWPOLYLINE
  5
101
330
2
100
AcDbEntity
  8
GAIKEI
  6
Continuous
100
AcDbPolyline
 90
        5
 70
     0
 43
0.0
 10
-11.82225950965778
 20
8.408135379958594
 10
-11.83518967933787
 20
8.410280997638551
 10
-11.84672879065783
 20
8.416491996178592
 10
-11.85564491005777
 20
8.426101078198541
 10
-11.86097302283781
 20
8.438076499338592
  0
CIRCLE
  5
102
330
2
100
AcDbEntity
  8
GAIKEI
  6
Continuous
 62
     1
100
AcDbCircle
 10
-13.09167675167782
 20
4.808134006998557
 30
0.0
 40
0.5
  0
ARC
  5
103
330
2
100
AcDbEntity
  8
GAIKEI
  6
Continuous
100
AcDbCircle
 10
-49.59167675167782
 20
11.80813400699856
 30
0.0
 40
38.0
100
AcDbArc
 50
349.9205749725006
 51
354.7675502301722
  0
ARC
  5
104
330
2
100
AcDbEntity
  8
GAIKEI
  6
Continuous
100
AcDbCircle
 10
-13.05930414611782
 20
4.808134006998557
 30
0.0
 40
0.7000000000000001
100
AcDbArc
 50
270.0
 51
349.1529785781005
  0
ARC
  5
105
330
2
100
AcDbEntity
  8
GAIKEI
  6
Continuous
100
AcDbCircle
 10
-13.05930414611782
 20
18.80813300535865
 30
0.0
 40
0.7000000000000001
100
AcDbArc
 50
10.84702142189944
 51
89.99999999999998
  0
CIRCLE
  5
106
330
2
100
AcDbEntity
  8
GAIKEI
  6
Continuous
 62
     1
100
AcDbCircle
 10
-13.09167675167782
 20
18.80813300535865
 30
0.0
 40
0.5
  0
LINE
  5
107
330
2
100
AcDbEntity
  8
GAIKEI
  6
Continuous
 62
     1
100
AcDbLine
 10
-13.45167647743778
 20
18.70813196809862
 30
0.0
 11
-13.45167647743778
 21
18.90813125397861
 31
0.0
  0
LINE
  5
108
330
2
100
AcDbEntity
  8
GAIKEI
  6
Continuous
 62
     1
100
AcDbLine
 10
-13.19167689247786
 20
18.90813125397861
 30
0.0
 11
-13.19167689247786
 21
19.16813083893865
 31
0.0
  0
LINE
  5
109
330
2
100
AcDbEntity
  8
GAIKEI
  6
Continuous
 62
     1
100
AcDbLine
 10
-13.19167689247786
 20
18.44813238313864
 30
0.0
 11
-13.19167689247786
 21
18.70813196809862
 31
0.0
  0
LINE
  5
10A
330
2
100
AcDbEntity
  8
GAIKEI
  6
Continuous
 62
     1
100
AcDbLine
 10
-12.99167760657781
 20
18.70813196809862
 30
0.0
 11
-12.99167760657781
 21
18.44813238313864
 31
0.0
  0
LINE
  5
10B
330
2
100
AcDbEntity
  8
GAIKEI
  6
Continuous
 62
     1
100
AcDbLine
 10
-12.99167760657781
 20
19.16813083893865
 30
0.0
 11
-12.99167760657781
 21
18.90813125397861
 31
0.0
  0
LINE
  5
10C
330
2
100
AcDbEntity
  8
GAIKEI
  6
Continuous
 62
     1
100
AcDbLine
 10
-12.73167802161788
 20
18.90813125397861
 30
0.0
 11
-12.73167802161788
 21
18.70813196809862
 31
0.0
  0
LINE
  5
10D
330
2
100
AcDbEntity
  8
GAIKEI
  6
Continuous
 62
     1
100
AcDbLine
 10
-12.99167760657781
 20
18.44813238313864
 30
0.0
 11
-13.19167689247786
 21
18.44813238313864
 31
0.0
  0
LINE
  5
10E
330
2
100
AcDbEntity
  8
GAIKEI
  6
Continuous
100
AcDbLine
 10
-12.3006026405383
 20
18.55715733693864
 30
0.0
 11
-12.3718096866578
 21
18.93986381013863
 31
0.0
  0
LINE
  5
10F
330
2
100
AcDbEntity
  8
GAIKEI
  6
Continuous
100
AcDbLine
 10
-12.24161499949017
 20
18.50813268219861
 30
0.0
 11
-12.23724147377788
 21
18.50813268219863
 31
0.0
  0
LINE
  5
110
330
2
100
AcDbEntity
  8
GAIKEI
  6
Continuous
 62
     1
100
AcDbLine
 10
-13.19167689247786
 20
18.70813196809862
 30
0.0
 11
-13.45167647743778
 21
18.70813196809862
 31
0.0
  0
LINE
  5
111
330
2
100
AcDbEntity
  8
GAIKEI
  6
Continuous
 62
     1
100
AcDbLine
 10
-12.73167802161788
 20
18.70813196809862
 30
0.0
 11
-12.99167760657781
 21
18.70813196809862
 31
0.0
  0
LINE
  5
112
330
2
100
AcDbEntity
  8
GAIKEI
  6
Continuous
 62
     1
100
AcDbLine
 10
-12.99167760657781
 20
18.90813125397861
 30
0.0
 11
-12.73167802161788
 21
18.90813125397861
 31
0.0
  0
LINE
  5
113
330
2
100
AcDbEntity
  8
GAIKEI
  6
Continuous
 62
     1
100
AcDbLine
 10
-13.45167647743778
 20
18.90813125397861
 30
0.0
 11
-13.19167689247786
 21
18.90813125397861
 31
0.0
  0
LINE
  5
114
330
2
100
AcDbEntity
  8
GAIKEI
  6
Continuous
 62
     1
100
AcDbLine
 10
-13.19167689247786
 20
19.16813083893865
 30
0.0
 11
-12.99167760657781
 21
19.16813083893865
 31
0.0
  0
LWPOLYLINE
  5
115
330
2
100
AcDbEntity
  8
GAIKEI
  6
Continuous
100
AcDbPolyline
 90
        5
 70
     0
 43
0.0
 10
-12.23724147377777
 20
18.50813268219863
 10
-12.21674004553779
 20
18.50452414337863
 10
-12.19870248451775
 20
18.49412457063866
 10
-12.18531033973784
 20
18.47818642975866
 10
-12.17816512489776
 20
18.45863461701864
  0
ARC
  5
116
330
2
100
AcDbEntity
  8
GAIKEI
  6
Continuous
100
AcDbCircle
 10
-12.24161499949017
 20
18.56813268219861
 30
0.0
 40
0.06
100
AcDbArc
 50
190.540029055155
 51
270.0
  0
ARC
  5
117
330
2
100
AcDbEntity
  8
GAIKEI
  6
Continuous
100
AcDbCircle
 10
-11.80977269852703
 20
15.26809442852183
 30
0.0
 40
0.06
100
AcDbArc
 50
271.4267646042957
 51
5.232391831640758
  0
ARC
  5
118
330
2
100
AcDbEntity
  8
GAIKEI
  6
Continuous
100
AcDbCircle
 10
-11.80678479854766
 20
15.14813163239856
 30
0.0
 40
0.06
100
AcDbArc
 50
91.42676460429234
 51
165.5003177692627
  0
LINE
  5
119
330
2
100
AcDbEntity
  8
GAIKEI
  6
Continuous
100
AcDbLine
 10
-11.80678479854766
 20
15.20813163239859
 30
0.0
 11
-11.80977591589783
 21
15.20813163239859
 31
0.0
  0
ARC
  5
11A
330
2
100
AcDbEntity
  8
GAIKEI
  6
Continuous
100
AcDbCircle
 10
-49.59167675167782
 20
11.80813400699856
 30
0.0
 40
38.0
100
AcDbArc
 50
5.232391831642393
 51
10.07942502749937
  0
DIMENSION
  5
11B
330
2
100
AcDbEntity
  8
SUNPO
100
AcDbDimension
  2
*D6
 10
-11.75833617892248
 20
27.51346212498882
 30
0.0
 11
-20.15833617892252
 21
29.26346212498882
 31
0.0
 70
    33
  1
84
 71
     5
 42
16.80000000000006
  3
STANDARD
100
AcDbAlignedDimension
 13
-28.55833617892255
 23
19.51346212498882
 33
0.0
 14
-11.75833617892248
 24
19.51346212498882
 34
0.0
1001
ACAD
1000
DSTYLE
1002
{
1070
    40
1040
1.0
1070
   140
1040
2.5
1070
   147
1040
0.5
1070
   172
1070
     1
1070
   279
1070
     0
1070
   288
1070
     0
1002
}
  0
DIMENSION
  5
12A
330
2
100
AcDbEntity
  8
SUNPO
100
AcDbDimension
  2
*D5
 10
-3.743059578719531
 20
19.50813400699857
 30
0.0
 11
-5.493059578719535
 21
11.80813400699858
 31
0.0
 70
    33
  1
77
 71
     5
 42
15.39999999999998
  3
STANDARD
100
AcDbAlignedDimension
 13
-11.74305957871956
 23
4.108134006998596
 33
0.0
 14
-11.74305957871953
 24
19.50813400699857
 34
0.0
1001
ACAD
1000
DSTYLE
1002
{
1070
    40
1040
1.0
1070
   140
1040
2.5
1070
   147
1040
0.5
1070
   172
1070
     1
1070
   279
1070
     0
1070
   288
1070
     0
1002
}
  0
DIMENSION
  5
137
330
2
100
AcDbEntity
  8
SUNPO
100
AcDbDimension
  2
*D4
 10
38.99522597975897
 20
27.50496012743369
 30
0.0
 11
23.39522597975896
 21
29.25496012743369
 31
0.0
 70
    33
  1
156
 71
     5
 42
31.20000000000003
  3
STANDARD
100
AcDbAlignedDimension
 13
7.795225979758939
 23
19.50496012743369
 33
0.0
 14
38.99522597975897
 24
19.50496012743369
 34
0.0
1001
ACAD
1000
DSTYLE
1002
{
1070
    40
1040
1.0
1070
   140
1040
2.5
1070
   147
1040
0.5
1070
   172
1070
     1
1070
   279
1070
     0
1070
   288
1070
     0
1002
}
  0
TEXT
  5
144
330
2
100
AcDbEntity
  8
MOJI1
100
AcDbText
 10
-15.98071494975284
 20
-41.7910061594307
 30
0.0
 40
3.0
  1
１／３インチインターライン型３ＣＣＤ
 41
0.9
100
AcDbText
  0
LINE
  5
145
330
2
100
AcDbEntity
  8
WAKU
 62
     4
100
AcDbLine
 10
67.51928505024693
 20
-22.79100615943071
 30
0.0
 11
67.51928505024693
 21
-57.79100615943071
 31
0.0
  0
TEXT
  5
147
330
2
100
AcDbEntity
  8
MOJI1
100
AcDbText
 10
-54.98071494975284
 20
-46.7910061594307
 30
0.0
 40
3.0
  1
Ｓ／Ｎ比
100
AcDbText
  0
TEXT
  5
148
330
2
100
AcDbEntity
  8
MOJI1
100
AcDbText
 10
-54.98071494975284
 20
-31.79100615943071
 30
0.0
 40
3.0
  1
消費電力
100
AcDbText
  0
TEXT
  5
149
330
2
100
AcDbEntity
  8
MOJI1
100
AcDbText
 10
-54.98071494975284
 20
-26.79100615943071
 30
0.0
 40
3.0
  1
電  源
100
AcDbText
  0
TEXT
  5
14A
330
2
100
AcDbEntity
  8
MOJI1
100
AcDbText
 10
-54.98071494975284
 20
-36.79100615943071
 30
0.0
 40
3.0
  1
レンズマウント
100
AcDbText
  0
LINE
  5
14B
330
2
100
AcDbEntity
  8
WAKU
 62
     4
100
AcDbLine
 10
-57.48071494975306
 20
-22.79100615943071
 30
0.0
 11
-57.48071494975284
 21
-57.79100615943071
 31
0.0
  0
LINE
  5
14C
330
2
100
AcDbEntity
  8
WAKU
 62
     4
100
AcDbLine
 10
-17.48071494975306
 20
-22.79100615943071
 30
0.0
 11
-17.48071494975306
 21
-57.79100615943071
 31
0.0
  0
TEXT
  5
14D
330
2
100
AcDbEntity
  8
MOJI1
100
AcDbText
 10
-15.98071494975284
 20
-36.79100615943071
 30
0.0
 40
3.0
  1
１／３インチＣマウント
100
AcDbText
  0
TEXT
  5
14E
330
2
100
AcDbEntity
  8
MOJI1
100
AcDbText
 10
-15.98071494975284
 20
-46.7910061594307
 30
0.0
 40
3.0
  1
６６ｄｂ（Ｙ信号、ＤＴＬ　ＯＦＦ、ＤＮＲ　ＯＮ）
 41
0.95
100
AcDbText
  0
LINE
  5
14F
330
2
100
AcDbEntity
  8
WAKU
 62
     1
100
AcDbLine
 10
-57.48071494975284
 20
-32.79100615943071
 30
0.0
 11
67.51928505024693
 21
-32.79100615943071
 31
0.0
  0
LINE
  5
150
330
2
100
AcDbEntity
  8
WAKU
 62
     1
100
AcDbLine
 10
-57.48071494975284
 20
-42.79100615943071
 30
0.0
 11
67.51928505024693
 21
-42.79100615943071
 31
0.0
  0
LINE
  5
151
330
2
100
AcDbEntity
  8
WAKU
 62
     4
100
AcDbLine
 10
-57.48071494975284
 20
-22.79100615943071
 30
0.0
 11
67.51928505024693
 21
-22.79100615943071
 31
0.0
  0
LINE
  5
152
330
2
100
AcDbEntity
  8
WAKU
 62
     1
100
AcDbLine
 10
-57.48071494975284
 20
-27.79100615943071
 30
0.0
 11
67.51928505024693
 21
-27.79100615943071
 31
0.0
  0
LINE
  5
153
330
2
100
AcDbEntity
  8
WAKU
 62
     1
100
AcDbLine
 10
-57.48071494975284
 20
-37.79100615943071
 30
0.0
 11
67.51928505024693
 21
-37.79100615943071
 31
0.0
  0
LINE
  5
154
330
2
100
AcDbEntity
  8
WAKU
 62
     1
100
AcDbLine
 10
-57.48071494975284
 20
-47.79100615943071
 30
0.0
 11
67.51928505024693
 21
-47.79100615943071
 31
0.0
  0
LINE
  5
155
330
2
100
AcDbEntity
  8
WAKU
 62
     1
100
AcDbLine
 10
-57.48071494975284
 20
-52.79100615943071
 30
0.0
 11
67.51928505024693
 21
-52.79100615943071
 31
0.0
  0
LINE
  5
156
330
2
100
AcDbEntity
  8
WAKU
 62
     4
100
AcDbLine
 10
67.51928505024693
 20
-57.79100615943071
 30
0.0
 11
-57.48071494975284
 21
-57.79100615943071
 31
0.0
  0
TEXT
  5
157
330
2
100
AcDbEntity
  8
MOJI1
100
AcDbText
 10
-15.98071494975284
 20
-26.79100615943071
 30
0.0
 40
3.0
  1
ＤＣ１２Ｖ
100
AcDbText
  0
TEXT
  5
158
330
2
100
AcDbEntity
  8
MOJI1
100
AcDbText
 10
-15.98071494975284
 20
-31.79100615943071
 30
0.0
 40
3.0
  1
１１．３Ｗ
100
AcDbText
  0
TEXT
  5
159
330
2
100
AcDbEntity
  8
MOJI1
100
AcDbText
 10
-54.98071494975284
 20
-41.7910061594307
 30
0.0
 40
3.0
  1
撮像素子
100
AcDbText
  0
ENDSEC
  0
SECTION
  2
OBJECTS
  0
DICTIONARY
  5
9
330
0
100
AcDbDictionary
281
     1
  3
ACAD_COLOR
350
31
  3
ACAD_GROUP
350
2D
  3
ACAD_LAYOUT
350
D
  3
ACAD_MATERIAL
350
30
  3
ACAD_MLINESTYLE
350
2E
  3
ACAD_PLOTSETTINGS
350
2F
  3
ACAD_PLOTSTYLENAME
350
8
  3
ACDBHEADERROUNDTRIPXREC
350
18A
  3
AcDbVariableDictionary
350
185
  0
DICTIONARY
  5
15
330
14
100
AcDbDictionary
280
     1
281
     1
  3
ACAD_LAYERFILTERS
360
16
  3
ACAD_LAYERSTATES
360
17
  0
DICTIONARY
  5
3
330
2
100
AcDbDictionary
280
     1
281
     1
  3
ACAD_LAYOUTSELFREF
360
4
  0
DICTIONARY
  5
F
330
E
100
AcDbDictionary
280
     1
281
     1
  3
ACAD_LAYOUTSELFREF
360
10
  0
DICTIONARY
  5
31
102
{ACAD_REACTORS
330
9
102
}
330
9
100
AcDbDictionary
281
     1
  0
DICTIONARY
  5
2D
102
{ACAD_REACTORS
330
9
102
}
330
9
100
AcDbDictionary
281
     1
  0
DICTIONARY
  5
D
102
{ACAD_REACTORS
330
9
102
}
330
9
100
AcDbDictionary
281
     1
  3
Model
350
C
  3
ﾚｲｱｳﾄ1
350
13
  0
DICTIONARY
  5
30
102
{ACAD_REACTORS
330
9
102
}
330
9
100
AcDbDictionary
281
     1
  0
DICTIONARY
  5
2E
102
{ACAD_REACTORS
330
9
102
}
330
9
100
AcDbDictionary
281
     1
  3
STANDARD
350
33
  0
DICTIONARY
  5
2F
102
{ACAD_REACTORS
330
9
102
}
330
9
100
AcDbDictionary
281
     1
  0
ACDBDICTIONARYWDFLT
  5
8
102
{ACAD_REACTORS
330
9
102
}
330
9
100
AcDbDictionary
281
     1
  3
Normal
350
7
100
AcDbDictionaryWithDefault
340
7
  0
DICTIONARY
  5
18A
102
{ACAD_REACTORS
330
9
102
}
330
9
100
AcDbDictionary
281
     1
  3
COLORDICT
350
18C
  3
MATERIALDICT
350
18B
  0
DICTIONARY
  5
185
102
{ACAD_REACTORS
330
9
102
}
330
9
100
AcDbDictionary
281
     1
  3
DIMASSOC
350
187
  3
HIDETEXT
350
186
  3
PROJECTNAME
350
188
  0
DICTIONARY
  5
16
102
{ACAD_REACTORS
330
15
102
}
330
15
100
AcDbDictionary
280
     1
281
     1
  0
DICTIONARY
  5
17
102
{ACAD_REACTORS
330
15
102
}
330
15
100
AcDbDictionary
281
     1
  0
XRECORD
  5
4
102
{ACAD_REACTORS
330
3
102
}
330
3
100
AcDbXrecord
280
     1
340
2
  0
XRECORD
  5
10
102
{ACAD_REACTORS
330
F
102
}
330
F
100
AcDbXrecord
280
     1
340
E
  0
LAYOUT
  5
C
102
{ACAD_XDICTIONARY
360
18D
102
}
102
{ACAD_REACTORS
330
D
102
}
330
D
100
AcDbPlotSettings
  1

  2
DocuCentre-II 7000-A4縦.pc3
  4
A4
  6

 40
4.900083065032958
 41
4.900057315826416
 42
4.90008544921875
 43
4.90008544921875
 44
210.0156707763672
 45
297.0106506347656
 46
1.74
 47
0.0
 48
-6.068523874588208
 49
-0.7839319640286249
140
264.3484852628844
141
394.0084838035355
142
1.0
143
1.374575111112031
 70
 11956
 72
     1
 73
     0
 74
     4
  7
tmsacad.ctb
 75
     0
147
0.7274975313578897
148
6.068523874588208
149
0.7839319640286249
100
AcDbLayout
  1
Model
 70
     1
 71
     0
 10
0.0
 20
0.0
 11
12.0
 21
9.0
 12
0.0
 22
0.0
 32
0.0
 14
0.0
 24
0.0
 34
0.0
 15
0.0
 25
0.0
 35
0.0
146
0.0
 13
0.0
 23
0.0
 33
0.0
 16
1.0
 26
0.0
 36
0.0
 17
0.0
 27
1.0
 37
0.0
 76
     0
330
2
  0
LAYOUT
  5
13
102
{ACAD_XDICTIONARY
360
18F
102
}
102
{ACAD_REACTORS
330
D
102
}
330
D
100
AcDbPlotSettings
  1

  2
C:\Program Files\ACAD2000\plotters\DWF ePlot.pc3
  4

  6

 40
0.0
 41
0.0
 42
0.0
 43
0.0
 44
0.0
 45
0.0
 46
0.0
 47
0.0
 48
0.0
 49
0.0
140
0.0
141
0.0
142
1.0
143
1.0
 70
   688
 72
     0
 73
     0
 74
     5
  7
tmsacad.ctb
 75
    16
147
1.0
148
0.0
149
0.0
100
AcDbLayout
  1
ﾚｲｱｳﾄ1
 70
     1
 71
     1
 10
0.0
 20
0.0
 11
12.0
 21
9.0
 12
0.0
 22
0.0
 32
0.0
 14
1.000000000000000E+20
 24
1.000000000000000E+20
 34
1.000000000000000E+20
 15
-1.000000000000000E+20
 25
-1.000000000000000E+20
 35
-1.000000000000000E+20
146
0.0
 13
0.0
 23
0.0
 33
0.0
 16
1.0
 26
0.0
 36
0.0
 17
0.0
 27
1.0
 37
0.0
 76
     0
330
E
  0
MLINESTYLE
  5
33
102
{ACAD_REACTORS
330
2E
102
}
330
2E
100
AcDbMlineStyle
  2
STANDARD
 70
     0
  3

 62
   256
 51
90.0
 52
90.0
 71
     2
 49
0.5
 62
   256
  6
BYLAYER
 49
-0.5
 62
   256
  6
BYLAYER
  0
ACDBPLACEHOLDER
  5
7
102
{ACAD_REACTORS
330
8
102
}
330
8
  0
XRECORD
  5
18C
102
{ACAD_REACTORS
330
18A
102
}
330
18A
100
AcDbXrecord
280
     1
340
31
  0
XRECORD
  5
18B
102
{ACAD_REACTORS
330
18A
102
}
330
18A
100
AcDbXrecord
280
     1
340
30
  0
DICTIONARYVAR
  5
187
102
{ACAD_REACTORS
330
185
102
}
330
185
100
DictionaryVariables
280
     0
  1
1
  0
DICTIONARYVAR
  5
186
102
{ACAD_REACTORS
330
185
102
}
330
185
100
DictionaryVariables
280
     0
  1
1
  0
DICTIONARYVAR
  5
188
102
{ACAD_REACTORS
330
185
102
}
330
185
100
DictionaryVariables
280
     0
  1

  0
DICTIONARY
  5
18D
330
C
100
AcDbDictionary
280
     1
281
     1
  3
ACAD_XREC_ROUNDTRIP
360
18E
  0
DICTIONARY
  5
18F
330
13
100
AcDbDictionary
280
     1
281
     1
  3
ACAD_XREC_ROUNDTRIP
360
190
  0
XRECORD
  5
18E
102
{ACAD_REACTORS
330
18D
102
}
330
18D
100
AcDbXrecord
280
     1
102
SHADEPLOT
 70
     0
102
SHADEPLOTRESLEVEL
 70
     2
102
SHADEPLOTCUSTOMDPI
 70
   300
  0
XRECORD
  5
190
102
{ACAD_REACTORS
330
18F
102
}
330
18F
100
AcDbXrecord
280
     1
102
SHADEPLOT
 70
     0
102
SHADEPLOTRESLEVEL
 70
     2
102
SHADEPLOTCUSTOMDPI
 70
   300
  0
ENDSEC
  0
EOF
