  0
SECTION
  2
HEADER
  9
$ACADVER
  1
AC1015
  9
$ACADMAINTVER
 70
    20
  9
$DWGCODEPAGE
  3
ANSI_932
  9
$INSBASE
 10
129.499999944041
 20
246.5008351249346
 30
0.0
  9
$EXTMIN
 10
-61.92077546138398
 20
-52.80523618637267
 30
-0.0015258207003583
  9
$EXTMAX
 10
63.11279353116731
 20
60.92179912273048
 30
0.0000000349246037
  9
$LIMMIN
 10
0.0
 20
0.0
  9
$LIMMAX
 10
420.0
 20
297.0
  9
$ORTHOMODE
 70
     1
  9
$REGENMODE
 70
     0
  9
$FILLMODE
 70
     1
  9
$QTEXTMODE
 70
     0
  9
$MIRRTEXT
 70
     0
  9
$LTSCALE
 40
1.0
  9
$ATTMODE
 70
     1
  9
$TEXTSIZE
 40
2.5
  9
$TRACEWID
 40
1.0
  9
$TEXTSTYLE
  7
Standard
  9
$CLAYER
  8
GAIKEI
  9
$CELTYPE
  6
ByLayer
  9
$CECOLOR
 62
   256
  9
$CELTSCALE
 40
1.0
  9
$DISPSILH
 70
     0
  9
$DIMSCALE
 40
1.0
  9
$DIMASZ
 40
2.5
  9
$DIMEXO
 40
0.625
  9
$DIMDLI
 40
3.75
  9
$DIMRND
 40
0.0
  9
$DIMDLE
 40
0.0
  9
$DIMEXE
 40
1.25
  9
$DIMTP
 40
0.0
  9
$DIMTM
 40
0.0
  9
$DIMTXT
 40
2.5
  9
$DIMCEN
 40
2.5
  9
$DIMTSZ
 40
0.0
  9
$DIMTOL
 70
     0
  9
$DIMLIM
 70
     0
  9
$DIMTIH
 70
     0
  9
$DIMTOH
 70
     0
  9
$DIMSE1
 70
     0
  9
$DIMSE2
 70
     0
  9
$DIMTAD
 70
     1
  9
$DIMZIN
 70
     8
  9
$DIMBLK
  1

  9
$DIMASO
 70
     1
  9
$DIMSHO
 70
     1
  9
$DIMPOST
  1

  9
$DIMAPOST
  1

  9
$DIMALT
 70
     0
  9
$DIMALTD
 70
     3
  9
$DIMALTF
 40
0.03937007874016
  9
$DIMLFAC
 40
1.0
  9
$DIMTOFL
 70
     1
  9
$DIMTVP
 40
0.0
  9
$DIMTIX
 70
     0
  9
$DIMSOXD
 70
     0
  9
$DIMSAH
 70
     0
  9
$DIMBLK1
  1

  9
$DIMBLK2
  1

  9
$DIMSTYLE
  2
ISO-25
  9
$DIMCLRD
 70
     0
  9
$DIMCLRE
 70
     0
  9
$DIMCLRT
 70
     0
  9
$DIMTFAC
 40
1.0
  9
$DIMGAP
 40
0.625
  9
$DIMJUST
 70
     0
  9
$DIMSD1
 70
     0
  9
$DIMSD2
 70
     0
  9
$DIMTOLJ
 70
     0
  9
$DIMTZIN
 70
     8
  9
$DIMALTZ
 70
     0
  9
$DIMALTTZ
 70
     0
  9
$DIMUPT
 70
     0
  9
$DIMDEC
 70
     2
  9
$DIMTDEC
 70
     2
  9
$DIMALTU
 70
     2
  9
$DIMALTTD
 70
     3
  9
$DIMTXSTY
  7
Standard
  9
$DIMAUNIT
 70
     0
  9
$DIMADEC
 70
     0
  9
$DIMALTRND
 40
0.0
  9
$DIMAZIN
 70
     0
  9
$DIMDSEP
 70
    44
  9
$DIMATFIT
 70
     3
  9
$DIMFRAC
 70
     0
  9
$DIMLDRBLK
  1

  9
$DIMLUNIT
 70
     2
  9
$DIMLWD
 70
    -2
  9
$DIMLWE
 70
    -2
  9
$DIMTMOVE
 70
     0
  9
$LUNITS
 70
     2
  9
$LUPREC
 70
     4
  9
$SKETCHINC
 40
1.0
  9
$FILLETRAD
 40
0.0
  9
$AUNITS
 70
     0
  9
$AUPREC
 70
     0
  9
$MENU
  1
.
  9
$ELEVATION
 40
0.0
  9
$PELEVATION
 40
0.0
  9
$THICKNESS
 40
0.0
  9
$LIMCHECK
 70
     0
  9
$CHAMFERA
 40
0.0
  9
$CHAMFERB
 40
0.0
  9
$CHAMFERC
 40
0.0
  9
$CHAMFERD
 40
0.0
  9
$SKPOLY
 70
     0
  9
$TDCREATE
 40
2454349.434269746
  9
$TDUCREATE
 40
2454349.059269746
  9
$TDUPDATE
 40
2454714.626621852
  9
$TDUUPDATE
 40
2454714.251621852
  9
$TDINDWG
 40
0.1714381366
  9
$TDUSRTIMER
 40
0.1714381366
  9
$USRTIMER
 70
     1
  9
$ANGBASE
 50
0.0
  9
$ANGDIR
 70
     0
  9
$PDMODE
 70
     0
  9
$PDSIZE
 40
0.0
  9
$PLINEWID
 40
0.0
  9
$SPLFRAME
 70
     0
  9
$SPLINETYPE
 70
     6
  9
$SPLINESEGS
 70
     8
  9
$HANDSEED
  5
1B6
  9
$SURFTAB1
 70
     6
  9
$SURFTAB2
 70
     6
  9
$SURFTYPE
 70
     6
  9
$SURFU
 70
     6
  9
$SURFV
 70
     6
  9
$UCSBASE
  2

  9
$UCSNAME
  2

  9
$UCSORG
 10
0.0
 20
0.0
 30
0.0
  9
$UCSXDIR
 10
1.0
 20
0.0
 30
0.0
  9
$UCSYDIR
 10
0.0
 20
1.0
 30
0.0
  9
$UCSORTHOREF
  2

  9
$UCSORTHOVIEW
 70
     0
  9
$UCSORGTOP
 10
0.0
 20
0.0
 30
0.0
  9
$UCSORGBOTTOM
 10
0.0
 20
0.0
 30
0.0
  9
$UCSORGLEFT
 10
0.0
 20
0.0
 30
0.0
  9
$UCSORGRIGHT
 10
0.0
 20
0.0
 30
0.0
  9
$UCSORGFRONT
 10
0.0
 20
0.0
 30
0.0
  9
$UCSORGBACK
 10
0.0
 20
0.0
 30
0.0
  9
$PUCSBASE
  2

  9
$PUCSNAME
  2

  9
$PUCSORG
 10
0.0
 20
0.0
 30
0.0
  9
$PUCSXDIR
 10
1.0
 20
0.0
 30
0.0
  9
$PUCSYDIR
 10
0.0
 20
1.0
 30
0.0
  9
$PUCSORTHOREF
  2

  9
$PUCSORTHOVIEW
 70
     0
  9
$PUCSORGTOP
 10
0.0
 20
0.0
 30
0.0
  9
$PUCSORGBOTTOM
 10
0.0
 20
0.0
 30
0.0
  9
$PUCSORGLEFT
 10
0.0
 20
0.0
 30
0.0
  9
$PUCSORGRIGHT
 10
0.0
 20
0.0
 30
0.0
  9
$PUCSORGFRONT
 10
0.0
 20
0.0
 30
0.0
  9
$PUCSORGBACK
 10
0.0
 20
0.0
 30
0.0
  9
$USERI1
 70
     0
  9
$USERI2
 70
     0
  9
$USERI3
 70
     0
  9
$USERI4
 70
     0
  9
$USERI5
 70
     0
  9
$USERR1
 40
0.0
  9
$USERR2
 40
0.0
  9
$USERR3
 40
0.0
  9
$USERR4
 40
0.0
  9
$USERR5
 40
0.0
  9
$WORLDVIEW
 70
     1
  9
$SHADEDGE
 70
     3
  9
$SHADEDIF
 70
    70
  9
$TILEMODE
 70
     1
  9
$MAXACTVP
 70
    64
  9
$PINSBASE
 10
0.0
 20
0.0
 30
0.0
  9
$PLIMCHECK
 70
     0
  9
$PEXTMIN
 10
0.0
 20
0.0
 30
0.0
  9
$PEXTMAX
 10
0.0
 20
0.0
 30
0.0
  9
$PLIMMIN
 10
0.0
 20
0.0
  9
$PLIMMAX
 10
12.0
 20
9.0
  9
$UNITMODE
 70
     0
  9
$VISRETAIN
 70
     1
  9
$PLINEGEN
 70
     0
  9
$PSLTSCALE
 70
     1
  9
$TREEDEPTH
 70
  3020
  9
$CMLSTYLE
  2
Standard
  9
$CMLJUST
 70
     0
  9
$CMLSCALE
 40
20.0
  9
$PROXYGRAPHICS
 70
     1
  9
$MEASUREMENT
 70
     1
  9
$CELWEIGHT
370
    -1
  9
$ENDCAPS
280
     0
  9
$JOINSTYLE
280
     0
  9
$LWDISPLAY
290
     0
  9
$INSUNITS
 70
     4
  9
$HYPERLINKBASE
  1

  9
$STYLESHEET
  1

  9
$XEDIT
290
     1
  9
$CEPSNTYPE
380
     0
  9
$PSTYLEMODE
290
     1
  9
$FINGERPRINTGUID
  2
{FDEAD578-A652-11D2-9A35-0060089B3A3F}
  9
$VERSIONGUID
  2
{23F7C378-3C2B-452D-9354-BA325F0713FF}
  9
$EXTNAMES
290
     1
  9
$PSVPSCALE
 40
0.0
  9
$OLESTARTUP
290
     0
  0
ENDSEC
  0
SECTION
  2
CLASSES
  0
CLASS
  1
ACDBDICTIONARYWDFLT
  2
AcDbDictionaryWithDefault
  3
ObjectDBX Classes
 90
        0
280
     0
281
     0
  0
CLASS
  1
ACDBPLACEHOLDER
  2
AcDbPlaceHolder
  3
ObjectDBX Classes
 90
        0
280
     0
281
     0
  0
CLASS
  1
LAYOUT
  2
AcDbLayout
  3
ObjectDBX Classes
 90
        0
280
     0
281
     0
  0
CLASS
  1
DICTIONARYVAR
  2
AcDbDictionaryVar
  3
ObjectDBX Classes
 90
        0
280
     0
281
     0
  0
CLASS
  1
DIMASSOC
  2
AcDbDimAssoc
  3
"AcDbDimAssoc|Product Desc:     AcDim ARX App For Dimension|Company:          Autodesk, Inc.|WEB Address:      www.autodesk.com"
 90
    32768
280
     0
281
     0
  0
CLASS
  1
SORTENTSTABLE
  2
AcDbSortentsTable
  3
ObjectDBX Classes
 90
    32768
280
     0
281
     0
  0
ENDSEC
  0
SECTION
  2
TABLES
  0
TABLE
  2
VPORT
  5
1B
330
0
100
AcDbSymbolTable
 70
     3
  0
VPORT
  5
1AE
330
1B
100
AcDbSymbolTableRecord
100
AcDbViewportTableRecord
  2
*Active
 70
     0
 10
0.0
 20
0.0
 11
1.0
 21
1.0
 12
0.5960090348916723
 22
4.058281468178904
 13
0.0
 23
0.0
 14
10.0
 24
10.0
 15
10.0
 25
10.0
 16
0.0
 26
0.0
 36
1.0
 17
0.0
 27
0.0
 37
0.0
 40
114.6260632562107
 41
1.481530343007915
 42
50.0
 43
0.0
 44
0.0
 50
0.0
 51
0.0
 71
     0
 72
  1000
 73
     1
 74
     2
 75
     0
 76
     0
 77
     0
 78
     0
281
     0
 65
     1
110
0.0
120
0.0
130
0.0
111
1.0
121
0.0
131
0.0
112
0.0
122
1.0
132
0.0
 79
     0
146
0.0
  0
ENDTAB
  0
TABLE
  2
LTYPE
  5
16
330
0
100
AcDbSymbolTable
 70
     1
  0
LTYPE
  5
17
330
16
100
AcDbSymbolTableRecord
100
AcDbLinetypeTableRecord
  2
ByBlock
 70
     0
  3

 72
    65
 73
     0
 40
0.0
  0
LTYPE
  5
18
330
16
100
AcDbSymbolTableRecord
100
AcDbLinetypeTableRecord
  2
ByLayer
 70
     0
  3

 72
    65
 73
     0
 40
0.0
  0
LTYPE
  5
8
330
16
100
AcDbSymbolTableRecord
100
AcDbLinetypeTableRecord
  2
Continuous
 70
     0
  3
Solid line
 72
    65
 73
     0
 40
0.0
  0
ENDTAB
  0
TABLE
  2
LAYER
  5
10
102
{ACAD_XDICTIONARY
360
11
102
}
330
0
100
AcDbSymbolTable
 70
     7
  0
LAYER
  5
4
330
10
100
AcDbSymbolTableRecord
100
AcDbLayerTableRecord
  2
0
 70
     0
 62
     7
  6
Continuous
370
    -3
390
5
  0
LAYER
  5
158
330
10
100
AcDbSymbolTableRecord
100
AcDbLayerTableRecord
  2
WAKU
 70
     0
 62
     4
  6
Continuous
370
    -3
390
5
  0
LAYER
  5
155
330
10
100
AcDbSymbolTableRecord
100
AcDbLayerTableRecord
  2
MOJI1
 70
     0
 62
     2
  6
Continuous
370
    -3
390
5
  0
LAYER
  5
146
330
10
100
AcDbSymbolTableRecord
100
AcDbLayerTableRecord
  2
TOUROKU
 70
     0
 62
     1
  6
Continuous
370
    -3
390
5
  0
LAYER
  5
27
330
10
100
AcDbSymbolTableRecord
100
AcDbLayerTableRecord
  2
GAIKEI
 70
     0
 62
     7
  6
Continuous
370
    -3
390
5
  0
LAYER
  5
122
330
10
100
AcDbSymbolTableRecord
100
AcDbLayerTableRecord
  2
SUNPO
 70
     0
 62
     3
  6
Continuous
370
    -3
390
5
  0
LAYER
  5
133
330
10
100
AcDbSymbolTableRecord
100
AcDbLayerTableRecord
  2
Defpoints
 70
     0
 62
     7
  6
Continuous
290
     0
370
    -3
390
5
  0
ENDTAB
  0
TABLE
  2
STYLE
  5
13
330
0
100
AcDbSymbolTable
 70
     1
  0
STYLE
  5
14
330
13
100
AcDbSymbolTableRecord
100
AcDbTextStyleTableRecord
  2
Standard
 70
     0
 40
0.0
 41
1.0
 50
0.0
 71
     0
 42
2.5
  3
MONOTXT.shx
  4
BIGFONT.shx
  0
ENDTAB
  0
TABLE
  2
VIEW
  5
19
330
0
100
AcDbSymbolTable
 70
     0
  0
ENDTAB
  0
TABLE
  2
UCS
  5
1A
330
0
100
AcDbSymbolTable
 70
     0
  0
ENDTAB
  0
TABLE
  2
APPID
  5
1D
330
0
100
AcDbSymbolTable
 70
     2
  0
APPID
  5
1E
330
1D
100
AcDbSymbolTableRecord
100
AcDbRegAppTableRecord
  2
ACAD
 70
     0
  0
APPID
  5
178
330
1D
100
AcDbSymbolTableRecord
100
AcDbRegAppTableRecord
  2
DCO15
 70
     0
  0
ENDTAB
  0
TABLE
  2
DIMSTYLE
  5
1F
330
0
100
AcDbSymbolTable
 70
     2
100
AcDbDimStyleTable
 71
     1
340
20
  0
DIMSTYLE
105
20
330
1F
100
AcDbSymbolTableRecord
100
AcDbDimStyleTableRecord
  2
ISO-25
 70
     0
 41
2.5
 42
0.625
 43
3.75
 44
1.25
 73
     0
 74
     0
 77
     1
 78
     8
140
2.5
141
2.5
143
0.03937007874016
147
0.625
171
     3
172
     1
271
     2
272
     2
274
     3
278
    44
283
     0
284
     8
340
14
  0
DIMSTYLE
105
129
102
{ACAD_REACTORS
330
147
330
137
330
121
102
}
330
1F
100
AcDbSymbolTableRecord
100
AcDbDimStyleTableRecord
  2
STANDARD
 70
     0
 40
0.0
 41
2.0
 42
2.0
 43
8.0
 44
2.0
 73
     0
 74
     0
 77
     3
140
3.0
141
0.0
173
     1
279
     2
288
     1
340
14
341
123
343
123
344
123
  0
ENDTAB
  0
TABLE
  2
BLOCK_RECORD
  5
1
330
0
100
AcDbSymbolTable
 70
     7
  0
BLOCK_RECORD
  5
2
330
1
100
AcDbSymbolTableRecord
100
AcDbBlockTableRecord
  2
*Model_Space
340
A
  0
BLOCK_RECORD
  5
C
330
1
100
AcDbSymbolTableRecord
100
AcDbBlockTableRecord
  2
*Paper_Space
340
F
  0
BLOCK_RECORD
  5
123
330
1
100
AcDbSymbolTableRecord
100
AcDbBlockTableRecord
  2
_OPEN30
340
0
102
{BLKREFS
331
14D
331
14E
331
13D
331
13E
331
12F
331
130
331
18A
331
18B
331
196
331
197
331
1A2
331
1A3
102
}
  0
BLOCK_RECORD
  5
148
330
1
100
AcDbSymbolTableRecord
100
AcDbBlockTableRecord
  2
*D1
340
0
  0
BLOCK_RECORD
  5
138
330
1
100
AcDbSymbolTableRecord
100
AcDbBlockTableRecord
  2
*D2
340
0
  0
BLOCK_RECORD
  5
12A
330
1
100
AcDbSymbolTableRecord
100
AcDbBlockTableRecord
  2
*D3
340
0
  0
BLOCK_RECORD
  5
186
330
1
100
AcDbSymbolTableRecord
100
AcDbBlockTableRecord
  2
*D4
340
0
  0
BLOCK_RECORD
  5
192
330
1
100
AcDbSymbolTableRecord
100
AcDbBlockTableRecord
  2
*D5
340
0
  0
BLOCK_RECORD
  5
19E
330
1
100
AcDbSymbolTableRecord
100
AcDbBlockTableRecord
  2
*D6
340
0
  0
ENDTAB
  0
ENDSEC
  0
SECTION
  2
BLOCKS
  0
BLOCK
  5
3
330
2
100
AcDbEntity
  8
0
100
AcDbBlockBegin
  2
*Model_Space
 70
     0
 10
0.0
 20
0.0
 30
0.0
  3
*Model_Space
  1

  0
ENDBLK
  5
9
330
2
100
AcDbEntity
  8
0
100
AcDbBlockEnd
  0
BLOCK
  5
D
330
C
100
AcDbEntity
 67
     1
  8
0
100
AcDbBlockBegin
  2
*Paper_Space
 70
     0
 10
0.0
 20
0.0
 30
0.0
  3
*Paper_Space
  1

  0
ENDBLK
  5
E
330
C
100
AcDbEntity
 67
     1
  8
0
100
AcDbBlockEnd
  0
BLOCK
  5
124
330
123
100
AcDbEntity
  8
0
100
AcDbBlockBegin
  2
_OPEN30
 70
     0
 10
0.0
 20
0.0
 30
0.0
  3
_OPEN30
  1

  0
LINE
  5
125
330
123
100
AcDbEntity
  8
0
  6
ByBlock
 62
     0
100
AcDbLine
 10
-1.0
 20
0.26794919
 30
0.0
 11
0.0
 21
0.0
 31
0.0
  0
LINE
  5
126
330
123
100
AcDbEntity
  8
0
  6
ByBlock
 62
     0
100
AcDbLine
 10
0.0
 20
0.0
 30
0.0
 11
-1.0
 21
-0.26794919
 31
0.0
  0
LINE
  5
127
330
123
100
AcDbEntity
  8
0
  6
ByBlock
 62
     0
100
AcDbLine
 10
0.0
 20
0.0
 30
0.0
 11
-1.0
 21
0.0
 31
0.0
  0
ENDBLK
  5
128
330
123
100
AcDbEntity
  8
0
100
AcDbBlockEnd
  0
BLOCK
  5
149
330
148
100
AcDbEntity
  8
0
100
AcDbBlockBegin
  2
*D1
 70
     1
 10
0.0
 20
0.0
 30
0.0
  3
*D1
  1

  0
LINE
  5
14A
330
148
100
AcDbEntity
  8
SUNPO
 62
     0
370
    -2
100
AcDbLine
 10
204.0561861978054
 20
224.0908882646895
 30
0.0
 11
204.0561861978054
 21
231.9988941714988
 31
0.0
  0
LINE
  5
14B
330
148
100
AcDbEntity
  8
SUNPO
 62
     0
370
    -2
100
AcDbLine
 10
229.7561590140622
 20
224.0908882646895
 30
0.0
 11
229.7561590140622
 21
231.9988941714988
 31
0.0
  0
LINE
  5
14C
330
148
100
AcDbEntity
  8
SUNPO
 62
     0
370
    -2
100
AcDbLine
 10
206.0561861978054
 20
229.9988941714988
 30
0.0
 11
227.7561590140622
 21
229.9988941714988
 31
0.0
  0
INSERT
  5
14D
330
148
100
AcDbEntity
  8
SUNPO
 62
     0
370
    -2
100
AcDbBlockReference
  2
_OPEN30
 10
204.0561861978054
 20
229.9988941714988
 30
0.0
 41
2.0
 42
2.0
 43
2.0
 50
180.0
  0
INSERT
  5
14E
330
148
100
AcDbEntity
  8
SUNPO
 62
     0
370
    -2
100
AcDbBlockReference
  2
_OPEN30
 10
229.7561590140622
 20
229.9988941714988
 30
0.0
 41
2.0
 42
2.0
 43
2.0
  0
MTEXT
  5
14F
330
148
100
AcDbEntity
  8
SUNPO
 62
     0
100
AcDbMText
 10
216.9061726059338
 20
231.7488941714988
 30
0.0
 40
2.5
 41
0.0
 71
     5
 72
     1
  1
\A1;257
 73
     1
 44
1.0
1001
ACAD
1000
MTEXTBEGIN
1070
    73
1070
     1
1070
    44
1040
1.0
1070
    74
1070
     0
1000
MTEXTEND
  0
POINT
  5
150
330
148
100
AcDbEntity
  8
Defpoints
 62
     0
100
AcDbPoint
 10
204.0561861978054
 20
222.0908882646895
 30
0.0
  0
POINT
  5
151
330
148
100
AcDbEntity
  8
Defpoints
 62
     0
100
AcDbPoint
 10
229.7561590140622
 20
222.0908882646895
 30
0.0
  0
POINT
  5
152
330
148
100
AcDbEntity
  8
Defpoints
 62
     0
100
AcDbPoint
 10
229.7561590140622
 20
229.9988941714988
 30
0.0
  0
ENDBLK
  5
153
330
148
100
AcDbEntity
  8
0
100
AcDbBlockEnd
  0
BLOCK
  5
139
330
138
100
AcDbEntity
  8
0
100
AcDbBlockBegin
  2
*D2
 70
     1
 10
0.0
 20
0.0
 30
0.0
  3
*D2
  1

  0
LINE
  5
13A
330
138
100
AcDbEntity
  8
SUNPO
 62
     0
370
    -2
100
AcDbLine
 10
159.838872263107
 20
184.5228470011169
 30
0.0
 11
159.838872263107
 21
177.0027226500881
 31
0.0
  0
LINE
  5
13B
330
138
100
AcDbEntity
  8
SUNPO
 62
     0
370
    -2
100
AcDbLine
 10
181.4388636730513
 20
184.5228470011169
 30
0.0
 11
181.4388636730513
 21
177.0027226500881
 31
0.0
  0
LINE
  5
13C
330
138
100
AcDbEntity
  8
SUNPO
 62
     0
370
    -2
100
AcDbLine
 10
161.838872263107
 20
179.0027226500881
 30
0.0
 11
179.4388636730513
 21
179.0027226500881
 31
0.0
  0
INSERT
  5
13D
330
138
100
AcDbEntity
  8
SUNPO
 62
     0
370
    -2
100
AcDbBlockReference
  2
_OPEN30
 10
159.838872263107
 20
179.0027226500881
 30
0.0
 41
2.0
 42
2.0
 43
2.0
 50
180.0
  0
INSERT
  5
13E
330
138
100
AcDbEntity
  8
SUNPO
 62
     0
370
    -2
100
AcDbBlockReference
  2
_OPEN30
 10
181.4388636730513
 20
179.0027226500881
 30
0.0
 41
2.0
 42
2.0
 43
2.0
  0
MTEXT
  5
13F
330
138
100
AcDbEntity
  8
SUNPO
 62
     0
100
AcDbMText
 10
170.6388679680792
 20
180.7527226500881
 30
0.0
 40
2.5
 41
0.0
 71
     5
 72
     1
  1
\A1;216
 73
     1
 44
1.0
1001
ACAD
1000
MTEXTBEGIN
1070
    73
1070
     1
1070
    44
1040
1.0
1070
    74
1070
     0
1000
MTEXTEND
  0
POINT
  5
140
330
138
100
AcDbEntity
  8
Defpoints
 62
     0
100
AcDbPoint
 10
159.838872263107
 20
186.5228470011169
 30
0.0
  0
POINT
  5
141
330
138
100
AcDbEntity
  8
Defpoints
 62
     0
100
AcDbPoint
 10
181.4388636730513
 20
186.5228470011169
 30
0.0
  0
POINT
  5
142
330
138
100
AcDbEntity
  8
Defpoints
 62
     0
100
AcDbPoint
 10
181.4388636730513
 20
179.0027226500881
 30
0.0
  0
ENDBLK
  5
143
330
138
100
AcDbEntity
  8
0
100
AcDbBlockEnd
  0
BLOCK
  5
12B
330
12A
100
AcDbEntity
  8
0
100
AcDbBlockBegin
  2
*D3
 70
     1
 10
0.0
 20
0.0
 30
0.0
  3
*D3
  1

  0
LINE
  5
12C
330
12A
100
AcDbEntity
  8
SUNPO
 62
     0
370
    -2
100
AcDbLine
 10
184.4955605389761
 20
188.3461687858673
 30
0.0
 11
192.6816994407366
 21
188.3461687858673
 31
0.0
  0
LINE
  5
12D
330
12A
100
AcDbEntity
  8
SUNPO
 62
     0
370
    -2
100
AcDbLine
 10
184.4955605389761
 20
221.5923127378407
 30
0.0
 11
192.6816994407366
 21
221.5923127378407
 31
0.0
  0
LINE
  5
12E
330
12A
100
AcDbEntity
  8
SUNPO
 62
     0
370
    -2
100
AcDbLine
 10
190.6816994407366
 20
190.3461687858673
 30
0.0
 11
190.6816994407367
 21
219.5923127378407
 31
0.0
  0
INSERT
  5
12F
330
12A
100
AcDbEntity
  8
SUNPO
 62
     0
370
    -2
100
AcDbBlockReference
  2
_OPEN30
 10
190.6816994407366
 20
188.3461687858673
 30
0.0
 41
2.0
 42
2.0
 43
2.0
 50
270.0
  0
INSERT
  5
130
330
12A
100
AcDbEntity
  8
SUNPO
 62
     0
370
    -2
100
AcDbBlockReference
  2
_OPEN30
 10
190.6816994407367
 20
221.5923127378407
 30
0.0
 41
2.0
 42
2.0
 43
2.0
 50
90.0
  0
MTEXT
  5
131
330
12A
100
AcDbEntity
  8
SUNPO
 62
     0
100
AcDbMText
 10
188.9316994407366
 20
204.9692407618541
 30
0.0
 40
2.5
 41
0.0
 71
     5
 72
     1
  1
\A1;332
 11
0.0000000000000001
 21
1.0
 31
0.0
 73
     1
 44
1.0
1001
ACAD
1000
MTEXTBEGIN
1070
    73
1070
     1
1070
    44
1040
1.0
1070
    74
1070
     0
1000
MTEXTEND
  0
POINT
  5
132
330
12A
100
AcDbEntity
  8
Defpoints
 62
     0
100
AcDbPoint
 10
182.4955605389762
 20
188.3461687858673
 30
0.0
  0
POINT
  5
134
330
12A
100
AcDbEntity
  8
Defpoints
 62
     0
100
AcDbPoint
 10
182.4955605389762
 20
221.5923127378407
 30
0.0
  0
POINT
  5
135
330
12A
100
AcDbEntity
  8
Defpoints
 62
     0
100
AcDbPoint
 10
190.6816994407367
 20
221.5923127378407
 30
0.0
  0
ENDBLK
  5
136
330
12A
100
AcDbEntity
  8
0
100
AcDbBlockEnd
  0
BLOCK
  5
190
330
186
100
AcDbEntity
  8
0
100
AcDbBlockBegin
  2
*D4
 70
     1
 10
0.0
 20
0.0
 30
0.0
  3
*D4
  1

  0
LINE
  5
187
330
186
100
AcDbEntity
  8
SUNPO
 62
     0
370
    -2
100
AcDbLine
 10
10.65607828690753
 20
40.50902432228997
 30
0.0
 11
10.65607828690753
 21
48.41703022909928
 31
0.0
  0
LINE
  5
188
330
186
100
AcDbEntity
  8
SUNPO
 62
     0
370
    -2
100
AcDbLine
 10
36.35605110316431
 20
40.50902432228991
 30
0.0
 11
36.35605110316431
 21
48.41703022909928
 31
0.0
  0
LINE
  5
189
330
186
100
AcDbEntity
  8
SUNPO
 62
     0
370
    -2
100
AcDbLine
 10
12.65607828690753
 20
46.41703022909928
 30
0.0
 11
34.3560511031643
 21
46.41703022909928
 31
0.0
  0
INSERT
  5
18A
330
186
100
AcDbEntity
  8
SUNPO
 62
     0
370
    -2
100
AcDbBlockReference
  2
_OPEN30
 10
10.65607828690753
 20
46.41703022909928
 30
0.0
 41
2.0
 42
2.0
 43
2.0
 50
180.0
  0
INSERT
  5
18B
330
186
100
AcDbEntity
  8
SUNPO
 62
     0
370
    -2
100
AcDbBlockReference
  2
_OPEN30
 10
36.35605110316431
 20
46.41703022909928
 30
0.0
 41
2.0
 42
2.0
 43
2.0
  0
MTEXT
  5
18C
330
186
100
AcDbEntity
  8
SUNPO
 62
     0
100
AcDbMText
 10
23.50606469503592
 20
48.16703022909928
 30
0.0
 40
2.5
 41
0.0
 71
     5
 72
     1
  1
\A1;257
 73
     1
 44
1.0
1001
ACAD
1000
MTEXTBEGIN
1070
    73
1070
     1
1070
    44
1040
1.0
1070
    74
1070
     0
1000
MTEXTEND
  0
POINT
  5
18D
330
186
100
AcDbEntity
  8
Defpoints
 62
     0
100
AcDbPoint
 10
10.65607828690753
 20
38.50902432228997
 30
0.0
  0
POINT
  5
18E
330
186
100
AcDbEntity
  8
Defpoints
 62
     0
100
AcDbPoint
 10
36.35605110316431
 20
38.50902432228992
 30
0.0
  0
POINT
  5
18F
330
186
100
AcDbEntity
  8
Defpoints
 62
     0
100
AcDbPoint
 10
36.35605110316431
 20
46.41703022909928
 30
0.0
  0
ENDBLK
  5
191
330
186
100
AcDbEntity
  8
0
100
AcDbBlockEnd
  0
BLOCK
  5
19C
330
192
100
AcDbEntity
  8
0
100
AcDbBlockBegin
  2
*D5
 70
     1
 10
0.0
 20
0.0
 30
0.0
  3
*D5
  1

  0
LINE
  5
193
330
192
100
AcDbEntity
  8
SUNPO
 62
     0
370
    -2
100
AcDbLine
 10
-33.56123564779085
 20
0.9409830587173928
 30
0.0
 11
-33.56123564779085
 21
-6.579141292311419
 31
0.0
  0
LINE
  5
194
330
192
100
AcDbEntity
  8
SUNPO
 62
     0
370
    -2
100
AcDbLine
 10
-11.96124423784653
 20
0.9409830587173928
 30
0.0
 11
-11.96124423784653
 21
-6.579141292311419
 31
0.0
  0
LINE
  5
195
330
192
100
AcDbEntity
  8
SUNPO
 62
     0
370
    -2
100
AcDbLine
 10
-31.56123564779085
 20
-4.579141292311419
 30
0.0
 11
-13.96124423784653
 21
-4.579141292311419
 31
0.0
  0
INSERT
  5
196
330
192
100
AcDbEntity
  8
SUNPO
 62
     0
370
    -2
100
AcDbBlockReference
  2
_OPEN30
 10
-33.56123564779085
 20
-4.579141292311419
 30
0.0
 41
2.0
 42
2.0
 43
2.0
 50
180.0
  0
INSERT
  5
197
330
192
100
AcDbEntity
  8
SUNPO
 62
     0
370
    -2
100
AcDbBlockReference
  2
_OPEN30
 10
-11.96124423784653
 20
-4.579141292311419
 30
0.0
 41
2.0
 42
2.0
 43
2.0
  0
MTEXT
  5
198
330
192
100
AcDbEntity
  8
SUNPO
 62
     0
100
AcDbMText
 10
-22.76123994281869
 20
-2.829141292311419
 30
0.0
 40
2.5
 41
0.0
 71
     5
 72
     1
  1
\A1;216
 73
     1
 44
1.0
1001
ACAD
1000
MTEXTBEGIN
1070
    73
1070
     1
1070
    44
1040
1.0
1070
    74
1070
     0
1000
MTEXTEND
  0
POINT
  5
199
330
192
100
AcDbEntity
  8
Defpoints
 62
     0
100
AcDbPoint
 10
-33.56123564779085
 20
2.940983058717392
 30
0.0
  0
POINT
  5
19A
330
192
100
AcDbEntity
  8
Defpoints
 62
     0
100
AcDbPoint
 10
-11.96124423784653
 20
2.940983058717392
 30
0.0
  0
POINT
  5
19B
330
192
100
AcDbEntity
  8
Defpoints
 62
     0
100
AcDbPoint
 10
-11.96124423784653
 20
-4.579141292311419
 30
0.0
  0
ENDBLK
  5
19D
330
192
100
AcDbEntity
  8
0
100
AcDbBlockEnd
  0
BLOCK
  5
1A8
330
19E
100
AcDbEntity
  8
0
100
AcDbBlockBegin
  2
*D6
 70
     1
 10
0.0
 20
0.0
 30
0.0
  3
*D6
  1

  0
LINE
  5
19F
330
19E
100
AcDbEntity
  8
SUNPO
 62
     0
370
    -2
100
AcDbLine
 10
-8.904547371921694
 20
4.764304843467811
 30
0.0
 11
-0.7184084701612015
 21
4.764304843467808
 31
0.0
  0
LINE
  5
1A0
330
19E
100
AcDbEntity
  8
SUNPO
 62
     0
370
    -2
100
AcDbLine
 10
-8.904547371921694
 20
38.01044879544122
 30
0.0
 11
-0.7184084701611942
 21
38.01044879544122
 31
0.0
  0
LINE
  5
1A1
330
19E
100
AcDbEntity
  8
SUNPO
 62
     0
370
    -2
100
AcDbLine
 10
-2.7184084701612
 20
6.764304843467809
 30
0.0
 11
-2.718408470161194
 21
36.01044879544122
 31
0.0
  0
INSERT
  5
1A2
330
19E
100
AcDbEntity
  8
SUNPO
 62
     0
370
    -2
100
AcDbBlockReference
  2
_OPEN30
 10
-2.718408470161201
 20
4.764304843467809
 30
0.0
 41
2.0
 42
2.0
 43
2.0
 50
270.0
  0
INSERT
  5
1A3
330
19E
100
AcDbEntity
  8
SUNPO
 62
     0
370
    -2
100
AcDbBlockReference
  2
_OPEN30
 10
-2.718408470161193
 20
38.01044879544122
 30
0.0
 41
2.0
 42
2.0
 43
2.0
 50
90.0
  0
MTEXT
  5
1A4
330
19E
100
AcDbEntity
  8
SUNPO
 62
     0
100
AcDbMText
 10
-4.468408470161201
 20
21.38737681945451
 30
0.0
 40
2.5
 41
0.0
 71
     5
 72
     1
  1
\A1;332
 11
0.0000000000000001
 21
1.0
 31
0.0
 73
     1
 44
1.0
1001
ACAD
1000
MTEXTBEGIN
1070
    73
1070
     1
1070
    44
1040
1.0
1070
    74
1070
     0
1000
MTEXTEND
  0
POINT
  5
1A5
330
19E
100
AcDbEntity
  8
Defpoints
 62
     0
100
AcDbPoint
 10
-10.90454737192169
 20
4.764304843467812
 30
0.0
  0
POINT
  5
1A6
330
19E
100
AcDbEntity
  8
Defpoints
 62
     0
100
AcDbPoint
 10
-10.90454737192169
 20
38.01044879544122
 30
0.0
  0
POINT
  5
1A7
330
19E
100
AcDbEntity
  8
Defpoints
 62
     0
100
AcDbPoint
 10
-2.718408470161193
 20
38.01044879544122
 30
0.0
  0
ENDBLK
  5
1A9
330
19E
100
AcDbEntity
  8
0
100
AcDbBlockEnd
  0
ENDSEC
  0
SECTION
  2
ENTITIES
  0
LINE
  5
29
330
2
100
AcDbEntity
  8
GAIKEI
 62
     1
100
AcDbLine
 10
-29.04105729925243
 20
6.190532098030132
 30
0.0
 11
-16.47663362561729
 21
6.190532098030132
 31
0.0
  0
LINE
  5
2A
330
2
100
AcDbEntity
  8
GAIKEI
 62
     1
100
AcDbLine
 10
-29.39747160417454
 20
7.328179197667509
 30
0.0
 11
-29.39747160417454
 21
6.539108423435777
 31
0.0
  0
ARC
  5
2B
330
2
100
AcDbEntity
  8
GAIKEI
 62
     1
100
AcDbCircle
 10
-29.03594646570673
 20
6.552260278313895
 30
0.0
 40
0.3617642837966649
100
AcDbArc
 50
182.0834336044269
 51
269.1905255804168
  0
ARC
  5
2C
330
2
100
AcDbEntity
  8
GAIKEI
 62
     1
100
AcDbCircle
 10
-29.09541976290569
 20
7.331803780482971
 30
0.0
 40
0.3020735877472028
100
AcDbArc
 50
89.39268111644224
 51
180.6875089047805
  0
LINE
  5
2D
330
2
100
AcDbEntity
  8
GAIKEI
 62
     1
100
AcDbLine
 10
-29.13454301857627
 20
7.349270488002787
 30
0.0
 11
-29.13454301857627
 21
6.665941182884239
 31
0.0
  0
LINE
  5
2E
330
2
100
AcDbEntity
  8
GAIKEI
 62
     1
100
AcDbLine
 10
-28.99003917803606
 20
6.529987865452937
 30
0.0
 11
-16.56940680134875
 21
6.529987865452937
 31
0.0
  0
ARC
  5
2F
330
2
100
AcDbEntity
  8
GAIKEI
 62
     1
100
AcDbCircle
 10
-28.97167722145366
 20
6.694277386986698
 30
0.0
 40
0.165312456685265
100
AcDbArc
 50
189.8698081132583
 51
263.6227551273042
  0
ARC
  5
30
330
2
100
AcDbEntity
  8
GAIKEI
 62
     1
100
AcDbCircle
 10
-28.94931257034983
 20
7.321640317969524
 30
0.0
 40
0.1872798580900706
100
AcDbArc
 50
129.1176708385156
 51
171.5159475635741
  0
LINE
  5
31
330
2
100
AcDbEntity
  8
GAIKEI
 62
     1
100
AcDbLine
 10
-29.12627751290433
 20
7.63386039881027
 30
0.0
 11
-16.42533048696396
 21
7.63386039881027
 31
0.0
  0
LINE
  5
32
330
2
100
AcDbEntity
  8
GAIKEI
 62
     1
100
AcDbLine
 10
-29.00437875259831
 20
7.48935655827006
 30
0.0
 11
-16.54722924726996
 21
7.48935655827006
 31
0.0
  0
ARC
  5
33
330
2
100
AcDbEntity
  8
GAIKEI
 62
     1
100
AcDbCircle
 10
-29.00437875259831
 20
7.389356558270037
 30
0.0
 40
0.1
100
AcDbArc
 50
90.0
 51
129.1176708385156
  0
ARC
  5
34
330
2
100
AcDbEntity
  8
GAIKEI
 62
     1
100
AcDbCircle
 10
-16.54722924726996
 20
7.389356558270037
 30
0.0
 40
0.1
100
AcDbArc
 50
50.88232916148434
 51
90.0
  0
ARC
  5
35
330
2
100
AcDbEntity
  8
GAIKEI
 62
     1
100
AcDbCircle
 10
-16.6022954295185
 20
7.321640317969524
 30
0.0
 40
0.1872798580900706
100
AcDbArc
 50
8.484052436425917
 51
50.88232916148434
  0
ARC
  5
36
330
2
100
AcDbEntity
  8
GAIKEI
 62
     1
100
AcDbCircle
 10
-16.57993077841467
 20
6.694277386986698
 30
0.0
 40
0.165312456685265
100
AcDbArc
 50
276.3772448726959
 51
350.1301918867417
  0
LINE
  5
37
330
2
100
AcDbEntity
  8
GAIKEI
 62
     1
100
AcDbLine
 10
-16.41706498129201
 20
7.349270488002787
 30
0.0
 11
-16.41706498129201
 21
6.665941182884239
 31
0.0
  0
ARC
  5
38
330
2
100
AcDbEntity
  8
GAIKEI
 62
     1
100
AcDbCircle
 10
-16.45618823696259
 20
7.331803780482971
 30
0.0
 40
0.3020735877472028
100
AcDbArc
 50
359.3124910952195
 51
90.60731888355775
  0
ARC
  5
39
330
2
100
AcDbEntity
  8
GAIKEI
 62
     1
100
AcDbCircle
 10
-16.51566153416161
 20
6.552260278313895
 30
0.0
 40
0.3617642837966649
100
AcDbArc
 50
270.8094744195832
 51
357.9165663955731
  0
LINE
  5
3A
330
2
100
AcDbEntity
  8
GAIKEI
 62
     1
100
AcDbLine
 10
-16.15413639569374
 20
7.328179197667509
 30
0.0
 11
-16.15413639569374
 21
6.539108423435777
 31
0.0
  0
LINE
  5
3B
330
2
100
AcDbEntity
  8
GAIKEI
 62
     1
100
AcDbLine
 10
-25.51781425223567
 20
8.117677498054717
 30
0.0
 11
-20.00755729637456
 21
8.117677498054717
 31
0.0
  0
LINE
  5
3C
330
2
100
AcDbEntity
  8
GAIKEI
 62
     1
100
AcDbLine
 10
-25.77290485831748
 20
10.07047446740603
 30
0.0
 11
-25.77290485831748
 21
8.364360089746128
 31
0.0
  0
ARC
  5
3D
330
2
100
AcDbEntity
  8
GAIKEI
 62
     1
100
AcDbCircle
 10
-25.51876588522993
 20
8.371927326184334
 30
0.0
 40
0.2542516090594023
100
AcDbArc
 50
181.7055339346929
 51
270.2144516674891
  0
ARC
  5
3E
330
2
100
AcDbEntity
  8
GAIKEI
 62
     1
100
AcDbCircle
 10
-25.51876588522993
 20
10.06290723096782
 30
0.0
 40
0.2542516090594023
100
AcDbArc
 50
89.78554833251093
 51
178.294466065307
  0
ARC
  5
3F
330
2
100
AcDbEntity
  8
GAIKEI
 62
     1
100
AcDbCircle
 10
-20.0066056633803
 20
10.06290723096782
 30
0.0
 40
0.2542516090594023
100
AcDbArc
 50
1.705533934692951
 51
90.21445166748907
  0
ARC
  5
40
330
2
100
AcDbEntity
  8
GAIKEI
 62
     1
100
AcDbCircle
 10
-20.0066056633803
 20
8.371927326184334
 30
0.0
 40
0.2542516090594023
100
AcDbArc
 50
269.7855483325109
 51
358.2944660653071
  0
LINE
  5
41
330
2
100
AcDbEntity
  8
GAIKEI
 62
     1
100
AcDbLine
 10
-19.75246669029275
 20
10.07047446740603
 30
0.0
 11
-19.75246669029275
 21
8.364360089746128
 31
0.0
  0
LINE
  5
42
330
2
100
AcDbEntity
  8
GAIKEI
 62
     1
100
AcDbLine
 10
-33.54946311713144
 20
4.857648054073194
 30
0.0
 11
-11.97677833084719
 21
4.857648054073194
 31
0.0
  0
LINE
  5
43
330
2
100
AcDbEntity
  8
GAIKEI
100
AcDbLine
 10
-33.44756938341721
 20
4.764304843467868
 30
0.0
 11
-12.07867206456143
 21
4.764304843467868
 31
0.0
  0
LINE
  5
44
330
2
100
AcDbEntity
  8
GAIKEI
 62
     1
100
AcDbLine
 10
-33.56642165463075
 20
5.264795462774657
 30
0.0
 11
-11.95981979334789
 21
5.264795462774657
 31
0.0
  0
LINE
  5
45
330
2
100
AcDbEntity
  8
GAIKEI
100
AcDbLine
 10
-33.2851405691157
 20
10.76634453975089
 30
0.0
 11
-33.56642165463075
 21
5.264795462774657
 31
0.0
  0
LINE
  5
46
330
2
100
AcDbEntity
  8
GAIKEI
100
AcDbLine
 10
-33.56642165463075
 20
5.264795462774657
 30
0.0
 11
-33.54946311713144
 21
4.857648054073194
 31
0.0
  0
LINE
  5
47
330
2
100
AcDbEntity
  8
GAIKEI
100
AcDbLine
 10
-33.54946311713144
 20
4.857648054073194
 30
0.0
 11
-33.44756938341721
 21
4.764304843467868
 31
0.0
  0
LINE
  5
48
330
2
100
AcDbEntity
  8
GAIKEI
100
AcDbLine
 10
-34.67015167926951
 20
3.754203046871339
 30
0.0
 11
-34.57680846866419
 21
3.626657743830492
 31
0.0
  0
LINE
  5
49
330
2
100
AcDbEntity
  8
GAIKEI
100
AcDbLine
 10
-34.67015167926951
 20
3.754203046871339
 30
0.0
 11
-33.2257971102984
 21
4.764304843467868
 31
0.0
  0
LINE
  5
4A
330
2
100
AcDbEntity
  8
GAIKEI
100
AcDbLine
 10
-34.57680846866419
 20
3.626657743830492
 30
0.0
 11
-10.94943297931445
 21
3.626657743830492
 31
0.0
  0
LINE
  5
4B
330
2
100
AcDbEntity
  8
GAIKEI
 62
     1
100
AcDbLine
 10
-10.85608976870912
 20
3.754203046871339
 30
0.0
 11
-34.67015167926957
 21
3.754203046871339
 31
0.0
  0
LINE
  5
4C
330
2
100
AcDbEntity
  8
GAIKEI
100
AcDbLine
 10
-10.85608976870912
 20
3.754203046871339
 30
0.0
 11
-12.30044433768023
 21
4.764304843467868
 31
0.0
  0
LINE
  5
4D
330
2
100
AcDbEntity
  8
GAIKEI
100
AcDbLine
 10
-10.85608976870912
 20
3.754203046871339
 30
0.0
 11
-10.94943297931445
 21
3.626657743830492
 31
0.0
  0
LINE
  5
4E
330
2
100
AcDbEntity
  8
GAIKEI
100
AcDbLine
 10
-11.97677833084719
 20
4.857648054073194
 30
0.0
 11
-12.07867206456143
 21
4.764304843467868
 31
0.0
  0
LINE
  5
4F
330
2
100
AcDbEntity
  8
GAIKEI
100
AcDbLine
 10
-11.95981979334789
 20
5.264795462774657
 30
0.0
 11
-11.97677833084719
 21
4.857648054073194
 31
0.0
  0
LINE
  5
50
330
2
100
AcDbEntity
  8
GAIKEI
100
AcDbLine
 10
-12.24110087886294
 20
10.76634453975089
 30
0.0
 11
-11.95981979334789
 21
5.264795462774657
 31
0.0
  0
LINE
  5
51
330
2
100
AcDbEntity
  8
GAIKEI
 62
     1
100
AcDbLine
 10
-33.2851405691157
 20
10.76634453975089
 30
0.0
 11
-12.24110087886294
 21
10.76634453975089
 31
0.0
  0
LINE
  5
52
330
2
100
AcDbEntity
  8
GAIKEI
 62
     1
100
AcDbLine
 10
-33.27712895611341
 20
10.86823827346512
 30
0.0
 11
-12.23308926586065
 21
10.86823827346512
 31
0.0
  0
LINE
  5
53
330
2
100
AcDbEntity
  8
GAIKEI
 62
     1
100
AcDbLine
 10
-25.51781425223567
 20
10.31715705909744
 30
0.0
 11
-20.00755729637456
 21
10.31715705909744
 31
0.0
  0
LINE
  5
54
330
2
100
AcDbEntity
  8
GAIKEI
100
AcDbLine
 10
-12.53712261191629
 20
15.28287335458339
 30
0.0
 11
-12.24854245699134
 21
10.86823827346512
 31
0.0
  0
LINE
  5
55
330
2
100
AcDbEntity
  8
GAIKEI
 62
     1
100
AcDbLine
 10
-14.44759449187847
 20
12.09060680623969
 30
0.0
 11
-14.44759449187847
 21
11.54729231702924
 31
0.0
  0
ARC
  5
56
330
2
100
AcDbEntity
  8
GAIKEI
 62
     1
100
AcDbCircle
 10
-14.71853779325812
 20
11.56379535526997
 30
0.0
 40
0.2714454325157861
100
AcDbArc
 50
183.4855547407777
 51
356.514445259219
  0
LINE
  5
57
330
2
100
AcDbEntity
  8
GAIKEI
 62
     1
100
AcDbLine
 10
-14.98948109463816
 20
12.09060680623969
 30
0.0
 11
-14.98948109463811
 21
11.54729231702924
 31
0.0
  0
ARC
  5
58
330
2
100
AcDbEntity
  8
GAIKEI
 62
     1
100
AcDbCircle
 10
-14.71853779325812
 20
12.07410376799896
 30
0.0
 40
0.2714454325157861
100
AcDbArc
 50
3.485554740780968
 51
176.5144452592223
  0
LINE
  5
59
330
2
100
AcDbEntity
  8
GAIKEI
 62
     1
100
AcDbLine
 10
-12.53712261191629
 20
15.28287335458333
 30
0.0
 11
-24.80512815110996
 21
15.28287335458333
 31
0.0
  0
LINE
  5
5A
330
2
100
AcDbEntity
  8
GAIKEI
 62
     1
100
AcDbLine
 10
-12.64770937745788
 20
15.45245872957628
 30
0.0
 11
-24.77976159922025
 21
15.45245872957628
 31
0.0
  0
LINE
  5
5B
330
2
100
AcDbEntity
  8
GAIKEI
 62
     1
100
AcDbLine
 10
-14.15017879640777
 20
15.97076293869327
 30
0.0
 11
-24.49046890070292
 21
15.97076293869327
 31
0.0
  0
ARC
  5
5C
330
2
100
AcDbEntity
  8
GAIKEI
100
AcDbCircle
 10
-16.71250531139572
 20
6.149249290382329
 30
0.0
 40
10.15245151941464
100
AcDbArc
 50
66.39832613421917
 51
75.33060389159015
  0
ARC
  5
5D
330
2
100
AcDbEntity
  8
GAIKEI
100
AcDbCircle
 10
-12.7927493492179
 20
15.23702849324292
 30
0.0
 40
0.2597051792606315
100
AcDbArc
 50
10.16750658934143
 51
56.04930234760821
  0
ARC
  5
5E
330
2
100
AcDbEntity
  8
GAIKEI
100
AcDbCircle
 10
-22.8116416330916
 20
-90.85983318281273
 30
0.0
 40
107.1811420266998
100
AcDbArc
 50
85.36479093620611
 51
90.96567756930419
  0
LINE
  5
5F
330
2
100
AcDbEntity
  8
GAIKEI
100
AcDbLine
 10
-28.6082583212243
 20
37.05079508518713
 30
0.0
 11
-28.6082583212243
 21
20.08548303203111
 31
0.0
  0
ARC
  5
60
330
2
100
AcDbEntity
  8
GAIKEI
100
AcDbCircle
 10
-24.54367973386684
 20
20.33219687475054
 30
0.0
 40
4.026797085202505
100
AcDbArc
 50
212.7732404663236
 51
268.9422627373814
  0
ARC
  5
61
330
2
100
AcDbEntity
  8
GAIKEI
100
AcDbCircle
 10
-24.12978414930825
 20
20.53577349882528
 30
0.0
 40
4.48531945622292
100
AcDbArc
 50
183.1658616661965
 51
212.097771313374
  0
ARC
  5
62
330
2
100
AcDbEntity
  8
GAIKEI
 62
     1
100
AcDbCircle
 10
-24.33600450654024
 20
20.23032901561612
 30
0.0
 40
4.262365823429091
100
AcDbArc
 50
213.174856995588
 51
267.9231965306187
  0
ARC
  5
63
330
2
100
AcDbEntity
  8
GAIKEI
 62
     1
100
AcDbCircle
 10
-24.86455914315724
 20
20.09285443117255
 30
0.0
 40
3.748785207536354
100
AcDbArc
 50
177.0150923371883
 51
215.8375871699818
  0
LINE
  5
64
330
2
100
AcDbEntity
  8
GAIKEI
 62
     1
100
AcDbLine
 10
-30.12816387706164
 20
37.02528855898436
 30
0.0
 11
-30.09348418523791
 21
20.21581264481858
 31
0.0
  0
LINE
  5
65
330
2
100
AcDbEntity
  8
GAIKEI
 62
     1
100
AcDbLine
 10
-30.22145701443424
 20
37.00875501323515
 30
0.0
 11
-30.23827304321509
 21
20.32611439292322
 31
0.0
  0
LINE
  5
66
330
2
100
AcDbEntity
  8
GAIKEI
 62
     1
100
AcDbLine
 10
-30.25081381044146
 20
21.22591444141506
 30
0.0
 11
-28.6082583212243
 21
21.30060778495357
 31
0.0
  0
ARC
  5
67
330
2
100
AcDbEntity
  8
GAIKEI
 62
     1
100
AcDbCircle
 10
-24.79624776426096
 20
20.99226817732284
 30
0.0
 40
5.53983397864772
100
AcDbArc
 50
223.5398851402241
 51
270.1705085522547
  0
ARC
  5
68
330
2
100
AcDbEntity
  8
GAIKEI
 62
     1
100
AcDbCircle
 10
-25.48119055675357
 20
20.37023739082554
 30
0.0
 40
4.614878060960694
100
AcDbArc
 50
181.917610416045
 51
223.799645012478
  0
ARC
  5
69
330
2
100
AcDbEntity
  8
GAIKEI
 62
     1
100
AcDbCircle
 10
-24.84773699724565
 20
20.9796286285877
 30
0.0
 40
5.696914618077527
100
AcDbArc
 50
231.4754103495863
 51
270.4285354404504
  0
ARC
  5
6A
330
2
100
AcDbEntity
  8
GAIKEI
 62
     1
100
AcDbCircle
 10
-25.3152575928886
 20
20.36275949404234
 30
0.0
 40
4.92315183470808
100
AcDbArc
 50
180.4264806556702
 51
231.2606099491169
  0
ARC
  5
6B
330
2
100
AcDbEntity
  8
GAIKEI
 62
     1
100
AcDbCircle
 10
-529.7230556423017
 20
25.68672492540179
 30
0.0
 40
499.4921612905637
100
AcDbArc
 50
358.2999506220838
 51
359.4883022570978
  0
LINE
  5
6C
330
2
100
AcDbEntity
  8
GAIKEI
100
AcDbLine
 10
-30.12816387706164
 20
37.02528855898436
 30
0.0
 11
-28.6082583212243
 21
37.05079508518713
 31
0.0
  0
ARC
  5
6D
330
2
100
AcDbEntity
  8
GAIKEI
100
AcDbCircle
 10
-25.01112750109849
 20
24.53794404395206
 30
0.0
 40
13.51549702634454
100
AcDbArc
 50
112.6752686712351
 51
129.1306142567818
  0
ARC
  5
6E
330
2
100
AcDbEntity
  8
GAIKEI
100
AcDbCircle
 10
-18.97066889102245
 20
32.41771107730068
 30
0.0
 40
14.80088613168881
100
AcDbArc
 50
169.8656048226084
 51
190.9369453703617
  0
ARC
  5
6F
330
2
100
AcDbEntity
  8
GAIKEI
100
AcDbCircle
 10
-80.19568376690244
 20
22.22755972349103
 30
0.0
 40
47.27121076448358
100
AcDbArc
 50
3.367119075278245
 51
9.06793628518062
  0
ARC
  5
70
330
2
100
AcDbEntity
  8
GAIKEI
100
AcDbCircle
 10
-227.6529678231462
 20
21.41778364550021
 30
0.0
 40
194.6799235786988
100
AcDbArc
 50
357.3852472001052
 51
1.05549953231431
  0
ARC
  5
71
330
2
100
AcDbEntity
  8
GAIKEI
100
AcDbCircle
 10
-41.39816798811113
 20
12.19902645384485
 30
0.0
 40
8.229354296678957
100
AcDbArc
 50
350.6936991682021
 51
2.349892581665895
  0
LINE
  5
72
330
2
100
AcDbEntity
  8
GAIKEI
100
AcDbLine
 10
-26.47160723896343
 20
24.97488147761209
 30
0.0
 11
-28.25170150758373
 21
25.01251360018557
 31
0.0
  0
LINE
  5
73
330
2
100
AcDbEntity
  8
GAIKEI
100
AcDbLine
 10
-28.25170150758373
 20
37.02514351586046
 30
0.0
 11
-24.09326486809573
 21
37.0976647450978
 31
0.0
  0
LINE
  5
74
330
2
100
AcDbEntity
  8
GAIKEI
100
AcDbLine
 10
-28.35316771514255
 20
36.92353479958319
 30
0.0
 11
-28.35316771514255
 21
25.10557179335393
 31
0.0
  0
ARC
  5
75
330
2
100
AcDbEntity
  8
GAIKEI
100
AcDbCircle
 10
-28.25884546917251
 20
36.93081115037302
 30
0.0
 40
0.0946024913289457
100
AcDbArc
 50
85.66915337609247
 51
184.4112617398603
  0
LINE
  5
76
330
2
100
AcDbEntity
  8
GAIKEI
100
AcDbLine
 10
-28.35316771514255
 20
33.76497156316049
 30
0.0
 11
-28.6082583212243
 21
33.76497156316049
 31
0.0
  0
LINE
  5
77
330
2
100
AcDbEntity
  8
GAIKEI
100
AcDbLine
 10
-28.35316771514255
 20
28.26413502977664
 30
0.0
 11
-28.6082583212243
 21
28.26413502977664
 31
0.0
  0
ARC
  5
78
330
2
100
AcDbEntity
  8
GAIKEI
100
AcDbCircle
 10
-28.23790606046663
 20
25.12940154552672
 30
0.0
 40
0.1176992188896764
100
AcDbArc
 50
191.6810332129579
 51
263.2689274522986
  0
CIRCLE
  5
79
330
2
100
AcDbEntity
  8
GAIKEI
 62
     1
100
AcDbCircle
 10
-22.05955008072113
 20
31.02078229905715
 30
0.0
 40
3.44402598742787
  0
CIRCLE
  5
7A
330
2
100
AcDbEntity
  8
GAIKEI
 62
     1
100
AcDbCircle
 10
-22.05955008072113
 20
31.02078229905715
 30
0.0
 40
3.987745420033468
  0
CIRCLE
  5
7B
330
2
100
AcDbEntity
  8
GAIKEI
 62
     1
100
AcDbCircle
 10
-22.05955008072113
 20
31.02078229905715
 30
0.0
 40
4.216650582625597
  0
CIRCLE
  5
7C
330
2
100
AcDbEntity
  8
GAIKEI
 62
     1
100
AcDbCircle
 10
-22.05955008072113
 20
31.02078229905715
 30
0.0
 40
4.717946305081301
  0
CIRCLE
  5
7D
330
2
100
AcDbEntity
  8
GAIKEI
 62
     1
100
AcDbCircle
 10
-22.05955008072113
 20
31.02078229905715
 30
0.0
 40
4.607409360811425
  0
CIRCLE
  5
7E
330
2
100
AcDbEntity
  8
GAIKEI
 62
     1
100
AcDbCircle
 10
-22.05955008072113
 20
31.02078229905715
 30
0.0
 40
4.369827327009995
  0
CIRCLE
  5
7F
330
2
100
AcDbEntity
  8
GAIKEI
 62
     1
100
AcDbCircle
 10
-22.05955008072113
 20
31.02078229905715
 30
0.0
 40
4.454746396637062
  0
CIRCLE
  5
80
330
2
100
AcDbEntity
  8
GAIKEI
 62
     1
100
AcDbCircle
 10
-22.05955008072113
 20
31.02078229905715
 30
0.0
 40
5.492537955284852
  0
CIRCLE
  5
81
330
2
100
AcDbEntity
  8
GAIKEI
 62
     1
100
AcDbCircle
 10
-22.05955008072113
 20
31.02078229905715
 30
0.0
 40
5.713152097433179
  0
CIRCLE
  5
82
330
2
100
AcDbEntity
  8
GAIKEI
 62
     1
100
AcDbCircle
 10
-22.05955008072113
 20
31.02078229905715
 30
0.0
 40
5.909768794151291
  0
LINE
  5
83
330
2
100
AcDbEntity
  8
GAIKEI
 62
     1
100
AcDbLine
 10
-22.06340291624542
 20
37.4841640980892
 30
0.0
 11
-22.06340291624542
 21
36.93054983729269
 31
0.0
  0
ELLIPSE
  5
84
330
2
100
AcDbEntity
  8
GAIKEI
100
AcDbEllipse
 10
-22.06340291624542
 20
30.19562694571505
 30
0.0
 11
0.0
 21
7.288537152374272
 31
0.0
210
0.0
220
0.0
230
1.0
 40
0.8667465498295015
 41
0.0
 42
6.283185307179586
  0
ELLIPSE
  5
85
330
2
100
AcDbEntity
  8
GAIKEI
 62
     1
100
AcDbEllipse
 10
-22.06340291624542
 20
30.19562694571505
 30
0.0
 11
0.0000000000000227
 21
-6.720069874351804
 31
0.0
210
0.0
220
0.0
230
1.0
 40
0.8884838169100522
 41
0.0
 42
6.283185307179586
  0
ELLIPSE
  5
86
330
2
100
AcDbEntity
  8
GAIKEI
 62
     1
100
AcDbEllipse
 10
-22.06340291624542
 20
30.19562694571505
 30
0.0
 11
0.0
 21
-6.957346890623387
 31
0.0
210
0.0
220
0.0
230
1.0
 40
0.8880654581809908
 41
0.0
 42
6.283185307179586
  0
ARC
  5
87
330
2
100
AcDbEntity
  8
GAIKEI
100
AcDbCircle
 10
-21.27870271843932
 20
36.8484703243247
 30
0.0
 40
1.514825046700408
100
AcDbArc
 50
133.3021273862016
 51
156.6866609803667
  0
ARC
  5
88
330
2
100
AcDbEntity
  8
GAIKEI
100
AcDbCircle
 10
-22.05868496803356
 20
37.41799716807867
 30
0.0
 40
0.5924704125944568
100
AcDbArc
 50
64.08265112066809
 51
115.9173488793355
  0
ARC
  5
89
330
2
100
AcDbEntity
  8
GAIKEI
100
AcDbCircle
 10
-22.83866721762775
 20
36.8484703243247
 30
0.0
 40
1.514825046700408
100
AcDbArc
 50
23.3133390196333
 51
46.69787261379839
  0
LINE
  5
8A
330
2
100
AcDbEntity
  8
GAIKEI
 62
     1
100
AcDbLine
 10
-22.06340291624542
 20
25.11101476082155
 30
0.0
 11
-22.06340291624542
 21
22.90708979334068
 31
0.0
  0
LINE
  5
8B
330
2
100
AcDbEntity
  8
GAIKEI
 62
     1
100
AcDbLine
 10
12.11593759903138
 20
37.03412156512485
 30
0.0
 11
12.11593759903138
 21
23.39062187514821
 31
0.0
  0
LINE
  5
8C
330
2
100
AcDbEntity
  8
GAIKEI
 62
     1
100
AcDbLine
 10
11.92953619525764
 20
36.9404933370825
 30
0.0
 11
11.92953619525764
 21
23.48425010319051
 31
0.0
  0
ARC
  5
8D
330
2
100
AcDbEntity
  8
GAIKEI
100
AcDbCircle
 10
16.43678433536894
 20
32.68444687941366
 30
0.0
 40
6.199130362105066
100
AcDbArc
 50
136.6419459408745
 51
150.8817998263635
  0
ARC
  5
8E
330
2
100
AcDbEntity
  8
GAIKEI
100
AcDbCircle
 10
12.12489058914338
 20
36.78393297753507
 30
0.0
 40
0.2503487275623568
100
AcDbArc
 50
92.0494530045538
 51
141.290716133574
  0
ARC
  5
8F
330
2
100
AcDbEntity
  8
GAIKEI
100
AcDbCircle
 10
39.05776838597848
 20
31.0515448199468
 30
0.0
 40
28.41408474639133
100
AcDbArc
 50
170.5479461062777
 51
181.6924025453158
  0
ARC
  5
90
330
2
100
AcDbEntity
  8
GAIKEI
100
AcDbCircle
 10
39.05776838597848
 20
29.37319862032621
 30
0.0
 40
28.41408474639133
100
AcDbArc
 50
178.3075974546842
 51
189.4520538937223
  0
ARC
  5
91
330
2
100
AcDbEntity
  8
GAIKEI
100
AcDbCircle
 10
12.12489058914338
 20
23.64081046273793
 30
0.0
 40
0.2503487275623568
100
AcDbArc
 50
218.709283866426
 51
267.9505469954462
  0
ARC
  5
92
330
2
100
AcDbEntity
  8
GAIKEI
100
AcDbCircle
 10
16.43678433536894
 20
27.74029656085941
 30
0.0
 40
6.199130362105066
100
AcDbArc
 50
209.1182001736365
 51
223.3580540591255
  0
ARC
  5
93
330
2
100
AcDbEntity
  8
GAIKEI
100
AcDbCircle
 10
17.9891304889876
 20
69.53988431254845
 30
0.0
 40
46.52148770448633
100
AcDbArc
 50
262.7472325111033
 51
268.519692532644
  0
ARC
  5
94
330
2
100
AcDbEntity
  8
GAIKEI
100
AcDbCircle
 10
17.9891304889876
 20
-9.115140872275333
 30
0.0
 40
46.52148770448627
100
AcDbArc
 50
91.48030746735603
 51
97.25276748889672
  0
ARC
  5
95
330
2
100
AcDbEntity
  8
GAIKEI
100
AcDbCircle
 10
22.56609520665143
 20
-90.98233575083929
 30
0.0
 40
128.5031577157355
100
AcDbArc
 50
89.59765741437598
 51
92.57745342380998
  0
ARC
  5
96
330
2
100
AcDbEntity
  8
GAIKEI
100
AcDbCircle
 10
24.37083085240636
 20
-90.98233575083929
 30
0.0
 40
128.5031577157355
100
AcDbArc
 50
87.42254657619001
 51
90.40234258562401
  0
ARC
  5
97
330
2
100
AcDbEntity
  8
GAIKEI
100
AcDbCircle
 10
28.93522978587441
 20
-10.09991933892417
 30
0.0
 40
47.50626387618439
100
AcDbArc
 50
84.78852416930145
 51
88.53522493975599
  0
ARC
  5
98
330
2
100
AcDbEntity
  8
GAIKEI
 62
     7
100
AcDbCircle
 10
25.12464212614941
 20
36.93495892474846
 30
0.0
 40
0.9354314639790766
100
AcDbArc
 50
96.77525713330076
 51
140.1302454488069
  0
ARC
  5
99
330
2
100
AcDbEntity
  8
GAIKEI
 62
     7
100
AcDbCircle
 10
26.1622464848565
 20
33.4265222665311
 30
0.0
 40
4.584070463969553
100
AcDbArc
 50
90.45404240977889
 51
104.8405259506442
  0
ARC
  5
9A
330
2
100
AcDbEntity
  8
GAIKEI
 62
     7
100
AcDbCircle
 10
26.18231042560967
 20
34.92789162605561
 30
0.0
 40
3.083072907954088
100
AcDbArc
 50
78.66988337458742
 51
91.04801281276996
  0
ARC
  5
9B
330
2
100
AcDbEntity
  8
GAIKEI
 62
     7
100
AcDbCircle
 10
25.60622012806926
 20
36.72096384586905
 30
0.0
 40
1.755153994554584
100
AcDbArc
 50
25.77471774254377
 51
42.59355532127894
  0
ARC
  5
9C
330
2
100
AcDbEntity
  8
GAIKEI
 62
     7
100
AcDbCircle
 10
26.57293606578219
 20
37.22084842800479
 30
0.0
 40
0.7610555727859579
100
AcDbArc
 50
64.68847936441
 51
73.58413594818784
  0
ARC
  5
9D
330
2
100
AcDbEntity
  8
GAIKEI
 62
     1
100
AcDbCircle
 10
26.25508057400896
 20
75.3145734616279
 30
0.0
 40
37.84188010798726
100
AcDbArc
 50
267.2067561333759
 51
271.4107759605496
  0
LINE
  5
9E
330
2
100
AcDbEntity
  8
GAIKEI
 62
     1
100
AcDbLine
 10
33.25032088835974
 20
37.20996436681867
 30
0.0
 11
33.25032088835963
 21
23.39062187514821
 31
0.0
  0
LINE
  5
9F
330
2
100
AcDbEntity
  8
GAIKEI
 62
     1
100
AcDbLine
 10
33.40123752891782
 20
36.87205044521994
 30
0.0
 11
33.40123752891782
 21
25.16546145688955
 31
0.0
  0
ARC
  5
A0
330
2
100
AcDbEntity
  8
GAIKEI
100
AcDbCircle
 10
32.02515184760455
 20
10.92713006361094
 30
0.0
 40
26.03556425289966
100
AcDbArc
 50
82.1620375281358
 51
86.85712400884559
  0
LINE
  5
A1
330
2
100
AcDbEntity
  8
GAIKEI
100
AcDbLine
 10
33.45257847282335
 20
36.92353479958325
 30
0.0
 11
33.40123752891782
 21
36.87205044521994
 31
0.0
  0
ARC
  5
A2
330
2
100
AcDbEntity
  8
GAIKEI
100
AcDbCircle
 10
26.49807380159541
 20
99.14719143976231
 30
0.0
 40
76.20249303088076
100
AcDbArc
 50
272.7729154009508
 51
275.0310313281694
  0
ARC
  5
A3
330
2
100
AcDbEntity
  8
GAIKEI
100
AcDbCircle
 10
23.30512233545767
 20
24.87037074194473
 30
0.0
 40
10.10042674987868
100
AcDbArc
 50
353.5689963968968
 51
1.674172698216363
  0
ARC
  5
A4
330
2
100
AcDbEntity
  8
GAIKEI
100
AcDbCircle
 10
31.60684712796035
 20
23.88249840962954
 30
0.0
 40
1.741461084917041
100
AcDbArc
 50
341.0986480380708
 51
355.4022551667504
  0
ARC
  5
A5
330
2
100
AcDbEntity
  8
GAIKEI
100
AcDbCircle
 10
33.15051292891417
 20
23.34003022918137
 30
0.0
 40
0.106125669478152
100
AcDbArc
 50
286.5099049717805
 51
348.2231671389339
  0
LINE
  5
A6
330
2
100
AcDbEntity
  8
GAIKEI
 62
     1
100
AcDbLine
 10
35.58308381412099
 20
36.71946231471782
 30
0.0
 11
35.57567336076
 21
25.30964427821937
 31
0.0
  0
ARC
  5
A7
330
2
100
AcDbEntity
  8
GAIKEI
100
AcDbCircle
 10
34.19815537800594
 20
31.95880591691054
 30
0.0
 40
4.95801130607258
100
AcDbArc
 50
67.31754659031797
 51
73.77969299767994
  0
ARC
  5
A8
330
2
100
AcDbEntity
  8
GAIKEI
100
AcDbCircle
 10
33.08319933323321
 20
35.16960227445333
 30
0.0
 40
3.319911099952747
100
AcDbArc
 50
9.658542991823184
 51
24.25366414652538
  0
LINE
  5
A9
330
2
100
AcDbEntity
  8
GAIKEI
 62
     1
100
AcDbLine
 10
36.11008105506539
 20
36.53334592838104
 30
0.0
 11
36.11008105506539
 21
25.49576066455614
 31
0.0
  0
ARC
  5
AA
330
2
100
AcDbEntity
  8
GAIKEI
100
AcDbCircle
 10
33.08319933323321
 20
26.85950431848386
 30
0.0
 40
3.319911099952747
100
AcDbArc
 50
335.7463358534746
 51
350.3414570081768
  0
ARC
  5
AB
330
2
100
AcDbEntity
  8
GAIKEI
100
AcDbCircle
 10
34.19815537800594
 20
30.07030067602665
 30
0.0
 40
4.95801130607258
100
AcDbArc
 50
286.22030700232
 51
292.682453409682
  0
LINE
  5
AC
330
2
100
AcDbEntity
  8
GAIKEI
100
AcDbLine
 10
33.45257847282335
 20
25.10557179335393
 30
0.0
 11
33.40123752891782
 21
25.15705614771718
 31
0.0
  0
ARC
  5
AD
330
2
100
AcDbEntity
  8
GAIKEI
100
AcDbCircle
 10
32.02515184760455
 20
51.10197652932618
 30
0.0
 40
26.03556425289966
100
AcDbArc
 50
273.1428759911544
 51
277.8379624718642
  0
LINE
  5
AE
330
2
100
AcDbEntity
  8
GAIKEI
100
AcDbLine
 10
36.35605110316431
 20
35.72660407305756
 30
0.0
 11
36.35605110316431
 21
26.30250251987957
 31
0.0
  0
ARC
  5
AF
330
2
100
AcDbEntity
  8
GAIKEI
100
AcDbCircle
 10
32.91804369983311
 20
36.85890755960253
 30
0.0
 40
0.4833725394640567
100
AcDbArc
 50
1.558062635525276
 51
46.57422597078069
  0
LINE
  5
B0
330
2
100
AcDbEntity
  8
GAIKEI
100
AcDbLine
 10
11.15938943104504
 20
10.86823827346512
 30
0.0
 11
33.99582170767451
 21
10.86823827346512
 31
0.0
  0
LINE
  5
B1
330
2
100
AcDbEntity
  8
GAIKEI
 62
     1
100
AcDbLine
 10
11.15851455358608
 20
10.76634453975089
 30
0.0
 11
34.00312077708441
 21
10.76634453975089
 31
0.0
  0
ARC
  5
B2
330
2
100
AcDbEntity
  8
GAIKEI
100
AcDbCircle
 10
-579.116518932176
 20
-25.78679126654373
 30
0.0
 40
614.2070769988369
100
AcDbArc
 50
3.421365880588623
 51
3.834009037345515
  0
ARC
  5
B3
330
2
100
AcDbEntity
  8
GAIKEI
100
AcDbCircle
 10
33.51028875382724
 20
16.36149445119872
 30
0.0
 40
0.9031435562903498
100
AcDbArc
 50
241.9675480213109
 51
274.9518494455082
  0
ARC
  5
B4
330
2
100
AcDbEntity
  8
GAIKEI
100
AcDbCircle
 10
37.36776194952279
 20
21.32084271506409
 30
0.0
 40
7.174078085436422
100
AcDbArc
 50
194.7548519296697
 51
233.3737128002344
  0
ARC
  5
B5
330
2
100
AcDbEntity
  8
GAIKEI
100
AcDbCircle
 10
33.52082138715923
 20
15.27857862306541
 30
0.0
 40
0.1951604584064299
100
AcDbArc
 50
1.260961658055342
 51
69.78847800653863
  0
ARC
  5
B6
330
2
100
AcDbEntity
  8
GAIKEI
 62
     1
100
AcDbCircle
 10
224.6605951547627
 20
26.96499438902663
 30
0.0
 40
194.6675518580153
100
AcDbArc
 50
181.7346008614483
 51
184.7431141925017
  0
ARC
  5
B7
330
2
100
AcDbEntity
  8
GAIKEI
 62
     1
100
AcDbCircle
 10
30.22223425876712
 20
21.10728544546572
 30
0.0
 40
0.1442604527513308
100
AcDbArc
 50
64.47113104928401
 51
193.9808162888956
  0
ARC
  5
B8
330
2
100
AcDbEntity
  8
GAIKEI
100
AcDbCircle
 10
720.4717314411165
 20
78.08736559357703
 30
0.0
 40
692.5246973005942
100
AcDbArc
 50
183.8957905418641
 51
184.8535264875154
  0
ARC
  5
B9
330
2
100
AcDbEntity
  8
GAIKEI
100
AcDbCircle
 10
23.46766971342697
 20
30.97087457677719
 30
0.0
 40
6.079947128270664
100
AcDbArc
 50
0.6124011855839014
 51
89.8304527394964
  0
ARC
  5
BA
330
2
100
AcDbEntity
  8
GAIKEI
100
AcDbCircle
 10
23.46925634563081
 20
30.97087457677719
 30
0.0
 40
6.079947128270664
100
AcDbArc
 50
90.16954726050357
 51
179.3875988144161
  0
ARC
  5
BB
330
2
100
AcDbEntity
  8
GAIKEI
100
AcDbCircle
 10
-673.5348053820585
 20
78.08736559357703
 30
0.0
 40
692.5246973005942
100
AcDbArc
 50
355.1464735124846
 51
356.1042094581359
  0
ARC
  5
BC
330
2
100
AcDbEntity
  8
GAIKEI
100
AcDbCircle
 10
13.41610467189855
 20
15.27857862306541
 30
0.0
 40
0.1951604584064299
100
AcDbArc
 50
110.2115219934613
 51
178.7390383419446
  0
ARC
  5
BD
330
2
100
AcDbEntity
  8
GAIKEI
100
AcDbCircle
 10
9.569164109534995
 20
21.32084271506409
 30
0.0
 40
7.174078085436422
100
AcDbArc
 50
306.6262871997656
 51
345.2451480703303
  0
ARC
  5
BE
330
2
100
AcDbEntity
  8
GAIKEI
100
AcDbCircle
 10
13.42663730523043
 20
16.36149445119872
 30
0.0
 40
0.9031435562903498
100
AcDbArc
 50
265.0481505544918
 51
298.0324519786891
  0
ARC
  5
BF
330
2
100
AcDbEntity
  8
GAIKEI
100
AcDbCircle
 10
626.053444991234
 20
-25.78679126654373
 30
0.0
 40
614.2070769988369
100
AcDbArc
 50
176.1659909626545
 51
176.5786341194114
  0
LINE
  5
C0
330
2
100
AcDbEntity
  8
GAIKEI
 62
     1
100
AcDbLine
 10
23.05229219804755
 20
12.03153694242917
 30
0.0
 11
23.05229219804755
 21
11.60686096135475
 31
0.0
  0
ARC
  5
C1
330
2
100
AcDbEntity
  8
GAIKEI
 62
     1
100
AcDbCircle
 10
23.29806443108657
 20
12.04047588796459
 30
0.0
 40
0.2459347378477885
100
AcDbArc
 50
130.7548347380925
 51
182.0829781642654
  0
ARC
  5
C2
330
2
100
AcDbEntity
  8
GAIKEI
 62
     1
100
AcDbCircle
 10
23.47269291756766
 20
11.81222525459259
 30
0.0
 40
0.5331008721964813
100
AcDbArc
 50
51.04296164439946
 51
128.9570383556005
  0
ARC
  5
C3
330
2
100
AcDbEntity
  8
GAIKEI
 62
     1
100
AcDbCircle
 10
23.64732140404885
 20
12.04047588796459
 30
0.0
 40
0.2459347378477885
100
AcDbArc
 50
357.9170218357345
 51
49.2451652619062
  0
LINE
  5
C4
330
2
100
AcDbEntity
  8
GAIKEI
 62
     1
100
AcDbLine
 10
23.89309363708787
 20
12.03153694242917
 30
0.0
 11
23.89309363708787
 21
11.60686096135418
 31
0.0
  0
ARC
  5
C5
330
2
100
AcDbEntity
  8
GAIKEI
 62
     1
100
AcDbCircle
 10
23.64732140404885
 20
11.59792201581905
 30
0.0
 40
0.2459347378477885
100
AcDbArc
 50
310.7548347380926
 51
2.082978164265441
  0
ARC
  5
C6
330
2
100
AcDbEntity
  8
GAIKEI
 62
     1
100
AcDbCircle
 10
23.47269291756766
 20
11.82617264919099
 30
0.0
 40
0.5331008721964813
100
AcDbArc
 50
231.0429616443995
 51
308.9570383556005
  0
ARC
  5
C7
330
2
100
AcDbEntity
  8
GAIKEI
 62
     1
100
AcDbCircle
 10
23.29806443108657
 20
11.59792201581905
 30
0.0
 40
0.2459347378477885
100
AcDbArc
 50
177.9170218357345
 51
229.2451652619063
  0
LINE
  5
C8
330
2
100
AcDbEntity
  8
GAIKEI
100
AcDbLine
 10
34.00312077708441
 20
10.76634453975089
 30
0.0
 11
34.28440186259945
 21
5.264795462774657
 31
0.0
  0
LINE
  5
C9
330
2
100
AcDbEntity
  8
GAIKEI
100
AcDbLine
 10
34.28440186259945
 20
5.264795462774657
 30
0.0
 11
34.26744332510021
 21
4.857648054073194
 31
0.0
  0
LINE
  5
CA
330
2
100
AcDbEntity
  8
GAIKEI
100
AcDbLine
 10
34.26744332510021
 20
4.857648054073194
 30
0.0
 11
34.16554959138603
 21
4.764304843467868
 31
0.0
  0
LINE
  5
CB
330
2
100
AcDbEntity
  8
GAIKEI
100
AcDbLine
 10
35.38813188723827
 20
3.754203046871339
 30
0.0
 11
35.29478867663295
 21
3.626657743830492
 31
0.0
  0
LINE
  5
CC
330
2
100
AcDbEntity
  8
GAIKEI
100
AcDbLine
 10
35.38813188723827
 20
3.754203046871339
 30
0.0
 11
33.94377731826717
 21
4.764304843467868
 31
0.0
  0
LINE
  5
CD
330
2
100
AcDbEntity
  8
GAIKEI
 62
     1
100
AcDbLine
 10
35.38813188723827
 20
3.754203046871339
 30
0.0
 11
12.85622091685548
 21
3.754203046871339
 31
0.0
  0
LINE
  5
CE
330
2
100
AcDbEntity
  8
GAIKEI
100
AcDbLine
 10
12.85622091685548
 20
3.626657743830492
 30
0.0
 11
35.29478867663295
 21
3.626657743830492
 31
0.0
  0
LINE
  5
CF
330
2
100
AcDbEntity
  8
GAIKEI
 62
     1
100
AcDbLine
 10
11.11127728882786
 20
5.264795462774713
 30
0.0
 11
34.28440186259945
 21
5.264795462774657
 31
0.0
  0
LINE
  5
D0
330
2
100
AcDbEntity
  8
GAIKEI
 62
     1
100
AcDbLine
 10
11.15851455358608
 20
4.764304843467868
 30
0.0
 11
34.16554959138603
 21
4.764304843467868
 31
0.0
  0
LINE
  5
D1
330
2
100
AcDbEntity
  8
GAIKEI
 62
     1
100
AcDbLine
 10
11.10778144980668
 20
4.857648054073194
 30
0.0
 11
34.26744332510021
 21
4.857648054073194
 31
0.0
  0
LINE
  5
D2
330
2
100
AcDbEntity
  8
GAIKEI
 62
     1
100
AcDbLine
 10
34.24179175577365
 20
6.190532098030132
 30
0.0
 11
32.21303763947174
 21
6.190532098030132
 31
0.0
  0
LINE
  5
D3
330
2
100
AcDbEntity
  8
GAIKEI
 62
     1
100
AcDbLine
 10
34.12322450199702
 20
6.487377758627019
 30
0.0
 11
32.0941853682582
 21
6.496213299172836
 31
0.0
  0
ARC
  5
D4
330
2
100
AcDbEntity
  8
GAIKEI
 62
     1
100
AcDbCircle
 10
32.70812301669321
 20
6.948015407436457
 30
0.0
 40
1.483482597422726
100
AcDbArc
 50
343.633054940303
 51
21.37606848283398
  0
ARC
  5
D5
330
2
100
AcDbEntity
  8
GAIKEI
 62
     1
100
AcDbCircle
 10
32.2887473708837
 20
6.53855966991631
 30
0.0
 40
0.3561673121209163
100
AcDbArc
 50
179.911723305238
 51
257.7271206780781
  0
LINE
  5
D6
330
2
100
AcDbEntity
  8
GAIKEI
 62
     1
100
AcDbLine
 10
31.93258048150028
 20
6.539108423435777
 30
0.0
 11
31.88184737772087
 21
7.328179197667509
 31
0.0
  0
ARC
  5
D7
330
2
100
AcDbEntity
  8
GAIKEI
 62
     1
100
AcDbCircle
 10
32.13991865307446
 20
7.380416644476611
 30
0.0
 40
0.2633050208631098
100
AcDbArc
 50
109.0509400604741
 51
191.44290713732
  0
LINE
  5
D8
330
2
100
AcDbEntity
  8
GAIKEI
 62
     1
100
AcDbLine
 10
32.05397361416033
 20
7.629300119818822
 30
0.0
 11
34.16351037779532
 21
7.629300119818822
 31
0.0
  0
LINE
  5
D9
330
2
100
AcDbEntity
  8
GAIKEI
 62
     1
100
AcDbLine
 10
34.13149000766896
 20
6.529987865452937
 30
0.0
 11
32.10245087393003
 21
6.538823405998812
 31
0.0
  0
LINE
  5
DA
330
2
100
AcDbEntity
  8
GAIKEI
 62
     1
100
AcDbLine
 10
34.13149000766896
 20
7.531190300554101
 30
0.0
 11
32.08606460149508
 21
7.540097195847181
 31
0.0
  0
LINE
  5
DB
330
2
100
AcDbEntity
  8
GAIKEI
 62
     1
100
AcDbLine
 10
34.08955408362817
 20
7.488726813052437
 30
0.0
 11
32.0941853682582
 21
7.497415734273999
 31
0.0
  0
ARC
  5
DC
330
2
100
AcDbEntity
  8
GAIKEI
 62
     1
100
AcDbCircle
 10
32.23194870475811
 20
6.775475649181771
 30
0.0
 40
0.3113939578991008
100
AcDbArc
 50
201.3810856509028
 51
243.7423452758016
  0
ARC
  5
DD
330
2
100
AcDbEntity
  8
GAIKEI
 62
     1
100
AcDbCircle
 10
32.26896286750196
 20
6.700920229135419
 30
0.0
 40
0.2323824951976196
100
AcDbArc
 50
183.3852069831456
 51
224.2302232987035
  0
LINE
  5
DE
330
2
100
AcDbEntity
  8
GAIKEI
 62
     1
100
AcDbLine
 10
34.12322450199702
 20
6.487377758627019
 30
0.0
 11
34.24179175577365
 21
6.190532098030132
 31
0.0
  0
ARC
  5
DF
330
2
100
AcDbEntity
  8
GAIKEI
 62
     1
100
AcDbCircle
 10
32.22368319908617
 20
7.260763491091097
 30
0.0
 40
0.3113939578991008
100
AcDbArc
 50
116.2279626834736
 51
158.6189143490972
  0
ARC
  5
E0
330
2
100
AcDbEntity
  8
GAIKEI
 62
     1
100
AcDbCircle
 10
32.26069736183013
 20
7.335318911137392
 30
0.0
 40
0.2323824951976196
100
AcDbArc
 50
135.7697767012964
 51
176.6147930168544
  0
LINE
  5
E1
330
2
100
AcDbEntity
  8
GAIKEI
 62
     1
100
AcDbLine
 10
32.02872034927327
 20
7.349040781253904
 30
0.0
 11
32.03698585494521
 21
6.687198359018907
 31
0.0
  0
LINE
  5
E2
330
2
100
AcDbEntity
  8
GAIKEI
 62
     1
100
AcDbLine
 10
31.93372055124815
 20
7.374288201506033
 30
0.0
 11
31.94198605691997
 21
6.661950938766779
 31
0.0
  0
LINE
  5
E3
330
2
100
AcDbEntity
  8
GAIKEI
 62
     1
100
AcDbLine
 10
34.13149000766896
 20
7.531190300554101
 30
0.0
 11
34.16351037779532
 21
7.629300119818822
 31
0.0
  0
LINE
  5
E4
330
2
100
AcDbEntity
  8
GAIKEI
 62
     1
100
AcDbLine
 10
34.14859105388666
 20
8.117677498054717
 30
0.0
 11
33.77094294991093
 21
8.121810250890689
 31
0.0
  0
LINE
  5
E5
330
2
100
AcDbEntity
  8
GAIKEI
 62
     1
100
AcDbLine
 10
33.77094294991093
 20
8.121810250890689
 30
0.0
 11
33.70709904403134
 21
8.279139876094291
 31
0.0
  0
LINE
  5
E6
330
2
100
AcDbEntity
  8
GAIKEI
 62
     1
100
AcDbLine
 10
33.70709904403134
 20
8.279139876094291
 30
0.0
 11
33.61418335958138
 21
10.28842707548574
 31
0.0
  0
LINE
  5
E7
330
2
100
AcDbEntity
  8
GAIKEI
 62
     1
100
AcDbLine
 10
33.61418335958138
 20
10.28842707548574
 30
0.0
 11
34.02755555740805
 21
10.28842707548574
 31
0.0
  0
LINE
  5
E8
330
2
100
AcDbEntity
  8
GAIKEI
 62
     1
100
AcDbLine
 10
33.97024316966429
 20
10.28842707548574
 30
0.0
 11
34.04491828949301
 21
8.118812030193396
 31
0.0
  0
LINE
  5
E9
330
2
100
AcDbEntity
  8
GAIKEI
100
AcDbLine
 10
11.15938943104504
 20
10.86823827346512
 30
0.0
 11
11.10697998863804
 21
4.764304843467868
 31
0.0
  0
LINE
  5
EA
330
2
100
AcDbEntity
  8
GAIKEI
 62
     1
100
AcDbLine
 10
12.85622091685548
 20
3.754203046871339
 30
0.0
 11
12.85622091685548
 21
3.626657743830492
 31
0.0
  0
ARC
  5
EB
330
2
100
AcDbEntity
  8
GAIKEI
 62
     1
100
AcDbCircle
 10
12.85854894204647
 20
4.556371333281731
 30
0.0
 40
0.8021716645605581
100
AcDbArc
 50
233.0667416311155
 51
269.8337186276051
  0
ARC
  5
EC
330
2
100
AcDbEntity
  8
GAIKEI
 62
     1
100
AcDbCircle
 10
16.56675620329667
 20
11.22385495027913
 30
0.0
 40
8.424658172535499
100
AcDbArc
 50
229.6069939565484
 51
240.1734758250138
  0
ARC
  5
ED
330
2
100
AcDbEntity
  8
GAIKEI
100
AcDbCircle
 10
12.84105993536104
 20
4.391732610543726
 30
0.0
 40
0.7652250695293239
100
AcDbArc
 50
232.6241106565277
 51
271.1352439003761
  0
ARC
  5
EE
330
2
100
AcDbEntity
  8
GAIKEI
100
AcDbCircle
 10
15.62589197152772
 20
9.710999151360852
 30
0.0
 40
6.759585976342896
100
AcDbArc
 50
229.0894526896651
 51
241.2686531595837
  0
LINE
  5
EF
330
2
100
AcDbEntity
  8
GAIKEI
 62
     1
100
AcDbLine
 10
11.19917468499955
 20
4.602557447991387
 30
0.0
 11
10.95415705128369
 21
4.602557447991387
 31
0.0
  0
LINE
  5
F0
330
2
100
AcDbEntity
  8
GAIKEI
 62
     1
100
AcDbLine
 10
10.95415705128369
 20
4.602557447991387
 30
0.0
 11
10.94574903689329
 21
4.331078339284317
 31
0.0
  0
ARC
  5
F1
330
2
100
AcDbEntity
  8
GAIKEI
 62
     1
100
AcDbCircle
 10
10.80119884622877
 20
4.30720799006599
 30
0.0
 40
0.1465078536903886
100
AcDbArc
 50
266.8398111266566
 51
9.376935497531137
  0
LINE
  5
F2
330
2
100
AcDbEntity
  8
GAIKEI
 62
     1
100
AcDbLine
 10
10.79312219939959
 20
4.160922929417381
 30
0.0
 11
9.553866383485001
 21
4.160922929417381
 31
0.0
  0
LINE
  5
F3
330
2
100
AcDbEntity
  8
GAIKEI
 62
     1
100
AcDbLine
 10
9.553866383485001
 20
4.160922929417381
 30
0.0
 11
9.553866383484887
 21
4.322385307456897
 31
0.0
  0
LINE
  5
F4
330
2
100
AcDbEntity
  8
GAIKEI
 62
     1
100
AcDbLine
 10
9.553866383484887
 20
4.322385307456897
 30
0.0
 11
10.79312219939959
 21
4.322385307456897
 31
0.0
  0
LINE
  5
F5
330
2
100
AcDbEntity
  8
GAIKEI
 62
     1
100
AcDbLine
 10
10.79312219939959
 20
4.322385307456897
 30
0.0
 11
10.7931221993997
 21
4.611963023411192
 31
0.0
  0
ARC
  5
F6
330
2
100
AcDbEntity
  8
GAIKEI
 62
     1
100
AcDbCircle
 10
10.94560117626997
 20
4.611560385597215
 30
0.0
 40
0.1527445294371084
100
AcDbArc
 50
89.94453620678893
 51
183.3790373287388
  0
LINE
  5
F7
330
2
100
AcDbEntity
  8
GAIKEI
 62
     1
100
AcDbLine
 10
10.95415705128369
 20
4.764304843467868
 30
0.0
 11
11.10697998863804
 21
4.764304843467868
 31
0.0
  0
LINE
  5
F8
330
2
100
AcDbEntity
  8
GAIKEI
 62
     1
100
AcDbLine
 10
11.14098598121279
 20
9.178939924586074
 30
0.0
 11
10.85573987856025
 21
9.178939924586074
 31
0.0
  0
LINE
  5
F9
330
2
100
AcDbEntity
  8
GAIKEI
 62
     1
100
AcDbLine
 10
10.85573987856025
 20
9.178939924586074
 30
0.0
 11
10.87812864997374
 21
6.169155790257946
 31
0.0
  0
LINE
  5
FA
330
2
100
AcDbEntity
  8
GAIKEI
 62
     1
100
AcDbLine
 10
10.87812864997374
 20
6.169155790257946
 30
0.0
 11
11.11904228512776
 21
6.169155790257946
 31
0.0
  0
LINE
  5
FB
330
2
100
AcDbEntity
  8
GAIKEI
 62
     1
100
AcDbLine
 10
11.09025287743338
 20
5.392625783252526
 30
0.0
 11
10.40293332819738
 21
5.392625783252526
 31
0.0
  0
LINE
  5
FC
330
2
100
AcDbEntity
  8
GAIKEI
 62
     1
100
AcDbLine
 10
10.40293332819738
 20
5.392625783252526
 30
0.0
 11
10.40293332819738
 21
5.9780515987743
 31
0.0
  0
LINE
  5
FD
330
2
100
AcDbEntity
  8
GAIKEI
 62
     1
100
AcDbLine
 10
10.40293332819738
 20
5.9780515987743
 30
0.0
 11
11.11740143104049
 21
5.978051598774356
 31
0.0
  0
LINE
  5
FE
330
2
100
AcDbEntity
  8
GAIKEI
 62
     1
100
AcDbLine
 10
10.40293332819738
 20
5.47784599690442
 30
0.0
 11
10.22451241265855
 21
5.47784599690442
 31
0.0
  0
LINE
  5
FF
330
2
100
AcDbEntity
  8
GAIKEI
 62
     1
100
AcDbLine
 10
10.22451241265855
 20
5.47784599690442
 30
0.0
 11
10.22451241265867
 21
6.427809114301737
 31
0.0
  0
LINE
  5
100
330
2
100
AcDbEntity
  8
GAIKEI
 62
     1
100
AcDbLine
 10
10.22451241265867
 20
6.427809114301737
 30
0.0
 11
10.87620461493043
 21
6.427809114301737
 31
0.0
  0
LINE
  5
101
330
2
100
AcDbEntity
  8
GAIKEI
 62
     1
100
AcDbLine
 10
10.52164309069246
 20
6.173431051812372
 30
0.0
 11
8.271715443307357
 21
6.173431051812428
 31
0.0
  0
LINE
  5
102
330
2
100
AcDbEntity
  8
GAIKEI
 62
     1
100
AcDbLine
 10
8.313374060611181
 20
5.995295153710571
 30
0.0
 11
10.58545514421052
 21
5.995295153710571
 31
0.0
  0
LINE
  5
103
330
2
100
AcDbEntity
  8
GAIKEI
 62
     1
100
AcDbLine
 10
8.220697322091041
 20
8.380606083652992
 30
0.0
 11
8.220697322091041
 21
6.988295904089341
 31
0.0
  0
LINE
  5
104
330
2
100
AcDbEntity
  8
GAIKEI
 62
     1
100
AcDbLine
 10
8.408096286894192
 20
8.329872979873584
 30
0.0
 11
8.408096286894192
 21
7.039599042742679
 31
0.0
  0
LINE
  5
105
330
2
100
AcDbEntity
  8
GAIKEI
 62
     1
100
AcDbLine
 10
7.983420305819436
 20
6.81016000598754
 30
0.0
 11
7.983420305819436
 21
6.283732799917004
 31
0.0
  0
LINE
  5
106
330
2
100
AcDbEntity
  8
GAIKEI
 62
     1
100
AcDbLine
 10
8.161413695202782
 20
6.793343977206689
 30
0.0
 11
8.161413695202895
 21
6.292140814307458
 31
0.0
  0
LINE
  5
107
330
2
100
AcDbEntity
  8
GAIKEI
 62
     1
100
AcDbLine
 10
10.52990859636441
 20
9.195898462085324
 30
0.0
 11
8.271715443307471
 21
9.195898462085324
 31
0.0
  0
LINE
  5
108
330
2
100
AcDbEntity
  8
GAIKEI
 62
     1
100
AcDbLine
 10
10.52990859636441
 20
9.374176868905635
 30
0.0
 11
8.271715443307471
 21
9.374176868905692
 31
0.0
  0
LINE
  5
109
330
2
100
AcDbEntity
  8
GAIKEI
 62
     1
100
AcDbLine
 10
7.983420305819436
 20
9.094004728371089
 30
0.0
 11
7.983420305819436
 21
8.559026999191814
 31
0.0
  0
LINE
  5
10A
330
2
100
AcDbEntity
  8
GAIKEI
 62
     1
100
AcDbLine
 10
8.161413695202895
 20
9.094004728371089
 30
0.0
 11
8.161413695202895
 21
8.584393551081461
 31
0.0
  0
LINE
  5
10B
330
2
100
AcDbEntity
  8
GAIKEI
 62
     1
100
AcDbLine
 10
11.14670921411232
 20
9.391420423841907
 30
0.0
 11
10.40293332819738
 21
9.391420423841907
 31
0.0
  0
LINE
  5
10C
330
2
100
AcDbEntity
  8
GAIKEI
 62
     1
100
AcDbLine
 10
10.40293332819738
 20
9.391420423841907
 30
0.0
 11
10.40293332819738
 21
9.977131256800703
 31
0.0
  0
LINE
  5
10D
330
2
100
AcDbEntity
  8
GAIKEI
 62
     1
100
AcDbLine
 10
10.40293332819738
 20
9.977131256800703
 30
0.0
 11
11.15173822999514
 21
9.977131256800703
 31
0.0
  0
LINE
  5
10E
330
2
100
AcDbEntity
  8
GAIKEI
 62
     1
100
AcDbLine
 10
11.14982152175866
 20
10.26514137685166
 30
0.0
 11
10.3010395944832
 21
10.2651413768516
 31
0.0
  0
LINE
  5
10F
330
2
100
AcDbEntity
  8
GAIKEI
 62
     1
100
AcDbLine
 10
10.3010395944832
 20
10.2651413768516
 30
0.0
 11
10.3010395944832
 21
10.41876577537465
 31
0.0
  0
LINE
  5
110
330
2
100
AcDbEntity
  8
GAIKEI
 62
     1
100
AcDbLine
 10
10.3010395944832
 20
10.41876577537465
 30
0.0
 11
10.40293332819738
 21
10.51153895110604
 31
0.0
  0
LINE
  5
111
330
2
100
AcDbEntity
  8
GAIKEI
 62
     1
100
AcDbLine
 10
10.40293332819738
 20
10.51153895110604
 30
0.0
 11
11.05633580243488
 21
10.51153895110604
 31
0.0
  0
LINE
  5
112
330
2
100
AcDbEntity
  8
GAIKEI
 62
     1
100
AcDbLine
 10
11.05633580243488
 20
10.51153895110604
 30
0.0
 11
11.15851455358608
 21
10.61343268482034
 31
0.0
  0
ARC
  5
113
330
2
100
AcDbEntity
  8
GAIKEI
 62
     1
100
AcDbCircle
 10
13.96106094034053
 20
98.39596687995914
 30
0.0
 40
87.93711154534259
100
AcDbArc
 50
272.1457767686093
 51
273.9241393395602
  0
LINE
  5
114
330
2
100
AcDbEntity
  8
GAIKEI
 62
     1
100
AcDbLine
 10
17.25361244303758
 20
10.52051700037043
 30
0.0
 11
11.15851455358608
 21
10.52051700037043
 31
0.0
  0
ARC
  5
115
330
2
100
AcDbEntity
  8
GAIKEI
 62
     1
100
AcDbCircle
 10
10.51880064289048
 20
5.878953160097637
 30
0.0
 40
0.2946873179137006
100
AcDbArc
 50
21.42598049294571
 51
87.83977923783613
  0
ARC
  5
116
330
2
100
AcDbEntity
  8
GAIKEI
 62
     1
100
AcDbCircle
 10
8.279490804435113
 20
6.289432873233693
 30
0.0
 40
0.2960828821383577
100
AcDbArc
 50
179.4759718742066
 51
276.571234840733
  0
ARC
  5
117
330
2
100
AcDbEntity
  8
GAIKEI
 62
     1
100
AcDbCircle
 10
8.280335121560824
 20
6.292352478170471
 30
0.0
 40
0.1192334034581898
100
AcDbArc
 50
184.145670287515
 51
265.8543297124621
  0
ARC
  5
118
330
2
100
AcDbEntity
  8
GAIKEI
 62
     1
100
AcDbCircle
 10
8.137610324295678
 20
7.007505857715102
 30
0.0
 40
0.2723832382656065
100
AcDbArc
 50
308.1633733339123
 51
6.766515334706359
  0
ARC
  5
119
330
2
100
AcDbEntity
  8
GAIKEI
 62
     1
100
AcDbCircle
 10
8.137730461549836
 20
6.826263434705538
 30
0.0
 40
0.1551481375267502
100
AcDbArc
 50
69.84123992152887
 51
185.957681857746
  0
LINE
  5
11A
330
2
100
AcDbEntity
  8
GAIKEI
 62
     1
100
AcDbLine
 10
8.16561770239798
 20
6.789353733089171
 30
0.0
 11
8.2930917510796
 21
6.793343977206689
 31
0.0
  0
ARC
  5
11B
330
2
100
AcDbEntity
  8
GAIKEI
 62
     1
100
AcDbCircle
 10
8.249622336604602
 20
8.404214140147189
 30
0.0
 40
0.1750445686994636
100
AcDbArc
 50
334.868421043613
 51
79.91774132794209
  0
LINE
  5
11C
330
2
100
AcDbEntity
  8
GAIKEI
 62
     1
100
AcDbLine
 10
8.280265966416322
 20
8.576555571564995
 30
0.0
 11
8.16561770239798
 21
8.575914282331837
 31
0.0
  0
LINE
  5
11D
330
2
100
AcDbEntity
  8
GAIKEI
 62
     1
100
AcDbLine
 10
8.220697322091041
 20
8.395033950326023
 30
0.0
 11
8.102130068314522
 21
8.389441624198866
 31
0.0
  0
ARC
  5
11E
330
2
100
AcDbEntity
  8
GAIKEI
 62
     1
100
AcDbCircle
 10
8.143573039783177
 20
8.544792808596696
 30
0.0
 40
0.1607840488915594
100
AcDbArc
 50
174.920962896892
 51
255.0630775002125
  0
ARC
  5
11F
330
2
100
AcDbEntity
  8
GAIKEI
 62
     1
100
AcDbCircle
 10
8.260121851578105
 20
9.097800075622672
 30
0.0
 40
0.0987810953359542
100
AcDbArc
 50
83.25985977074244
 51
182.2019488359662
  0
ARC
  5
120
330
2
100
AcDbEntity
  8
GAIKEI
 62
     1
100
AcDbCircle
 10
8.266149434048315
 20
9.091491360775819
 30
0.0
 40
0.2827402995077258
100
AcDbArc
 50
88.87200571848085
 51
179.4906730577794
  0
DIMENSION
  5
121
330
2
100
AcDbEntity
  8
SUNPO
100
AcDbDimension
  2
*D6
 10
-2.718408470161193
 20
38.01044879544122
 30
0.0
 11
-4.468408470161201
 21
21.38737681945451
 31
0.0
 70
    33
  1
332
 71
     5
 42
33.24614395197341
  3
STANDARD
100
AcDbAlignedDimension
 13
-10.90454737192169
 23
4.764304843467812
 33
0.0
 14
-10.90454737192169
 24
38.01044879544122
 34
0.0
1001
ACAD
1000
DSTYLE
1002
{
1070
    40
1040
1.0
1070
   140
1040
2.5
1070
   147
1040
0.5
1070
   172
1070
     1
1070
   279
1070
     0
1002
}
  0
DIMENSION
  5
137
330
2
100
AcDbEntity
  8
SUNPO
100
AcDbDimension
  2
*D5
 10
-11.96124423784653
 20
-4.579141292311419
 30
0.0
 11
-22.76123994281869
 21
-2.829141292311419
 31
0.0
 70
    33
  1
216
 71
     5
 42
21.59999140994433
  3
STANDARD
100
AcDbAlignedDimension
 13
-33.56123564779085
 23
2.940983058717392
 33
0.0
 14
-11.96124423784653
 24
2.940983058717392
 34
0.0
1001
ACAD
1000
DSTYLE
1002
{
1070
    40
1040
1.0
1070
   140
1040
2.5
1070
   147
1040
0.5
1070
   172
1070
     1
1070
   279
1070
     0
1002
}
  0
ARC
  5
144
330
2
100
AcDbEntity
  8
GAIKEI
 62
     1
100
AcDbCircle
 10
10.51880064289048
 20
9.490518862518626
 30
0.0
 40
0.2946873179137006
100
AcDbArc
 50
272.1602207621639
 51
338.5740195070543
  0
TEXT
  5
145
330
2
100
AcDbEntity
  8
TOUROKU
100
AcDbText
 10
47.23317539940434
 20
50.91897118253507
 30
0.0
 40
2.0
  1
ＡＷＨＥ１００
 72
     2
 11
63.09984206607101
 21
50.91897118253507
 31
0.0
100
AcDbText
  0
DIMENSION
  5
147
330
2
100
AcDbEntity
  8
SUNPO
100
AcDbDimension
  2
*D4
 10
36.35605110316431
 20
46.41703022909928
 30
0.0
 11
23.50606469503592
 21
48.16703022909928
 31
0.0
 70
    33
  1
257
 71
     5
 42
25.69997281625678
  3
STANDARD
100
AcDbAlignedDimension
 13
10.65607828690753
 23
38.50902432228997
 33
0.0
 14
36.35605110316431
 24
38.50902432228992
 34
0.0
1001
ACAD
1000
DSTYLE
1002
{
1070
    40
1040
1.0
1070
   140
1040
2.5
1070
   147
1040
0.5
1070
   172
1070
     1
1070
   279
1070
     0
1002
}
  0
TEXT
  5
154
330
2
100
AcDbEntity
  8
MOJI1
100
AcDbText
 10
-34.90010796685624
 20
56.91897118253473
 30
0.0
 40
4.0
  1
ＨＤインテグレーテッドカメラ
100
AcDbText
  0
TEXT
  5
156
330
2
100
AcDbEntity
  8
MOJI1
100
AcDbText
 10
-19.40010796685601
 20
-21.79699432426867
 30
0.0
 40
3.0
  1
ＡＣ１００Ｖ　５０／６０Ｈｚ
100
AcDbText
  0
LINE
  5
157
330
2
100
AcDbEntity
  8
WAKU
 62
     4
100
AcDbLine
 10
63.09989203314353
 20
-52.79699432426889
 30
0.0
 11
63.09989203314353
 21
-17.79699432426889
 31
0.0
  0
TEXT
  5
159
330
2
100
AcDbEntity
  8
MOJI1
100
AcDbText
 10
-59.40010796685647
 20
-21.7969943242689
 30
0.0
 40
3.0
  1
電　源
100
AcDbText
  0
LINE
  5
15A
330
2
100
AcDbEntity
  8
WAKU
 62
     4
100
AcDbLine
 10
-61.90010796685647
 20
-17.79699432426889
 30
0.0
 11
-61.90010796685647
 21
-52.79699432426889
 31
0.0
  0
LINE
  5
15B
330
2
100
AcDbEntity
  8
WAKU
 62
     4
100
AcDbLine
 10
-21.69452673633805
 20
-52.79699432426866
 30
0.0
 11
-21.69452673633805
 21
-17.79699432426866
 31
0.0
  0
LINE
  5
15C
330
2
100
AcDbEntity
  8
WAKU
 62
     4
100
AcDbLine
 10
-61.90010796685647
 20
-52.79699432426889
 30
0.0
 11
63.09989203314353
 21
-52.79699432426889
 31
0.0
  0
LINE
  5
15D
330
2
100
AcDbEntity
  8
WAKU
 62
     1
100
AcDbLine
 10
63.09989203314353
 20
-47.79699432426889
 30
0.0
 11
-61.90010796685647
 21
-47.79699432426889
 31
0.0
  0
LINE
  5
15E
330
2
100
AcDbEntity
  8
WAKU
 62
     1
100
AcDbLine
 10
63.09989203314353
 20
-42.79699432426889
 30
0.0
 11
-61.90010796685647
 21
-42.79699432426889
 31
0.0
  0
LINE
  5
15F
330
2
100
AcDbEntity
  8
WAKU
 62
     1
100
AcDbLine
 10
63.09989203314353
 20
-37.7969943242689
 30
0.0
 11
-61.90010796685647
 21
-37.7969943242689
 31
0.0
  0
LINE
  5
160
330
2
100
AcDbEntity
  8
WAKU
 62
     1
100
AcDbLine
 10
63.09989203314353
 20
-32.7969943242689
 30
0.0
 11
-61.90010796685647
 21
-32.7969943242689
 31
0.0
  0
LINE
  5
161
330
2
100
AcDbEntity
  8
WAKU
 62
     1
100
AcDbLine
 10
63.09989203314353
 20
-27.7969943242689
 30
0.0
 11
-61.90010796685647
 21
-27.7969943242689
 31
0.0
  0
LINE
  5
162
330
2
100
AcDbEntity
  8
WAKU
 62
     4
100
AcDbLine
 10
63.09989203314353
 20
-17.79699432426889
 30
0.0
 11
-61.90010796685647
 21
-17.79699432426889
 31
0.0
  0
LINE
  5
163
330
2
100
AcDbEntity
  8
WAKU
 62
     1
100
AcDbLine
 10
63.09989203314353
 20
-22.79699432426889
 30
0.0
 11
-61.90010796685647
 21
-22.79699432426889
 31
0.0
  0
TEXT
  5
164
330
2
100
AcDbEntity
  8
MOJI1
100
AcDbText
 10
-59.40010796685647
 20
-36.7969943242689
 30
0.0
 40
3.0
  1
回転台コントロール
100
AcDbText
  0
TEXT
  5
165
330
2
100
AcDbEntity
  8
MOJI1
100
AcDbText
 10
-59.40010796685647
 20
-26.7969943242689
 30
0.0
 40
3.0
  1
撮像素子
100
AcDbText
  0
TEXT
  5
166
330
2
100
AcDbEntity
  8
MOJI1
100
AcDbText
 10
-59.40010796685647
 20
-46.79699432426889
 30
0.0
 40
3.0
  1
回転速度
100
AcDbText
  0
TEXT
  5
167
330
2
100
AcDbEntity
  8
MOJI1
100
AcDbText
 10
-19.40010796685647
 20
-46.79699432426889
 30
0.0
 40
3.0
  1
６０°／Ｓ以上
100
AcDbText
  0
TEXT
  5
168
330
2
100
AcDbEntity
  8
MOJI1
100
AcDbText
 10
-19.40010796685647
 20
-41.79699432426889
 30
0.0
 40
3.0
  1
プロトコル：ＲＳ－４２２
100
AcDbText
  0
TEXT
  5
169
330
2
100
AcDbEntity
  8
MOJI1
100
AcDbText
 10
-19.40010796685647
 20
-36.7969943242689
 30
0.0
 40
3.0
  1
接続ケーブル：１０ＢＡＳＥ－Ｔストレートケーブル
 41
0.9
100
AcDbText
  0
TEXT
  5
16A
330
2
100
AcDbEntity
  8
MOJI1
100
AcDbText
 10
-19.40010796685647
 20
-26.7969943242689
 30
0.0
 40
3.0
  1
１／３型　インターライン型３ＣＣＤ
100
AcDbText
  0
TEXT
  5
16B
330
2
100
AcDbEntity
  8
MOJI1
100
AcDbText
 10
-59.40010796685647
 20
-31.7969943242689
 30
0.0
 40
3.0
  1
レンズ
100
AcDbText
  0
TEXT
  5
16C
330
2
100
AcDbEntity
  8
MOJI1
100
AcDbText
 10
-19.40010796685647
 20
-31.7969943242689
 30
0.0
 40
3.0
  1
電動１３倍ズーム　Ｆ１．６－２．８
100
AcDbText
  0
TEXT
  5
16D
330
2
100
AcDbEntity
  8
MOJI1
100
AcDbText
 10
-19.40010796685647
 20
-51.7969943242689
 30
0.0
 40
3.0
  1
パン±１７５°以上、チルト＋２１０°～－４０°以上
 41
0.9
100
AcDbText
  0
TEXT
  5
16E
330
2
100
AcDbEntity
  8
MOJI1
100
AcDbText
 10
-59.40010796685647
 20
-51.7969943242689
 30
0.0
 40
3.0
  1
回転範囲
100
AcDbText
  0
ENDSEC
  0
SECTION
  2
OBJECTS
  0
DICTIONARY
  5
7
330
0
100
AcDbDictionary
281
     1
  3
ACAD_COLOR
350
26
  3
ACAD_GROUP
350
22
  3
ACAD_LAYOUT
350
B
  3
ACAD_MATERIAL
350
25
  3
ACAD_MLINESTYLE
350
23
  3
ACAD_PLOTSETTINGS
350
24
  3
ACAD_PLOTSTYLENAME
350
6
  3
ACDBHEADERROUNDTRIPXREC
350
1AF
  3
AcDbVariableDictionary
350
1AA
  3
ASE_INDEX_DICTIONARY
350
177
  0
DICTIONARY
  5
11
330
10
100
AcDbDictionary
280
     1
281
     1
  3
ACAD_LAYERSTATES
360
12
  0
DICTIONARY
  5
26
102
{ACAD_REACTORS
330
7
102
}
330
7
100
AcDbDictionary
281
     1
  0
DICTIONARY
  5
22
102
{ACAD_REACTORS
330
7
102
}
330
7
100
AcDbDictionary
281
     1
  0
DICTIONARY
  5
B
102
{ACAD_REACTORS
330
7
102
}
330
7
100
AcDbDictionary
281
     1
  3
Model
350
A
  3
レイアウト1
350
F
  0
DICTIONARY
  5
25
102
{ACAD_REACTORS
330
7
102
}
330
7
100
AcDbDictionary
281
     1
  0
DICTIONARY
  5
23
102
{ACAD_REACTORS
330
7
102
}
330
7
100
AcDbDictionary
281
     1
  3
Standard
350
28
  0
DICTIONARY
  5
24
102
{ACAD_REACTORS
330
7
102
}
330
7
100
AcDbDictionary
281
     1
  0
ACDBDICTIONARYWDFLT
  5
6
102
{ACAD_REACTORS
330
7
102
}
330
7
100
AcDbDictionary
281
     1
  3
Normal
350
5
100
AcDbDictionaryWithDefault
340
5
  0
DICTIONARY
  5
1AF
102
{ACAD_REACTORS
330
7
102
}
330
7
100
AcDbDictionary
281
     1
  3
COLORDICT
350
1B1
  3
MATERIALDICT
350
1B0
  0
DICTIONARY
  5
1AA
102
{ACAD_REACTORS
330
7
102
}
330
7
100
AcDbDictionary
281
     1
  3
DIMASSOC
350
1AC
  3
HIDETEXT
350
1AB
  3
PROJECTNAME
350
1AD
  0
DICTIONARY
  5
177
102
{ACAD_REACTORS
330
7
102
}
330
7
100
AcDbDictionary
281
     1
  3
ASEBlockHierarchyIndexRecord
350
179
1001
DCO15
1040
1633946236.128
  0
DICTIONARY
  5
12
102
{ACAD_REACTORS
330
11
102
}
330
11
100
AcDbDictionary
281
     1
  0
LAYOUT
  5
A
102
{ACAD_XDICTIONARY
360
1B2
102
}
102
{ACAD_REACTORS
330
B
102
}
330
B
100
AcDbPlotSettings
  1

  2
Ａ４－縦3FRIM01.pc3
  4
A4
  6

 40
5.873749732971191
 41
5.873747825622558
 42
5.873748779296875
 43
5.873748779296875
 44
209.9733276367187
 45
296.9259948730469
 46
5.419999999999999
 47
0.0
 48
0.0
 49
0.0
140
0.0
141
0.0
142
1.0
143
1.382430990074067
 70
 11956
 72
     1
 73
     0
 74
     1
  7
tmsacad.ctb
 75
     0
147
0.7233634135664325
148
0.0128164608993302
149
0.0120295854767392
100
AcDbLayout
  1
Model
 70
     1
 71
     0
 10
0.0
 20
0.0
 11
12.0
 21
9.0
 12
0.0
 22
0.0
 32
0.0
 14
0.0
 24
0.0
 34
0.0
 15
0.0
 25
0.0
 35
0.0
146
0.0
 13
0.0
 23
0.0
 33
0.0
 16
1.0
 26
0.0
 36
0.0
 17
0.0
 27
1.0
 37
0.0
 76
     0
330
2
  0
LAYOUT
  5
F
102
{ACAD_XDICTIONARY
360
1B4
102
}
102
{ACAD_REACTORS
330
B
102
}
330
B
100
AcDbPlotSettings
  1

  2
None
  4

  6

 40
0.0
 41
0.0
 42
0.0
 43
0.0
 44
0.0
 45
0.0
 46
0.0
 47
0.0
 48
0.0
 49
0.0
140
0.0
141
0.0
142
1.0
143
1.0
 70
   688
 72
     0
 73
     0
 74
     5
  7
tmsacad.ctb
 75
    16
147
1.0
148
0.0
149
0.0
100
AcDbLayout
  1
レイアウト1
 70
     1
 71
     1
 10
0.0
 20
0.0
 11
12.0
 21
9.0
 12
0.0
 22
0.0
 32
0.0
 14
0.0
 24
0.0
 34
0.0
 15
0.0
 25
0.0
 35
0.0
146
0.0
 13
0.0
 23
0.0
 33
0.0
 16
1.0
 26
0.0
 36
0.0
 17
0.0
 27
1.0
 37
0.0
 76
     0
330
C
  0
MLINESTYLE
  5
28
102
{ACAD_REACTORS
330
23
102
}
330
23
100
AcDbMlineStyle
  2
STANDARD
 70
     0
  3

 62
   256
 51
90.0
 52
90.0
 71
     2
 49
0.5
 62
   256
  6
BYLAYER
 49
-0.5
 62
   256
  6
BYLAYER
  0
ACDBPLACEHOLDER
  5
5
102
{ACAD_REACTORS
330
6
102
}
330
6
  0
XRECORD
  5
1B1
102
{ACAD_REACTORS
330
1AF
102
}
330
1AF
100
AcDbXrecord
280
     1
340
26
  0
XRECORD
  5
1B0
102
{ACAD_REACTORS
330
1AF
102
}
330
1AF
100
AcDbXrecord
280
     1
340
25
  0
DICTIONARYVAR
  5
1AC
102
{ACAD_REACTORS
330
1AA
102
}
330
1AA
100
DictionaryVariables
280
     0
  1
2
  0
DICTIONARYVAR
  5
1AB
102
{ACAD_REACTORS
330
1AA
102
}
330
1AA
100
DictionaryVariables
280
     0
  1
1
  0
DICTIONARYVAR
  5
1AD
102
{ACAD_REACTORS
330
1AA
102
}
330
1AA
100
DictionaryVariables
280
     0
  1

  0
XRECORD
  5
179
102
{ACAD_REACTORS
330
177
102
}
330
177
100
AcDbXrecord
280
     1
330
14D
330
14E
330
13D
330
13E
330
12F
330
130
330
18A
330
18B
330
196
330
197
330
1A2
330
1A3
  0
DICTIONARY
  5
1B2
330
A
100
AcDbDictionary
280
     1
281
     1
  3
ACAD_XREC_ROUNDTRIP
360
1B3
  0
DICTIONARY
  5
1B4
330
F
100
AcDbDictionary
280
     1
281
     1
  3
ACAD_XREC_ROUNDTRIP
360
1B5
  0
XRECORD
  5
1B3
102
{ACAD_REACTORS
330
1B2
102
}
330
1B2
100
AcDbXrecord
280
     1
102
SHADEPLOT
 70
     0
102
SHADEPLOTRESLEVEL
 70
     2
102
SHADEPLOTCUSTOMDPI
 70
   300
  0
XRECORD
  5
1B5
102
{ACAD_REACTORS
330
1B4
102
}
330
1B4
100
AcDbXrecord
280
     1
102
SHADEPLOT
 70
     0
102
SHADEPLOTRESLEVEL
 70
     2
102
SHADEPLOTCUSTOMDPI
 70
   300
  0
ENDSEC
  0
EOF
