  0
SECTION
  2
HEADER
  9
$ACADVER
  1
AC1015
  9
$ACADMAINTVER
 70
    20
  9
$DWGCODEPAGE
  3
ANSI_932
  9
$INSBASE
 10
0.4999999440410648
 20
372.5008351249344
 30
0.0
  9
$EXTMIN
 10
-62.68981843102927
 20
-58.26612791636273
 30
-0.0015258207003583
  9
$EXTMAX
 10
62.34375056152202
 20
54.75846903743047
 30
0.0000000349246037
  9
$LIMMIN
 10
0.0
 20
0.0
  9
$LIMMAX
 10
420.0
 20
297.0
  9
$ORTHOMODE
 70
     1
  9
$REGENMODE
 70
     0
  9
$FILLMODE
 70
     1
  9
$QTEXTMODE
 70
     0
  9
$MIRRTEXT
 70
     0
  9
$LTSCALE
 40
1.0
  9
$ATTMODE
 70
     1
  9
$TEXTSIZE
 40
2.5
  9
$TRACEWID
 40
1.0
  9
$TEXTSTYLE
  7
Standard
  9
$CLAYER
  8
WAKU
  9
$CELTYPE
  6
ByLayer
  9
$CECOLOR
 62
   256
  9
$CELTSCALE
 40
1.0
  9
$DISPSILH
 70
     0
  9
$DIMSCALE
 40
1.0
  9
$DIMASZ
 40
2.0
  9
$DIMEXO
 40
2.0
  9
$DIMDLI
 40
8.0
  9
$DIMRND
 40
0.0
  9
$DIMDLE
 40
0.0
  9
$DIMEXE
 40
2.0
  9
$DIMTP
 40
0.0
  9
$DIMTM
 40
0.0
  9
$DIMTXT
 40
2.5
  9
$DIMCEN
 40
0.0
  9
$DIMTSZ
 40
0.0
  9
$DIMTOL
 70
     0
  9
$DIMLIM
 70
     0
  9
$DIMTIH
 70
     0
  9
$DIMTOH
 70
     0
  9
$DIMSE1
 70
     0
  9
$DIMSE2
 70
     0
  9
$DIMTAD
 70
     3
  9
$DIMZIN
 70
     0
  9
$DIMBLK
  1

  9
$DIMASO
 70
     1
  9
$DIMSHO
 70
     1
  9
$DIMPOST
  1

  9
$DIMAPOST
  1

  9
$DIMALT
 70
     0
  9
$DIMALTD
 70
     2
  9
$DIMALTF
 40
25.4
  9
$DIMLFAC
 40
1.0
  9
$DIMTOFL
 70
     1
  9
$DIMTVP
 40
0.0
  9
$DIMTIX
 70
     0
  9
$DIMSOXD
 70
     0
  9
$DIMSAH
 70
     1
  9
$DIMBLK1
  1
OPEN30
  9
$DIMBLK2
  1
OPEN30
  9
$DIMSTYLE
  2
STANDARD
  9
$DIMCLRD
 70
     0
  9
$DIMCLRE
 70
     0
  9
$DIMCLRT
 70
     0
  9
$DIMTFAC
 40
1.0
  9
$DIMGAP
 40
0.5
  9
$DIMJUST
 70
     0
  9
$DIMSD1
 70
     0
  9
$DIMSD2
 70
     0
  9
$DIMTOLJ
 70
     1
  9
$DIMTZIN
 70
     0
  9
$DIMALTZ
 70
     0
  9
$DIMALTTZ
 70
     0
  9
$DIMUPT
 70
     0
  9
$DIMDEC
 70
     4
  9
$DIMTDEC
 70
     4
  9
$DIMALTU
 70
     2
  9
$DIMALTTD
 70
     2
  9
$DIMTXSTY
  7
Standard
  9
$DIMAUNIT
 70
     0
  9
$DIMADEC
 70
     0
  9
$DIMALTRND
 40
0.0
  9
$DIMAZIN
 70
     0
  9
$DIMDSEP
 70
    46
  9
$DIMATFIT
 70
     3
  9
$DIMFRAC
 70
     0
  9
$DIMLDRBLK
  1
OPEN30
  9
$DIMLUNIT
 70
     2
  9
$DIMLWD
 70
    -2
  9
$DIMLWE
 70
    -2
  9
$DIMTMOVE
 70
     0
  9
$LUNITS
 70
     2
  9
$LUPREC
 70
     4
  9
$SKETCHINC
 40
1.0
  9
$FILLETRAD
 40
0.0
  9
$AUNITS
 70
     0
  9
$AUPREC
 70
     0
  9
$MENU
  1
.
  9
$ELEVATION
 40
0.0
  9
$PELEVATION
 40
0.0
  9
$THICKNESS
 40
0.0
  9
$LIMCHECK
 70
     0
  9
$CHAMFERA
 40
0.0
  9
$CHAMFERB
 40
0.0
  9
$CHAMFERC
 40
0.0
  9
$CHAMFERD
 40
0.0
  9
$SKPOLY
 70
     0
  9
$TDCREATE
 40
2454349.434269746
  9
$TDUCREATE
 40
2454349.059269746
  9
$TDUPDATE
 40
2455369.722747084
  9
$TDUUPDATE
 40
2455369.347747083
  9
$TDINDWG
 40
0.2000497917
  9
$TDUSRTIMER
 40
0.2000497917
  9
$USRTIMER
 70
     1
  9
$ANGBASE
 50
0.0
  9
$ANGDIR
 70
     0
  9
$PDMODE
 70
     0
  9
$PDSIZE
 40
0.0
  9
$PLINEWID
 40
0.0
  9
$SPLFRAME
 70
     0
  9
$SPLINETYPE
 70
     6
  9
$SPLINESEGS
 70
     8
  9
$HANDSEED
  5
51E
  9
$SURFTAB1
 70
     6
  9
$SURFTAB2
 70
     6
  9
$SURFTYPE
 70
     6
  9
$SURFU
 70
     6
  9
$SURFV
 70
     6
  9
$UCSBASE
  2

  9
$UCSNAME
  2

  9
$UCSORG
 10
0.0
 20
0.0
 30
0.0
  9
$UCSXDIR
 10
1.0
 20
0.0
 30
0.0
  9
$UCSYDIR
 10
0.0
 20
1.0
 30
0.0
  9
$UCSORTHOREF
  2

  9
$UCSORTHOVIEW
 70
     0
  9
$UCSORGTOP
 10
0.0
 20
0.0
 30
0.0
  9
$UCSORGBOTTOM
 10
0.0
 20
0.0
 30
0.0
  9
$UCSORGLEFT
 10
0.0
 20
0.0
 30
0.0
  9
$UCSORGRIGHT
 10
0.0
 20
0.0
 30
0.0
  9
$UCSORGFRONT
 10
0.0
 20
0.0
 30
0.0
  9
$UCSORGBACK
 10
0.0
 20
0.0
 30
0.0
  9
$PUCSBASE
  2

  9
$PUCSNAME
  2

  9
$PUCSORG
 10
0.0
 20
0.0
 30
0.0
  9
$PUCSXDIR
 10
1.0
 20
0.0
 30
0.0
  9
$PUCSYDIR
 10
0.0
 20
1.0
 30
0.0
  9
$PUCSORTHOREF
  2

  9
$PUCSORTHOVIEW
 70
     0
  9
$PUCSORGTOP
 10
0.0
 20
0.0
 30
0.0
  9
$PUCSORGBOTTOM
 10
0.0
 20
0.0
 30
0.0
  9
$PUCSORGLEFT
 10
0.0
 20
0.0
 30
0.0
  9
$PUCSORGRIGHT
 10
0.0
 20
0.0
 30
0.0
  9
$PUCSORGFRONT
 10
0.0
 20
0.0
 30
0.0
  9
$PUCSORGBACK
 10
0.0
 20
0.0
 30
0.0
  9
$USERI1
 70
     0
  9
$USERI2
 70
     0
  9
$USERI3
 70
     0
  9
$USERI4
 70
     0
  9
$USERI5
 70
     0
  9
$USERR1
 40
0.0
  9
$USERR2
 40
0.0
  9
$USERR3
 40
0.0
  9
$USERR4
 40
0.0
  9
$USERR5
 40
0.0
  9
$WORLDVIEW
 70
     1
  9
$SHADEDGE
 70
     3
  9
$SHADEDIF
 70
    70
  9
$TILEMODE
 70
     1
  9
$MAXACTVP
 70
    64
  9
$PINSBASE
 10
0.0
 20
0.0
 30
0.0
  9
$PLIMCHECK
 70
     0
  9
$PEXTMIN
 10
0.0
 20
0.0
 30
0.0
  9
$PEXTMAX
 10
0.0
 20
0.0
 30
0.0
  9
$PLIMMIN
 10
0.0
 20
0.0
  9
$PLIMMAX
 10
12.0
 20
9.0
  9
$UNITMODE
 70
     0
  9
$VISRETAIN
 70
     1
  9
$PLINEGEN
 70
     0
  9
$PSLTSCALE
 70
     1
  9
$TREEDEPTH
 70
  3020
  9
$CMLSTYLE
  2
Standard
  9
$CMLJUST
 70
     0
  9
$CMLSCALE
 40
20.0
  9
$PROXYGRAPHICS
 70
     1
  9
$MEASUREMENT
 70
     1
  9
$CELWEIGHT
370
    -1
  9
$ENDCAPS
280
     0
  9
$JOINSTYLE
280
     0
  9
$LWDISPLAY
290
     0
  9
$INSUNITS
 70
     4
  9
$HYPERLINKBASE
  1

  9
$STYLESHEET
  1

  9
$XEDIT
290
     1
  9
$CEPSNTYPE
380
     0
  9
$PSTYLEMODE
290
     1
  9
$FINGERPRINTGUID
  2
{FDEAD578-A652-11D2-9A35-0060089B3A3F}
  9
$VERSIONGUID
  2
{1E5C68FD-3A29-4C39-967C-89EBF8C429CE}
  9
$EXTNAMES
290
     1
  9
$PSVPSCALE
 40
0.0
  9
$OLESTARTUP
290
     0
  0
ENDSEC
  0
SECTION
  2
CLASSES
  0
CLASS
  1
ACDBDICTIONARYWDFLT
  2
AcDbDictionaryWithDefault
  3
ObjectDBX Classes
 90
        0
280
     0
281
     0
  0
CLASS
  1
ACDBPLACEHOLDER
  2
AcDbPlaceHolder
  3
ObjectDBX Classes
 90
        0
280
     0
281
     0
  0
CLASS
  1
LAYOUT
  2
AcDbLayout
  3
ObjectDBX Classes
 90
        0
280
     0
281
     0
  0
CLASS
  1
DICTIONARYVAR
  2
AcDbDictionaryVar
  3
ObjectDBX Classes
 90
        0
280
     0
281
     0
  0
CLASS
  1
DIMASSOC
  2
AcDbDimAssoc
  3
"AcDbDimAssoc|Product Desc:     AcDim ARX App For Dimension|Company:          Autodesk, Inc.|WEB Address:      www.autodesk.com"
 90
    32768
280
     0
281
     0
  0
ENDSEC
  0
SECTION
  2
TABLES
  0
TABLE
  2
VPORT
  5
1C
330
0
100
AcDbSymbolTable
 70
     3
  0
VPORT
  5
516
330
1C
100
AcDbSymbolTableRecord
100
AcDbViewportTableRecord
  2
*Active
 70
     0
 10
0.0
 20
0.0
 11
1.0
 21
1.0
 12
-0.1730339347536223
 22
-1.75382943946613
 13
0.0
 23
0.0
 14
10.0
 24
10.0
 15
10.0
 25
10.0
 16
0.0
 26
0.0
 36
1.0
 17
0.0
 27
0.0
 37
0.0
 40
113.8884792235037
 41
1.392857142857142
 42
50.0
 43
0.0
 44
0.0
 50
0.0
 51
0.0
 71
     0
 72
  1000
 73
     1
 74
     2
 75
     0
 76
     0
 77
     0
 78
     0
281
     0
 65
     1
110
0.0
120
0.0
130
0.0
111
1.0
121
0.0
131
0.0
112
0.0
122
1.0
132
0.0
 79
     0
146
0.0
  0
ENDTAB
  0
TABLE
  2
LTYPE
  5
17
330
0
100
AcDbSymbolTable
 70
     1
  0
LTYPE
  5
18
330
17
100
AcDbSymbolTableRecord
100
AcDbLinetypeTableRecord
  2
ByBlock
 70
     0
  3

 72
    65
 73
     0
 40
0.0
  0
LTYPE
  5
19
330
17
100
AcDbSymbolTableRecord
100
AcDbLinetypeTableRecord
  2
ByLayer
 70
     0
  3

 72
    65
 73
     0
 40
0.0
  0
LTYPE
  5
8
330
17
100
AcDbSymbolTableRecord
100
AcDbLinetypeTableRecord
  2
Continuous
 70
     0
  3
Solid line
 72
    65
 73
     0
 40
0.0
  0
ENDTAB
  0
TABLE
  2
LAYER
  5
10
102
{ACAD_XDICTIONARY
360
11
102
}
330
0
100
AcDbSymbolTable
 70
     7
  0
LAYER
  5
4
330
10
100
AcDbSymbolTableRecord
100
AcDbLayerTableRecord
  2
0
 70
     0
 62
     7
  6
Continuous
370
    -3
390
5
  0
LAYER
  5
2E
330
10
100
AcDbSymbolTableRecord
100
AcDbLayerTableRecord
  2
WAKU
 70
     0
 62
     4
  6
Continuous
370
    -3
390
5
  0
LAYER
  5
31
330
10
100
AcDbSymbolTableRecord
100
AcDbLayerTableRecord
  2
MOJI1
 70
     0
 62
     2
  6
Continuous
370
    -3
390
5
  0
LAYER
  5
4D4
330
10
100
AcDbSymbolTableRecord
100
AcDbLayerTableRecord
  2
TOUROKU
 70
     0
 62
     1
  6
Continuous
370
    -3
390
5
  0
LAYER
  5
74
330
10
100
AcDbSymbolTableRecord
100
AcDbLayerTableRecord
  2
GAIKEI
 70
     0
 62
     7
  6
Continuous
370
    -3
390
5
  0
LAYER
  5
3C
330
10
100
AcDbSymbolTableRecord
100
AcDbLayerTableRecord
  2
SUNPO
 70
     0
 62
     3
  6
Continuous
370
    -3
390
5
  0
LAYER
  5
46
330
10
100
AcDbSymbolTableRecord
100
AcDbLayerTableRecord
  2
DEFPOINTS
 70
     0
 62
     7
  6
Continuous
290
     0
370
    -3
390
5
  0
ENDTAB
  0
TABLE
  2
STYLE
  5
14
330
0
100
AcDbSymbolTable
 70
     2
  0
STYLE
  5
15
330
14
100
AcDbSymbolTableRecord
100
AcDbTextStyleTableRecord
  2
Standard
 70
     0
 40
0.0
 41
1.0
 50
0.0
 71
     0
 42
2.5
  3
MONOTXT.shx
  4
BIGFONT.shx
  0
STYLE
  5
448
330
14
100
AcDbSymbolTableRecord
100
AcDbTextStyleTableRecord
  2
SEACAD_SEANSI_TTF
 70
     0
 40
0.2
 41
1.0
 50
0.0
 71
     0
 42
0.2
  3
seansi.ttf
  4

  0
ENDTAB
  0
TABLE
  2
VIEW
  5
1A
330
0
100
AcDbSymbolTable
 70
     0
  0
ENDTAB
  0
TABLE
  2
UCS
  5
1B
330
0
100
AcDbSymbolTable
 70
     0
  0
ENDTAB
  0
TABLE
  2
APPID
  5
1E
330
0
100
AcDbSymbolTable
 70
     2
  0
APPID
  5
1F
330
1E
100
AcDbSymbolTableRecord
100
AcDbRegAppTableRecord
  2
ACAD
 70
     0
  0
APPID
  5
4E0
330
1E
100
AcDbSymbolTableRecord
100
AcDbRegAppTableRecord
  2
DCO15
 70
     0
  0
ENDTAB
  0
TABLE
  2
DIMSTYLE
  5
20
330
0
100
AcDbSymbolTable
 70
     1
100
AcDbDimStyleTable
 71
     1
340
21
  0
DIMSTYLE
105
21
102
{ACAD_REACTORS
330
57
330
4A
330
3B
102
}
330
20
100
AcDbSymbolTableRecord
100
AcDbDimStyleTableRecord
  2
STANDARD
 70
     0
 40
0.0
 41
2.0
 42
2.0
 43
8.0
 44
2.0
 73
     0
 74
     0
 77
     3
140
3.0
141
0.0
173
     1
279
     2
288
     1
340
15
341
22
343
22
344
22
  0
ENDTAB
  0
TABLE
  2
BLOCK_RECORD
  5
1
330
0
100
AcDbSymbolTable
 70
     7
  0
BLOCK_RECORD
  5
2
330
1
100
AcDbSymbolTableRecord
100
AcDbBlockTableRecord
  2
*Model_Space
340
A
  0
BLOCK_RECORD
  5
C
330
1
100
AcDbSymbolTableRecord
100
AcDbBlockTableRecord
  2
*Paper_Space
340
F
  0
BLOCK_RECORD
  5
22
330
1
100
AcDbSymbolTableRecord
100
AcDbBlockTableRecord
  2
_OPEN30
340
0
102
{BLKREFS
331
50
331
51
331
5D
331
5E
331
42
331
43
331
4F2
331
4F3
331
4FE
331
4FF
331
50A
331
50B
102
}
  0
BLOCK_RECORD
  5
58
330
1
100
AcDbSymbolTableRecord
100
AcDbBlockTableRecord
  2
*D1
340
0
  0
BLOCK_RECORD
  5
4B
330
1
100
AcDbSymbolTableRecord
100
AcDbBlockTableRecord
  2
*D2
340
0
  0
BLOCK_RECORD
  5
3D
330
1
100
AcDbSymbolTableRecord
100
AcDbBlockTableRecord
  2
*D3
340
0
  0
BLOCK_RECORD
  5
4EE
330
1
100
AcDbSymbolTableRecord
100
AcDbBlockTableRecord
  2
*D4
340
0
  0
BLOCK_RECORD
  5
4FA
330
1
100
AcDbSymbolTableRecord
100
AcDbBlockTableRecord
  2
*D5
340
0
  0
BLOCK_RECORD
  5
506
330
1
100
AcDbSymbolTableRecord
100
AcDbBlockTableRecord
  2
*D6
340
0
  0
ENDTAB
  0
ENDSEC
  0
SECTION
  2
BLOCKS
  0
BLOCK
  5
3
330
2
100
AcDbEntity
  8
0
100
AcDbBlockBegin
  2
*Model_Space
 70
     0
 10
0.0
 20
0.0
 30
0.0
  3
*Model_Space
  1

  0
ENDBLK
  5
9
330
2
100
AcDbEntity
  8
0
100
AcDbBlockEnd
  0
BLOCK
  5
D
330
C
100
AcDbEntity
 67
     1
  8
0
100
AcDbBlockBegin
  2
*Paper_Space
 70
     0
 10
0.0
 20
0.0
 30
0.0
  3
*Paper_Space
  1

  0
ENDBLK
  5
E
330
C
100
AcDbEntity
 67
     1
  8
0
100
AcDbBlockEnd
  0
BLOCK
  5
23
330
22
100
AcDbEntity
  8
0
100
AcDbBlockBegin
  2
_OPEN30
 70
     0
 10
0.0
 20
0.0
 30
0.0
  3
_OPEN30
  1

  0
LINE
  5
24
330
22
100
AcDbEntity
  8
0
  6
ByBlock
 62
     0
100
AcDbLine
 10
-1.0
 20
0.26794919
 30
0.0
 11
0.0
 21
0.0
 31
0.0
  0
LINE
  5
25
330
22
100
AcDbEntity
  8
0
  6
ByBlock
 62
     0
100
AcDbLine
 10
0.0
 20
0.0
 30
0.0
 11
-1.0
 21
-0.26794919
 31
0.0
  0
LINE
  5
26
330
22
100
AcDbEntity
  8
0
  6
ByBlock
 62
     0
100
AcDbLine
 10
0.0
 20
0.0
 30
0.0
 11
-1.0
 21
0.0
 31
0.0
  0
ENDBLK
  5
27
330
22
100
AcDbEntity
  8
0
100
AcDbBlockEnd
  0
BLOCK
  5
59
330
58
100
AcDbEntity
  8
0
100
AcDbBlockBegin
  2
*D1
 70
     1
 10
0.0
 20
0.0
 30
0.0
  3
*D1
  1

  0
LINE
  5
5A
330
58
100
AcDbEntity
  8
SUNPO
 62
     0
370
    -2
100
AcDbLine
 10
19.29214950824681
 20
346.5905457242779
 30
0.0
 11
19.29214950824681
 21
354.5905457242779
 31
0.0
  0
LINE
  5
5B
330
58
100
AcDbEntity
  8
SUNPO
 62
     0
370
    -2
100
AcDbLine
 10
61.28516960890681
 20
346.5905457242779
 30
0.0
 11
61.28516960890681
 21
354.5905457242779
 31
0.0
  0
LINE
  5
5C
330
58
100
AcDbEntity
  8
SUNPO
 62
     0
370
    -2
100
AcDbLine
 10
21.29214950824681
 20
352.5905457242779
 30
0.0
 11
59.28516960890681
 21
352.5905457242779
 31
0.0
  0
INSERT
  5
5D
330
58
100
AcDbEntity
  8
SUNPO
 62
     0
370
    -2
100
AcDbBlockReference
  2
_OPEN30
 10
19.29214950824681
 20
352.5905457242779
 30
0.0
 41
2.0
 42
2.0
 43
2.0
 50
180.0
  0
INSERT
  5
5E
330
58
100
AcDbEntity
  8
SUNPO
 62
     0
370
    -2
100
AcDbBlockReference
  2
_OPEN30
 10
61.28516960890681
 20
352.5905457242779
 30
0.0
 41
2.0
 42
2.0
 43
2.0
  0
MTEXT
  5
5F
330
58
100
AcDbEntity
  8
SUNPO
 62
     0
100
AcDbMText
 10
40.28865955857681
 20
354.3405457242779
 30
0.0
 40
2.5
 41
0.0
 71
     5
 72
     1
  1
\A1;210
 73
     1
 44
1.0
1001
ACAD
1000
MTEXTBEGIN
1070
    73
1070
     1
1070
    44
1040
1.0
1070
    74
1070
     0
1000
MTEXTEND
  0
POINT
  5
60
330
58
100
AcDbEntity
  8
DEFPOINTS
 62
     0
100
AcDbPoint
 10
19.29214950824681
 20
344.5905457242779
 30
0.0
  0
POINT
  5
61
330
58
100
AcDbEntity
  8
DEFPOINTS
 62
     0
100
AcDbPoint
 10
61.28516960890681
 20
344.5905457242779
 30
0.0
  0
POINT
  5
62
330
58
100
AcDbEntity
  8
DEFPOINTS
 62
     0
100
AcDbPoint
 10
61.28516960890681
 20
352.5905457242779
 30
0.0
  0
ENDBLK
  5
63
330
58
100
AcDbEntity
  8
0
100
AcDbBlockEnd
  0
BLOCK
  5
4C
330
4B
100
AcDbEntity
  8
0
100
AcDbBlockBegin
  2
*D2
 70
     1
 10
0.0
 20
0.0
 30
0.0
  3
*D2
  1

  0
LINE
  5
4D
330
4B
100
AcDbEntity
  8
SUNPO
 62
     0
370
    -2
100
AcDbLine
 10
63.37776764161356
 20
344.5905457242779
 30
0.0
 11
71.37776764161357
 21
344.5905457242779
 31
0.0
  0
LINE
  5
4E
330
4B
100
AcDbEntity
  8
SUNPO
 62
     0
370
    -2
100
AcDbLine
 10
63.37776764161358
 20
309.2889896153379
 30
0.0
 11
71.37776764161357
 21
309.2889896153379
 31
0.0
  0
LINE
  5
4F
330
4B
100
AcDbEntity
  8
SUNPO
 62
     0
370
    -2
100
AcDbLine
 10
69.37776764161357
 20
342.5905457242779
 30
0.0
 11
69.37776764161357
 21
311.2889896153379
 31
0.0
  0
INSERT
  5
50
330
4B
100
AcDbEntity
  8
SUNPO
 62
     0
370
    -2
100
AcDbBlockReference
  2
_OPEN30
 10
69.37776764161357
 20
344.5905457242779
 30
0.0
 41
2.0
 42
2.0
 43
2.0
 50
90.0
  0
INSERT
  5
51
330
4B
100
AcDbEntity
  8
SUNPO
 62
     0
370
    -2
100
AcDbBlockReference
  2
_OPEN30
 10
69.37776764161357
 20
309.2889896153379
 30
0.0
 41
2.0
 42
2.0
 43
2.0
 50
270.0
  0
MTEXT
  5
52
330
4B
100
AcDbEntity
  8
SUNPO
 62
     0
100
AcDbMText
 10
67.62776764161351
 20
326.9397676698079
 30
0.0
 40
2.5
 41
0.0
 71
     5
 72
     1
  1
\A1;177
 11
0.0000000000000001
 21
1.0
 31
0.0
 73
     1
 44
1.0
1001
ACAD
1000
MTEXTBEGIN
1070
    73
1070
     1
1070
    44
1040
1.0
1070
    74
1070
     0
1000
MTEXTEND
  0
POINT
  5
53
330
4B
100
AcDbEntity
  8
DEFPOINTS
 62
     0
100
AcDbPoint
 10
61.37776764161356
 20
344.5905457242779
 30
0.0
  0
POINT
  5
54
330
4B
100
AcDbEntity
  8
DEFPOINTS
 62
     0
100
AcDbPoint
 10
61.37776764161357
 20
309.2889896153379
 30
0.0
  0
POINT
  5
55
330
4B
100
AcDbEntity
  8
DEFPOINTS
 62
     0
100
AcDbPoint
 10
69.37776764161357
 20
309.2889896153379
 30
0.0
  0
ENDBLK
  5
56
330
4B
100
AcDbEntity
  8
0
100
AcDbBlockEnd
  0
BLOCK
  5
3E
330
3D
100
AcDbEntity
  8
0
100
AcDbBlockBegin
  2
*D3
 70
     1
 10
0.0
 20
0.0
 30
0.0
  3
*D3
  1

  0
LINE
  5
3F
330
3D
100
AcDbEntity
  8
SUNPO
 62
     0
370
    -2
100
AcDbLine
 10
84.68936214698356
 20
346.5905457242779
 30
0.0
 11
84.68936214698356
 21
354.590545724278
 31
0.0
  0
LINE
  5
40
330
3D
100
AcDbEntity
  8
SUNPO
 62
     0
370
    -2
100
AcDbLine
 10
97.66494944666355
 20
346.590545724278
 30
0.0
 11
97.66494944666355
 21
354.590545724278
 31
0.0
  0
LINE
  5
41
330
3D
100
AcDbEntity
  8
SUNPO
 62
     0
370
    -2
100
AcDbLine
 10
86.68936214698355
 20
352.590545724278
 30
0.0
 11
95.66494944666356
 21
352.590545724278
 31
0.0
  0
INSERT
  5
42
330
3D
100
AcDbEntity
  8
SUNPO
 62
     0
370
    -2
100
AcDbBlockReference
  2
_OPEN30
 10
84.68936214698356
 20
352.590545724278
 30
0.0
 41
2.0
 42
2.0
 43
2.0
 50
180.0
  0
INSERT
  5
43
330
3D
100
AcDbEntity
  8
SUNPO
 62
     0
370
    -2
100
AcDbBlockReference
  2
_OPEN30
 10
97.66494944666355
 20
352.590545724278
 30
0.0
 41
2.0
 42
2.0
 43
2.0
  0
MTEXT
  5
44
330
3D
100
AcDbEntity
  8
SUNPO
 62
     0
100
AcDbMText
 10
91.17715579682355
 20
354.340545724278
 30
0.0
 40
2.5
 41
0.0
 71
     5
 72
     1
  1
\A1;65
 73
     1
 44
1.0
1001
ACAD
1000
MTEXTBEGIN
1070
    73
1070
     1
1070
    44
1040
1.0
1070
    74
1070
     0
1000
MTEXTEND
  0
POINT
  5
45
330
3D
100
AcDbEntity
  8
DEFPOINTS
 62
     0
100
AcDbPoint
 10
84.68936214698356
 20
344.5905457242779
 30
0.0
  0
POINT
  5
47
330
3D
100
AcDbEntity
  8
DEFPOINTS
 62
     0
100
AcDbPoint
 10
97.66494944666355
 20
344.590545724278
 30
0.0
  0
POINT
  5
48
330
3D
100
AcDbEntity
  8
DEFPOINTS
 62
     0
100
AcDbPoint
 10
97.66494944666355
 20
352.590545724278
 30
0.0
  0
ENDBLK
  5
49
330
3D
100
AcDbEntity
  8
0
100
AcDbBlockEnd
  0
BLOCK
  5
4F8
330
4EE
100
AcDbEntity
  8
0
100
AcDbBlockBegin
  2
*D4
 70
     1
 10
0.0
 20
0.0
 30
0.0
  3
*D4
  1

  0
LINE
  5
4EF
330
4EE
100
AcDbEntity
  8
SUNPO
 62
     0
370
    -2
100
AcDbLine
 10
-45.89333938226409
 20
30.83560368415488
 30
0.0
 11
-45.89333938226409
 21
38.83560368415487
 31
0.0
  0
LINE
  5
4F0
330
4EE
100
AcDbEntity
  8
SUNPO
 62
     0
370
    -2
100
AcDbLine
 10
-3.900319281604083
 20
30.83560368415488
 30
0.0
 11
-3.900319281604083
 21
38.83560368415487
 31
0.0
  0
LINE
  5
4F1
330
4EE
100
AcDbEntity
  8
SUNPO
 62
     0
370
    -2
100
AcDbLine
 10
-43.89333938226409
 20
36.83560368415488
 30
0.0
 11
-5.900319281604083
 21
36.83560368415488
 31
0.0
  0
INSERT
  5
4F2
330
4EE
100
AcDbEntity
  8
SUNPO
 62
     0
370
    -2
100
AcDbBlockReference
  2
_OPEN30
 10
-45.89333938226409
 20
36.83560368415488
 30
0.0
 41
2.0
 42
2.0
 43
2.0
 50
180.0
  0
INSERT
  5
4F3
330
4EE
100
AcDbEntity
  8
SUNPO
 62
     0
370
    -2
100
AcDbBlockReference
  2
_OPEN30
 10
-3.900319281604083
 20
36.83560368415488
 30
0.0
 41
2.0
 42
2.0
 43
2.0
  0
MTEXT
  5
4F4
330
4EE
100
AcDbEntity
  8
SUNPO
 62
     0
100
AcDbMText
 10
-24.89682933193409
 20
38.58560368415488
 30
0.0
 40
2.5
 41
0.0
 71
     5
 72
     1
  1
\A1;210
 73
     1
 44
1.0
1001
ACAD
1000
MTEXTBEGIN
1070
    73
1070
     1
1070
    44
1040
1.0
1070
    74
1070
     0
1000
MTEXTEND
  0
POINT
  5
4F5
330
4EE
100
AcDbEntity
  8
DEFPOINTS
 62
     0
100
AcDbPoint
 10
-45.89333938226409
 20
28.83560368415487
 30
0.0
  0
POINT
  5
4F6
330
4EE
100
AcDbEntity
  8
DEFPOINTS
 62
     0
100
AcDbPoint
 10
-3.900319281604083
 20
28.83560368415487
 30
0.0
  0
POINT
  5
4F7
330
4EE
100
AcDbEntity
  8
DEFPOINTS
 62
     0
100
AcDbPoint
 10
-3.900319281604083
 20
36.83560368415488
 30
0.0
  0
ENDBLK
  5
4F9
330
4EE
100
AcDbEntity
  8
0
100
AcDbBlockEnd
  0
BLOCK
  5
504
330
4FA
100
AcDbEntity
  8
0
100
AcDbBlockBegin
  2
*D5
 70
     1
 10
0.0
 20
0.0
 30
0.0
  3
*D5
  1

  0
LINE
  5
4FB
330
4FA
100
AcDbEntity
  8
SUNPO
 62
     0
370
    -2
100
AcDbLine
 10
-1.807721248897337
 20
28.83560368415487
 30
0.0
 11
6.192278751102683
 21
28.83560368415487
 31
0.0
  0
LINE
  5
4FC
330
4FA
100
AcDbEntity
  8
SUNPO
 62
     0
370
    -2
100
AcDbLine
 10
-1.807721248897323
 20
-6.465952424785201
 30
0.0
 11
6.192278751102676
 21
-6.465952424785204
 31
0.0
  0
LINE
  5
4FD
330
4FA
100
AcDbEntity
  8
SUNPO
 62
     0
370
    -2
100
AcDbLine
 10
4.192278751102684
 20
26.83560368415488
 30
0.0
 11
4.192278751102677
 21
-4.465952424785203
 31
0.0
  0
INSERT
  5
4FE
330
4FA
100
AcDbEntity
  8
SUNPO
 62
     0
370
    -2
100
AcDbBlockReference
  2
_OPEN30
 10
4.192278751102684
 20
28.83560368415487
 30
0.0
 41
2.0
 42
2.0
 43
2.0
 50
90.0
  0
INSERT
  5
4FF
330
4FA
100
AcDbEntity
  8
SUNPO
 62
     0
370
    -2
100
AcDbBlockReference
  2
_OPEN30
 10
4.192278751102676
 20
-6.465952424785203
 30
0.0
 41
2.0
 42
2.0
 43
2.0
 50
270.0
  0
MTEXT
  5
500
330
4FA
100
AcDbEntity
  8
SUNPO
 62
     0
100
AcDbMText
 10
2.442278751102679
 20
11.18482562968484
 30
0.0
 40
2.5
 41
0.0
 71
     5
 72
     1
  1
\A1;177
 11
0.0000000000000001
 21
1.0
 31
0.0
 73
     1
 44
1.0
1001
ACAD
1000
MTEXTBEGIN
1070
    73
1070
     1
1070
    44
1040
1.0
1070
    74
1070
     0
1000
MTEXTEND
  0
POINT
  5
501
330
4FA
100
AcDbEntity
  8
DEFPOINTS
 62
     0
100
AcDbPoint
 10
-3.807721248897337
 20
28.83560368415487
 30
0.0
  0
POINT
  5
502
330
4FA
100
AcDbEntity
  8
DEFPOINTS
 62
     0
100
AcDbPoint
 10
-3.807721248897323
 20
-6.4659524247852
 30
0.0
  0
POINT
  5
503
330
4FA
100
AcDbEntity
  8
DEFPOINTS
 62
     0
100
AcDbPoint
 10
4.192278751102676
 20
-6.465952424785203
 30
0.0
  0
ENDBLK
  5
505
330
4FA
100
AcDbEntity
  8
0
100
AcDbBlockEnd
  0
BLOCK
  5
510
330
506
100
AcDbEntity
  8
0
100
AcDbBlockBegin
  2
*D6
 70
     1
 10
0.0
 20
0.0
 30
0.0
  3
*D6
  1

  0
LINE
  5
507
330
506
100
AcDbEntity
  8
SUNPO
 62
     0
370
    -2
100
AcDbLine
 10
19.50387325647266
 20
30.83560368415488
 30
0.0
 11
19.50387325647266
 21
38.83560368415493
 31
0.0
  0
LINE
  5
508
330
506
100
AcDbEntity
  8
SUNPO
 62
     0
370
    -2
100
AcDbLine
 10
32.47946055615266
 20
30.83560368415493
 30
0.0
 11
32.47946055615266
 21
38.83560368415493
 31
0.0
  0
LINE
  5
509
330
506
100
AcDbEntity
  8
SUNPO
 62
     0
370
    -2
100
AcDbLine
 10
21.50387325647266
 20
36.83560368415494
 30
0.0
 11
30.47946055615266
 21
36.83560368415494
 31
0.0
  0
INSERT
  5
50A
330
506
100
AcDbEntity
  8
SUNPO
 62
     0
370
    -2
100
AcDbBlockReference
  2
_OPEN30
 10
19.50387325647266
 20
36.83560368415494
 30
0.0
 41
2.0
 42
2.0
 43
2.0
 50
180.0
  0
INSERT
  5
50B
330
506
100
AcDbEntity
  8
SUNPO
 62
     0
370
    -2
100
AcDbBlockReference
  2
_OPEN30
 10
32.47946055615266
 20
36.83560368415494
 30
0.0
 41
2.0
 42
2.0
 43
2.0
  0
MTEXT
  5
50C
330
506
100
AcDbEntity
  8
SUNPO
 62
     0
100
AcDbMText
 10
25.99166690631266
 20
38.58560368415493
 30
0.0
 40
2.5
 41
0.0
 71
     5
 72
     1
  1
\A1;65
 73
     1
 44
1.0
1001
ACAD
1000
MTEXTBEGIN
1070
    73
1070
     1
1070
    44
1040
1.0
1070
    74
1070
     0
1000
MTEXTEND
  0
POINT
  5
50D
330
506
100
AcDbEntity
  8
DEFPOINTS
 62
     0
100
AcDbPoint
 10
19.50387325647266
 20
28.83560368415487
 30
0.0
  0
POINT
  5
50E
330
506
100
AcDbEntity
  8
DEFPOINTS
 62
     0
100
AcDbPoint
 10
32.47946055615266
 20
28.83560368415493
 30
0.0
  0
POINT
  5
50F
330
506
100
AcDbEntity
  8
DEFPOINTS
 62
     0
100
AcDbPoint
 10
32.47946055615266
 20
36.83560368415494
 30
0.0
  0
ENDBLK
  5
511
330
506
100
AcDbEntity
  8
0
100
AcDbBlockEnd
  0
ENDSEC
  0
SECTION
  2
ENTITIES
  0
TEXT
  5
30
330
2
100
AcDbEntity
  8
MOJI1
100
AcDbText
 10
-20.18548894646983
 20
-42.25410691518868
 30
0.0
 40
3.0
  1
２ｃｈ×アップコンバータ、４ｃｈ×ビデオプロセス機能
 41
0.85
100
AcDbText
  0
TEXT
  5
32
330
2
100
AcDbEntity
  8
MOJI1
100
AcDbText
 10
-60.18548894646983
 20
-57.25410691518868
 30
0.0
 40
3.0
  1
特殊効果     
100
AcDbText
  0
TEXT
  5
33
330
2
100
AcDbEntity
  8
MOJI1
100
AcDbText
 10
-20.18548894646983
 20
-57.25410691518868
 30
0.0
 40
3.0
  1
ワイプ、ＰｉｎＰ、Ｋｅｙ（ルミナンス、リニア、クロマキー）  
 41
0.8
100
AcDbText
  0
TEXT
  5
34
330
2
100
AcDbEntity
  8
MOJI1
100
AcDbText
 10
-20.18548894646983
 20
-52.25410691518868
 30
0.0
 40
3.0
  1
ＡＵＸバス×１系統、マルチビューワ×１系統
100
AcDbText
  0
TEXT
  5
35
330
2
100
AcDbEntity
  8
MOJI1
100
AcDbText
 10
-60.18548894646983
 20
-52.25410691518868
 30
0.0
 40
3.0
  1
その他
100
AcDbText
  0
TEXT
  5
36
330
2
100
AcDbEntity
  8
MOJI1
100
AcDbText
 10
-60.18548894646983
 20
-42.25410691518868
 30
0.0
 40
3.0
  1
入力機能
100
AcDbText
  0
TEXT
  5
37
330
2
100
AcDbEntity
  8
MOJI1
100
AcDbText
 10
-20.18548894646983
 20
-47.25410691518868
 30
0.0
 40
3.0
  1
３ｃｈ×ＨＤ／ＳＤ－ＳＤＩ、１ｃｈ×ＤＶＩ－Ｄ
100
AcDbText
  0
TEXT
  5
38
330
2
100
AcDbEntity
  8
MOJI1
100
AcDbText
 10
-60.18548894646983
 20
-47.25410691518868
 30
0.0
 40
3.0
  1
出力数
100
AcDbText
  0
TEXT
  5
39
330
2
100
AcDbEntity
  8
MOJI1
100
AcDbText
 10
-60.18548894646983
 20
-37.25410691518869
 30
0.0
 40
3.0
  1
入力数
100
AcDbText
  0
TEXT
  5
3A
330
2
100
AcDbEntity
  8
MOJI1
100
AcDbText
 10
-20.18548894646983
 20
-37.25410691518869
 30
0.0
 40
3.0
  1
４ｃｈ×ＨＤ／ＳＤ－ＳＤＩ、１ｃｈ×ＤＶＩ－Ｄ（全ｃｈ ＦＳ付）  
 41
0.72
100
AcDbText
  0
DIMENSION
  5
3B
330
2
100
AcDbEntity
  8
SUNPO
100
AcDbDimension
  2
*D6
 10
32.47946055615266
 20
36.83560368415494
 30
0.0
 11
25.99166690631266
 21
38.58560368415493
 31
0.0
 70
    33
  1
65
 71
     5
 42
12.97558729968
  3
STANDARD
100
AcDbAlignedDimension
 13
19.50387325647266
 23
28.83560368415487
 33
0.0
 14
32.47946055615266
 24
28.83560368415493
 34
0.0
1001
ACAD
1000
DSTYLE
1002
{
1070
    40
1040
1.0
1070
   140
1040
2.5
1070
   147
1040
0.5
1070
   172
1070
     1
1070
   279
1070
     0
1070
   288
1070
     0
1002
}
  0
DIMENSION
  5
4A
330
2
100
AcDbEntity
  8
SUNPO
100
AcDbDimension
  2
*D5
 10
4.192278751102676
 20
-6.465952424785203
 30
0.0
 11
2.442278751102679
 21
11.18482562968484
 31
0.0
 70
    33
  1
177
 71
     5
 42
35.30155610894008
  3
STANDARD
100
AcDbAlignedDimension
 13
-3.807721248897337
 23
28.83560368415487
 33
0.0
 14
-3.807721248897323
 24
-6.4659524247852
 34
0.0
1001
ACAD
1000
DSTYLE
1002
{
1070
    40
1040
1.0
1070
   140
1040
2.5
1070
   147
1040
0.5
1070
   172
1070
     1
1070
   279
1070
     0
1070
   288
1070
     0
1002
}
  0
DIMENSION
  5
57
330
2
100
AcDbEntity
  8
SUNPO
100
AcDbDimension
  2
*D4
 10
-3.900319281604083
 20
36.83560368415488
 30
0.0
 11
-24.89682933193409
 21
38.58560368415488
 31
0.0
 70
    33
  1
210
 71
     5
 42
41.99302010066
  3
STANDARD
100
AcDbAlignedDimension
 13
-45.89333938226409
 23
28.83560368415487
 33
0.0
 14
-3.900319281604083
 24
28.83560368415487
 34
0.0
1001
ACAD
1000
DSTYLE
1002
{
1070
    40
1040
1.0
1070
   140
1040
2.5
1070
   147
1040
0.5
1070
   172
1070
     1
1070
   279
1070
     0
1070
   288
1070
     0
1002
}
  0
LINE
  5
64
330
2
100
AcDbEntity
  8
WAKU
 62
     4
100
AcDbLine
 10
62.31451105353016
 20
-58.25410691518868
 30
0.0
 11
62.31451105353016
 21
-23.25410691518869
 31
0.0
  0
LINE
  5
65
330
2
100
AcDbEntity
  8
WAKU
 62
     4
100
AcDbLine
 10
-22.68548894646983
 20
-58.25410691518868
 30
0.0
 11
-22.68548894646983
 21
-23.25410691518869
 31
0.0
  0
TEXT
  5
66
330
2
100
AcDbEntity
  8
MOJI1
100
AcDbText
 10
-20.18548894646983
 20
-32.25410691518869
 30
0.0
 40
3.0
  1
１０８０／５９．９４ｉ、７２０／５９．９４ｐ、４８０／５９．９４ｉ        
 41
0.7
100
AcDbText
  0
TEXT
  5
67
330
2
100
AcDbEntity
  8
MOJI1
100
AcDbText
 10
-20.18548894646983
 20
-27.25410691518869
 30
0.0
 40
3.0
  1
ＤＣ１２Ｖ（ＡＣアダプタ添付）    
100
AcDbText
  0
TEXT
  5
68
330
2
100
AcDbEntity
  8
MOJI1
100
AcDbText
 10
-60.18548894646983
 20
-27.25410691518869
 30
0.0
 40
3.0
  1
電　源
100
AcDbText
  0
LINE
  5
69
330
2
100
AcDbEntity
  8
WAKU
 62
     4
100
AcDbLine
 10
-62.68548894646983
 20
-23.25410691518869
 30
0.0
 11
-62.68548894646983
 21
-58.25410691518868
 31
0.0
  0
TEXT
  5
6A
330
2
100
AcDbEntity
  8
MOJI1
100
AcDbText
 10
-60.18548894646983
 20
-32.25410691518869
 30
0.0
 40
3.0
  1
映像フォーマット
100
AcDbText
  0
LINE
  5
6B
330
2
100
AcDbEntity
  8
WAKU
 62
     4
100
AcDbLine
 10
-62.68548894646983
 20
-58.25410691518868
 30
0.0
 11
62.31451105353016
 21
-58.25410691518868
 31
0.0
  0
LINE
  5
6C
330
2
100
AcDbEntity
  8
WAKU
 62
     1
100
AcDbLine
 10
-62.68548894646983
 20
-53.25410691518868
 30
0.0
 11
62.31451105353016
 21
-53.25410691518868
 31
0.0
  0
LINE
  5
6D
330
2
100
AcDbEntity
  8
WAKU
 62
     1
100
AcDbLine
 10
-62.68548894646983
 20
-48.25410691518868
 30
0.0
 11
62.31451105353016
 21
-48.25410691518868
 31
0.0
  0
LINE
  5
6E
330
2
100
AcDbEntity
  8
WAKU
 62
     1
100
AcDbLine
 10
-62.68548894646983
 20
-43.25410691518868
 30
0.0
 11
62.31451105353016
 21
-43.25410691518868
 31
0.0
  0
LINE
  5
6F
330
2
100
AcDbEntity
  8
WAKU
 62
     4
100
AcDbLine
 10
62.31451105353016
 20
-23.25410691518869
 30
0.0
 11
-62.68548894646983
 21
-23.25410691518869
 31
0.0
  0
LINE
  5
70
330
2
100
AcDbEntity
  8
WAKU
 62
     1
100
AcDbLine
 10
-62.68548894646983
 20
-38.25410691518868
 30
0.0
 11
62.31451105353016
 21
-38.25410691518868
 31
0.0
  0
LINE
  5
71
330
2
100
AcDbEntity
  8
WAKU
 62
     1
100
AcDbLine
 10
-62.68548894646983
 20
-33.25410691518869
 30
0.0
 11
62.31451105353016
 21
-33.25410691518869
 31
0.0
  0
LINE
  5
72
330
2
100
AcDbEntity
  8
WAKU
 62
     1
100
AcDbLine
 10
-62.68548894646983
 20
-28.25410691518868
 30
0.0
 11
62.31451105353016
 21
-28.25410691518868
 31
0.0
  0
LINE
  5
73
330
2
100
AcDbEntity
  8
GAIKEI
  6
Continuous
 62
     1
100
AcDbLine
 10
19.02387325648709
 20
11.03811021455487
 30
0.0
 11
19.02387325648709
 21
7.838110214554831
 31
0.0
  0
LINE
  5
75
330
2
100
AcDbEntity
  8
GAIKEI
  6
Continuous
 62
     1
100
AcDbLine
 10
-17.49644734818412
 20
3.978344676294796
 30
0.0
 11
-17.49644734818412
 21
8.728344676294796
 31
0.0
  0
LINE
  5
76
330
2
100
AcDbEntity
  8
GAIKEI
  6
Continuous
 62
     1
100
AcDbLine
 10
-17.30299469876399
 20
4.67113522709485
 30
0.0
 11
-17.30299469876399
 21
4.540807402874861
 31
0.0
  0
LWPOLYLINE
  5
77
330
2
100
AcDbEntity
  8
GAIKEI
  6
Continuous
 62
     1
100
AcDbPolyline
 90
        9
 70
     0
 43
0.0
 10
-17.30299469876399
 20
4.67113522709485
 10
-17.32351315306414
 20
5.036235421054925
 10
-17.33930925772392
 20
5.446811987634873
 10
-17.34928816806405
 20
5.891088827394924
 10
-17.35270301640412
 20
6.353344676294909
 10
-17.34928816806405
 20
6.815600525194895
 10
-17.33930925772392
 20
7.259877364954832
 10
-17.32351315306414
 20
7.670453931534893
 10
-17.30299469876399
 20
8.035554125474845
  0
LWPOLYLINE
  5
78
330
2
100
AcDbEntity
  8
GAIKEI
  6
Continuous
 62
     1
100
AcDbPolyline
 90
        5
 70
     0
 43
0.0
 10
-17.39597133506459
 20
8.841989148053471
 10
-17.36972724662405
 20
8.716225426834853
 10
-17.34574220796412
 20
8.562376057934898
 10
-17.32336350594414
 20
8.377680530294924
 10
-17.30299469876399
 20
8.165881949714844
  0
LWPOLYLINE
  5
79
330
2
100
AcDbEntity
  8
GAIKEI
  6
Continuous
 62
     1
100
AcDbPolyline
 90
        5
 70
     0
 43
0.0
 10
-17.30299469876399
 20
4.540807402874861
 10
-17.32336350594414
 20
4.329008822274886
 10
-17.34574220796412
 20
4.144313294634912
 10
-17.36972724662405
 20
3.990463925734843
 10
-17.39597133506026
 20
3.864700204536234
  0
LINE
  5
7A
330
2
100
AcDbEntity
  8
GAIKEI
  6
Continuous
 62
     1
100
AcDbLine
 10
-17.30299469876399
 20
8.165881949714844
 30
0.0
 11
-17.30299469876399
 21
8.035554125474845
 31
0.0
  0
ARC
  5
7B
330
2
100
AcDbEntity
  8
GAIKEI
  6
Continuous
 62
     1
100
AcDbCircle
 10
-17.39485497246414
 20
3.964693973014846
 30
0.0
 40
0.1000000000000001
100
AcDbArc
 50
186.6535706311996
 51
270.0
  0
ARC
  5
7C
330
2
100
AcDbEntity
  8
GAIKEI
  6
Continuous
 62
     1
100
AcDbCircle
 10
-17.39644734818398
 20
8.728344676294796
 30
0.0
 40
0.1000000000000001
100
AcDbArc
 50
173.3464293688004
 51
180.0
  0
LINE
  5
7D
330
2
100
AcDbEntity
  8
GAIKEI
  6
Continuous
 62
     1
100
AcDbLine
 10
-17.49418145916411
 20
3.95310738423484
 30
0.0
 11
-17.49577383488395
 21
3.96675808751479
 31
0.0
  0
ARC
  5
7E
330
2
100
AcDbEntity
  8
GAIKEI
  6
Continuous
 62
     1
100
AcDbCircle
 10
-17.39644734818398
 20
3.978344676294796
 30
0.0
 40
0.0999999999999997
100
AcDbArc
 50
180.0
 51
186.6535706311996
  0
ARC
  5
7F
330
2
100
AcDbEntity
  8
GAIKEI
  6
Continuous
 62
     1
100
AcDbCircle
 10
-17.39485497246414
 20
8.741995379574859
 30
0.0
 40
0.0999999999999998
100
AcDbArc
 50
90.0
 51
173.3464293688004
  0
LINE
  5
80
330
2
100
AcDbEntity
  8
GAIKEI
  6
Continuous
 62
     1
100
AcDbLine
 10
-17.49577383488395
 20
8.739931265054792
 30
0.0
 11
-17.49418145916411
 21
8.753581968334856
 31
0.0
  0
LINE
  5
81
330
2
100
AcDbEntity
  8
GAIKEI
  6
Continuous
 62
     1
100
AcDbLine
 10
-25.29682930582408
 20
4.480557625534856
 30
0.0
 11
-25.29682933194408
 21
4.47998391869487
 31
0.0
  0
LINE
  5
82
330
2
100
AcDbEntity
  8
GAIKEI
  6
Continuous
 62
     1
100
AcDbLine
 10
-25.29682930582408
 20
4.480557625534856
 30
0.0
 11
-25.29682926276405
 21
4.48074361215481
 31
0.0
  0
LINE
  5
83
330
2
100
AcDbEntity
  8
GAIKEI
  6
Continuous
 62
     1
100
AcDbLine
 10
-25.29714719746403
 20
0.9894330072348793
 30
0.0
 11
-25.29682933194408
 21
4.47998391869487
 31
0.0
  0
LINE
  5
84
330
2
100
AcDbEntity
  8
GAIKEI
  6
Continuous
 62
     1
100
AcDbLine
 10
-25.29682926276405
 20
4.48074361215481
 30
0.0
 11
-25.29681207984413
 21
4.669432976214807
 31
0.0
  0
LINE
  5
85
330
2
100
AcDbEntity
  8
GAIKEI
  6
Continuous
 62
     1
100
AcDbLine
 10
-25.69682930582417
 20
4.480557625534856
 30
0.0
 11
-25.69682933194417
 21
4.479983918654852
 31
0.0
  0
LINE
  5
86
330
2
100
AcDbEntity
  8
GAIKEI
  6
Continuous
 62
     1
100
AcDbLine
 10
-25.6371526582841
 20
0.9294639694348916
 30
0.0
 11
-25.35715266110401
 21
0.9294384713548424
 31
0.0
  0
LINE
  5
87
330
2
100
AcDbEntity
  8
GAIKEI
  6
Continuous
 62
     1
100
AcDbLine
 10
-25.35680661572405
 20
4.729438439854789
 30
0.0
 11
-25.63680661290414
 21
4.729463937934838
 31
0.0
  0
LINE
  5
88
330
2
100
AcDbEntity
  8
GAIKEI
  6
Continuous
 62
     1
100
AcDbLine
 10
-25.69682933194417
 20
4.479983918654852
 30
0.0
 11
-25.69713091068411
 21
1.168281696774783
 31
0.0
  0
LINE
  5
89
330
2
100
AcDbEntity
  8
GAIKEI
  6
Continuous
 62
     1
100
AcDbLine
 10
-25.69681207652411
 20
4.669469402054801
 30
0.0
 11
-25.69682930582417
 21
4.480557625534856
 31
0.0
  0
LINE
  5
8A
330
2
100
AcDbEntity
  8
GAIKEI
  6
Continuous
 62
     1
100
AcDbLine
 10
-25.69713091068411
 20
1.168281696774783
 30
0.0
 11
-25.69714719414401
 21
0.9894694330748734
 31
0.0
  0
ARC
  5
8B
330
2
100
AcDbEntity
  8
GAIKEI
  6
Continuous
 62
     1
100
AcDbCircle
 10
-25.35681207958419
 20
4.669438440094836
 30
0.0
 40
0.06
100
AcDbArc
 50
359.9947823841999
 51
89.99478238419991
  0
ARC
  5
8C
330
2
100
AcDbEntity
  8
GAIKEI
  6
Continuous
 62
     1
100
AcDbCircle
 10
-25.3571471972241
 20
0.9894384711147949
 30
0.0
 40
0.0599999999999992
100
AcDbArc
 50
269.9947823841999
 51
359.9947823841999
  0
ARC
  5
8D
330
2
100
AcDbEntity
  8
GAIKEI
  6
Continuous
 62
     1
100
AcDbCircle
 10
-25.63681207676405
 20
4.669463938174885
 30
0.0
 40
0.0599999999999988
100
AcDbArc
 50
89.99478238419991
 51
179.9947823841999
  0
ARC
  5
8E
330
2
100
AcDbEntity
  8
GAIKEI
  6
Continuous
 62
     1
100
AcDbCircle
 10
-25.63714719440418
 20
0.9894639691948441
 30
0.0
 40
0.0600000000000001
100
AcDbArc
 50
179.9947823841999
 51
269.9947823841999
  0
LINE
  5
8F
330
2
100
AcDbEntity
  8
GAIKEI
  6
Continuous
 62
     1
100
AcDbLine
 10
-29.49682931452412
 20
4.480557625534856
 30
0.0
 11
-29.49682928284415
 21
4.480714307154812
 31
0.0
  0
LINE
  5
90
330
2
100
AcDbEntity
  8
GAIKEI
  6
Continuous
 62
     1
100
AcDbLine
 10
-29.49714718006408
 20
0.9898154784548296
 30
0.0
 11
-29.49682933194413
 21
4.480175154254879
 31
0.0
  0
LINE
  5
91
330
2
100
AcDbEntity
  8
GAIKEI
  6
Continuous
 62
     1
100
AcDbLine
 10
-29.89682933194399
 20
4.480175154294784
 30
0.0
 11
-29.89713092814418
 21
1.168281341894839
 31
0.0
  0
LINE
  5
92
330
2
100
AcDbEntity
  8
GAIKEI
  6
Continuous
 62
     1
100
AcDbLine
 10
-29.89682931452398
 20
4.480557625534856
 30
0.0
 11
-29.89682933194399
 21
4.480175154294784
 31
0.0
  0
LINE
  5
93
330
2
100
AcDbEntity
  8
GAIKEI
  6
Continuous
 62
     1
100
AcDbLine
 10
-29.55680659830409
 20
4.729820911054844
 30
0.0
 11
-29.83680659548418
 21
4.729846409134779
 31
0.0
  0
LINE
  5
94
330
2
100
AcDbEntity
  8
GAIKEI
  6
Continuous
 62
     1
100
AcDbLine
 10
-29.49682928284415
 20
4.480714307154812
 30
0.0
 11
-29.49681206242417
 21
4.669815447434871
 31
0.0
  0
LINE
  5
95
330
2
100
AcDbEntity
  8
GAIKEI
  6
Continuous
 62
     1
100
AcDbLine
 10
-29.89681205910415
 20
4.669851873254856
 30
0.0
 11
-29.89682931452398
 21
4.480557625534856
 31
0.0
  0
LINE
  5
96
330
2
100
AcDbEntity
  8
GAIKEI
  6
Continuous
 62
     1
100
AcDbLine
 10
-29.89713092814418
 20
1.168281341894839
 30
0.0
 11
-29.89714717674406
 21
0.9898519042748148
 31
0.0
  0
LINE
  5
97
330
2
100
AcDbEntity
  8
GAIKEI
  6
Continuous
 62
     1
100
AcDbLine
 10
-29.83715264086413
 20
0.9298464406548418
 30
0.0
 11
-29.55715264368405
 21
0.9298209425747927
 31
0.0
  0
ARC
  5
98
330
2
100
AcDbEntity
  8
GAIKEI
  6
Continuous
 62
     1
100
AcDbCircle
 10
-29.55714717980413
 20
0.98982094231485
 30
0.0
 40
0.0599999999999994
100
AcDbArc
 50
269.9947823841999
 51
359.9947823841999
  0
ARC
  5
99
330
2
100
AcDbEntity
  8
GAIKEI
  6
Continuous
 62
     1
100
AcDbCircle
 10
-29.55681206218401
 20
4.669820911314786
 30
0.0
 40
0.06
100
AcDbArc
 50
359.9947823841999
 51
89.99478238419991
  0
ARC
  5
9A
330
2
100
AcDbEntity
  8
GAIKEI
  6
Continuous
 62
     1
100
AcDbCircle
 10
-29.83681205936409
 20
4.669846409394835
 30
0.0
 40
0.0599999999999987
100
AcDbArc
 50
89.99478238419991
 51
179.9947823841999
  0
ARC
  5
9B
330
2
100
AcDbEntity
  8
GAIKEI
  6
Continuous
 62
     1
100
AcDbCircle
 10
-29.83714717698399
 20
0.9898464403947855
 30
0.0
 40
0.0600000000000001
100
AcDbArc
 50
179.9947823841999
 51
269.9947823841999
  0
LINE
  5
9C
330
2
100
AcDbEntity
  8
GAIKEI
  6
Continuous
 62
     1
100
AcDbLine
 10
-34.09682933194404
 20
4.480557625534856
 30
0.0
 11
-34.09682933194404
 21
4.480366389934829
 31
0.0
  0
LINE
  5
9D
330
2
100
AcDbEntity
  8
GAIKEI
  6
Continuous
 62
     1
100
AcDbLine
 10
-33.69682932322405
 20
4.480557625534856
 30
0.0
 11
-33.69682930398415
 21
4.480675426574862
 31
0.0
  0
LINE
  5
9E
330
2
100
AcDbEntity
  8
GAIKEI
  6
Continuous
 62
     1
100
AcDbLine
 10
-33.69714716264411
 20
0.9901979496548847
 30
0.0
 11
-33.69682933194406
 21
4.48036638991482
 31
0.0
  0
LINE
  5
9F
330
2
100
AcDbEntity
  8
GAIKEI
  6
Continuous
 62
     1
100
AcDbLine
 10
-34.03715262344406
 20
0.9302289118547832
 30
0.0
 11
-33.75715262626409
 21
0.9302034137748478
 31
0.0
  0
LINE
  5
A0
330
2
100
AcDbEntity
  8
GAIKEI
  6
Continuous
 62
     1
100
AcDbLine
 10
-34.09682933194404
 20
4.480366389934829
 30
0.0
 11
-34.09713094558413
 21
1.16828098703479
 31
0.0
  0
LINE
  5
A1
330
2
100
AcDbEntity
  8
GAIKEI
  6
Continuous
 62
     1
100
AcDbLine
 10
-34.09681204168407
 20
4.670234344474806
 30
0.0
 11
-34.09682933194404
 21
4.480557625534856
 31
0.0
  0
LINE
  5
A2
330
2
100
AcDbEntity
  8
GAIKEI
  6
Continuous
 62
     1
100
AcDbLine
 10
-34.09713094558413
 20
1.16828098703479
 30
0.0
 11
-34.09714715932409
 21
0.9902343754948788
 31
0.0
  0
LINE
  5
A3
330
2
100
AcDbEntity
  8
GAIKEI
  6
Continuous
 62
     1
100
AcDbLine
 10
-33.69682930380407
 20
4.480675426554853
 30
0.0
 11
-33.69681204500409
 21
4.670197918634812
 31
0.0
  0
LINE
  5
A4
330
2
100
AcDbEntity
  8
GAIKEI
  6
Continuous
 62
     1
100
AcDbLine
 10
-33.75680658088413
 20
4.730203382274794
 30
0.0
 11
-34.0368065780641
 21
4.730228880354843
 31
0.0
  0
ARC
  5
A5
330
2
100
AcDbEntity
  8
GAIKEI
  6
Continuous
 62
     1
100
AcDbCircle
 10
-33.75714716238406
 20
0.9902034135348003
 30
0.0
 40
0.0599999999999987
100
AcDbArc
 50
269.9947823841999
 51
359.9947823841999
  0
ARC
  5
A6
330
2
100
AcDbEntity
  8
GAIKEI
  6
Continuous
 62
     1
100
AcDbCircle
 10
-34.03681204194413
 20
4.670228880594777
 30
0.0
 40
0.0568555332430175
100
AcDbArc
 50
89.99478238419991
 51
179.9947823841999
  0
ARC
  5
A7
330
2
100
AcDbEntity
  8
GAIKEI
  6
Continuous
 62
     1
100
AcDbCircle
 10
-34.03681204194413
 20
4.670228880594777
 30
0.0
 40
0.0599999999999987
100
AcDbArc
 50
89.99478238419991
 51
179.9947823841999
  0
ARC
  5
A8
330
2
100
AcDbEntity
  8
GAIKEI
  6
Continuous
 62
     1
100
AcDbCircle
 10
-33.75681204476405
 20
4.670203382514841
 30
0.0
 40
0.06
100
AcDbArc
 50
359.9947823841999
 51
89.99478238419991
  0
ARC
  5
A9
330
2
100
AcDbEntity
  8
GAIKEI
  6
Continuous
 62
     1
100
AcDbCircle
 10
-34.03714715956414
 20
0.9902289116148494
 30
0.0
 40
0.0600000000000001
100
AcDbArc
 50
179.9947823841999
 51
269.9947823841999
  0
LINE
  5
AA
330
2
100
AcDbEntity
  8
GAIKEI
  6
Continuous
 62
     1
100
AcDbLine
 10
-37.89714714522404
 20
0.9905804208748349
 30
0.0
 11
-37.8968293319241
 21
4.480557696194864
 31
0.0
  0
LINE
  5
AB
330
2
100
AcDbEntity
  8
GAIKEI
  6
Continuous
 62
     1
100
AcDbLine
 10
-38.29682933194408
 20
4.480557625514848
 30
0.0
 11
-38.29713096302408
 21
1.168280632174855
 31
0.0
  0
LINE
  5
AC
330
2
100
AcDbEntity
  8
GAIKEI
  6
Continuous
 62
     1
100
AcDbLine
 10
-38.29713096302408
 20
1.168280632174855
 30
0.0
 11
-38.29714714190414
 21
0.9906168466948201
 31
0.0
  0
LINE
  5
AD
330
2
100
AcDbEntity
  8
GAIKEI
  6
Continuous
 62
     1
100
AcDbLine
 10
-37.89682932900405
 20
4.480589849514785
 30
0.0
 11
-37.89681202760414
 21
4.670580389854876
 31
0.0
  0
LINE
  5
AE
330
2
100
AcDbEntity
  8
GAIKEI
  6
Continuous
 62
     1
100
AcDbLine
 10
-38.29681202428412
 20
4.67061681569487
 30
0.0
 11
-38.29682933194408
 21
4.480557625514848
 31
0.0
  0
LINE
  5
AF
330
2
100
AcDbEntity
  8
GAIKEI
  6
Continuous
 62
     1
100
AcDbLine
 10
-37.95680656346406
 20
4.730585853474849
 30
0.0
 11
-38.23680656064414
 21
4.730611351554784
 31
0.0
  0
LINE
  5
B0
330
2
100
AcDbEntity
  8
GAIKEI
  6
Continuous
 62
     1
100
AcDbLine
 10
-38.2371526060241
 20
0.9306113830748472
 30
0.0
 11
-37.95715260884413
 21
0.9305858849947981
 31
0.0
  0
ARC
  5
B1
330
2
100
AcDbEntity
  8
GAIKEI
  6
Continuous
 62
     1
100
AcDbCircle
 10
-37.95681202734409
 20
4.670585853734792
 30
0.0
 40
0.06
100
AcDbArc
 50
359.9947823841999
 51
89.99478238419991
  0
ARC
  5
B2
330
2
100
AcDbEntity
  8
GAIKEI
  6
Continuous
 62
     1
100
AcDbCircle
 10
-37.95714714498411
 20
0.9905858847348554
 30
0.0
 40
0.0600000000000001
100
AcDbArc
 50
269.9947823841999
 51
359.9947823841999
  0
ARC
  5
B3
330
2
100
AcDbEntity
  8
GAIKEI
  6
Continuous
 62
     1
100
AcDbCircle
 10
-38.23681202452405
 20
4.670611351814841
 30
0.0
 40
0.0600000000000001
100
AcDbArc
 50
89.99478238419991
 51
179.9947823841999
  0
ARC
  5
B4
330
2
100
AcDbEntity
  8
GAIKEI
  6
Continuous
 62
     1
100
AcDbCircle
 10
-38.23714714216407
 20
0.9906113828347997
 30
0.0
 40
0.0600000000000001
100
AcDbArc
 50
179.9947823841999
 51
269.9947823841999
  0
LINE
  5
B5
330
2
100
AcDbEntity
  8
GAIKEI
  6
Continuous
 62
     1
100
AcDbLine
 10
-25.29682933194408
 20
4.47998391869487
 30
0.0
 11
-25.29682933194408
 21
1.180557625534788
 31
0.0
  0
LINE
  5
B6
330
2
100
AcDbEntity
  8
GAIKEI
  6
Continuous
 62
     1
100
AcDbLine
 10
-29.49682933194413
 20
4.480175154254879
 30
0.0
 11
-29.49682933194413
 21
1.180557625534788
 31
0.0
  0
LINE
  5
B7
330
2
100
AcDbEntity
  8
GAIKEI
  6
Continuous
 62
     1
100
AcDbLine
 10
-29.49682931452412
 20
4.480557625534856
 30
0.0
 11
-29.49682933194413
 21
4.480175154254879
 31
0.0
  0
LINE
  5
B8
330
2
100
AcDbEntity
  8
GAIKEI
  6
Continuous
 62
     1
100
AcDbLine
 10
-33.69682933194406
 20
4.48036638991482
 30
0.0
 11
-33.69682933194406
 21
1.180557625534788
 31
0.0
  0
LINE
  5
B9
330
2
100
AcDbEntity
  8
GAIKEI
  6
Continuous
 62
     1
100
AcDbLine
 10
-33.69682932322405
 20
4.480557625534856
 30
0.0
 11
-33.69682933194406
 21
4.48036638991482
 31
0.0
  0
LINE
  5
BA
330
2
100
AcDbEntity
  8
GAIKEI
  6
Continuous
 62
     1
100
AcDbLine
 10
-37.8968293319241
 20
4.480557696194864
 30
0.0
 11
-37.89682933194411
 21
1.180557625534788
 31
0.0
  0
CIRCLE
  5
BB
330
2
100
AcDbEntity
  8
GAIKEI
  6
Continuous
 62
     1
100
AcDbCircle
 10
-27.58927674292408
 20
2.838110214554831
 30
0.0
 40
1.600000000000004
  0
CIRCLE
  5
BC
330
2
100
AcDbEntity
  8
GAIKEI
  6
Continuous
 62
     1
100
AcDbCircle
 10
-31.78927674292413
 20
2.838110214554831
 30
0.0
 40
1.600000000000004
  0
CIRCLE
  5
BD
330
2
100
AcDbEntity
  8
GAIKEI
  6
Continuous
 62
     1
100
AcDbCircle
 10
-35.98927674292407
 20
2.838110214554831
 30
0.0
 40
1.600000000000003
  0
CIRCLE
  5
BE
330
2
100
AcDbEntity
  8
GAIKEI
  6
Continuous
 62
     1
100
AcDbCircle
 10
-40.1892767429241
 20
2.838110214554831
 30
0.0
 40
1.600000000000002
  0
ARC
  5
BF
330
2
100
AcDbEntity
  8
GAIKEI
  6
Continuous
 62
     1
100
AcDbCircle
 10
-195.8168973061441
 20
2.835558007654867
 30
0.0
 40
153.8768106403276
100
AcDbArc
 50
359.4117851116016
 51
0.5844197399980708
  0
LWPOLYLINE
  5
C0
330
2
100
AcDbEntity
  8
GAIKEI
  6
Continuous
 62
     1
100
AcDbPolyline
 90
        9
 70
     0
 43
0.0
 10
-41.94819564390411
 20
1.255842331814847
 10
-41.94644520944405
 20
1.223978622174854
 10
-41.94035329564406
 20
1.192538545014826
 10
-41.92949863188414
 20
1.162388374774877
 10
-41.91325443570406
 20
1.13464671331485
 10
-41.89122280626406
 20
1.110729366374926
 10
-41.86439825702405
 20
1.092852989614925
 10
-41.83411354950408
 20
1.082285626554835
 10
-41.8021417793841
 20
1.078983750354836
  0
ARC
  5
C1
330
2
100
AcDbEntity
  8
GAIKEI
  6
Continuous
 62
     1
100
AcDbCircle
 10
-183.2168973062041
 20
2.835558007654867
 30
0.0
 40
153.8768106403915
100
AcDbArc
 50
359.4117851116016
 51
0.5844197399980708
  0
LWPOLYLINE
  5
C2
330
2
100
AcDbEntity
  8
GAIKEI
  6
Continuous
 62
     1
100
AcDbPolyline
 90
        9
 70
     0
 43
0.0
 10
-29.34819564390409
 20
1.255842331814847
 10
-29.34644520944403
 20
1.223978622174854
 10
-29.34035329564404
 20
1.192538545014826
 10
-29.32949863188401
 20
1.162388374774877
 10
-29.31325443570404
 20
1.13464671331485
 10
-29.29122280626416
 20
1.110729366374926
 10
-29.26439825702414
 20
1.092852989614925
 10
-29.23411354950417
 20
1.082285626554835
 10
-29.20214177938396
 20
1.078983750354836
  0
LWPOLYLINE
  5
C3
330
2
100
AcDbEntity
  8
GAIKEI
  6
Continuous
 62
     1
100
AcDbPolyline
 90
        9
 70
     0
 43
0.0
 10
-29.20203807154417
 20
4.581919325774833
 10
-29.23395623420402
 20
4.578632367294858
 10
-29.26418395958399
 20
4.568108877194845
 10
-29.29098354054417
 20
4.550295030574829
 10
-29.31300819296416
 20
4.526461884034915
 10
-29.32933377958398
 20
4.498613174854881
 10
-29.34026115950405
 20
4.46833877657491
 10
-29.34634100230415
 20
4.436943563794898
 10
-29.34809134450416
 20
4.405081750294925
  0
LWPOLYLINE
  5
C4
330
2
100
AcDbEntity
  8
GAIKEI
  6
Continuous
 62
     1
100
AcDbPolyline
 90
        9
 70
     0
 43
0.0
 10
-25.84578124460404
 20
4.404976980054925
 10
-25.84753120542405
 20
4.436850945594869
 10
-25.85362413800408
 20
4.468293537874842
 10
-25.86447924674417
 20
4.498439289394923
 10
-25.88071836018412
 20
4.526169280834892
 10
-25.90273877806408
 20
4.550074083574827
 10
-25.92955273888402
 20
4.567944967834819
 10
-25.95983424824408
 20
4.57851278919486
 10
-25.99181509214418
 20
4.581815151374939
  0
ARC
  5
C5
330
2
100
AcDbEntity
  8
GAIKEI
  6
Continuous
 62
     1
100
AcDbCircle
 10
126.3357696827158
 20
2.835531203394793
 30
0.0
 40
152.1896435460923
100
AcDbArc
 50
179.4091305362009
 51
180.5946866357968
  0
ARC
  5
C6
330
2
100
AcDbEntity
  8
GAIKEI
  6
Continuous
 62
     1
100
AcDbCircle
 10
-27.591915019824
 20
159.0174221554148
 30
0.0
 40
154.4438960609498
100
AcDbArc
 50
269.4026638221992
 51
270.5936175864996
  0
ARC
  5
C7
330
2
100
AcDbEntity
  8
GAIKEI
  6
Continuous
 62
     1
100
AcDbCircle
 10
-27.59188797428419
 20
-155.0465626919251
 30
0.0
 40
156.1338501709978
100
AcDbArc
 50
89.4127795420008
 51
90.5909185131002
  0
LWPOLYLINE
  5
C8
330
2
100
AcDbEntity
  8
GAIKEI
  6
Continuous
 62
     1
100
AcDbPolyline
 90
        9
 70
     0
 43
0.0
 10
-25.99171102070409
 20
1.0790873561549
 10
-25.95978234106406
 20
1.082378446034908
 10
-25.92954804932401
 20
1.092912238154895
 10
-25.90274984104417
 20
1.110738526154818
 10
-25.88073207012417
 20
1.134582239714859
 10
-25.86441628136413
 20
1.162434510014918
 10
-25.85349873926407
 20
1.19270413853485
 10
-25.847424706624
 20
1.224091849654882
 10
-25.84567634690416
 20
1.255946757514834
  0
ARC
  5
C9
330
2
100
AcDbEntity
  8
GAIKEI
  6
Continuous
 62
     1
100
AcDbCircle
 10
122.1357696826958
 20
2.835531203394793
 30
0.0
 40
152.1896435460784
100
AcDbArc
 50
179.4091305362009
 51
180.5946866357968
  0
ARC
  5
CA
330
2
100
AcDbEntity
  8
GAIKEI
  6
Continuous
 62
     1
100
AcDbCircle
 10
-31.79191501982405
 20
159.0174221554148
 30
0.0
 40
154.4438960609463
100
AcDbArc
 50
269.4026638221992
 51
270.5936175864996
  0
LWPOLYLINE
  5
CB
330
2
100
AcDbEntity
  8
GAIKEI
  6
Continuous
 62
     1
100
AcDbPolyline
 90
        9
 70
     0
 43
0.0
 10
-30.04578124460409
 20
4.404976980054925
 10
-30.04753120542409
 20
4.436850945594869
 10
-30.05362413800412
 20
4.468293537874842
 10
-30.06447924674422
 20
4.498439289394923
 10
-30.08071836018416
 20
4.526169280834892
 10
-30.10273877806412
 20
4.550074083574827
 10
-30.12955273888406
 20
4.567944967834819
 10
-30.15983424824412
 20
4.57851278919486
 10
-30.191815092144
 20
4.581815151374939
  0
ARC
  5
CC
330
2
100
AcDbEntity
  8
GAIKEI
  6
Continuous
 62
     1
100
AcDbCircle
 10
-187.416897306184
 20
2.835558007654867
 30
0.0
 40
153.8768106403833
100
AcDbArc
 50
359.4117851116016
 51
0.5844197399980708
  0
LWPOLYLINE
  5
CD
330
2
100
AcDbEntity
  8
GAIKEI
  6
Continuous
 62
     1
100
AcDbPolyline
 90
        9
 70
     0
 43
0.0
 10
-30.19171102070413
 20
1.0790873561549
 10
-30.1597823410641
 20
1.082378446034908
 10
-30.12954804932406
 20
1.092912238154895
 10
-30.10274984104399
 20
1.110738526154818
 10
-30.08073207012421
 20
1.134582239714859
 10
-30.06441628136418
 20
1.162434510014918
 10
-30.05349873926411
 20
1.19270413853485
 10
-30.04742470662404
 20
1.224091849654882
 10
-30.0456763469042
 20
1.255946757514834
  0
LWPOLYLINE
  5
CE
330
2
100
AcDbEntity
  8
GAIKEI
  6
Continuous
 62
     1
100
AcDbPolyline
 90
        9
 70
     0
 43
0.0
 10
-33.4020380715441
 20
4.581919325774833
 10
-33.43395623420406
 20
4.578632367294858
 10
-33.46418395958404
 20
4.568108877194845
 10
-33.49098354054411
 20
4.550295030574829
 10
-33.51300819296409
 20
4.526461884034915
 10
-33.52933377958402
 20
4.498613174854881
 10
-33.5402611595041
 20
4.46833877657491
 10
-33.54634100230408
 20
4.436943563794898
 10
-33.54809134450409
 20
4.405081750294925
  0
ARC
  5
CF
330
2
100
AcDbEntity
  8
GAIKEI
  6
Continuous
 62
     1
100
AcDbCircle
 10
-31.79188797428424
 20
-155.0465626919251
 30
0.0
 40
156.1338501709979
100
AcDbArc
 50
89.4127795420008
 51
90.5909185131002
  0
LWPOLYLINE
  5
D0
330
2
100
AcDbEntity
  8
GAIKEI
  6
Continuous
 62
     1
100
AcDbPolyline
 90
        9
 70
     0
 43
0.0
 10
-33.54819564390414
 20
1.255842331814847
 10
-33.54644520944408
 20
1.223978622174854
 10
-33.54035329564408
 20
1.192538545014826
 10
-33.52949863188405
 20
1.162388374774877
 10
-33.51325443570408
 20
1.13464671331485
 10
-33.49122280626409
 20
1.110729366374926
 10
-33.46439825702407
 20
1.092852989614925
 10
-33.4341135495041
 20
1.082285626554835
 10
-33.40214177938412
 20
1.078983750354836
  0
ARC
  5
D1
330
2
100
AcDbEntity
  8
GAIKEI
  6
Continuous
 62
     1
100
AcDbCircle
 10
130.5357696827159
 20
2.835531203394793
 30
0.0
 40
152.1896435460977
100
AcDbArc
 50
179.4091305362009
 51
180.5946866357968
  0
ARC
  5
D2
330
2
100
AcDbEntity
  8
GAIKEI
  6
Continuous
 62
     1
100
AcDbCircle
 10
-23.39191501982396
 20
159.0174221554148
 30
0.0
 40
154.4438960609466
100
AcDbArc
 50
269.4026638221992
 51
270.5936175864996
  0
LWPOLYLINE
  5
D3
330
2
100
AcDbEntity
  8
GAIKEI
  6
Continuous
 62
     1
100
AcDbPolyline
 90
        9
 70
     0
 43
0.0
 10
-21.64578124460399
 20
4.404976980054925
 10
-21.647531205424
 20
4.436850945594869
 10
-21.65362413800403
 20
4.468293537874842
 10
-21.66447924674412
 20
4.498439289394923
 10
-21.68071836018407
 20
4.526169280834892
 10
-21.70273877806403
 20
4.550074083574827
 10
-21.72955273888419
 20
4.567944967834819
 10
-21.75983424824403
 20
4.57851278919486
 10
-21.79181509214414
 20
4.581815151374939
  0
LWPOLYLINE
  5
D4
330
2
100
AcDbEntity
  8
GAIKEI
  6
Continuous
 62
     1
100
AcDbPolyline
 90
        9
 70
     0
 43
0.0
 10
-21.79171102070404
 20
1.0790873561549
 10
-21.75978234106401
 20
1.082378446034908
 10
-21.7295480493242
 20
1.092912238154895
 10
-21.70274984104413
 20
1.110738526154818
 10
-21.68073207012412
 20
1.134582239714859
 10
-21.66441628136408
 20
1.162434510014918
 10
-21.65349873926402
 20
1.19270413853485
 10
-21.64742470662418
 20
1.224091849654882
 10
-21.64567634690411
 20
1.255946757514834
  0
ARC
  5
D5
330
2
100
AcDbEntity
  8
GAIKEI
  6
Continuous
 62
     1
100
AcDbCircle
 10
-179.0168973062041
 20
2.835558007654867
 30
0.0
 40
153.8768106403884
100
AcDbArc
 50
359.4117851116016
 51
0.5844197399980708
  0
ARC
  5
D6
330
2
100
AcDbEntity
  8
GAIKEI
  6
Continuous
 62
     1
100
AcDbCircle
 10
-23.39188797428414
 20
-155.0465626919251
 30
0.0
 40
156.1338501709961
100
AcDbArc
 50
89.4127795420008
 51
90.5909185131002
  0
LWPOLYLINE
  5
D7
330
2
100
AcDbEntity
  8
GAIKEI
  6
Continuous
 62
     1
100
AcDbPolyline
 90
        9
 70
     0
 43
0.0
 10
-25.14819564390405
 20
1.255842331814847
 10
-25.14644520944421
 20
1.223978622174854
 10
-25.14035329564399
 20
1.192538545014826
 10
-25.12949863188419
 20
1.162388374774877
 10
-25.11325443570399
 20
1.13464671331485
 10
-25.09122280626411
 20
1.110729366374926
 10
-25.0643982570241
 20
1.092852989614925
 10
-25.03411354950413
 20
1.082285626554835
 10
-25.00214177938415
 20
1.078983750354836
  0
LWPOLYLINE
  5
D8
330
2
100
AcDbEntity
  8
GAIKEI
  6
Continuous
 62
     1
100
AcDbPolyline
 90
        9
 70
     0
 43
0.0
 10
-25.00203807154412
 20
4.581919325774833
 10
-25.0339562342042
 20
4.578632367294858
 10
-25.06418395958417
 20
4.568108877194845
 10
-25.09098354054413
 20
4.550295030574829
 10
-25.11300819296412
 20
4.526461884034915
 10
-25.12933377958416
 20
4.498613174854881
 10
-25.14026115950401
 20
4.46833877657491
 10
-25.1463410023041
 20
4.436943563794898
 10
-25.14809134450411
 20
4.405081750294925
  0
CIRCLE
  5
D9
330
2
100
AcDbEntity
  8
GAIKEI
  6
Continuous
 62
     1
100
AcDbCircle
 10
-23.38927674292404
 20
2.838110214554831
 30
0.0
 40
1.600000000000004
  0
LWPOLYLINE
  5
DA
330
2
100
AcDbEntity
  8
GAIKEI
  6
Continuous
 62
     1
100
AcDbPolyline
 90
        9
 70
     0
 43
0.0
 10
-34.24578124460413
 20
4.404976980054925
 10
-34.24753120542414
 20
4.436850945594869
 10
-34.25362413800406
 20
4.468293537874842
 10
-34.26447924674403
 20
4.498439289394923
 10
-34.2807183601841
 20
4.526169280834892
 10
-34.30273877806405
 20
4.550074083574827
 10
-34.3295527388841
 20
4.567944967834819
 10
-34.35983424824406
 20
4.57851278919486
 10
-34.39181509214404
 20
4.581815151374939
  0
ARC
  5
DB
330
2
100
AcDbEntity
  8
GAIKEI
  6
Continuous
 62
     1
100
AcDbCircle
 10
-191.6168973061641
 20
2.835558007654867
 30
0.0
 40
153.876810640347
100
AcDbArc
 50
359.4117851116016
 51
0.5844197399980708
  0
ARC
  5
DC
330
2
100
AcDbEntity
  8
GAIKEI
  6
Continuous
 62
     1
100
AcDbCircle
 10
117.935769682716
 20
2.835531203394793
 30
0.0
 40
152.1896435460989
100
AcDbArc
 50
179.4091305362009
 51
180.5946866357968
  0
ARC
  5
DD
330
2
100
AcDbEntity
  8
GAIKEI
  6
Continuous
 62
     1
100
AcDbCircle
 10
-35.99191501982409
 20
159.0174221554148
 30
0.0
 40
154.4438960609466
100
AcDbArc
 50
269.4026638221992
 51
270.5936175864996
  0
LWPOLYLINE
  5
DE
330
2
100
AcDbEntity
  8
GAIKEI
  6
Continuous
 62
     1
100
AcDbPolyline
 90
        9
 70
     0
 43
0.0
 10
-34.39171102070407
 20
1.0790873561549
 10
-34.35978234106415
 20
1.082378446034908
 10
-34.32954804932411
 20
1.092912238154895
 10
-34.30274984104404
 20
1.110738526154818
 10
-34.28073207012403
 20
1.134582239714859
 10
-34.26441628136411
 20
1.162434510014918
 10
-34.25349873926405
 20
1.19270413853485
 10
-34.24742470662409
 20
1.224091849654882
 10
-34.24567634690402
 20
1.255946757514834
  0
LWPOLYLINE
  5
DF
330
2
100
AcDbEntity
  8
GAIKEI
  6
Continuous
 62
     1
100
AcDbPolyline
 90
        9
 70
     0
 43
0.0
 10
-37.60203807154403
 20
4.581919325774833
 10
-37.63395623420411
 20
4.578632367294858
 10
-37.66418395958408
 20
4.568108877194845
 10
-37.69098354054404
 20
4.550295030574829
 10
-37.71300819296403
 20
4.526461884034915
 10
-37.72933377958407
 20
4.498613174854881
 10
-37.74026115950415
 20
4.46833877657491
 10
-37.74634100230412
 20
4.436943563794898
 10
-37.74809134450402
 20
4.405081750294925
  0
ARC
  5
E0
330
2
100
AcDbEntity
  8
GAIKEI
  6
Continuous
 62
     1
100
AcDbCircle
 10
-35.99188797428417
 20
-155.0465626919251
 30
0.0
 40
156.1338501709886
100
AcDbArc
 50
89.4127795420008
 51
90.5909185131002
  0
LWPOLYLINE
  5
E1
330
2
100
AcDbEntity
  8
GAIKEI
  6
Continuous
 62
     1
100
AcDbPolyline
 90
        9
 70
     0
 43
0.0
 10
-37.74819564390407
 20
1.255842331814847
 10
-37.74644520944412
 20
1.223978622174854
 10
-37.74035329564413
 20
1.192538545014826
 10
-37.7294986318841
 20
1.162388374774877
 10
-37.71325443570413
 20
1.13464671331485
 10
-37.69122280626402
 20
1.110729366374926
 10
-37.66439825702412
 20
1.092852989614925
 10
-37.63411354950404
 20
1.082285626554835
 10
-37.60214177938406
 20
1.078983750354836
  0
LWPOLYLINE
  5
E2
330
2
100
AcDbEntity
  8
GAIKEI
  6
Continuous
 62
     1
100
AcDbPolyline
 90
        9
 70
     0
 43
0.0
 10
-38.59171102070411
 20
1.0790873561549
 10
-38.55978234106408
 20
1.082378446034908
 10
-38.52954804932415
 20
1.092912238154895
 10
-38.50274984104408
 20
1.110738526154818
 10
-38.48073207012408
 20
1.134582239714859
 10
-38.46441628136404
 20
1.162434510014918
 10
-38.45349873926409
 20
1.19270413853485
 10
-38.44742470662414
 20
1.224091849654882
 10
-38.44567634690406
 20
1.255946757514834
  0
LWPOLYLINE
  5
E3
330
2
100
AcDbEntity
  8
GAIKEI
  6
Continuous
 62
     1
100
AcDbPolyline
 90
        9
 70
     0
 43
0.0
 10
-41.80203807154407
 20
4.581919325774833
 10
-41.83395623420415
 20
4.578632367294858
 10
-41.86418395958412
 20
4.568108877194845
 10
-41.89098354054408
 20
4.550295030574829
 10
-41.91300819296407
 20
4.526461884034915
 10
-41.92933377958411
 20
4.498613174854881
 10
-41.94026115950407
 20
4.46833877657491
 10
-41.94634100230405
 20
4.436943563794898
 10
-41.94809134450406
 20
4.405081750294925
  0
ARC
  5
E4
330
2
100
AcDbEntity
  8
GAIKEI
  6
Continuous
 62
     1
100
AcDbCircle
 10
113.7357696827359
 20
2.835531203394793
 30
0.0
 40
152.1896435461146
100
AcDbArc
 50
179.4091305362009
 51
180.5946866357968
  0
ARC
  5
E5
330
2
100
AcDbEntity
  8
GAIKEI
  6
Continuous
 62
     1
100
AcDbCircle
 10
-40.19191501982402
 20
159.0174221554148
 30
0.0
 40
154.4438960609464
100
AcDbArc
 50
269.4026638221992
 51
270.5936175864996
  0
LWPOLYLINE
  5
E6
330
2
100
AcDbEntity
  8
GAIKEI
  6
Continuous
 62
     1
100
AcDbPolyline
 90
        9
 70
     0
 43
0.0
 10
-38.44578124460407
 20
4.404976980054925
 10
-38.44753120542407
 20
4.436850945594869
 10
-38.4536241380041
 20
4.468293537874842
 10
-38.46447924674408
 20
4.498439289394923
 10
-38.48071836018403
 20
4.526169280834892
 10
-38.5027387780641
 20
4.550074083574827
 10
-38.52955273888415
 20
4.567944967834819
 10
-38.5598342482441
 20
4.57851278919486
 10
-38.59181509214409
 20
4.581815151374939
  0
ARC
  5
E7
330
2
100
AcDbEntity
  8
GAIKEI
  6
Continuous
 62
     1
100
AcDbCircle
 10
-40.1918879742841
 20
-155.0465626919251
 30
0.0
 40
156.133850170998
100
AcDbArc
 50
89.4127795420008
 51
90.5909185131002
  0
LINE
  5
E8
330
2
100
AcDbEntity
  8
GAIKEI
  6
Continuous
 62
     1
100
AcDbLine
 10
-41.8468293180241
 20
0.8805576260548377
 30
0.0
 11
-21.74682931802408
 21
0.8805576260548377
 31
0.0
  0
ARC
  5
E9
330
2
100
AcDbEntity
  8
GAIKEI
  6
Continuous
 62
     1
100
AcDbCircle
 10
-41.8468293180241
 20
1.180557626054792
 30
0.0
 40
0.3000000000000003
100
AcDbArc
 50
180.0
 51
270.0
  0
LINE
  5
EA
330
2
100
AcDbEntity
  8
GAIKEI
  6
Continuous
 62
     1
100
AcDbLine
 10
-21.44682931802413
 20
1.180557626054792
 30
0.0
 11
-21.44682931802413
 21
4.48055762605486
 31
0.0
  0
ARC
  5
EB
330
2
100
AcDbEntity
  8
GAIKEI
  6
Continuous
 62
     1
100
AcDbCircle
 10
-21.74682931802408
 20
1.180557626054792
 30
0.0
 40
0.3000000000000044
100
AcDbArc
 50
270.0
 51
0.0
  0
LINE
  5
EC
330
2
100
AcDbEntity
  8
GAIKEI
  6
Continuous
 62
     1
100
AcDbLine
 10
-42.14682931802406
 20
4.48055762605486
 30
0.0
 11
-42.14682931802406
 21
1.180557626054792
 31
0.0
  0
ARC
  5
ED
330
2
100
AcDbEntity
  8
GAIKEI
  6
Continuous
 62
     1
100
AcDbCircle
 10
-41.8468293180241
 20
4.48055762605486
 30
0.0
 40
0.3000000000000044
100
AcDbArc
 50
90.0
 51
180.0
  0
LINE
  5
EE
330
2
100
AcDbEntity
  8
GAIKEI
  6
Continuous
 62
     1
100
AcDbLine
 10
-21.74682931802408
 20
4.780557626054815
 30
0.0
 11
-41.8468293180241
 21
4.780557626054815
 31
0.0
  0
ARC
  5
EF
330
2
100
AcDbEntity
  8
GAIKEI
  6
Continuous
 62
     1
100
AcDbCircle
 10
-21.74682931802408
 20
4.48055762605486
 30
0.0
 40
0.2999999999999982
100
AcDbArc
 50
0.0
 51
90.0
  0
ARC
  5
F0
330
2
100
AcDbEntity
  8
GAIKEI
  6
Continuous
 62
     1
100
AcDbCircle
 10
30.43826394403271
 20
26.53599346423482
 30
0.0
 40
1.199999999999808
100
AcDbArc
 50
97.18378796009911
 51
100.4439972368002
  0
ARC
  5
F1
330
2
100
AcDbEntity
  8
GAIKEI
  6
Continuous
 62
     1
100
AcDbCircle
 10
30.29067046503263
 20
27.70672663833489
 30
0.0
 40
0.0199999999998965
100
AcDbArc
 50
74.66303218289732
 51
97.17812871179821
  0
ARC
  5
F2
330
2
100
AcDbEntity
  8
GAIKEI
  6
Continuous
 62
     1
100
AcDbCircle
 10
30.24976147001274
 20
27.55876754353483
 30
0.0
 40
0.1599999999998188
100
AcDbArc
 50
100.456886807998
 51
153.9201618987999
  0
ARC
  5
F3
330
2
100
AcDbEntity
  8
GAIKEI
  6
Continuous
 62
     1
100
AcDbCircle
 10
30.43826393709259
 20
26.53599346483486
 30
0.0
 40
1.198499026111614
100
AcDbArc
 50
72.83306686349686
 51
78.34016604220039
  0
LINE
  5
F4
330
2
100
AcDbEntity
  8
GAIKEI
  6
Continuous
 62
     1
100
AcDbLine
 10
30.79281991763259
 20
27.68241801953479
 30
0.0
 11
30.79200893683259
 21
27.68109799751483
 31
0.0
  0
ARC
  5
F5
330
2
100
AcDbEntity
  8
GAIKEI
  6
Continuous
 62
     1
100
AcDbCircle
 10
30.43826394403271
 20
26.53599346423482
 30
0.0
 40
1.199999999999807
100
AcDbArc
 50
69.56356381660109
 51
72.81600969149716
  0
LWPOLYLINE
  5
F6
330
2
100
AcDbEntity
  8
GAIKEI
  6
Continuous
 62
     1
100
AcDbPolyline
 90
        5
 70
     0
 43
0.0
 10
30.68047961415272
 20
27.70975187185491
 10
30.65068867121266
 20
27.71518080481485
 10
30.62534764747255
 20
27.71839045677484
 10
30.60820162623253
 20
27.71889772799489
 10
30.60178623183259
 20
27.71662983701492
  0
LINE
  5
F7
330
2
100
AcDbEntity
  8
GAIKEI
  6
Continuous
 62
     1
100
AcDbLine
 10
30.28816888065256
 20
27.72656957349489
 30
0.0
 11
30.28873843407263
 21
27.7251284611948
 31
0.0
  0
LINE
  5
F8
330
2
100
AcDbEntity
  8
GAIKEI
  6
Continuous
 62
     1
100
AcDbLine
 10
30.48060199751257
 20
27.70834260603488
 30
0.0
 11
30.48223240299257
 21
27.72697822969485
 31
0.0
  0
ARC
  5
F9
330
2
100
AcDbEntity
  8
GAIKEI
  6
Continuous
 62
     1
100
AcDbCircle
 10
30.43826393709259
 20
26.53599346483486
 30
0.0
 40
1.198499026111229
100
AcDbArc
 50
91.6598100282991
 51
97.1669331365018
  0
LWPOLYLINE
  5
FA
330
2
100
AcDbEntity
  8
GAIKEI
  6
Continuous
 62
     1
100
AcDbPolyline
 90
        5
 70
     0
 43
0.0
 10
30.48223474953255
 20
27.72704179109485
 10
30.47632954999262
 20
27.73042857147493
 10
30.4593747348726
 20
27.73291120629483
 10
30.43384764155275
 20
27.73415171097486
 10
30.40354977985265
 20
27.73397289857485
  0
LINE
  5
FB
330
2
100
AcDbEntity
  8
GAIKEI
  6
Continuous
 62
     1
100
AcDbLine
 10
30.4822435037126
 20
27.72710511155481
 30
0.0
 11
30.48060198411253
 21
27.70834260825484
 31
0.0
  0
LINE
  5
FC
330
2
100
AcDbEntity
  8
GAIKEI
  6
Continuous
 62
     1
100
AcDbLine
 10
30.60014534789269
 20
27.69788391911482
 30
0.0
 11
30.60178683423254
 21
27.71664604245484
 31
0.0
  0
ARC
  5
FD
330
2
100
AcDbEntity
  8
GAIKEI
  6
Continuous
 62
     1
100
AcDbCircle
 10
30.42722247139267
 20
26.40978919145482
 30
0.0
 40
1.299650087011085
100
AcDbArc
 50
82.35392692400131
 51
87.64607307470035
  0
ARC
  5
FE
330
2
100
AcDbEntity
  8
GAIKEI
  6
Continuous
 62
     1
100
AcDbCircle
 10
30.80150549693275
 20
27.51049619601486
 30
0.0
 40
0.1599999999998208
100
AcDbArc
 50
16.07983810119963
 51
69.54164705019646
  0
ARC
  5
FF
330
2
100
AcDbEntity
  8
GAIKEI
  6
Continuous
 62
     1
100
AcDbCircle
 10
30.78691082865265
 20
27.6633112321349
 30
0.0
 40
0.0200000000001547
100
AcDbArc
 50
72.84113996429848
 51
95.33750280449655
  0
ARC
  5
100
330
2
100
AcDbEntity
  8
GAIKEI
  6
Continuous
 62
     1
100
AcDbCircle
 10
27.06193843613272
 20
27.83766592031486
 30
0.0
 40
0.1599999999998215
100
AcDbArc
 50
100.456886807998
 51
153.9201618987999
  0
LINE
  5
101
330
2
100
AcDbEntity
  8
GAIKEI
  6
Continuous
 62
     1
100
AcDbLine
 10
27.10034584675253
 20
28.00546795027481
 30
0.0
 11
27.1009154001726
 21
28.00402683797484
 31
0.0
  0
ARC
  5
102
330
2
100
AcDbEntity
  8
GAIKEI
  6
Continuous
 62
     1
100
AcDbCircle
 10
27.25044090319256
 20
26.81489184163479
 30
0.0
 40
1.198499026111674
100
AcDbArc
 50
72.83306686349686
 51
78.34016604220039
  0
LINE
  5
103
330
2
100
AcDbEntity
  8
GAIKEI
  6
Continuous
 62
     1
100
AcDbLine
 10
27.60499688373255
 20
27.96131639633484
 30
0.0
 11
27.60418590293256
 21
27.95999637429486
 31
0.0
  0
ARC
  5
104
330
2
100
AcDbEntity
  8
GAIKEI
  6
Continuous
 62
     1
100
AcDbCircle
 10
27.23939949585264
 20
26.68868756123482
 30
0.0
 40
1.299650088902472
100
AcDbArc
 50
82.35392692789897
 51
87.64607307089958
  0
ARC
  5
105
330
2
100
AcDbEntity
  8
GAIKEI
  6
Continuous
 62
     1
100
AcDbCircle
 10
27.25044091013268
 20
26.81489184101486
 30
0.0
 40
1.19999999999981
100
AcDbArc
 50
69.56356381660109
 51
72.81600969149716
  0
LWPOLYLINE
  5
106
330
2
100
AcDbEntity
  8
GAIKEI
  6
Continuous
 62
     1
100
AcDbPolyline
 90
        5
 70
     0
 43
0.0
 10
27.49265658025269
 20
27.98865024865495
 10
27.46286563731263
 20
27.99407918161489
 10
27.43752461357275
 20
27.99728883355488
 10
27.42037859235273
 20
27.99779610477492
 10
27.41396319793256
 20
27.99552821379484
  0
LINE
  5
107
330
2
100
AcDbEntity
  8
GAIKEI
  6
Continuous
 62
     1
100
AcDbLine
 10
27.29277896361253
 20
27.98724098283481
 30
0.0
 11
27.29440936909254
 21
28.00587660649489
 31
0.0
  0
ARC
  5
108
330
2
100
AcDbEntity
  8
GAIKEI
  6
Continuous
 62
     1
100
AcDbCircle
 10
27.25044090319256
 20
26.81489184163479
 30
0.0
 40
1.198499026111284
100
AcDbArc
 50
91.6598100282991
 51
97.1669331365018
  0
LWPOLYLINE
  5
109
330
2
100
AcDbEntity
  8
GAIKEI
  6
Continuous
 62
     1
100
AcDbPolyline
 90
        5
 70
     0
 43
0.0
 10
27.29441171563252
 20
28.00594016787488
 10
27.28850651609258
 20
28.00932694827486
 10
27.27155170097257
 20
28.01180958307487
 10
27.24602460765272
 20
28.01305008775489
 10
27.21572674597263
 20
28.01287127535488
  0
LINE
  5
10A
330
2
100
AcDbEntity
  8
GAIKEI
  6
Continuous
 62
     1
100
AcDbLine
 10
27.29442046981257
 20
28.00600348835485
 30
0.0
 11
27.29277895021272
 21
27.98724098505488
 31
0.0
  0
LINE
  5
10B
330
2
100
AcDbEntity
  8
GAIKEI
  6
Continuous
 62
     1
100
AcDbLine
 10
27.41232231399266
 20
27.97678229591486
 30
0.0
 11
27.41396380033274
 21
27.99554441923488
 31
0.0
  0
ARC
  5
10C
330
2
100
AcDbEntity
  8
GAIKEI
  6
Continuous
 62
     1
100
AcDbCircle
 10
27.23939943751265
 20
26.68868756823485
 30
0.0
 40
1.299650087010284
100
AcDbArc
 50
82.35392692400131
 51
87.64607307470035
  0
ARC
  5
10D
330
2
100
AcDbEntity
  8
GAIKEI
  6
Continuous
 62
     1
100
AcDbCircle
 10
27.61368246305273
 20
27.78939457279489
 30
0.0
 40
0.1599999999998208
100
AcDbArc
 50
16.07983810119963
 51
69.54164705019646
  0
ARC
  5
10E
330
2
100
AcDbEntity
  8
GAIKEI
  6
Continuous
 62
     1
100
AcDbCircle
 10
27.59908779477263
 20
27.94220960893483
 30
0.0
 40
0.0200000000001532
100
AcDbArc
 50
72.84113996429848
 51
95.33750280600154
  0
ARC
  5
10F
330
2
100
AcDbEntity
  8
GAIKEI
  6
Continuous
 62
     1
100
AcDbCircle
 10
27.25044091013268
 20
26.81489184101486
 30
0.0
 40
1.199999999999808
100
AcDbArc
 50
97.18378796009911
 51
100.4439972368002
  0
ARC
  5
110
330
2
100
AcDbEntity
  8
GAIKEI
  6
Continuous
 62
     1
100
AcDbCircle
 10
27.10284743115261
 20
27.98562501513482
 30
0.0
 40
0.0199999999998965
100
AcDbArc
 50
74.66251889869688
 51
97.17812871179821
  0
LWPOLYLINE
  5
111
330
2
100
AcDbEntity
  8
GAIKEI
  6
Continuous
 62
     1
100
AcDbPolyline
 90
        5
 70
     0
 43
0.0
 10
23.3857994592326
 20
-2.004434197105069
 10
23.39227680757261
 20
-1.945581225005071
 10
23.3945411282927
 20
-1.895738002705115
 10
23.39227893351262
 20
-1.861893606905141
 10
23.38581970039257
 20
-1.84944133564511
  0
ARC
  5
112
330
2
100
AcDbEntity
  8
GAIKEI
  6
Continuous
 62
     1
100
AcDbCircle
 10
21.69012325649254
 20
-1.769442365165105
 30
0.0
 40
1.711881700601
100
AcDbArc
 50
347.2018879393031
 51
352.1100345697972
  0
ARC
  5
113
330
2
100
AcDbEntity
  8
GAIKEI
  6
Continuous
 62
     1
100
AcDbCircle
 10
23.3416385813527
 20
-1.393561816045121
 30
0.0
 40
0.0200000000014144
100
AcDbArc
 50
347.7171982491003
 51
12.79319302039761
  0
ARC
  5
114
330
2
100
AcDbEntity
  8
GAIKEI
  6
Continuous
 62
     1
100
AcDbCircle
 10
21.43666964183257
 20
-1.769442330385118
 30
0.0
 40
1.924469987726413
100
AcDbArc
 50
357.6175344090982
 51
2.382465590197762
  0
LINE
  5
115
330
2
100
AcDbEntity
  8
GAIKEI
  6
Continuous
 62
     1
100
AcDbLine
 10
23.35947611511273
 20
-1.849442330385159
 30
0.0
 11
23.38579816643272
 21
-1.849442347165108
 31
0.0
  0
ARC
  5
116
330
2
100
AcDbEntity
  8
GAIKEI
  6
Continuous
 62
     1
100
AcDbCircle
 10
21.69012325649254
 20
-1.769442374465143
 30
0.0
 40
1.71374999999786
100
AcDbArc
 50
12.8240668653987
 51
19.86599872999843
  0
LINE
  5
117
330
2
100
AcDbEntity
  8
GAIKEI
  6
Continuous
 62
     1
100
AcDbLine
 10
23.36113952299269
 20
-2.149761144005196
 30
0.0
 11
23.35947608763257
 21
-2.148652177805161
 31
0.0
  0
LINE
  5
118
330
2
100
AcDbEntity
  8
GAIKEI
  6
Continuous
 62
     1
100
AcDbLine
 10
23.35947611547266
 20
-1.849442400725138
 30
0.0
 11
23.38586858843263
 21
-1.849442401805163
 31
0.0
  0
ARC
  5
119
330
2
100
AcDbEntity
  8
GAIKEI
  6
Continuous
 62
     1
100
AcDbCircle
 10
21.43666964255266
 20
-1.769442418545168
 30
0.0
 40
1.92446998700912
100
AcDbArc
 50
357.6175344081985
 51
2.382465591201641
  0
ARC
  5
11A
330
2
100
AcDbEntity
  8
GAIKEI
  6
Continuous
 62
     1
100
AcDbCircle
 10
21.69012325649254
 20
-1.769442374465143
 30
0.0
 40
1.71374999999786
100
AcDbArc
 50
340.1330254371018
 51
347.1800950361997
  0
ARC
  5
11B
330
2
100
AcDbEntity
  8
GAIKEI
  6
Continuous
 62
     1
100
AcDbCircle
 10
23.3416385813527
 20
-2.145322932885164
 30
0.0
 40
0.0199999999990253
100
AcDbArc
 50
347.1814555485994
 51
12.28282929869972
  0
ARC
  5
11C
330
2
100
AcDbEntity
  8
GAIKEI
  6
Continuous
 62
     1
100
AcDbCircle
 10
23.26425371187264
 20
-1.200625732745152
 30
0.0
 40
0.0400000000018876
100
AcDbArc
 50
19.85997137030195
 51
85.02538304709672
  0
LINE
  5
11D
330
2
100
AcDbEntity
  8
GAIKEI
  6
Continuous
 62
     1
100
AcDbLine
 10
23.06735948681256
 20
-1.143246926645133
 30
0.0
 11
23.26773994219269
 21
-1.160777944865117
 31
0.0
  0
ARC
  5
11E
330
2
100
AcDbEntity
  8
GAIKEI
  6
Continuous
 62
     1
100
AcDbCircle
 10
23.0638732564725
 20
-1.183094714505159
 30
0.0
 40
0.0400000000002577
100
AcDbArc
 50
85.02538298389669
 51
90.0
  0
LINE
  5
11F
330
2
100
AcDbEntity
  8
GAIKEI
  6
Continuous
 62
     1
100
AcDbLine
 10
23.38579941999268
 20
-1.68944234716514
 30
0.0
 11
23.35947611511273
 21
-1.68944233038519
 31
0.0
  0
ARC
  5
120
330
2
100
AcDbEntity
  8
GAIKEI
  6
Continuous
 62
     1
100
AcDbCircle
 10
23.26425371187264
 20
-2.338259016185133
 30
0.0
 40
0.0400000000018814
100
AcDbArc
 50
274.9754105175029
 51
340.1072999791024
  0
LINE
  5
121
330
2
100
AcDbEntity
  8
GAIKEI
  6
Continuous
 62
     1
100
AcDbLine
 10
23.26773994099261
 20
-2.378106804165099
 30
0.0
 11
23.06735948557269
 21
-2.395637822405205
 31
0.0
  0
ARC
  5
122
330
2
100
AcDbEntity
  8
GAIKEI
  6
Continuous
 62
     1
100
AcDbCircle
 10
23.0638732564725
 20
-2.355790034425126
 30
0.0
 40
0.040000000000258
100
AcDbArc
 50
270.0
 51
274.9754104666012
  0
LINE
  5
123
330
2
100
AcDbEntity
  8
GAIKEI
  6
Continuous
 62
     1
100
AcDbLine
 10
23.36113986933259
 20
-1.389123374025189
 30
0.0
 11
23.35947608763257
 21
-1.390232552525162
 31
0.0
  0
ARC
  5
124
330
2
100
AcDbEntity
  8
GAIKEI
  6
Continuous
 62
     1
100
AcDbCircle
 10
21.69012325649254
 20
-1.769442365165105
 30
0.0
 40
1.71188170060114
100
AcDbArc
 50
7.889886846197844
 51
12.79811206089759
  0
LINE
  5
125
330
2
100
AcDbEntity
  8
GAIKEI
  6
Continuous
 62
     1
100
AcDbLine
 10
23.35947611365253
 20
-1.689442348225156
 30
0.0
 11
23.38579739319261
 21
-1.68944234716514
 31
0.0
  0
LWPOLYLINE
  5
126
330
2
100
AcDbEntity
  8
GAIKEI
  6
Continuous
 62
     1
100
AcDbPolyline
 90
        5
 70
     0
 43
0.0
 10
23.38579840437268
 20
-1.68944229944509
 10
23.39227687685269
 20
-1.676982708025093
 10
23.39454112737252
 20
-1.643123855065141
 10
23.39227515105262
 20
-1.593287501465056
 10
23.3857932428927
 20
-1.534453765085117
  0
LWPOLYLINE
  5
127
330
2
100
AcDbEntity
  8
GAIKEI
  6
Continuous
 62
     1
100
AcDbPolyline
 90
        5
 70
     0
 43
0.0
 10
23.3857994592326
 20
21.99556580289493
 10
23.39227680757261
 20
22.05441877499493
 10
23.3945411282927
 20
22.10426199729488
 10
23.39227893351262
 20
22.13810639309486
 10
23.38581970039257
 20
22.15055866435489
  0
ARC
  5
128
330
2
100
AcDbEntity
  8
GAIKEI
  6
Continuous
 62
     1
100
AcDbCircle
 10
21.69012325649254
 20
22.2305576348349
 30
0.0
 40
1.711881700601056
100
AcDbArc
 50
347.2018879393031
 51
352.1100345697972
  0
ARC
  5
129
330
2
100
AcDbEntity
  8
GAIKEI
  6
Continuous
 62
     1
100
AcDbCircle
 10
21.43666964183257
 20
22.23055766961488
 30
0.0
 40
1.924469987726563
100
AcDbArc
 50
357.6175344090982
 51
2.382465590197762
  0
LINE
  5
12A
330
2
100
AcDbEntity
  8
GAIKEI
  6
Continuous
 62
     1
100
AcDbLine
 10
23.35947611511273
 20
22.15055766961484
 30
0.0
 11
23.38579816643272
 21
22.15055765283489
 31
0.0
  0
ARC
  5
12B
330
2
100
AcDbEntity
  8
GAIKEI
  6
Continuous
 62
     1
100
AcDbCircle
 10
21.69012325649254
 20
22.23055762553486
 30
0.0
 40
1.71374999999786
100
AcDbArc
 50
12.8240668653987
 51
19.86599872999843
  0
LINE
  5
12C
330
2
100
AcDbEntity
  8
GAIKEI
  6
Continuous
 62
     1
100
AcDbLine
 10
23.35947611547266
 20
22.15055759927486
 30
0.0
 11
23.38586858843263
 21
22.15055759819484
 31
0.0
  0
ARC
  5
12D
330
2
100
AcDbEntity
  8
GAIKEI
  6
Continuous
 62
     1
100
AcDbCircle
 10
21.43666964255266
 20
22.23055758145483
 30
0.0
 40
1.924469987008969
100
AcDbArc
 50
357.6175344081985
 51
2.382465591201641
  0
ARC
  5
12E
330
2
100
AcDbEntity
  8
GAIKEI
  6
Continuous
 62
     1
100
AcDbCircle
 10
21.69012325649254
 20
22.23055762553486
 30
0.0
 40
1.71374999999786
100
AcDbArc
 50
340.1330254371018
 51
347.1800950361997
  0
ARC
  5
12F
330
2
100
AcDbEntity
  8
GAIKEI
  6
Continuous
 62
     1
100
AcDbCircle
 10
23.26425371187264
 20
22.79937426725485
 30
0.0
 40
0.0400000000018876
100
AcDbArc
 50
19.85997137030195
 51
85.02538304709672
  0
LINE
  5
130
330
2
100
AcDbEntity
  8
GAIKEI
  6
Continuous
 62
     1
100
AcDbLine
 10
23.06735948681256
 20
22.85675307335487
 30
0.0
 11
23.26773994219269
 21
22.83922205513488
 31
0.0
  0
ARC
  5
131
330
2
100
AcDbEntity
  8
GAIKEI
  6
Continuous
 62
     1
100
AcDbCircle
 10
23.06387325647273
 20
22.81690528549484
 30
0.0
 40
0.0400000000002577
100
AcDbArc
 50
85.02538298389669
 51
90.0
  0
LINE
  5
132
330
2
100
AcDbEntity
  8
GAIKEI
  6
Continuous
 62
     1
100
AcDbLine
 10
23.38579941999268
 20
22.31055765283486
 30
0.0
 11
23.35947611511273
 21
22.31055766961481
 31
0.0
  0
ARC
  5
133
330
2
100
AcDbEntity
  8
GAIKEI
  6
Continuous
 62
     1
100
AcDbCircle
 10
23.26425371187264
 20
21.66174098381487
 30
0.0
 40
0.0400000000018814
100
AcDbArc
 50
274.9754105175029
 51
340.1072999791024
  0
LINE
  5
134
330
2
100
AcDbEntity
  8
GAIKEI
  6
Continuous
 62
     1
100
AcDbLine
 10
23.26773994099261
 20
21.6218931958349
 30
0.0
 11
23.06735948557269
 21
21.6043621775948
 31
0.0
  0
ARC
  5
135
330
2
100
AcDbEntity
  8
GAIKEI
  6
Continuous
 62
     1
100
AcDbCircle
 10
23.06387325647273
 20
21.64420996557487
 30
0.0
 40
0.040000000000258
100
AcDbArc
 50
270.0
 51
274.9754104666012
  0
ARC
  5
136
330
2
100
AcDbEntity
  8
GAIKEI
  6
Continuous
 62
     1
100
AcDbCircle
 10
21.69012325649254
 20
22.2305576348349
 30
0.0
 40
1.71188170060097
100
AcDbArc
 50
7.889886846197844
 51
12.79811206089759
  0
LINE
  5
137
330
2
100
AcDbEntity
  8
GAIKEI
  6
Continuous
 62
     1
100
AcDbLine
 10
23.35947611365253
 20
22.31055765177484
 30
0.0
 11
23.38579739319261
 21
22.31055765283486
 31
0.0
  0
LWPOLYLINE
  5
138
330
2
100
AcDbEntity
  8
GAIKEI
  6
Continuous
 62
     1
100
AcDbPolyline
 90
        5
 70
     0
 43
0.0
 10
23.38579840437268
 20
22.31055770055491
 10
23.39227687685269
 20
22.32301729197491
 10
23.39454112737252
 20
22.35687614493486
 10
23.39227515105262
 20
22.40671249853495
 10
23.3857932428927
 20
22.46554623491488
  0
LINE
  5
139
330
2
100
AcDbEntity
  8
GAIKEI
  6
Continuous
 62
     1
100
AcDbLine
 10
26.87750011937254
 20
25.99427307047483
 30
0.0
 11
26.87837167679271
 21
26.00423501745491
 31
0.0
  0
LINE
  5
13A
330
2
100
AcDbEntity
  8
GAIKEI
  6
Continuous
 62
     1
100
AcDbLine
 10
31.10471187279262
 20
27.0398259346548
 30
0.0
 11
31.13957416989268
 21
27.43830381389489
 31
0.0
  0
LINE
  5
13B
330
2
100
AcDbEntity
  8
GAIKEI
  6
Continuous
 62
     1
100
AcDbLine
 10
30.53064903133276
 20
27.59195984419489
 30
0.0
 11
26.92442422425273
 21
27.90746363295489
 31
0.0
  0
LINE
  5
13C
330
2
100
AcDbEntity
  8
GAIKEI
  6
Continuous
 62
     1
100
AcDbLine
 10
30.94905080453254
 20
27.55535443225483
 30
0.0
 11
30.53064903133276
 21
27.59195984419489
 31
0.0
  0
LINE
  5
13D
330
2
100
AcDbEntity
  8
GAIKEI
  6
Continuous
 62
     1
100
AcDbLine
 10
26.92442422425273
 20
27.90746363295489
 30
0.0
 11
26.8248047544327
 21
27.91617920723479
 31
0.0
  0
LINE
  5
13E
330
2
100
AcDbEntity
  8
GAIKEI
  6
Continuous
 62
     1
100
AcDbLine
 10
31.04867027435256
 20
27.54663885797481
 30
0.0
 11
30.94905080453254
 21
27.55535443225483
 31
0.0
  0
LINE
  5
13F
330
2
100
AcDbEntity
  8
GAIKEI
  6
Continuous
 62
     1
100
AcDbLine
 10
30.1060522970526
 20
27.6291072450149
 30
0.0
 11
30.03255168229265
 21
27.63553771557486
 31
0.0
  0
LINE
  5
140
330
2
100
AcDbEntity
  8
GAIKEI
  6
Continuous
 62
     1
100
AcDbLine
 10
31.02874638039265
 20
27.54838197283482
 30
0.0
 11
30.9552457656327
 21
27.55481244337488
 31
0.0
  0
ARC
  5
141
330
2
100
AcDbEntity
  8
GAIKEI
  6
Continuous
 62
     1
100
AcDbCircle
 10
31.03995470007266
 20
27.4470193881748
 30
0.0
 40
0.0999999999999997
100
AcDbArc
 50
354.9999999999999
 51
84.99999999999998
  0
ARC
  5
142
330
2
100
AcDbEntity
  8
GAIKEI
  6
Continuous
 62
     1
100
AcDbCircle
 10
26.81608918017258
 20
27.81655973741488
 30
0.0
 40
0.1000000000000011
100
AcDbArc
 50
84.99999999999998
 51
175.0
  0
LINE
  5
143
330
2
100
AcDbEntity
  8
GAIKEI
  6
Continuous
 62
     1
100
AcDbLine
 10
26.91822926317258
 20
27.90800562181483
 30
0.0
 11
26.84472864839262
 21
27.9144360923749
 31
0.0
  0
LINE
  5
144
330
2
100
AcDbEntity
  8
GAIKEI
  6
Continuous
 62
     1
100
AcDbLine
 10
26.71646971035256
 20
27.8252753116949
 30
0.0
 11
26.68160741325272
 21
27.42679743245481
 31
0.0
  0
LINE
  5
145
330
2
100
AcDbEntity
  8
GAIKEI
  6
Continuous
 62
     1
100
AcDbLine
 10
19.18653569857264
 20
7.630557625534834
 30
0.0
 11
19.50387325647256
 21
7.630557625534834
 31
0.0
  0
LINE
  5
146
330
2
100
AcDbEntity
  8
GAIKEI
  6
Continuous
 62
     1
100
AcDbLine
 10
19.18354599805269
 20
11.23055762553486
 30
0.0
 11
19.08685224289269
 21
11.23055762553486
 31
0.0
  0
LINE
  5
147
330
2
100
AcDbEntity
  8
GAIKEI
  6
Continuous
 62
     1
100
AcDbLine
 10
19.02387325647254
 20
17.12590582191478
 30
0.0
 11
19.02387325647254
 21
14.93520942915484
 31
0.0
  0
LINE
  5
148
330
2
100
AcDbEntity
  8
GAIKEI
  6
Continuous
 62
     1
100
AcDbLine
 10
19.02387325647254
 20
17.1705576255348
 30
0.0
 11
19.02387325647254
 21
17.12590582191478
 31
0.0
  0
LINE
  5
149
330
2
100
AcDbEntity
  8
GAIKEI
  6
Continuous
 62
     1
100
AcDbLine
 10
19.02387325647254
 20
14.93520942915484
 30
0.0
 11
19.02387325647254
 21
14.89055762553482
 31
0.0
  0
ARC
  5
14A
330
2
100
AcDbEntity
  8
GAIKEI
  6
Continuous
 62
     1
100
AcDbCircle
 10
19.08387325647271
 20
14.89055762553482
 30
0.0
 40
0.06
100
AcDbArc
 50
180.0
 51
270.0
  0
LINE
  5
14B
330
2
100
AcDbEntity
  8
GAIKEI
  6
Continuous
 62
     1
100
AcDbLine
 10
19.08387325647271
 20
17.23055762553485
 30
0.0
 11
19.50387325647256
 21
17.23055762553485
 31
0.0
  0
LINE
  5
14C
330
2
100
AcDbEntity
  8
GAIKEI
  6
Continuous
 62
     1
100
AcDbLine
 10
19.08387325647271
 20
14.83055762553488
 30
0.0
 11
19.50387325647256
 21
14.83055762553488
 31
0.0
  0
LINE
  5
14D
330
2
100
AcDbEntity
  8
GAIKEI
  6
Continuous
 62
     1
100
AcDbLine
 10
19.08387325647271
 20
20.83055762553488
 30
0.0
 11
19.50387325647256
 21
20.83055762553488
 31
0.0
  0
LINE
  5
14E
330
2
100
AcDbEntity
  8
GAIKEI
  6
Continuous
 62
     1
100
AcDbLine
 10
19.50387325647256
 20
22.03055762553481
 30
0.0
 11
19.08387325647271
 21
22.03055762553481
 31
0.0
  0
LINE
  5
14F
330
2
100
AcDbEntity
  8
GAIKEI
  6
Continuous
 62
     1
100
AcDbLine
 10
19.02387325647254
 20
21.9305576255349
 30
0.0
 11
19.02387325647254
 21
20.9305576255349
 31
0.0
  0
LINE
  5
150
330
2
100
AcDbEntity
  8
GAIKEI
  6
Continuous
 62
     1
100
AcDbLine
 10
19.02387325647254
 20
21.97055762553487
 30
0.0
 11
19.02387325647254
 21
21.9305576255349
 31
0.0
  0
LINE
  5
151
330
2
100
AcDbEntity
  8
GAIKEI
  6
Continuous
 62
     1
100
AcDbLine
 10
19.02387325647254
 20
20.9305576255349
 30
0.0
 11
19.02387325647254
 21
20.89055762553483
 31
0.0
  0
LINE
  5
152
330
2
100
AcDbEntity
  8
GAIKEI
  6
Continuous
 62
     1
100
AcDbLine
 10
19.18354599805269
 20
4.630557625534834
 30
0.0
 11
19.08685224289269
 21
4.630557625534834
 31
0.0
  0
ARC
  5
153
330
2
100
AcDbEntity
  8
GAIKEI
  6
Continuous
 62
     1
100
AcDbCircle
 10
22.02956073975264
 20
11.03811021455487
 30
0.0
 40
3.005687483265516
100
AcDbArc
 50
177.4215314454028
 51
180.0
  0
ARC
  5
154
330
2
100
AcDbEntity
  8
GAIKEI
  6
Continuous
 62
     1
100
AcDbCircle
 10
22.02956073975264
 20
4.438110214554853
 30
0.0
 40
3.005687483265516
100
AcDbArc
 50
177.4215314454028
 51
180.0
  0
ARC
  5
155
330
2
100
AcDbEntity
  8
GAIKEI
  6
Continuous
 62
     1
100
AcDbCircle
 10
22.02956073975264
 20
7.838110214554831
 30
0.0
 40
3.005687483265516
100
AcDbArc
 50
180.0
 51
182.8732988082022
  0
ARC
  5
156
330
2
100
AcDbEntity
  8
GAIKEI
  6
Continuous
 62
     1
100
AcDbCircle
 10
19.08759088107257
 20
7.690557621774814
 30
0.0
 40
0.0599999657566698
100
AcDbArc
 50
183.1625666185997
 51
269.9722945507005
  0
ARC
  5
157
330
2
100
AcDbEntity
  8
GAIKEI
  6
Continuous
 62
     1
100
AcDbCircle
 10
19.08759088107257
 20
1.090557621774905
 30
0.0
 40
0.0599999657566689
100
AcDbArc
 50
183.1625666186977
 51
269.9722945507005
  0
ARC
  5
158
330
2
100
AcDbEntity
  8
GAIKEI
  6
Continuous
 62
     1
100
AcDbCircle
 10
22.02956073975264
 20
1.238110214554808
 30
0.0
 40
3.005687483265516
100
AcDbArc
 50
180.0
 51
182.8732988082022
  0
ARC
  5
159
330
2
100
AcDbEntity
  8
GAIKEI
  6
Continuous
 62
     1
100
AcDbCircle
 10
19.0868625982327
 20
4.570557626974846
 30
0.0
 40
0.0599999985560372
100
AcDbArc
 50
90.01268551959677
 51
177.4051289932987
  0
ARC
  5
15A
330
2
100
AcDbEntity
  8
GAIKEI
  6
Continuous
 62
     1
100
AcDbCircle
 10
19.0868625982327
 20
11.17055762697487
 30
0.0
 40
0.0599999985560374
100
AcDbArc
 50
90.01268551940134
 51
177.4051289932008
  0
ARC
  5
15B
330
2
100
AcDbEntity
  8
GAIKEI
  6
Continuous
 62
     1
100
AcDbCircle
 10
19.08387325647271
 20
17.1705576255348
 30
0.0
 40
0.0600000000000003
100
AcDbArc
 50
90.0
 51
180.0
  0
ARC
  5
15C
330
2
100
AcDbEntity
  8
GAIKEI
  6
Continuous
 62
     1
100
AcDbCircle
 10
19.08387325647271
 20
21.97055762553487
 30
0.0
 40
0.06
100
AcDbArc
 50
90.0
 51
180.0
  0
ARC
  5
15D
330
2
100
AcDbEntity
  8
GAIKEI
  6
Continuous
 62
     1
100
AcDbCircle
 10
19.08387325647271
 20
20.89055762553483
 30
0.0
 40
0.0600000000000003
100
AcDbArc
 50
180.0
 51
270.0
  0
LINE
  5
15E
330
2
100
AcDbEntity
  8
GAIKEI
  6
Continuous
 62
     1
100
AcDbLine
 10
19.08757101339273
 20
1.030557625534811
 30
0.0
 11
19.18653569857264
 21
1.030557625534811
 31
0.0
  0
LINE
  5
15F
330
2
100
AcDbEntity
  8
GAIKEI
  6
Continuous
 62
     1
100
AcDbLine
 10
19.18354599805269
 20
11.23055762553486
 30
0.0
 11
19.50387325647256
 21
11.23055762553486
 31
0.0
  0
LINE
  5
160
330
2
100
AcDbEntity
  8
GAIKEI
  6
Continuous
 62
     1
100
AcDbLine
 10
19.08757101339273
 20
7.630557625534834
 30
0.0
 11
19.18653569857264
 21
7.630557625534834
 31
0.0
  0
LINE
  5
161
330
2
100
AcDbEntity
  8
GAIKEI
  6
Continuous
 62
     1
100
AcDbLine
 10
19.18354599805269
 20
4.630557625534834
 30
0.0
 11
19.50387325647256
 21
4.630557625534834
 31
0.0
  0
LINE
  5
162
330
2
100
AcDbEntity
  8
GAIKEI
  6
Continuous
 62
     1
100
AcDbLine
 10
19.02387325647254
 20
4.438110214554853
 30
0.0
 11
19.02387325647254
 21
1.238110214554808
 31
0.0
  0
LINE
  5
163
330
2
100
AcDbEntity
  8
GAIKEI
  6
Continuous
 62
     1
100
AcDbLine
 10
19.18653569857264
 20
1.030557625534811
 30
0.0
 11
19.50387325647256
 21
1.030557625534811
 31
0.0
  0
ARC
  5
164
330
2
100
AcDbEntity
  8
GAIKEI
  6
Continuous
 62
     7
100
AcDbCircle
 10
24.12887325647256
 20
26.33055762553488
 30
0.0
 40
4.625000000000167
100
AcDbArc
 50
148.6045467001983
 51
166.9389758852025
  0
ARC
  5
165
330
2
100
AcDbEntity
  8
GAIKEI
  6
Continuous
 62
     7
100
AcDbCircle
 10
24.12887325647256
 20
-3.869442374465165
 30
0.0
 40
4.624999999999908
100
AcDbArc
 50
193.0610241147974
 51
211.3954532998016
  0
ARC
  5
166
330
2
100
AcDbEntity
  8
GAIKEI
  6
Continuous
 62
     7
100
AcDbCircle
 10
20.35172804031271
 20
-6.174610267685125
 30
0.0
 40
0.1999999999999995
100
AcDbArc
 50
211.3954532998016
 51
268.0000000000028
  0
ARC
  5
167
330
2
100
AcDbEntity
  8
GAIKEI
  6
Continuous
 62
     7
100
AcDbCircle
 10
20.35172804031271
 20
28.63572551875484
 30
0.0
 40
0.1999999999999971
100
AcDbArc
 50
91.99999999999722
 51
148.6045467001983
  0
ARC
  5
168
330
2
100
AcDbEntity
  8
GAIKEI
  6
Continuous
 62
     7
100
AcDbCircle
 10
24.12887325647256
 20
26.33055762553488
 30
0.0
 40
4.624999999999988
100
AcDbArc
 50
166.9389758852025
 51
180.0
  0
ARC
  5
169
330
2
100
AcDbEntity
  8
GAIKEI
  6
Continuous
 62
     7
100
AcDbCircle
 10
24.12887325647256
 20
-3.869442374465165
 30
0.0
 40
4.625000000000014
100
AcDbArc
 50
180.0
 51
193.0610241147974
  0
LINE
  5
16A
330
2
100
AcDbEntity
  8
GAIKEI
  6
Continuous
 62
     1
100
AcDbLine
 10
19.61327528942542
 20
27.33055762553488
 30
0.0
 11
22.96393417377266
 21
27.33055762553488
 31
0.0
  0
LINE
  5
16B
330
2
100
AcDbEntity
  8
GAIKEI
  6
Continuous
 62
     1
100
AcDbLine
 10
22.96393417377266
 20
-4.869442374465165
 30
0.0
 11
19.61327528942542
 21
-4.869442374465165
 31
0.0
  0
LINE
  5
16C
330
2
100
AcDbEntity
  8
GAIKEI
  6
Continuous
 62
     7
100
AcDbLine
 10
20.34474814097251
 20
-6.374488433085161
 30
0.0
 11
22.96393417377266
 21
-6.4659524247852
 31
0.0
  0
LINE
  5
16D
330
2
100
AcDbEntity
  8
GAIKEI
  6
Continuous
 62
     7
100
AcDbLine
 10
22.96393417377266
 20
28.92706767587481
 30
0.0
 11
20.34474814097251
 21
28.83560368415487
 31
0.0
  0
LINE
  5
16E
330
2
100
AcDbEntity
  8
GAIKEI
  6
Continuous
 62
     7
100
AcDbLine
 10
23.06387325647273
 20
28.83055762553488
 30
0.0
 11
22.96393417377266
 21
28.92706767587481
 31
0.0
  0
LINE
  5
16F
330
2
100
AcDbEntity
  8
GAIKEI
  6
Continuous
 62
     1
100
AcDbLine
 10
23.06387325647273
 20
27.33055762553488
 30
0.0
 11
22.96393417377266
 21
27.33055762553488
 31
0.0
  0
LINE
  5
170
330
2
100
AcDbEntity
  8
GAIKEI
  6
Continuous
 62
     7
100
AcDbLine
 10
23.0638732564725
 20
-6.369442374465165
 30
0.0
 11
22.96393417377266
 21
-6.4659524247852
 31
0.0
  0
LINE
  5
171
330
2
100
AcDbEntity
  8
GAIKEI
  6
Continuous
 62
     1
100
AcDbLine
 10
23.0638732564725
 20
-4.869442374465165
 30
0.0
 11
22.96393417377266
 21
-4.869442374465165
 31
0.0
  0
LINE
  5
172
330
2
100
AcDbEntity
  8
GAIKEI
  6
Continuous
 62
     7
100
AcDbLine
 10
19.50387325647256
 20
26.33055762553488
 30
0.0
 11
19.50387325647256
 21
-3.869442374465165
 31
0.0
  0
LINE
  5
173
330
2
100
AcDbEntity
  8
GAIKEI
  6
Continuous
 62
     7
100
AcDbLine
 10
23.06387325647273
 20
27.7433081588149
 30
0.0
 11
23.06387325647273
 21
28.83055762553488
 31
0.0
  0
LINE
  5
174
330
2
100
AcDbEntity
  8
GAIKEI
  6
Continuous
 62
     7
100
AcDbLine
 10
23.06387325647273
 20
-5.12407869480512
 30
0.0
 11
23.06387325647273
 21
27.7433081588149
 31
0.0
  0
LINE
  5
175
330
2
100
AcDbEntity
  8
GAIKEI
  6
Continuous
 62
     7
100
AcDbLine
 10
23.0638732564725
 20
-6.369442374465165
 30
0.0
 11
23.06387325647273
 21
-5.12407869480512
 31
0.0
  0
ARC
  5
176
330
2
100
AcDbEntity
  8
GAIKEI
  6
Continuous
 62
     1
100
AcDbCircle
 10
22.58723816943274
 20
28.58806419561484
 30
0.0
 40
0.5
100
AcDbArc
 50
43.27366000040284
 51
141.3602412391
  0
LINE
  5
177
330
2
100
AcDbEntity
  8
GAIKEI
  6
Continuous
 62
     1
100
AcDbLine
 10
22.30829461929255
 20
29.4155244640549
 30
0.0
 11
23.00563090795271
 21
29.3545154441149
 31
0.0
  0
ARC
  5
178
330
2
100
AcDbEntity
  8
GAIKEI
  6
Continuous
 62
     1
100
AcDbCircle
 10
22.25600117365269
 20
28.81780764519488
 30
0.0
 40
0.6000000000000001
100
AcDbArc
 50
84.99999999999998
 51
173.9051865722004
  0
ARC
  5
179
330
2
100
AcDbEntity
  8
GAIKEI
  6
Continuous
 62
     1
100
AcDbCircle
 10
22.95333746231262
 20
28.75679862527488
 30
0.0
 40
0.600000000000001
100
AcDbArc
 50
0.7391704773002367
 51
84.99999999999998
  0
LINE
  5
17A
330
2
100
AcDbEntity
  8
GAIKEI
  6
Continuous
 62
     7
100
AcDbLine
 10
29.78256289993254
 20
-3.906130256185178
 30
0.0
 11
29.87434749155267
 21
-2.857027573245204
 31
0.0
  0
ARC
  5
17B
330
2
100
AcDbEntity
  8
GAIKEI
  6
Continuous
 62
     7
100
AcDbCircle
 10
29.5829254824327
 20
-3.888664245345125
 30
0.0
 40
0.2003999999999996
100
AcDbArc
 50
278.9999999999988
 51
354.9999999999999
  0
LINE
  5
17C
330
2
100
AcDbEntity
  8
GAIKEI
  6
Continuous
 62
     7
100
AcDbLine
 10
23.06387325647273
 20
-5.12407869480512
 30
0.0
 11
29.6142749492264
 21
-4.086596988798191
 31
0.0
  0
LINE
  5
17D
330
2
100
AcDbEntity
  8
GAIKEI
  6
Continuous
 62
     1
100
AcDbLine
 10
29.87760387128168
 20
-2.819806982656018
 30
0.0
 11
23.0638732564725
 21
-3.898995892605171
 31
0.0
  0
LINE
  5
17E
330
2
100
AcDbEntity
  8
GAIKEI
  6
Continuous
 62
     1
100
AcDbLine
 10
32.3574425163003
 20
25.52487843233519
 30
0.0
 11
23.06387325647273
 21
26.33796038625485
 31
0.0
  0
LINE
  5
17F
330
2
100
AcDbEntity
  8
GAIKEI
  6
Continuous
 62
     7
100
AcDbLine
 10
23.06387325647273
 20
27.7433081588149
 30
0.0
 11
32.24037382861269
 21
26.94046838791485
 31
0.0
  0
LINE
  5
180
330
2
100
AcDbEntity
  8
GAIKEI
  6
Continuous
 62
     7
100
AcDbLine
 10
29.87438235385269
 20
-2.856629095365178
 30
0.0
 11
32.46199454531274
 21
26.71991359217486
 31
0.0
  0
LINE
  5
181
330
2
100
AcDbEntity
  8
GAIKEI
  6
Continuous
 62
     7
100
AcDbLine
 10
32.24037382861269
 20
26.94046838791485
 30
0.0
 11
32.27982313865272
 21
26.93701702051487
 31
0.0
  0
ARC
  5
182
330
2
100
AcDbEntity
  8
GAIKEI
  6
Continuous
 62
     7
100
AcDbCircle
 10
32.26235712781266
 20
26.7373796030148
 30
0.0
 40
0.2004000000000004
100
AcDbArc
 50
354.9999999999999
 51
84.99999999999998
  0
LINE
  5
183
330
2
100
AcDbEntity
  8
GAIKEI
  6
Continuous
 62
     1
100
AcDbLine
 10
19.28367325647258
 20
22.03055762553481
 30
0.0
 11
19.28367325647258
 21
22.63055762553483
 31
0.0
  0
LINE
  5
184
330
2
100
AcDbEntity
  8
GAIKEI
  6
Continuous
 62
     1
100
AcDbLine
 10
19.28367325647258
 20
20.23055762553486
 30
0.0
 11
19.28367325647258
 21
20.83055762553488
 31
0.0
  0
LINE
  5
185
330
2
100
AcDbEntity
  8
GAIKEI
  6
Continuous
 62
     1
100
AcDbLine
 10
18.80297526655266
 20
22.61377128183483
 30
0.0
 11
19.28367325647258
 21
22.63055762553483
 31
0.0
  0
LWPOLYLINE
  5
186
330
2
100
AcDbEntity
  8
GAIKEI
  6
Continuous
 62
     1
100
AcDbPolyline
 90
        9
 70
     0
 43
0.0
 10
17.2479277776726
 20
22.53442231133488
 10
17.22461896759267
 20
22.50943817677489
 10
17.20548343157264
 20
22.48623888661484
 10
17.19245690845258
 20
22.46600770065493
 10
17.18765517471268
 20
22.45049657951495
 10
17.19242433405264
 20
22.44140105723488
 10
17.20541944827272
 20
22.43882726365484
 10
17.22454235575259
 20
22.4419470214749
 10
17.24792777765259
 20
22.44959889857489
  0
LWPOLYLINE
  5
187
330
2
100
AcDbEntity
  8
GAIKEI
  6
Continuous
 62
     1
100
AcDbPolyline
 90
        9
 70
     0
 43
0.0
 10
17.2479277776726
 20
22.41415531995494
 10
17.22461896759267
 20
22.38378125083489
 10
17.20548343157264
 20
22.35349845169492
 10
17.19245690845258
 20
22.32432047429484
 10
17.18765517471268
 20
22.29821664819485
 10
17.19242433405264
 20
22.27753890283486
 10
17.20541944827272
 20
22.26336211185492
 10
17.22454235575259
 20
22.25546127915493
 10
17.24792777765259
 20
22.25281160105487
  0
LWPOLYLINE
  5
188
330
2
100
AcDbEntity
  8
GAIKEI
  6
Continuous
 62
     1
100
AcDbPolyline
 90
        9
 70
     0
 43
0.0
 10
17.2479277776726
 20
21.90597441569491
 10
17.22461896759267
 20
21.87397671831491
 10
17.20548343157264
 20
21.83882299307493
 10
17.19245690845258
 20
21.80091605899486
 10
17.18765517471268
 20
21.76207926069492
 10
17.19242433405264
 20
21.7252449320149
 10
17.20541944827272
 20
21.6930252576949
 10
17.22454235575259
 20
21.66640647711495
 10
17.24792777765259
 20
21.64491479467494
  0
LWPOLYLINE
  5
189
330
2
100
AcDbEntity
  8
GAIKEI
  6
Continuous
 62
     1
100
AcDbPolyline
 90
        9
 70
     0
 43
0.0
 10
17.2479277776726
 20
22.19760693311491
 10
17.22461896759267
 20
22.1648161549349
 10
17.20548343157264
 20
22.13041413821486
 10
17.19245690845258
 20
22.09514551307484
 10
17.18765517471268
 20
22.06100420641485
 10
17.19242433405264
 20
22.03076831975488
 10
17.20541944827272
 20
22.00637625445484
 10
17.22454235575259
 20
21.9882282197749
 10
17.24792777765259
 20
21.97553635545489
  0
ARC
  5
18A
330
2
100
AcDbEntity
  8
GAIKEI
  6
Continuous
 62
     1
100
AcDbCircle
 10
17.37602530645262
 20
21.4305576255349
 30
0.0
 40
0.1877385446597429
100
AcDbArc
 50
133.0251050017011
 51
226.9748949981976
  0
LWPOLYLINE
  5
18B
330
2
100
AcDbEntity
  8
GAIKEI
  6
Continuous
 62
     1
100
AcDbPolyline
 90
        9
 70
     0
 43
0.0
 10
17.2479277776726
 20
21.21620045641487
 10
17.22461896759267
 20
21.1948011636149
 10
17.20548343157264
 20
21.16820404049486
 10
17.19245690845258
 20
21.13604731013493
 10
17.18765517471268
 20
21.09931187657492
 10
17.19242433405264
 20
21.06039042615487
 10
17.20541944827272
 20
21.02243468899485
 10
17.22454235575259
 20
20.98726542999486
 10
17.24792777765259
 20
20.9551408353949
  0
LWPOLYLINE
  5
18C
330
2
100
AcDbEntity
  8
GAIKEI
  6
Continuous
 62
     1
100
AcDbPolyline
 90
        9
 70
     0
 43
0.0
 10
17.2479277776726
 20
20.88557889563492
 10
17.22461896759267
 20
20.87294748093496
 10
17.20548343157264
 20
20.85482108859492
 10
17.19245690845258
 20
20.83049000091489
 10
17.18765517471268
 20
20.80034572747491
 10
17.19242433405264
 20
20.76613989941484
 10
17.20541944827272
 20
20.73083719419492
 10
17.22454235575259
 20
20.69642518307489
 10
17.24792777765259
 20
20.6635083179749
  0
LWPOLYLINE
  5
18D
330
2
100
AcDbEntity
  8
GAIKEI
  6
Continuous
 62
     1
100
AcDbPolyline
 90
        9
 70
     0
 43
0.0
 10
17.2479277776726
 20
20.41151635249491
 10
17.22461896759267
 20
20.41915075323493
 10
17.20548343157264
 20
20.4222859765149
 10
17.19245690845258
 20
20.41975209789484
 10
17.18765517471268
 20
20.41070831241484
 10
17.19242433405264
 20
20.39518928997495
 10
17.20541944827272
 20
20.37496171017483
 10
17.22454235575259
 20
20.35176580129485
 10
17.24792777765259
 20
20.32669293975494
  0
LWPOLYLINE
  5
18E
330
2
100
AcDbEntity
  8
GAIKEI
  6
Continuous
 62
     1
100
AcDbPolyline
 90
        9
 70
     0
 43
0.0
 10
17.2479277776726
 20
20.60830365001493
 10
17.22461896759267
 20
20.60567656429487
 10
17.20548343157264
 20
20.5977952403149
 10
17.19245690845258
 20
20.58367149171488
 10
17.18765517471268
 20
20.56306910991486
 10
17.19242433405264
 20
20.53692720895492
 10
17.20541944827272
 20
20.50773321045495
 10
17.22454235575259
 20
20.47744693461493
 10
17.24792777765259
 20
20.44695993113487
  0
POLYLINE
  5
18F
330
2
100
AcDbEntity
  8
GAIKEI
  6
Continuous
 62
     1
100
AcDb3dPolyline
 66
     1
 10
0.0
 20
0.0
 30
0.0
 70
     8
  0
VERTEX
  5
190
330
18F
100
AcDbEntity
  8
GAIKEI
  6
Continuous
 62
     1
100
AcDbVertex
100
AcDb3dPolylineVertex
 10
17.18886427795263
 20
20.3573237749149
 30
0.0
 70
    32
  0
VERTEX
  5
191
330
18F
100
AcDbEntity
  8
GAIKEI
  6
Continuous
 62
     1
100
AcDbVertex
100
AcDb3dPolylineVertex
 10
17.18765517471268
 20
20.3581774713748
 30
0.0
 70
    32
  0
VERTEX
  5
192
330
18F
100
AcDbEntity
  8
GAIKEI
  6
Continuous
 62
     1
100
AcDbVertex
100
AcDb3dPolylineVertex
 10
17.18765511595251
 20
20.35817751315483
 30
0.0
 70
    32
  0
SEQEND
  5
193
330
18F
100
AcDbEntity
  8
GAIKEI
  6
Continuous
 62
     1
  0
LWPOLYLINE
  5
194
330
2
100
AcDbEntity
  8
GAIKEI
  6
Continuous
 62
     1
100
AcDbPolyline
 90
        3
 70
     0
 43
0.0
 10
17.2479277776726
 20
20.31447991487494
 10
17.20548343157264
 20
20.34547336675485
 10
17.18886427795263
 20
20.3573237749149
  0
ARC
  5
195
330
2
100
AcDbEntity
  8
GAIKEI
  6
Continuous
 62
     1
100
AcDbCircle
 10
17.26100752123256
 20
20.32949690781482
 30
0.0
 40
0.019999999999982
100
AcDbArc
 50
233.3444208536999
 51
267.9231430398997
  0
ARC
  5
196
330
2
100
AcDbEntity
  8
GAIKEI
  6
Continuous
 62
     1
100
AcDbCircle
 10
17.26086322792111
 20
22.53160116093557
 30
0.0
 40
0.0200124658447569
100
AcDbArc
 50
91.66222955143757
 51
124.2841903656142
  0
LINE
  5
197
330
2
100
AcDbEntity
  8
GAIKEI
  6
Continuous
 62
     1
100
AcDbLine
 10
19.28367325647258
 20
22.38055762553484
 30
0.0
 11
19.50387325647256
 21
22.37671402023488
 31
0.0
  0
ARC
  5
198
330
2
100
AcDbEntity
  8
GAIKEI
  6
Continuous
 62
     1
100
AcDbCircle
 10
15.57047587554819
 20
24.78892655596235
 30
0.0
 40
2.800100886893339
100
AcDbArc
 50
305.2936141479971
 51
306.8457009343224
  0
ARC
  5
199
330
2
100
AcDbEntity
  8
GAIKEI
  6
Continuous
 62
     1
100
AcDbCircle
 10
15.86311884185255
 20
18.48419694931488
 30
0.0
 40
2.294725864474629
100
AcDbArc
 50
54.14376454979858
 51
54.69948539139973
  0
ARC
  5
19A
330
2
100
AcDbEntity
  8
GAIKEI
  6
Continuous
 62
     1
100
AcDbCircle
 10
24.33367325647254
 20
21.4305576255349
 30
0.0
 40
7.25000000000003
100
AcDbArc
 50
171.6857939205024
 51
188.3142060794975
  0
LINE
  5
19B
330
2
100
AcDbEntity
  8
GAIKEI
  6
Continuous
 62
     1
100
AcDbLine
 10
17.18828080949259
 20
20.35763661017484
 30
0.0
 11
17.1598709988927
 21
20.38219644301489
 31
0.0
  0
LINE
  5
19C
330
2
100
AcDbEntity
  8
GAIKEI
  6
Continuous
 62
     1
100
AcDbLine
 10
19.28367325647258
 20
20.23055762553486
 30
0.0
 11
18.80297526655266
 21
20.24734396923486
 31
0.0
  0
LWPOLYLINE
  5
19D
330
2
100
AcDbEntity
  8
GAIKEI
  6
Continuous
 62
     1
100
AcDbPolyline
 90
        3
 70
     0
 43
0.0
 10
17.2479277776726
 20
22.44959889857489
 10
17.25370301531251
 20
22.45276007197492
 10
17.26030953129265
 20
22.45400109273487
  0
LINE
  5
19E
330
2
100
AcDbEntity
  8
GAIKEI
  6
Continuous
 62
     1
100
AcDbLine
 10
17.1598709988927
 20
22.4789188080548
 30
0.0
 11
17.18828080949259
 21
22.50347864089485
 31
0.0
  0
LINE
  5
19F
330
2
100
AcDbEntity
  8
GAIKEI
  6
Continuous
 62
     1
100
AcDbLine
 10
17.19038467595254
 20
20.35612799893488
 30
0.0
 11
17.18916049933267
 21
20.35699707633489
 31
0.0
  0
LINE
  5
1A0
330
2
100
AcDbEntity
  8
GAIKEI
  6
Continuous
 62
     1
100
AcDbLine
 10
19.50387325647256
 20
20.48440123083481
 30
0.0
 11
19.28367325647258
 21
20.48055762553486
 31
0.0
  0
LWPOLYLINE
  5
1A1
330
2
100
AcDbEntity
  8
GAIKEI
  6
Continuous
 62
     1
100
AcDbPolyline
 90
        3
 70
     0
 43
0.0
 10
18.76437124641273
 20
20.35050870103487
 10
18.38182737961273
 20
20.36500881163488
 10
17.26030953145272
 20
20.40711415833493
  0
LWPOLYLINE
  5
1A2
330
2
100
AcDbEntity
  8
GAIKEI
  6
Continuous
 62
     1
100
AcDbPolyline
 90
        3
 70
     0
 43
0.0
 10
17.26030953129265
 20
20.40711415833493
 10
17.25370301531251
 20
20.40835517911489
 10
17.2479277776726
 20
20.41151635249491
  0
LWPOLYLINE
  5
1A3
330
2
100
AcDbEntity
  8
GAIKEI
  6
Continuous
 62
     1
100
AcDbPolyline
 90
        3
 70
     0
 43
0.0
 10
17.26030953129265
 20
20.44271085097489
 10
17.25370301531251
 20
20.44390870743484
 10
17.2479277776726
 20
20.44695993111486
  0
ARC
  5
1A4
330
2
100
AcDbEntity
  8
GAIKEI
  6
Continuous
 62
     1
100
AcDbCircle
 10
-5.405018782427589
 20
-772.964152634185
 30
0.0
 40
794.1708729762074
100
AcDbArc
 50
88.25602027819948
 51
88.36457864010204
  0
LWPOLYLINE
  5
1A5
330
2
100
AcDbEntity
  8
GAIKEI
  6
Continuous
 62
     1
100
AcDbPolyline
 90
        3
 70
     0
 43
0.0
 10
17.26030953129265
 20
20.60475156459483
 10
17.25370301531251
 20
20.60575293155489
 10
17.2479277776726
 20
20.60830365001493
  0
LWPOLYLINE
  5
1A6
330
2
100
AcDbEntity
  8
GAIKEI
  6
Continuous
 62
     1
100
AcDbPolyline
 90
        3
 70
     0
 43
0.0
 10
17.26030953129265
 20
20.88322462181486
 10
17.25370301531251
 20
20.88388831419491
 10
17.2479277776726
 20
20.88557889563492
  0
LWPOLYLINE
  5
1A7
330
2
100
AcDbEntity
  8
GAIKEI
  6
Continuous
 62
     1
100
AcDbPolyline
 90
        3
 70
     0
 43
0.0
 10
17.26030953129265
 20
20.95308706475487
 10
17.25370301531251
 20
20.95366604239484
 10
17.2479277776726
 20
20.95514083537489
  0
ARC
  5
1A8
330
2
100
AcDbEntity
  8
GAIKEI
  6
Continuous
 62
     1
100
AcDbCircle
 10
11.53863039759238
 20
-619.6575006109052
 30
0.0
 40
641.2514251550255
100
AcDbArc
 50
89.35436678980213
 51
89.48876150080101
  0
LWPOLYLINE
  5
1A9
330
2
100
AcDbEntity
  8
GAIKEI
  6
Continuous
 62
     1
100
AcDbPolyline
 90
        3
 70
     0
 43
0.0
 10
17.26030953129265
 20
21.21527444693493
 10
17.25370301531251
 20
21.21553549789485
 10
17.2479277776726
 20
21.21620045641487
  0
LWPOLYLINE
  5
1AA
330
2
100
AcDbEntity
  8
GAIKEI
  6
Continuous
 62
     1
100
AcDbPolyline
 90
        3
 70
     0
 43
0.0
 10
17.2479277776726
 20
21.64491479465494
 10
17.25370301531251
 20
21.64557975317484
 10
17.26030953129265
 20
21.64584080413488
  0
LWPOLYLINE
  5
1AB
330
2
100
AcDbEntity
  8
GAIKEI
  6
Continuous
 62
     1
100
AcDbPolyline
 90
        3
 70
     0
 43
0.0
 10
17.2479277776726
 20
21.56780479043494
 10
17.25370301531251
 20
21.56823054561494
 10
17.26030953129265
 20
21.5683976895549
  0
ARC
  5
1AC
330
2
100
AcDbEntity
  8
GAIKEI
  6
Continuous
 62
     1
100
AcDbCircle
 10
28.4382951771924
 20
-769.8065942249652
 30
0.0
 40
792.0863909977691
100
AcDbArc
 50
90.69978325510211
 51
90.80858940119908
  0
LWPOLYLINE
  5
1AD
330
2
100
AcDbEntity
  8
GAIKEI
  6
Continuous
 62
     1
100
AcDbPolyline
 90
        3
 70
     0
 43
0.0
 10
17.2479277776726
 20
21.90597441569491
 10
17.25370301531251
 20
21.90744920867485
 10
17.26030953129265
 20
21.90802818631494
  0
LWPOLYLINE
  5
1AE
330
2
100
AcDbEntity
  8
GAIKEI
  6
Continuous
 62
     1
100
AcDbPolyline
 90
        3
 70
     0
 43
0.0
 10
17.2479277776726
 20
22.25281160105487
 10
17.25370301531251
 20
22.25536231951492
 10
17.26030953129265
 20
22.25636368647486
  0
LWPOLYLINE
  5
1AF
330
2
100
AcDbEntity
  8
GAIKEI
  6
Continuous
 62
     1
100
AcDbPolyline
 90
        3
 70
     0
 43
0.0
 10
17.2479277776726
 20
22.19760693311491
 10
17.25370301531251
 20
22.19998640087488
 10
17.26030953129265
 20
22.20092053785493
  0
LINE
  5
1B0
330
2
100
AcDbEntity
  8
GAIKEI
  6
Continuous
 62
     1
100
AcDbLine
 10
18.76437124641273
 20
22.51089073973481
 30
0.0
 11
18.76437124641273
 21
22.51060655003482
 31
0.0
  0
LWPOLYLINE
  5
1B1
330
2
100
AcDbEntity
  8
GAIKEI
  6
Continuous
 62
     1
100
AcDbPolyline
 90
        3
 70
     0
 43
0.0
 10
18.76437124641273
 20
22.58641158765488
 10
18.38182737961273
 20
22.57450519485485
 10
17.26030953145272
 20
22.53919093731486
  0
LWPOLYLINE
  5
1B2
330
2
100
AcDbEntity
  8
GAIKEI
  6
Continuous
 62
     1
100
AcDbPolyline
 90
        3
 70
     0
 43
0.0
 10
17.2479277776726
 20
22.41415531995494
 10
17.25370301531251
 20
22.41720654363485
 10
17.26030953129265
 20
22.41840440009491
  0
LINE
  5
1B3
330
2
100
AcDbEntity
  8
GAIKEI
  6
Continuous
 62
     1
100
AcDbLine
 10
17.26028387655259
 20
22.55160482405484
 30
0.0
 11
17.26030953129265
 21
22.55145672167487
 31
0.0
  0
LWPOLYLINE
  5
1B4
330
2
100
AcDbEntity
  8
GAIKEI
  6
Continuous
 62
     1
100
AcDbPolyline
 90
        3
 70
     0
 43
0.0
 10
17.2479277776726
 20
22.53442231133488
 10
17.25370301531251
 20
22.53784661589486
 10
17.26030953129265
 20
22.53919093731486
  0
LINE
  5
1B5
330
2
100
AcDbEntity
  8
GAIKEI
  6
Continuous
 62
     1
100
AcDbLine
 10
17.2479277776726
 20
22.54689122762215
 30
0.0
 11
17.2479277776726
 21
22.53442231133488
 31
0.0
  0
LINE
  5
1B6
330
2
100
AcDbEntity
  8
GAIKEI
  6
Continuous
 62
     1
100
AcDbLine
 10
17.26030953129265
 20
22.55145672167487
 30
0.0
 11
18.76437124641273
 21
22.60604133671484
 31
0.0
  0
LWPOLYLINE
  5
1B7
330
2
100
AcDbEntity
  8
GAIKEI
  6
Continuous
 62
     1
100
AcDbPolyline
 90
        4
 70
     0
 43
0.0
 10
18.80297526655266
 20
22.61250361861494
 10
18.79638706979261
 20
22.60955970859493
 10
18.78420609859262
 20
22.60753916729493
 10
18.76437124643274
 20
22.60604133671495
  0
LINE
  5
1B8
330
2
100
AcDbEntity
  8
GAIKEI
  6
Continuous
 62
     1
100
AcDbLine
 10
18.80297526655266
 20
22.61377128183483
 30
0.0
 11
18.80297526655266
 21
22.61250361861482
 31
0.0
  0
LINE
  5
1B9
330
2
100
AcDbEntity
  8
GAIKEI
  6
Continuous
 62
     1
100
AcDbLine
 10
17.2479277776726
 20
22.44959889857489
 30
0.0
 11
17.2479277776726
 21
22.41415531995483
 31
0.0
  0
LWPOLYLINE
  5
1BA
330
2
100
AcDbEntity
  8
GAIKEI
  6
Continuous
 62
     1
100
AcDbPolyline
 90
        3
 70
     0
 43
0.0
 10
17.26030953129265
 20
22.45400109273487
 10
17.75144623189266
 20
22.47237131995484
 10
18.76437124627267
 20
22.51060655003493
  0
LWPOLYLINE
  5
1BB
330
2
100
AcDbEntity
  8
GAIKEI
  6
Continuous
 62
     1
100
AcDbPolyline
 90
        7
 70
     0
 43
0.0
 10
18.80297526655266
 20
22.53773451163488
 10
18.80176570785255
 20
22.52991930355495
 10
18.79638706979261
 20
22.52188813307487
 10
18.79129454257253
 20
22.51796423981489
 10
18.78420609859262
 20
22.51448622955491
 10
18.77500581269254
 20
22.51186588545488
 10
18.76437124643274
 20
22.51060655003493
  0
LINE
  5
1BC
330
2
100
AcDbEntity
  8
GAIKEI
  6
Continuous
 62
     1
100
AcDbLine
 10
18.80297526655266
 20
22.53773451163488
 30
0.0
 11
18.80297526655266
 21
22.57157561667487
 31
0.0
  0
LWPOLYLINE
  5
1BD
330
2
100
AcDbEntity
  8
GAIKEI
  6
Continuous
 62
     1
100
AcDbPolyline
 90
        6
 70
     0
 43
0.0
 10
18.76437124641273
 20
22.58641158765488
 10
18.7749516243727
 20
22.58630498215485
 10
18.78413772403263
 20
22.58539158005488
 10
18.79631795477274
 20
22.58185835073494
 10
18.80171922277253
 20
22.57707795531485
 10
18.80297526655266
 20
22.57157561667487
  0
LINE
  5
1BE
330
2
100
AcDbEntity
  8
GAIKEI
  6
Continuous
 62
     1
100
AcDbLine
 10
17.2479277776726
 20
22.25281160105487
 30
0.0
 11
17.2479277776726
 21
22.1976069331148
 31
0.0
  0
ARC
  5
1BF
330
2
100
AcDbEntity
  8
GAIKEI
  6
Continuous
 62
     1
100
AcDbCircle
 10
-22.54019903732711
 20
1171.253517769555
 30
0.0
 40
1149.686279196775
100
AcDbArc
 50
271.9838950330977
 51
272.0588981492012
  0
LWPOLYLINE
  5
1C0
330
2
100
AcDbEntity
  8
GAIKEI
  6
Continuous
 62
     1
100
AcDbPolyline
 90
        8
 70
     0
 43
0.0
 10
18.80297526655266
 20
22.35458721689486
 10
18.80176570785255
 20
22.34095758037495
 10
18.79976158269272
 20
22.33413937273486
 10
18.79638706979261
 20
22.32738952373484
 10
18.79129454257253
 20
22.32093380951494
 10
18.78420609859262
 20
22.31533080789495
 10
18.77500581269254
 20
22.31124106231494
 10
18.76437124643274
 20
22.3094490494949
  0
LINE
  5
1C1
330
2
100
AcDbEntity
  8
GAIKEI
  6
Continuous
 62
     1
100
AcDbLine
 10
18.80297526655266
 20
22.35458721689486
 30
0.0
 11
18.80297526655266
 21
22.41895682383483
 31
0.0
  0
LINE
  5
1C2
330
2
100
AcDbEntity
  8
GAIKEI
  6
Continuous
 62
     1
100
AcDbLine
 10
17.2479277776726
 20
21.97553635543489
 30
0.0
 11
17.2479277776726
 21
21.9059744156948
 31
0.0
  0
LWPOLYLINE
  5
1C3
330
2
100
AcDbEntity
  8
GAIKEI
  6
Continuous
 62
     1
100
AcDbPolyline
 90
        8
 70
     0
 43
0.0
 10
18.76437124641273
 20
22.4536387994749
 10
18.7749516243727
 20
22.4528377508949
 10
18.78413772403263
 20
22.45020901687485
 10
18.79124430549262
 20
22.44625377481487
 10
18.79631795477274
 20
22.44147574663486
 10
18.79968984835267
 20
22.43623415811487
 10
18.80171922277253
 20
22.43067270777487
 10
18.80297526655266
 20
22.41895682383495
  0
ARC
  5
1C4
330
2
100
AcDbEntity
  8
GAIKEI
  6
Continuous
 62
     1
100
AcDbCircle
 10
43.54134380357248
 20
-1067.328451178745
 30
0.0
 40
1090.063714654512
100
AcDbArc
 50
91.30243600049759
 51
91.38151398190052
  0
LINE
  5
1C5
330
2
100
AcDbEntity
  8
GAIKEI
  6
Continuous
 62
     1
100
AcDbLine
 10
18.80297526655266
 20
22.08098946765483
 30
0.0
 11
18.80297526655266
 21
22.16958663087485
 31
0.0
  0
LINE
  5
1C6
330
2
100
AcDbEntity
  8
GAIKEI
  6
Continuous
 62
     1
100
AcDbLine
 10
17.2479277776726
 20
21.64491479465482
 30
0.0
 11
17.2479277776726
 21
21.56780479043482
 31
0.0
  0
ARC
  5
1C7
330
2
100
AcDbEntity
  8
GAIKEI
  6
Continuous
 62
     1
100
AcDbCircle
 10
-6.585328417007133
 20
855.8365909550747
 30
0.0
 40
834.1995843670982
100
AcDbArc
 50
271.6380259239027
 51
271.7413751578011
  0
LWPOLYLINE
  5
1C8
330
2
100
AcDbEntity
  8
GAIKEI
  6
Continuous
 62
     1
100
AcDbPolyline
 90
        8
 70
     0
 43
0.0
 10
18.80297526655266
 20
22.08098946765495
 10
18.80176570785255
 20
22.06287956649487
 10
18.79976158269272
 20
22.0539128728949
 10
18.79638706979261
 20
22.0451027595949
 10
18.79129454257253
 20
22.03674715473494
 10
18.78420609859262
 20
22.02956762255485
 10
18.77500581269254
 20
22.02440880829488
 10
18.76437124643274
 20
22.02225953279492
  0
LWPOLYLINE
  5
1C9
330
2
100
AcDbEntity
  8
GAIKEI
  6
Continuous
 62
     1
100
AcDbPolyline
 90
        8
 70
     0
 43
0.0
 10
18.76437124641273
 20
22.22071969775493
 10
18.7749516243727
 20
22.21930261833495
 10
18.78413772403263
 20
22.21521587117491
 10
18.79124430549262
 20
22.20923988023492
 10
18.79631795477274
 20
22.20213743335489
 10
18.79968984835267
 20
22.19444472917485
 10
18.80171922277253
 20
22.18636922777489
 10
18.80297526655266
 20
22.16958663089485
  0
ARC
  5
1CA
330
2
100
AcDbEntity
  8
GAIKEI
  6
Continuous
 62
     1
100
AcDbCircle
 10
3.26037243229274
 20
730.3284260143747
 30
0.0
 40
708.8208552371002
100
AcDbArc
 50
271.1317238553972
 51
271.2533273228982
  0
LWPOLYLINE
  5
1CB
330
2
100
AcDbEntity
  8
GAIKEI
  6
Continuous
 62
     1
100
AcDbPolyline
 90
        8
 70
     0
 43
0.0
 10
18.80297526655266
 20
21.74372291789484
 10
18.80176570785255
 20
21.7229054753949
 10
18.79976158269272
 20
21.71266801825493
 10
18.79638706979261
 20
21.70266003595486
 10
18.79129454257253
 20
21.69322244525495
 10
18.78420609859262
 20
21.6851691651749
 10
18.77500581269254
 20
21.6794462629149
 10
18.76437124643274
 20
21.67715011075484
  0
LINE
  5
1CC
330
2
100
AcDbEntity
  8
GAIKEI
  6
Continuous
 62
     1
100
AcDbLine
 10
18.80297526655266
 20
21.74372291789484
 30
0.0
 11
18.80297526655266
 21
21.84787512975481
 31
0.0
  0
LWPOLYLINE
  5
1CD
330
2
100
AcDbEntity
  8
GAIKEI
  6
Continuous
 62
     1
100
AcDbPolyline
 90
        8
 70
     0
 43
0.0
 10
18.76437124641273
 20
21.91045402703492
 10
18.7749516243727
 20
21.90855963037484
 10
18.78413772403263
 20
21.90341490937488
 10
18.79124430549262
 20
21.8960031411749
 10
18.79631795477274
 20
21.8872715125749
 10
18.79968984835267
 20
21.8778807082349
 10
18.80171922277253
 20
21.86808164209492
 10
18.80297526655266
 20
21.84787512977493
  0
ARC
  5
1CE
330
2
100
AcDbEntity
  8
GAIKEI
  6
Continuous
 62
     1
100
AcDbCircle
 10
19.09926237989242
 20
-652.0005235239253
 30
0.0
 40
673.9110607608267
100
AcDbArc
 50
90.02847237630225
 51
90.15634758630019
  0
LINE
  5
1CF
330
2
100
AcDbEntity
  8
GAIKEI
  6
Continuous
 62
     1
100
AcDbLine
 10
17.2479277776726
 20
21.29331046063487
 30
0.0
 11
17.2479277776726
 21
21.21620045641487
 31
0.0
  0
ARC
  5
1D0
330
2
100
AcDbEntity
  8
GAIKEI
  6
Continuous
 62
     1
100
AcDbCircle
 10
11.21262196629271
 20
694.809616585175
 30
0.0
 40
673.544050374833
100
AcDbArc
 50
270.5144602334996
 51
270.6424114759004
  0
LWPOLYLINE
  5
1D1
330
2
100
AcDbEntity
  8
GAIKEI
  6
Continuous
 62
     1
100
AcDbPolyline
 90
        8
 70
     0
 43
0.0
 10
18.80297526655266
 20
21.37580156735487
 10
18.80176570785255
 20
21.35431433981489
 10
18.79976158269272
 20
21.34380823279491
 10
18.79638706979261
 20
21.33358203251487
 10
18.79129454257253
 20
21.32398627311488
 10
18.78420609859262
 20
21.3158475562949
 10
18.77500581269254
 20
21.31012076359491
 10
18.76437124643274
 20
21.30790249817494
  0
LINE
  5
1D2
330
2
100
AcDbEntity
  8
GAIKEI
  6
Continuous
 62
     1
100
AcDbLine
 10
18.80297526655266
 20
21.37580156735487
 30
0.0
 11
18.80297526655266
 21
21.48531368371482
 31
0.0
  0
LWPOLYLINE
  5
1D3
330
2
100
AcDbEntity
  8
GAIKEI
  6
Continuous
 62
     1
100
AcDbPolyline
 90
        8
 70
     0
 43
0.0
 10
18.76437124641273
 20
21.55321275291488
 10
18.7749516243727
 20
21.55102647573494
 10
18.78413772403263
 20
21.54532738201488
 10
18.79124430549262
 20
21.53720535209493
 10
18.79631795477274
 20
21.52769925443488
 10
18.79968984835267
 20
21.5175295872549
 10
18.80171922277253
 20
21.50696615725485
 10
18.80297526655266
 20
21.48531368371493
  0
LINE
  5
1D4
330
2
100
AcDbEntity
  8
GAIKEI
  6
Continuous
 62
     1
100
AcDbLine
 10
17.2479277776726
 20
20.95514083537489
 30
0.0
 11
17.2479277776726
 21
20.88557889563481
 31
0.0
  0
ARC
  5
1D5
330
2
100
AcDbEntity
  8
GAIKEI
  6
Continuous
 62
     1
100
AcDbCircle
 10
19.15398300543273
 20
728.7893393698948
 30
0.0
 40
707.8387853717945
100
AcDbArc
 50
269.8467170356983
 51
269.9684630016991
  0
LWPOLYLINE
  5
1D6
330
2
100
AcDbEntity
  8
GAIKEI
  6
Continuous
 62
     1
100
AcDbPolyline
 90
        8
 70
     0
 43
0.0
 10
18.80297526655266
 20
21.01324012131488
 10
18.80176570785255
 20
20.99318642827484
 10
18.79976158269272
 20
20.98344008233494
 10
18.79638706979261
 20
20.97399667581488
 10
18.79129454257253
 20
20.96518204749486
 10
18.78420609859262
 20
20.95775456823492
 10
18.77500581269254
 20
20.95258446343485
 10
18.76437124643274
 20
20.95066122403489
  0
LINE
  5
1D7
330
2
100
AcDbEntity
  8
GAIKEI
  6
Continuous
 62
     1
100
AcDbLine
 10
18.80297526655266
 20
21.01324012131488
 30
0.0
 11
18.80297526655266
 21
21.11739233317485
 31
0.0
  0
LWPOLYLINE
  5
1D8
330
2
100
AcDbEntity
  8
GAIKEI
  6
Continuous
 62
     1
100
AcDbPolyline
 90
        8
 70
     0
 43
0.0
 10
18.76437124641273
 20
21.18396514031485
 10
18.7749516243727
 20
21.18170099067492
 10
18.78413772403263
 20
21.17600539127488
 10
18.79124430549262
 20
21.16796814047484
 10
18.79631795477274
 20
21.15861809681485
 10
18.79968984835267
 20
21.1486650447149
 10
18.80171922277253
 20
21.13837127297484
 10
18.80297526655266
 20
21.11739233319486
  0
ARC
  5
1D9
330
2
100
AcDbEntity
  8
GAIKEI
  6
Continuous
 62
     1
100
AcDbCircle
 10
3.967863835172408
 20
-653.4802683334852
 30
0.0
 40
674.826469961252
100
AcDbArc
 50
88.74360978839957
 51
88.87133903340219
  0
LINE
  5
1DA
330
2
100
AcDbEntity
  8
GAIKEI
  6
Continuous
 62
     1
100
AcDbLine
 10
17.2479277776726
 20
20.66350831795489
 30
0.0
 11
17.2479277776726
 21
20.60830365001482
 31
0.0
  0
ARC
  5
1DB
330
2
100
AcDbEntity
  8
GAIKEI
  6
Continuous
 62
     1
100
AcDbCircle
 10
28.96294665011277
 20
852.5233496981348
 30
0.0
 40
831.9454671653611
100
AcDbArc
 50
269.1940170879025
 51
269.2976102557027
  0
LWPOLYLINE
  5
1DC
330
2
100
AcDbEntity
  8
GAIKEI
  6
Continuous
 62
     1
100
AcDbPolyline
 90
        8
 70
     0
 43
0.0
 10
18.80297526655266
 20
20.69152862019485
 10
18.80176570785255
 20
20.67487145687494
 10
18.79976158269272
 20
20.66683891223488
 10
18.79638706979261
 20
20.65910268589494
 10
18.79129454257253
 20
20.6519320259149
 10
18.78420609859262
 20
20.64594283763495
 10
18.77500581269254
 20
20.64183550663495
 10
18.76437124643274
 20
20.64039555331488
  0
LINE
  5
1DD
330
2
100
AcDbEntity
  8
GAIKEI
  6
Continuous
 62
     1
100
AcDbLine
 10
18.80297526655266
 20
20.69152862019485
 30
0.0
 11
18.80297526655266
 21
20.78012578341486
 31
0.0
  0
LWPOLYLINE
  5
1DE
330
2
100
AcDbEntity
  8
GAIKEI
  6
Continuous
 62
     1
100
AcDbPolyline
 90
        8
 70
     0
 43
0.0
 10
18.76437124641273
 20
20.83885571829489
 10
18.7749516243727
 20
20.8367353269349
 10
18.78413772403263
 20
20.83160074677494
 10
18.79124430549262
 20
20.82443501721491
 10
18.79631795477274
 20
20.8161562749749
 10
18.79968984835267
 20
20.8073941120349
 10
18.80171922277253
 20
20.79837762467491
 10
18.80297526655266
 20
20.78012578341486
  0
LINE
  5
1DF
330
2
100
AcDbEntity
  8
GAIKEI
  6
Continuous
 62
     1
100
AcDbLine
 10
17.2479277776726
 20
20.44695993111486
 30
0.0
 11
17.2479277776726
 21
20.4115163524948
 31
0.0
  0
ARC
  5
1E0
330
2
100
AcDbEntity
  8
GAIKEI
  6
Continuous
 62
     1
100
AcDbCircle
 10
44.82476082523288
 20
1164.975186191395
 30
0.0
 40
1144.864352700349
100
AcDbArc
 50
268.6203786110979
 51
268.6956714065029
  0
LWPOLYLINE
  5
1E1
330
2
100
AcDbEntity
  8
GAIKEI
  6
Continuous
 62
     1
100
AcDbPolyline
 90
        8
 70
     0
 43
0.0
 10
18.80297526655266
 20
20.44215842723486
 10
18.80176570785255
 20
20.43052831283489
 10
18.79976158269272
 20
20.42499585093492
 10
18.79638706979261
 20
20.41972408053494
 10
18.79129454257253
 20
20.41489930301486
 10
18.78420609859262
 20
20.41093466919483
 10
18.77500581269254
 20
20.40829216617487
 10
18.76437124643274
 20
20.4074764515949
  0
LINE
  5
1E2
330
2
100
AcDbEntity
  8
GAIKEI
  6
Continuous
 62
     1
100
AcDbLine
 10
18.80297526655266
 20
20.44215842723486
 30
0.0
 11
18.80297526655266
 21
20.50652803417484
 31
0.0
  0
LWPOLYLINE
  5
1E3
330
2
100
AcDbEntity
  8
GAIKEI
  6
Continuous
 62
     1
100
AcDbPolyline
 90
        8
 70
     0
 43
0.0
 10
18.76437124641273
 20
20.5516662015749
 10
18.7749516243727
 20
20.54989712717486
 10
18.78413772403263
 20
20.54582617475489
 10
18.79124430549262
 20
20.54023339797493
 10
18.79631795477274
 20
20.53383633811484
 10
18.79968984835267
 20
20.52712276589489
 10
18.80171922277253
 20
20.5202661594949
 10
18.80297526655266
 20
20.50652803417484
  0
ARC
  5
1E4
330
2
100
AcDbEntity
  8
GAIKEI
  6
Continuous
 62
     1
100
AcDbCircle
 10
-20.59226606752765
 20
-1073.201833273165
 30
0.0
 40
1094.461357250172
100
AcDbArc
 50
87.93920957669774
 51
88.01799724100293
  0
LINE
  5
1E5
330
2
100
AcDbEntity
  8
GAIKEI
  6
Continuous
 62
     1
100
AcDbLine
 10
17.2479277776726
 20
20.32669293973481
 30
0.0
 11
17.2479277776726
 21
20.31447991487482
 31
0.0
  0
LWPOLYLINE
  5
1E6
330
2
100
AcDbEntity
  8
GAIKEI
  6
Continuous
 62
     1
100
AcDbPolyline
 90
        3
 70
     0
 43
0.0
 10
17.26030953129265
 20
20.32192431375483
 10
17.75144623189266
 20
20.30639032749491
 10
18.76437124627267
 20
20.27470366343493
  0
LWPOLYLINE
  5
1E7
330
2
100
AcDbEntity
  8
GAIKEI
  6
Continuous
 62
     1
100
AcDbPolyline
 90
        6
 70
     0
 43
0.0
 10
18.80297526655266
 20
20.28953963439494
 10
18.80176570785255
 20
20.28407500553488
 10
18.79638706979261
 20
20.27929290543489
 10
18.78420609859262
 20
20.2757342998749
 10
18.77500581269254
 20
20.27481529143484
 10
18.76437124643274
 20
20.27470366341493
  0
LINE
  5
1E8
330
2
100
AcDbEntity
  8
GAIKEI
  6
Continuous
 62
     1
100
AcDbLine
 10
18.80297526655266
 20
20.28953963439483
 30
0.0
 11
18.80297526655266
 21
20.32338073943481
 31
0.0
  0
LWPOLYLINE
  5
1E9
330
2
100
AcDbEntity
  8
GAIKEI
  6
Continuous
 62
     1
100
AcDbPolyline
 90
        7
 70
     0
 43
0.0
 10
18.76437124641273
 20
20.35050870103487
 10
18.7749516243727
 20
20.34926411293486
 10
18.78413772403263
 20
20.34665528141488
 10
18.79124430549262
 20
20.34318291737486
 10
18.79631795477274
 20
20.33929372871489
 10
18.80171922277253
 20
20.33126036539488
 10
18.80297526655266
 20
20.32338073943492
  0
LWPOLYLINE
  5
1EA
330
2
100
AcDbEntity
  8
GAIKEI
  6
Continuous
 62
     1
100
AcDbPolyline
 90
        3
 70
     0
 43
0.0
 10
17.24906745407264
 20
20.31345213309487
 10
17.2484750157127
 20
20.31393796619489
 10
17.2479277776726
 20
20.31447991487494
  0
LINE
  5
1EB
330
2
100
AcDbEntity
  8
GAIKEI
  6
Continuous
 62
     1
100
AcDbLine
 10
17.26028387655259
 20
20.30951042701486
 30
0.0
 11
17.26030953129265
 21
20.30965852939482
 31
0.0
  0
LINE
  5
1EC
330
2
100
AcDbEntity
  8
GAIKEI
  6
Continuous
 62
     1
100
AcDbLine
 10
18.80297526655266
 20
20.24734396923486
 30
0.0
 11
18.80297526655266
 21
20.24861163245487
 31
0.0
  0
LWPOLYLINE
  5
1ED
330
2
100
AcDbEntity
  8
GAIKEI
  6
Continuous
 62
     1
100
AcDbPolyline
 90
        4
 70
     0
 43
0.0
 10
18.76437124641273
 20
20.25507391435485
 10
18.78413772403263
 20
20.25358430151493
 10
18.79631795477274
 20
20.25157163279494
 10
18.80297526655266
 20
20.24861163245487
  0
LINE
  5
1EE
330
2
100
AcDbEntity
  8
GAIKEI
  6
Continuous
 62
     1
100
AcDbLine
 10
18.76437124641273
 20
20.25507391435485
 30
0.0
 11
17.26030953129265
 21
20.30965852939482
 31
0.0
  0
LWPOLYLINE
  5
1EF
330
2
100
AcDbEntity
  8
GAIKEI
  6
Continuous
 62
     1
100
AcDbPolyline
 90
        3
 70
     0
 43
0.0
 10
17.26030953129265
 20
20.32192431375483
 10
17.25370301531251
 20
20.32326863517483
 10
17.2479277776726
 20
20.32669293973492
  0
LWPOLYLINE
  5
1F0
330
2
100
AcDbEntity
  8
GAIKEI
  6
Continuous
 62
     1
100
AcDbPolyline
 90
        3
 70
     0
 43
0.0
 10
17.26030953129265
 20
20.66019471321488
 10
17.25370301531251
 20
20.66112885019493
 10
17.2479277776726
 20
20.66350831795489
  0
LWPOLYLINE
  5
1F1
330
2
100
AcDbEntity
  8
GAIKEI
  6
Continuous
 62
     1
100
AcDbPolyline
 90
        3
 70
     0
 43
0.0
 10
17.26030953129265
 20
21.2927175615149
 10
17.25370301531251
 20
21.29288470547487
 10
17.2479277776726
 20
21.29331046063487
  0
LWPOLYLINE
  5
1F2
330
2
100
AcDbEntity
  8
GAIKEI
  6
Continuous
 62
     1
100
AcDbPolyline
 90
        3
 70
     0
 43
0.0
 10
17.2479277776726
 20
21.97553635543489
 10
17.25370301531251
 20
21.9772269368749
 10
17.26030953129265
 20
21.97789062925494
  0
LINE
  5
1F3
330
2
100
AcDbEntity
  8
GAIKEI
  6
Continuous
 62
     1
100
AcDbLine
 10
32.86451736269254
 20
24.43654250067482
 30
0.0
 11
32.65534358011263
 21
22.04567522525485
 31
0.0
  0
LINE
  5
1F4
330
2
100
AcDbEntity
  8
GAIKEI
  6
Continuous
 62
     1
100
AcDbLine
 10
32.65534358011263
 20
22.04567522525485
 30
0.0
 11
32.05762676125272
 21
22.09796867089483
 31
0.0
  0
LINE
  5
1F5
330
2
100
AcDbEntity
  8
GAIKEI
  6
Continuous
 62
     1
100
AcDbLine
 10
30.81461429327254
 20
1.006043201554803
 30
0.0
 11
30.60544051067263
 21
-1.384824073865161
 31
0.0
  0
LINE
  5
1F6
330
2
100
AcDbEntity
  8
GAIKEI
  6
Continuous
 62
     1
100
AcDbLine
 10
30.60544051067263
 20
-1.384824073865161
 30
0.0
 11
30.00772369183272
 21
-1.332530628225185
 31
0.0
  0
LINE
  5
1F7
330
2
100
AcDbEntity
  8
GAIKEI
  6
Continuous
 62
     1
100
AcDbLine
 10
30.21689747441263
 20
1.058336647194892
 30
0.0
 11
30.81461429327254
 21
1.006043201554803
 31
0.0
  0
LINE
  5
1F8
330
2
100
AcDbEntity
  8
GAIKEI
  6
Continuous
 62
     1
100
AcDbLine
 10
32.86451736269254
 20
24.43654250067482
 30
0.0
 11
32.86800359241255
 21
24.47639028859487
 31
0.0
  0
LINE
  5
1F9
330
2
100
AcDbEntity
  8
GAIKEI
  6
Continuous
 62
     1
100
AcDbLine
 10
32.27028677355264
 20
24.52868373423485
 30
0.0
 11
32.86800359241255
 21
24.47639028859487
 31
0.0
  0
LINE
  5
1FA
330
2
100
AcDbEntity
  8
GAIKEI
  6
Continuous
 62
     1
100
AcDbLine
 10
25.50509572643267
 20
28.0918679765748
 30
0.0
 11
25.64437382109276
 21
28.0796827222149
 31
0.0
  0
ARC
  5
1FB
330
2
100
AcDbEntity
  8
GAIKEI
  6
Continuous
 62
     1
100
AcDbCircle
 10
25.49124151503264
 20
27.93236808907489
 30
0.0
 40
0.1601004478512836
100
AcDbArc
 50
85.03593652359986
 51
139.5198245304007
  0
LINE
  5
1FC
330
2
100
AcDbEntity
  8
GAIKEI
  6
Continuous
 62
     1
100
AcDbLine
 10
25.50509572637265
 20
28.09186797659481
 30
0.0
 11
25.50530891039256
 21
28.09184932539483
 31
0.0
  0
LINE
  5
1FD
330
2
100
AcDbEntity
  8
GAIKEI
  6
Continuous
 62
     1
100
AcDbLine
 10
25.50509572643267
 20
28.0918679765748
 30
0.0
 11
25.50530891043258
 21
28.09184932539483
 31
0.0
  0
LINE
  5
1FE
330
2
100
AcDbEntity
  8
GAIKEI
  6
Continuous
 62
     1
100
AcDbLine
 10
25.50509572643267
 20
28.0918679765748
 30
0.0
 11
25.50530891043258
 21
28.09184932539483
 31
0.0
  0
LINE
  5
1FF
330
2
100
AcDbEntity
  8
GAIKEI
  6
Continuous
 62
     1
100
AcDbLine
 10
29.50331147155265
 20
28.06040893169484
 30
0.0
 11
29.5810216922327
 21
28.09664580271487
 31
0.0
  0
LINE
  5
200
330
2
100
AcDbEntity
  8
GAIKEI
  6
Continuous
 62
     1
100
AcDbLine
 10
30.60760576361275
 20
27.96379569995486
 30
0.0
 11
30.58449324117254
 21
27.69961835975482
 31
0.0
  0
LINE
  5
201
330
2
100
AcDbEntity
  8
GAIKEI
  6
Continuous
 62
     1
100
AcDbLine
 10
29.50331147155265
 20
28.06040893169484
 30
0.0
 11
29.47044258935256
 21
27.68471588887485
 31
0.0
  0
LWPOLYLINE
  5
202
330
2
100
AcDbEntity
  8
GAIKEI
  6
Continuous
 62
     1
100
AcDbPolyline
 90
        5
 70
     0
 43
0.0
 10
30.05919514733268
 20
28.05481104619492
 10
29.98918175943271
 20
28.05797987991491
 10
29.91910083457259
 20
28.0555374528949
 10
29.84897789001269
 20
28.04800903735486
 10
29.77938504459274
 20
28.03625562377488
  0
ARC
  5
203
330
2
100
AcDbEntity
  8
GAIKEI
  6
Continuous
 62
     1
100
AcDbCircle
 10
30.43899548281269
 20
27.74247014939488
 30
0.0
 40
0.278234480463552
100
AcDbArc
 50
52.69911643999959
 51
82.91663609190164
  0
ARC
  5
204
330
2
100
AcDbEntity
  8
GAIKEI
  6
Continuous
 62
     1
100
AcDbCircle
 10
30.45885155275272
 20
27.74207963089486
 30
0.0
 40
0.276878981718591
100
AcDbArc
 50
87.00761984350297
 51
117.3766276244987
  0
LINE
  5
205
330
2
100
AcDbEntity
  8
GAIKEI
  6
Continuous
 62
     1
100
AcDbLine
 10
29.64508478781267
 20
28.09104100811487
 30
0.0
 11
29.5810216922327
 21
28.09664580271487
 31
0.0
  0
LINE
  5
206
330
2
100
AcDbEntity
  8
GAIKEI
  6
Continuous
 62
     1
100
AcDbLine
 10
30.47330550683267
 20
28.01858108429485
 30
0.0
 11
30.53736860241264
 21
28.01297628967484
 31
0.0
  0
LINE
  5
207
330
2
100
AcDbEntity
  8
GAIKEI
  6
Continuous
 62
     1
100
AcDbLine
 10
29.64508478781267
 20
28.09104100811487
 30
0.0
 11
30.05919514733268
 21
28.0548110461948
 31
0.0
  0
LINE
  5
208
330
2
100
AcDbEntity
  8
GAIKEI
  6
Continuous
 62
     1
100
AcDbLine
 10
30.53736860241264
 20
28.01297628967484
 30
0.0
 11
30.60760576361275
 21
27.96379569995486
 31
0.0
  0
LINE
  5
209
330
2
100
AcDbEntity
  8
GAIKEI
  6
Continuous
 62
     1
100
AcDbLine
 10
29.77938504457274
 20
28.03625562375487
 30
0.0
 11
29.74651616235263
 21
27.66056258093488
 31
0.0
  0
LINE
  5
20A
330
2
100
AcDbEntity
  8
GAIKEI
  6
Continuous
 62
     1
100
AcDbLine
 10
30.33153219059267
 20
27.98794900787482
 30
0.0
 11
30.30874353169264
 21
27.72747344473487
 31
0.0
  0
LWPOLYLINE
  5
20B
330
2
100
AcDbEntity
  8
GAIKEI
  6
Continuous
 62
     1
100
AcDbPolyline
 90
        5
 70
     0
 43
0.0
 10
30.33153219059267
 20
27.98794900787493
 10
30.26563437993258
 20
28.01142587343486
 10
30.19828119533253
 20
28.03094796153493
 10
30.12919828237267
 20
28.04566755841483
 10
30.05919514735268
 20
28.05481104619492
  0
LINE
  5
20C
330
2
100
AcDbEntity
  8
GAIKEI
  6
Continuous
 62
     1
100
AcDbLine
 10
30.05919514733268
 20
28.0548110461948
 30
0.0
 11
30.47330550683267
 21
28.01858108429485
 31
0.0
  0
ARC
  5
20D
330
2
100
AcDbEntity
  8
GAIKEI
  6
Continuous
 62
     1
100
AcDbCircle
 10
29.6306308337127
 20
27.81453955471488
 30
0.0
 40
0.2768789817186256
100
AcDbArc
 50
87.00761984350297
 51
117.3766276244987
  0
ARC
  5
20E
330
2
100
AcDbEntity
  8
GAIKEI
  6
Continuous
 62
     1
100
AcDbCircle
 10
29.61077476377267
 20
27.8149300732149
 30
0.0
 40
0.278234480463594
100
AcDbArc
 50
52.69911643999959
 51
82.91663609190164
  0
LINE
  5
20F
330
2
100
AcDbEntity
  8
GAIKEI
  6
Continuous
 62
     1
100
AcDbLine
 10
18.69495768219252
 20
8.841544502528222
 30
0.0
 11
18.69495768219252
 21
3.865144850061483
 31
0.0
  0
ARC
  5
210
330
2
100
AcDbEntity
  8
GAIKEI
  6
Continuous
 62
     1
100
AcDbCircle
 10
19.58275947041255
 20
6.111806733974844
 30
0.0
 40
2.879031583821632
100
AcDbArc
 50
108.8370417620007
 51
134.4828295605023
  0
ARC
  5
211
330
2
100
AcDbEntity
  8
GAIKEI
  6
Continuous
 62
     1
100
AcDbCircle
 10
17.63550458575258
 20
8.094535903094879
 30
0.0
 40
0.1
100
AcDbArc
 50
134.4828295605023
 51
216.1440781139013
  0
ARC
  5
212
330
2
100
AcDbEntity
  8
GAIKEI
  6
Continuous
 62
     1
100
AcDbCircle
 10
17.63550458575258
 20
4.612153449474817
 30
0.0
 40
0.0999999999999996
100
AcDbArc
 50
143.8559218860987
 51
225.5171704394977
  0
ARC
  5
213
330
2
100
AcDbEntity
  8
GAIKEI
  6
Continuous
 62
     1
100
AcDbCircle
 10
18.68547231877272
 20
8.741995379574859
 30
0.0
 40
0.1
100
AcDbArc
 50
53.13010235420026
 51
108.8370417620007
  0
LINE
  5
214
330
2
100
AcDbEntity
  8
GAIKEI
  6
Continuous
 62
     1
100
AcDbLine
 10
19.02387325647254
 20
8.613194676274815
 30
0.0
 11
18.7636732564726
 21
8.808344676294836
 31
0.0
  0
LINE
  5
215
330
2
100
AcDbEntity
  8
GAIKEI
  6
Continuous
 62
     1
100
AcDbLine
 10
18.74547231877267
 20
8.8219953795749
 30
0.0
 11
18.7636732564726
 21
8.808344676294836
 31
0.0
  0
ARC
  5
216
330
2
100
AcDbEntity
  8
GAIKEI
  6
Continuous
 62
     1
100
AcDbCircle
 10
18.68547231877272
 20
3.964693973014846
 30
0.0
 40
0.0999999999999998
100
AcDbArc
 50
251.1629582379993
 51
306.8698976457998
  0
ARC
  5
217
330
2
100
AcDbEntity
  8
GAIKEI
  6
Continuous
 62
     1
100
AcDbCircle
 10
15.25158992313271
 20
6.353344676294909
 30
0.0
 40
2.852083333333334
100
AcDbArc
 50
323.8559218860987
 51
36.14407811390127
  0
LINE
  5
218
330
2
100
AcDbEntity
  8
GAIKEI
  6
Continuous
 62
     1
100
AcDbLine
 10
18.7636732564726
 20
3.898344676294868
 30
0.0
 11
19.02387325647254
 21
4.093494676294881
 31
0.0
  0
ARC
  5
219
330
2
100
AcDbEntity
  8
GAIKEI
  6
Continuous
 62
     1
100
AcDbCircle
 10
19.58275947041255
 20
6.594882618594851
 30
0.0
 40
2.879031583821626
100
AcDbArc
 50
225.5171704394977
 51
251.1629582379993
  0
LINE
  5
21A
330
2
100
AcDbEntity
  8
GAIKEI
  6
Continuous
 62
     1
100
AcDbLine
 10
18.7636732564726
 20
3.898344676294868
 30
0.0
 11
18.74547231877267
 21
3.884693973014805
 31
0.0
  0
LINE
  5
21B
330
2
100
AcDbEntity
  8
GAIKEI
  6
Continuous
 62
     1
100
AcDbLine
 10
19.21238883075256
 20
7.630557625534834
 30
0.0
 11
19.21238883075256
 21
4.630557625534834
 31
0.0
  0
LINE
  5
21C
330
2
100
AcDbEntity
  8
GAIKEI
  6
Continuous
 62
     1
100
AcDbLine
 10
29.34392554703271
 20
28.27800020153484
 30
0.0
 11
29.3359559895527
 21
28.27869744747488
 31
0.0
  0
LINE
  5
21D
330
2
100
AcDbEntity
  8
GAIKEI
  6
Continuous
 62
     1
100
AcDbLine
 10
29.25718449261188
 20
28.241965695207
 30
0.0
 11
29.3359559895527
 21
28.27869744747488
 31
0.0
  0
LINE
  5
21E
330
2
100
AcDbEntity
  8
GAIKEI
  6
Continuous
 62
     1
100
AcDbLine
 10
25.8223872274927
 20
27.70273342569487
 30
0.0
 11
25.81208499015264
 21
27.71501115405488
 31
0.0
  0
LINE
  5
21F
330
2
100
AcDbEntity
  8
GAIKEI
  6
Continuous
 62
     1
100
AcDbLine
 10
25.36806519827263
 20
28.0171912275348
 30
0.0
 11
25.41742459631263
 21
28.58137172861484
 31
0.0
  0
LINE
  5
220
330
2
100
AcDbEntity
  8
GAIKEI
  6
Continuous
 62
     1
100
AcDbLine
 10
23.38518741219258
 20
28.75916944381481
 30
0.0
 11
23.33623002451253
 21
28.19958394197488
 31
0.0
  0
LINE
  5
221
330
2
100
AcDbEntity
  8
GAIKEI
  6
Continuous
 62
     1
100
AcDbLine
 10
23.33637185785272
 20
28.20120510431479
 30
0.0
 11
23.3362139134926
 21
28.19939979209483
 31
0.0
  0
LINE
  5
222
330
2
100
AcDbEntity
  8
GAIKEI
  6
Continuous
 62
     1
100
AcDbLine
 10
25.3992438171926
 20
28.60303873741486
 30
0.0
 11
23.40685442101261
 21
28.77735022291484
 31
0.0
  0
LINE
  5
223
330
2
100
AcDbEntity
  8
GAIKEI
  6
Continuous
 62
     1
100
AcDbLine
 10
25.46290364807254
 20
26.11803422517482
 30
0.0
 11
25.46377520551272
 21
26.1279961721549
 31
0.0
  0
LINE
  5
224
330
2
100
AcDbEntity
  8
GAIKEI
  6
Continuous
 62
     1
100
AcDbLine
 10
25.36415573569269
 20
26.13671174641491
 30
0.0
 11
25.36328417827275
 21
26.12674979943483
 31
0.0
  0
LINE
  5
225
330
2
100
AcDbEntity
  8
GAIKEI
  6
Continuous
 62
     1
100
AcDbLine
 10
25.81208499015264
 20
27.71501115405488
 30
0.0
 11
25.64057943641268
 21
27.91940351385483
 31
0.0
  0
LINE
  5
226
330
2
100
AcDbEntity
  8
GAIKEI
  6
Continuous
 62
     1
100
AcDbLine
 10
25.64057943641268
 20
27.91940351385483
 30
0.0
 11
25.59831447483265
 21
27.92310121885487
 31
0.0
  0
ARC
  5
227
330
2
100
AcDbEntity
  8
GAIKEI
  6
Continuous
 62
     1
100
AcDbCircle
 10
25.39750070235271
 20
28.58311484345484
 30
0.0
 40
0.0199999999999997
100
AcDbArc
 50
354.9999999999999
 51
84.99999999999998
  0
ARC
  5
228
330
2
100
AcDbEntity
  8
GAIKEI
  6
Continuous
 62
     1
100
AcDbCircle
 10
23.40511130617273
 20
28.75742632895481
 30
0.0
 40
0.0199999999999999
100
AcDbArc
 50
84.99999999999998
 51
175.0
  0
LINE
  5
229
330
2
100
AcDbEntity
  8
GAIKEI
  6
Continuous
 62
     1
100
AcDbLine
 10
25.80495607893266
 20
27.50349448607483
 30
0.0
 11
25.8223872274927
 21
27.70273342569487
 31
0.0
  0
LINE
  5
22A
330
2
100
AcDbEntity
  8
GAIKEI
  6
Continuous
 62
     1
100
AcDbLine
 10
25.36845109759264
 20
28.02160207689485
 30
0.0
 11
25.36164492095253
 21
27.94380712183488
 31
0.0
  0
LINE
  5
22B
330
2
100
AcDbEntity
  8
GAIKEI
  6
Continuous
 62
     1
100
AcDbLine
 10
23.3362139134926
 20
28.19939979209483
 30
0.0
 11
23.32940773685272
 21
28.12160483703485
 31
0.0
  0
LINE
  5
22C
330
2
100
AcDbEntity
  8
GAIKEI
  6
Continuous
 62
     1
100
AcDbLine
 10
25.59831447483265
 20
27.92310121885487
 30
0.0
 11
23.06387325647273
 21
28.14483609383535
 31
0.0
  0
LINE
  5
22D
330
2
100
AcDbEntity
  8
GAIKEI
  6
Continuous
 62
     1
100
AcDbLine
 10
26.41925055817268
 20
26.0343647121349
 30
0.0
 11
26.42012211561263
 21
26.04432665911486
 31
0.0
  0
CIRCLE
  5
22E
330
2
100
AcDbEntity
  8
GAIKEI
  6
Continuous
 62
     1
100
AcDbCircle
 10
26.70773606683264
 20
29.33176916421485
 30
0.0
 40
0.2
  0
LINE
  5
22F
330
2
100
AcDbEntity
  8
GAIKEI
  6
Continuous
 62
     1
100
AcDbLine
 10
27.72384562423253
 20
30.04592696697489
 30
0.0
 11
25.83107569787256
 21
30.21152287823486
 31
0.0
  0
LINE
  5
230
330
2
100
AcDbEntity
  8
GAIKEI
  6
Continuous
 62
     1
100
AcDbLine
 10
27.72384562423253
 20
30.04592696697489
 30
0.0
 11
27.54285301349268
 21
27.97717195991481
 31
0.0
  0
LINE
  5
231
330
2
100
AcDbEntity
  8
GAIKEI
  6
Continuous
 62
     1
100
AcDbLine
 10
26.86753817231255
 20
25.99514462789489
 30
0.0
 11
26.86840972973272
 21
26.00510657487485
 31
0.0
  0
LINE
  5
232
330
2
100
AcDbEntity
  8
GAIKEI
  6
Continuous
 62
     1
100
AcDbLine
 10
25.6306174893661
 20
27.92027507128751
 30
0.0
 11
25.83107569781254
 21
30.21152287741484
 31
0.0
  0
LINE
  5
233
330
2
100
AcDbEntity
  8
GAIKEI
  6
Continuous
 62
     1
100
AcDbLine
 10
27.72384562417272
 20
30.04592696613486
 30
0.0
 11
27.54285301345266
 21
27.97717195991481
 31
0.0
  0
ARC
  5
234
330
2
100
AcDbEntity
  8
GAIKEI
  6
Continuous
 62
     1
100
AcDbCircle
 10
29.39672476963273
 20
28.19307528117486
 30
0.0
 40
0.1000000000000004
100
AcDbArc
 50
84.99999999990206
 51
174.999999999902
  0
LINE
  5
235
330
2
100
AcDbEntity
  8
GAIKEI
  6
Continuous
 62
     1
100
AcDbLine
 10
30.80133060929274
 20
27.67975156653483
 30
0.0
 11
30.83522991367266
 21
28.06722238865484
 31
0.0
  0
LINE
  5
236
330
2
100
AcDbEntity
  8
GAIKEI
  6
Continuous
 62
     1
100
AcDbLine
 10
29.2971052998127
 20
28.20179085545488
 30
0.0
 11
29.25352742843273
 21
27.70369350639487
 31
0.0
  0
LINE
  5
237
330
2
100
AcDbEntity
  8
GAIKEI
  6
Continuous
 62
     1
100
AcDbLine
 10
30.68925772959273
 20
28.18037528369485
 30
0.0
 11
30.32233117213258
 21
28.21247719781479
 31
0.0
  0
LINE
  5
238
330
2
100
AcDbEntity
  8
GAIKEI
  6
Continuous
 62
     1
100
AcDbLine
 10
30.32233117213258
 20
28.21247719781479
 30
0.0
 11
29.50505981371265
 21
28.28397917671487
 31
0.0
  0
LINE
  5
239
330
2
100
AcDbEntity
  8
GAIKEI
  6
Continuous
 62
     1
100
AcDbLine
 10
29.50505981371265
 20
28.28397917671487
 30
0.0
 11
29.40544034389262
 21
28.29269475099489
 31
0.0
  0
LINE
  5
23A
330
2
100
AcDbEntity
  8
GAIKEI
  6
Continuous
 62
     1
100
AcDbLine
 10
30.74432601813254
 20
28.17555743273488
 30
0.0
 11
30.68925772959273
 21
28.18037528369485
 31
0.0
  0
ARC
  5
23B
330
2
100
AcDbEntity
  8
GAIKEI
  6
Continuous
 62
     1
100
AcDbCircle
 10
30.73561044385264
 20
28.07593796291485
 30
0.0
 40
0.0999999999999988
100
AcDbArc
 50
354.9999999999021
 51
84.99999999990206
  0
LINE
  5
23C
330
2
100
AcDbEntity
  8
GAIKEI
  6
Continuous
 62
     1
100
AcDbLine
 10
29.25574270699275
 20
28.22548601017479
 30
0.0
 11
29.25675295405262
 21
28.22539762501481
 31
0.0
  0
LINE
  5
23D
330
2
100
AcDbEntity
  8
GAIKEI
  6
Continuous
 62
     1
100
AcDbLine
 10
29.25574270699275
 20
28.22548601017479
 30
0.0
 11
29.02190628859256
 21
28.24594404589482
 31
0.0
  0
LINE
  5
23E
330
2
100
AcDbEntity
  8
GAIKEI
  6
Continuous
 62
     1
100
AcDbLine
 10
29.21042172075266
 20
27.70746476715487
 30
0.0
 11
29.25718449261188
 21
28.241965695207
 31
0.0
  0
LINE
  5
23F
330
2
100
AcDbEntity
  8
GAIKEI
  6
Continuous
 62
     1
100
AcDbLine
 10
29.02190628859256
 20
28.24594404589482
 30
0.0
 11
28.97658530235271
 21
27.72792280289479
 31
0.0
  0
ARC
  5
240
330
2
100
AcDbEntity
  8
GAIKEI
  6
Continuous
 62
     1
100
AcDbCircle
 10
-14.83304797952405
 20
29.33176288447487
 30
0.0
 40
0.9355528376834065
100
AcDbArc
 50
167.6569438938981
 51
192.3432249252018
  0
LINE
  5
241
330
2
100
AcDbEntity
  8
GAIKEI
  6
Continuous
 62
     1
100
AcDbLine
 10
-15.73333078566406
 20
29.13176916163479
 30
0.0
 11
-15.74710897908403
 21
29.13176916163479
 31
0.0
  0
LINE
  5
242
330
2
100
AcDbEntity
  8
GAIKEI
  6
Continuous
 62
     1
100
AcDbLine
 10
-15.74710897908403
 20
29.13176916163479
 30
0.0
 11
-15.74710897908403
 21
28.8432578290948
 31
0.0
  0
ARC
  5
243
330
2
100
AcDbEntity
  8
GAIKEI
  6
Continuous
 62
     1
100
AcDbCircle
 10
-42.4768293180241
 20
-2.149442373945134
 30
0.0
 40
0.200000000000003
100
AcDbArc
 50
90.00000000199973
 51
180.0
  0
ARC
  5
244
330
2
100
AcDbEntity
  8
GAIKEI
  6
Continuous
 62
     1
100
AcDbCircle
 10
-42.4768293180241
 20
-2.149442373945134
 30
0.0
 40
0.2000000000000002
100
AcDbArc
 50
180.0
 51
270.0
  0
LINE
  5
245
330
2
100
AcDbEntity
  8
GAIKEI
  6
Continuous
 62
     1
100
AcDbLine
 10
-42.4768293180241
 20
-2.34944237394518
 30
0.0
 11
-7.316829318024019
 21
-2.34944237394518
 31
0.0
  0
ARC
  5
246
330
2
100
AcDbEntity
  8
GAIKEI
  6
Continuous
 62
     1
100
AcDbCircle
 10
-7.316829318024019
 20
-2.149442373945134
 30
0.0
 40
0.2000000000068752
100
AcDbArc
 50
270.0
 51
0.0
  0
ARC
  5
247
330
2
100
AcDbEntity
  8
GAIKEI
  6
Continuous
 62
     1
100
AcDbCircle
 10
-7.316829318024019
 20
-2.149442373945134
 30
0.0
 40
0.200000000000003
100
AcDbArc
 50
0.0
 51
90.0
  0
LINE
  5
248
330
2
100
AcDbEntity
  8
GAIKEI
  6
Continuous
 62
     1
100
AcDbLine
 10
-7.316829318024019
 20
-1.949442373945203
 30
0.0
 11
-42.47682931804411
 21
-1.949442373945203
 31
0.0
  0
CIRCLE
  5
249
330
2
100
AcDbEntity
  8
GAIKEI
  6
Continuous
 62
     1
100
AcDbCircle
 10
-40.19682931802413
 20
21.43055762611482
 30
0.0
 40
0.35
  0
CIRCLE
  5
24A
330
2
100
AcDbEntity
  8
GAIKEI
  6
Continuous
 62
     1
100
AcDbCircle
 10
-35.99682931802409
 20
21.43055762611482
 30
0.0
 40
0.35
  0
CIRCLE
  5
24B
330
2
100
AcDbEntity
  8
GAIKEI
  6
Continuous
 62
     1
100
AcDbCircle
 10
-31.79682931802404
 20
21.43055762611482
 30
0.0
 40
0.35
  0
LINE
  5
24C
330
2
100
AcDbEntity
  8
GAIKEI
  6
Continuous
 62
     1
100
AcDbLine
 10
-42.47682931804411
 20
-1.949442373945203
 30
0.0
 11
-7.316829318024019
 21
-1.949442373945203
 31
0.0
  0
LINE
  5
24D
330
2
100
AcDbEntity
  8
GAIKEI
  6
Continuous
 62
     1
100
AcDbLine
 10
-7.316829318024019
 20
-2.34944237394518
 30
0.0
 11
-42.4768293180241
 21
-2.34944237394518
 31
0.0
  0
ARC
  5
24E
330
2
100
AcDbEntity
  8
GAIKEI
  6
Continuous
 62
     1
100
AcDbCircle
 10
-42.4768293180241
 20
-2.149442373945134
 30
0.0
 40
0.2000000000000002
100
AcDbArc
 50
180.0
 51
270.0
  0
ARC
  5
24F
330
2
100
AcDbEntity
  8
GAIKEI
  6
Continuous
 62
     1
100
AcDbCircle
 10
-42.4768293180241
 20
-2.149442373945134
 30
0.0
 40
0.2000000000000002
100
AcDbArc
 50
90.00000000199973
 51
180.0
  0
CIRCLE
  5
250
330
2
100
AcDbEntity
  8
GAIKEI
  6
Continuous
 62
     1
100
AcDbCircle
 10
-31.79682931802404
 20
21.43055762611482
 30
0.0
 40
0.35
  0
CIRCLE
  5
251
330
2
100
AcDbEntity
  8
GAIKEI
  6
Continuous
 62
     1
100
AcDbCircle
 10
-35.99682931802409
 20
21.43055762611482
 30
0.0
 40
0.35
  0
CIRCLE
  5
252
330
2
100
AcDbEntity
  8
GAIKEI
  6
Continuous
 62
     1
100
AcDbCircle
 10
-40.19682931802413
 20
21.43055762611482
 30
0.0
 40
0.35
  0
ARC
  5
253
330
2
100
AcDbEntity
  8
GAIKEI
  6
Continuous
 62
     1
100
AcDbCircle
 10
-44.0968293180241
 20
-3.269442373945139
 30
0.0
 40
0.58
100
AcDbArc
 50
180.0
 51
270.0
  0
LINE
  5
254
330
2
100
AcDbEntity
  8
GAIKEI
  6
Continuous
 62
     1
100
AcDbLine
 10
-11.24682931854408
 20
7.48055762605486
 30
0.0
 11
-7.946829318544132
 21
7.48055762605486
 31
0.0
  0
ARC
  5
255
330
2
100
AcDbEntity
  8
GAIKEI
  6
Continuous
 62
     1
100
AcDbCircle
 10
-7.946829318544132
 20
7.780557626054815
 30
0.0
 40
0.3000000000000003
100
AcDbArc
 50
270.0
 51
0.0
  0
LINE
  5
256
330
2
100
AcDbEntity
  8
GAIKEI
  6
Continuous
 62
     1
100
AcDbLine
 10
-7.646829318544178
 20
7.780557626054815
 30
0.0
 11
-7.646829318544178
 21
11.08055762605477
 31
0.0
  0
ARC
  5
257
330
2
100
AcDbEntity
  8
GAIKEI
  6
Continuous
 62
     1
100
AcDbCircle
 10
-7.946829318544132
 20
11.08055762605477
 30
0.0
 40
0.2999999999999948
100
AcDbArc
 50
0.0
 51
90.0
  0
LINE
  5
258
330
2
100
AcDbEntity
  8
GAIKEI
  6
Continuous
 62
     1
100
AcDbLine
 10
-11.54682931854404
 20
11.08055762605477
 30
0.0
 11
-11.54682931854404
 21
7.780557626054815
 31
0.0
  0
ARC
  5
259
330
2
100
AcDbEntity
  8
GAIKEI
  6
Continuous
 62
     1
100
AcDbCircle
 10
-11.24682931854408
 20
7.780557626054815
 30
0.0
 40
0.3000000000000003
100
AcDbArc
 50
180.0
 51
270.0
  0
LINE
  5
25A
330
2
100
AcDbEntity
  8
GAIKEI
  6
Continuous
 62
     1
100
AcDbLine
 10
-7.946829318544132
 20
11.38055762605484
 30
0.0
 11
-11.24682931854408
 21
11.38055762605484
 31
0.0
  0
ARC
  5
25B
330
2
100
AcDbEntity
  8
GAIKEI
  6
Continuous
 62
     1
100
AcDbCircle
 10
-11.24682931854408
 20
11.08055762605477
 30
0.0
 40
0.3
100
AcDbArc
 50
90.0
 51
180.0
  0
LINE
  5
25C
330
2
100
AcDbEntity
  8
GAIKEI
  6
Continuous
 62
     1
100
AcDbLine
 10
-11.24682931854408
 20
0.8805576260548377
 30
0.0
 11
-7.946829318544132
 21
0.8805576260548377
 31
0.0
  0
ARC
  5
25D
330
2
100
AcDbEntity
  8
GAIKEI
  6
Continuous
 62
     1
100
AcDbCircle
 10
-7.946829318544132
 20
1.180557626054792
 30
0.0
 40
0.3000000000000003
100
AcDbArc
 50
270.0
 51
0.0
  0
LINE
  5
25E
330
2
100
AcDbEntity
  8
GAIKEI
  6
Continuous
 62
     1
100
AcDbLine
 10
-7.646829318544178
 20
1.180557626054792
 30
0.0
 11
-7.646829318544178
 21
4.48055762605486
 31
0.0
  0
ARC
  5
25F
330
2
100
AcDbEntity
  8
GAIKEI
  6
Continuous
 62
     1
100
AcDbCircle
 10
-7.946829318544132
 20
4.48055762605486
 30
0.0
 40
0.3000000000000003
100
AcDbArc
 50
0.0
 51
90.0
  0
LINE
  5
260
330
2
100
AcDbEntity
  8
GAIKEI
  6
Continuous
 62
     1
100
AcDbLine
 10
-11.54682931854404
 20
4.48055762605486
 30
0.0
 11
-11.54682931854404
 21
1.180557626054792
 31
0.0
  0
ARC
  5
261
330
2
100
AcDbEntity
  8
GAIKEI
  6
Continuous
 62
     1
100
AcDbCircle
 10
-11.24682931854408
 20
1.180557626054792
 30
0.0
 40
0.3000000000000003
100
AcDbArc
 50
180.0
 51
270.0
  0
LINE
  5
262
330
2
100
AcDbEntity
  8
GAIKEI
  6
Continuous
 62
     1
100
AcDbLine
 10
-7.946829318544132
 20
4.780557626054815
 30
0.0
 11
-11.24682931854408
 21
4.780557626054815
 31
0.0
  0
ARC
  5
263
330
2
100
AcDbEntity
  8
GAIKEI
  6
Continuous
 62
     1
100
AcDbCircle
 10
-11.24682931854408
 20
4.48055762605486
 30
0.0
 40
0.3000000000000003
100
AcDbArc
 50
90.0
 51
180.0
  0
ARC
  5
264
330
2
100
AcDbEntity
  8
GAIKEI
  6
Continuous
 62
     1
100
AcDbCircle
 10
-39.04682931802404
 20
14.88055762605483
 30
0.0
 40
0.2000000000000002
100
AcDbArc
 50
270.0
 51
0.0
  0
LINE
  5
265
330
2
100
AcDbEntity
  8
GAIKEI
  6
Continuous
 62
     1
100
AcDbLine
 10
-38.84682931802411
 20
14.88055762605483
 30
0.0
 11
-38.84682931802411
 21
17.18055762605479
 31
0.0
  0
ARC
  5
266
330
2
100
AcDbEntity
  8
GAIKEI
  6
Continuous
 62
     1
100
AcDbCircle
 10
-39.04682931802404
 20
17.18055762605479
 30
0.0
 40
0.1999999999999974
100
AcDbArc
 50
0.0
 51
90.0
  0
LINE
  5
267
330
2
100
AcDbEntity
  8
GAIKEI
  6
Continuous
 62
     1
100
AcDbLine
 10
-39.04682931802404
 20
17.38055762605483
 30
0.0
 11
-41.3468293180241
 21
17.38055762605483
 31
0.0
  0
ARC
  5
268
330
2
100
AcDbEntity
  8
GAIKEI
  6
Continuous
 62
     1
100
AcDbCircle
 10
-41.3468293180241
 20
14.88055762605483
 30
0.0
 40
0.1999999999999974
100
AcDbArc
 50
180.0
 51
270.0
  0
LINE
  5
269
330
2
100
AcDbEntity
  8
GAIKEI
  6
Continuous
 62
     1
100
AcDbLine
 10
-41.3468293180241
 20
14.68055762605479
 30
0.0
 11
-39.04682931802404
 21
14.68055762605479
 31
0.0
  0
ARC
  5
26A
330
2
100
AcDbEntity
  8
GAIKEI
  6
Continuous
 62
     1
100
AcDbCircle
 10
-41.3468293180241
 20
17.18055762605479
 30
0.0
 40
0.2000000000000016
100
AcDbArc
 50
90.0
 51
180.0
  0
LINE
  5
26B
330
2
100
AcDbEntity
  8
GAIKEI
  6
Continuous
 62
     1
100
AcDbLine
 10
-41.54682931802404
 20
17.18055762605479
 30
0.0
 11
-41.54682931802404
 21
14.88055762605483
 31
0.0
  0
ARC
  5
26C
330
2
100
AcDbEntity
  8
GAIKEI
  6
Continuous
 62
     1
100
AcDbCircle
 10
-34.84682931802411
 20
14.88055762605483
 30
0.0
 40
0.2000000000000002
100
AcDbArc
 50
270.0
 51
0.0
  0
LINE
  5
26D
330
2
100
AcDbEntity
  8
GAIKEI
  6
Continuous
 62
     1
100
AcDbLine
 10
-34.64682931802406
 20
14.88055762605483
 30
0.0
 11
-34.64682931802406
 21
17.18055762605479
 31
0.0
  0
ARC
  5
26E
330
2
100
AcDbEntity
  8
GAIKEI
  6
Continuous
 62
     1
100
AcDbCircle
 10
-34.84682931802411
 20
17.18055762605479
 30
0.0
 40
0.1999999999999974
100
AcDbArc
 50
0.0
 51
90.0
  0
LINE
  5
26F
330
2
100
AcDbEntity
  8
GAIKEI
  6
Continuous
 62
     1
100
AcDbLine
 10
-34.84682931802411
 20
17.38055762605483
 30
0.0
 11
-37.14682931802406
 21
17.38055762605483
 31
0.0
  0
ARC
  5
270
330
2
100
AcDbEntity
  8
GAIKEI
  6
Continuous
 62
     1
100
AcDbCircle
 10
-37.14682931802406
 20
14.88055762605483
 30
0.0
 40
0.1999999999999974
100
AcDbArc
 50
180.0
 51
270.0
  0
LINE
  5
271
330
2
100
AcDbEntity
  8
GAIKEI
  6
Continuous
 62
     1
100
AcDbLine
 10
-37.14682931802406
 20
14.68055762605479
 30
0.0
 11
-34.84682931802411
 21
14.68055762605479
 31
0.0
  0
ARC
  5
272
330
2
100
AcDbEntity
  8
GAIKEI
  6
Continuous
 62
     1
100
AcDbCircle
 10
-37.14682931802406
 20
17.18055762605479
 30
0.0
 40
0.2000000000000016
100
AcDbArc
 50
90.0
 51
180.0
  0
LINE
  5
273
330
2
100
AcDbEntity
  8
GAIKEI
  6
Continuous
 62
     1
100
AcDbLine
 10
-37.34682931802411
 20
17.18055762605479
 30
0.0
 11
-37.34682931802411
 21
14.88055762605483
 31
0.0
  0
ARC
  5
274
330
2
100
AcDbEntity
  8
GAIKEI
  6
Continuous
 62
     1
100
AcDbCircle
 10
-30.64682931802418
 20
14.88055762605483
 30
0.0
 40
0.2000000000000002
100
AcDbArc
 50
270.0
 51
0.0
  0
LINE
  5
275
330
2
100
AcDbEntity
  8
GAIKEI
  6
Continuous
 62
     1
100
AcDbLine
 10
-30.44682931802413
 20
14.88055762605483
 30
0.0
 11
-30.44682931802413
 21
17.18055762605479
 31
0.0
  0
ARC
  5
276
330
2
100
AcDbEntity
  8
GAIKEI
  6
Continuous
 62
     1
100
AcDbCircle
 10
-30.64682931802418
 20
17.18055762605479
 30
0.0
 40
0.1999999999999974
100
AcDbArc
 50
0.0
 51
90.0
  0
LINE
  5
277
330
2
100
AcDbEntity
  8
GAIKEI
  6
Continuous
 62
     1
100
AcDbLine
 10
-30.64682931802418
 20
17.38055762605483
 30
0.0
 11
-32.94682931802413
 21
17.38055762605483
 31
0.0
  0
ARC
  5
278
330
2
100
AcDbEntity
  8
GAIKEI
  6
Continuous
 62
     1
100
AcDbCircle
 10
-32.94682931802413
 20
14.88055762605483
 30
0.0
 40
0.1999999999999974
100
AcDbArc
 50
180.0
 51
270.0
  0
LINE
  5
279
330
2
100
AcDbEntity
  8
GAIKEI
  6
Continuous
 62
     1
100
AcDbLine
 10
-32.94682931802413
 20
14.68055762605479
 30
0.0
 11
-30.64682931802418
 21
14.68055762605479
 31
0.0
  0
ARC
  5
27A
330
2
100
AcDbEntity
  8
GAIKEI
  6
Continuous
 62
     1
100
AcDbCircle
 10
-32.94682931802413
 20
17.18055762605479
 30
0.0
 40
0.2000000000000016
100
AcDbArc
 50
90.0
 51
180.0
  0
LINE
  5
27B
330
2
100
AcDbEntity
  8
GAIKEI
  6
Continuous
 62
     1
100
AcDbLine
 10
-33.14682931802418
 20
17.18055762605479
 30
0.0
 11
-33.14682931802418
 21
14.88055762605483
 31
0.0
  0
ARC
  5
27C
330
2
100
AcDbEntity
  8
GAIKEI
  6
Continuous
 62
     1
100
AcDbCircle
 10
-26.44682931802413
 20
14.88055762605483
 30
0.0
 40
0.2000000000000002
100
AcDbArc
 50
270.0
 51
0.0
  0
LINE
  5
27D
330
2
100
AcDbEntity
  8
GAIKEI
  6
Continuous
 62
     1
100
AcDbLine
 10
-26.24682931802408
 20
14.88055762605483
 30
0.0
 11
-26.24682931802408
 21
17.18055762605479
 31
0.0
  0
ARC
  5
27E
330
2
100
AcDbEntity
  8
GAIKEI
  6
Continuous
 62
     1
100
AcDbCircle
 10
-26.44682931802413
 20
17.18055762605479
 30
0.0
 40
0.1999999999999974
100
AcDbArc
 50
0.0
 51
90.0
  0
LINE
  5
27F
330
2
100
AcDbEntity
  8
GAIKEI
  6
Continuous
 62
     1
100
AcDbLine
 10
-26.44682931802413
 20
17.38055762605483
 30
0.0
 11
-28.74682931802409
 21
17.38055762605483
 31
0.0
  0
ARC
  5
280
330
2
100
AcDbEntity
  8
GAIKEI
  6
Continuous
 62
     1
100
AcDbCircle
 10
-28.74682931802409
 20
14.88055762605483
 30
0.0
 40
0.1999999999999974
100
AcDbArc
 50
180.0
 51
270.0
  0
LINE
  5
281
330
2
100
AcDbEntity
  8
GAIKEI
  6
Continuous
 62
     1
100
AcDbLine
 10
-28.74682931802409
 20
14.68055762605479
 30
0.0
 11
-26.44682931802413
 21
14.68055762605479
 31
0.0
  0
ARC
  5
282
330
2
100
AcDbEntity
  8
GAIKEI
  6
Continuous
 62
     1
100
AcDbCircle
 10
-28.74682931802409
 20
17.18055762605479
 30
0.0
 40
0.2000000000000016
100
AcDbArc
 50
90.0
 51
180.0
  0
LINE
  5
283
330
2
100
AcDbEntity
  8
GAIKEI
  6
Continuous
 62
     1
100
AcDbLine
 10
-28.94682931802413
 20
17.18055762605479
 30
0.0
 11
-28.94682931802413
 21
14.88055762605483
 31
0.0
  0
ARC
  5
284
330
2
100
AcDbEntity
  8
GAIKEI
  6
Continuous
 62
     1
100
AcDbCircle
 10
-22.24682931802409
 20
14.88055762605483
 30
0.0
 40
0.2000000000000002
100
AcDbArc
 50
270.0
 51
0.0
  0
LINE
  5
285
330
2
100
AcDbEntity
  8
GAIKEI
  6
Continuous
 62
     1
100
AcDbLine
 10
-22.04682931802404
 20
14.88055762605483
 30
0.0
 11
-22.04682931802404
 21
17.18055762605479
 31
0.0
  0
ARC
  5
286
330
2
100
AcDbEntity
  8
GAIKEI
  6
Continuous
 62
     1
100
AcDbCircle
 10
-22.24682931802409
 20
17.18055762605479
 30
0.0
 40
0.1999999999999974
100
AcDbArc
 50
0.0
 51
90.0
  0
LINE
  5
287
330
2
100
AcDbEntity
  8
GAIKEI
  6
Continuous
 62
     1
100
AcDbLine
 10
-22.24682931802409
 20
17.38055762605483
 30
0.0
 11
-24.54682931802404
 21
17.38055762605483
 31
0.0
  0
ARC
  5
288
330
2
100
AcDbEntity
  8
GAIKEI
  6
Continuous
 62
     1
100
AcDbCircle
 10
-24.54682931802404
 20
14.88055762605483
 30
0.0
 40
0.1999999999999974
100
AcDbArc
 50
180.0
 51
270.0
  0
LINE
  5
289
330
2
100
AcDbEntity
  8
GAIKEI
  6
Continuous
 62
     1
100
AcDbLine
 10
-24.54682931802404
 20
14.68055762605479
 30
0.0
 11
-22.24682931802409
 21
14.68055762605479
 31
0.0
  0
ARC
  5
28A
330
2
100
AcDbEntity
  8
GAIKEI
  6
Continuous
 62
     1
100
AcDbCircle
 10
-24.54682931802404
 20
17.18055762605479
 30
0.0
 40
0.2000000000000016
100
AcDbArc
 50
90.0
 51
180.0
  0
LINE
  5
28B
330
2
100
AcDbEntity
  8
GAIKEI
  6
Continuous
 62
     1
100
AcDbLine
 10
-24.74682931802409
 20
17.18055762605479
 30
0.0
 11
-24.74682931802409
 21
14.88055762605483
 31
0.0
  0
ARC
  5
28C
330
2
100
AcDbEntity
  8
GAIKEI
  6
Continuous
 62
     1
100
AcDbCircle
 10
-16.89682938756414
 20
14.93055762503479
 30
0.0
 40
0.2500000000000106
100
AcDbArc
 50
270.0
 51
0.0
  0
LINE
  5
28D
330
2
100
AcDbEntity
  8
GAIKEI
  6
Continuous
 62
     1
100
AcDbLine
 10
-16.64682938756414
 20
14.93055762503479
 30
0.0
 11
-16.64682938756414
 21
17.13055762503484
 31
0.0
  0
ARC
  5
28E
330
2
100
AcDbEntity
  8
GAIKEI
  6
Continuous
 62
     1
100
AcDbCircle
 10
-16.89682938756414
 20
17.13055762503484
 30
0.0
 40
0.2500000000000002
100
AcDbArc
 50
0.0
 51
90.0
  0
LINE
  5
28F
330
2
100
AcDbEntity
  8
GAIKEI
  6
Continuous
 62
     1
100
AcDbLine
 10
-16.89682938756414
 20
17.38055762503484
 30
0.0
 11
-19.09682938756418
 21
17.38055762503484
 31
0.0
  0
ARC
  5
290
330
2
100
AcDbEntity
  8
GAIKEI
  6
Continuous
 62
     1
100
AcDbCircle
 10
-19.09682938756418
 20
14.93055762503479
 30
0.0
 40
0.249999999999992
100
AcDbArc
 50
180.0
 51
270.0
  0
LINE
  5
291
330
2
100
AcDbEntity
  8
GAIKEI
  6
Continuous
 62
     1
100
AcDbLine
 10
-19.09682938756418
 20
14.68055762503479
 30
0.0
 11
-16.89682938756414
 21
14.68055762503479
 31
0.0
  0
ARC
  5
292
330
2
100
AcDbEntity
  8
GAIKEI
  6
Continuous
 62
     1
100
AcDbCircle
 10
-19.09682938756418
 20
17.13055762503484
 30
0.0
 40
0.2499999999999988
100
AcDbArc
 50
90.0
 51
180.0
  0
LINE
  5
293
330
2
100
AcDbEntity
  8
GAIKEI
  6
Continuous
 62
     1
100
AcDbLine
 10
-19.34682938756418
 20
17.13055762503484
 30
0.0
 11
-19.34682938756418
 21
14.93055762503479
 31
0.0
  0
LINE
  5
294
330
2
100
AcDbEntity
  8
GAIKEI
  6
Continuous
 62
     1
100
AcDbLine
 10
-12.44682938762412
 20
14.93055762503479
 30
0.0
 11
-12.44682938762412
 21
17.13055762503484
 31
0.0
  0
ARC
  5
295
330
2
100
AcDbEntity
  8
GAIKEI
  6
Continuous
 62
     1
100
AcDbCircle
 10
-12.69682938762412
 20
17.13055762503484
 30
0.0
 40
0.2500000000000016
100
AcDbArc
 50
0.0
 51
90.0
  0
LINE
  5
296
330
2
100
AcDbEntity
  8
GAIKEI
  6
Continuous
 62
     1
100
AcDbLine
 10
-12.69682938762412
 20
17.38055762503484
 30
0.0
 11
-14.89682938762416
 21
17.38055762503484
 31
0.0
  0
ARC
  5
297
330
2
100
AcDbEntity
  8
GAIKEI
  6
Continuous
 62
     1
100
AcDbCircle
 10
-14.89682938762416
 20
17.13055762503484
 30
0.0
 40
0.2499999999999926
100
AcDbArc
 50
90.0
 51
180.0
  0
LINE
  5
298
330
2
100
AcDbEntity
  8
GAIKEI
  6
Continuous
 62
     1
100
AcDbLine
 10
-14.89682938762416
 20
14.68055762503479
 30
0.0
 11
-12.69682938762412
 21
14.68055762503479
 31
0.0
  0
ARC
  5
299
330
2
100
AcDbEntity
  8
GAIKEI
  6
Continuous
 62
     1
100
AcDbCircle
 10
-12.69682938762412
 20
14.93055762503479
 30
0.0
 40
0.2499999999999932
100
AcDbArc
 50
270.0
 51
0.0
  0
LINE
  5
29A
330
2
100
AcDbEntity
  8
GAIKEI
  6
Continuous
 62
     1
100
AcDbLine
 10
-15.14682938762416
 20
17.13055762503484
 30
0.0
 11
-15.14682938762416
 21
14.93055762503479
 31
0.0
  0
ARC
  5
29B
330
2
100
AcDbEntity
  8
GAIKEI
  6
Continuous
 62
     1
100
AcDbCircle
 10
-14.89682938762416
 20
14.93055762503479
 30
0.0
 40
0.2500000000000002
100
AcDbArc
 50
180.0
 51
270.0
  0
LINE
  5
29C
330
2
100
AcDbEntity
  8
GAIKEI
  6
Continuous
 62
     1
100
AcDbLine
 10
-8.246829387564048
 20
14.93055762503479
 30
0.0
 11
-8.246829387564048
 21
17.13055762503484
 31
0.0
  0
ARC
  5
29D
330
2
100
AcDbEntity
  8
GAIKEI
  6
Continuous
 62
     1
100
AcDbCircle
 10
-8.496829387564048
 20
17.13055762503484
 30
0.0
 40
0.2499999999999974
100
AcDbArc
 50
0.0
 51
90.0
  0
LINE
  5
29E
330
2
100
AcDbEntity
  8
GAIKEI
  6
Continuous
 62
     1
100
AcDbLine
 10
-8.496829387564048
 20
17.38055762503484
 30
0.0
 11
-10.69682938756409
 21
17.38055762503484
 31
0.0
  0
ARC
  5
29F
330
2
100
AcDbEntity
  8
GAIKEI
  6
Continuous
 62
     1
100
AcDbCircle
 10
-10.69682938756409
 20
17.13055762503484
 30
0.0
 40
0.2499999999999988
100
AcDbArc
 50
90.0
 51
180.0
  0
LINE
  5
2A0
330
2
100
AcDbEntity
  8
GAIKEI
  6
Continuous
 62
     1
100
AcDbLine
 10
-10.69682938756409
 20
14.68055762503479
 30
0.0
 11
-8.496829387564048
 21
14.68055762503479
 31
0.0
  0
ARC
  5
2A1
330
2
100
AcDbEntity
  8
GAIKEI
  6
Continuous
 62
     1
100
AcDbCircle
 10
-8.496829387564048
 20
14.93055762503479
 30
0.0
 40
0.2499999999999932
100
AcDbArc
 50
270.0
 51
0.0
  0
LINE
  5
2A2
330
2
100
AcDbEntity
  8
GAIKEI
  6
Continuous
 62
     1
100
AcDbLine
 10
-10.94682938756409
 20
17.13055762503484
 30
0.0
 11
-10.94682938756409
 21
14.93055762503479
 31
0.0
  0
ARC
  5
2A3
330
2
100
AcDbEntity
  8
GAIKEI
  6
Continuous
 62
     1
100
AcDbCircle
 10
-10.69682938756409
 20
14.93055762503479
 30
0.0
 40
0.2500000000000142
100
AcDbArc
 50
180.0
 51
270.0
  0
ARC
  5
2A4
330
2
100
AcDbEntity
  8
GAIKEI
  6
Continuous
 62
     1
100
AcDbCircle
 10
-27.0468294571042
 20
20.88055762611487
 30
0.0
 40
0.2000000000000002
100
AcDbArc
 50
270.0
 51
0.0
  0
LINE
  5
2A5
330
2
100
AcDbEntity
  8
GAIKEI
  6
Continuous
 62
     1
100
AcDbLine
 10
-26.84682945710415
 20
20.88055762611487
 30
0.0
 11
-26.84682945710415
 21
21.98055762611489
 31
0.0
  0
ARC
  5
2A6
330
2
100
AcDbEntity
  8
GAIKEI
  6
Continuous
 62
     1
100
AcDbCircle
 10
-27.0468294571042
 20
21.98055762611489
 30
0.0
 40
0.2000000000000002
100
AcDbArc
 50
0.0
 51
90.0
  0
LINE
  5
2A7
330
2
100
AcDbEntity
  8
GAIKEI
  6
Continuous
 62
     1
100
AcDbLine
 10
-27.0468294571042
 20
22.18055762611482
 30
0.0
 11
-28.14682945710411
 21
22.18055762611482
 31
0.0
  0
ARC
  5
2A8
330
2
100
AcDbEntity
  8
GAIKEI
  6
Continuous
 62
     1
100
AcDbCircle
 10
-28.14682945710411
 20
20.88055762611487
 30
0.0
 40
0.2000000000000002
100
AcDbArc
 50
180.0
 51
270.0
  0
LINE
  5
2A9
330
2
100
AcDbEntity
  8
GAIKEI
  6
Continuous
 62
     1
100
AcDbLine
 10
-28.14682945710411
 20
20.68055762611482
 30
0.0
 11
-27.0468294571042
 21
20.68055762611482
 31
0.0
  0
ARC
  5
2AA
330
2
100
AcDbEntity
  8
GAIKEI
  6
Continuous
 62
     1
100
AcDbCircle
 10
-28.14682945710411
 20
21.98055762611489
 30
0.0
 40
0.2000000000000002
100
AcDbArc
 50
90.0
 51
180.0
  0
LINE
  5
2AB
330
2
100
AcDbEntity
  8
GAIKEI
  6
Continuous
 62
     1
100
AcDbLine
 10
-28.34682945710415
 20
21.98055762611489
 30
0.0
 11
-28.34682945710415
 21
20.88055762611487
 31
0.0
  0
ARC
  5
2AC
330
2
100
AcDbEntity
  8
GAIKEI
  6
Continuous
 62
     1
100
AcDbCircle
 10
-22.84682960844407
 20
20.8805576249548
 30
0.0
 40
0.1999999988539946
100
AcDbArc
 50
270.0
 51
0.0
  0
LINE
  5
2AD
330
2
100
AcDbEntity
  8
GAIKEI
  6
Continuous
 62
     1
100
AcDbLine
 10
-22.64682960958408
 20
20.8805576249548
 30
0.0
 11
-22.64682960958408
 21
21.98055762611489
 31
0.0
  0
ARC
  5
2AE
330
2
100
AcDbEntity
  8
GAIKEI
  6
Continuous
 62
     1
100
AcDbCircle
 10
-22.84682960958412
 20
21.98055762611489
 30
0.0
 40
0.2000000000000002
100
AcDbArc
 50
0.0
 51
90.0
  0
LINE
  5
2AF
330
2
100
AcDbEntity
  8
GAIKEI
  6
Continuous
 62
     1
100
AcDbLine
 10
-22.84682960958412
 20
22.18055762611482
 30
0.0
 11
-23.94682960958403
 21
22.18055762611482
 31
0.0
  0
ARC
  5
2B0
330
2
100
AcDbEntity
  8
GAIKEI
  6
Continuous
 62
     1
100
AcDbCircle
 10
-23.94682961072408
 20
20.8805576249548
 30
0.0
 40
0.1999999988539932
100
AcDbArc
 50
180.0
 51
270.0
  0
LINE
  5
2B1
330
2
100
AcDbEntity
  8
GAIKEI
  6
Continuous
 62
     1
100
AcDbLine
 10
-23.94682961072408
 20
20.68055762611482
 30
0.0
 11
-22.84682960844407
 21
20.68055762611482
 31
0.0
  0
ARC
  5
2B2
330
2
100
AcDbEntity
  8
GAIKEI
  6
Continuous
 62
     1
100
AcDbCircle
 10
-23.94682960958403
 20
21.98055762611489
 30
0.0
 40
0.2000000000000016
100
AcDbArc
 50
90.0
 51
180.0
  0
LINE
  5
2B3
330
2
100
AcDbEntity
  8
GAIKEI
  6
Continuous
 62
     1
100
AcDbLine
 10
-24.14682960958407
 20
21.98055762611489
 30
0.0
 11
-24.14682960958407
 21
20.8805576249548
 31
0.0
  0
ARC
  5
2B4
330
2
100
AcDbEntity
  8
GAIKEI
  6
Continuous
 62
     1
100
AcDbCircle
 10
-9.046829401343984
 20
21.98055762341482
 30
0.0
 40
0.2000000000000002
100
AcDbArc
 50
0.0
 51
90.0
  0
LINE
  5
2B5
330
2
100
AcDbEntity
  8
GAIKEI
  6
Continuous
 62
     1
100
AcDbLine
 10
-9.046829401343984
 20
22.18055762341487
 30
0.0
 11
-10.14682940290413
 21
22.18055762341487
 31
0.0
  0
ARC
  5
2B6
330
2
100
AcDbEntity
  8
GAIKEI
  6
Continuous
 62
     1
100
AcDbCircle
 10
-10.14682940290413
 20
20.88055762611487
 30
0.0
 40
0.2000000000000002
100
AcDbArc
 50
180.0
 51
270.0
  0
LINE
  5
2B7
330
2
100
AcDbEntity
  8
GAIKEI
  6
Continuous
 62
     1
100
AcDbLine
 10
-10.14682940290413
 20
20.68055762611482
 30
0.0
 11
-9.046829401343984
 21
20.68055762611482
 31
0.0
  0
ARC
  5
2B8
330
2
100
AcDbEntity
  8
GAIKEI
  6
Continuous
 62
     1
100
AcDbCircle
 10
-9.046829401343984
 20
20.88055762611487
 30
0.0
 40
0.2000000000000002
100
AcDbArc
 50
270.0
 51
0.0
  0
LINE
  5
2B9
330
2
100
AcDbEntity
  8
GAIKEI
  6
Continuous
 62
     1
100
AcDbLine
 10
-8.846829401344166
 20
20.88055762611487
 30
0.0
 11
-8.846829401344166
 21
21.98055762341482
 31
0.0
  0
ARC
  5
2BA
330
2
100
AcDbEntity
  8
GAIKEI
  6
Continuous
 62
     1
100
AcDbCircle
 10
-10.14682940290413
 20
21.98055762341482
 30
0.0
 40
0.2000000000000002
100
AcDbArc
 50
90.0
 51
180.0
  0
LINE
  5
2BB
330
2
100
AcDbEntity
  8
GAIKEI
  6
Continuous
 62
     1
100
AcDbLine
 10
-10.34682940290418
 20
21.98055762341482
 30
0.0
 11
-10.34682940290418
 21
20.88055762611487
 31
0.0
  0
ARC
  5
2BC
330
2
100
AcDbEntity
  8
GAIKEI
  6
Continuous
 62
     1
100
AcDbCircle
 10
-15.79682931802404
 20
11.63055762605484
 30
0.0
 40
0.2500000000000016
100
AcDbArc
 50
359.9999998833969
 51
90.0
  0
LINE
  5
2BD
330
2
100
AcDbEntity
  8
GAIKEI
  6
Continuous
 62
     1
100
AcDbLine
 10
-15.79682931802404
 20
11.88055762605483
 30
0.0
 11
-15.99682931802408
 21
11.88055762605483
 31
0.0
  0
ARC
  5
2BE
330
2
100
AcDbEntity
  8
GAIKEI
  6
Continuous
 62
     1
100
AcDbCircle
 10
-15.99682931802408
 20
0.6305576260548378
 30
0.0
 40
0.2500000000000002
100
AcDbArc
 50
180.0
 51
270.0
  0
LINE
  5
2BF
330
2
100
AcDbEntity
  8
GAIKEI
  6
Continuous
 62
     1
100
AcDbLine
 10
-15.99682931802408
 20
0.3805576260548378
 30
0.0
 11
-15.79682934584411
 21
0.3805576260548378
 31
0.0
  0
ARC
  5
2C0
330
2
100
AcDbEntity
  8
GAIKEI
  6
Continuous
 62
     1
100
AcDbCircle
 10
-15.79682931802404
 20
0.6305576260548378
 30
0.0
 40
0.2499999999999948
100
AcDbArc
 50
270.0
 51
0.0
  0
LINE
  5
2C1
330
2
100
AcDbEntity
  8
GAIKEI
  6
Continuous
 62
     1
100
AcDbLine
 10
-15.54682931802403
 20
8.841995379574882
 30
0.0
 11
-15.54682931802403
 21
11.63055762553483
 31
0.0
  0
LINE
  5
2C2
330
2
100
AcDbEntity
  8
GAIKEI
  6
Continuous
 62
     1
100
AcDbLine
 10
-15.54682931802403
 20
0.6305576260548378
 30
0.0
 11
-15.54682931802403
 21
3.864693973014823
 31
0.0
  0
ARC
  5
2C3
330
2
100
AcDbEntity
  8
GAIKEI
  6
Continuous
 62
     1
100
AcDbCircle
 10
-15.99682931802408
 20
11.63055762605484
 30
0.0
 40
0.25
100
AcDbArc
 50
90.0
 51
180.0
  0
LINE
  5
2C4
330
2
100
AcDbEntity
  8
GAIKEI
  6
Continuous
 62
     1
100
AcDbLine
 10
-16.24682931802408
 20
3.864693973014823
 30
0.0
 11
-16.24682931802408
 21
0.6305576260548378
 31
0.0
  0
LINE
  5
2C5
330
2
100
AcDbEntity
  8
GAIKEI
  6
Continuous
 62
     1
100
AcDbLine
 10
-16.24682931802408
 20
11.63055762605484
 30
0.0
 11
-16.24682931802408
 21
8.841995379574882
 31
0.0
  0
ARC
  5
2C6
330
2
100
AcDbEntity
  8
GAIKEI
  6
Continuous
 62
     1
100
AcDbCircle
 10
-17.44682948492414
 20
21.98055762611489
 30
0.0
 40
0.2000000000000002
100
AcDbArc
 50
0.0
 51
90.0
  0
LINE
  5
2C7
330
2
100
AcDbEntity
  8
GAIKEI
  6
Continuous
 62
     1
100
AcDbLine
 10
-17.44682948492414
 20
22.18055762611482
 30
0.0
 11
-18.54682948492405
 21
22.18055762611482
 31
0.0
  0
ARC
  5
2C8
330
2
100
AcDbEntity
  8
GAIKEI
  6
Continuous
 62
     1
100
AcDbCircle
 10
-18.54682948606409
 20
20.8805576249548
 30
0.0
 40
0.1999999988539905
100
AcDbArc
 50
180.0
 51
270.0
  0
LINE
  5
2C9
330
2
100
AcDbEntity
  8
GAIKEI
  6
Continuous
 62
     1
100
AcDbLine
 10
-18.54682948606409
 20
20.68055762611482
 30
0.0
 11
-17.44682948376407
 21
20.68055762611482
 31
0.0
  0
ARC
  5
2CA
330
2
100
AcDbEntity
  8
GAIKEI
  6
Continuous
 62
     1
100
AcDbCircle
 10
-17.44682948376407
 20
20.8805576249548
 30
0.0
 40
0.1999999988539905
100
AcDbArc
 50
270.0
 51
0.0
  0
LINE
  5
2CB
330
2
100
AcDbEntity
  8
GAIKEI
  6
Continuous
 62
     1
100
AcDbLine
 10
-17.24682948492409
 20
20.8805576249548
 30
0.0
 11
-17.24682948492409
 21
21.98055762611489
 31
0.0
  0
ARC
  5
2CC
330
2
100
AcDbEntity
  8
GAIKEI
  6
Continuous
 62
     1
100
AcDbCircle
 10
-18.54682948492405
 20
21.98055762611489
 30
0.0
 40
0.2000000000000002
100
AcDbArc
 50
90.0
 51
180.0
  0
LINE
  5
2CD
330
2
100
AcDbEntity
  8
GAIKEI
  6
Continuous
 62
     1
100
AcDbLine
 10
-18.74682948492409
 20
21.98055762611489
 30
0.0
 11
-18.74682948492409
 21
20.8805576249548
 31
0.0
  0
ARC
  5
2CE
330
2
100
AcDbEntity
  8
GAIKEI
  6
Continuous
 62
     1
100
AcDbCircle
 10
-21.74682931802408
 20
11.08055762605477
 30
0.0
 40
0.2999999999999982
100
AcDbArc
 50
0.0
 51
90.0
  0
LINE
  5
2CF
330
2
100
AcDbEntity
  8
GAIKEI
  6
Continuous
 62
     1
100
AcDbLine
 10
-21.74682931802408
 20
11.38055762605484
 30
0.0
 11
-41.8468293180241
 21
11.38055762605484
 31
0.0
  0
ARC
  5
2D0
330
2
100
AcDbEntity
  8
GAIKEI
  6
Continuous
 62
     1
100
AcDbCircle
 10
-41.8468293180241
 20
11.08055762605477
 30
0.0
 40
0.3000000000000044
100
AcDbArc
 50
90.0
 51
180.0
  0
LINE
  5
2D1
330
2
100
AcDbEntity
  8
GAIKEI
  6
Continuous
 62
     1
100
AcDbLine
 10
-42.14682931802406
 20
11.08055762605477
 30
0.0
 11
-42.14682931802406
 21
7.780557626054815
 31
0.0
  0
ARC
  5
2D2
330
2
100
AcDbEntity
  8
GAIKEI
  6
Continuous
 62
     1
100
AcDbCircle
 10
-21.74682931802408
 20
7.780557626054815
 30
0.0
 40
0.3000000000000044
100
AcDbArc
 50
270.0
 51
0.0
  0
LINE
  5
2D3
330
2
100
AcDbEntity
  8
GAIKEI
  6
Continuous
 62
     1
100
AcDbLine
 10
-21.44682931802413
 20
7.780557626054815
 30
0.0
 11
-21.44682931802413
 21
11.08055762605477
 31
0.0
  0
ARC
  5
2D4
330
2
100
AcDbEntity
  8
GAIKEI
  6
Continuous
 62
     1
100
AcDbCircle
 10
-41.8468293180241
 20
7.780557626054815
 30
0.0
 40
0.3000000000000003
100
AcDbArc
 50
180.0
 51
270.0
  0
LINE
  5
2D5
330
2
100
AcDbEntity
  8
GAIKEI
  6
Continuous
 62
     1
100
AcDbLine
 10
-41.8468293180241
 20
7.48055762605486
 30
0.0
 11
-21.74682931802408
 21
7.48055762605486
 31
0.0
  0
ARC
  5
2D6
330
2
100
AcDbEntity
  8
GAIKEI
  6
Continuous
 62
     1
100
AcDbCircle
 10
-7.316829318024019
 20
-2.149442373945134
 30
0.0
 40
0.2000000000000002
100
AcDbArc
 50
0.0
 51
90.0
  0
ARC
  5
2D7
330
2
100
AcDbEntity
  8
GAIKEI
  6
Continuous
 62
     1
100
AcDbCircle
 10
-7.316829318024019
 20
-2.149442373945134
 30
0.0
 40
0.2000000000000002
100
AcDbArc
 50
270.0
 51
0.0
  0
ARC
  5
2D8
330
2
100
AcDbEntity
  8
GAIKEI
  6
Continuous
 62
     1
100
AcDbCircle
 10
-40.1918879742841
 20
-148.4465626919251
 30
0.0
 40
156.133850170998
100
AcDbArc
 50
89.4127795420008
 51
90.5909185131002
  0
LWPOLYLINE
  5
2D9
330
2
100
AcDbEntity
  8
GAIKEI
  6
Continuous
 62
     1
100
AcDbPolyline
 90
        9
 70
     0
 43
0.0
 10
-38.44578124460407
 20
11.00497698005483
 10
-38.44753120542407
 20
11.03685094559489
 10
-38.4536241380041
 20
11.06829353787486
 10
-38.46447924674408
 20
11.09843928939483
 10
-38.48071836018403
 20
11.12616928083491
 10
-38.5027387780641
 20
11.15007408357485
 10
-38.52955273888415
 20
11.16794496783484
 10
-38.5598342482441
 20
11.17851278919488
 10
-38.59181509214409
 20
11.18181515137485
  0
ARC
  5
2DA
330
2
100
AcDbEntity
  8
GAIKEI
  6
Continuous
 62
     1
100
AcDbCircle
 10
-40.19191501982402
 20
165.6174221554148
 30
0.0
 40
154.4438960609464
100
AcDbArc
 50
269.4026638221992
 51
270.5936175864996
  0
ARC
  5
2DB
330
2
100
AcDbEntity
  8
GAIKEI
  6
Continuous
 62
     1
100
AcDbCircle
 10
113.7357696827359
 20
9.435531203394816
 30
0.0
 40
152.1896435461146
100
AcDbArc
 50
179.4091305362009
 51
180.5946866357968
  0
LWPOLYLINE
  5
2DC
330
2
100
AcDbEntity
  8
GAIKEI
  6
Continuous
 62
     1
100
AcDbPolyline
 90
        9
 70
     0
 43
0.0
 10
-41.80203807154407
 20
11.18191932577485
 10
-41.83395623420415
 20
11.17863236729488
 10
-41.86418395958412
 20
11.16810887719487
 10
-41.89098354054408
 20
11.15029503057485
 10
-41.91300819296407
 20
11.12646188403482
 10
-41.92933377958411
 20
11.0986131748549
 10
-41.94026115950407
 20
11.06833877657482
 10
-41.94634100230405
 20
11.03694356379492
 10
-41.94809134450406
 20
11.00508175029483
  0
LWPOLYLINE
  5
2DD
330
2
100
AcDbEntity
  8
GAIKEI
  6
Continuous
 62
     1
100
AcDbPolyline
 90
        9
 70
     0
 43
0.0
 10
-38.59171102070411
 20
7.679087356154923
 10
-38.55978234106408
 20
7.682378446034817
 10
-38.52954804932415
 20
7.692912238154917
 10
-38.50274984104408
 20
7.710738526154841
 10
-38.48073207012408
 20
7.734582239714882
 10
-38.46441628136404
 20
7.762434510014827
 10
-38.45349873926409
 20
7.792704138534872
 10
-38.44742470662414
 20
7.824091849654905
 10
-38.44567634690406
 20
7.855946757514857
  0
LWPOLYLINE
  5
2DE
330
2
100
AcDbEntity
  8
GAIKEI
  6
Continuous
 62
     1
100
AcDbPolyline
 90
        9
 70
     0
 43
0.0
 10
-37.74819564390407
 20
7.855842331814869
 10
-37.74644520944412
 20
7.823978622174877
 10
-37.74035329564413
 20
7.792538545014849
 10
-37.7294986318841
 20
7.7623883747749
 10
-37.71325443570413
 20
7.734646713314873
 10
-37.69122280626402
 20
7.710729366374835
 10
-37.66439825702412
 20
7.692852989614834
 10
-37.63411354950404
 20
7.682285626554858
 10
-37.60214177938406
 20
7.678983750354859
  0
ARC
  5
2DF
330
2
100
AcDbEntity
  8
GAIKEI
  6
Continuous
 62
     1
100
AcDbCircle
 10
-35.99188797428417
 20
-148.4465626919251
 30
0.0
 40
156.1338501709886
100
AcDbArc
 50
89.4127795420008
 51
90.5909185131002
  0
LWPOLYLINE
  5
2E0
330
2
100
AcDbEntity
  8
GAIKEI
  6
Continuous
 62
     1
100
AcDbPolyline
 90
        9
 70
     0
 43
0.0
 10
-37.60203807154403
 20
11.18191932577485
 10
-37.63395623420411
 20
11.17863236729488
 10
-37.66418395958408
 20
11.16810887719487
 10
-37.69098354054404
 20
11.15029503057485
 10
-37.71300819296403
 20
11.12646188403482
 10
-37.72933377958407
 20
11.0986131748549
 10
-37.74026115950415
 20
11.06833877657482
 10
-37.74634100230412
 20
11.03694356379492
 10
-37.74809134450402
 20
11.00508175029483
  0
LWPOLYLINE
  5
2E1
330
2
100
AcDbEntity
  8
GAIKEI
  6
Continuous
 62
     1
100
AcDbPolyline
 90
        9
 70
     0
 43
0.0
 10
-34.39171102070407
 20
7.679087356154923
 10
-34.35978234106415
 20
7.682378446034817
 10
-34.32954804932411
 20
7.692912238154917
 10
-34.30274984104404
 20
7.710738526154841
 10
-34.28073207012403
 20
7.734582239714882
 10
-34.26441628136411
 20
7.762434510014827
 10
-34.25349873926405
 20
7.792704138534872
 10
-34.24742470662409
 20
7.824091849654905
 10
-34.24567634690402
 20
7.855946757514857
  0
ARC
  5
2E2
330
2
100
AcDbEntity
  8
GAIKEI
  6
Continuous
 62
     1
100
AcDbCircle
 10
-35.99191501982409
 20
165.6174221554148
 30
0.0
 40
154.4438960609466
100
AcDbArc
 50
269.4026638221992
 51
270.5936175864996
  0
ARC
  5
2E3
330
2
100
AcDbEntity
  8
GAIKEI
  6
Continuous
 62
     1
100
AcDbCircle
 10
117.935769682716
 20
9.435531203394816
 30
0.0
 40
152.1896435460989
100
AcDbArc
 50
179.4091305362009
 51
180.5946866357968
  0
ARC
  5
2E4
330
2
100
AcDbEntity
  8
GAIKEI
  6
Continuous
 62
     1
100
AcDbCircle
 10
-191.6168973061641
 20
9.43555800765489
 30
0.0
 40
153.876810640347
100
AcDbArc
 50
359.4117851116016
 51
0.5844197399980708
  0
LWPOLYLINE
  5
2E5
330
2
100
AcDbEntity
  8
GAIKEI
  6
Continuous
 62
     1
100
AcDbPolyline
 90
        9
 70
     0
 43
0.0
 10
-34.24578124460413
 20
11.00497698005483
 10
-34.24753120542414
 20
11.03685094559489
 10
-34.25362413800406
 20
11.06829353787486
 10
-34.26447924674403
 20
11.09843928939483
 10
-34.2807183601841
 20
11.12616928083491
 10
-34.30273877806405
 20
11.15007408357485
 10
-34.3295527388841
 20
11.16794496783484
 10
-34.35983424824406
 20
11.17851278919488
 10
-34.39181509214404
 20
11.18181515137485
  0
LINE
  5
2E6
330
2
100
AcDbEntity
  8
GAIKEI
  6
Continuous
 62
     1
100
AcDbLine
 10
-28.69217752832401
 20
14.89055762553482
 30
0.0
 11
-26.50148113554406
 21
14.89055762553482
 31
0.0
  0
LWPOLYLINE
  5
2E7
330
2
100
AcDbEntity
  8
GAIKEI
  6
Continuous
 62
     1
100
AcDbPolyline
 90
        9
 70
     0
 43
0.0
 10
-28.69217752832401
 20
17.17055762553491
 10
-28.7012662661441
 20
17.17010294217493
 10
-28.71016812382413
 20
17.16853393679491
 10
-28.71878376336417
 20
17.16541897981483
 10
-28.72628163284412
 20
17.1601694249149
 10
-28.73157891728397
 20
17.15274503927492
 10
-28.73474362690399
 20
17.14413868271492
 10
-28.73635911480415
 20
17.13511234243492
 10
-28.73682933194414
 20
17.12590582193491
  0
LWPOLYLINE
  5
2E8
330
2
100
AcDbEntity
  8
GAIKEI
  6
Continuous
 62
     1
100
AcDbPolyline
 90
        9
 70
     0
 43
0.0
 10
-28.73682933194414
 20
14.93520942915484
 10
-28.73637464858416
 20
14.92612069133486
 10
-28.73480564318402
 20
14.91721883363493
 10
-28.73169068620405
 20
14.90860319409489
 10
-28.72644113132401
 20
14.90110532463484
 10
-28.71901674568403
 20
14.89580804017487
 10
-28.71041038910403
 20
14.89264333057485
 10
-28.70138404882414
 20
14.89102784265492
 10
-28.69217752832401
 20
14.89055762553494
  0
LINE
  5
2E9
330
2
100
AcDbEntity
  8
GAIKEI
  6
Continuous
 62
     1
100
AcDbLine
 10
-26.50148113554406
 20
17.1705576255348
 30
0.0
 11
-28.69217752832401
 21
17.1705576255348
 31
0.0
  0
LINE
  5
2EA
330
2
100
AcDbEntity
  8
GAIKEI
  6
Continuous
 62
     1
100
AcDbLine
 10
-28.73682933194414
 20
17.12590582191478
 30
0.0
 11
-28.73682933194414
 21
14.93520942915484
 31
0.0
  0
LINE
  5
2EB
330
2
100
AcDbEntity
  8
GAIKEI
  6
Continuous
 62
     1
100
AcDbLine
 10
-27.05682933194407
 20
20.93055762553479
 30
0.0
 11
-27.05682933194407
 21
21.93055762553479
 31
0.0
  0
ARC
  5
2EC
330
2
100
AcDbEntity
  8
GAIKEI
  6
Continuous
 62
     1
100
AcDbCircle
 10
-27.09682933194404
 20
20.93055762553479
 30
0.0
 40
0.0399999999999998
100
AcDbArc
 50
270.0
 51
0.0
  0
ARC
  5
2ED
330
2
100
AcDbEntity
  8
GAIKEI
  6
Continuous
 62
     1
100
AcDbCircle
 10
-27.09682933194404
 20
21.93055762553479
 30
0.0
 40
0.0400000000000001
100
AcDbArc
 50
0.0
 51
90.0
  0
ARC
  5
2EE
330
2
100
AcDbEntity
  8
GAIKEI
  6
Continuous
 62
     1
100
AcDbCircle
 10
-28.09682933194404
 20
20.93055762553479
 30
0.0
 40
0.0399999999999998
100
AcDbArc
 50
180.0
 51
270.0
  0
LINE
  5
2EF
330
2
100
AcDbEntity
  8
GAIKEI
  6
Continuous
 62
     1
100
AcDbLine
 10
-28.136829331944
 20
21.93055762553479
 30
0.0
 11
-28.136829331944
 21
20.93055762553479
 31
0.0
  0
LINE
  5
2F0
330
2
100
AcDbEntity
  8
GAIKEI
  6
Continuous
 62
     1
100
AcDbLine
 10
-28.09682933194404
 20
20.89055762553483
 30
0.0
 11
-27.09682933194404
 21
20.89055762553483
 31
0.0
  0
ARC
  5
2F1
330
2
100
AcDbEntity
  8
GAIKEI
  6
Continuous
 62
     1
100
AcDbCircle
 10
-28.09682933194404
 20
21.93055762553479
 30
0.0
 40
0.0399999999999998
100
AcDbArc
 50
90.0
 51
180.0
  0
LINE
  5
2F2
330
2
100
AcDbEntity
  8
GAIKEI
  6
Continuous
 62
     1
100
AcDbLine
 10
-27.09682933194404
 20
21.97055762553487
 30
0.0
 11
-28.09682933194404
 21
21.97055762553487
 31
0.0
  0
LINE
  5
2F3
330
2
100
AcDbEntity
  8
GAIKEI
  6
Continuous
 62
     1
100
AcDbLine
 10
-22.25682933194412
 20
14.93520942915484
 30
0.0
 11
-22.25682933194412
 21
17.12590582191478
 31
0.0
  0
LINE
  5
2F4
330
2
100
AcDbEntity
  8
GAIKEI
  6
Continuous
 62
     1
100
AcDbLine
 10
-39.10148113554408
 20
17.1705576255348
 30
0.0
 11
-41.29217752832414
 21
17.1705576255348
 31
0.0
  0
LINE
  5
2F5
330
2
100
AcDbEntity
  8
GAIKEI
  6
Continuous
 62
     1
100
AcDbLine
 10
-10.67579430992418
 20
14.89055762553482
 30
0.0
 11
-8.517864353944105
 21
14.89055762553482
 31
0.0
  0
LINE
  5
2F6
330
2
100
AcDbEntity
  8
GAIKEI
  6
Continuous
 62
     1
100
AcDbLine
 10
-8.517864353944105
 20
17.1705576255348
 30
0.0
 11
-10.67579430992418
 21
17.1705576255348
 31
0.0
  0
LINE
  5
2F7
330
2
100
AcDbEntity
  8
GAIKEI
  6
Continuous
 62
     1
100
AcDbLine
 10
-32.93682933194418
 20
17.12590582191478
 30
0.0
 11
-32.93682933194418
 21
14.93520942915484
 31
0.0
  0
CIRCLE
  5
2F8
330
2
100
AcDbEntity
  8
GAIKEI
  6
Continuous
 62
     1
100
AcDbCircle
 10
-23.38927674292404
 20
9.438110214554853
 30
0.0
 40
1.600000000000004
  0
LWPOLYLINE
  5
2F9
330
2
100
AcDbEntity
  8
GAIKEI
  6
Continuous
 62
     1
100
AcDbPolyline
 90
        9
 70
     0
 43
0.0
 10
-25.00203807154412
 20
11.18191932577485
 10
-25.0339562342042
 20
11.17863236729488
 10
-25.06418395958417
 20
11.16810887719487
 10
-25.09098354054413
 20
11.15029503057485
 10
-25.11300819296412
 20
11.12646188403482
 10
-25.12933377958416
 20
11.0986131748549
 10
-25.14026115950401
 20
11.06833877657482
 10
-25.1463410023041
 20
11.03694356379492
 10
-25.14809134450411
 20
11.00508175029483
  0
LWPOLYLINE
  5
2FA
330
2
100
AcDbEntity
  8
GAIKEI
  6
Continuous
 62
     1
100
AcDbPolyline
 90
        9
 70
     0
 43
0.0
 10
-25.14819564390405
 20
7.855842331814869
 10
-25.14644520944421
 20
7.823978622174877
 10
-25.14035329564399
 20
7.792538545014849
 10
-25.12949863188419
 20
7.7623883747749
 10
-25.11325443570399
 20
7.734646713314873
 10
-25.09122280626411
 20
7.710729366374835
 10
-25.0643982570241
 20
7.692852989614834
 10
-25.03411354950413
 20
7.682285626554858
 10
-25.00214177938415
 20
7.678983750354859
  0
ARC
  5
2FB
330
2
100
AcDbEntity
  8
GAIKEI
  6
Continuous
 62
     1
100
AcDbCircle
 10
-23.39188797428414
 20
-148.4465626919251
 30
0.0
 40
156.1338501709961
100
AcDbArc
 50
89.4127795420008
 51
90.5909185131002
  0
ARC
  5
2FC
330
2
100
AcDbEntity
  8
GAIKEI
  6
Continuous
 62
     1
100
AcDbCircle
 10
-179.0168973062041
 20
9.43555800765489
 30
0.0
 40
153.8768106403884
100
AcDbArc
 50
359.4117851116016
 51
0.5844197399980708
  0
LWPOLYLINE
  5
2FD
330
2
100
AcDbEntity
  8
GAIKEI
  6
Continuous
 62
     1
100
AcDbPolyline
 90
        9
 70
     0
 43
0.0
 10
-21.79171102070404
 20
7.679087356154923
 10
-21.75978234106401
 20
7.682378446034817
 10
-21.7295480493242
 20
7.692912238154917
 10
-21.70274984104413
 20
7.710738526154841
 10
-21.68073207012412
 20
7.734582239714882
 10
-21.66441628136408
 20
7.762434510014827
 10
-21.65349873926402
 20
7.792704138534872
 10
-21.64742470662418
 20
7.824091849654905
 10
-21.64567634690411
 20
7.855946757514857
  0
LWPOLYLINE
  5
2FE
330
2
100
AcDbEntity
  8
GAIKEI
  6
Continuous
 62
     1
100
AcDbPolyline
 90
        9
 70
     0
 43
0.0
 10
-21.64578124460399
 20
11.00497698005483
 10
-21.647531205424
 20
11.03685094559489
 10
-21.65362413800403
 20
11.06829353787486
 10
-21.66447924674412
 20
11.09843928939483
 10
-21.68071836018407
 20
11.12616928083491
 10
-21.70273877806403
 20
11.15007408357485
 10
-21.72955273888419
 20
11.16794496783484
 10
-21.75983424824403
 20
11.17851278919488
 10
-21.79181509214414
 20
11.18181515137485
  0
ARC
  5
2FF
330
2
100
AcDbEntity
  8
GAIKEI
  6
Continuous
 62
     1
100
AcDbCircle
 10
-23.39191501982396
 20
165.6174221554148
 30
0.0
 40
154.4438960609466
100
AcDbArc
 50
269.4026638221992
 51
270.5936175864996
  0
ARC
  5
300
330
2
100
AcDbEntity
  8
GAIKEI
  6
Continuous
 62
     1
100
AcDbCircle
 10
130.5357696827159
 20
9.435531203394816
 30
0.0
 40
152.1896435460977
100
AcDbArc
 50
179.4091305362009
 51
180.5946866357968
  0
LINE
  5
301
330
2
100
AcDbEntity
  8
GAIKEI
  6
Continuous
 62
     1
100
AcDbLine
 10
-24.53682933194409
 20
17.12590582191478
 30
0.0
 11
-24.53682933194409
 21
14.93520942915484
 31
0.0
  0
LWPOLYLINE
  5
302
330
2
100
AcDbEntity
  8
GAIKEI
  6
Continuous
 62
     1
100
AcDbPolyline
 90
        9
 70
     0
 43
0.0
 10
-24.49217752832419
 20
17.17055762553491
 10
-24.50126626614406
 20
17.17010294217493
 10
-24.51016812382409
 20
17.16853393679491
 10
-24.51878376336413
 20
17.16541897981483
 10
-24.52628163284408
 20
17.1601694249149
 10
-24.53157891728415
 20
17.15274503927492
 10
-24.53474362690418
 20
17.14413868271492
 10
-24.5363591148041
 20
17.13511234243492
 10
-24.53682933194409
 20
17.12590582193491
  0
LINE
  5
303
330
2
100
AcDbEntity
  8
GAIKEI
  6
Continuous
 62
     1
100
AcDbLine
 10
-24.49217752832419
 20
14.89055762553482
 30
0.0
 11
-22.30148113554401
 21
14.89055762553482
 31
0.0
  0
LWPOLYLINE
  5
304
330
2
100
AcDbEntity
  8
GAIKEI
  6
Continuous
 62
     1
100
AcDbPolyline
 90
        9
 70
     0
 43
0.0
 10
-22.25682933194412
 20
17.1259058219149
 10
-22.25728401528408
 20
17.13499455973488
 10
-22.258853020684
 20
17.14389641743492
 10
-22.2619679776642
 20
17.15251205697484
 10
-22.26721753256402
 20
17.1600099264549
 10
-22.27464191818399
 20
17.16530721089486
 10
-22.28324827476399
 20
17.16847192049488
 10
-22.29227461504411
 20
17.17008740841493
 10
-22.30148113554401
 20
17.17055762553491
  0
LWPOLYLINE
  5
305
330
2
100
AcDbEntity
  8
GAIKEI
  6
Continuous
 62
     1
100
AcDbPolyline
 90
        9
 70
     0
 43
0.0
 10
-24.53682933194409
 20
14.93520942915484
 10
-24.53637464858412
 20
14.92612069133486
 10
-24.5348056431842
 20
14.91721883363493
 10
-24.531690686204
 20
14.90860319409489
 10
-24.52644113132419
 20
14.90110532463484
 10
-24.51901674568399
 20
14.89580804017487
 10
-24.51041038910398
 20
14.89264333057485
 10
-24.50138404882409
 20
14.89102784265492
 10
-24.49217752832419
 20
14.89055762553494
  0
LINE
  5
306
330
2
100
AcDbEntity
  8
GAIKEI
  6
Continuous
 62
     1
100
AcDbLine
 10
-22.30148113554401
 20
17.1705576255348
 30
0.0
 11
-24.49217752832419
 21
17.1705576255348
 31
0.0
  0
LWPOLYLINE
  5
307
330
2
100
AcDbEntity
  8
GAIKEI
  6
Continuous
 62
     1
100
AcDbPolyline
 90
        9
 70
     0
 43
0.0
 10
-22.30148113554401
 20
14.89055762553494
 10
-22.29239239774415
 20
14.89101230889491
 10
-22.28349054004411
 20
14.89258131427482
 10
-22.27487490050407
 20
14.8956962712549
 10
-22.26737703102413
 20
14.90094582615484
 10
-22.26207974658405
 20
14.90837021179482
 10
-22.25891503698404
 20
14.91697656837482
 10
-22.2572995490641
 20
14.92600290863492
 10
-22.25682933194412
 20
14.93520942913483
  0
LWPOLYLINE
  5
308
330
2
100
AcDbEntity
  8
GAIKEI
  6
Continuous
 62
     1
100
AcDbPolyline
 90
        9
 70
     0
 43
0.0
 10
-26.50148113554406
 20
14.89055762553494
 10
-26.49239239774397
 20
14.89101230889491
 10
-26.48349054004416
 20
14.89258131427482
 10
-26.47487490050412
 20
14.8956962712549
 10
-26.46737703102417
 20
14.90094582615484
 10
-26.46207974658409
 20
14.90837021179482
 10
-26.45891503698408
 20
14.91697656837482
 10
-26.45729954906415
 20
14.92600290863492
 10
-26.45682933194417
 20
14.93520942913483
  0
LINE
  5
309
330
2
100
AcDbEntity
  8
GAIKEI
  6
Continuous
 62
     1
100
AcDbLine
 10
-26.45682933194417
 20
14.93520942915484
 30
0.0
 11
-26.45682933194417
 21
17.12590582191478
 31
0.0
  0
LWPOLYLINE
  5
30A
330
2
100
AcDbEntity
  8
GAIKEI
  6
Continuous
 62
     1
100
AcDbPolyline
 90
        9
 70
     0
 43
0.0
 10
-26.45682933194417
 20
17.1259058219149
 10
-26.45728401528413
 20
17.13499455973488
 10
-26.45885302068405
 20
17.14389641743492
 10
-26.46196797766402
 20
17.15251205697484
 10
-26.46721753256406
 20
17.1600099264549
 10
-26.47464191818404
 20
17.16530721089486
 10
-26.48324827476404
 20
17.16847192049488
 10
-26.49227461504415
 20
17.17008740841493
 10
-26.50148113554406
 20
17.17055762553491
  0
ARC
  5
30B
330
2
100
AcDbEntity
  8
GAIKEI
  6
Continuous
 62
     1
100
AcDbCircle
 10
-17.49682933194413
 20
20.93055762553479
 30
0.0
 40
0.0399999999999998
100
AcDbArc
 50
270.0
 51
0.0
  0
LINE
  5
30C
330
2
100
AcDbEntity
  8
GAIKEI
  6
Continuous
 62
     1
100
AcDbLine
 10
-17.45682933194416
 20
20.93055762553479
 30
0.0
 11
-17.45682933194416
 21
21.93055762553479
 31
0.0
  0
ARC
  5
30D
330
2
100
AcDbEntity
  8
GAIKEI
  6
Continuous
 62
     1
100
AcDbCircle
 10
-17.49682933194413
 20
21.93055762553479
 30
0.0
 40
0.0399999999999998
100
AcDbArc
 50
0.0
 51
90.0
  0
ARC
  5
30E
330
2
100
AcDbEntity
  8
GAIKEI
  6
Continuous
 62
     1
100
AcDbCircle
 10
-18.49682933194413
 20
21.93055762553479
 30
0.0
 40
0.0399999999999998
100
AcDbArc
 50
90.0
 51
180.0
  0
LINE
  5
30F
330
2
100
AcDbEntity
  8
GAIKEI
  6
Continuous
 62
     1
100
AcDbLine
 10
-18.49682933194413
 20
20.89055762553483
 30
0.0
 11
-17.49682933194413
 21
20.89055762553483
 31
0.0
  0
LINE
  5
310
330
2
100
AcDbEntity
  8
GAIKEI
  6
Continuous
 62
     1
100
AcDbLine
 10
-17.49682933194413
 20
21.97055762553487
 30
0.0
 11
-18.49682933194413
 21
21.97055762553487
 31
0.0
  0
LINE
  5
311
330
2
100
AcDbEntity
  8
GAIKEI
  6
Continuous
 62
     1
100
AcDbLine
 10
-18.53682933194409
 20
21.93055762553479
 30
0.0
 11
-18.53682933194409
 21
20.93055762553479
 31
0.0
  0
ARC
  5
312
330
2
100
AcDbEntity
  8
GAIKEI
  6
Continuous
 62
     1
100
AcDbCircle
 10
-18.49682933194413
 20
20.93055762553479
 30
0.0
 40
0.0399999999999998
100
AcDbArc
 50
180.0
 51
270.0
  0
LINE
  5
313
330
2
100
AcDbEntity
  8
GAIKEI
  6
Continuous
 62
     1
100
AcDbLine
 10
-16.85682933194402
 20
14.95159264755489
 30
0.0
 11
-16.85682933194402
 21
17.10952260351485
 31
0.0
  0
LWPOLYLINE
  5
314
330
2
100
AcDbEntity
  8
GAIKEI
  6
Continuous
 62
     1
100
AcDbPolyline
 90
        9
 70
     0
 43
0.0
 10
-16.85682933194402
 20
17.10952260351485
 10
-16.85757007684401
 20
17.12189798687484
 10
-16.8600582360641
 20
17.13397713333484
 10
-16.86477839208419
 20
17.14537400115489
 10
-16.87210686772414
 20
17.15522342653492
 10
-16.88199547984413
 20
17.16259111069485
 10
-16.89345448448421
 20
17.1673419056749
 10
-16.90551652372414
 20
17.16982336559488
 10
-16.91786435394419
 20
17.17055762553491
  0
LINE
  5
315
330
2
100
AcDbEntity
  8
GAIKEI
  6
Continuous
 62
     1
100
AcDbLine
 10
-16.91786435394419
 20
17.1705576255348
 30
0.0
 11
-19.07579430992405
 21
17.1705576255348
 31
0.0
  0
LWPOLYLINE
  5
316
330
2
100
AcDbEntity
  8
GAIKEI
  6
Continuous
 62
     1
100
AcDbPolyline
 90
        9
 70
     0
 43
0.0
 10
-16.91786435394419
 20
14.89055762553494
 10
-16.90548897060398
 20
14.89129837045493
 10
-16.8934098241441
 20
14.89378652967491
 10
-16.88201295630415
 20
14.89850668567487
 10
-16.87216353094413
 20
14.90583516133483
 10
-16.86479584676408
 20
14.91572377343482
 10
-16.86004505180403
 20
14.92718277807489
 10
-16.85756359188417
 20
14.93924481733484
 10
-16.85682933194402
 20
14.95159264753488
  0
LINE
  5
317
330
2
100
AcDbEntity
  8
GAIKEI
  6
Continuous
 62
     1
100
AcDbLine
 10
-19.07579430992405
 20
14.89055762553482
 30
0.0
 11
-16.91786435394419
 21
14.89055762553482
 31
0.0
  0
LWPOLYLINE
  5
318
330
2
100
AcDbEntity
  8
GAIKEI
  6
Continuous
 62
     1
100
AcDbPolyline
 90
        9
 70
     0
 43
0.0
 10
-19.136829331944
 20
14.95159264755489
 10
-19.136088587024
 20
14.9392172642149
 10
-19.13360042780414
 20
14.9271381177349
 10
-19.12888027180406
 20
14.91574124991484
 10
-19.1215517961441
 20
14.90589182453482
 10
-19.11166318402411
 20
14.89852414037489
 10
-19.10020417938403
 20
14.89377334539483
 10
-19.0881421401441
 20
14.89129188547486
 10
-19.07579430994406
 20
14.89055762553494
  0
LWPOLYLINE
  5
319
330
2
100
AcDbEntity
  8
GAIKEI
  6
Continuous
 62
     1
100
AcDbPolyline
 90
        9
 70
     0
 43
0.0
 10
-19.07579430992405
 20
17.17055762553491
 10
-19.08816969326403
 20
17.16981688061492
 10
-19.10024883974415
 20
17.16732872141483
 10
-19.11164570756409
 20
17.16260856539486
 10
-19.12149513294412
 20
17.1552800897349
 10
-19.12886281710416
 20
17.14539147763491
 10
-19.13361361208399
 20
17.13393247299484
 10
-19.13609507200408
 20
17.12187043373489
 10
-19.136829331944
 20
17.10952260353485
  0
LINE
  5
31A
330
2
100
AcDbEntity
  8
GAIKEI
  6
Continuous
 62
     1
100
AcDbLine
 10
-19.136829331944
 20
17.10952260351485
 30
0.0
 11
-19.136829331944
 21
14.95159264755489
 31
0.0
  0
LWPOLYLINE
  5
31B
330
2
100
AcDbEntity
  8
GAIKEI
  6
Continuous
 62
     1
100
AcDbPolyline
 90
        9
 70
     0
 43
0.0
 10
-33.54819564390414
 20
7.855842331814869
 10
-33.54644520944408
 20
7.823978622174877
 10
-33.54035329564408
 20
7.792538545014849
 10
-33.52949863188405
 20
7.7623883747749
 10
-33.51325443570408
 20
7.734646713314873
 10
-33.49122280626409
 20
7.710729366374835
 10
-33.46439825702407
 20
7.692852989614834
 10
-33.4341135495041
 20
7.682285626554858
 10
-33.40214177938412
 20
7.678983750354859
  0
ARC
  5
31C
330
2
100
AcDbEntity
  8
GAIKEI
  6
Continuous
 62
     1
100
AcDbCircle
 10
-31.79188797428424
 20
-148.4465626919251
 30
0.0
 40
156.1338501709979
100
AcDbArc
 50
89.4127795420008
 51
90.5909185131002
  0
LWPOLYLINE
  5
31D
330
2
100
AcDbEntity
  8
GAIKEI
  6
Continuous
 62
     1
100
AcDbPolyline
 90
        9
 70
     0
 43
0.0
 10
-33.4020380715441
 20
11.18191932577485
 10
-33.43395623420406
 20
11.17863236729488
 10
-33.46418395958404
 20
11.16810887719487
 10
-33.49098354054411
 20
11.15029503057485
 10
-33.51300819296409
 20
11.12646188403482
 10
-33.52933377958402
 20
11.0986131748549
 10
-33.5402611595041
 20
11.06833877657482
 10
-33.54634100230408
 20
11.03694356379492
 10
-33.54809134450409
 20
11.00508175029483
  0
LWPOLYLINE
  5
31E
330
2
100
AcDbEntity
  8
GAIKEI
  6
Continuous
 62
     1
100
AcDbPolyline
 90
        9
 70
     0
 43
0.0
 10
-30.19171102070413
 20
7.679087356154923
 10
-30.1597823410641
 20
7.682378446034817
 10
-30.12954804932406
 20
7.692912238154917
 10
-30.10274984104399
 20
7.710738526154841
 10
-30.08073207012421
 20
7.734582239714882
 10
-30.06441628136418
 20
7.762434510014827
 10
-30.05349873926411
 20
7.792704138534872
 10
-30.04742470662404
 20
7.824091849654905
 10
-30.0456763469042
 20
7.855946757514857
  0
ARC
  5
31F
330
2
100
AcDbEntity
  8
GAIKEI
  6
Continuous
 62
     1
100
AcDbCircle
 10
-187.416897306184
 20
9.43555800765489
 30
0.0
 40
153.8768106403833
100
AcDbArc
 50
359.4117851116016
 51
0.5844197399980708
  0
LWPOLYLINE
  5
320
330
2
100
AcDbEntity
  8
GAIKEI
  6
Continuous
 62
     1
100
AcDbPolyline
 90
        9
 70
     0
 43
0.0
 10
-30.04578124460409
 20
11.00497698005483
 10
-30.04753120542409
 20
11.03685094559489
 10
-30.05362413800412
 20
11.06829353787486
 10
-30.06447924674422
 20
11.09843928939483
 10
-30.08071836018416
 20
11.12616928083491
 10
-30.10273877806412
 20
11.15007408357485
 10
-30.12955273888406
 20
11.16794496783484
 10
-30.15983424824412
 20
11.17851278919488
 10
-30.191815092144
 20
11.18181515137485
  0
ARC
  5
321
330
2
100
AcDbEntity
  8
GAIKEI
  6
Continuous
 62
     1
100
AcDbCircle
 10
-31.79191501982405
 20
165.6174221554148
 30
0.0
 40
154.4438960609463
100
AcDbArc
 50
269.4026638221992
 51
270.5936175864996
  0
ARC
  5
322
330
2
100
AcDbEntity
  8
GAIKEI
  6
Continuous
 62
     1
100
AcDbCircle
 10
122.1357696826958
 20
9.435531203394816
 30
0.0
 40
152.1896435460784
100
AcDbArc
 50
179.4091305362009
 51
180.5946866357968
  0
LWPOLYLINE
  5
323
330
2
100
AcDbEntity
  8
GAIKEI
  6
Continuous
 62
     1
100
AcDbPolyline
 90
        9
 70
     0
 43
0.0
 10
-7.991711020704087
 20
7.679087356154923
 10
-7.959782341064055
 20
7.682378446034817
 10
-7.929548049324012
 20
7.692912238154917
 10
-7.902749841044169
 20
7.710738526154841
 10
-7.880732070124167
 20
7.734582239714882
 10
-7.864416281364128
 20
7.762434510014827
 10
-7.853498739264068
 20
7.792704138534872
 10
-7.847424706623996
 20
7.824091849654905
 10
-7.845676346904156
 20
7.855946757514857
  0
ARC
  5
324
330
2
100
AcDbEntity
  8
GAIKEI
  6
Continuous
 62
     1
100
AcDbCircle
 10
-9.59188797428419
 20
-148.4465626919251
 30
0.0
 40
156.1338501709979
100
AcDbArc
 50
89.4127795420008
 51
90.5909185131002
  0
LWPOLYLINE
  5
325
330
2
100
AcDbEntity
  8
GAIKEI
  6
Continuous
 62
     1
100
AcDbPolyline
 90
        9
 70
     0
 43
0.0
 10
-7.84578124460404
 20
11.00497698005483
 10
-7.847531205424047
 20
11.03685094559489
 10
-7.853624138004079
 20
11.06829353787486
 10
-7.864479246744167
 20
11.09843928939483
 10
-7.880718360184118
 20
11.12616928083491
 10
-7.902738778064076
 20
11.15007408357485
 10
-7.929552738884012
 20
11.16794496783484
 10
-7.959834248244078
 20
11.17851278919488
 10
-7.991815092144179
 20
11.18181515137485
  0
ARC
  5
326
330
2
100
AcDbEntity
  8
GAIKEI
  6
Continuous
 62
     1
100
AcDbCircle
 10
-9.591915019824
 20
165.6174221554148
 30
0.0
 40
154.4438960609465
100
AcDbArc
 50
269.4026638221992
 51
270.5936175864996
  0
ARC
  5
327
330
2
100
AcDbEntity
  8
GAIKEI
  6
Continuous
 62
     1
100
AcDbCircle
 10
144.3357696826961
 20
9.435531203394816
 30
0.0
 40
152.1896435460779
100
AcDbArc
 50
179.4091305362009
 51
180.5946866357968
  0
LWPOLYLINE
  5
328
330
2
100
AcDbEntity
  8
GAIKEI
  6
Continuous
 62
     1
100
AcDbPolyline
 90
        9
 70
     0
 43
0.0
 10
-11.20203807154416
 20
11.18191932577485
 10
-11.23395623420401
 20
11.17863236729488
 10
-11.26418395958399
 20
11.16810887719487
 10
-11.29098354054417
 20
11.15029503057485
 10
-11.31300819296416
 20
11.12646188403482
 10
-11.32933377958397
 20
11.0986131748549
 10
-11.34026115950405
 20
11.06833877657482
 10
-11.34634100230414
 20
11.03694356379492
 10
-11.34809134450415
 20
11.00508175029483
  0
LINE
  5
329
330
2
100
AcDbEntity
  8
GAIKEI
  6
Continuous
 62
     1
100
AcDbLine
 10
-30.65682933194421
 20
14.93520942915484
 30
0.0
 11
-30.65682933194421
 21
17.12590582191478
 31
0.0
  0
LWPOLYLINE
  5
32A
330
2
100
AcDbEntity
  8
GAIKEI
  6
Continuous
 62
     1
100
AcDbPolyline
 90
        9
 70
     0
 43
0.0
 10
-25.99171102070409
 20
7.679087356154923
 10
-25.95978234106406
 20
7.682378446034817
 10
-25.92954804932401
 20
7.692912238154917
 10
-25.90274984104417
 20
7.710738526154841
 10
-25.88073207012417
 20
7.734582239714882
 10
-25.86441628136413
 20
7.762434510014827
 10
-25.85349873926407
 20
7.792704138534872
 10
-25.847424706624
 20
7.824091849654905
 10
-25.84567634690416
 20
7.855946757514857
  0
ARC
  5
32B
330
2
100
AcDbEntity
  8
GAIKEI
  6
Continuous
 62
     1
100
AcDbCircle
 10
-27.59188797428419
 20
-148.4465626919251
 30
0.0
 40
156.1338501709978
100
AcDbArc
 50
89.4127795420008
 51
90.5909185131002
  0
ARC
  5
32C
330
2
100
AcDbEntity
  8
GAIKEI
  6
Continuous
 62
     1
100
AcDbCircle
 10
-27.591915019824
 20
165.6174221554148
 30
0.0
 40
154.4438960609498
100
AcDbArc
 50
269.4026638221992
 51
270.5936175864996
  0
ARC
  5
32D
330
2
100
AcDbEntity
  8
GAIKEI
  6
Continuous
 62
     1
100
AcDbCircle
 10
126.3357696827158
 20
9.435531203394816
 30
0.0
 40
152.1896435460923
100
AcDbArc
 50
179.4091305362009
 51
180.5946866357968
  0
LWPOLYLINE
  5
32E
330
2
100
AcDbEntity
  8
GAIKEI
  6
Continuous
 62
     1
100
AcDbPolyline
 90
        9
 70
     0
 43
0.0
 10
-25.84578124460404
 20
11.00497698005483
 10
-25.84753120542405
 20
11.03685094559489
 10
-25.85362413800408
 20
11.06829353787486
 10
-25.86447924674417
 20
11.09843928939483
 10
-25.88071836018412
 20
11.12616928083491
 10
-25.90273877806408
 20
11.15007408357485
 10
-25.92955273888402
 20
11.16794496783484
 10
-25.95983424824408
 20
11.17851278919488
 10
-25.99181509214418
 20
11.18181515137485
  0
LWPOLYLINE
  5
32F
330
2
100
AcDbEntity
  8
GAIKEI
  6
Continuous
 62
     1
100
AcDbPolyline
 90
        9
 70
     0
 43
0.0
 10
-29.20203807154417
 20
11.18191932577485
 10
-29.23395623420402
 20
11.17863236729488
 10
-29.26418395958399
 20
11.16810887719487
 10
-29.29098354054417
 20
11.15029503057485
 10
-29.31300819296416
 20
11.12646188403482
 10
-29.32933377958398
 20
11.0986131748549
 10
-29.34026115950405
 20
11.06833877657482
 10
-29.34634100230415
 20
11.03694356379492
 10
-29.34809134450416
 20
11.00508175029483
  0
LWPOLYLINE
  5
330
330
2
100
AcDbEntity
  8
GAIKEI
  6
Continuous
 62
     1
100
AcDbPolyline
 90
        9
 70
     0
 43
0.0
 10
-29.34819564390409
 20
7.855842331814869
 10
-29.34644520944403
 20
7.823978622174877
 10
-29.34035329564404
 20
7.792538545014849
 10
-29.32949863188401
 20
7.7623883747749
 10
-29.31325443570404
 20
7.734646713314873
 10
-29.29122280626416
 20
7.710729366374835
 10
-29.26439825702414
 20
7.692852989614834
 10
-29.23411354950417
 20
7.682285626554858
 10
-29.20214177938396
 20
7.678983750354859
  0
ARC
  5
331
330
2
100
AcDbEntity
  8
GAIKEI
  6
Continuous
 62
     1
100
AcDbCircle
 10
-183.2168973062041
 20
9.43555800765489
 30
0.0
 40
153.8768106403915
100
AcDbArc
 50
359.4117851116016
 51
0.5844197399980708
  0
LINE
  5
332
330
2
100
AcDbEntity
  8
GAIKEI
  6
Continuous
 62
     1
100
AcDbLine
 10
-34.90148113554415
 20
17.1705576255348
 30
0.0
 11
-37.0921775283241
 21
17.1705576255348
 31
0.0
  0
LINE
  5
333
330
2
100
AcDbEntity
  8
GAIKEI
  6
Continuous
 62
     1
100
AcDbLine
 10
-34.85682933194414
 20
14.93520942915484
 30
0.0
 11
-34.85682933194414
 21
17.12590582191478
 31
0.0
  0
LINE
  5
334
330
2
100
AcDbEntity
  8
GAIKEI
  6
Continuous
 62
     1
100
AcDbLine
 10
-22.85682933194403
 20
20.93055762553479
 30
0.0
 11
-22.85682933194403
 21
21.93055762553479
 31
0.0
  0
ARC
  5
335
330
2
100
AcDbEntity
  8
GAIKEI
  6
Continuous
 62
     1
100
AcDbCircle
 10
-23.89682933194399
 20
21.93055762553479
 30
0.0
 40
0.0399999999999998
100
AcDbArc
 50
90.0
 51
180.0
  0
LINE
  5
336
330
2
100
AcDbEntity
  8
GAIKEI
  6
Continuous
 62
     1
100
AcDbLine
 10
-23.93682933194418
 20
21.93055762553479
 30
0.0
 11
-23.93682933194418
 21
20.93055762553479
 31
0.0
  0
ARC
  5
337
330
2
100
AcDbEntity
  8
GAIKEI
  6
Continuous
 62
     1
100
AcDbCircle
 10
-23.89682933194399
 20
20.93055762553479
 30
0.0
 40
0.04
100
AcDbArc
 50
180.0
 51
270.0
  0
LINE
  5
338
330
2
100
AcDbEntity
  8
GAIKEI
  6
Continuous
 62
     1
100
AcDbLine
 10
-23.89682933194399
 20
20.89055762553483
 30
0.0
 11
-22.89682933194399
 21
20.89055762553483
 31
0.0
  0
ARC
  5
339
330
2
100
AcDbEntity
  8
GAIKEI
  6
Continuous
 62
     1
100
AcDbCircle
 10
-22.89682933194399
 20
20.93055762553479
 30
0.0
 40
0.0399999999999998
100
AcDbArc
 50
270.0
 51
0.0
  0
ARC
  5
33A
330
2
100
AcDbEntity
  8
GAIKEI
  6
Continuous
 62
     1
100
AcDbCircle
 10
-22.89682933194399
 20
21.93055762553479
 30
0.0
 40
0.0400000000000001
100
AcDbArc
 50
0.0
 51
90.0
  0
LINE
  5
33B
330
2
100
AcDbEntity
  8
GAIKEI
  6
Continuous
 62
     1
100
AcDbLine
 10
-22.89682933194399
 20
21.97055762553487
 30
0.0
 11
-23.89682933194399
 21
21.97055762553487
 31
0.0
  0
LINE
  5
33C
330
2
100
AcDbEntity
  8
GAIKEI
  6
Continuous
 62
     1
100
AcDbLine
 10
-41.33682933194404
 20
17.12590582191478
 30
0.0
 11
-41.33682933194404
 21
14.93520942915484
 31
0.0
  0
LWPOLYLINE
  5
33D
330
2
100
AcDbEntity
  8
GAIKEI
  6
Continuous
 62
     1
100
AcDbPolyline
 90
        9
 70
     0
 43
0.0
 10
-41.33682933194404
 20
14.93520942915484
 10
-41.33637464858407
 20
14.92612069133486
 10
-41.33480564318404
 20
14.91721883363493
 10
-41.33169068620406
 20
14.90860319409489
 10
-41.32644113132414
 20
14.90110532463484
 10
-41.31901674568405
 20
14.89580804017487
 10
-41.31041038910405
 20
14.89264333057485
 10
-41.30138404882404
 20
14.89102784265492
 10
-41.29217752832414
 20
14.89055762553494
  0
LINE
  5
33E
330
2
100
AcDbEntity
  8
GAIKEI
  6
Continuous
 62
     1
100
AcDbLine
 10
-39.05682933194407
 20
14.93520942915484
 30
0.0
 11
-39.05682933194407
 21
17.12590582191478
 31
0.0
  0
LWPOLYLINE
  5
33F
330
2
100
AcDbEntity
  8
GAIKEI
  6
Continuous
 62
     1
100
AcDbPolyline
 90
        9
 70
     0
 43
0.0
 10
-39.10148113554408
 20
14.89055762553494
 10
-39.09239239774411
 20
14.89101230889491
 10
-39.08349054004407
 20
14.89258131427482
 10
-39.07487490050403
 20
14.8956962712549
 10
-39.06737703102408
 20
14.90094582615484
 10
-39.06207974658412
 20
14.90837021179482
 10
-39.05891503698411
 20
14.91697656837482
 10
-39.05729954906405
 20
14.92600290863492
 10
-39.05682933194407
 20
14.93520942913483
  0
LINE
  5
340
330
2
100
AcDbEntity
  8
GAIKEI
  6
Continuous
 62
     1
100
AcDbLine
 10
-41.29217752832414
 20
14.89055762553482
 30
0.0
 11
-39.10148113554408
 21
14.89055762553482
 31
0.0
  0
LWPOLYLINE
  5
341
330
2
100
AcDbEntity
  8
GAIKEI
  6
Continuous
 62
     1
100
AcDbPolyline
 90
        9
 70
     0
 43
0.0
 10
-39.05682933194407
 20
17.1259058219149
 10
-39.05728401528404
 20
17.13499455973488
 10
-39.05885302068407
 20
17.14389641743492
 10
-39.06196797766404
 20
17.15251205697484
 10
-39.06721753256409
 20
17.1600099264549
 10
-39.07464191818406
 20
17.16530721089486
 10
-39.08324827476406
 20
17.16847192049488
 10
-39.09227461504406
 20
17.17008740841493
 10
-39.10148113554408
 20
17.17055762553491
  0
LWPOLYLINE
  5
342
330
2
100
AcDbEntity
  8
GAIKEI
  6
Continuous
 62
     1
100
AcDbPolyline
 90
        9
 70
     0
 43
0.0
 10
-37.13682933194411
 20
14.93520942915484
 10
-37.13637464858403
 20
14.92612069133486
 10
-37.13480564318411
 20
14.91721883363493
 10
-37.13169068620414
 20
14.90860319409489
 10
-37.1264411313241
 20
14.90110532463484
 10
-37.11901674568412
 20
14.89580804017487
 10
-37.11041038910412
 20
14.89264333057485
 10
-37.10138404882412
 20
14.89102784265492
 10
-37.0921775283241
 20
14.89055762553494
  0
LWPOLYLINE
  5
343
330
2
100
AcDbEntity
  8
GAIKEI
  6
Continuous
 62
     1
100
AcDbPolyline
 90
        9
 70
     0
 43
0.0
 10
-37.0921775283241
 20
17.17055762553491
 10
-37.10126626614408
 20
17.17010294217493
 10
-37.11016812382411
 20
17.16853393679491
 10
-37.11878376336404
 20
17.16541897981483
 10
-37.1262816328441
 20
17.1601694249149
 10
-37.13157891728406
 20
17.15274503927492
 10
-37.13474362690408
 20
17.14413868271492
 10
-37.13635911480412
 20
17.13511234243492
 10
-37.13682933194411
 20
17.12590582193491
  0
LINE
  5
344
330
2
100
AcDbEntity
  8
GAIKEI
  6
Continuous
 62
     1
100
AcDbLine
 10
-37.13682933194411
 20
17.12590582191478
 30
0.0
 11
-37.13682933194411
 21
14.93520942915484
 31
0.0
  0
LWPOLYLINE
  5
345
330
2
100
AcDbEntity
  8
GAIKEI
  6
Continuous
 62
     1
100
AcDbPolyline
 90
        9
 70
     0
 43
0.0
 10
-34.85682933194403
 20
17.1259058219149
 10
-34.85728401528411
 20
17.13499455973488
 10
-34.85885302068414
 20
17.14389641743492
 10
-34.86196797766411
 20
17.15251205697484
 10
-34.86721753256404
 20
17.1600099264549
 10
-34.87464191818413
 20
17.16530721089486
 10
-34.88324827476413
 20
17.16847192049488
 10
-34.89227461504402
 20
17.17008740841493
 10
-34.90148113554415
 20
17.17055762553491
  0
LWPOLYLINE
  5
346
330
2
100
AcDbEntity
  8
GAIKEI
  6
Continuous
 62
     1
100
AcDbPolyline
 90
        9
 70
     0
 43
0.0
 10
-34.90148113554415
 20
14.89055762553494
 10
-34.89239239774406
 20
14.89101230889491
 10
-34.88349054004402
 20
14.89258131427482
 10
-34.8748749005041
 20
14.8956962712549
 10
-34.86737703102404
 20
14.90094582615484
 10
-34.86207974658408
 20
14.90837021179482
 10
-34.85891503698406
 20
14.91697656837482
 10
-34.85729954906413
 20
14.92600290863492
 10
-34.85682933194403
 20
14.93520942913483
  0
LINE
  5
347
330
2
100
AcDbEntity
  8
GAIKEI
  6
Continuous
 62
     1
100
AcDbLine
 10
-37.0921775283241
 20
14.89055762553482
 30
0.0
 11
-34.90148113554415
 21
14.89055762553482
 31
0.0
  0
LINE
  5
348
330
2
100
AcDbEntity
  8
GAIKEI
  6
Continuous
 62
     1
100
AcDbLine
 10
-30.7014811355441
 20
17.1705576255348
 30
0.0
 11
-32.89217752832406
 21
17.1705576255348
 31
0.0
  0
LWPOLYLINE
  5
349
330
2
100
AcDbEntity
  8
GAIKEI
  6
Continuous
 62
     1
100
AcDbPolyline
 90
        9
 70
     0
 43
0.0
 10
-32.93682933194418
 20
14.93520942915484
 10
-32.93637464858421
 20
14.92612069133486
 10
-32.93480564318406
 20
14.91721883363493
 10
-32.9316906862041
 20
14.90860319409489
 10
-32.92644113132406
 20
14.90110532463484
 10
-32.91901674568407
 20
14.89580804017487
 10
-32.91041038910407
 20
14.89264333057485
 10
-32.90138404882418
 20
14.89102784265492
 10
-32.89217752832406
 20
14.89055762553494
  0
LWPOLYLINE
  5
34A
330
2
100
AcDbEntity
  8
GAIKEI
  6
Continuous
 62
     1
100
AcDbPolyline
 90
        9
 70
     0
 43
0.0
 10
-32.89217752832406
 20
17.17055762553491
 10
-32.90126626614415
 20
17.17010294217493
 10
-32.91016812382418
 20
17.16853393679491
 10
-32.91878376336399
 20
17.16541897981483
 10
-32.92628163284417
 20
17.1601694249149
 10
-32.93157891728402
 20
17.15274503927492
 10
-32.93474362690404
 20
17.14413868271492
 10
-32.93635911480419
 20
17.13511234243492
 10
-32.93682933194418
 20
17.12590582193491
  0
LWPOLYLINE
  5
34B
330
2
100
AcDbEntity
  8
GAIKEI
  6
Continuous
 62
     1
100
AcDbPolyline
 90
        9
 70
     0
 43
0.0
 10
-30.7014811355441
 20
14.89055762553494
 10
-30.69239239774402
 20
14.89101230889491
 10
-30.6834905400442
 20
14.89258131427482
 10
-30.67487490050416
 20
14.8956962712549
 10
-30.66737703102399
 20
14.90094582615484
 10
-30.66207974658414
 20
14.90837021179482
 10
-30.65891503698413
 20
14.91697656837482
 10
-30.65729954906419
 20
14.92600290863492
 10
-30.65682933194421
 20
14.93520942913483
  0
LWPOLYLINE
  5
34C
330
2
100
AcDbEntity
  8
GAIKEI
  6
Continuous
 62
     1
100
AcDbPolyline
 90
        9
 70
     0
 43
0.0
 10
-30.65682933194421
 20
17.1259058219149
 10
-30.65728401528418
 20
17.13499455973488
 10
-30.65885302068409
 20
17.14389641743492
 10
-30.66196797766406
 20
17.15251205697484
 10
-30.66721753256411
 20
17.1600099264549
 10
-30.67464191818408
 20
17.16530721089486
 10
-30.68324827476408
 20
17.16847192049488
 10
-30.69227461504397
 20
17.17008740841493
 10
-30.7014811355441
 20
17.17055762553491
  0
LINE
  5
34D
330
2
100
AcDbEntity
  8
GAIKEI
  6
Continuous
 62
     1
100
AcDbLine
 10
-32.89217752832406
 20
14.89055762553482
 30
0.0
 11
-30.7014811355441
 21
14.89055762553482
 31
0.0
  0
LWPOLYLINE
  5
34E
330
2
100
AcDbEntity
  8
GAIKEI
  6
Continuous
 62
     1
100
AcDbPolyline
 90
        9
 70
     0
 43
0.0
 10
-14.875794309924
 20
17.17055762553491
 10
-14.88816969326399
 20
17.16981688061492
 10
-14.90024883974411
 20
17.16732872141483
 10
-14.91164570756405
 20
17.16260856539486
 10
-14.92149513294407
 20
17.1552800897349
 10
-14.92886281710411
 20
17.14539147763491
 10
-14.93361361208417
 20
17.13393247299484
 10
-14.93609507200403
 20
17.12187043373489
 10
-14.93682933194418
 20
17.10952260353485
  0
LINE
  5
34F
330
2
100
AcDbEntity
  8
GAIKEI
  6
Continuous
 62
     1
100
AcDbLine
 10
-14.93682933194418
 20
17.10952260351485
 30
0.0
 11
-14.93682933194418
 21
14.95159264755489
 31
0.0
  0
LWPOLYLINE
  5
350
330
2
100
AcDbEntity
  8
GAIKEI
  6
Continuous
 62
     1
100
AcDbPolyline
 90
        9
 70
     0
 43
0.0
 10
-14.93682933194418
 20
14.95159264755489
 10
-14.93608858702418
 20
14.9392172642149
 10
-14.93360042780409
 20
14.9271381177349
 10
-14.92888027180402
 20
14.91574124991484
 10
-14.92155179614406
 20
14.90589182453482
 10
-14.91166318402406
 20
14.89852414037489
 10
-14.90020417938399
 20
14.89377334539483
 10
-14.88814214014405
 20
14.89129188547486
 10
-14.87579430994401
 20
14.89055762553494
  0
LWPOLYLINE
  5
351
330
2
100
AcDbEntity
  8
GAIKEI
  6
Continuous
 62
     1
100
AcDbPolyline
 90
        9
 70
     0
 43
0.0
 10
-12.71786435394415
 20
14.89055762553494
 10
-12.70548897060416
 20
14.89129837045493
 10
-12.69340982414405
 20
14.89378652967491
 10
-12.6820129563041
 20
14.89850668567487
 10
-12.67216353094409
 20
14.90583516133483
 10
-12.66479584676403
 20
14.91572377343482
 10
-12.66004505180399
 20
14.92718277807489
 10
-12.65756359188413
 20
14.93924481733484
 10
-12.65682933194421
 20
14.95159264753488
  0
LINE
  5
352
330
2
100
AcDbEntity
  8
GAIKEI
  6
Continuous
 62
     1
100
AcDbLine
 10
-14.875794309924
 20
14.89055762553482
 30
0.0
 11
-12.71786435394415
 21
14.89055762553482
 31
0.0
  0
LWPOLYLINE
  5
353
330
2
100
AcDbEntity
  8
GAIKEI
  6
Continuous
 62
     1
100
AcDbPolyline
 90
        9
 70
     0
 43
0.0
 10
-12.65682933194421
 20
17.10952260351485
 10
-12.65757007684419
 20
17.12189798687484
 10
-12.66005823606406
 20
17.13397713333484
 10
-12.66477839208414
 20
17.14537400115489
 10
-12.67210686772409
 20
17.15522342653492
 10
-12.68199547984409
 20
17.16259111069485
 10
-12.69345448448416
 20
17.1673419056749
 10
-12.7055165237241
 20
17.16982336559488
 10
-12.71786435394415
 20
17.17055762553491
  0
LINE
  5
354
330
2
100
AcDbEntity
  8
GAIKEI
  6
Continuous
 62
     1
100
AcDbLine
 10
-12.65682933194421
 20
14.95159264755489
 30
0.0
 11
-12.65682933194421
 21
17.10952260351485
 31
0.0
  0
LINE
  5
355
330
2
100
AcDbEntity
  8
GAIKEI
  6
Continuous
 62
     1
100
AcDbLine
 10
-12.71786435394415
 20
17.1705576255348
 30
0.0
 11
-14.875794309924
 21
17.1705576255348
 31
0.0
  0
LWPOLYLINE
  5
356
330
2
100
AcDbEntity
  8
GAIKEI
  6
Continuous
 62
     1
100
AcDbPolyline
 90
        9
 70
     0
 43
0.0
 10
-41.94819564390411
 20
7.855842331814869
 10
-41.94644520944405
 20
7.823978622174877
 10
-41.94035329564406
 20
7.792538545014849
 10
-41.92949863188414
 20
7.7623883747749
 10
-41.91325443570406
 20
7.734646713314873
 10
-41.89122280626406
 20
7.710729366374835
 10
-41.86439825702405
 20
7.692852989614834
 10
-41.83411354950408
 20
7.682285626554858
 10
-41.8021417793841
 20
7.678983750354859
  0
ARC
  5
357
330
2
100
AcDbEntity
  8
GAIKEI
  6
Continuous
 62
     1
100
AcDbCircle
 10
-195.8168973061441
 20
9.43555800765489
 30
0.0
 40
153.8768106403276
100
AcDbArc
 50
359.4117851116016
 51
0.5844197399980708
  0
CIRCLE
  5
358
330
2
100
AcDbEntity
  8
GAIKEI
  6
Continuous
 62
     1
100
AcDbCircle
 10
-40.1892767429241
 20
9.438110214554853
 30
0.0
 40
1.600000000000002
  0
LWPOLYLINE
  5
359
330
2
100
AcDbEntity
  8
GAIKEI
  6
Continuous
 62
     1
100
AcDbPolyline
 90
        9
 70
     0
 43
0.0
 10
-10.73682933194413
 20
14.95159264755489
 10
-10.73608858702414
 20
14.9392172642149
 10
-10.73360042780405
 20
14.9271381177349
 10
-10.72888027180397
 20
14.91574124991484
 10
-10.72155179614401
 20
14.90589182453482
 10
-10.71166318402402
 20
14.89852414037489
 10
-10.70020417938417
 20
14.89377334539483
 10
-10.68814214014401
 20
14.89129188547486
 10
-10.67579430994419
 20
14.89055762553494
  0
LWPOLYLINE
  5
35A
330
2
100
AcDbEntity
  8
GAIKEI
  6
Continuous
 62
     1
100
AcDbPolyline
 90
        9
 70
     0
 43
0.0
 10
-8.517864353944105
 20
14.89055762553494
 10
-8.505488970604119
 20
14.89129837045493
 10
-8.493409824144009
 20
14.89378652967491
 10
-8.48201295630406
 20
14.89850668567487
 10
-8.472163530944044
 20
14.90583516133483
 10
-8.46479584676399
 20
14.91572377343482
 10
-8.460045051804172
 20
14.92718277807489
 10
-8.457563591884081
 20
14.93924481733484
 10
-8.456829331944163
 20
14.95159264753488
  0
LWPOLYLINE
  5
35B
330
2
100
AcDbEntity
  8
GAIKEI
  6
Continuous
 62
     1
100
AcDbPolyline
 90
        9
 70
     0
 43
0.0
 10
-8.456829331944163
 20
17.10952260351485
 10
-8.457570076844149
 20
17.12189798687484
 10
-8.460058236064014
 20
17.13397713333484
 10
-8.464778392084099
 20
17.14537400115489
 10
-8.47210686772405
 20
17.15522342653492
 10
-8.481995479844044
 20
17.16259111069485
 10
-8.493454484484118
 20
17.1673419056749
 10
-8.505516523724054
 20
17.16982336559488
 10
-8.517864353944105
 20
17.17055762553491
  0
LINE
  5
35C
330
2
100
AcDbEntity
  8
GAIKEI
  6
Continuous
 62
     1
100
AcDbLine
 10
-8.456829331944163
 20
14.95159264755489
 30
0.0
 11
-8.456829331944163
 21
17.10952260351485
 31
0.0
  0
ARC
  5
35D
330
2
100
AcDbEntity
  8
GAIKEI
  6
Continuous
 62
     1
100
AcDbCircle
 10
-10.09682933194403
 20
20.93055762553479
 30
0.0
 40
0.0400000000000012
100
AcDbArc
 50
180.0
 51
270.0
  0
LINE
  5
35E
330
2
100
AcDbEntity
  8
GAIKEI
  6
Continuous
 62
     1
100
AcDbLine
 10
-10.09682933194403
 20
20.89055762553483
 30
0.0
 11
-9.096829331944036
 21
20.89055762553483
 31
0.0
  0
LINE
  5
35F
330
2
100
AcDbEntity
  8
GAIKEI
  6
Continuous
 62
     1
100
AcDbLine
 10
-9.056829331944072
 20
20.93055762553479
 30
0.0
 11
-9.056829331944072
 21
21.93055762553479
 31
0.0
  0
ARC
  5
360
330
2
100
AcDbEntity
  8
GAIKEI
  6
Continuous
 62
     1
100
AcDbCircle
 10
-9.096829331944036
 20
21.93055762553479
 30
0.0
 40
0.0400000000000012
100
AcDbArc
 50
0.0
 51
90.0
  0
LINE
  5
361
330
2
100
AcDbEntity
  8
GAIKEI
  6
Continuous
 62
     1
100
AcDbLine
 10
-9.096829331944036
 20
21.97055762553487
 30
0.0
 11
-10.09682933194403
 21
21.97055762553487
 31
0.0
  0
ARC
  5
362
330
2
100
AcDbEntity
  8
GAIKEI
  6
Continuous
 62
     1
100
AcDbCircle
 10
-9.096829331944036
 20
20.93055762553479
 30
0.0
 40
0.0399999999999998
100
AcDbArc
 50
270.0
 51
0.0
  0
ARC
  5
363
330
2
100
AcDbEntity
  8
GAIKEI
  6
Continuous
 62
     1
100
AcDbCircle
 10
-10.09682933194403
 20
21.93055762553479
 30
0.0
 40
0.0399999999999998
100
AcDbArc
 50
90.0
 51
180.0
  0
LINE
  5
364
330
2
100
AcDbEntity
  8
GAIKEI
  6
Continuous
 62
     1
100
AcDbLine
 10
-10.136829331944
 20
21.93055762553479
 30
0.0
 11
-10.136829331944
 21
20.93055762553479
 31
0.0
  0
LWPOLYLINE
  5
365
330
2
100
AcDbEntity
  8
GAIKEI
  6
Continuous
 62
     1
100
AcDbPolyline
 90
        9
 70
     0
 43
0.0
 10
-11.20203807154416
 20
4.581919325774833
 10
-11.23395623420401
 20
4.578632367294858
 10
-11.26418395958399
 20
4.568108877194845
 10
-11.29098354054417
 20
4.550295030574829
 10
-11.31300819296416
 20
4.526461884034915
 10
-11.32933377958397
 20
4.498613174854881
 10
-11.34026115950405
 20
4.46833877657491
 10
-11.34634100230414
 20
4.436943563794898
 10
-11.34809134450415
 20
4.405081750294925
  0
LWPOLYLINE
  5
366
330
2
100
AcDbEntity
  8
GAIKEI
  6
Continuous
 62
     1
100
AcDbPolyline
 90
        9
 70
     0
 43
0.0
 10
-7.991711020704087
 20
1.0790873561549
 10
-7.959782341064055
 20
1.082378446034908
 10
-7.929548049324012
 20
1.092912238154895
 10
-7.902749841044169
 20
1.110738526154818
 10
-7.880732070124167
 20
1.134582239714859
 10
-7.864416281364128
 20
1.162434510014918
 10
-7.853498739264068
 20
1.19270413853485
 10
-7.847424706623996
 20
1.224091849654882
 10
-7.845676346904156
 20
1.255946757514834
  0
ARC
  5
367
330
2
100
AcDbEntity
  8
GAIKEI
  6
Continuous
 62
     1
100
AcDbCircle
 10
-9.59188797428419
 20
-155.0465626919451
 30
0.0
 40
156.1338501710225
100
AcDbArc
 50
89.4127795420008
 51
90.5909185131002
  0
ARC
  5
368
330
2
100
AcDbEntity
  8
GAIKEI
  6
Continuous
 62
     1
100
AcDbCircle
 10
-9.591915019824
 20
159.0174221553948
 30
0.0
 40
154.4438960609357
100
AcDbArc
 50
269.4026638221992
 51
270.5936175864996
  0
LWPOLYLINE
  5
369
330
2
100
AcDbEntity
  8
GAIKEI
  6
Continuous
 62
     1
100
AcDbPolyline
 90
        9
 70
     0
 43
0.0
 10
-7.84578124460404
 20
4.404976980054925
 10
-7.847531205424047
 20
4.436850945594869
 10
-7.853624138004079
 20
4.468293537874842
 10
-7.864479246744167
 20
4.498439289394923
 10
-7.880718360184118
 20
4.526169280834892
 10
-7.902738778064076
 20
4.550074083574827
 10
-7.929552738884012
 20
4.567944967834819
 10
-7.959834248244078
 20
4.57851278919486
 10
-7.991815092144179
 20
4.581815151374939
  0
ARC
  5
36A
330
2
100
AcDbEntity
  8
GAIKEI
  6
Continuous
 62
     1
100
AcDbCircle
 10
144.3357696827558
 20
2.835531203394793
 30
0.0
 40
152.1896435461489
100
AcDbArc
 50
179.4091305362009
 51
180.5946866357968
  0
ARC
  5
36B
330
2
100
AcDbEntity
  8
GAIKEI
  6
Continuous
 62
     1
100
AcDbCircle
 10
-165.2168973061641
 20
9.43555800765489
 30
0.0
 40
153.8768106403519
100
AcDbArc
 50
359.4117851116016
 51
0.5844197399980708
  0
CIRCLE
  5
36C
330
2
100
AcDbEntity
  8
GAIKEI
  6
Continuous
 62
     1
100
AcDbCircle
 10
-9.589276742924084
 20
9.438110214554853
 30
0.0
 40
1.600000000000003
  0
LWPOLYLINE
  5
36D
330
2
100
AcDbEntity
  8
GAIKEI
  6
Continuous
 62
     1
100
AcDbPolyline
 90
        9
 70
     0
 43
0.0
 10
-11.34819564390409
 20
1.255842331814847
 10
-11.34644520944402
 20
1.223978622174854
 10
-11.34035329564403
 20
1.192538545014826
 10
-11.329498631884
 20
1.162388374774877
 10
-11.31325443570404
 20
1.13464671331485
 10
-11.29122280626416
 20
1.110729366374926
 10
-11.26439825702414
 20
1.092852989614925
 10
-11.23411354950417
 20
1.082285626554835
 10
-11.20214177938419
 20
1.078983750354836
  0
ARC
  5
36E
330
2
100
AcDbEntity
  8
GAIKEI
  6
Continuous
 62
     1
100
AcDbCircle
 10
-165.2168973061441
 20
2.835558007654867
 30
0.0
 40
153.8768106403441
100
AcDbArc
 50
359.4117851116016
 51
0.5844197399980708
  0
CIRCLE
  5
36F
330
2
100
AcDbEntity
  8
GAIKEI
  6
Continuous
 62
     1
100
AcDbCircle
 10
-9.589276742924084
 20
2.838110214554831
 30
0.0
 40
1.600000000000004
  0
LINE
  5
370
330
2
100
AcDbEntity
  8
GAIKEI
  6
Continuous
 62
     1
100
AcDbLine
 10
-10.73682933194413
 20
17.10952260351485
 30
0.0
 11
-10.73682933194413
 21
14.95159264755489
 31
0.0
  0
LWPOLYLINE
  5
371
330
2
100
AcDbEntity
  8
GAIKEI
  6
Continuous
 62
     1
100
AcDbPolyline
 90
        9
 70
     0
 43
0.0
 10
-10.67579430992418
 20
17.17055762553491
 10
-10.68816969326417
 20
17.16981688061492
 10
-10.70024883974406
 20
17.16732872141483
 10
-10.711645707564
 20
17.16260856539486
 10
-10.72149513294403
 20
17.1552800897349
 10
-10.72886281710407
 20
17.14539147763491
 10
-10.73361361208412
 20
17.13393247299484
 10
-10.73609507200399
 20
17.12187043373489
 10
-10.73682933194413
 20
17.10952260353485
  0
LWPOLYLINE
  5
372
330
2
100
AcDbEntity
  8
GAIKEI
  6
Continuous
 62
     1
100
AcDbPolyline
 90
        9
 70
     0
 43
0.0
 10
-11.34819564390409
 20
7.855842331814869
 10
-11.34644520944402
 20
7.823978622174877
 10
-11.34035329564403
 20
7.792538545014849
 10
-11.329498631884
 20
7.7623883747749
 10
-11.31325443570404
 20
7.734646713314873
 10
-11.29122280626416
 20
7.710729366374835
 10
-11.26439825702414
 20
7.692852989614834
 10
-11.23411354950417
 20
7.682285626554858
 10
-11.20214177938419
 20
7.678983750354859
  0
CIRCLE
  5
373
330
2
100
AcDbEntity
  8
GAIKEI
  6
Continuous
 62
     1
100
AcDbCircle
 10
-35.98927674292407
 20
9.438110214554853
 30
0.0
 40
1.600000000000003
  0
CIRCLE
  5
374
330
2
100
AcDbEntity
  8
GAIKEI
  6
Continuous
 62
     1
100
AcDbCircle
 10
-31.78927674292413
 20
9.438110214554853
 30
0.0
 40
1.600000000000004
  0
CIRCLE
  5
375
330
2
100
AcDbEntity
  8
GAIKEI
  6
Continuous
 62
     1
100
AcDbCircle
 10
-27.58927674292408
 20
9.438110214554853
 30
0.0
 40
1.600000000000004
  0
LWPOLYLINE
  5
376
330
2
100
AcDbEntity
  8
GAIKEI
  6
Continuous
 62
     1
100
AcDbPolyline
 90
        9
 70
     0
 43
0.0
 10
-41.29217752832414
 20
17.17055762553491
 10
-41.30126626614412
 20
17.17010294217493
 10
-41.31016812382404
 20
17.16853393679491
 10
-41.31878376336408
 20
17.16541897981483
 10
-41.32628163284403
 20
17.1601694249149
 10
-41.3315789172841
 20
17.15274503927492
 10
-41.33474362690413
 20
17.14413868271492
 10
-41.33635911480405
 20
17.13511234243492
 10
-41.33682933194404
 20
17.12590582193491
  0
LINE
  5
377
330
2
100
AcDbEntity
  8
GAIKEI
  6
Continuous
 62
     7
100
AcDbLine
 10
-40.91764343759098
 20
28.83560368415487
 30
0.0
 11
-8.876015226277786
 21
28.83560368415487
 31
0.0
  0
LINE
  5
378
330
2
100
AcDbEntity
  8
GAIKEI
  6
Continuous
 62
     7
100
AcDbLine
 10
-6.52143804262414
 20
28.91782733123477
 30
0.0
 11
-8.876015226277786
 21
28.83560368415487
 31
0.0
  0
LINE
  5
379
330
2
100
AcDbEntity
  8
GAIKEI
  6
Continuous
 62
     1
100
AcDbLine
 10
-3.900319281604197
 20
26.33055762553477
 30
0.0
 11
-4.214285026284187
 21
26.33055762553488
 31
0.0
  0
LINE
  5
37A
330
2
100
AcDbEntity
  8
GAIKEI
  6
Continuous
 62
     1
100
AcDbLine
 10
-44.09682933194403
 20
26.33055762553488
 30
0.0
 11
-45.89333938226412
 21
26.33055762553477
 31
0.0
  0
LINE
  5
37B
330
2
100
AcDbEntity
  8
GAIKEI
  6
Continuous
 62
     1
100
AcDbLine
 10
-44.09682933194403
 20
-3.862458220565144
 30
0.0
 11
-44.09682933194403
 21
-3.869442374465165
 31
0.0
  0
LINE
  5
37C
330
2
100
AcDbEntity
  8
GAIKEI
  6
Continuous
 62
     1
100
AcDbLine
 10
-44.09682933194403
 20
-3.869442374465165
 30
0.0
 11
-45.57937363758412
 21
-3.869442374465165
 31
0.0
  0
LINE
  5
37D
330
2
100
AcDbEntity
  8
GAIKEI
  6
Continuous
 62
     1
100
AcDbLine
 10
-3.900319281604197
 20
-3.869442374465165
 30
0.0
 11
-5.696829331944172
 21
-3.869442374465165
 31
0.0
  0
LINE
  5
37E
330
2
100
AcDbEntity
  8
GAIKEI
  6
Continuous
 62
     1
100
AcDbLine
 10
-45.77925180298405
 20
26.33055762553488
 30
0.0
 11
-45.57937363758412
 21
26.33055762553488
 31
0.0
  0
ARC
  5
37F
330
2
100
AcDbEntity
  8
GAIKEI
  6
Continuous
 62
     1
100
AcDbCircle
 10
-44.09682933194403
 20
25.73055762553486
 30
0.0
 40
0.6000000000000006
100
AcDbArc
 50
90.0
 51
180.0
  0
LINE
  5
380
330
2
100
AcDbEntity
  8
GAIKEI
  6
Continuous
 62
     1
100
AcDbLine
 10
-5.696829331944172
 20
26.33055762553488
 30
0.0
 11
-44.09682933194403
 21
26.33055762553488
 31
0.0
  0
LINE
  5
381
330
2
100
AcDbEntity
  8
GAIKEI
  6
Continuous
 62
     1
100
AcDbLine
 10
-44.69682933194405
 20
25.73055762553486
 30
0.0
 11
-44.69682933194405
 21
-3.269442374465143
 31
0.0
  0
LINE
  5
382
330
2
100
AcDbEntity
  8
GAIKEI
  6
Continuous
 62
     1
100
AcDbLine
 10
-44.09682933194403
 20
-3.869442374465165
 30
0.0
 11
-5.696829331944172
 21
-3.869442374465165
 31
0.0
  0
ARC
  5
383
330
2
100
AcDbEntity
  8
GAIKEI
  6
Continuous
 62
     1
100
AcDbCircle
 10
-44.09682933194403
 20
-3.269442374465143
 30
0.0
 40
0.6000000000000007
100
AcDbArc
 50
180.0
 51
270.0
  0
LINE
  5
384
330
2
100
AcDbEntity
  8
GAIKEI
  6
Continuous
 62
     1
100
AcDbLine
 10
-44.68984517804403
 20
-3.269442374465143
 30
0.0
 11
-44.69682933194405
 21
-3.269442374465143
 31
0.0
  0
ARC
  5
385
330
2
100
AcDbEntity
  8
GAIKEI
  6
Continuous
 62
     1
100
AcDbCircle
 10
-44.09682933194403
 20
-3.269442374465143
 30
0.0
 40
0.5930158461016523
100
AcDbArc
 50
180.0
 51
270.0
  0
ARC
  5
386
330
2
100
AcDbEntity
  8
GAIKEI
  6
Continuous
 62
     1
100
AcDbCircle
 10
-5.696829331944172
 20
25.73055762553486
 30
0.0
 40
0.6000000000000007
100
AcDbArc
 50
0.0
 51
90.0
  0
LINE
  5
387
330
2
100
AcDbEntity
  8
GAIKEI
  6
Continuous
 62
     7
100
AcDbLine
 10
-44.29682933194408
 20
-6.4659524247852
 30
0.0
 11
-5.496829331944127
 21
-6.4659524247852
 31
0.0
  0
LINE
  5
388
330
2
100
AcDbEntity
  8
GAIKEI
  6
Continuous
 62
     1
100
AcDbLine
 10
-37.8968293319241
 20
11.08055769619477
 30
0.0
 11
-37.89682933194411
 21
7.780557625534811
 31
0.0
  0
LINE
  5
389
330
2
100
AcDbEntity
  8
GAIKEI
  6
Continuous
 62
     1
100
AcDbLine
 10
-33.69682932322405
 20
11.08055762553488
 30
0.0
 11
-33.69682933194406
 21
11.08036638991484
 31
0.0
  0
LINE
  5
38A
330
2
100
AcDbEntity
  8
GAIKEI
  6
Continuous
 62
     1
100
AcDbLine
 10
-33.69682933194406
 20
11.08036638991484
 30
0.0
 11
-33.69682933194406
 21
7.780557625534811
 31
0.0
  0
LINE
  5
38B
330
2
100
AcDbEntity
  8
GAIKEI
  6
Continuous
 62
     1
100
AcDbLine
 10
-29.49682931452412
 20
11.08055762553488
 30
0.0
 11
-29.49682933194413
 21
11.08017515425479
 31
0.0
  0
LINE
  5
38C
330
2
100
AcDbEntity
  8
GAIKEI
  6
Continuous
 62
     1
100
AcDbLine
 10
-29.49682933194413
 20
11.08017515425479
 30
0.0
 11
-29.49682933194413
 21
7.780557625534811
 31
0.0
  0
LINE
  5
38D
330
2
100
AcDbEntity
  8
GAIKEI
  6
Continuous
 62
     1
100
AcDbLine
 10
-25.29682933194408
 20
11.07998391869478
 30
0.0
 11
-25.29682933194408
 21
7.780557625534811
 31
0.0
  0
ARC
  5
38E
330
2
100
AcDbEntity
  8
GAIKEI
  6
Continuous
 62
     7
100
AcDbCircle
 10
-43.87414278724406
 20
9.391321220614827
 30
0.0
 40
19.53578130460656
100
AcDbArc
 50
88.23436502430052
 51
90.10822304070041
  0
LINE
  5
38F
330
2
100
AcDbEntity
  8
GAIKEI
  6
Continuous
 62
     7
100
AcDbLine
 10
-5.496829331944127
 20
28.92706767587481
 30
0.0
 11
-5.882615769564154
 21
28.92706767587481
 31
0.0
  0
ARC
  5
390
330
2
100
AcDbEntity
  8
GAIKEI
  6
Continuous
 62
     7
100
AcDbCircle
 10
-5.919515876644027
 20
9.391321220614827
 30
0.0
 40
19.53578130460691
100
AcDbArc
 50
89.89177695929958
 51
91.76563497569947
  0
LINE
  5
391
330
2
100
AcDbEntity
  8
GAIKEI
  6
Continuous
 62
     7
100
AcDbLine
 10
-40.91764343759098
 20
28.83560368415487
 30
0.0
 11
-43.27222062124405
 21
28.91782733123489
 31
0.0
  0
LINE
  5
392
330
2
100
AcDbEntity
  8
GAIKEI
  6
Continuous
 62
     7
100
AcDbLine
 10
-43.91104289430404
 20
28.92706767587481
 30
0.0
 11
-44.29682933194408
 21
28.92706767587481
 31
0.0
  0
ARC
  5
393
330
2
100
AcDbEntity
  8
GAIKEI
  6
Continuous
 62
     1
100
AcDbCircle
 10
-38.23714714216407
 20
7.590611382834822
 30
0.0
 40
0.0600000000000001
100
AcDbArc
 50
179.9947823841999
 51
269.9947823841999
  0
ARC
  5
394
330
2
100
AcDbEntity
  8
GAIKEI
  6
Continuous
 62
     1
100
AcDbCircle
 10
-38.23681202452405
 20
11.27061135181486
 30
0.0
 40
0.0600000000000001
100
AcDbArc
 50
89.99478238419991
 51
179.9947823841999
  0
ARC
  5
395
330
2
100
AcDbEntity
  8
GAIKEI
  6
Continuous
 62
     1
100
AcDbCircle
 10
-37.95714714498411
 20
7.590585884734878
 30
0.0
 40
0.0600000000000001
100
AcDbArc
 50
269.9947823841999
 51
359.9947823841999
  0
ARC
  5
396
330
2
100
AcDbEntity
  8
GAIKEI
  6
Continuous
 62
     1
100
AcDbCircle
 10
-37.95681202734409
 20
11.27058585373481
 30
0.0
 40
0.06
100
AcDbArc
 50
359.9947823841999
 51
89.99478238419991
  0
LINE
  5
397
330
2
100
AcDbEntity
  8
GAIKEI
  6
Continuous
 62
     1
100
AcDbLine
 10
-38.2371526060241
 20
7.530611383074869
 30
0.0
 11
-37.95715260884413
 21
7.53058588499482
 31
0.0
  0
LINE
  5
398
330
2
100
AcDbEntity
  8
GAIKEI
  6
Continuous
 62
     1
100
AcDbLine
 10
-37.95680656346406
 20
11.33058585347487
 30
0.0
 11
-38.23680656064414
 21
11.33061135155481
 31
0.0
  0
LINE
  5
399
330
2
100
AcDbEntity
  8
GAIKEI
  6
Continuous
 62
     1
100
AcDbLine
 10
-38.29681202428412
 20
11.27061681569489
 30
0.0
 11
-38.29682933194408
 21
11.08055762551487
 31
0.0
  0
LINE
  5
39A
330
2
100
AcDbEntity
  8
GAIKEI
  6
Continuous
 62
     1
100
AcDbLine
 10
-37.89682932900405
 20
11.08058984951481
 30
0.0
 11
-37.89681202760414
 21
11.27058038985478
 31
0.0
  0
LINE
  5
39B
330
2
100
AcDbEntity
  8
GAIKEI
  6
Continuous
 62
     1
100
AcDbLine
 10
-38.29713096302408
 20
7.768280632174878
 30
0.0
 11
-38.29714714190414
 21
7.590616846694842
 31
0.0
  0
LINE
  5
39C
330
2
100
AcDbEntity
  8
GAIKEI
  6
Continuous
 62
     1
100
AcDbLine
 10
-38.29682933194408
 20
11.08055762551487
 30
0.0
 11
-38.29713096302408
 21
7.768280632174878
 31
0.0
  0
LINE
  5
39D
330
2
100
AcDbEntity
  8
GAIKEI
  6
Continuous
 62
     1
100
AcDbLine
 10
-37.89714714522404
 20
7.590580420874857
 30
0.0
 11
-37.8968293319241
 21
11.08055769619477
 31
0.0
  0
ARC
  5
39E
330
2
100
AcDbEntity
  8
GAIKEI
  6
Continuous
 62
     1
100
AcDbCircle
 10
-34.03714715956414
 20
7.590228911614872
 30
0.0
 40
0.0600000000000001
100
AcDbArc
 50
179.9947823841999
 51
269.9947823841999
  0
ARC
  5
39F
330
2
100
AcDbEntity
  8
GAIKEI
  6
Continuous
 62
     1
100
AcDbCircle
 10
-33.75681204476405
 20
11.27020338251486
 30
0.0
 40
0.06
100
AcDbArc
 50
359.9947823841999
 51
89.99478238419991
  0
ARC
  5
3A0
330
2
100
AcDbEntity
  8
GAIKEI
  6
Continuous
 62
     1
100
AcDbCircle
 10
-34.03681204194413
 20
11.2702288805948
 30
0.0
 40
0.0599999999999987
100
AcDbArc
 50
89.99478238419991
 51
179.9947823841999
  0
ARC
  5
3A1
330
2
100
AcDbEntity
  8
GAIKEI
  6
Continuous
 62
     1
100
AcDbCircle
 10
-34.03681204194413
 20
11.2702288805948
 30
0.0
 40
0.0568555332430175
100
AcDbArc
 50
89.99478238419991
 51
179.9947823841999
  0
ARC
  5
3A2
330
2
100
AcDbEntity
  8
GAIKEI
  6
Continuous
 62
     1
100
AcDbCircle
 10
-33.75714716238406
 20
7.590203413534823
 30
0.0
 40
0.0599999999999987
100
AcDbArc
 50
269.9947823841999
 51
359.9947823841999
  0
LINE
  5
3A3
330
2
100
AcDbEntity
  8
GAIKEI
  6
Continuous
 62
     1
100
AcDbLine
 10
-33.75680658088413
 20
11.33020338227481
 30
0.0
 11
-34.0368065780641
 21
11.33022888035486
 31
0.0
  0
LINE
  5
3A4
330
2
100
AcDbEntity
  8
GAIKEI
  6
Continuous
 62
     1
100
AcDbLine
 10
-33.69682930380407
 20
11.08067542655487
 30
0.0
 11
-33.69681204500409
 21
11.27019791863483
 31
0.0
  0
LINE
  5
3A5
330
2
100
AcDbEntity
  8
GAIKEI
  6
Continuous
 62
     1
100
AcDbLine
 10
-34.09713094558413
 20
7.768280987034813
 30
0.0
 11
-34.09714715932409
 21
7.590234375494787
 31
0.0
  0
LINE
  5
3A6
330
2
100
AcDbEntity
  8
GAIKEI
  6
Continuous
 62
     1
100
AcDbLine
 10
-34.09681204168407
 20
11.27023434447483
 30
0.0
 11
-34.09682933194404
 21
11.08055762553488
 31
0.0
  0
LINE
  5
3A7
330
2
100
AcDbEntity
  8
GAIKEI
  6
Continuous
 62
     1
100
AcDbLine
 10
-34.09682933194404
 20
11.08036638993485
 30
0.0
 11
-34.09713094558413
 21
7.768280987034813
 31
0.0
  0
LINE
  5
3A8
330
2
100
AcDbEntity
  8
GAIKEI
  6
Continuous
 62
     1
100
AcDbLine
 10
-34.03715262344406
 20
7.530228911854806
 30
0.0
 11
-33.75715262626409
 21
7.53020341377487
 31
0.0
  0
LINE
  5
3A9
330
2
100
AcDbEntity
  8
GAIKEI
  6
Continuous
 62
     1
100
AcDbLine
 10
-33.69714716264411
 20
7.590197949654793
 30
0.0
 11
-33.69682933194406
 21
11.08036638991484
 31
0.0
  0
LINE
  5
3AA
330
2
100
AcDbEntity
  8
GAIKEI
  6
Continuous
 62
     1
100
AcDbLine
 10
-33.69682932322405
 20
11.08055762553488
 30
0.0
 11
-33.69682930398415
 21
11.08067542657477
 31
0.0
  0
LINE
  5
3AB
330
2
100
AcDbEntity
  8
GAIKEI
  6
Continuous
 62
     1
100
AcDbLine
 10
-34.09682933194404
 20
11.08055762553488
 30
0.0
 11
-34.09682933194404
 21
11.08036638993485
 31
0.0
  0
ARC
  5
3AC
330
2
100
AcDbEntity
  8
GAIKEI
  6
Continuous
 62
     1
100
AcDbCircle
 10
-29.83714717698399
 20
7.589846440394808
 30
0.0
 40
0.0600000000000001
100
AcDbArc
 50
179.9947823841999
 51
269.9947823841999
  0
ARC
  5
3AD
330
2
100
AcDbEntity
  8
GAIKEI
  6
Continuous
 62
     1
100
AcDbCircle
 10
-29.83681205936409
 20
11.26984640939486
 30
0.0
 40
0.0599999999999987
100
AcDbArc
 50
89.99478238419991
 51
179.9947823841999
  0
ARC
  5
3AE
330
2
100
AcDbEntity
  8
GAIKEI
  6
Continuous
 62
     1
100
AcDbCircle
 10
-29.55681206218401
 20
11.26982091131481
 30
0.0
 40
0.06
100
AcDbArc
 50
359.9947823841999
 51
89.99478238419991
  0
ARC
  5
3AF
330
2
100
AcDbEntity
  8
GAIKEI
  6
Continuous
 62
     1
100
AcDbCircle
 10
-29.55714717980413
 20
7.589820942314872
 30
0.0
 40
0.0599999999999994
100
AcDbArc
 50
269.9947823841999
 51
359.9947823841999
  0
LINE
  5
3B0
330
2
100
AcDbEntity
  8
GAIKEI
  6
Continuous
 62
     1
100
AcDbLine
 10
-29.83715264086413
 20
7.529846440654864
 30
0.0
 11
-29.55715264368405
 21
7.529820942574815
 31
0.0
  0
LINE
  5
3B1
330
2
100
AcDbEntity
  8
GAIKEI
  6
Continuous
 62
     1
100
AcDbLine
 10
-29.89713092814418
 20
7.768281341894862
 30
0.0
 11
-29.89714717674406
 21
7.589851904274837
 31
0.0
  0
LINE
  5
3B2
330
2
100
AcDbEntity
  8
GAIKEI
  6
Continuous
 62
     1
100
AcDbLine
 10
-29.89681205910415
 20
11.26985187325488
 30
0.0
 11
-29.89682931452398
 21
11.08055762553488
 31
0.0
  0
LINE
  5
3B3
330
2
100
AcDbEntity
  8
GAIKEI
  6
Continuous
 62
     1
100
AcDbLine
 10
-29.49682928284415
 20
11.08071430715483
 30
0.0
 11
-29.49681206242417
 21
11.26981544743489
 31
0.0
  0
LINE
  5
3B4
330
2
100
AcDbEntity
  8
GAIKEI
  6
Continuous
 62
     1
100
AcDbLine
 10
-29.55680659830409
 20
11.32982091105486
 30
0.0
 11
-29.83680659548418
 21
11.3298464091348
 31
0.0
  0
LINE
  5
3B5
330
2
100
AcDbEntity
  8
GAIKEI
  6
Continuous
 62
     1
100
AcDbLine
 10
-29.89682931452398
 20
11.08055762553488
 30
0.0
 11
-29.89682933194399
 21
11.0801751542948
 31
0.0
  0
LINE
  5
3B6
330
2
100
AcDbEntity
  8
GAIKEI
  6
Continuous
 62
     1
100
AcDbLine
 10
-29.89682933194399
 20
11.0801751542948
 30
0.0
 11
-29.89713092814418
 21
7.768281341894862
 31
0.0
  0
LINE
  5
3B7
330
2
100
AcDbEntity
  8
GAIKEI
  6
Continuous
 62
     1
100
AcDbLine
 10
-29.49714718006408
 20
7.589815478454852
 30
0.0
 11
-29.49682933194413
 21
11.08017515425479
 31
0.0
  0
LINE
  5
3B8
330
2
100
AcDbEntity
  8
GAIKEI
  6
Continuous
 62
     1
100
AcDbLine
 10
-29.49682931452412
 20
11.08055762553488
 30
0.0
 11
-29.49682928284415
 21
11.08071430715483
 31
0.0
  0
ARC
  5
3B9
330
2
100
AcDbEntity
  8
GAIKEI
  6
Continuous
 62
     1
100
AcDbCircle
 10
-25.63714719440418
 20
7.589463969194866
 30
0.0
 40
0.0600000000000001
100
AcDbArc
 50
179.9947823841999
 51
269.9947823841999
  0
ARC
  5
3BA
330
2
100
AcDbEntity
  8
GAIKEI
  6
Continuous
 62
     1
100
AcDbCircle
 10
-25.63681207676405
 20
11.26946393817479
 30
0.0
 40
0.0599999999999988
100
AcDbArc
 50
89.99478238419991
 51
179.9947823841999
  0
ARC
  5
3BB
330
2
100
AcDbEntity
  8
GAIKEI
  6
Continuous
 62
     1
100
AcDbCircle
 10
-25.3571471972241
 20
7.589438471114817
 30
0.0
 40
0.0599999999999992
100
AcDbArc
 50
269.9947823841999
 51
359.9947823841999
  0
ARC
  5
3BC
330
2
100
AcDbEntity
  8
GAIKEI
  6
Continuous
 62
     1
100
AcDbCircle
 10
-25.35681207958419
 20
11.26943844009486
 30
0.0
 40
0.06
100
AcDbArc
 50
359.9947823841999
 51
89.99478238419991
  0
LINE
  5
3BD
330
2
100
AcDbEntity
  8
GAIKEI
  6
Continuous
 62
     1
100
AcDbLine
 10
-25.69713091068411
 20
7.768281696774806
 30
0.0
 11
-25.69714719414401
 21
7.589469433074782
 31
0.0
  0
LINE
  5
3BE
330
2
100
AcDbEntity
  8
GAIKEI
  6
Continuous
 62
     1
100
AcDbLine
 10
-25.69681207652411
 20
11.26946940205482
 30
0.0
 11
-25.69682930582417
 21
11.08055762553488
 31
0.0
  0
LINE
  5
3BF
330
2
100
AcDbEntity
  8
GAIKEI
  6
Continuous
 62
     1
100
AcDbLine
 10
-25.69682933194417
 20
11.07998391865487
 30
0.0
 11
-25.69713091068411
 21
7.768281696774806
 31
0.0
  0
LINE
  5
3C0
330
2
100
AcDbEntity
  8
GAIKEI
  6
Continuous
 62
     1
100
AcDbLine
 10
-25.35680661572405
 20
11.32943843985481
 30
0.0
 11
-25.63680661290414
 21
11.32946393793486
 31
0.0
  0
LINE
  5
3C1
330
2
100
AcDbEntity
  8
GAIKEI
  6
Continuous
 62
     1
100
AcDbLine
 10
-25.6371526582841
 20
7.5294639694348
 30
0.0
 11
-25.35715266110401
 21
7.529438471354865
 31
0.0
  0
LINE
  5
3C2
330
2
100
AcDbEntity
  8
GAIKEI
  6
Continuous
 62
     1
100
AcDbLine
 10
-25.69682930582417
 20
11.08055762553488
 30
0.0
 11
-25.69682933194417
 21
11.07998391865487
 31
0.0
  0
ARC
  5
3C3
330
2
100
AcDbEntity
  8
GAIKEI
  6
Continuous
 62
     7
100
AcDbCircle
 10
-44.29682933194408
 20
-4.869442374465165
 30
0.0
 40
1.596510050329749
100
AcDbArc
 50
180.0
 51
270.0
  0
ARC
  5
3C4
330
2
100
AcDbEntity
  8
GAIKEI
  6
Continuous
 62
     7
100
AcDbCircle
 10
-5.496829331944127
 20
27.33055762553488
 30
0.0
 40
1.596510050329749
100
AcDbArc
 50
0.0
 51
90.0
  0
ARC
  5
3C5
330
2
100
AcDbEntity
  8
GAIKEI
  6
Continuous
 62
     7
100
AcDbCircle
 10
-5.496829331944127
 20
-4.869442374465165
 30
0.0
 40
1.596510050329749
100
AcDbArc
 50
270.0
 51
0.0
  0
ARC
  5
3C6
330
2
100
AcDbEntity
  8
GAIKEI
  6
Continuous
 62
     7
100
AcDbCircle
 10
-44.29682933194408
 20
27.33055762553488
 30
0.0
 40
1.596510050329749
100
AcDbArc
 50
90.0
 51
180.0
  0
LINE
  5
3C7
330
2
100
AcDbEntity
  8
GAIKEI
  6
Continuous
 62
     7
100
AcDbLine
 10
-3.900319281604197
 20
-4.869442374465165
 30
0.0
 11
-3.900319281604197
 21
27.33055762553488
 31
0.0
  0
LINE
  5
3C8
330
2
100
AcDbEntity
  8
GAIKEI
  6
Continuous
 62
     7
100
AcDbLine
 10
-45.89333938226412
 20
27.33055762553488
 30
0.0
 11
-45.89333938226412
 21
-4.869442374465165
 31
0.0
  0
ARC
  5
3C9
330
2
100
AcDbEntity
  8
GAIKEI
  6
Continuous
 62
     1
100
AcDbCircle
 10
-5.696829331944172
 20
-3.269442374465143
 30
0.0
 40
0.5999999999999978
100
AcDbArc
 50
270.0
 51
0.0
  0
LINE
  5
3CA
330
2
100
AcDbEntity
  8
GAIKEI
  6
Continuous
 62
     1
100
AcDbLine
 10
-45.57937363758412
 20
-3.869442374465165
 30
0.0
 11
-45.77925180298405
 21
-3.869442374465165
 31
0.0
  0
LINE
  5
3CB
330
2
100
AcDbEntity
  8
GAIKEI
  6
Continuous
 62
     1
100
AcDbLine
 10
-5.096829331944036
 20
-3.269442374465143
 30
0.0
 11
-5.096829331944036
 21
25.73055762553486
 31
0.0
  0
LINE
  5
3CC
330
2
100
AcDbEntity
  8
GAIKEI
  6
Continuous
 62
     1
100
AcDbLine
 10
-4.214285026284187
 20
26.33055762553488
 30
0.0
 11
-5.696829331944172
 21
26.33055762553488
 31
0.0
  0
LINE
  5
3CD
330
2
100
AcDbEntity
  8
GAIKEI
  6
Continuous
 62
     1
100
AcDbLine
 10
-25.29682926276405
 20
11.08074361215483
 30
0.0
 11
-25.29681207984413
 21
11.26943297621483
 31
0.0
  0
LINE
  5
3CE
330
2
100
AcDbEntity
  8
GAIKEI
  6
Continuous
 62
     1
100
AcDbLine
 10
-25.29714719746403
 20
7.589433007234788
 30
0.0
 11
-25.29682933194408
 21
11.07998391869478
 31
0.0
  0
LINE
  5
3CF
330
2
100
AcDbEntity
  8
GAIKEI
  6
Continuous
 62
     1
100
AcDbLine
 10
-25.29682930582408
 20
11.08055762553488
 30
0.0
 11
-25.29682926276405
 21
11.08074361215483
 31
0.0
  0
LINE
  5
3D0
330
2
100
AcDbEntity
  8
GAIKEI
  6
Continuous
 62
     1
100
AcDbLine
 10
-25.29682930582408
 20
11.08055762553488
 30
0.0
 11
-25.29682933194408
 21
11.07998391869478
 31
0.0
  0
LINE
  5
3D1
330
2
100
AcDbEntity
  8
GAIKEI
  6
Continuous
 62
     1
100
AcDbLine
 10
-28.19682933194417
 20
28.87010109083485
 30
0.0
 11
-28.39682933194399
 21
28.87010109083485
 31
0.0
  0
LINE
  5
3D2
330
2
100
AcDbEntity
  8
GAIKEI
  6
Continuous
 62
     1
100
AcDbLine
 10
-28.19682933194417
 20
29.41780764519478
 30
0.0
 11
-28.19682933194417
 21
28.87010109083485
 31
0.0
  0
LINE
  5
3D3
330
2
100
AcDbEntity
  8
GAIKEI
  6
Continuous
 62
     1
100
AcDbLine
 10
-28.39682933194399
 20
28.87010109083485
 30
0.0
 11
-28.39682933194399
 21
29.41780764519478
 31
0.0
  0
LINE
  5
3D4
330
2
100
AcDbEntity
  8
GAIKEI
  6
Continuous
 62
     1
100
AcDbLine
 10
-28.39682933194399
 20
28.8432578290948
 30
0.0
 11
-28.39682933194399
 21
28.87010109083485
 31
0.0
  0
LINE
  5
3D5
330
2
100
AcDbEntity
  8
GAIKEI
  6
Continuous
 62
     1
100
AcDbLine
 10
-28.19682933194417
 20
28.8432578290948
 30
0.0
 11
-28.19682933194417
 21
28.87010109083485
 31
0.0
  0
LINE
  5
3D6
330
2
100
AcDbEntity
  8
GAIKEI
  6
Continuous
 62
     1
100
AcDbLine
 10
-28.19682933194417
 20
29.41780764519478
 30
0.0
 11
-28.39682933194399
 21
29.41780764519478
 31
0.0
  0
CIRCLE
  5
3D7
330
2
100
AcDbEntity
  8
GAIKEI
  6
Continuous
 62
     1
100
AcDbCircle
 10
-13.79682933194408
 20
21.43055762553479
 30
0.0
 40
1.2
  0
CIRCLE
  5
3D8
330
2
100
AcDbEntity
  8
GAIKEI
  6
Continuous
 62
     1
100
AcDbCircle
 10
-13.79682933194408
 20
21.43055762553479
 30
0.0
 40
1.048361182519278
  0
LINE
  5
3D9
330
2
100
AcDbEntity
  8
GAIKEI
  6
Continuous
 62
     1
100
AcDbLine
 10
-14.29788482898402
 20
8.739931265054792
 30
0.0
 11
-14.29947720470409
 21
8.753581968334856
 31
0.0
  0
LINE
  5
3DA
330
2
100
AcDbEntity
  8
GAIKEI
  6
Continuous
 62
     1
100
AcDbLine
 10
-14.39880369140405
 20
8.841995379574882
 30
0.0
 11
-17.39485497246414
 21
8.841995379574882
 31
0.0
  0
LINE
  5
3DB
330
2
100
AcDbEntity
  8
GAIKEI
  6
Continuous
 62
     1
100
AcDbLine
 10
-17.39485497246414
 20
3.864693973014823
 30
0.0
 11
-14.39880369140405
 21
3.864693973014823
 31
0.0
  0
ARC
  5
3DC
330
2
100
AcDbEntity
  8
GAIKEI
  6
Continuous
 62
     1
100
AcDbCircle
 10
-14.39880369140405
 20
8.741995379574859
 30
0.0
 40
0.0999999999999998
100
AcDbArc
 50
6.653570631199583
 51
90.0
  0
ARC
  5
3DD
330
2
100
AcDbEntity
  8
GAIKEI
  6
Continuous
 62
     1
100
AcDbCircle
 10
-14.39721131568399
 20
3.978344676294796
 30
0.0
 40
0.0999999999999997
100
AcDbArc
 50
353.3464293688004
 51
0.0
  0
LINE
  5
3DE
330
2
100
AcDbEntity
  8
GAIKEI
  6
Continuous
 62
     1
100
AcDbLine
 10
-14.29947720470409
 20
3.95310738423484
 30
0.0
 11
-14.29788482898402
 21
3.96675808751479
 31
0.0
  0
ARC
  5
3DF
330
2
100
AcDbEntity
  8
GAIKEI
  6
Continuous
 62
     1
100
AcDbCircle
 10
-14.39721131568399
 20
8.728344676294796
 30
0.0
 40
0.1000000000000001
100
AcDbArc
 50
0.0
 51
6.653570631199583
  0
ARC
  5
3E0
330
2
100
AcDbEntity
  8
GAIKEI
  6
Continuous
 62
     1
100
AcDbCircle
 10
-14.39880369140405
 20
3.964693973014846
 30
0.0
 40
0.1000000000000001
100
AcDbArc
 50
270.0
 51
353.3464293688004
  0
LINE
  5
3E1
330
2
100
AcDbEntity
  8
GAIKEI
  6
Continuous
 62
     1
100
AcDbLine
 10
-17.30299469876399
 20
4.67113522709485
 30
0.0
 11
-14.49066396510398
 21
4.67113522709485
 31
0.0
  0
LINE
  5
3E2
330
2
100
AcDbEntity
  8
GAIKEI
  6
Continuous
 62
     1
100
AcDbLine
 10
-14.49066396510398
 20
8.165881949714844
 30
0.0
 11
-14.49066396510398
 21
8.035554125474845
 31
0.0
  0
LWPOLYLINE
  5
3E3
330
2
100
AcDbEntity
  8
GAIKEI
  6
Continuous
 62
     1
100
AcDbPolyline
 90
        5
 70
     0
 43
0.0
 10
-14.49066396510398
 20
4.540807402874861
 10
-14.47029515792405
 20
4.329008822274886
 10
-14.44791645590408
 20
4.144313294634912
 10
-14.42393141724415
 20
3.990463925734843
 10
-14.39768732880793
 20
3.864700204536234
  0
LINE
  5
3E4
330
2
100
AcDbEntity
  8
GAIKEI
  6
Continuous
 62
     1
100
AcDbLine
 10
-14.49066396510398
 20
4.540807402874861
 30
0.0
 11
-17.30299469876399
 21
4.540807402874861
 31
0.0
  0
LWPOLYLINE
  5
3E5
330
2
100
AcDbEntity
  8
GAIKEI
  6
Continuous
 62
     1
100
AcDbPolyline
 90
        5
 70
     0
 43
0.0
 10
-14.39768732880361
 20
8.841989148053471
 10
-14.42393141724415
 20
8.716225426834853
 10
-14.44791645590408
 20
8.562376057934898
 10
-14.47029515792405
 20
8.377680530294924
 10
-14.49066396510398
 20
8.165881949714844
  0
LINE
  5
3E6
330
2
100
AcDbEntity
  8
GAIKEI
  6
Continuous
 62
     1
100
AcDbLine
 10
-17.30299469876399
 20
8.165881949714844
 30
0.0
 11
-14.49066396510398
 21
8.165881949714844
 31
0.0
  0
LWPOLYLINE
  5
3E7
330
2
100
AcDbEntity
  8
GAIKEI
  6
Continuous
 62
     1
100
AcDbPolyline
 90
        9
 70
     0
 43
0.0
 10
-14.49066396510398
 20
4.67113522709485
 10
-14.47014551080406
 20
5.036235421054925
 10
-14.45434940614404
 20
5.446811987634873
 10
-14.44437049580415
 20
5.891088827394924
 10
-14.44095564746408
 20
6.353344676294909
 10
-14.44437049580415
 20
6.815600525194895
 10
-14.45434940614404
 20
7.259877364954832
 10
-14.47014551080406
 20
7.670453931534893
 10
-14.49066396510398
 20
8.035554125474845
  0
LINE
  5
3E8
330
2
100
AcDbEntity
  8
GAIKEI
  6
Continuous
 62
     1
100
AcDbLine
 10
-14.49066396510398
 20
8.035554125474845
 30
0.0
 11
-17.30299469876399
 21
8.035554125474845
 31
0.0
  0
LINE
  5
3E9
330
2
100
AcDbEntity
  8
GAIKEI
  6
Continuous
 62
     1
100
AcDbLine
 10
-14.49066396510398
 20
4.67113522709485
 30
0.0
 11
-14.49066396510398
 21
4.540807402874861
 31
0.0
  0
LINE
  5
3EA
330
2
100
AcDbEntity
  8
GAIKEI
  6
Continuous
 62
     1
100
AcDbLine
 10
-14.29721131568408
 20
3.978344676294796
 30
0.0
 11
-14.29721131568408
 21
8.728344676294796
 31
0.0
  0
LINE
  5
3EB
330
2
100
AcDbEntity
  8
GAIKEI
  6
Continuous
 62
     1
100
AcDbLine
 10
-31.99682933184408
 20
29.53176916383484
 30
0.0
 11
-31.99682933186409
 21
29.13176916383486
 31
0.0
  0
LINE
  5
3EC
330
2
100
AcDbEntity
  8
GAIKEI
  6
Continuous
 62
     1
100
AcDbLine
 10
-34.19682933184413
 20
29.53176916397479
 30
0.0
 11
-34.19682933186414
 21
29.13176916397481
 31
0.0
  0
LWPOLYLINE
  5
3ED
330
2
100
AcDbEntity
  8
GAIKEI
  6
Continuous
 62
     1
100
AcDbPolyline
 90
       21
 70
     0
 43
0.0
 10
-32.14682933180416
 20
30.12872492231486
 10
-32.15067216862417
 20
30.13616468607484
 10
-32.16268923180405
 20
30.14379109105494
 10
-32.18350032152421
 20
30.15150745997494
 10
-32.21353044578405
 20
30.15920241175491
 10
-32.30168359614413
 20
30.1740327711949
 10
-32.42507788966418
 20
30.18727191821483
 10
-32.57698006608416
 20
30.19802643953483
 10
-32.7471393577041
 20
30.2057094928349
 10
-32.92396443200414
 20
30.21014059661491
 10
-33.09682933178419
 20
30.21152287799487
 10
-33.26969423158403
 20
30.21014059665493
 10
-33.44651930588407
 20
30.20570949289492
 10
-33.61667859750412
 20
30.19802643961487
 10
-33.7685807739241
 20
30.18727191831488
 10
-33.89197506744404
 20
30.17403277131484
 10
-33.98012821780412
 20
30.15920241187485
 10
-34.01015834208408
 20
30.15150746009488
 10
-34.03096943178411
 20
30.14379109117488
 10
-34.04298649498412
 20
30.1361646862149
 10
-34.04682933180402
 20
30.12872492243491
  0
ARC
  5
3EE
330
2
100
AcDbEntity
  8
GAIKEI
  6
Continuous
 62
     1
100
AcDbCircle
 10
-34.96006196578412
 20
29.33178577477486
 30
0.0
 40
0.935013839934205
100
AcDbArc
 50
347.6917693021971
 51
12.34851342730205
  0
ARC
  5
3EF
330
2
100
AcDbEntity
  8
GAIKEI
  6
Continuous
 62
     1
100
AcDbCircle
 10
-31.23304797904416
 20
29.33176288669483
 30
0.0
 40
0.9355528376957447
100
AcDbArc
 50
167.6569438952985
 51
192.2987610860987
  0
LINE
  5
3F0
330
2
100
AcDbEntity
  8
GAIKEI
  6
Continuous
 62
     1
100
AcDbLine
 10
-35.19682933186414
 20
29.13176916405485
 30
0.0
 11
-35.19682933184413
 21
29.53176916405482
 31
0.0
  0
LINE
  5
3F1
330
2
100
AcDbEntity
  8
GAIKEI
  6
Continuous
 62
     1
100
AcDbLine
 10
-37.39682933186407
 20
29.1317691642148
 30
0.0
 11
-37.39682933184406
 21
29.53176916421489
 31
0.0
  0
ARC
  5
3F2
330
2
100
AcDbEntity
  8
GAIKEI
  6
Continuous
 62
     1
100
AcDbCircle
 10
-34.43304797912413
 20
29.33177544109481
 30
0.0
 40
0.9355528376296927
100
AcDbArc
 50
167.6567750648027
 51
192.3004039682026
  0
ARC
  5
3F3
330
2
100
AcDbEntity
  8
GAIKEI
  6
Continuous
 62
     1
100
AcDbCircle
 10
-38.16006196586409
 20
29.33175255353479
 30
0.0
 40
0.9350138399992811
100
AcDbArc
 50
347.6947400629996
 51
12.35138404829964
  0
LINE
  5
3F4
330
2
100
AcDbEntity
  8
GAIKEI
  6
Continuous
 62
     1
100
AcDbLine
 10
-32.14682933186419
 20
29.13176916383486
 30
0.0
 11
-31.99682933186409
 21
29.13176916383486
 31
0.0
  0
LINE
  5
3F5
330
2
100
AcDbEntity
  8
GAIKEI
  6
Continuous
 62
     1
100
AcDbLine
 10
-34.19682933186414
 20
29.13176916397481
 30
0.0
 11
-34.04682933186405
 21
29.13176916397481
 31
0.0
  0
LINE
  5
3F6
330
2
100
AcDbEntity
  8
GAIKEI
  6
Continuous
 62
     1
100
AcDbLine
 10
-32.14682933188419
 20
28.8432578290948
 30
0.0
 11
-32.14682933186419
 21
29.13494816147488
 31
0.0
  0
LINE
  5
3F7
330
2
100
AcDbEntity
  8
GAIKEI
  6
Continuous
 62
     1
100
AcDbLine
 10
-35.34682933186412
 20
29.13176916407485
 30
0.0
 11
-35.19682933186414
 21
29.13176916405485
 31
0.0
  0
LINE
  5
3F8
330
2
100
AcDbEntity
  8
GAIKEI
  6
Continuous
 62
     1
100
AcDbLine
 10
-37.39682933186407
 20
29.1317691642148
 30
0.0
 11
-37.24682933186409
 21
29.13176916419479
 31
0.0
  0
LINE
  5
3F9
330
2
100
AcDbEntity
  8
GAIKEI
  6
Continuous
 62
     1
100
AcDbLine
 10
-35.34682933184411
 20
29.53176916407483
 30
0.0
 11
-35.34682933180409
 21
30.12872492253484
 31
0.0
  0
LINE
  5
3FA
330
2
100
AcDbEntity
  8
GAIKEI
  6
Continuous
 62
     1
100
AcDbLine
 10
-34.04682933186405
 20
29.13326656761478
 30
0.0
 11
-34.04682933188406
 21
28.8432578290948
 31
0.0
  0
LINE
  5
3FB
330
2
100
AcDbEntity
  8
GAIKEI
  6
Continuous
 62
     1
100
AcDbLine
 10
-35.19682933184413
 20
29.53176916405482
 30
0.0
 11
-35.34710897858406
 21
29.53176916407483
 31
0.0
  0
LINE
  5
3FC
330
2
100
AcDbEntity
  8
GAIKEI
  6
Continuous
 62
     1
100
AcDbLine
 10
-37.2463261480641
 20
29.53176916419489
 30
0.0
 11
-37.39682933184406
 21
29.53176916421489
 31
0.0
  0
LINE
  5
3FD
330
2
100
AcDbEntity
  8
GAIKEI
  6
Continuous
 62
     1
100
AcDbLine
 10
-35.34682933188412
 20
28.8432578290948
 30
0.0
 11
-35.34682933186412
 21
29.13326656771483
 31
0.0
  0
LINE
  5
3FE
330
2
100
AcDbEntity
  8
GAIKEI
  6
Continuous
 62
     1
100
AcDbLine
 10
-34.04682933180414
 20
30.1287249224348
 30
0.0
 11
-34.04682933184404
 21
29.53176916397479
 31
0.0
  0
LINE
  5
3FF
330
2
100
AcDbEntity
  8
GAIKEI
  6
Continuous
 62
     1
100
AcDbLine
 10
-37.24682933186409
 20
29.13494816181481
 30
0.0
 11
-37.2468293318841
 21
28.8432578290948
 31
0.0
  0
LINE
  5
400
330
2
100
AcDbEntity
  8
GAIKEI
  6
Continuous
 62
     1
100
AcDbLine
 10
-37.24682933180407
 20
30.12872492267479
 30
0.0
 11
-37.24682933184408
 21
29.53176916419489
 31
0.0
  0
LWPOLYLINE
  5
401
330
2
100
AcDbEntity
  8
GAIKEI
  6
Continuous
 62
     1
100
AcDbPolyline
 90
       21
 70
     0
 43
0.0
 10
-35.34682933180409
 20
30.12872492253484
 10
-35.3506721686241
 20
30.13616468629493
 10
-35.3626892318041
 20
30.14379109127492
 10
-35.38350032152403
 20
30.15150746019492
 10
-35.41353044578409
 20
30.15920241197489
 10
-35.50168359614406
 20
30.1740327714349
 10
-35.62507788966411
 20
30.18727191845483
 10
-35.7769800660841
 20
30.19802643975493
 10
-35.94713935770414
 20
30.20570949307489
 10
-36.12396443200407
 20
30.2101405968549
 10
-36.29682933178401
 20
30.21152287823486
 10
-36.46969423158407
 20
30.21014059687491
 10
-36.64651930588411
 20
30.20570949311491
 10
-36.81667859750405
 20
30.19802643983485
 10
-36.96858077392403
 20
30.18727191853486
 10
-37.09197506744408
 20
30.17403277153494
 10
-37.18012821780405
 20
30.15920241209483
 10
-37.21015834208401
 20
30.15150746033487
 10
-37.23096943178405
 20
30.14379109141487
 10
-37.24298649498405
 20
30.13616468643488
 10
-37.24682933180407
 20
30.1287249226749
  0
LINE
  5
402
330
2
100
AcDbEntity
  8
GAIKEI
  6
Continuous
 62
     1
100
AcDbLine
 10
-31.99682933184408
 20
29.53176916383484
 30
0.0
 11
-32.14748445254418
 21
29.53176916383484
 31
0.0
  0
LINE
  5
403
330
2
100
AcDbEntity
  8
GAIKEI
  6
Continuous
 62
     1
100
AcDbLine
 10
-34.04609925738407
 20
29.53176916397479
 30
0.0
 11
-34.19682933184413
 21
29.53176916397479
 31
0.0
  0
LINE
  5
404
330
2
100
AcDbEntity
  8
GAIKEI
  6
Continuous
 62
     1
100
AcDbLine
 10
-32.14682933184418
 20
29.53176916383484
 30
0.0
 11
-32.14682933180416
 21
30.12872492231486
 31
0.0
  0
LINE
  5
405
330
2
100
AcDbEntity
  8
GAIKEI
  6
Continuous
 62
     1
100
AcDbLine
 10
-28.79682933284403
 20
29.1317691631748
 30
0.0
 11
-28.796829332784
 21
29.53176916317488
 31
0.0
  0
LINE
  5
406
330
2
100
AcDbEntity
  8
GAIKEI
  6
Continuous
 62
     1
100
AcDbLine
 10
-30.99682933284408
 20
29.1317691634348
 30
0.0
 11
-30.99682933278405
 21
29.53176916343478
 31
0.0
  0
LWPOLYLINE
  5
407
330
2
100
AcDbEntity
  8
GAIKEI
  6
Continuous
 62
     1
100
AcDbPolyline
 90
       21
 70
     0
 43
0.0
 10
-28.94682933272406
 20
30.12872492165491
 10
-28.95067216954408
 20
30.13616468543489
 10
-28.96268923272419
 20
30.14379109041488
 10
-28.98350032244412
 20
30.15150745933488
 10
-29.01353044670418
 20
30.15920241111485
 10
-29.10168359706404
 20
30.17403277057486
 10
-29.22507789058409
 20
30.1872719175949
 10
-29.37698006700407
 20
30.1980264389349
 10
-29.54713935862401
 20
30.20570949223486
 10
-29.72396443292405
 20
30.21014059603488
 10
-29.8968293327041
 20
30.21152287741484
 10
-30.06969423250416
 20
30.2101405960749
 10
-30.2465193068042
 20
30.20570949233491
 10
-30.41667859842414
 20
30.19802643905484
 10
-30.56858077484412
 20
30.18727191775486
 10
-30.69197506836417
 20
30.17403277075482
 10
-30.78012821872403
 20
30.15920241131494
 10
-30.81015834300411
 20
30.15150745955486
 10
-30.83096943272404
 20
30.14379109063487
 10
-30.84298649590414
 20
30.13616468565488
 10
-30.84682933272416
 20
30.1287249218949
  0
LINE
  5
408
330
2
100
AcDbEntity
  8
GAIKEI
  6
Continuous
 62
     1
100
AcDbLine
 10
-25.59682933278419
 20
29.53176916279483
 30
0.0
 11
-25.74748445350406
 21
29.53176916281484
 31
0.0
  0
LINE
  5
409
330
2
100
AcDbEntity
  8
GAIKEI
  6
Continuous
 62
     1
100
AcDbLine
 10
-27.64609925832406
 20
29.53176916303482
 30
0.0
 11
-27.796829332784
 21
29.53176916305483
 31
0.0
  0
LINE
  5
40A
330
2
100
AcDbEntity
  8
GAIKEI
  6
Continuous
 62
     1
100
AcDbLine
 10
-25.74682933278405
 20
29.53176916281484
 30
0.0
 11
-25.74682933272402
 21
30.12872492127485
 31
0.0
  0
ARC
  5
40B
330
2
100
AcDbEntity
  8
GAIKEI
  6
Continuous
 62
     1
100
AcDbCircle
 10
-28.03304798006411
 20
29.33177544017485
 30
0.0
 40
0.9355528376465507
100
AcDbArc
 50
167.6567750621024
 51
192.3004039651026
  0
ARC
  5
40C
330
2
100
AcDbEntity
  8
GAIKEI
  6
Continuous
 62
     1
100
AcDbCircle
 10
-31.76006196678418
 20
29.33175255279479
 30
0.0
 40
0.935013839969261
100
AcDbArc
 50
347.6947400596998
 51
12.3513840457989
  0
LINE
  5
40D
330
2
100
AcDbEntity
  8
GAIKEI
  6
Continuous
 62
     1
100
AcDbLine
 10
-25.74682933284407
 20
29.13176916281486
 30
0.0
 11
-25.59682933284421
 21
29.13176916279486
 31
0.0
  0
LINE
  5
40E
330
2
100
AcDbEntity
  8
GAIKEI
  6
Continuous
 62
     1
100
AcDbLine
 10
-27.79682933284403
 20
29.13176916305486
 30
0.0
 11
-27.64682933284416
 21
29.13176916303484
 31
0.0
  0
LINE
  5
40F
330
2
100
AcDbEntity
  8
GAIKEI
  6
Continuous
 62
     1
100
AcDbLine
 10
-25.74682933288409
 20
28.8432578290948
 30
0.0
 11
-25.74682933284407
 21
29.13494816043487
 31
0.0
  0
LINE
  5
410
330
2
100
AcDbEntity
  8
GAIKEI
  6
Continuous
 62
     1
100
AcDbLine
 10
-28.94682933284412
 20
29.13176916319481
 30
0.0
 11
-28.79682933284403
 21
29.1317691631748
 31
0.0
  0
LINE
  5
411
330
2
100
AcDbEntity
  8
GAIKEI
  6
Continuous
 62
     1
100
AcDbLine
 10
-30.99682933284408
 20
29.1317691634348
 30
0.0
 11
-30.84682933284421
 21
29.13176916341479
 31
0.0
  0
LINE
  5
412
330
2
100
AcDbEntity
  8
GAIKEI
  6
Continuous
 62
     1
100
AcDbLine
 10
-28.94682933278409
 20
29.53176916319478
 30
0.0
 11
-28.94682933272406
 21
30.1287249216548
 31
0.0
  0
LINE
  5
413
330
2
100
AcDbEntity
  8
GAIKEI
  6
Continuous
 62
     1
100
AcDbLine
 10
-27.64682933284416
 20
29.13326656667482
 30
0.0
 11
-27.64682933288418
 21
28.8432578290948
 31
0.0
  0
LINE
  5
414
330
2
100
AcDbEntity
  8
GAIKEI
  6
Continuous
 62
     1
100
AcDbLine
 10
-28.796829332784
 20
29.53176916317488
 30
0.0
 11
-28.94710897954406
 21
29.53176916319478
 31
0.0
  0
LINE
  5
415
330
2
100
AcDbEntity
  8
GAIKEI
  6
Continuous
 62
     1
100
AcDbLine
 10
-30.84632614902421
 20
29.53176916341488
 30
0.0
 11
-30.99682933278405
 21
29.53176916343478
 31
0.0
  0
LINE
  5
416
330
2
100
AcDbEntity
  8
GAIKEI
  6
Continuous
 62
     1
100
AcDbLine
 10
-28.94682933288414
 20
28.8432578290948
 30
0.0
 11
-28.94682933284412
 21
29.13326656683489
 31
0.0
  0
LINE
  5
417
330
2
100
AcDbEntity
  8
GAIKEI
  6
Continuous
 62
     1
100
AcDbLine
 10
-27.64682933272411
 20
30.12872492151485
 30
0.0
 11
-27.64682933278414
 21
29.53176916303482
 31
0.0
  0
LINE
  5
418
330
2
100
AcDbEntity
  8
GAIKEI
  6
Continuous
 62
     1
100
AcDbLine
 10
-30.84682933284421
 20
29.13494816105481
 30
0.0
 11
-30.846829332884
 21
28.8432578290948
 31
0.0
  0
LINE
  5
419
330
2
100
AcDbEntity
  8
GAIKEI
  6
Continuous
 62
     1
100
AcDbLine
 10
-30.84682933272416
 20
30.12872492189479
 30
0.0
 11
-30.84682933278418
 21
29.53176916341488
 31
0.0
  0
LINE
  5
41A
330
2
100
AcDbEntity
  8
GAIKEI
  6
Continuous
 62
     1
100
AcDbLine
 10
-25.59682933278419
 20
29.53176916279483
 30
0.0
 11
-25.59682933284421
 21
29.13176916279486
 31
0.0
  0
LINE
  5
41B
330
2
100
AcDbEntity
  8
GAIKEI
  6
Continuous
 62
     1
100
AcDbLine
 10
-27.796829332784
 20
29.53176916305483
 30
0.0
 11
-27.79682933284403
 21
29.13176916305486
 31
0.0
  0
LWPOLYLINE
  5
41C
330
2
100
AcDbEntity
  8
GAIKEI
  6
Continuous
 62
     1
100
AcDbPolyline
 90
       21
 70
     0
 43
0.0
 10
-25.74682933272402
 20
30.12872492127485
 10
-25.75067216954403
 20
30.13616468503483
 10
-25.76268923272414
 20
30.14379109001493
 10
-25.78350032244407
 20
30.15150745895482
 10
-25.81353044670414
 20
30.1592024107149
 10
-25.901683597064
 20
30.17403277017491
 10
-26.02507789058404
 20
30.18727191721485
 10
-26.17698006700403
 20
30.19802643853484
 10
-26.34713935862419
 20
30.20570949185492
 10
-26.523964432924
 20
30.21014059565482
 10
-26.69682933270406
 20
30.2115228770349
 10
-26.86969423250412
 20
30.21014059569484
 10
-27.04651930680416
 20
30.20570949193484
 10
-27.2166785984241
 20
30.19802643865489
 10
-27.36858077484408
 20
30.18727191737492
 10
-27.49197506836413
 20
30.17403277037488
 10
-27.58012821872398
 20
30.15920241093488
 10
-27.61015834300406
 20
30.15150745917492
 10
-27.63096943272399
 20
30.14379109025492
 10
-27.6429864959041
 20
30.13616468527493
 10
-27.64682933272411
 20
30.12872492151485
  0
ARC
  5
41D
330
2
100
AcDbEntity
  8
GAIKEI
  6
Continuous
 62
     1
100
AcDbCircle
 10
-28.56006196676413
 20
29.3317857738748
 30
0.0
 40
0.9350138399505787
100
AcDbArc
 50
347.6917692996031
 51
12.34851342420147
  0
ARC
  5
41E
330
2
100
AcDbEntity
  8
GAIKEI
  6
Continuous
 62
     1
100
AcDbCircle
 10
-24.83304798004406
 20
29.33176288561481
 30
0.0
 40
0.9355528376655174
100
AcDbArc
 50
167.6569438919979
 51
192.2987610836987
  0
LINE
  5
41F
330
2
100
AcDbEntity
  8
GAIKEI
  6
Continuous
 62
     1
100
AcDbLine
 10
-18.79682933234403
 20
29.1317691619148
 30
0.0
 11
-18.79682933230401
 21
29.53176916191478
 31
0.0
  0
LWPOLYLINE
  5
420
330
2
100
AcDbEntity
  8
GAIKEI
  6
Continuous
 62
     1
100
AcDbPolyline
 90
       21
 70
     0
 43
0.0
 10
-18.94682933224408
 20
30.12872492041493
 10
-18.95067216906409
 20
30.1361646841749
 10
-18.96268923224397
 20
30.14379108915489
 10
-18.98350032196413
 20
30.15150745807489
 10
-19.01353044622419
 20
30.15920240983485
 10
-19.10168359658405
 20
30.17403276929485
 10
-19.2250778901041
 20
30.1872719163149
 10
-19.37698006652408
 20
30.19802643763489
 10
-19.54713935814402
 20
30.20570949095486
 10
-19.72396443244406
 20
30.21014059473487
 10
-19.89682933224412
 20
30.21152287611483
 10
-20.06969423202418
 20
30.21014059475488
 10
-20.24651930632399
 20
30.20570949101489
 10
-20.41667859796417
 20
30.19802643773483
 10
-20.56858077436414
 20
30.18727191643484
 10
-20.6919750679042
 20
30.17403276943492
 10
-20.78012821824405
 20
30.15920240999492
 10
-20.81015834252412
 20
30.15150745823485
 10
-20.83096943224405
 20
30.14379108931485
 10
-20.84298649542416
 20
30.13616468435487
 10
-20.84682933224417
 20
30.12872492059489
  0
LINE
  5
421
330
2
100
AcDbEntity
  8
GAIKEI
  6
Continuous
 62
     1
100
AcDbLine
 10
-24.04682933234403
 20
29.13494816003481
 30
0.0
 11
-24.04682933236404
 21
28.8432578290948
 31
0.0
  0
LINE
  5
422
330
2
100
AcDbEntity
  8
GAIKEI
  6
Continuous
 62
     1
100
AcDbLine
 10
-20.99682933234408
 20
29.13176916213479
 30
0.0
 11
-20.99682933230406
 21
29.53176916213488
 31
0.0
  0
LINE
  5
423
330
2
100
AcDbEntity
  8
GAIKEI
  6
Continuous
 62
     1
100
AcDbLine
 10
-24.19682933230411
 20
29.53176916241478
 30
0.0
 11
-24.19682933234412
 21
29.1317691624148
 31
0.0
  0
LINE
  5
424
330
2
100
AcDbEntity
  8
GAIKEI
  6
Continuous
 62
     1
100
AcDbLine
 10
-21.99682933230406
 20
29.5317691622148
 30
0.0
 11
-21.99682933234408
 21
29.13176916221483
 31
0.0
  0
LWPOLYLINE
  5
425
330
2
100
AcDbEntity
  8
GAIKEI
  6
Continuous
 62
     1
100
AcDbPolyline
 90
       21
 70
     0
 43
0.0
 10
-22.14682933224413
 20
30.12872492071483
 10
-22.15067216906414
 20
30.13616468447492
 10
-22.16268923224402
 20
30.14379108945491
 10
-22.18350032196418
 20
30.15150745837491
 10
-22.21353044622401
 20
30.15920241013487
 10
-22.3016835965841
 20
30.17403276959488
 10
-22.42507789010415
 20
30.18727191661492
 10
-22.57698006652413
 20
30.19802643793492
 10
-22.74713935814407
 20
30.20570949123487
 10
-22.92396443244411
 20
30.21014059503489
 10
-23.09682933224417
 20
30.21152287641485
 10
-23.26969423202399
 20
30.21014059505489
 10
-23.44651930632403
 20
30.20570949131491
 10
-23.61667859796398
 20
30.19802643803485
 10
-23.76858077436418
 20
30.18727191673486
 10
-23.89197506790401
 20
30.17403276973482
 10
-23.98012821824409
 20
30.15920241029482
 10
-24.01015834252417
 20
30.15150745853487
 10
-24.03096943224409
 20
30.14379108961487
 10
-24.04298649542397
 20
30.13616468463488
 10
-24.04682933224399
 20
30.1287249208749
  0
ARC
  5
426
330
2
100
AcDbEntity
  8
GAIKEI
  6
Continuous
 62
     1
100
AcDbCircle
 10
-24.96061380474407
 20
29.33176248803489
 30
0.0
 40
0.9355528376466358
100
AcDbArc
 50
347.701303399397
 51
12.34302504669749
  0
LINE
  5
427
330
2
100
AcDbEntity
  8
GAIKEI
  6
Continuous
 62
     1
100
AcDbLine
 10
-18.94682933236413
 20
28.8432578290948
 30
0.0
 11
-18.94682933234412
 21
29.1332665655948
 31
0.0
  0
LINE
  5
428
330
2
100
AcDbEntity
  8
GAIKEI
  6
Continuous
 62
     1
100
AcDbLine
 10
-18.79682933230401
 20
29.53176916191478
 30
0.0
 11
-18.94710897904406
 21
29.53176916193479
 31
0.0
  0
LINE
  5
429
330
2
100
AcDbEntity
  8
GAIKEI
  6
Continuous
 62
     1
100
AcDbLine
 10
-15.73182933190401
 20
29.13176916163479
 30
0.0
 11
-15.59682933234398
 21
29.13176916163479
 31
0.0
  0
LINE
  5
42A
330
2
100
AcDbEntity
  8
GAIKEI
  6
Continuous
 62
     1
100
AcDbLine
 10
-15.746829332164
 20
29.13176916163479
 30
0.0
 11
-15.73182933190401
 21
29.13176916163479
 31
0.0
  0
LINE
  5
42B
330
2
100
AcDbEntity
  8
GAIKEI
  6
Continuous
 62
     1
100
AcDbLine
 10
-17.79682933234403
 20
29.13176916183488
 30
0.0
 11
-17.64682933234417
 21
29.13176916181487
 31
0.0
  0
LINE
  5
42C
330
2
100
AcDbEntity
  8
GAIKEI
  6
Continuous
 62
     1
100
AcDbLine
 10
-15.74682933234408
 20
29.13407660247481
 30
0.0
 11
-15.74682933234408
 21
29.13494815927482
 31
0.0
  0
LINE
  5
42D
330
2
100
AcDbEntity
  8
GAIKEI
  6
Continuous
 62
     1
100
AcDbLine
 10
-24.04617421160401
 20
29.53176916241478
 30
0.0
 11
-24.19682933230411
 21
29.53176916241478
 31
0.0
  0
LINE
  5
42E
330
2
100
AcDbEntity
  8
GAIKEI
  6
Continuous
 62
     1
100
AcDbLine
 10
-22.14682933236418
 20
28.8432578290948
 30
0.0
 11
-22.14682933234417
 21
29.13326656587481
 31
0.0
  0
LINE
  5
42F
330
2
100
AcDbEntity
  8
GAIKEI
  6
Continuous
 62
     1
100
AcDbLine
 10
-21.99682933230406
 20
29.5317691622148
 30
0.0
 11
-22.14755940676401
 21
29.53176916223481
 31
0.0
  0
LINE
  5
430
330
2
100
AcDbEntity
  8
GAIKEI
  6
Continuous
 62
     1
100
AcDbLine
 10
-20.84682933224417
 20
30.12872492059478
 30
0.0
 11
-20.84682933230419
 21
29.53176916211487
 31
0.0
  0
LINE
  5
431
330
2
100
AcDbEntity
  8
GAIKEI
  6
Continuous
 62
     1
100
AcDbLine
 10
-20.99682933234408
 20
29.13176916213479
 30
0.0
 11
-20.84682933234399
 21
29.13176916211478
 31
0.0
  0
LINE
  5
432
330
2
100
AcDbEntity
  8
GAIKEI
  6
Continuous
 62
     1
100
AcDbLine
 10
-17.64682933224412
 20
30.12872492029487
 30
0.0
 11
-17.64682933230415
 21
29.53176916181485
 31
0.0
  0
LINE
  5
433
330
2
100
AcDbEntity
  8
GAIKEI
  6
Continuous
 62
     1
100
AcDbLine
 10
-18.9468293323041
 20
29.53176916193479
 30
0.0
 11
-18.94682933224408
 21
30.12872492041481
 31
0.0
  0
LINE
  5
434
330
2
100
AcDbEntity
  8
GAIKEI
  6
Continuous
 62
     1
100
AcDbLine
 10
-18.94682933234412
 20
29.13176916193481
 30
0.0
 11
-18.79682933234403
 21
29.1317691619148
 31
0.0
  0
LINE
  5
435
330
2
100
AcDbEntity
  8
GAIKEI
  6
Continuous
 62
     1
100
AcDbLine
 10
-15.59682933230419
 20
29.53176916163489
 30
0.0
 11
-15.74748445300406
 21
29.53176916163489
 31
0.0
  0
LINE
  5
436
330
2
100
AcDbEntity
  8
GAIKEI
  6
Continuous
 62
     1
100
AcDbLine
 10
-17.64609925784407
 20
29.53176916181485
 30
0.0
 11
-17.79682933230401
 21
29.53176916183486
 31
0.0
  0
LINE
  5
437
330
2
100
AcDbEntity
  8
GAIKEI
  6
Continuous
 62
     1
100
AcDbLine
 10
-15.74682933230406
 20
29.53176916163489
 30
0.0
 11
-15.74682933224403
 21
30.12872492011479
 31
0.0
  0
LINE
  5
438
330
2
100
AcDbEntity
  8
GAIKEI
  6
Continuous
 62
     1
100
AcDbLine
 10
-24.04682933224399
 20
30.12872492087479
 30
0.0
 11
-24.04682933230402
 21
29.53176916241478
 31
0.0
  0
LINE
  5
439
330
2
100
AcDbEntity
  8
GAIKEI
  6
Continuous
 62
     1
100
AcDbLine
 10
-24.19682933234412
 20
29.1317691624148
 30
0.0
 11
-24.04682933234403
 21
29.1317691624148
 31
0.0
  0
LINE
  5
43A
330
2
100
AcDbEntity
  8
GAIKEI
  6
Continuous
 62
     1
100
AcDbLine
 10
-22.14682933230415
 20
29.53176916223481
 30
0.0
 11
-22.14682933224413
 21
30.12872492071483
 31
0.0
  0
LINE
  5
43B
330
2
100
AcDbEntity
  8
GAIKEI
  6
Continuous
 62
     1
100
AcDbLine
 10
-22.14682933234417
 20
29.13176916223483
 30
0.0
 11
-21.99682933234408
 21
29.13176916221483
 31
0.0
  0
LINE
  5
43C
330
2
100
AcDbEntity
  8
GAIKEI
  6
Continuous
 62
     1
100
AcDbLine
 10
-20.84682933234399
 20
29.13326656575487
 30
0.0
 11
-20.846829332364
 21
28.8432578290948
 31
0.0
  0
LINE
  5
43D
330
2
100
AcDbEntity
  8
GAIKEI
  6
Continuous
 62
     1
100
AcDbLine
 10
-20.84654968554401
 20
29.53176916211487
 30
0.0
 11
-20.99682933230406
 21
29.53176916213488
 31
0.0
  0
LINE
  5
43E
330
2
100
AcDbEntity
  8
GAIKEI
  6
Continuous
 62
     1
100
AcDbLine
 10
-17.64682933234417
 20
29.13326656547486
 30
0.0
 11
-17.64682933236418
 21
28.8432578290948
 31
0.0
  0
ARC
  5
43F
330
2
100
AcDbEntity
  8
GAIKEI
  6
Continuous
 62
     1
100
AcDbCircle
 10
-21.76061380478405
 20
29.33177583665486
 30
0.0
 40
0.9355528376834261
100
AcDbArc
 50
347.6996129531969
 51
12.3431470781006
  0
ARC
  5
440
330
2
100
AcDbEntity
  8
GAIKEI
  6
Continuous
 62
     1
100
AcDbCircle
 10
-21.23359985522416
 20
29.33178573911482
 30
0.0
 40
0.9350138399872385
100
AcDbArc
 50
167.6514293949971
 51
192.3082699163975
  0
ARC
  5
441
330
2
100
AcDbEntity
  8
GAIKEI
  6
Continuous
 62
     1
100
AcDbCircle
 10
-18.56006196626413
 20
29.33178577263482
 30
0.0
 40
0.9350138399509578
100
AcDbArc
 50
347.691769301197
 51
12.34851342590172
  0
ARC
  5
442
330
2
100
AcDbEntity
  8
GAIKEI
  6
Continuous
 62
     1
100
AcDbCircle
 10
-14.83304797952405
 20
29.33176288447487
 30
0.0
 40
0.935552837683412
100
AcDbArc
 50
167.6569438938981
 51
192.2987610850987
  0
ARC
  5
443
330
2
100
AcDbEntity
  8
GAIKEI
  6
Continuous
 62
     1
100
AcDbCircle
 10
-18.03304797956412
 20
29.33177543893487
 30
0.0
 40
0.9355528376466569
100
AcDbArc
 50
167.6567750638026
 51
192.3004039668026
  0
LINE
  5
444
330
2
100
AcDbEntity
  8
GAIKEI
  6
Continuous
 62
     1
100
AcDbLine
 10
-15.59682933230419
 20
29.53176916163489
 30
0.0
 11
-15.59682933234398
 21
29.13176916163479
 31
0.0
  0
LINE
  5
445
330
2
100
AcDbEntity
  8
GAIKEI
  6
Continuous
 62
     1
100
AcDbLine
 10
-17.79682933230401
 20
29.53176916183486
 30
0.0
 11
-17.79682933234403
 21
29.13176916183488
 31
0.0
  0
LWPOLYLINE
  5
446
330
2
100
AcDbEntity
  8
GAIKEI
  6
Continuous
 62
     1
100
AcDbPolyline
 90
       21
 70
     0
 43
0.0
 10
-15.74682933224403
 20
30.12872492011491
 10
-15.75067216906404
 20
30.13616468387488
 10
-15.76268923224415
 20
30.14379108885487
 10
-15.78350032196408
 20
30.15150745777487
 10
-15.81353044622415
 20
30.15920240955484
 10
-15.90168359658401
 20
30.17403276899484
 10
-16.02507789010406
 20
30.18727191603489
 10
-16.17698006652403
 20
30.19802643733488
 10
-16.34713935814398
 20
30.20570949065484
 10
-16.52396443244402
 20
30.21014059443485
 10
-16.69682933224408
 20
30.21152287581492
 10
-16.86969423202413
 20
30.21014059447487
 10
-17.04651930632417
 20
30.20570949071487
 10
-17.21667859796412
 20
30.19802643743492
 10
-17.36858077436409
 20
30.18727191615483
 10
-17.49197506790415
 20
30.17403276915491
 10
-17.580128218244
 20
30.15920240971491
 10
-17.61015834252407
 20
30.15150745795484
 10
-17.630969432244
 20
30.14379108903483
 10
-17.64298649542411
 20
30.13616468405485
 10
-17.64682933224412
 20
30.12872492029487
  0
TEXT
  5
447
330
2
100
AcDbEntity
  8
GAIKEI
  6
Continuous
 62
     1
100
AcDbText
 10
-10.58596376672403
 20
-0.8586792765851214
 30
0.0
 40
0.5
  1
BKGD
  7
SEACAD_SEANSI_TTF
 11
-10.58596376672403
 21
-0.3586792765851214
 31
0.0
100
AcDbText
 73
     3
  0
ARC
  5
449
330
2
100
AcDbEntity
  8
GAIKEI
  6
Continuous
 62
     1
100
AcDbCircle
 10
-7.596829318543996
 20
-0.2195478417851291
 30
0.0
 40
0.4
100
AcDbArc
 50
270.0
 51
0.0
  0
ARC
  5
44A
330
2
100
AcDbEntity
  8
GAIKEI
  6
Continuous
 62
     1
100
AcDbCircle
 10
-11.59682931854399
 20
-0.2195478417851291
 30
0.0
 40
0.4
100
AcDbArc
 50
180.0
 51
270.0
  0
ARC
  5
44B
330
2
100
AcDbEntity
  8
GAIKEI
  6
Continuous
 62
     1
100
AcDbCircle
 10
-11.59682931854399
 20
11.43055762605479
 30
0.0
 40
0.4
100
AcDbArc
 50
90.0
 51
180.0
  0
ARC
  5
44C
330
2
100
AcDbEntity
  8
GAIKEI
  6
Continuous
 62
     1
100
AcDbCircle
 10
-7.596829318543996
 20
11.43055762605479
 30
0.0
 40
0.4
100
AcDbArc
 50
0.0
 51
90.0
  0
LINE
  5
44D
330
2
100
AcDbEntity
  8
GAIKEI
  6
Continuous
 62
     1
100
AcDbLine
 10
-11.99682931854408
 20
11.43055762605479
 30
0.0
 11
-11.99682931854408
 21
-0.2195478417851291
 31
0.0
  0
LINE
  5
44E
330
2
100
AcDbEntity
  8
GAIKEI
  6
Continuous
 62
     1
100
AcDbLine
 10
-7.596829318543996
 20
11.83055762605477
 30
0.0
 11
-11.59682931854399
 21
11.83055762605477
 31
0.0
  0
LINE
  5
44F
330
2
100
AcDbEntity
  8
GAIKEI
  6
Continuous
 62
     1
100
AcDbLine
 10
-7.196829318544132
 20
-0.2195478417851291
 30
0.0
 11
-7.196829318544132
 21
11.43055762605479
 31
0.0
  0
LINE
  5
450
330
2
100
AcDbEntity
  8
GAIKEI
  6
Continuous
 62
     1
100
AcDbLine
 10
-10.78596376672408
 20
-0.6195478417851064
 30
0.0
 11
-11.59682931854399
 21
-0.6195478417851064
 31
0.0
  0
LINE
  5
451
330
2
100
AcDbEntity
  8
GAIKEI
  6
Continuous
 62
     1
100
AcDbLine
 10
-8.407700897163977
 20
-0.6195478417851064
 30
0.0
 11
-7.596829318543996
 21
-0.6195478417851064
 31
0.0
  0
TEXT
  5
452
330
2
100
AcDbEntity
  8
GAIKEI
  6
Continuous
 62
     1
100
AcDbText
 10
-43.96205072324415
 20
8.439146810374813
 30
0.0
 40
0.4
  1
AUX
  7
SEACAD_SEANSI_TTF
 11
-43.96205072324415
 21
8.839146810374813
 31
0.0
100
AcDbText
 73
     3
  0
TEXT
  5
453
330
2
100
AcDbEntity
  8
GAIKEI
  6
Continuous
 62
     1
100
AcDbText
 10
-40.83161594062403
 20
6.83914681037479
 30
0.0
 40
0.4
  1
PGM
  7
SEACAD_SEANSI_TTF
 11
-40.83161594062403
 21
7.239146810374791
 31
0.0
100
AcDbText
 73
     3
  0
LINE
  5
454
330
2
100
AcDbEntity
  8
GAIKEI
  6
Continuous
 62
     1
100
AcDbLine
 10
-41.03161594062408
 20
7.03045215821487
 30
0.0
 11
-43.39683233194409
 21
7.03045215821487
 31
0.0
  0
LINE
  5
455
330
2
100
AcDbEntity
  8
GAIKEI
  6
Continuous
 62
     1
100
AcDbLine
 10
-43.39683233194409
 20
8.230452158214802
 30
0.0
 11
-43.39683233194409
 21
7.03045215821487
 31
0.0
  0
ARC
  5
456
330
2
100
AcDbEntity
  8
GAIKEI
  6
Continuous
 62
     1
100
AcDbCircle
 10
-22.43337857176403
 20
6.484853863574812
 30
0.0
 40
0.106
100
AcDbArc
 50
0.0
 51
90.0
  0
ARC
  5
457
330
2
100
AcDbEntity
  8
GAIKEI
  6
Continuous
 62
     1
100
AcDbCircle
 10
-22.43337857176403
 20
5.796853863574824
 30
0.0
 40
0.106
100
AcDbArc
 50
270.0
 51
0.0
  0
ARC
  5
458
330
2
100
AcDbEntity
  8
GAIKEI
  6
Continuous
 62
     1
100
AcDbCircle
 10
-23.32137857176417
 20
5.796853863574824
 30
0.0
 40
0.106
100
AcDbArc
 50
180.0
 51
270.0
  0
ARC
  5
459
330
2
100
AcDbEntity
  8
GAIKEI
  6
Continuous
 62
     1
100
AcDbCircle
 10
-23.32137857176417
 20
6.484853863574812
 30
0.0
 40
0.106
100
AcDbArc
 50
90.0
 51
180.0
  0
LINE
  5
45A
330
2
100
AcDbEntity
  8
GAIKEI
  6
Continuous
 62
     1
100
AcDbLine
 10
-22.43337857176403
 20
6.590853863574807
 30
0.0
 11
-23.32137857176417
 21
6.590853863574807
 31
0.0
  0
LINE
  5
45B
330
2
100
AcDbEntity
  8
GAIKEI
  6
Continuous
 62
     1
100
AcDbLine
 10
-22.32737857176403
 20
5.796853863574824
 30
0.0
 11
-22.32737857176403
 21
6.484853863574812
 31
0.0
  0
LINE
  5
45C
330
2
100
AcDbEntity
  8
GAIKEI
  6
Continuous
 62
     1
100
AcDbLine
 10
-23.32137857176417
 20
5.69085386357483
 30
0.0
 11
-22.43337857176403
 21
5.69085386357483
 31
0.0
  0
LINE
  5
45D
330
2
100
AcDbEntity
  8
GAIKEI
  6
Continuous
 62
     1
100
AcDbLine
 10
-23.42737857176417
 20
6.484853863574812
 30
0.0
 11
-23.42737857176417
 21
5.796853863574824
 31
0.0
  0
ARC
  5
45E
330
2
100
AcDbEntity
  8
GAIKEI
  6
Continuous
 62
     1
100
AcDbCircle
 10
-26.77077191938406
 20
6.484853863574812
 30
0.0
 40
0.106
100
AcDbArc
 50
0.0
 51
90.0
  0
ARC
  5
45F
330
2
100
AcDbEntity
  8
GAIKEI
  6
Continuous
 62
     1
100
AcDbCircle
 10
-26.77077191938406
 20
5.796853863574824
 30
0.0
 40
0.106
100
AcDbArc
 50
270.0
 51
0.0
  0
ARC
  5
460
330
2
100
AcDbEntity
  8
GAIKEI
  6
Continuous
 62
     1
100
AcDbCircle
 10
-27.45877191938416
 20
5.796853863574824
 30
0.0
 40
0.106
100
AcDbArc
 50
180.0
 51
270.0
  0
ARC
  5
461
330
2
100
AcDbEntity
  8
GAIKEI
  6
Continuous
 62
     1
100
AcDbCircle
 10
-27.45877191938416
 20
6.484853863574812
 30
0.0
 40
0.106
100
AcDbArc
 50
90.0
 51
180.0
  0
LINE
  5
462
330
2
100
AcDbEntity
  8
GAIKEI
  6
Continuous
 62
     1
100
AcDbLine
 10
-26.77077191938406
 20
6.590853863574807
 30
0.0
 11
-27.45877191938416
 21
6.590853863574807
 31
0.0
  0
LINE
  5
463
330
2
100
AcDbEntity
  8
GAIKEI
  6
Continuous
 62
     1
100
AcDbLine
 10
-26.66477191938407
 20
5.796853863574824
 30
0.0
 11
-26.66477191938407
 21
6.484853863574812
 31
0.0
  0
LINE
  5
464
330
2
100
AcDbEntity
  8
GAIKEI
  6
Continuous
 62
     1
100
AcDbLine
 10
-27.45877191938416
 20
5.69085386357483
 30
0.0
 11
-26.77077191938406
 21
5.69085386357483
 31
0.0
  0
LINE
  5
465
330
2
100
AcDbEntity
  8
GAIKEI
  6
Continuous
 62
     1
100
AcDbLine
 10
-27.56477191938416
 20
6.484853863574812
 30
0.0
 11
-27.56477191938416
 21
5.796853863574824
 31
0.0
  0
ARC
  5
466
330
2
100
AcDbEntity
  8
GAIKEI
  6
Continuous
 62
     1
100
AcDbCircle
 10
-30.97077191938411
 20
6.484853863574812
 30
0.0
 40
0.106
100
AcDbArc
 50
0.0
 51
90.0
  0
ARC
  5
467
330
2
100
AcDbEntity
  8
GAIKEI
  6
Continuous
 62
     1
100
AcDbCircle
 10
-30.97077191938411
 20
5.796853863574824
 30
0.0
 40
0.106
100
AcDbArc
 50
270.0
 51
0.0
  0
ARC
  5
468
330
2
100
AcDbEntity
  8
GAIKEI
  6
Continuous
 62
     1
100
AcDbCircle
 10
-31.65877191938398
 20
5.796853863574824
 30
0.0
 40
0.106
100
AcDbArc
 50
180.0
 51
270.0
  0
ARC
  5
469
330
2
100
AcDbEntity
  8
GAIKEI
  6
Continuous
 62
     1
100
AcDbCircle
 10
-31.65877191938398
 20
6.484853863574812
 30
0.0
 40
0.106
100
AcDbArc
 50
90.0
 51
180.0
  0
LINE
  5
46A
330
2
100
AcDbEntity
  8
GAIKEI
  6
Continuous
 62
     1
100
AcDbLine
 10
-30.97077191938411
 20
6.590853863574807
 30
0.0
 11
-31.65877191938398
 21
6.590853863574807
 31
0.0
  0
LINE
  5
46B
330
2
100
AcDbEntity
  8
GAIKEI
  6
Continuous
 62
     1
100
AcDbLine
 10
-30.86477191938411
 20
5.796853863574824
 30
0.0
 11
-30.86477191938411
 21
6.484853863574812
 31
0.0
  0
LINE
  5
46C
330
2
100
AcDbEntity
  8
GAIKEI
  6
Continuous
 62
     1
100
AcDbLine
 10
-31.65877191938398
 20
5.69085386357483
 30
0.0
 11
-30.97077191938411
 21
5.69085386357483
 31
0.0
  0
LINE
  5
46D
330
2
100
AcDbEntity
  8
GAIKEI
  6
Continuous
 62
     1
100
AcDbLine
 10
-31.7647719193842
 20
6.484853863574812
 30
0.0
 11
-31.7647719193842
 21
5.796853863574824
 31
0.0
  0
ARC
  5
46E
330
2
100
AcDbEntity
  8
GAIKEI
  6
Continuous
 62
     1
100
AcDbCircle
 10
-39.37077191938409
 20
6.484853863574812
 30
0.0
 40
0.106
100
AcDbArc
 50
0.0
 51
90.0
  0
ARC
  5
46F
330
2
100
AcDbEntity
  8
GAIKEI
  6
Continuous
 62
     1
100
AcDbCircle
 10
-39.37077191938409
 20
5.796853863574824
 30
0.0
 40
0.106
100
AcDbArc
 50
270.0
 51
0.0
  0
ARC
  5
470
330
2
100
AcDbEntity
  8
GAIKEI
  6
Continuous
 62
     1
100
AcDbCircle
 10
-40.05877191938407
 20
5.796853863574824
 30
0.0
 40
0.106
100
AcDbArc
 50
180.0
 51
270.0
  0
ARC
  5
471
330
2
100
AcDbEntity
  8
GAIKEI
  6
Continuous
 62
     1
100
AcDbCircle
 10
-40.05877191938407
 20
6.484853863574812
 30
0.0
 40
0.106
100
AcDbArc
 50
90.0
 51
180.0
  0
LINE
  5
472
330
2
100
AcDbEntity
  8
GAIKEI
  6
Continuous
 62
     1
100
AcDbLine
 10
-39.37077191938409
 20
6.590853863574807
 30
0.0
 11
-40.05877191938407
 21
6.590853863574807
 31
0.0
  0
LINE
  5
473
330
2
100
AcDbEntity
  8
GAIKEI
  6
Continuous
 62
     1
100
AcDbLine
 10
-39.26477191938409
 20
5.796853863574824
 30
0.0
 11
-39.26477191938409
 21
6.484853863574812
 31
0.0
  0
LINE
  5
474
330
2
100
AcDbEntity
  8
GAIKEI
  6
Continuous
 62
     1
100
AcDbLine
 10
-40.05877191938407
 20
5.69085386357483
 30
0.0
 11
-39.37077191938409
 21
5.69085386357483
 31
0.0
  0
LINE
  5
475
330
2
100
AcDbEntity
  8
GAIKEI
  6
Continuous
 62
     1
100
AcDbLine
 10
-40.16477191938406
 20
6.484853863574812
 30
0.0
 11
-40.16477191938406
 21
5.796853863574824
 31
0.0
  0
ARC
  5
476
330
2
100
AcDbEntity
  8
GAIKEI
  6
Continuous
 62
     1
100
AcDbCircle
 10
-35.17077191938415
 20
6.484853863574812
 30
0.0
 40
0.106
100
AcDbArc
 50
0.0
 51
90.0
  0
ARC
  5
477
330
2
100
AcDbEntity
  8
GAIKEI
  6
Continuous
 62
     1
100
AcDbCircle
 10
-35.17077191938415
 20
5.796853863574824
 30
0.0
 40
0.106
100
AcDbArc
 50
270.0
 51
0.0
  0
ARC
  5
478
330
2
100
AcDbEntity
  8
GAIKEI
  6
Continuous
 62
     1
100
AcDbCircle
 10
-35.85877191938414
 20
5.796853863574824
 30
0.0
 40
0.106
100
AcDbArc
 50
180.0
 51
270.0
  0
ARC
  5
479
330
2
100
AcDbEntity
  8
GAIKEI
  6
Continuous
 62
     1
100
AcDbCircle
 10
-35.85877191938414
 20
6.484853863574812
 30
0.0
 40
0.106
100
AcDbArc
 50
90.0
 51
180.0
  0
LINE
  5
47A
330
2
100
AcDbEntity
  8
GAIKEI
  6
Continuous
 62
     1
100
AcDbLine
 10
-35.17077191938415
 20
6.590853863574807
 30
0.0
 11
-35.85877191938414
 21
6.590853863574807
 31
0.0
  0
LINE
  5
47B
330
2
100
AcDbEntity
  8
GAIKEI
  6
Continuous
 62
     1
100
AcDbLine
 10
-35.06477191938405
 20
5.796853863574824
 30
0.0
 11
-35.06477191938405
 21
6.484853863574812
 31
0.0
  0
LINE
  5
47C
330
2
100
AcDbEntity
  8
GAIKEI
  6
Continuous
 62
     1
100
AcDbLine
 10
-35.85877191938414
 20
5.69085386357483
 30
0.0
 11
-35.17077191938415
 21
5.69085386357483
 31
0.0
  0
LINE
  5
47D
330
2
100
AcDbEntity
  8
GAIKEI
  6
Continuous
 62
     1
100
AcDbLine
 10
-35.96477191938414
 20
6.484853863574812
 30
0.0
 11
-35.96477191938414
 21
5.796853863574824
 31
0.0
  0
TEXT
  5
47E
330
2
100
AcDbEntity
  8
GAIKEI
  6
Continuous
 62
     1
100
AcDbText
 10
-40.90118015802409
 20
5.843494636474838
 30
0.0
 40
0.6000000000000001
  1
1  6
  7
SEACAD_SEANSI_TTF
 11
-40.90118015802409
 21
6.443494636474838
 31
0.0
100
AcDbText
 73
     3
  0
ARC
  5
47F
330
2
100
AcDbEntity
  8
GAIKEI
  6
Continuous
 62
     1
100
AcDbCircle
 10
-18.73221965012408
 20
1.655661623114838
 30
0.0
 40
0.1
100
AcDbArc
 50
0.0
 51
90.0
  0
ARC
  5
480
330
2
100
AcDbEntity
  8
GAIKEI
  6
Continuous
 62
     1
100
AcDbCircle
 10
-18.73221965012408
 20
1.155661623114838
 30
0.0
 40
0.1
100
AcDbArc
 50
270.0
 51
0.0
  0
ARC
  5
481
330
2
100
AcDbEntity
  8
GAIKEI
  6
Continuous
 62
     1
100
AcDbCircle
 10
-20.93221965012412
 20
1.155661623114838
 30
0.0
 40
0.1
100
AcDbArc
 50
180.0
 51
270.0
  0
ARC
  5
482
330
2
100
AcDbEntity
  8
GAIKEI
  6
Continuous
 62
     1
100
AcDbCircle
 10
-20.93221965012412
 20
1.655661623114838
 30
0.0
 40
0.1
100
AcDbArc
 50
90.0
 51
180.0
  0
LINE
  5
483
330
2
100
AcDbEntity
  8
GAIKEI
  6
Continuous
 62
     1
100
AcDbLine
 10
-21.03221965012403
 20
1.155661623114838
 30
0.0
 11
-21.03221965012403
 21
1.655661623114838
 31
0.0
  0
LINE
  5
484
330
2
100
AcDbEntity
  8
GAIKEI
  6
Continuous
 62
     1
100
AcDbLine
 10
-18.73221965012408
 20
1.055661623114815
 30
0.0
 11
-20.93221965012412
 21
1.055661623114815
 31
0.0
  0
LINE
  5
485
330
2
100
AcDbEntity
  8
GAIKEI
  6
Continuous
 62
     1
100
AcDbLine
 10
-18.63221965012417
 20
1.655661623114838
 30
0.0
 11
-18.63221965012417
 21
1.155661623114838
 31
0.0
  0
LINE
  5
486
330
2
100
AcDbEntity
  8
GAIKEI
  6
Continuous
 62
     1
100
AcDbLine
 10
-20.93221965012412
 20
1.75566162311486
 30
0.0
 11
-18.73221965012408
 21
1.75566162311486
 31
0.0
  0
ARC
  5
487
330
2
100
AcDbEntity
  8
GAIKEI
  6
Continuous
 62
     1
100
AcDbCircle
 10
-18.68046327176398
 20
8.255661623614855
 30
0.0
 40
0.1
100
AcDbArc
 50
0.0
 51
90.0
  0
ARC
  5
488
330
2
100
AcDbEntity
  8
GAIKEI
  6
Continuous
 62
     1
100
AcDbCircle
 10
-18.68046327176398
 20
7.755661623614855
 30
0.0
 40
0.1
100
AcDbArc
 50
270.0
 51
0.0
  0
ARC
  5
489
330
2
100
AcDbEntity
  8
GAIKEI
  6
Continuous
 62
     1
100
AcDbCircle
 10
-20.88046327176403
 20
7.755661623614855
 30
0.0
 40
0.1
100
AcDbArc
 50
180.0
 51
270.0
  0
ARC
  5
48A
330
2
100
AcDbEntity
  8
GAIKEI
  6
Continuous
 62
     1
100
AcDbCircle
 10
-20.88046327176403
 20
8.255661623614855
 30
0.0
 40
0.1
100
AcDbArc
 50
90.0
 51
180.0
  0
LINE
  5
48B
330
2
100
AcDbEntity
  8
GAIKEI
  6
Continuous
 62
     1
100
AcDbLine
 10
-20.98046327176417
 20
7.755661623614855
 30
0.0
 11
-20.98046327176417
 21
8.255661623614855
 31
0.0
  0
LINE
  5
48C
330
2
100
AcDbEntity
  8
GAIKEI
  6
Continuous
 62
     1
100
AcDbLine
 10
-18.68046327176398
 20
7.655661623614832
 30
0.0
 11
-20.88046327176403
 21
7.655661623614832
 31
0.0
  0
LINE
  5
48D
330
2
100
AcDbEntity
  8
GAIKEI
  6
Continuous
 62
     1
100
AcDbLine
 10
-18.58046327176407
 20
8.255661623614855
 30
0.0
 11
-18.58046327176407
 21
7.755661623614855
 31
0.0
  0
LINE
  5
48E
330
2
100
AcDbEntity
  8
GAIKEI
  6
Continuous
 62
     1
100
AcDbLine
 10
-20.88046327176403
 20
8.355661623614878
 30
0.0
 11
-18.68046327176398
 21
8.355661623614878
 31
0.0
  0
TEXT
  5
48F
330
2
100
AcDbEntity
  8
GAIKEI
  6
Continuous
 62
     1
100
AcDbText
 10
-19.00770289716411
 20
19.44132072341483
 30
0.0
 40
0.5
  1
SHIFT
  7
SEACAD_SEANSI_TTF
 11
-19.00770289716411
 21
19.94132072341483
 31
0.0
100
AcDbText
 73
     3
  0
ARC
  5
490
330
2
100
AcDbEntity
  8
GAIKEI
  6
Continuous
 62
     1
100
AcDbCircle
 10
-16.8968323319441
 20
19.95445215821485
 30
0.0
 40
0.1
100
AcDbArc
 50
0.0
 51
90.0
  0
ARC
  5
491
330
2
100
AcDbEntity
  8
GAIKEI
  6
Continuous
 62
     1
100
AcDbCircle
 10
-16.8968323319441
 20
19.45445215821485
 30
0.0
 40
0.1
100
AcDbArc
 50
270.0
 51
0.0
  0
ARC
  5
492
330
2
100
AcDbEntity
  8
GAIKEI
  6
Continuous
 62
     1
100
AcDbCircle
 10
-19.09683233194414
 20
19.45445215821485
 30
0.0
 40
0.1
100
AcDbArc
 50
180.0
 51
270.0
  0
ARC
  5
493
330
2
100
AcDbEntity
  8
GAIKEI
  6
Continuous
 62
     1
100
AcDbCircle
 10
-19.09683233194414
 20
19.95445215821485
 30
0.0
 40
0.1
100
AcDbArc
 50
90.0
 51
180.0
  0
LINE
  5
494
330
2
100
AcDbEntity
  8
GAIKEI
  6
Continuous
 62
     1
100
AcDbLine
 10
-19.19683233194405
 20
19.45445215821485
 30
0.0
 11
-19.19683233194405
 21
19.95445215821485
 31
0.0
  0
LINE
  5
495
330
2
100
AcDbEntity
  8
GAIKEI
  6
Continuous
 62
     1
100
AcDbLine
 10
-16.8968323319441
 20
19.35445215821482
 30
0.0
 11
-19.09683233194414
 21
19.35445215821482
 31
0.0
  0
LINE
  5
496
330
2
100
AcDbEntity
  8
GAIKEI
  6
Continuous
 62
     1
100
AcDbLine
 10
-16.79683233194419
 20
19.95445215821485
 30
0.0
 11
-16.79683233194419
 21
19.45445215821485
 31
0.0
  0
LINE
  5
497
330
2
100
AcDbEntity
  8
GAIKEI
  6
Continuous
 62
     1
100
AcDbLine
 10
-19.09683233194414
 20
20.05445215821487
 30
0.0
 11
-16.8968323319441
 21
20.05445215821487
 31
0.0
  0
ARC
  5
498
330
2
100
AcDbEntity
  8
GAIKEI
  6
Continuous
 62
     1
100
AcDbCircle
 10
-22.19738521582417
 20
19.95443956251483
 30
0.0
 40
0.1
100
AcDbArc
 50
90.0
 51
180.0
  0
ARC
  5
499
330
2
100
AcDbEntity
  8
GAIKEI
  6
Continuous
 62
     1
100
AcDbCircle
 10
-22.19738521582417
 20
19.45443956251483
 30
0.0
 40
0.1
100
AcDbArc
 50
180.0
 51
270.0
  0
ARC
  5
49A
330
2
100
AcDbEntity
  8
GAIKEI
  6
Continuous
 62
     1
100
AcDbCircle
 10
-21.69738521582417
 20
19.45443956251483
 30
0.0
 40
0.1
100
AcDbArc
 50
270.0
 51
0.0
  0
ARC
  5
49B
330
2
100
AcDbEntity
  8
GAIKEI
  6
Continuous
 62
     1
100
AcDbCircle
 10
-21.69738521582417
 20
19.95443956251483
 30
0.0
 40
0.1
100
AcDbArc
 50
0.0
 51
90.0
  0
LINE
  5
49C
330
2
100
AcDbEntity
  8
GAIKEI
  6
Continuous
 62
     1
100
AcDbLine
 10
-22.29738521582408
 20
19.45443956251483
 30
0.0
 11
-22.29738521582408
 21
19.95443956251483
 31
0.0
  0
LINE
  5
49D
330
2
100
AcDbEntity
  8
GAIKEI
  6
Continuous
 62
     1
100
AcDbLine
 10
-21.69738521582417
 20
19.35443956251481
 30
0.0
 11
-22.19738521582417
 21
19.35443956251481
 31
0.0
  0
LINE
  5
49E
330
2
100
AcDbEntity
  8
GAIKEI
  6
Continuous
 62
     1
100
AcDbLine
 10
-21.59738521582403
 20
19.95443956251483
 30
0.0
 11
-21.59738521582403
 21
19.45443956251483
 31
0.0
  0
LINE
  5
49F
330
2
100
AcDbEntity
  8
GAIKEI
  6
Continuous
 62
     1
100
AcDbLine
 10
-22.19738521582417
 20
20.05443956251486
 30
0.0
 11
-21.69738521582417
 21
20.05443956251486
 31
0.0
  0
TEXT
  5
4A0
330
2
100
AcDbEntity
  8
GAIKEI
  6
Continuous
 62
     1
100
AcDbText
 10
-29.24900724498412
 20
19.44132072341483
 30
0.0
 40
0.5
  1
USER 1  3
  7
SEACAD_SEANSI_TTF
 11
-29.24900724498412
 21
19.94132072341483
 31
0.0
100
AcDbText
 73
     3
  0
ARC
  5
4A1
330
2
100
AcDbEntity
  8
GAIKEI
  6
Continuous
 62
     1
100
AcDbCircle
 10
-26.37681374854401
 20
19.95443956251483
 30
0.0
 40
0.1
100
AcDbArc
 50
90.0
 51
180.0
  0
ARC
  5
4A2
330
2
100
AcDbEntity
  8
GAIKEI
  6
Continuous
 62
     1
100
AcDbCircle
 10
-26.37681374854401
 20
19.45443956251483
 30
0.0
 40
0.1
100
AcDbArc
 50
180.0
 51
270.0
  0
ARC
  5
4A3
330
2
100
AcDbEntity
  8
GAIKEI
  6
Continuous
 62
     1
100
AcDbCircle
 10
-25.87681374854401
 20
19.45443956251483
 30
0.0
 40
0.1
100
AcDbArc
 50
270.0
 51
0.0
  0
ARC
  5
4A4
330
2
100
AcDbEntity
  8
GAIKEI
  6
Continuous
 62
     1
100
AcDbCircle
 10
-25.87681374854401
 20
19.95443956251483
 30
0.0
 40
0.1
100
AcDbArc
 50
0.0
 51
90.0
  0
LINE
  5
4A5
330
2
100
AcDbEntity
  8
GAIKEI
  6
Continuous
 62
     1
100
AcDbLine
 10
-26.47681374854415
 20
19.45443956251483
 30
0.0
 11
-26.47681374854415
 21
19.95443956251483
 31
0.0
  0
LINE
  5
4A6
330
2
100
AcDbEntity
  8
GAIKEI
  6
Continuous
 62
     1
100
AcDbLine
 10
-25.87681374854401
 20
19.35443956251481
 30
0.0
 11
-26.37681374854401
 21
19.35443956251481
 31
0.0
  0
LINE
  5
4A7
330
2
100
AcDbEntity
  8
GAIKEI
  6
Continuous
 62
     1
100
AcDbLine
 10
-25.7768137485441
 20
19.95443956251483
 30
0.0
 11
-25.7768137485441
 21
19.45443956251483
 31
0.0
  0
LINE
  5
4A8
330
2
100
AcDbEntity
  8
GAIKEI
  6
Continuous
 62
     1
100
AcDbLine
 10
-26.37681374854401
 20
20.05443956251486
 30
0.0
 11
-25.87681374854401
 21
20.05443956251486
 31
0.0
  0
TEXT
  5
4A9
330
2
100
AcDbEntity
  8
GAIKEI
  6
Continuous
 62
     1
100
AcDbText
 10
-39.06748550584405
 20
13.34132072341481
 30
0.0
 40
0.5
  1
BUS DELEGATION
  7
SEACAD_SEANSI_TTF
 11
-39.06748550584405
 21
13.84132072341481
 31
0.0
100
AcDbText
 73
     3
  0
LINE
  5
4AA
330
2
100
AcDbEntity
  8
GAIKEI
  6
Continuous
 62
     1
100
AcDbLine
 10
-39.26748550584409
 20
13.58045215821482
 30
0.0
 11
-41.66748550584407
 21
13.58045215821482
 31
0.0
  0
LINE
  5
4AB
330
2
100
AcDbEntity
  8
GAIKEI
  6
Continuous
 62
     1
100
AcDbLine
 10
-32.72617915802403
 20
13.58045215821482
 30
0.0
 11
-30.32617915802416
 21
13.58045215821482
 31
0.0
  0
TEXT
  5
4AC
330
2
100
AcDbEntity
  8
GAIKEI
  6
Continuous
 62
     1
100
AcDbText
 10
-28.25226811454399
 20
13.34132072341481
 30
0.0
 40
0.5
  1
TRANSITION TYPE
 41
0.9
  7
SEACAD_SEANSI_TTF
 11
-28.25226811454399
 21
13.84132072341481
 31
0.0
100
AcDbText
 73
     3
  0
LINE
  5
4AD
330
2
100
AcDbEntity
  8
GAIKEI
  6
Continuous
 62
     1
100
AcDbLine
 10
-28.35226811454413
 20
13.58045215821482
 30
0.0
 11
-29.05226811454418
 21
13.58045215821482
 31
0.0
  0
LINE
  5
4AE
330
2
100
AcDbEntity
  8
GAIKEI
  6
Continuous
 62
     1
100
AcDbLine
 10
-22.6413965493241
 20
13.58045215821482
 30
0.0
 11
-21.94139654932405
 21
13.58045215821482
 31
0.0
  0
TEXT
  5
4AF
330
2
100
AcDbEntity
  8
GAIKEI
  6
Continuous
 62
     1
100
AcDbText
 10
-20.80770189716418
 20
1.141320723414878
 30
0.0
 40
0.5
  1
SHIFT
  7
SEACAD_SEANSI_TTF
 11
-20.80770189716418
 21
1.641320723414878
 31
0.0
100
AcDbText
 73
     3
  0
TEXT
  5
4B0
330
2
100
AcDbEntity
  8
GAIKEI
  6
Continuous
 62
     1
100
AcDbText
 10
-20.03052798410408
 20
3.041320723414855
 30
0.0
 40
0.5
  1
B
  7
SEACAD_SEANSI_TTF
 11
-20.03052798410408
 21
3.541320723414855
 31
0.0
100
AcDbText
 73
     3
  0
TEXT
  5
4B1
330
2
100
AcDbEntity
  8
GAIKEI
  6
Continuous
 62
     1
100
AcDbText
 10
-20.80770189716418
 20
7.741320723414787
 30
0.0
 40
0.5
  1
SHIFT
  7
SEACAD_SEANSI_TTF
 11
-20.80770189716418
 21
8.241320723414787
 31
0.0
100
AcDbText
 73
     3
  0
TEXT
  5
4B2
330
2
100
AcDbEntity
  8
GAIKEI
  6
Continuous
 62
     1
100
AcDbText
 10
-20.03052798410408
 20
9.641320723414878
 30
0.0
 40
0.5
  1
A
  7
SEACAD_SEANSI_TTF
 11
-20.03052798410408
 21
10.14132072341488
 31
0.0
100
AcDbText
 73
     3
  0
CIRCLE
  5
4B3
330
2
100
AcDbEntity
  8
GAIKEI
  6
Continuous
 62
     1
100
AcDbCircle
 10
-19.79682933194408
 20
2.230557625534856
 30
0.0
 40
0.3
  0
CIRCLE
  5
4B4
330
2
100
AcDbEntity
  8
GAIKEI
  6
Continuous
 62
     1
100
AcDbCircle
 10
-19.79682933194408
 20
4.030557625534811
 30
0.0
 40
0.3
  0
CIRCLE
  5
4B5
330
2
100
AcDbEntity
  8
GAIKEI
  6
Continuous
 62
     1
100
AcDbCircle
 10
-19.79682933194408
 20
8.830557625534879
 30
0.0
 40
0.3
  0
CIRCLE
  5
4B6
330
2
100
AcDbEntity
  8
GAIKEI
  6
Continuous
 62
     1
100
AcDbCircle
 10
-19.79682933194408
 20
10.63055762553483
 30
0.0
 40
0.3
  0
TEXT
  5
4B7
330
2
100
AcDbEntity
  8
GAIKEI
  6
Continuous
 62
     1
100
AcDbText
 10
-44.23161494062412
 20
10.03914681037483
 30
0.0
 40
0.4
  1
KEY-S
  7
SEACAD_SEANSI_TTF
 11
-44.23161494062412
 21
10.43914681037483
 31
0.0
100
AcDbText
 73
     3
  0
TEXT
  5
4B8
330
2
100
AcDbEntity
  8
GAIKEI
  6
Continuous
 62
     1
100
AcDbText
 10
-43.96204972324404
 20
1.839146810374791
 30
0.0
 40
0.4
  1
AUX
  7
SEACAD_SEANSI_TTF
 11
-43.96204972324404
 21
2.239146810374791
 31
0.0
100
AcDbText
 73
     3
  0
TEXT
  5
4B9
330
2
100
AcDbEntity
  8
GAIKEI
  6
Continuous
 62
     1
100
AcDbText
 10
-44.21422363628415
 20
3.439146810374813
 30
0.0
 40
0.4
  1
KEY-F
  7
SEACAD_SEANSI_TTF
 11
-44.21422363628415
 21
3.839146810374813
 31
0.0
100
AcDbText
 73
     3
  0
TEXT
  5
4BA
330
2
100
AcDbEntity
  8
GAIKEI
  6
Continuous
 62
     1
100
AcDbText
 10
-43.98813667976412
 20
2.639146810374859
 30
0.0
 40
0.4
  1
PinP
  7
SEACAD_SEANSI_TTF
 11
-43.98813667976412
 21
3.039146810374859
 31
0.0
100
AcDbText
 73
     3
  0
TEXT
  5
4BB
330
2
100
AcDbEntity
  8
GAIKEI
  6
Continuous
 62
     1
100
AcDbText
 10
-10.56965841888404
 20
0.0413207234148558
 30
0.0
 40
0.5
  1
AUTO
  7
SEACAD_SEANSI_TTF
 11
-10.56965841888404
 21
0.5413207234148559
 31
0.0
100
AcDbText
 73
     3
  0
TEXT
  5
4BC
330
2
100
AcDbEntity
  8
GAIKEI
  6
Continuous
 62
     1
100
AcDbText
 10
-10.31422363628417
 20
6.641320723414878
 30
0.0
 40
0.5
  1
CUT
  7
SEACAD_SEANSI_TTF
 11
-10.31422363628417
 21
7.141320723414878
 31
0.0
100
AcDbText
 73
     3
  0
TEXT
  5
4BD
330
2
100
AcDbEntity
  8
GAIKEI
  6
Continuous
 62
     1
100
AcDbText
 10
-33.02291928846398
 20
6.83914681037479
 30
0.0
 40
0.4
  1
KEY OUT
  7
SEACAD_SEANSI_TTF
 11
-33.02291928846398
 21
7.239146810374791
 31
0.0
100
AcDbText
 73
     3
  0
TEXT
  5
4BE
330
2
100
AcDbEntity
  8
GAIKEI
  6
Continuous
 62
     1
100
AcDbText
 10
-36.6490062449841
 20
6.83914681037479
 30
0.0
 40
0.4
  1
PVW
  7
SEACAD_SEANSI_TTF
 11
-36.6490062449841
 21
7.239146810374791
 31
0.0
100
AcDbText
 73
     3
  0
TEXT
  5
4BF
330
2
100
AcDbEntity
  8
GAIKEI
  6
Continuous
 62
     1
100
AcDbText
 10
-28.15335407106409
 20
6.83914681037479
 30
0.0
 40
0.4
  1
CLN
  7
SEACAD_SEANSI_TTF
 11
-28.15335407106409
 21
7.239146810374791
 31
0.0
100
AcDbText
 73
     3
  0
TEXT
  5
4C0
330
2
100
AcDbEntity
  8
GAIKEI
  6
Continuous
 62
     1
100
AcDbText
 10
-23.81422363628417
 20
6.83914681037479
 30
0.0
 40
0.4
  1
MV
  7
SEACAD_SEANSI_TTF
 11
-23.81422363628417
 21
7.239146810374791
 31
0.0
100
AcDbText
 73
     3
  0
TEXT
  5
4C1
330
2
100
AcDbEntity
  8
GAIKEI
  6
Continuous
 62
     1
100
AcDbText
 10
-24.33596276672415
 20
5.843494636474838
 30
0.0
 40
0.6000000000000001
  1
5  10
  7
SEACAD_SEANSI_TTF
 11
-24.33596276672415
 21
6.443494636474838
 31
0.0
100
AcDbText
 73
     3
  0
TEXT
  5
4C2
330
2
100
AcDbEntity
  8
GAIKEI
  6
Continuous
 62
     1
100
AcDbText
 10
-28.30118015802418
 20
5.843494636474838
 30
0.0
 40
0.6000000000000001
  1
4  9
  7
SEACAD_SEANSI_TTF
 11
-28.30118015802418
 21
6.443494636474838
 31
0.0
100
AcDbText
 73
     3
  0
TEXT
  5
4C3
330
2
100
AcDbEntity
  8
GAIKEI
  6
Continuous
 62
     1
100
AcDbText
 10
-32.501180158024
 20
5.843494636474838
 30
0.0
 40
0.6000000000000001
  1
3  8
  7
SEACAD_SEANSI_TTF
 11
-32.501180158024
 21
6.443494636474838
 31
0.0
100
AcDbText
 73
     3
  0
TEXT
  5
4C4
330
2
100
AcDbEntity
  8
GAIKEI
  6
Continuous
 62
     1
100
AcDbText
 10
-36.70118015802405
 20
5.843494636474838
 30
0.0
 40
0.6000000000000001
  1
2  7
  7
SEACAD_SEANSI_TTF
 11
-36.70118015802405
 21
6.443494636474838
 31
0.0
100
AcDbText
 73
     3
  0
TEXT
  5
4C5
330
2
100
AcDbEntity
  8
GAIKEI
  6
Continuous
 62
     1
100
AcDbText
 10
-10.8794410275841
 20
14.04132072341485
 30
0.0
 40
0.5
  1
FTB ON
  7
SEACAD_SEANSI_TTF
 11
-10.8794410275841
 21
14.54132072341485
 31
0.0
100
AcDbText
 73
     3
  0
TEXT
  5
4C6
330
2
100
AcDbEntity
  8
GAIKEI
  6
Continuous
 62
     1
100
AcDbText
 10
-15.11204972324413
 20
14.04132072341485
 30
0.0
 40
0.5
  1
KEY ON
  7
SEACAD_SEANSI_TTF
 11
-15.11204972324413
 21
14.54132072341485
 31
0.0
100
AcDbText
 73
     3
  0
TEXT
  5
4C7
330
2
100
AcDbEntity
  8
GAIKEI
  6
Continuous
 62
     1
100
AcDbText
 10
-19.35552798410413
 20
14.04132072341485
 30
0.0
 40
0.5
  1
PinP ON
  7
SEACAD_SEANSI_TTF
 11
-19.35552798410413
 21
14.54132072341485
 31
0.0
100
AcDbText
 73
     3
  0
TEXT
  5
4C8
330
2
100
AcDbEntity
  8
GAIKEI
  6
Continuous
 62
     1
100
AcDbText
 10
-24.30987581020418
 20
14.04132072341485
 30
0.0
 40
0.5
  1
WIPE
  7
SEACAD_SEANSI_TTF
 11
-24.30987581020418
 21
14.54132072341485
 31
0.0
100
AcDbText
 73
     3
  0
TEXT
  5
4C9
330
2
100
AcDbEntity
  8
GAIKEI
  6
Continuous
 62
     1
100
AcDbText
 10
-28.20552798410404
 20
14.04132072341485
 30
0.0
 40
0.5
  1
MIX
  7
SEACAD_SEANSI_TTF
 11
-28.20552798410404
 21
14.54132072341485
 31
0.0
100
AcDbText
 73
     3
  0
TEXT
  5
4CA
330
2
100
AcDbEntity
  8
GAIKEI
  6
Continuous
 62
     1
100
AcDbText
 10
-33.15009320150421
 20
14.04132072341485
 30
0.0
 40
0.5
  1
KEY-F/S
  7
SEACAD_SEANSI_TTF
 11
-33.15009320150421
 21
14.54132072341485
 31
0.0
100
AcDbText
 73
     3
  0
TEXT
  5
4CB
330
2
100
AcDbEntity
  8
GAIKEI
  6
Continuous
 62
     1
100
AcDbText
 10
-36.73596276672413
 20
14.04132072341485
 30
0.0
 40
0.5
  1
PinP
  7
SEACAD_SEANSI_TTF
 11
-36.73596276672413
 21
14.54132072341485
 31
0.0
100
AcDbText
 73
     3
  0
TEXT
  5
4CC
330
2
100
AcDbEntity
  8
GAIKEI
  6
Continuous
 62
     1
100
AcDbText
 10
-40.90335407106408
 20
14.04132072341485
 30
0.0
 40
0.5
  1
AUX
  7
SEACAD_SEANSI_TTF
 11
-40.90335407106408
 21
14.54132072341485
 31
0.0
100
AcDbText
 73
     3
  0
TEXT
  5
4CD
330
2
100
AcDbEntity
  8
GAIKEI
  6
Continuous
 62
     1
100
AcDbText
 10
-25.04900624498418
 20
19.44132072341483
 30
0.0
 40
0.5
  1
USER 2  4
  7
SEACAD_SEANSI_TTF
 11
-25.04900624498418
 21
19.94132072341483
 31
0.0
100
AcDbText
 73
     3
  0
TEXT
  5
4CE
330
2
100
AcDbEntity
  8
GAIKEI
  6
Continuous
 62
     1
100
AcDbText
 10
-32.57400624498405
 20
19.44132072341483
 30
0.0
 40
0.5
  1
LINK
  7
SEACAD_SEANSI_TTF
 11
-32.57400624498405
 21
19.94132072341483
 31
0.0
100
AcDbText
 73
     3
  0
TEXT
  5
4CF
330
2
100
AcDbEntity
  8
GAIKEI
  6
Continuous
 62
     1
100
AcDbText
 10
-10.97183233194414
 20
19.44132072341483
 30
0.0
 40
0.5
  1
OSD ON
  7
SEACAD_SEANSI_TTF
 11
-10.97183233194414
 21
19.94132072341483
 31
0.0
100
AcDbText
 73
     3
  0
TEXT
  5
4D0
330
2
100
AcDbEntity
  8
GAIKEI
  6
Continuous
 62
     1
100
AcDbText
 10
-15.48704972324413
 20
19.44132072341483
 30
0.0
 40
0.5
  1
OSD/TIME
  7
SEACAD_SEANSI_TTF
 11
-15.48704972324413
 21
19.94132072341483
 31
0.0
100
AcDbText
 73
     3
  0
TEXT
  5
4D1
330
2
100
AcDbEntity
  8
GAIKEI
  6
Continuous
 62
     1
100
AcDbText
 10
-37.19791928846405
 20
19.44132072341483
 30
0.0
 40
0.5
  1
ALARM
  7
SEACAD_SEANSI_TTF
 11
-37.19791928846405
 21
19.94132072341483
 31
0.0
100
AcDbText
 73
     3
  0
TEXT
  5
4D2
330
2
100
AcDbEntity
  8
GAIKEI
  6
Continuous
 62
     1
100
AcDbText
 10
-41.53378885368408
 20
19.44132072341483
 30
0.0
 40
0.5
  1
POWER
  7
SEACAD_SEANSI_TTF
 11
-41.53378885368408
 21
19.94132072341483
 31
0.0
100
AcDbText
 73
     3
  0
TEXT
  5
4D3
330
2
100
AcDbEntity
  8
TOUROKU
100
AcDbText
 10
46.18112775312412
 20
44.74589308481131
 30
0.0
 40
2.0
  1
ＡＷＨＳ５０Ｎ
 72
     2
 11
62.31446108645745
 21
44.74589308481131
 31
0.0
100
AcDbText
  0
TEXT
  5
4D5
330
2
100
AcDbEntity
  8
MOJI1
100
AcDbText
 10
-35.68548894646983
 20
50.74589308481131
 30
0.0
 40
4.0
  1
コンパクトライブスイッチャー
100
AcDbText
  0
ENDSEC
  0
SECTION
  2
OBJECTS
  0
DICTIONARY
  5
7
330
0
100
AcDbDictionary
281
     1
  3
ACAD_COLOR
350
2D
  3
ACAD_GROUP
350
29
  3
ACAD_LAYOUT
350
B
  3
ACAD_MATERIAL
350
2C
  3
ACAD_MLINESTYLE
350
2A
  3
ACAD_PLOTSETTINGS
350
2B
  3
ACAD_PLOTSTYLENAME
350
6
  3
ACDBHEADERROUNDTRIPXREC
350
517
  3
AcDbVariableDictionary
350
512
  3
ASE_INDEX_DICTIONARY
350
4DF
  0
DICTIONARY
  5
11
330
10
100
AcDbDictionary
280
     1
281
     1
  3
ACAD_LAYERFILTERS
360
12
  3
ACAD_LAYERSTATES
360
13
  0
DICTIONARY
  5
2D
102
{ACAD_REACTORS
330
7
102
}
330
7
100
AcDbDictionary
281
     1
  0
DICTIONARY
  5
29
102
{ACAD_REACTORS
330
7
102
}
330
7
100
AcDbDictionary
281
     1
  0
DICTIONARY
  5
B
102
{ACAD_REACTORS
330
7
102
}
330
7
100
AcDbDictionary
281
     1
  3
Model
350
A
  3
レイアウト1
350
F
  0
DICTIONARY
  5
2C
102
{ACAD_REACTORS
330
7
102
}
330
7
100
AcDbDictionary
281
     1
  0
DICTIONARY
  5
2A
102
{ACAD_REACTORS
330
7
102
}
330
7
100
AcDbDictionary
281
     1
  3
Standard
350
2F
  0
DICTIONARY
  5
2B
102
{ACAD_REACTORS
330
7
102
}
330
7
100
AcDbDictionary
281
     1
  0
ACDBDICTIONARYWDFLT
  5
6
102
{ACAD_REACTORS
330
7
102
}
330
7
100
AcDbDictionary
281
     1
  3
Normal
350
5
100
AcDbDictionaryWithDefault
340
5
  0
DICTIONARY
  5
517
102
{ACAD_REACTORS
330
7
102
}
330
7
100
AcDbDictionary
281
     1
  3
COLORDICT
350
519
  3
MATERIALDICT
350
518
  0
DICTIONARY
  5
512
102
{ACAD_REACTORS
330
7
102
}
330
7
100
AcDbDictionary
281
     1
  3
DIMASSOC
350
514
  3
HIDETEXT
350
513
  3
PROJECTNAME
350
515
  0
DICTIONARY
  5
4DF
102
{ACAD_REACTORS
330
7
102
}
330
7
100
AcDbDictionary
281
     1
  3
ASEBlockHierarchyIndexRecord
350
4E1
1001
DCO15
1040
1690546541.348
  0
DICTIONARY
  5
12
102
{ACAD_REACTORS
330
11
102
}
330
11
100
AcDbDictionary
281
     1
  0
DICTIONARY
  5
13
102
{ACAD_REACTORS
330
11
102
}
330
11
100
AcDbDictionary
281
     1
  0
LAYOUT
  5
A
102
{ACAD_XDICTIONARY
360
51A
102
}
102
{ACAD_REACTORS
330
B
102
}
330
B
100
AcDbPlotSettings
  1

  2
10F06M_RICOH_SP-8100
  4
A4
  6

 40
5.873749732971191
 41
5.873747825622558
 42
5.873748779296875
 43
5.873748779296875
 44
209.9733276367187
 45
296.9259948730469
 46
5.419999999999999
 47
0.0
 48
0.0
 49
0.0
140
0.0
141
0.0
142
1.0
143
1.382473168219473
 70
 11956
 72
     1
 73
     0
 74
     1
  7
tmsacad.ctb
 75
     0
147
0.7233413443299798
148
0.0192216317385601
149
0.0180409818002545
100
AcDbLayout
  1
Model
 70
     1
 71
     0
 10
0.0
 20
0.0
 11
12.0
 21
9.0
 12
0.0
 22
0.0
 32
0.0
 14
0.0
 24
0.0
 34
0.0
 15
0.0
 25
0.0
 35
0.0
146
0.0
 13
0.0
 23
0.0
 33
0.0
 16
1.0
 26
0.0
 36
0.0
 17
0.0
 27
1.0
 37
0.0
 76
     0
330
2
  0
LAYOUT
  5
F
102
{ACAD_XDICTIONARY
360
51C
102
}
102
{ACAD_REACTORS
330
B
102
}
330
B
100
AcDbPlotSettings
  1

  2
None
  4

  6

 40
0.0
 41
0.0
 42
0.0
 43
0.0
 44
0.0
 45
0.0
 46
0.0
 47
0.0
 48
0.0
 49
0.0
140
0.0
141
0.0
142
1.0
143
1.0
 70
   688
 72
     0
 73
     0
 74
     5
  7
tmsacad.ctb
 75
    16
147
1.0
148
0.0
149
0.0
100
AcDbLayout
  1
レイアウト1
 70
     1
 71
     1
 10
0.0
 20
0.0
 11
12.0
 21
9.0
 12
0.0
 22
0.0
 32
0.0
 14
0.0
 24
0.0
 34
0.0
 15
0.0
 25
0.0
 35
0.0
146
0.0
 13
0.0
 23
0.0
 33
0.0
 16
1.0
 26
0.0
 36
0.0
 17
0.0
 27
1.0
 37
0.0
 76
     0
330
C
  0
MLINESTYLE
  5
2F
102
{ACAD_REACTORS
330
2A
102
}
330
2A
100
AcDbMlineStyle
  2
STANDARD
 70
     0
  3

 62
   256
 51
90.0
 52
90.0
 71
     2
 49
0.5
 62
   256
  6
BYLAYER
 49
-0.5
 62
   256
  6
BYLAYER
  0
ACDBPLACEHOLDER
  5
5
102
{ACAD_REACTORS
330
6
102
}
330
6
  0
XRECORD
  5
519
102
{ACAD_REACTORS
330
517
102
}
330
517
100
AcDbXrecord
280
     1
340
2D
  0
XRECORD
  5
518
102
{ACAD_REACTORS
330
517
102
}
330
517
100
AcDbXrecord
280
     1
340
2C
  0
DICTIONARYVAR
  5
514
102
{ACAD_REACTORS
330
512
102
}
330
512
100
DictionaryVariables
280
     0
  1
1
  0
DICTIONARYVAR
  5
513
102
{ACAD_REACTORS
330
512
102
}
330
512
100
DictionaryVariables
280
     0
  1
1
  0
DICTIONARYVAR
  5
515
102
{ACAD_REACTORS
330
512
102
}
330
512
100
DictionaryVariables
280
     0
  1

  0
XRECORD
  5
4E1
102
{ACAD_REACTORS
330
4DF
102
}
330
4DF
100
AcDbXrecord
280
     1
330
5D
330
5E
330
50
330
51
330
42
330
43
330
4F2
330
4F3
330
4FE
330
4FF
330
50A
330
50B
  0
DICTIONARY
  5
51A
330
A
100
AcDbDictionary
280
     1
281
     1
  3
ACAD_XREC_ROUNDTRIP
360
51B
  0
DICTIONARY
  5
51C
330
F
100
AcDbDictionary
280
     1
281
     1
  3
ACAD_XREC_ROUNDTRIP
360
51D
  0
XRECORD
  5
51B
102
{ACAD_REACTORS
330
51A
102
}
330
51A
100
AcDbXrecord
280
     1
102
SHADEPLOT
 70
     0
102
SHADEPLOTRESLEVEL
 70
     2
102
SHADEPLOTCUSTOMDPI
 70
   300
  0
XRECORD
  5
51D
102
{ACAD_REACTORS
330
51C
102
}
330
51C
100
AcDbXrecord
280
     1
102
SHADEPLOT
 70
     0
102
SHADEPLOTRESLEVEL
 70
     2
102
SHADEPLOTCUSTOMDPI
 70
   300
  0
ENDSEC
  0
EOF
