  0
SECTION
  2
HEADER
  9
$ACADVER
  1
AC1015
  9
$ACADMAINTVER
 70
    20
  9
$DWGCODEPAGE
  3
ANSI_932
  9
$INSBASE
 10
0.4999999440410648
 20
372.5008351249344
 30
0.0
  9
$EXTMIN
 10
-67.81677156199783
 20
-55.77360472010173
 30
-0.0015258207003583
  9
$EXTMAX
 10
57.21679743055346
 20
57.25099223369148
 30
0.0000000349246037
  9
$LIMMIN
 10
0.0
 20
0.0
  9
$LIMMAX
 10
420.0
 20
297.0
  9
$ORTHOMODE
 70
     1
  9
$REGENMODE
 70
     0
  9
$FILLMODE
 70
     1
  9
$QTEXTMODE
 70
     0
  9
$MIRRTEXT
 70
     0
  9
$LTSCALE
 40
1.0
  9
$ATTMODE
 70
     1
  9
$TEXTSIZE
 40
2.5
  9
$TRACEWID
 40
1.0
  9
$TEXTSTYLE
  7
Standard
  9
$CLAYER
  8
GAIKEI
  9
$CELTYPE
  6
ByLayer
  9
$CECOLOR
 62
   256
  9
$CELTSCALE
 40
1.0
  9
$DISPSILH
 70
     0
  9
$DIMSCALE
 40
1.0
  9
$DIMASZ
 40
2.0
  9
$DIMEXO
 40
2.0
  9
$DIMDLI
 40
8.0
  9
$DIMRND
 40
0.0
  9
$DIMDLE
 40
0.0
  9
$DIMEXE
 40
2.0
  9
$DIMTP
 40
0.0
  9
$DIMTM
 40
0.0
  9
$DIMTXT
 40
2.5
  9
$DIMCEN
 40
0.0
  9
$DIMTSZ
 40
0.0
  9
$DIMTOL
 70
     0
  9
$DIMLIM
 70
     0
  9
$DIMTIH
 70
     0
  9
$DIMTOH
 70
     0
  9
$DIMSE1
 70
     0
  9
$DIMSE2
 70
     0
  9
$DIMTAD
 70
     3
  9
$DIMZIN
 70
     0
  9
$DIMBLK
  1

  9
$DIMASO
 70
     1
  9
$DIMSHO
 70
     1
  9
$DIMPOST
  1

  9
$DIMAPOST
  1

  9
$DIMALT
 70
     0
  9
$DIMALTD
 70
     2
  9
$DIMALTF
 40
25.4
  9
$DIMLFAC
 40
1.0
  9
$DIMTOFL
 70
     1
  9
$DIMTVP
 40
0.0
  9
$DIMTIX
 70
     0
  9
$DIMSOXD
 70
     0
  9
$DIMSAH
 70
     1
  9
$DIMBLK1
  1
OPEN30
  9
$DIMBLK2
  1
OPEN30
  9
$DIMSTYLE
  2
STANDARD
  9
$DIMCLRD
 70
     0
  9
$DIMCLRE
 70
     0
  9
$DIMCLRT
 70
     0
  9
$DIMTFAC
 40
1.0
  9
$DIMGAP
 40
0.5
  9
$DIMJUST
 70
     0
  9
$DIMSD1
 70
     0
  9
$DIMSD2
 70
     0
  9
$DIMTOLJ
 70
     1
  9
$DIMTZIN
 70
     0
  9
$DIMALTZ
 70
     0
  9
$DIMALTTZ
 70
     0
  9
$DIMUPT
 70
     0
  9
$DIMDEC
 70
     4
  9
$DIMTDEC
 70
     4
  9
$DIMALTU
 70
     2
  9
$DIMALTTD
 70
     2
  9
$DIMTXSTY
  7
Standard
  9
$DIMAUNIT
 70
     0
  9
$DIMADEC
 70
     0
  9
$DIMALTRND
 40
0.0
  9
$DIMAZIN
 70
     0
  9
$DIMDSEP
 70
    46
  9
$DIMATFIT
 70
     3
  9
$DIMFRAC
 70
     0
  9
$DIMLDRBLK
  1
OPEN30
  9
$DIMLUNIT
 70
     2
  9
$DIMLWD
 70
    -2
  9
$DIMLWE
 70
    -2
  9
$DIMTMOVE
 70
     0
  9
$LUNITS
 70
     2
  9
$LUPREC
 70
     4
  9
$SKETCHINC
 40
1.0
  9
$FILLETRAD
 40
0.0
  9
$AUNITS
 70
     0
  9
$AUPREC
 70
     0
  9
$MENU
  1
.
  9
$ELEVATION
 40
0.0
  9
$PELEVATION
 40
0.0
  9
$THICKNESS
 40
0.0
  9
$LIMCHECK
 70
     0
  9
$CHAMFERA
 40
0.0
  9
$CHAMFERB
 40
0.0
  9
$CHAMFERC
 40
0.0
  9
$CHAMFERD
 40
0.0
  9
$SKPOLY
 70
     0
  9
$TDCREATE
 40
2454349.434269746
  9
$TDUCREATE
 40
2454349.059269746
  9
$TDUPDATE
 40
2455296.315407442
  9
$TDUUPDATE
 40
2455295.940407442
  9
$TDINDWG
 40
0.1957090741
  9
$TDUSRTIMER
 40
0.1957090741
  9
$USRTIMER
 70
     1
  9
$ANGBASE
 50
0.0
  9
$ANGDIR
 70
     0
  9
$PDMODE
 70
     0
  9
$PDSIZE
 40
0.0
  9
$PLINEWID
 40
0.0
  9
$SPLFRAME
 70
     0
  9
$SPLINETYPE
 70
     6
  9
$SPLINESEGS
 70
     8
  9
$HANDSEED
  5
50E
  9
$SURFTAB1
 70
     6
  9
$SURFTAB2
 70
     6
  9
$SURFTYPE
 70
     6
  9
$SURFU
 70
     6
  9
$SURFV
 70
     6
  9
$UCSBASE
  2

  9
$UCSNAME
  2

  9
$UCSORG
 10
0.0
 20
0.0
 30
0.0
  9
$UCSXDIR
 10
1.0
 20
0.0
 30
0.0
  9
$UCSYDIR
 10
0.0
 20
1.0
 30
0.0
  9
$UCSORTHOREF
  2

  9
$UCSORTHOVIEW
 70
     0
  9
$UCSORGTOP
 10
0.0
 20
0.0
 30
0.0
  9
$UCSORGBOTTOM
 10
0.0
 20
0.0
 30
0.0
  9
$UCSORGLEFT
 10
0.0
 20
0.0
 30
0.0
  9
$UCSORGRIGHT
 10
0.0
 20
0.0
 30
0.0
  9
$UCSORGFRONT
 10
0.0
 20
0.0
 30
0.0
  9
$UCSORGBACK
 10
0.0
 20
0.0
 30
0.0
  9
$PUCSBASE
  2

  9
$PUCSNAME
  2

  9
$PUCSORG
 10
0.0
 20
0.0
 30
0.0
  9
$PUCSXDIR
 10
1.0
 20
0.0
 30
0.0
  9
$PUCSYDIR
 10
0.0
 20
1.0
 30
0.0
  9
$PUCSORTHOREF
  2

  9
$PUCSORTHOVIEW
 70
     0
  9
$PUCSORGTOP
 10
0.0
 20
0.0
 30
0.0
  9
$PUCSORGBOTTOM
 10
0.0
 20
0.0
 30
0.0
  9
$PUCSORGLEFT
 10
0.0
 20
0.0
 30
0.0
  9
$PUCSORGRIGHT
 10
0.0
 20
0.0
 30
0.0
  9
$PUCSORGFRONT
 10
0.0
 20
0.0
 30
0.0
  9
$PUCSORGBACK
 10
0.0
 20
0.0
 30
0.0
  9
$USERI1
 70
     0
  9
$USERI2
 70
     0
  9
$USERI3
 70
     0
  9
$USERI4
 70
     0
  9
$USERI5
 70
     0
  9
$USERR1
 40
0.0
  9
$USERR2
 40
0.0
  9
$USERR3
 40
0.0
  9
$USERR4
 40
0.0
  9
$USERR5
 40
0.0
  9
$WORLDVIEW
 70
     1
  9
$SHADEDGE
 70
     3
  9
$SHADEDIF
 70
    70
  9
$TILEMODE
 70
     1
  9
$MAXACTVP
 70
    64
  9
$PINSBASE
 10
0.0
 20
0.0
 30
0.0
  9
$PLIMCHECK
 70
     0
  9
$PEXTMIN
 10
0.0
 20
0.0
 30
0.0
  9
$PEXTMAX
 10
0.0
 20
0.0
 30
0.0
  9
$PLIMMIN
 10
0.0
 20
0.0
  9
$PLIMMAX
 10
12.0
 20
9.0
  9
$UNITMODE
 70
     0
  9
$VISRETAIN
 70
     1
  9
$PLINEGEN
 70
     0
  9
$PSLTSCALE
 70
     1
  9
$TREEDEPTH
 70
  3020
  9
$CMLSTYLE
  2
Standard
  9
$CMLJUST
 70
     0
  9
$CMLSCALE
 40
20.0
  9
$PROXYGRAPHICS
 70
     1
  9
$MEASUREMENT
 70
     1
  9
$CELWEIGHT
370
    -1
  9
$ENDCAPS
280
     0
  9
$JOINSTYLE
280
     0
  9
$LWDISPLAY
290
     0
  9
$INSUNITS
 70
     4
  9
$HYPERLINKBASE
  1

  9
$STYLESHEET
  1

  9
$XEDIT
290
     1
  9
$CEPSNTYPE
380
     0
  9
$PSTYLEMODE
290
     1
  9
$FINGERPRINTGUID
  2
{FDEAD578-A652-11D2-9A35-0060089B3A3F}
  9
$VERSIONGUID
  2
{BFA4EF4C-B4E0-46F3-97A1-A6AA0E417619}
  9
$EXTNAMES
290
     1
  9
$PSVPSCALE
 40
0.0
  9
$OLESTARTUP
290
     0
  0
ENDSEC
  0
SECTION
  2
CLASSES
  0
CLASS
  1
ACDBDICTIONARYWDFLT
  2
AcDbDictionaryWithDefault
  3
ObjectDBX Classes
 90
        0
280
     0
281
     0
  0
CLASS
  1
ACDBPLACEHOLDER
  2
AcDbPlaceHolder
  3
ObjectDBX Classes
 90
        0
280
     0
281
     0
  0
CLASS
  1
LAYOUT
  2
AcDbLayout
  3
ObjectDBX Classes
 90
        0
280
     0
281
     0
  0
CLASS
  1
DICTIONARYVAR
  2
AcDbDictionaryVar
  3
ObjectDBX Classes
 90
        0
280
     0
281
     0
  0
CLASS
  1
DIMASSOC
  2
AcDbDimAssoc
  3
"AcDbDimAssoc|Product Desc:     AcDim ARX App For Dimension|Company:          Autodesk, Inc.|WEB Address:      www.autodesk.com"
 90
    32768
280
     0
281
     0
  0
ENDSEC
  0
SECTION
  2
TABLES
  0
TABLE
  2
VPORT
  5
1C
330
0
100
AcDbSymbolTable
 70
     2
  0
VPORT
  5
506
330
1C
100
AcDbSymbolTableRecord
100
AcDbViewportTableRecord
  2
*Active
 70
     0
 10
0.0
 20
0.0
 11
1.0
 21
1.0
 12
-5.299987065722174
 22
0.7386937567948735
 13
0.0
 23
0.0
 14
10.0
 24
10.0
 15
10.0
 25
10.0
 16
0.0
 26
0.0
 36
1.0
 17
0.0
 27
0.0
 37
0.0
 40
113.8884792235037
 41
1.506377551020408
 42
50.0
 43
0.0
 44
0.0
 50
0.0
 51
0.0
 71
     0
 72
  1000
 73
     1
 74
     2
 75
     0
 76
     0
 77
     0
 78
     0
281
     0
 65
     1
110
0.0
120
0.0
130
0.0
111
1.0
121
0.0
131
0.0
112
0.0
122
1.0
132
0.0
 79
     0
146
0.0
  0
ENDTAB
  0
TABLE
  2
LTYPE
  5
17
330
0
100
AcDbSymbolTable
 70
     1
  0
LTYPE
  5
18
330
17
100
AcDbSymbolTableRecord
100
AcDbLinetypeTableRecord
  2
ByBlock
 70
     0
  3

 72
    65
 73
     0
 40
0.0
  0
LTYPE
  5
19
330
17
100
AcDbSymbolTableRecord
100
AcDbLinetypeTableRecord
  2
ByLayer
 70
     0
  3

 72
    65
 73
     0
 40
0.0
  0
LTYPE
  5
8
330
17
100
AcDbSymbolTableRecord
100
AcDbLinetypeTableRecord
  2
Continuous
 70
     0
  3
Solid line
 72
    65
 73
     0
 40
0.0
  0
ENDTAB
  0
TABLE
  2
LAYER
  5
10
102
{ACAD_XDICTIONARY
360
11
102
}
330
0
100
AcDbSymbolTable
 70
     7
  0
LAYER
  5
4
330
10
100
AcDbSymbolTableRecord
100
AcDbLayerTableRecord
  2
0
 70
     0
 62
     7
  6
Continuous
370
    -3
390
5
  0
LAYER
  5
68
330
10
100
AcDbSymbolTableRecord
100
AcDbLayerTableRecord
  2
WAKU
 70
     0
 62
     4
  6
Continuous
370
    -3
390
5
  0
LAYER
  5
31
330
10
100
AcDbSymbolTableRecord
100
AcDbLayerTableRecord
  2
MOJI1
 70
     0
 62
     2
  6
Continuous
370
    -3
390
5
  0
LAYER
  5
33
330
10
100
AcDbSymbolTableRecord
100
AcDbLayerTableRecord
  2
TOUROKU
 70
     0
 62
     1
  6
Continuous
370
    -3
390
5
  0
LAYER
  5
2E
330
10
100
AcDbSymbolTableRecord
100
AcDbLayerTableRecord
  2
GAIKEI
 70
     0
 62
     7
  6
Continuous
370
    -3
390
5
  0
LAYER
  5
3F
330
10
100
AcDbSymbolTableRecord
100
AcDbLayerTableRecord
  2
SUNPO
 70
     0
 62
     3
  6
Continuous
370
    -3
390
5
  0
LAYER
  5
49
330
10
100
AcDbSymbolTableRecord
100
AcDbLayerTableRecord
  2
DEFPOINTS
 70
     0
 62
     7
  6
Continuous
290
     0
370
    -3
390
5
  0
ENDTAB
  0
TABLE
  2
STYLE
  5
14
330
0
100
AcDbSymbolTable
 70
     2
  0
STYLE
  5
15
330
14
100
AcDbSymbolTableRecord
100
AcDbTextStyleTableRecord
  2
Standard
 70
     0
 40
0.0
 41
1.0
 50
0.0
 71
     0
 42
2.5
  3
MONOTXT.shx
  4
BIGFONT.shx
  0
STYLE
  5
44B
330
14
100
AcDbSymbolTableRecord
100
AcDbTextStyleTableRecord
  2
SEACAD_SEANSI_TTF
 70
     0
 40
0.2
 41
1.0
 50
0.0
 71
     0
 42
0.2
  3
seansi.ttf
  4

  0
ENDTAB
  0
TABLE
  2
VIEW
  5
1A
330
0
100
AcDbSymbolTable
 70
     0
  0
ENDTAB
  0
TABLE
  2
UCS
  5
1B
330
0
100
AcDbSymbolTable
 70
     0
  0
ENDTAB
  0
TABLE
  2
APPID
  5
1E
330
0
100
AcDbSymbolTable
 70
     1
  0
APPID
  5
1F
330
1E
100
AcDbSymbolTableRecord
100
AcDbRegAppTableRecord
  2
ACAD
 70
     0
  0
ENDTAB
  0
TABLE
  2
DIMSTYLE
  5
20
330
0
100
AcDbSymbolTable
 70
     1
100
AcDbDimStyleTable
 71
     1
340
21
  0
DIMSTYLE
105
21
102
{ACAD_REACTORS
330
5A
330
4D
330
3E
102
}
330
20
100
AcDbSymbolTableRecord
100
AcDbDimStyleTableRecord
  2
STANDARD
 70
     0
 40
0.0
 41
2.0
 42
2.0
 43
8.0
 44
2.0
 73
     0
 74
     0
 77
     3
140
3.0
141
0.0
173
     1
279
     2
288
     1
340
15
341
22
343
22
344
22
  0
ENDTAB
  0
TABLE
  2
BLOCK_RECORD
  5
1
330
0
100
AcDbSymbolTable
 70
     7
  0
BLOCK_RECORD
  5
2
330
1
100
AcDbSymbolTableRecord
100
AcDbBlockTableRecord
  2
*Model_Space
340
A
  0
BLOCK_RECORD
  5
C
330
1
100
AcDbSymbolTableRecord
100
AcDbBlockTableRecord
  2
*Paper_Space
340
F
  0
BLOCK_RECORD
  5
22
330
1
100
AcDbSymbolTableRecord
100
AcDbBlockTableRecord
  2
_OPEN30
340
0
102
{BLKREFS
331
53
331
54
331
60
331
61
331
45
331
46
331
4E2
331
4E3
331
4EE
331
4EF
331
4FA
331
4FB
102
}
  0
BLOCK_RECORD
  5
5B
330
1
100
AcDbSymbolTableRecord
100
AcDbBlockTableRecord
  2
*D1
340
0
  0
BLOCK_RECORD
  5
4E
330
1
100
AcDbSymbolTableRecord
100
AcDbBlockTableRecord
  2
*D2
340
0
  0
BLOCK_RECORD
  5
40
330
1
100
AcDbSymbolTableRecord
100
AcDbBlockTableRecord
  2
*D3
340
0
  0
BLOCK_RECORD
  5
4DE
330
1
100
AcDbSymbolTableRecord
100
AcDbBlockTableRecord
  2
*D4
340
0
  0
BLOCK_RECORD
  5
4EA
330
1
100
AcDbSymbolTableRecord
100
AcDbBlockTableRecord
  2
*D5
340
0
  0
BLOCK_RECORD
  5
4F6
330
1
100
AcDbSymbolTableRecord
100
AcDbBlockTableRecord
  2
*D6
340
0
  0
ENDTAB
  0
ENDSEC
  0
SECTION
  2
BLOCKS
  0
BLOCK
  5
3
330
2
100
AcDbEntity
  8
0
100
AcDbBlockBegin
  2
*Model_Space
 70
     0
 10
0.0
 20
0.0
 30
0.0
  3
*Model_Space
  1

  0
ENDBLK
  5
9
330
2
100
AcDbEntity
  8
0
100
AcDbBlockEnd
  0
BLOCK
  5
D
330
C
100
AcDbEntity
 67
     1
  8
0
100
AcDbBlockBegin
  2
*Paper_Space
 70
     0
 10
0.0
 20
0.0
 30
0.0
  3
*Paper_Space
  1

  0
ENDBLK
  5
E
330
C
100
AcDbEntity
 67
     1
  8
0
100
AcDbBlockEnd
  0
BLOCK
  5
23
330
22
100
AcDbEntity
  8
0
100
AcDbBlockBegin
  2
_OPEN30
 70
     0
 10
0.0
 20
0.0
 30
0.0
  3
_OPEN30
  1

  0
LINE
  5
24
330
22
100
AcDbEntity
  8
0
  6
ByBlock
 62
     0
100
AcDbLine
 10
-1.0
 20
0.26794919
 30
0.0
 11
0.0
 21
0.0
 31
0.0
  0
LINE
  5
25
330
22
100
AcDbEntity
  8
0
  6
ByBlock
 62
     0
100
AcDbLine
 10
0.0
 20
0.0
 30
0.0
 11
-1.0
 21
-0.26794919
 31
0.0
  0
LINE
  5
26
330
22
100
AcDbEntity
  8
0
  6
ByBlock
 62
     0
100
AcDbLine
 10
0.0
 20
0.0
 30
0.0
 11
-1.0
 21
0.0
 31
0.0
  0
ENDBLK
  5
27
330
22
100
AcDbEntity
  8
0
100
AcDbBlockEnd
  0
BLOCK
  5
5C
330
5B
100
AcDbEntity
  8
0
100
AcDbBlockBegin
  2
*D1
 70
     1
 10
0.0
 20
0.0
 30
0.0
  3
*D1
  1

  0
LINE
  5
5D
330
5B
100
AcDbEntity
  8
SUNPO
 62
     0
370
    -2
100
AcDbLine
 10
19.29214950824681
 20
346.5905457242779
 30
0.0
 11
19.29214950824681
 21
354.5905457242779
 31
0.0
  0
LINE
  5
5E
330
5B
100
AcDbEntity
  8
SUNPO
 62
     0
370
    -2
100
AcDbLine
 10
61.28516960890681
 20
346.5905457242779
 30
0.0
 11
61.28516960890681
 21
354.5905457242779
 31
0.0
  0
LINE
  5
5F
330
5B
100
AcDbEntity
  8
SUNPO
 62
     0
370
    -2
100
AcDbLine
 10
21.29214950824681
 20
352.5905457242779
 30
0.0
 11
59.28516960890681
 21
352.5905457242779
 31
0.0
  0
INSERT
  5
60
330
5B
100
AcDbEntity
  8
SUNPO
 62
     0
370
    -2
100
AcDbBlockReference
  2
_OPEN30
 10
19.29214950824681
 20
352.5905457242779
 30
0.0
 41
2.0
 42
2.0
 43
2.0
 50
180.0
  0
INSERT
  5
61
330
5B
100
AcDbEntity
  8
SUNPO
 62
     0
370
    -2
100
AcDbBlockReference
  2
_OPEN30
 10
61.28516960890681
 20
352.5905457242779
 30
0.0
 41
2.0
 42
2.0
 43
2.0
  0
MTEXT
  5
62
330
5B
100
AcDbEntity
  8
SUNPO
 62
     0
100
AcDbMText
 10
40.28865955857681
 20
354.3405457242779
 30
0.0
 40
2.5
 41
0.0
 71
     5
 72
     1
  1
\A1;210
 73
     1
 44
1.0
1001
ACAD
1000
MTEXTBEGIN
1070
    73
1070
     1
1070
    44
1040
1.0
1070
    74
1070
     0
1000
MTEXTEND
  0
POINT
  5
63
330
5B
100
AcDbEntity
  8
DEFPOINTS
 62
     0
100
AcDbPoint
 10
19.29214950824681
 20
344.5905457242779
 30
0.0
  0
POINT
  5
64
330
5B
100
AcDbEntity
  8
DEFPOINTS
 62
     0
100
AcDbPoint
 10
61.28516960890681
 20
344.5905457242779
 30
0.0
  0
POINT
  5
65
330
5B
100
AcDbEntity
  8
DEFPOINTS
 62
     0
100
AcDbPoint
 10
61.28516960890681
 20
352.5905457242779
 30
0.0
  0
ENDBLK
  5
66
330
5B
100
AcDbEntity
  8
0
100
AcDbBlockEnd
  0
BLOCK
  5
4F
330
4E
100
AcDbEntity
  8
0
100
AcDbBlockBegin
  2
*D2
 70
     1
 10
0.0
 20
0.0
 30
0.0
  3
*D2
  1

  0
LINE
  5
50
330
4E
100
AcDbEntity
  8
SUNPO
 62
     0
370
    -2
100
AcDbLine
 10
63.37776764161356
 20
344.5905457242779
 30
0.0
 11
71.37776764161357
 21
344.5905457242779
 31
0.0
  0
LINE
  5
51
330
4E
100
AcDbEntity
  8
SUNPO
 62
     0
370
    -2
100
AcDbLine
 10
63.37776764161358
 20
309.2889896153379
 30
0.0
 11
71.37776764161357
 21
309.2889896153379
 31
0.0
  0
LINE
  5
52
330
4E
100
AcDbEntity
  8
SUNPO
 62
     0
370
    -2
100
AcDbLine
 10
69.37776764161357
 20
342.5905457242779
 30
0.0
 11
69.37776764161357
 21
311.2889896153379
 31
0.0
  0
INSERT
  5
53
330
4E
100
AcDbEntity
  8
SUNPO
 62
     0
370
    -2
100
AcDbBlockReference
  2
_OPEN30
 10
69.37776764161357
 20
344.5905457242779
 30
0.0
 41
2.0
 42
2.0
 43
2.0
 50
90.0
  0
INSERT
  5
54
330
4E
100
AcDbEntity
  8
SUNPO
 62
     0
370
    -2
100
AcDbBlockReference
  2
_OPEN30
 10
69.37776764161357
 20
309.2889896153379
 30
0.0
 41
2.0
 42
2.0
 43
2.0
 50
270.0
  0
MTEXT
  5
55
330
4E
100
AcDbEntity
  8
SUNPO
 62
     0
100
AcDbMText
 10
67.62776764161351
 20
326.9397676698079
 30
0.0
 40
2.5
 41
0.0
 71
     5
 72
     1
  1
\A1;177
 11
0.0000000000000001
 21
1.0
 31
0.0
 73
     1
 44
1.0
1001
ACAD
1000
MTEXTBEGIN
1070
    73
1070
     1
1070
    44
1040
1.0
1070
    74
1070
     0
1000
MTEXTEND
  0
POINT
  5
56
330
4E
100
AcDbEntity
  8
DEFPOINTS
 62
     0
100
AcDbPoint
 10
61.37776764161356
 20
344.5905457242779
 30
0.0
  0
POINT
  5
57
330
4E
100
AcDbEntity
  8
DEFPOINTS
 62
     0
100
AcDbPoint
 10
61.37776764161357
 20
309.2889896153379
 30
0.0
  0
POINT
  5
58
330
4E
100
AcDbEntity
  8
DEFPOINTS
 62
     0
100
AcDbPoint
 10
69.37776764161357
 20
309.2889896153379
 30
0.0
  0
ENDBLK
  5
59
330
4E
100
AcDbEntity
  8
0
100
AcDbBlockEnd
  0
BLOCK
  5
41
330
40
100
AcDbEntity
  8
0
100
AcDbBlockBegin
  2
*D3
 70
     1
 10
0.0
 20
0.0
 30
0.0
  3
*D3
  1

  0
LINE
  5
42
330
40
100
AcDbEntity
  8
SUNPO
 62
     0
370
    -2
100
AcDbLine
 10
84.68936214698356
 20
346.5905457242779
 30
0.0
 11
84.68936214698356
 21
354.590545724278
 31
0.0
  0
LINE
  5
43
330
40
100
AcDbEntity
  8
SUNPO
 62
     0
370
    -2
100
AcDbLine
 10
97.66494944666355
 20
346.590545724278
 30
0.0
 11
97.66494944666355
 21
354.590545724278
 31
0.0
  0
LINE
  5
44
330
40
100
AcDbEntity
  8
SUNPO
 62
     0
370
    -2
100
AcDbLine
 10
86.68936214698355
 20
352.590545724278
 30
0.0
 11
95.66494944666356
 21
352.590545724278
 31
0.0
  0
INSERT
  5
45
330
40
100
AcDbEntity
  8
SUNPO
 62
     0
370
    -2
100
AcDbBlockReference
  2
_OPEN30
 10
84.68936214698356
 20
352.590545724278
 30
0.0
 41
2.0
 42
2.0
 43
2.0
 50
180.0
  0
INSERT
  5
46
330
40
100
AcDbEntity
  8
SUNPO
 62
     0
370
    -2
100
AcDbBlockReference
  2
_OPEN30
 10
97.66494944666355
 20
352.590545724278
 30
0.0
 41
2.0
 42
2.0
 43
2.0
  0
MTEXT
  5
47
330
40
100
AcDbEntity
  8
SUNPO
 62
     0
100
AcDbMText
 10
91.17715579682355
 20
354.340545724278
 30
0.0
 40
2.5
 41
0.0
 71
     5
 72
     1
  1
\A1;65
 73
     1
 44
1.0
1001
ACAD
1000
MTEXTBEGIN
1070
    73
1070
     1
1070
    44
1040
1.0
1070
    74
1070
     0
1000
MTEXTEND
  0
POINT
  5
48
330
40
100
AcDbEntity
  8
DEFPOINTS
 62
     0
100
AcDbPoint
 10
84.68936214698356
 20
344.5905457242779
 30
0.0
  0
POINT
  5
4A
330
40
100
AcDbEntity
  8
DEFPOINTS
 62
     0
100
AcDbPoint
 10
97.66494944666355
 20
344.590545724278
 30
0.0
  0
POINT
  5
4B
330
40
100
AcDbEntity
  8
DEFPOINTS
 62
     0
100
AcDbPoint
 10
97.66494944666355
 20
352.590545724278
 30
0.0
  0
ENDBLK
  5
4C
330
40
100
AcDbEntity
  8
0
100
AcDbBlockEnd
  0
BLOCK
  5
4E8
330
4DE
100
AcDbEntity
  8
0
100
AcDbBlockBegin
  2
*D4
 70
     1
 10
0.0
 20
0.0
 30
0.0
  3
*D4
  1

  0
LINE
  5
4DF
330
4DE
100
AcDbEntity
  8
SUNPO
 62
     0
370
    -2
100
AcDbLine
 10
-51.01920048703513
 20
33.33318299135886
 30
0.0
 11
-51.01920048703513
 21
41.33318299135885
 31
0.0
  0
LINE
  5
4E0
330
4DE
100
AcDbEntity
  8
SUNPO
 62
     0
370
    -2
100
AcDbLine
 10
-9.026180386375131
 20
33.33318299135886
 30
0.0
 11
-9.026180386375131
 21
41.33318299135885
 31
0.0
  0
LINE
  5
4E1
330
4DE
100
AcDbEntity
  8
SUNPO
 62
     0
370
    -2
100
AcDbLine
 10
-49.01920048703513
 20
39.33318299135886
 30
0.0
 11
-11.02618038637513
 21
39.33318299135886
 31
0.0
  0
INSERT
  5
4E2
330
4DE
100
AcDbEntity
  8
SUNPO
 62
     0
370
    -2
100
AcDbBlockReference
  2
_OPEN30
 10
-51.01920048703513
 20
39.33318299135886
 30
0.0
 41
2.0
 42
2.0
 43
2.0
 50
180.0
  0
INSERT
  5
4E3
330
4DE
100
AcDbEntity
  8
SUNPO
 62
     0
370
    -2
100
AcDbBlockReference
  2
_OPEN30
 10
-9.026180386375131
 20
39.33318299135886
 30
0.0
 41
2.0
 42
2.0
 43
2.0
  0
MTEXT
  5
4E4
330
4DE
100
AcDbEntity
  8
SUNPO
 62
     0
100
AcDbMText
 10
-30.02269043670513
 20
41.08318299135885
 30
0.0
 40
2.5
 41
0.0
 71
     5
 72
     1
  1
\A1;210
 73
     1
 44
1.0
1001
ACAD
1000
MTEXTBEGIN
1070
    73
1070
     1
1070
    44
1040
1.0
1070
    74
1070
     0
1000
MTEXTEND
  0
POINT
  5
4E5
330
4DE
100
AcDbEntity
  8
DEFPOINTS
 62
     0
100
AcDbPoint
 10
-51.01920048703513
 20
31.33318299135885
 30
0.0
  0
POINT
  5
4E6
330
4DE
100
AcDbEntity
  8
DEFPOINTS
 62
     0
100
AcDbPoint
 10
-9.026180386375131
 20
31.33318299135885
 30
0.0
  0
POINT
  5
4E7
330
4DE
100
AcDbEntity
  8
DEFPOINTS
 62
     0
100
AcDbPoint
 10
-9.026180386375131
 20
39.33318299135886
 30
0.0
  0
ENDBLK
  5
4E9
330
4DE
100
AcDbEntity
  8
0
100
AcDbBlockEnd
  0
BLOCK
  5
4F4
330
4EA
100
AcDbEntity
  8
0
100
AcDbBlockBegin
  2
*D5
 70
     1
 10
0.0
 20
0.0
 30
0.0
  3
*D5
  1

  0
LINE
  5
4EB
330
4EA
100
AcDbEntity
  8
SUNPO
 62
     0
370
    -2
100
AcDbLine
 10
-6.933582353668384
 20
31.33318299135885
 30
0.0
 11
1.066417646331636
 21
31.33318299135885
 31
0.0
  0
LINE
  5
4EC
330
4EA
100
AcDbEntity
  8
SUNPO
 62
     0
370
    -2
100
AcDbLine
 10
-6.933582353668371
 20
-3.968373117581223
 30
0.0
 11
1.066417646331628
 21
-3.968373117581225
 31
0.0
  0
LINE
  5
4ED
330
4EA
100
AcDbEntity
  8
SUNPO
 62
     0
370
    -2
100
AcDbLine
 10
-0.933582353668363
 20
29.33318299135885
 30
0.0
 11
-0.9335823536683701
 21
-1.968373117581224
 31
0.0
  0
INSERT
  5
4EE
330
4EA
100
AcDbEntity
  8
SUNPO
 62
     0
370
    -2
100
AcDbBlockReference
  2
_OPEN30
 10
-0.9335823536683626
 20
31.33318299135885
 30
0.0
 41
2.0
 42
2.0
 43
2.0
 50
90.0
  0
INSERT
  5
4EF
330
4EA
100
AcDbEntity
  8
SUNPO
 62
     0
370
    -2
100
AcDbBlockReference
  2
_OPEN30
 10
-0.9335823536683705
 20
-3.968373117581224
 30
0.0
 41
2.0
 42
2.0
 43
2.0
 50
270.0
  0
MTEXT
  5
4F0
330
4EA
100
AcDbEntity
  8
SUNPO
 62
     0
100
AcDbMText
 10
-2.683582353668368
 20
13.68240493688881
 30
0.0
 40
2.5
 41
0.0
 71
     5
 72
     1
  1
\A1;177
 11
0.0000000000000001
 21
1.0
 31
0.0
 73
     1
 44
1.0
1001
ACAD
1000
MTEXTBEGIN
1070
    73
1070
     1
1070
    44
1040
1.0
1070
    74
1070
     0
1000
MTEXTEND
  0
POINT
  5
4F1
330
4EA
100
AcDbEntity
  8
DEFPOINTS
 62
     0
100
AcDbPoint
 10
-8.933582353668384
 20
31.33318299135885
 30
0.0
  0
POINT
  5
4F2
330
4EA
100
AcDbEntity
  8
DEFPOINTS
 62
     0
100
AcDbPoint
 10
-8.93358235366837
 20
-3.968373117581222
 30
0.0
  0
POINT
  5
4F3
330
4EA
100
AcDbEntity
  8
DEFPOINTS
 62
     0
100
AcDbPoint
 10
-0.9335823536683705
 20
-3.968373117581224
 30
0.0
  0
ENDBLK
  5
4F5
330
4EA
100
AcDbEntity
  8
0
100
AcDbBlockEnd
  0
BLOCK
  5
500
330
4F6
100
AcDbEntity
  8
0
100
AcDbBlockBegin
  2
*D6
 70
     1
 10
0.0
 20
0.0
 30
0.0
  3
*D6
  1

  0
LINE
  5
4F7
330
4F6
100
AcDbEntity
  8
SUNPO
 62
     0
370
    -2
100
AcDbLine
 10
14.37801215170161
 20
33.33318299135886
 30
0.0
 11
14.37801215170161
 21
41.33318299135891
 31
0.0
  0
LINE
  5
4F8
330
4F6
100
AcDbEntity
  8
SUNPO
 62
     0
370
    -2
100
AcDbLine
 10
27.35359945138161
 20
33.33318299135891
 30
0.0
 11
27.35359945138161
 21
41.33318299135891
 31
0.0
  0
LINE
  5
4F9
330
4F6
100
AcDbEntity
  8
SUNPO
 62
     0
370
    -2
100
AcDbLine
 10
16.37801215170161
 20
39.33318299135891
 30
0.0
 11
25.35359945138161
 21
39.33318299135891
 31
0.0
  0
INSERT
  5
4FA
330
4F6
100
AcDbEntity
  8
SUNPO
 62
     0
370
    -2
100
AcDbBlockReference
  2
_OPEN30
 10
14.37801215170161
 20
39.33318299135891
 30
0.0
 41
2.0
 42
2.0
 43
2.0
 50
180.0
  0
INSERT
  5
4FB
330
4F6
100
AcDbEntity
  8
SUNPO
 62
     0
370
    -2
100
AcDbBlockReference
  2
_OPEN30
 10
27.35359945138161
 20
39.33318299135891
 30
0.0
 41
2.0
 42
2.0
 43
2.0
  0
MTEXT
  5
4FC
330
4F6
100
AcDbEntity
  8
SUNPO
 62
     0
100
AcDbMText
 10
20.86580580154161
 20
41.0831829913589
 30
0.0
 40
2.5
 41
0.0
 71
     5
 72
     1
  1
\A1;65
 73
     1
 44
1.0
1001
ACAD
1000
MTEXTBEGIN
1070
    73
1070
     1
1070
    44
1040
1.0
1070
    74
1070
     0
1000
MTEXTEND
  0
POINT
  5
4FD
330
4F6
100
AcDbEntity
  8
DEFPOINTS
 62
     0
100
AcDbPoint
 10
14.37801215170161
 20
31.33318299135885
 30
0.0
  0
POINT
  5
4FE
330
4F6
100
AcDbEntity
  8
DEFPOINTS
 62
     0
100
AcDbPoint
 10
27.35359945138161
 20
31.33318299135891
 30
0.0
  0
POINT
  5
4FF
330
4F6
100
AcDbEntity
  8
DEFPOINTS
 62
     0
100
AcDbPoint
 10
27.35359945138161
 20
39.33318299135891
 30
0.0
  0
ENDBLK
  5
501
330
4F6
100
AcDbEntity
  8
0
100
AcDbBlockEnd
  0
ENDSEC
  0
SECTION
  2
ENTITIES
  0
TEXT
  5
30
330
2
100
AcDbEntity
  8
MOJI1
100
AcDbText
 10
-40.81135005124088
 20
53.24347239201529
 30
0.0
 40
4.0
  1
コンパクトライブスイッチャー
100
AcDbText
  0
TEXT
  5
32
330
2
100
AcDbEntity
  8
TOUROKU
100
AcDbText
 10
43.72193331501974
 20
47.24347239201529
 30
0.0
 40
2.0
  1
ＡＷＨＳ５０
 72
     2
 11
57.18859998168641
 21
47.24347239201529
 31
0.0
100
AcDbText
  0
TEXT
  5
34
330
2
100
AcDbEntity
  8
MOJI1
100
AcDbText
 10
-25.31135005124088
 20
-39.75652760798471
 30
0.0
 40
3.0
  1
２ｃｈ×アップコンバータ、４ｃｈ×ビデオプロセス機能
 41
0.85
100
AcDbText
  0
TEXT
  5
35
330
2
100
AcDbEntity
  8
MOJI1
100
AcDbText
 10
-65.31135005124088
 20
-54.75652760798471
 30
0.0
 40
3.0
  1
特殊効果     
100
AcDbText
  0
TEXT
  5
36
330
2
100
AcDbEntity
  8
MOJI1
100
AcDbText
 10
-25.31135005124088
 20
-54.75652760798471
 30
0.0
 40
3.0
  1
ワイプ、ＰｉｎＰ、Ｋｅｙ（ルミナンス、リニア、クロマキー）  
 41
0.8
100
AcDbText
  0
TEXT
  5
37
330
2
100
AcDbEntity
  8
MOJI1
100
AcDbText
 10
-25.31135005124088
 20
-49.75652760798471
 30
0.0
 40
3.0
  1
ＡＵＸバス×１系統、マルチビューワ×１系統
100
AcDbText
  0
TEXT
  5
38
330
2
100
AcDbEntity
  8
MOJI1
100
AcDbText
 10
-65.31135005124088
 20
-49.75652760798471
 30
0.0
 40
3.0
  1
その他
100
AcDbText
  0
TEXT
  5
39
330
2
100
AcDbEntity
  8
MOJI1
100
AcDbText
 10
-65.31135005124088
 20
-39.75652760798471
 30
0.0
 40
3.0
  1
入力機能
100
AcDbText
  0
TEXT
  5
3A
330
2
100
AcDbEntity
  8
MOJI1
100
AcDbText
 10
-25.31135005124088
 20
-44.7565276079847
 30
0.0
 40
3.0
  1
３ｃｈ×ＨＤ／ＳＤ－ＳＤＩ、１ｃｈ×ＤＶＩ－Ｄ
100
AcDbText
  0
TEXT
  5
3B
330
2
100
AcDbEntity
  8
MOJI1
100
AcDbText
 10
-65.31135005124088
 20
-44.7565276079847
 30
0.0
 40
3.0
  1
出力数
100
AcDbText
  0
TEXT
  5
3C
330
2
100
AcDbEntity
  8
MOJI1
100
AcDbText
 10
-65.31135005124088
 20
-34.75652760798471
 30
0.0
 40
3.0
  1
入力数
100
AcDbText
  0
TEXT
  5
3D
330
2
100
AcDbEntity
  8
MOJI1
100
AcDbText
 10
-25.31135005124088
 20
-34.75652760798471
 30
0.0
 40
3.0
  1
４ｃｈ×ＨＤ／ＳＤ－ＳＤＩ、１ｃｈ×ＤＶＩ－Ｄ（全ｃｈ ＦＳ付）  
 41
0.72
100
AcDbText
  0
DIMENSION
  5
3E
330
2
100
AcDbEntity
  8
SUNPO
100
AcDbDimension
  2
*D6
 10
27.35359945138161
 20
39.33318299135891
 30
0.0
 11
20.86580580154161
 21
41.0831829913589
 31
0.0
 70
    33
  1
65
 71
     5
 42
12.97558729968
  3
STANDARD
100
AcDbAlignedDimension
 13
14.37801215170161
 23
31.33318299135885
 33
0.0
 14
27.35359945138161
 24
31.33318299135891
 34
0.0
1001
ACAD
1000
DSTYLE
1002
{
1070
    40
1040
1.0
1070
   140
1040
2.5
1070
   147
1040
0.5
1070
   172
1070
     1
1070
   279
1070
     0
1070
   288
1070
     0
1002
}
  0
DIMENSION
  5
4D
330
2
100
AcDbEntity
  8
SUNPO
100
AcDbDimension
  2
*D5
 10
-0.9335823536683705
 20
-3.968373117581224
 30
0.0
 11
-2.683582353668368
 21
13.68240493688881
 31
0.0
 70
    33
  1
177
 71
     5
 42
35.30155610894008
  3
STANDARD
100
AcDbAlignedDimension
 13
-8.933582353668384
 23
31.33318299135885
 33
0.0
 14
-8.93358235366837
 24
-3.968373117581222
 34
0.0
1001
ACAD
1000
DSTYLE
1002
{
1070
    40
1040
1.0
1070
   140
1040
2.5
1070
   147
1040
0.5
1070
   172
1070
     1
1070
   279
1070
     0
1070
   288
1070
     0
1002
}
  0
DIMENSION
  5
5A
330
2
100
AcDbEntity
  8
SUNPO
100
AcDbDimension
  2
*D4
 10
-9.026180386375131
 20
39.33318299135886
 30
0.0
 11
-30.02269043670513
 21
41.08318299135885
 31
0.0
 70
    33
  1
210
 71
     5
 42
41.99302010066
  3
STANDARD
100
AcDbAlignedDimension
 13
-51.01920048703513
 23
31.33318299135885
 33
0.0
 14
-9.026180386375131
 24
31.33318299135885
 34
0.0
1001
ACAD
1000
DSTYLE
1002
{
1070
    40
1040
1.0
1070
   140
1040
2.5
1070
   147
1040
0.5
1070
   172
1070
     1
1070
   279
1070
     0
1070
   288
1070
     0
1002
}
  0
LINE
  5
67
330
2
100
AcDbEntity
  8
WAKU
 62
     4
100
AcDbLine
 10
57.18864994875912
 20
-55.75652760798471
 30
0.0
 11
57.18864994875912
 21
-20.75652760798471
 31
0.0
  0
LINE
  5
69
330
2
100
AcDbEntity
  8
WAKU
 62
     4
100
AcDbLine
 10
-27.81135005124088
 20
-55.75652760798471
 30
0.0
 11
-27.81135005124088
 21
-20.75652760798471
 31
0.0
  0
TEXT
  5
6A
330
2
100
AcDbEntity
  8
MOJI1
100
AcDbText
 10
-25.31135005124088
 20
-29.75652760798471
 30
0.0
 40
3.0
  1
１０８０／５９．９４ｉ、７２０／５９．９４ｐ、４８０／５９．９４ｉ        
 41
0.7
100
AcDbText
  0
TEXT
  5
6B
330
2
100
AcDbEntity
  8
MOJI1
100
AcDbText
 10
-25.31135005124088
 20
-24.75652760798471
 30
0.0
 40
3.0
  1
ＤＣ１２Ｖ（ＡＣアダプタ添付）    
100
AcDbText
  0
TEXT
  5
6C
330
2
100
AcDbEntity
  8
MOJI1
100
AcDbText
 10
-65.31135005124088
 20
-24.75652760798471
 30
0.0
 40
3.0
  1
電　源
100
AcDbText
  0
LINE
  5
6D
330
2
100
AcDbEntity
  8
WAKU
 62
     4
100
AcDbLine
 10
-67.81135005124088
 20
-20.75652760798471
 30
0.0
 11
-67.81135005124088
 21
-55.75652760798471
 31
0.0
  0
TEXT
  5
6E
330
2
100
AcDbEntity
  8
MOJI1
100
AcDbText
 10
-65.31135005124088
 20
-29.75652760798471
 30
0.0
 40
3.0
  1
映像フォーマット
100
AcDbText
  0
LINE
  5
6F
330
2
100
AcDbEntity
  8
WAKU
 62
     4
100
AcDbLine
 10
-67.81135005124088
 20
-55.75652760798471
 30
0.0
 11
57.18864994875912
 21
-55.75652760798471
 31
0.0
  0
LINE
  5
70
330
2
100
AcDbEntity
  8
WAKU
 62
     1
100
AcDbLine
 10
-67.81135005124088
 20
-50.75652760798471
 30
0.0
 11
57.18864994875912
 21
-50.75652760798471
 31
0.0
  0
LINE
  5
71
330
2
100
AcDbEntity
  8
WAKU
 62
     1
100
AcDbLine
 10
-67.81135005124088
 20
-45.75652760798471
 30
0.0
 11
57.18864994875912
 21
-45.75652760798471
 31
0.0
  0
LINE
  5
72
330
2
100
AcDbEntity
  8
WAKU
 62
     1
100
AcDbLine
 10
-67.81135005124088
 20
-40.75652760798471
 30
0.0
 11
57.18864994875912
 21
-40.75652760798471
 31
0.0
  0
LINE
  5
73
330
2
100
AcDbEntity
  8
WAKU
 62
     4
100
AcDbLine
 10
57.18864994875912
 20
-20.75652760798471
 30
0.0
 11
-67.81135005124088
 21
-20.75652760798471
 31
0.0
  0
LINE
  5
74
330
2
100
AcDbEntity
  8
WAKU
 62
     1
100
AcDbLine
 10
-67.81135005124088
 20
-35.75652760798471
 30
0.0
 11
57.18864994875912
 21
-35.75652760798471
 31
0.0
  0
LINE
  5
75
330
2
100
AcDbEntity
  8
WAKU
 62
     1
100
AcDbLine
 10
-67.81135005124088
 20
-30.75652760798471
 30
0.0
 11
57.18864994875912
 21
-30.75652760798471
 31
0.0
  0
LINE
  5
76
330
2
100
AcDbEntity
  8
WAKU
 62
     1
100
AcDbLine
 10
-67.81135005124088
 20
-25.75652760798471
 30
0.0
 11
57.18864994875912
 21
-25.75652760798471
 31
0.0
  0
LINE
  5
77
330
2
100
AcDbEntity
  8
GAIKEI
  6
Continuous
 62
     1
100
AcDbLine
 10
13.89801215171604
 20
13.53568952175885
 30
0.0
 11
13.89801215171604
 21
10.33568952175881
 31
0.0
  0
LINE
  5
78
330
2
100
AcDbEntity
  8
GAIKEI
  6
Continuous
 62
     1
100
AcDbLine
 10
-22.62230845295517
 20
6.475923983498773
 30
0.0
 11
-22.62230845295517
 21
11.22592398349877
 31
0.0
  0
LINE
  5
79
330
2
100
AcDbEntity
  8
GAIKEI
  6
Continuous
 62
     1
100
AcDbLine
 10
-22.42885580353505
 20
7.168714534298828
 30
0.0
 11
-22.42885580353505
 21
7.038386710078839
 31
0.0
  0
LWPOLYLINE
  5
7A
330
2
100
AcDbEntity
  8
GAIKEI
  6
Continuous
 62
     1
100
AcDbPolyline
 90
        9
 70
     0
 43
0.0
 10
-22.42885580353505
 20
7.168714534298828
 10
-22.44937425783519
 20
7.533814728258903
 10
-22.46517036249497
 20
7.944391294838851
 10
-22.4751492728351
 20
8.388668134598901
 10
-22.47856412117517
 20
8.850923983498887
 10
-22.4751492728351
 20
9.313179832398873
 10
-22.46517036249497
 20
9.757456672158809
 10
-22.44937425783519
 20
10.16803323873887
 10
-22.42885580353505
 20
10.53313343267882
  0
LWPOLYLINE
  5
7B
330
2
100
AcDbEntity
  8
GAIKEI
  6
Continuous
 62
     1
100
AcDbPolyline
 90
        5
 70
     0
 43
0.0
 10
-22.52183243983564
 20
11.33956845525745
 10
-22.4955883513951
 20
11.21380473403883
 10
-22.47160331273517
 20
11.05995536513887
 10
-22.44922461071519
 20
10.8752598374989
 10
-22.42885580353505
 20
10.66346125691882
  0
LWPOLYLINE
  5
7C
330
2
100
AcDbEntity
  8
GAIKEI
  6
Continuous
 62
     1
100
AcDbPolyline
 90
        5
 70
     0
 43
0.0
 10
-22.42885580353505
 20
7.038386710078839
 10
-22.44922461071519
 20
6.826588129478864
 10
-22.47160331273517
 20
6.64189260183889
 10
-22.4955883513951
 20
6.488043232938821
 10
-22.52183243983131
 20
6.362279511740212
  0
LINE
  5
7D
330
2
100
AcDbEntity
  8
GAIKEI
  6
Continuous
 62
     1
100
AcDbLine
 10
-22.42885580353505
 20
10.66346125691882
 30
0.0
 11
-22.42885580353505
 21
10.53313343267882
 31
0.0
  0
ARC
  5
7E
330
2
100
AcDbEntity
  8
GAIKEI
  6
Continuous
 62
     1
100
AcDbCircle
 10
-22.52071607723519
 20
6.462273280218823
 30
0.0
 40
0.1000000000000001
100
AcDbArc
 50
186.6535706311996
 51
270.0
  0
ARC
  5
7F
330
2
100
AcDbEntity
  8
GAIKEI
  6
Continuous
 62
     1
100
AcDbCircle
 10
-22.52230845295503
 20
11.22592398349877
 30
0.0
 40
0.1000000000000001
100
AcDbArc
 50
173.3464293688004
 51
180.0
  0
LINE
  5
80
330
2
100
AcDbEntity
  8
GAIKEI
  6
Continuous
 62
     1
100
AcDbLine
 10
-22.62004256393516
 20
6.450686691438818
 30
0.0
 11
-22.621634939655
 21
6.464337394718768
 31
0.0
  0
ARC
  5
81
330
2
100
AcDbEntity
  8
GAIKEI
  6
Continuous
 62
     1
100
AcDbCircle
 10
-22.52230845295503
 20
6.475923983498773
 30
0.0
 40
0.0999999999999997
100
AcDbArc
 50
180.0
 51
186.6535706311996
  0
ARC
  5
82
330
2
100
AcDbEntity
  8
GAIKEI
  6
Continuous
 62
     1
100
AcDbCircle
 10
-22.52071607723519
 20
11.23957468677883
 30
0.0
 40
0.0999999999999998
100
AcDbArc
 50
90.0
 51
173.3464293688004
  0
LINE
  5
83
330
2
100
AcDbEntity
  8
GAIKEI
  6
Continuous
 62
     1
100
AcDbLine
 10
-22.621634939655
 20
11.23751057225877
 30
0.0
 11
-22.62004256393516
 21
11.25116127553883
 31
0.0
  0
LINE
  5
84
330
2
100
AcDbEntity
  8
GAIKEI
  6
Continuous
 62
     1
100
AcDbLine
 10
-30.42269041059512
 20
6.978136932738834
 30
0.0
 11
-30.42269043671513
 21
6.977563225898848
 31
0.0
  0
LINE
  5
85
330
2
100
AcDbEntity
  8
GAIKEI
  6
Continuous
 62
     1
100
AcDbLine
 10
-30.42269041059512
 20
6.978136932738834
 30
0.0
 11
-30.4226903675351
 21
6.978322919358788
 31
0.0
  0
LINE
  5
86
330
2
100
AcDbEntity
  8
GAIKEI
  6
Continuous
 62
     1
100
AcDbLine
 10
-30.42300830223508
 20
3.487012314438857
 30
0.0
 11
-30.42269043671513
 21
6.977563225898848
 31
0.0
  0
LINE
  5
87
330
2
100
AcDbEntity
  8
GAIKEI
  6
Continuous
 62
     1
100
AcDbLine
 10
-30.4226903675351
 20
6.978322919358788
 30
0.0
 11
-30.42267318461518
 21
7.167012283418785
 31
0.0
  0
LINE
  5
88
330
2
100
AcDbEntity
  8
GAIKEI
  6
Continuous
 62
     1
100
AcDbLine
 10
-30.82269041059522
 20
6.978136932738834
 30
0.0
 11
-30.82269043671522
 21
6.97756322585883
 31
0.0
  0
LINE
  5
89
330
2
100
AcDbEntity
  8
GAIKEI
  6
Continuous
 62
     1
100
AcDbLine
 10
-30.76301376305514
 20
3.427043276638869
 30
0.0
 11
-30.48301376587506
 21
3.42701777855882
 31
0.0
  0
LINE
  5
8A
330
2
100
AcDbEntity
  8
GAIKEI
  6
Continuous
 62
     1
100
AcDbLine
 10
-30.4826677204951
 20
7.227017747058766
 30
0.0
 11
-30.76266771767519
 21
7.227043245138816
 31
0.0
  0
LINE
  5
8B
330
2
100
AcDbEntity
  8
GAIKEI
  6
Continuous
 62
     1
100
AcDbLine
 10
-30.82269043671522
 20
6.97756322585883
 30
0.0
 11
-30.82299201545516
 21
3.665861003978761
 31
0.0
  0
LINE
  5
8C
330
2
100
AcDbEntity
  8
GAIKEI
  6
Continuous
 62
     1
100
AcDbLine
 10
-30.82267318129516
 20
7.167048709258779
 30
0.0
 11
-30.82269041059522
 21
6.978136932738834
 31
0.0
  0
LINE
  5
8D
330
2
100
AcDbEntity
  8
GAIKEI
  6
Continuous
 62
     1
100
AcDbLine
 10
-30.82299201545516
 20
3.665861003978761
 30
0.0
 11
-30.82300829891506
 21
3.487048740278851
 31
0.0
  0
ARC
  5
8E
330
2
100
AcDbEntity
  8
GAIKEI
  6
Continuous
 62
     1
100
AcDbCircle
 10
-30.48267318435524
 20
7.167017747298814
 30
0.0
 40
0.06
100
AcDbArc
 50
359.9947823841999
 51
89.99478238419991
  0
ARC
  5
8F
330
2
100
AcDbEntity
  8
GAIKEI
  6
Continuous
 62
     1
100
AcDbCircle
 10
-30.48300830199514
 20
3.487017778318772
 30
0.0
 40
0.0599999999999992
100
AcDbArc
 50
269.9947823841999
 51
359.9947823841999
  0
ARC
  5
90
330
2
100
AcDbEntity
  8
GAIKEI
  6
Continuous
 62
     1
100
AcDbCircle
 10
-30.76267318153509
 20
7.167043245378863
 30
0.0
 40
0.0599999999999988
100
AcDbArc
 50
89.99478238419991
 51
179.9947823841999
  0
ARC
  5
91
330
2
100
AcDbEntity
  8
GAIKEI
  6
Continuous
 62
     1
100
AcDbCircle
 10
-30.76300829917523
 20
3.487043276398821
 30
0.0
 40
0.0600000000000001
100
AcDbArc
 50
179.9947823841999
 51
269.9947823841999
  0
LINE
  5
92
330
2
100
AcDbEntity
  8
GAIKEI
  6
Continuous
 62
     1
100
AcDbLine
 10
-34.62269041929517
 20
6.978136932738834
 30
0.0
 11
-34.62269038761519
 21
6.97829361435879
 31
0.0
  0
LINE
  5
93
330
2
100
AcDbEntity
  8
GAIKEI
  6
Continuous
 62
     1
100
AcDbLine
 10
-34.62300828483512
 20
3.487394785658807
 30
0.0
 11
-34.62269043671517
 21
6.977754461458857
 31
0.0
  0
LINE
  5
94
330
2
100
AcDbEntity
  8
GAIKEI
  6
Continuous
 62
     1
100
AcDbLine
 10
-35.02269043671504
 20
6.977754461498761
 30
0.0
 11
-35.02299203291523
 21
3.665860649098817
 31
0.0
  0
LINE
  5
95
330
2
100
AcDbEntity
  8
GAIKEI
  6
Continuous
 62
     1
100
AcDbLine
 10
-35.02269041929503
 20
6.978136932738834
 30
0.0
 11
-35.02269043671504
 21
6.977754461498761
 31
0.0
  0
LINE
  5
96
330
2
100
AcDbEntity
  8
GAIKEI
  6
Continuous
 62
     1
100
AcDbLine
 10
-34.68266770307514
 20
7.227400218258821
 30
0.0
 11
-34.96266770025523
 21
7.227425716338757
 31
0.0
  0
LINE
  5
97
330
2
100
AcDbEntity
  8
GAIKEI
  6
Continuous
 62
     1
100
AcDbLine
 10
-34.62269038761519
 20
6.97829361435879
 30
0.0
 11
-34.62267316719522
 21
7.167394754638849
 31
0.0
  0
LINE
  5
98
330
2
100
AcDbEntity
  8
GAIKEI
  6
Continuous
 62
     1
100
AcDbLine
 10
-35.0226731638752
 20
7.167431180458834
 30
0.0
 11
-35.02269041929503
 21
6.978136932738834
 31
0.0
  0
LINE
  5
99
330
2
100
AcDbEntity
  8
GAIKEI
  6
Continuous
 62
     1
100
AcDbLine
 10
-35.02299203291523
 20
3.665860649098817
 30
0.0
 11
-35.0230082815151
 21
3.487431211478792
 31
0.0
  0
LINE
  5
9A
330
2
100
AcDbEntity
  8
GAIKEI
  6
Continuous
 62
     1
100
AcDbLine
 10
-34.96301374563518
 20
3.427425747858819
 30
0.0
 11
-34.6830137484551
 21
3.42740024977877
 31
0.0
  0
ARC
  5
9B
330
2
100
AcDbEntity
  8
GAIKEI
  6
Continuous
 62
     1
100
AcDbCircle
 10
-34.68300828457518
 20
3.487400249518827
 30
0.0
 40
0.0599999999999994
100
AcDbArc
 50
269.9947823841999
 51
359.9947823841999
  0
ARC
  5
9C
330
2
100
AcDbEntity
  8
GAIKEI
  6
Continuous
 62
     1
100
AcDbCircle
 10
-34.68267316695506
 20
7.167400218518764
 30
0.0
 40
0.06
100
AcDbArc
 50
359.9947823841999
 51
89.99478238419991
  0
ARC
  5
9D
330
2
100
AcDbEntity
  8
GAIKEI
  6
Continuous
 62
     1
100
AcDbCircle
 10
-34.96267316413514
 20
7.167425716598813
 30
0.0
 40
0.0599999999999987
100
AcDbArc
 50
89.99478238419991
 51
179.9947823841999
  0
ARC
  5
9E
330
2
100
AcDbEntity
  8
GAIKEI
  6
Continuous
 62
     1
100
AcDbCircle
 10
-34.96300828175504
 20
3.487425747598763
 30
0.0
 40
0.0600000000000001
100
AcDbArc
 50
179.9947823841999
 51
269.9947823841999
  0
LINE
  5
9F
330
2
100
AcDbEntity
  8
GAIKEI
  6
Continuous
 62
     1
100
AcDbLine
 10
-39.22269043671509
 20
6.978136932738834
 30
0.0
 11
-39.22269043671509
 21
6.977945697138807
 31
0.0
  0
LINE
  5
A0
330
2
100
AcDbEntity
  8
GAIKEI
  6
Continuous
 62
     1
100
AcDbLine
 10
-38.8226904279951
 20
6.978136932738834
 30
0.0
 11
-38.82269040875519
 21
6.97825473377884
 31
0.0
  0
LINE
  5
A1
330
2
100
AcDbEntity
  8
GAIKEI
  6
Continuous
 62
     1
100
AcDbLine
 10
-38.82300826741516
 20
3.487777256858862
 30
0.0
 11
-38.82269043671511
 21
6.977945697118798
 31
0.0
  0
LINE
  5
A2
330
2
100
AcDbEntity
  8
GAIKEI
  6
Continuous
 62
     1
100
AcDbLine
 10
-39.16301372821511
 20
3.427808219058761
 30
0.0
 11
-38.88301373103514
 21
3.427782720978825
 31
0.0
  0
LINE
  5
A3
330
2
100
AcDbEntity
  8
GAIKEI
  6
Continuous
 62
     1
100
AcDbLine
 10
-39.22269043671509
 20
6.977945697138807
 30
0.0
 11
-39.22299205035518
 21
3.665860294238768
 31
0.0
  0
LINE
  5
A4
330
2
100
AcDbEntity
  8
GAIKEI
  6
Continuous
 62
     1
100
AcDbLine
 10
-39.22267314645512
 20
7.167813651678784
 30
0.0
 11
-39.22269043671509
 21
6.978136932738834
 31
0.0
  0
LINE
  5
A5
330
2
100
AcDbEntity
  8
GAIKEI
  6
Continuous
 62
     1
100
AcDbLine
 10
-39.22299205035518
 20
3.665860294238768
 30
0.0
 11
-39.22300826409514
 21
3.487813682698856
 31
0.0
  0
LINE
  5
A6
330
2
100
AcDbEntity
  8
GAIKEI
  6
Continuous
 62
     1
100
AcDbLine
 10
-38.82269040857512
 20
6.978254733758831
 30
0.0
 11
-38.82267314977514
 21
7.16777722583879
 31
0.0
  0
LINE
  5
A7
330
2
100
AcDbEntity
  8
GAIKEI
  6
Continuous
 62
     1
100
AcDbLine
 10
-38.88266768565518
 20
7.227782689478772
 30
0.0
 11
-39.16266768283515
 21
7.227808187558821
 31
0.0
  0
ARC
  5
A8
330
2
100
AcDbEntity
  8
GAIKEI
  6
Continuous
 62
     1
100
AcDbCircle
 10
-38.88300826715511
 20
3.487782720738778
 30
0.0
 40
0.0599999999999987
100
AcDbArc
 50
269.9947823841999
 51
359.9947823841999
  0
ARC
  5
A9
330
2
100
AcDbEntity
  8
GAIKEI
  6
Continuous
 62
     1
100
AcDbCircle
 10
-39.16267314671518
 20
7.167808187798755
 30
0.0
 40
0.0568555332430175
100
AcDbArc
 50
89.99478238419991
 51
179.9947823841999
  0
ARC
  5
AA
330
2
100
AcDbEntity
  8
GAIKEI
  6
Continuous
 62
     1
100
AcDbCircle
 10
-39.16267314671518
 20
7.167808187798755
 30
0.0
 40
0.0599999999999987
100
AcDbArc
 50
89.99478238419991
 51
179.9947823841999
  0
ARC
  5
AB
330
2
100
AcDbEntity
  8
GAIKEI
  6
Continuous
 62
     1
100
AcDbCircle
 10
-38.88267314953509
 20
7.167782689718819
 30
0.0
 40
0.06
100
AcDbArc
 50
359.9947823841999
 51
89.99478238419991
  0
ARC
  5
AC
330
2
100
AcDbEntity
  8
GAIKEI
  6
Continuous
 62
     1
100
AcDbCircle
 10
-39.16300826433519
 20
3.487808218818827
 30
0.0
 40
0.0600000000000001
100
AcDbArc
 50
179.9947823841999
 51
269.9947823841999
  0
LINE
  5
AD
330
2
100
AcDbEntity
  8
GAIKEI
  6
Continuous
 62
     1
100
AcDbLine
 10
-43.02300824999508
 20
3.488159728078812
 30
0.0
 11
-43.02269043669514
 21
6.978137003398842
 31
0.0
  0
LINE
  5
AE
330
2
100
AcDbEntity
  8
GAIKEI
  6
Continuous
 62
     1
100
AcDbLine
 10
-43.42269043671513
 20
6.978136932718825
 30
0.0
 11
-43.42299206779512
 21
3.665859939378833
 31
0.0
  0
LINE
  5
AF
330
2
100
AcDbEntity
  8
GAIKEI
  6
Continuous
 62
     1
100
AcDbLine
 10
-43.42299206779512
 20
3.665859939378833
 30
0.0
 11
-43.42300824667518
 21
3.488196153898798
 31
0.0
  0
LINE
  5
B0
330
2
100
AcDbEntity
  8
GAIKEI
  6
Continuous
 62
     1
100
AcDbLine
 10
-43.02269043377509
 20
6.978169156718763
 30
0.0
 11
-43.02267313237519
 21
7.168159697058854
 31
0.0
  0
LINE
  5
B1
330
2
100
AcDbEntity
  8
GAIKEI
  6
Continuous
 62
     1
100
AcDbLine
 10
-43.42267312905517
 20
7.168196122898848
 30
0.0
 11
-43.42269043671513
 21
6.978136932718825
 31
0.0
  0
LINE
  5
B2
330
2
100
AcDbEntity
  8
GAIKEI
  6
Continuous
 62
     1
100
AcDbLine
 10
-43.0826676682351
 20
7.228165160678827
 30
0.0
 11
-43.36266766541519
 21
7.228190658758762
 31
0.0
  0
LINE
  5
B3
330
2
100
AcDbEntity
  8
GAIKEI
  6
Continuous
 62
     1
100
AcDbLine
 10
-43.36301371079514
 20
3.428190690278825
 30
0.0
 11
-43.08301371361517
 21
3.428165192198775
 31
0.0
  0
ARC
  5
B4
330
2
100
AcDbEntity
  8
GAIKEI
  6
Continuous
 62
     1
100
AcDbCircle
 10
-43.08267313211513
 20
7.168165160938769
 30
0.0
 40
0.06
100
AcDbArc
 50
359.9947823841999
 51
89.99478238419991
  0
ARC
  5
B5
330
2
100
AcDbEntity
  8
GAIKEI
  6
Continuous
 62
     1
100
AcDbCircle
 10
-43.08300824975515
 20
3.488165191938833
 30
0.0
 40
0.0600000000000001
100
AcDbArc
 50
269.9947823841999
 51
359.9947823841999
  0
ARC
  5
B6
330
2
100
AcDbEntity
  8
GAIKEI
  6
Continuous
 62
     1
100
AcDbCircle
 10
-43.3626731292951
 20
7.168190659018819
 30
0.0
 40
0.0600000000000001
100
AcDbArc
 50
89.99478238419991
 51
179.9947823841999
  0
ARC
  5
B7
330
2
100
AcDbEntity
  8
GAIKEI
  6
Continuous
 62
     1
100
AcDbCircle
 10
-43.36300824693512
 20
3.488190690038777
 30
0.0
 40
0.0600000000000001
100
AcDbArc
 50
179.9947823841999
 51
269.9947823841999
  0
LINE
  5
B8
330
2
100
AcDbEntity
  8
GAIKEI
  6
Continuous
 62
     1
100
AcDbLine
 10
-30.42269043671513
 20
6.977563225898848
 30
0.0
 11
-30.42269043671513
 21
3.678136932738766
 31
0.0
  0
LINE
  5
B9
330
2
100
AcDbEntity
  8
GAIKEI
  6
Continuous
 62
     1
100
AcDbLine
 10
-34.62269043671517
 20
6.977754461458857
 30
0.0
 11
-34.62269043671517
 21
3.678136932738766
 31
0.0
  0
LINE
  5
BA
330
2
100
AcDbEntity
  8
GAIKEI
  6
Continuous
 62
     1
100
AcDbLine
 10
-34.62269041929517
 20
6.978136932738834
 30
0.0
 11
-34.62269043671517
 21
6.977754461458857
 31
0.0
  0
LINE
  5
BB
330
2
100
AcDbEntity
  8
GAIKEI
  6
Continuous
 62
     1
100
AcDbLine
 10
-38.82269043671511
 20
6.977945697118798
 30
0.0
 11
-38.82269043671511
 21
3.678136932738766
 31
0.0
  0
LINE
  5
BC
330
2
100
AcDbEntity
  8
GAIKEI
  6
Continuous
 62
     1
100
AcDbLine
 10
-38.8226904279951
 20
6.978136932738834
 30
0.0
 11
-38.82269043671511
 21
6.977945697118798
 31
0.0
  0
LINE
  5
BD
330
2
100
AcDbEntity
  8
GAIKEI
  6
Continuous
 62
     1
100
AcDbLine
 10
-43.02269043669514
 20
6.978137003398842
 30
0.0
 11
-43.02269043671515
 21
3.678136932738766
 31
0.0
  0
CIRCLE
  5
BE
330
2
100
AcDbEntity
  8
GAIKEI
  6
Continuous
 62
     1
100
AcDbCircle
 10
-32.71513784769513
 20
5.335689521758808
 30
0.0
 40
1.600000000000004
  0
CIRCLE
  5
BF
330
2
100
AcDbEntity
  8
GAIKEI
  6
Continuous
 62
     1
100
AcDbCircle
 10
-36.91513784769518
 20
5.335689521758808
 30
0.0
 40
1.600000000000004
  0
CIRCLE
  5
C0
330
2
100
AcDbEntity
  8
GAIKEI
  6
Continuous
 62
     1
100
AcDbCircle
 10
-41.11513784769511
 20
5.335689521758808
 30
0.0
 40
1.600000000000003
  0
CIRCLE
  5
C1
330
2
100
AcDbEntity
  8
GAIKEI
  6
Continuous
 62
     1
100
AcDbCircle
 10
-45.31513784769515
 20
5.335689521758808
 30
0.0
 40
1.600000000000002
  0
ARC
  5
C2
330
2
100
AcDbEntity
  8
GAIKEI
  6
Continuous
 62
     1
100
AcDbCircle
 10
-200.9427584109152
 20
5.333137314858845
 30
0.0
 40
153.8768106403276
100
AcDbArc
 50
359.4117851116016
 51
0.5844197399980708
  0
LWPOLYLINE
  5
C3
330
2
100
AcDbEntity
  8
GAIKEI
  6
Continuous
 62
     1
100
AcDbPolyline
 90
        9
 70
     0
 43
0.0
 10
-47.07405674867516
 20
3.753421639018824
 10
-47.07230631421509
 20
3.721557929378832
 10
-47.0662144004151
 20
3.690117852218804
 10
-47.05535973665519
 20
3.659967681978855
 10
-47.0391155404751
 20
3.632226020518828
 10
-47.01708391103511
 20
3.608308673578903
 10
-46.99025936179509
 20
3.590432296818903
 10
-46.95997465427512
 20
3.579864933758813
 10
-46.92800288415514
 20
3.576563057558814
  0
ARC
  5
C4
330
2
100
AcDbEntity
  8
GAIKEI
  6
Continuous
 62
     1
100
AcDbCircle
 10
-188.3427584109752
 20
5.333137314858845
 30
0.0
 40
153.8768106403915
100
AcDbArc
 50
359.4117851116016
 51
0.5844197399980708
  0
LWPOLYLINE
  5
C5
330
2
100
AcDbEntity
  8
GAIKEI
  6
Continuous
 62
     1
100
AcDbPolyline
 90
        9
 70
     0
 43
0.0
 10
-34.47405674867514
 20
3.753421639018824
 10
-34.47230631421508
 20
3.721557929378832
 10
-34.46621440041508
 20
3.690117852218804
 10
-34.45535973665506
 20
3.659967681978855
 10
-34.43911554047509
 20
3.632226020518828
 10
-34.41708391103521
 20
3.608308673578903
 10
-34.39025936179519
 20
3.590432296818903
 10
-34.35997465427522
 20
3.579864933758813
 10
-34.32800288415501
 20
3.576563057558814
  0
LWPOLYLINE
  5
C6
330
2
100
AcDbEntity
  8
GAIKEI
  6
Continuous
 62
     1
100
AcDbPolyline
 90
        9
 70
     0
 43
0.0
 10
-34.32789917631521
 20
7.079498632978811
 10
-34.35981733897506
 20
7.076211674498836
 10
-34.39004506435504
 20
7.065688184398823
 10
-34.41684464531522
 20
7.047874337778807
 10
-34.43886929773521
 20
7.024041191238893
 10
-34.45519488435503
 20
6.996192482058859
 10
-34.4661222642751
 20
6.965918083778888
 10
-34.47220210707519
 20
6.934522870998875
 10
-34.4739524492752
 20
6.902661057498903
  0
LWPOLYLINE
  5
C7
330
2
100
AcDbEntity
  8
GAIKEI
  6
Continuous
 62
     1
100
AcDbPolyline
 90
        9
 70
     0
 43
0.0
 10
-30.97164234937509
 20
6.902556287258903
 10
-30.9733923101951
 20
6.934430252798847
 10
-30.97948524277513
 20
6.96587284507882
 10
-30.99034035151522
 20
6.996018596598901
 10
-31.00657946495517
 20
7.02374858803887
 10
-31.02859988283512
 20
7.047653390778805
 10
-31.05541384365506
 20
7.065524275038796
 10
-31.08569535301513
 20
7.076092096398838
 10
-31.11767619691523
 20
7.079394458578917
  0
ARC
  5
C8
330
2
100
AcDbEntity
  8
GAIKEI
  6
Continuous
 62
     1
100
AcDbCircle
 10
121.2099085779448
 20
5.333110510598771
 30
0.0
 40
152.1896435460923
100
AcDbArc
 50
179.4091305362009
 51
180.5946866357968
  0
ARC
  5
C9
330
2
100
AcDbEntity
  8
GAIKEI
  6
Continuous
 62
     1
100
AcDbCircle
 10
-32.71777612459505
 20
161.5150014626188
 30
0.0
 40
154.4438960609498
100
AcDbArc
 50
269.4026638221992
 51
270.5936175864996
  0
ARC
  5
CA
330
2
100
AcDbEntity
  8
GAIKEI
  6
Continuous
 62
     1
100
AcDbCircle
 10
-32.71774907905524
 20
-152.5489833847212
 30
0.0
 40
156.1338501709978
100
AcDbArc
 50
89.4127795420008
 51
90.5909185131002
  0
LWPOLYLINE
  5
CB
330
2
100
AcDbEntity
  8
GAIKEI
  6
Continuous
 62
     1
100
AcDbPolyline
 90
        9
 70
     0
 43
0.0
 10
-31.11757212547514
 20
3.576666663358878
 10
-31.0856434458351
 20
3.579957753238886
 10
-31.05540915409506
 20
3.590491545358872
 10
-31.02861094581522
 20
3.608317833358796
 10
-31.00659317489522
 20
3.632161546918837
 10
-30.99027738613518
 20
3.660013817218896
 10
-30.97935984403512
 20
3.690283445738828
 10
-30.97328581139505
 20
3.72167115685886
 10
-30.97153745167521
 20
3.753526064718812
  0
ARC
  5
CC
330
2
100
AcDbEntity
  8
GAIKEI
  6
Continuous
 62
     1
100
AcDbCircle
 10
117.0099085779247
 20
5.333110510598771
 30
0.0
 40
152.1896435460784
100
AcDbArc
 50
179.4091305362009
 51
180.5946866357968
  0
ARC
  5
CD
330
2
100
AcDbEntity
  8
GAIKEI
  6
Continuous
 62
     1
100
AcDbCircle
 10
-36.91777612459509
 20
161.5150014626188
 30
0.0
 40
154.4438960609463
100
AcDbArc
 50
269.4026638221992
 51
270.5936175864996
  0
LWPOLYLINE
  5
CE
330
2
100
AcDbEntity
  8
GAIKEI
  6
Continuous
 62
     1
100
AcDbPolyline
 90
        9
 70
     0
 43
0.0
 10
-35.17164234937514
 20
6.902556287258903
 10
-35.17339231019514
 20
6.934430252798847
 10
-35.17948524277517
 20
6.96587284507882
 10
-35.19034035151526
 20
6.996018596598901
 10
-35.20657946495521
 20
7.02374858803887
 10
-35.22859988283517
 20
7.047653390778805
 10
-35.25541384365511
 20
7.065524275038796
 10
-35.28569535301517
 20
7.076092096398838
 10
-35.31767619691505
 20
7.079394458578917
  0
ARC
  5
CF
330
2
100
AcDbEntity
  8
GAIKEI
  6
Continuous
 62
     1
100
AcDbCircle
 10
-192.5427584109551
 20
5.333137314858845
 30
0.0
 40
153.8768106403833
100
AcDbArc
 50
359.4117851116016
 51
0.5844197399980708
  0
LWPOLYLINE
  5
D0
330
2
100
AcDbEntity
  8
GAIKEI
  6
Continuous
 62
     1
100
AcDbPolyline
 90
        9
 70
     0
 43
0.0
 10
-35.31757212547518
 20
3.576666663358878
 10
-35.28564344583515
 20
3.579957753238886
 10
-35.25540915409511
 20
3.590491545358872
 10
-35.22861094581504
 20
3.608317833358796
 10
-35.20659317489526
 20
3.632161546918837
 10
-35.19027738613522
 20
3.660013817218896
 10
-35.17935984403516
 20
3.690283445738828
 10
-35.17328581139509
 20
3.72167115685886
 10
-35.17153745167525
 20
3.753526064718812
  0
LWPOLYLINE
  5
D1
330
2
100
AcDbEntity
  8
GAIKEI
  6
Continuous
 62
     1
100
AcDbPolyline
 90
        9
 70
     0
 43
0.0
 10
-38.52789917631515
 20
7.079498632978811
 10
-38.55981733897511
 20
7.076211674498836
 10
-38.59004506435508
 20
7.065688184398823
 10
-38.61684464531516
 20
7.047874337778807
 10
-38.63886929773514
 20
7.024041191238893
 10
-38.65519488435507
 20
6.996192482058859
 10
-38.66612226427515
 20
6.965918083778888
 10
-38.67220210707512
 20
6.934522870998875
 10
-38.67395244927513
 20
6.902661057498903
  0
ARC
  5
D2
330
2
100
AcDbEntity
  8
GAIKEI
  6
Continuous
 62
     1
100
AcDbCircle
 10
-36.91774907905529
 20
-152.5489833847212
 30
0.0
 40
156.1338501709979
100
AcDbArc
 50
89.4127795420008
 51
90.5909185131002
  0
LWPOLYLINE
  5
D3
330
2
100
AcDbEntity
  8
GAIKEI
  6
Continuous
 62
     1
100
AcDbPolyline
 90
        9
 70
     0
 43
0.0
 10
-38.67405674867518
 20
3.753421639018824
 10
-38.67230631421512
 20
3.721557929378832
 10
-38.66621440041513
 20
3.690117852218804
 10
-38.6553597366551
 20
3.659967681978855
 10
-38.63911554047513
 20
3.632226020518828
 10
-38.61708391103514
 20
3.608308673578903
 10
-38.59025936179512
 20
3.590432296818903
 10
-38.55997465427515
 20
3.579864933758813
 10
-38.52800288415517
 20
3.576563057558814
  0
ARC
  5
D4
330
2
100
AcDbEntity
  8
GAIKEI
  6
Continuous
 62
     1
100
AcDbCircle
 10
125.4099085779448
 20
5.333110510598771
 30
0.0
 40
152.1896435460977
100
AcDbArc
 50
179.4091305362009
 51
180.5946866357968
  0
ARC
  5
D5
330
2
100
AcDbEntity
  8
GAIKEI
  6
Continuous
 62
     1
100
AcDbCircle
 10
-28.517776124595
 20
161.5150014626188
 30
0.0
 40
154.4438960609466
100
AcDbArc
 50
269.4026638221992
 51
270.5936175864996
  0
LWPOLYLINE
  5
D6
330
2
100
AcDbEntity
  8
GAIKEI
  6
Continuous
 62
     1
100
AcDbPolyline
 90
        9
 70
     0
 43
0.0
 10
-26.77164234937504
 20
6.902556287258903
 10
-26.77339231019505
 20
6.934430252798847
 10
-26.77948524277508
 20
6.96587284507882
 10
-26.79034035151517
 20
6.996018596598901
 10
-26.80657946495512
 20
7.02374858803887
 10
-26.82859988283508
 20
7.047653390778805
 10
-26.85541384365524
 20
7.065524275038796
 10
-26.88569535301508
 20
7.076092096398838
 10
-26.91767619691518
 20
7.079394458578917
  0
LWPOLYLINE
  5
D7
330
2
100
AcDbEntity
  8
GAIKEI
  6
Continuous
 62
     1
100
AcDbPolyline
 90
        9
 70
     0
 43
0.0
 10
-26.91757212547509
 20
3.576666663358878
 10
-26.88564344583506
 20
3.579957753238886
 10
-26.85540915409524
 20
3.590491545358872
 10
-26.82861094581517
 20
3.608317833358796
 10
-26.80659317489517
 20
3.632161546918837
 10
-26.79027738613513
 20
3.660013817218896
 10
-26.77935984403507
 20
3.690283445738828
 10
-26.77328581139523
 20
3.72167115685886
 10
-26.77153745167516
 20
3.753526064718812
  0
ARC
  5
D8
330
2
100
AcDbEntity
  8
GAIKEI
  6
Continuous
 62
     1
100
AcDbCircle
 10
-184.1427584109751
 20
5.333137314858845
 30
0.0
 40
153.8768106403884
100
AcDbArc
 50
359.4117851116016
 51
0.5844197399980708
  0
ARC
  5
D9
330
2
100
AcDbEntity
  8
GAIKEI
  6
Continuous
 62
     1
100
AcDbCircle
 10
-28.51774907905519
 20
-152.5489833847212
 30
0.0
 40
156.1338501709961
100
AcDbArc
 50
89.4127795420008
 51
90.5909185131002
  0
LWPOLYLINE
  5
DA
330
2
100
AcDbEntity
  8
GAIKEI
  6
Continuous
 62
     1
100
AcDbPolyline
 90
        9
 70
     0
 43
0.0
 10
-30.27405674867509
 20
3.753421639018824
 10
-30.27230631421526
 20
3.721557929378832
 10
-30.26621440041504
 20
3.690117852218804
 10
-30.25535973665524
 20
3.659967681978855
 10
-30.23911554047504
 20
3.632226020518828
 10
-30.21708391103516
 20
3.608308673578903
 10
-30.19025936179514
 20
3.590432296818903
 10
-30.15997465427517
 20
3.579864933758813
 10
-30.12800288415519
 20
3.576563057558814
  0
LWPOLYLINE
  5
DB
330
2
100
AcDbEntity
  8
GAIKEI
  6
Continuous
 62
     1
100
AcDbPolyline
 90
        9
 70
     0
 43
0.0
 10
-30.12789917631517
 20
7.079498632978811
 10
-30.15981733897524
 20
7.076211674498836
 10
-30.19004506435522
 20
7.065688184398823
 10
-30.21684464531518
 20
7.047874337778807
 10
-30.23886929773516
 20
7.024041191238893
 10
-30.2551948843552
 20
6.996192482058859
 10
-30.26612226427506
 20
6.965918083778888
 10
-30.27220210707515
 20
6.934522870998875
 10
-30.27395244927516
 20
6.902661057498903
  0
CIRCLE
  5
DC
330
2
100
AcDbEntity
  8
GAIKEI
  6
Continuous
 62
     1
100
AcDbCircle
 10
-28.51513784769509
 20
5.335689521758808
 30
0.0
 40
1.600000000000004
  0
LWPOLYLINE
  5
DD
330
2
100
AcDbEntity
  8
GAIKEI
  6
Continuous
 62
     1
100
AcDbPolyline
 90
        9
 70
     0
 43
0.0
 10
-39.37164234937518
 20
6.902556287258903
 10
-39.37339231019519
 20
6.934430252798847
 10
-39.37948524277511
 20
6.96587284507882
 10
-39.39034035151508
 20
6.996018596598901
 10
-39.40657946495515
 20
7.02374858803887
 10
-39.4285998828351
 20
7.047653390778805
 10
-39.45541384365515
 20
7.065524275038796
 10
-39.48569535301511
 20
7.076092096398838
 10
-39.51767619691509
 20
7.079394458578917
  0
ARC
  5
DE
330
2
100
AcDbEntity
  8
GAIKEI
  6
Continuous
 62
     1
100
AcDbCircle
 10
-196.7427584109351
 20
5.333137314858845
 30
0.0
 40
153.876810640347
100
AcDbArc
 50
359.4117851116016
 51
0.5844197399980708
  0
ARC
  5
DF
330
2
100
AcDbEntity
  8
GAIKEI
  6
Continuous
 62
     1
100
AcDbCircle
 10
112.8099085779449
 20
5.333110510598771
 30
0.0
 40
152.1896435460989
100
AcDbArc
 50
179.4091305362009
 51
180.5946866357968
  0
ARC
  5
E0
330
2
100
AcDbEntity
  8
GAIKEI
  6
Continuous
 62
     1
100
AcDbCircle
 10
-41.11777612459514
 20
161.5150014626188
 30
0.0
 40
154.4438960609466
100
AcDbArc
 50
269.4026638221992
 51
270.5936175864996
  0
LWPOLYLINE
  5
E1
330
2
100
AcDbEntity
  8
GAIKEI
  6
Continuous
 62
     1
100
AcDbPolyline
 90
        9
 70
     0
 43
0.0
 10
-39.51757212547511
 20
3.576666663358878
 10
-39.4856434458352
 20
3.579957753238886
 10
-39.45540915409515
 20
3.590491545358872
 10
-39.42861094581508
 20
3.608317833358796
 10
-39.40659317489508
 20
3.632161546918837
 10
-39.39027738613516
 20
3.660013817218896
 10
-39.37935984403509
 20
3.690283445738828
 10
-39.37328581139514
 20
3.72167115685886
 10
-39.37153745167507
 20
3.753526064718812
  0
LWPOLYLINE
  5
E2
330
2
100
AcDbEntity
  8
GAIKEI
  6
Continuous
 62
     1
100
AcDbPolyline
 90
        9
 70
     0
 43
0.0
 10
-42.72789917631508
 20
7.079498632978811
 10
-42.75981733897515
 20
7.076211674498836
 10
-42.79004506435512
 20
7.065688184398823
 10
-42.81684464531508
 20
7.047874337778807
 10
-42.83886929773507
 20
7.024041191238893
 10
-42.85519488435511
 20
6.996192482058859
 10
-42.86612226427519
 20
6.965918083778888
 10
-42.87220210707516
 20
6.934522870998875
 10
-42.87395244927506
 20
6.902661057498903
  0
ARC
  5
E3
330
2
100
AcDbEntity
  8
GAIKEI
  6
Continuous
 62
     1
100
AcDbCircle
 10
-41.11774907905521
 20
-152.5489833847212
 30
0.0
 40
156.1338501709886
100
AcDbArc
 50
89.4127795420008
 51
90.5909185131002
  0
LWPOLYLINE
  5
E4
330
2
100
AcDbEntity
  8
GAIKEI
  6
Continuous
 62
     1
100
AcDbPolyline
 90
        9
 70
     0
 43
0.0
 10
-42.87405674867511
 20
3.753421639018824
 10
-42.87230631421516
 20
3.721557929378832
 10
-42.86621440041517
 20
3.690117852218804
 10
-42.85535973665514
 20
3.659967681978855
 10
-42.83911554047517
 20
3.632226020518828
 10
-42.81708391103506
 20
3.608308673578903
 10
-42.79025936179516
 20
3.590432296818903
 10
-42.75997465427508
 20
3.579864933758813
 10
-42.7280028841551
 20
3.576563057558814
  0
LWPOLYLINE
  5
E5
330
2
100
AcDbEntity
  8
GAIKEI
  6
Continuous
 62
     1
100
AcDbPolyline
 90
        9
 70
     0
 43
0.0
 10
-43.71757212547516
 20
3.576666663358878
 10
-43.68564344583512
 20
3.579957753238886
 10
-43.65540915409519
 20
3.590491545358872
 10
-43.62861094581512
 20
3.608317833358796
 10
-43.60659317489512
 20
3.632161546918837
 10
-43.59027738613508
 20
3.660013817218896
 10
-43.57935984403513
 20
3.690283445738828
 10
-43.57328581139518
 20
3.72167115685886
 10
-43.57153745167511
 20
3.753526064718812
  0
LWPOLYLINE
  5
E6
330
2
100
AcDbEntity
  8
GAIKEI
  6
Continuous
 62
     1
100
AcDbPolyline
 90
        9
 70
     0
 43
0.0
 10
-46.92789917631512
 20
7.079498632978811
 10
-46.9598173389752
 20
7.076211674498836
 10
-46.99004506435517
 20
7.065688184398823
 10
-47.01684464531513
 20
7.047874337778807
 10
-47.03886929773512
 20
7.024041191238893
 10
-47.05519488435515
 20
6.996192482058859
 10
-47.06612226427512
 20
6.965918083778888
 10
-47.0722021070751
 20
6.934522870998875
 10
-47.07395244927511
 20
6.902661057498903
  0
ARC
  5
E7
330
2
100
AcDbEntity
  8
GAIKEI
  6
Continuous
 62
     1
100
AcDbCircle
 10
108.6099085779649
 20
5.333110510598771
 30
0.0
 40
152.1896435461146
100
AcDbArc
 50
179.4091305362009
 51
180.5946866357968
  0
ARC
  5
E8
330
2
100
AcDbEntity
  8
GAIKEI
  6
Continuous
 62
     1
100
AcDbCircle
 10
-45.31777612459507
 20
161.5150014626188
 30
0.0
 40
154.4438960609464
100
AcDbArc
 50
269.4026638221992
 51
270.5936175864996
  0
LWPOLYLINE
  5
E9
330
2
100
AcDbEntity
  8
GAIKEI
  6
Continuous
 62
     1
100
AcDbPolyline
 90
        9
 70
     0
 43
0.0
 10
-43.57164234937511
 20
6.902556287258903
 10
-43.57339231019511
 20
6.934430252798847
 10
-43.57948524277515
 20
6.96587284507882
 10
-43.59034035151512
 20
6.996018596598901
 10
-43.60657946495507
 20
7.02374858803887
 10
-43.62859988283514
 20
7.047653390778805
 10
-43.6554138436552
 20
7.065524275038796
 10
-43.68569535301515
 20
7.076092096398838
 10
-43.71767619691513
 20
7.079394458578917
  0
ARC
  5
EA
330
2
100
AcDbEntity
  8
GAIKEI
  6
Continuous
 62
     1
100
AcDbCircle
 10
-45.31774907905514
 20
-152.5489833847212
 30
0.0
 40
156.133850170998
100
AcDbArc
 50
89.4127795420008
 51
90.5909185131002
  0
LINE
  5
EB
330
2
100
AcDbEntity
  8
GAIKEI
  6
Continuous
 62
     1
100
AcDbLine
 10
-46.97269042279515
 20
3.378136933258815
 30
0.0
 11
-26.87269042279513
 21
3.378136933258815
 31
0.0
  0
ARC
  5
EC
330
2
100
AcDbEntity
  8
GAIKEI
  6
Continuous
 62
     1
100
AcDbCircle
 10
-46.97269042279515
 20
3.67813693325877
 30
0.0
 40
0.3000000000000003
100
AcDbArc
 50
180.0
 51
270.0
  0
LINE
  5
ED
330
2
100
AcDbEntity
  8
GAIKEI
  6
Continuous
 62
     1
100
AcDbLine
 10
-26.57269042279518
 20
3.67813693325877
 30
0.0
 11
-26.57269042279518
 21
6.978136933258838
 31
0.0
  0
ARC
  5
EE
330
2
100
AcDbEntity
  8
GAIKEI
  6
Continuous
 62
     1
100
AcDbCircle
 10
-26.87269042279513
 20
3.67813693325877
 30
0.0
 40
0.3000000000000044
100
AcDbArc
 50
270.0
 51
0.0
  0
LINE
  5
EF
330
2
100
AcDbEntity
  8
GAIKEI
  6
Continuous
 62
     1
100
AcDbLine
 10
-47.27269042279511
 20
6.978136933258838
 30
0.0
 11
-47.27269042279511
 21
3.67813693325877
 31
0.0
  0
ARC
  5
F0
330
2
100
AcDbEntity
  8
GAIKEI
  6
Continuous
 62
     1
100
AcDbCircle
 10
-46.97269042279515
 20
6.978136933258838
 30
0.0
 40
0.3000000000000044
100
AcDbArc
 50
90.0
 51
180.0
  0
LINE
  5
F1
330
2
100
AcDbEntity
  8
GAIKEI
  6
Continuous
 62
     1
100
AcDbLine
 10
-26.87269042279513
 20
7.278136933258792
 30
0.0
 11
-46.97269042279515
 21
7.278136933258792
 31
0.0
  0
ARC
  5
F2
330
2
100
AcDbEntity
  8
GAIKEI
  6
Continuous
 62
     1
100
AcDbCircle
 10
-26.87269042279513
 20
6.978136933258838
 30
0.0
 40
0.2999999999999982
100
AcDbArc
 50
0.0
 51
90.0
  0
ARC
  5
F3
330
2
100
AcDbEntity
  8
GAIKEI
  6
Continuous
 62
     1
100
AcDbCircle
 10
25.31240283926166
 20
29.0335727714388
 30
0.0
 40
1.199999999999808
100
AcDbArc
 50
97.18378796009911
 51
100.4439972368002
  0
ARC
  5
F4
330
2
100
AcDbEntity
  8
GAIKEI
  6
Continuous
 62
     1
100
AcDbCircle
 10
25.16480936026159
 20
30.20430594553886
 30
0.0
 40
0.0199999999998965
100
AcDbArc
 50
74.66303218289732
 51
97.17812871179821
  0
ARC
  5
F5
330
2
100
AcDbEntity
  8
GAIKEI
  6
Continuous
 62
     1
100
AcDbCircle
 10
25.1239003652417
 20
30.05634685073881
 30
0.0
 40
0.1599999999998188
100
AcDbArc
 50
100.456886807998
 51
153.9201618987999
  0
ARC
  5
F6
330
2
100
AcDbEntity
  8
GAIKEI
  6
Continuous
 62
     1
100
AcDbCircle
 10
25.31240283232154
 20
29.03357277203884
 30
0.0
 40
1.198499026111614
100
AcDbArc
 50
72.83306686349686
 51
78.34016604220039
  0
LINE
  5
F7
330
2
100
AcDbEntity
  8
GAIKEI
  6
Continuous
 62
     1
100
AcDbLine
 10
25.66695881286154
 20
30.17999732673877
 30
0.0
 11
25.66614783206154
 21
30.17867730471881
 31
0.0
  0
ARC
  5
F8
330
2
100
AcDbEntity
  8
GAIKEI
  6
Continuous
 62
     1
100
AcDbCircle
 10
25.31240283926166
 20
29.0335727714388
 30
0.0
 40
1.199999999999807
100
AcDbArc
 50
69.56356381660109
 51
72.81600969149716
  0
LWPOLYLINE
  5
F9
330
2
100
AcDbEntity
  8
GAIKEI
  6
Continuous
 62
     1
100
AcDbPolyline
 90
        5
 70
     0
 43
0.0
 10
25.55461850938167
 20
30.20733117905888
 10
25.52482756644162
 20
30.21276011201883
 10
25.49948654270151
 20
30.21596976397882
 10
25.48234052146148
 20
30.21647703519886
 10
25.47592512706155
 20
30.2142091442189
  0
LINE
  5
FA
330
2
100
AcDbEntity
  8
GAIKEI
  6
Continuous
 62
     1
100
AcDbLine
 10
25.16230777588152
 20
30.22414888069886
 30
0.0
 11
25.16287732930158
 21
30.22270776839878
 31
0.0
  0
LINE
  5
FB
330
2
100
AcDbEntity
  8
GAIKEI
  6
Continuous
 62
     1
100
AcDbLine
 10
25.35474089274152
 20
30.20592191323885
 30
0.0
 11
25.35637129822152
 21
30.22455753689883
 31
0.0
  0
ARC
  5
FC
330
2
100
AcDbEntity
  8
GAIKEI
  6
Continuous
 62
     1
100
AcDbCircle
 10
25.31240283232154
 20
29.03357277203884
 30
0.0
 40
1.198499026111229
100
AcDbArc
 50
91.6598100282991
 51
97.1669331365018
  0
LWPOLYLINE
  5
FD
330
2
100
AcDbEntity
  8
GAIKEI
  6
Continuous
 62
     1
100
AcDbPolyline
 90
        5
 70
     0
 43
0.0
 10
25.3563736447615
 20
30.22462109829883
 10
25.35046844522157
 20
30.22800787867891
 10
25.33351363010155
 20
30.23049051349881
 10
25.3079865367817
 20
30.23173101817884
 10
25.27768867508161
 20
30.23155220577883
  0
LINE
  5
FE
330
2
100
AcDbEntity
  8
GAIKEI
  6
Continuous
 62
     1
100
AcDbLine
 10
25.35638239894155
 20
30.22468441875878
 30
0.0
 11
25.35474087934148
 21
30.20592191545882
 31
0.0
  0
LINE
  5
FF
330
2
100
AcDbEntity
  8
GAIKEI
  6
Continuous
 62
     1
100
AcDbLine
 10
25.47428424312164
 20
30.19546322631879
 30
0.0
 11
25.47592572946149
 21
30.21422534965882
 31
0.0
  0
ARC
  5
100
330
2
100
AcDbEntity
  8
GAIKEI
  6
Continuous
 62
     1
100
AcDbCircle
 10
25.30136136662162
 20
28.9073684986588
 30
0.0
 40
1.299650087011085
100
AcDbArc
 50
82.35392692400131
 51
87.64607307470035
  0
ARC
  5
101
330
2
100
AcDbEntity
  8
GAIKEI
  6
Continuous
 62
     1
100
AcDbCircle
 10
25.6756443921617
 20
30.00807550321884
 30
0.0
 40
0.1599999999998208
100
AcDbArc
 50
16.07983810119963
 51
69.54164705019646
  0
ARC
  5
102
330
2
100
AcDbEntity
  8
GAIKEI
  6
Continuous
 62
     1
100
AcDbCircle
 10
25.6610497238816
 20
30.16089053933888
 30
0.0
 40
0.0200000000001547
100
AcDbArc
 50
72.84113996429848
 51
95.33750280449655
  0
ARC
  5
103
330
2
100
AcDbEntity
  8
GAIKEI
  6
Continuous
 62
     1
100
AcDbCircle
 10
21.93607733136167
 20
30.33524522751884
 30
0.0
 40
0.1599999999998215
100
AcDbArc
 50
100.456886807998
 51
153.9201618987999
  0
LINE
  5
104
330
2
100
AcDbEntity
  8
GAIKEI
  6
Continuous
 62
     1
100
AcDbLine
 10
21.97448474198148
 20
30.50304725747878
 30
0.0
 11
21.97505429540155
 21
30.50160614517881
 31
0.0
  0
ARC
  5
105
330
2
100
AcDbEntity
  8
GAIKEI
  6
Continuous
 62
     1
100
AcDbCircle
 10
22.12457979842151
 20
29.31247114883877
 30
0.0
 40
1.198499026111674
100
AcDbArc
 50
72.83306686349686
 51
78.34016604220039
  0
LINE
  5
106
330
2
100
AcDbEntity
  8
GAIKEI
  6
Continuous
 62
     1
100
AcDbLine
 10
22.4791357789615
 20
30.45889570353882
 30
0.0
 11
22.47832479816151
 21
30.45757568149884
 31
0.0
  0
ARC
  5
107
330
2
100
AcDbEntity
  8
GAIKEI
  6
Continuous
 62
     1
100
AcDbCircle
 10
22.11353839108159
 20
29.18626686843879
 30
0.0
 40
1.299650088902472
100
AcDbArc
 50
82.35392692789897
 51
87.64607307089958
  0
ARC
  5
108
330
2
100
AcDbEntity
  8
GAIKEI
  6
Continuous
 62
     1
100
AcDbCircle
 10
22.12457980536163
 20
29.31247114821884
 30
0.0
 40
1.19999999999981
100
AcDbArc
 50
69.56356381660109
 51
72.81600969149716
  0
LWPOLYLINE
  5
109
330
2
100
AcDbEntity
  8
GAIKEI
  6
Continuous
 62
     1
100
AcDbPolyline
 90
        5
 70
     0
 43
0.0
 10
22.36679547548164
 20
30.48622955585893
 10
22.33700453254158
 20
30.49165848881887
 10
22.3116635088017
 20
30.49486814075886
 10
22.29451748758169
 20
30.4953754119789
 10
22.28810209316151
 20
30.49310752099882
  0
LINE
  5
10A
330
2
100
AcDbEntity
  8
GAIKEI
  6
Continuous
 62
     1
100
AcDbLine
 10
22.16691785884149
 20
30.48482029003878
 30
0.0
 11
22.16854826432149
 21
30.50345591369887
 31
0.0
  0
ARC
  5
10B
330
2
100
AcDbEntity
  8
GAIKEI
  6
Continuous
 62
     1
100
AcDbCircle
 10
22.12457979842151
 20
29.31247114883877
 30
0.0
 40
1.198499026111284
100
AcDbArc
 50
91.6598100282991
 51
97.1669331365018
  0
LWPOLYLINE
  5
10C
330
2
100
AcDbEntity
  8
GAIKEI
  6
Continuous
 62
     1
100
AcDbPolyline
 90
        5
 70
     0
 43
0.0
 10
22.16855061086147
 20
30.50351947507886
 10
22.16264541132153
 20
30.50690625547884
 10
22.14569059620152
 20
30.50938889027885
 10
22.12016350288167
 20
30.51062939495887
 10
22.08986564120158
 20
30.51045058255886
  0
LINE
  5
10D
330
2
100
AcDbEntity
  8
GAIKEI
  6
Continuous
 62
     1
100
AcDbLine
 10
22.16855936504152
 20
30.50358279555883
 30
0.0
 11
22.16691784544167
 21
30.48482029225886
 31
0.0
  0
LINE
  5
10E
330
2
100
AcDbEntity
  8
GAIKEI
  6
Continuous
 62
     1
100
AcDbLine
 10
22.28646120922161
 20
30.47436160311884
 30
0.0
 11
22.28810269556169
 21
30.49312372643885
 31
0.0
  0
ARC
  5
10F
330
2
100
AcDbEntity
  8
GAIKEI
  6
Continuous
 62
     1
100
AcDbCircle
 10
22.1135383327416
 20
29.18626687543883
 30
0.0
 40
1.299650087010284
100
AcDbArc
 50
82.35392692400131
 51
87.64607307470035
  0
ARC
  5
110
330
2
100
AcDbEntity
  8
GAIKEI
  6
Continuous
 62
     1
100
AcDbCircle
 10
22.48782135828168
 20
30.28697387999887
 30
0.0
 40
0.1599999999998208
100
AcDbArc
 50
16.07983810119963
 51
69.54164705019646
  0
ARC
  5
111
330
2
100
AcDbEntity
  8
GAIKEI
  6
Continuous
 62
     1
100
AcDbCircle
 10
22.47322669000158
 20
30.43978891613881
 30
0.0
 40
0.0200000000001532
100
AcDbArc
 50
72.84113996429848
 51
95.33750280600154
  0
ARC
  5
112
330
2
100
AcDbEntity
  8
GAIKEI
  6
Continuous
 62
     1
100
AcDbCircle
 10
22.12457980536163
 20
29.31247114821884
 30
0.0
 40
1.199999999999808
100
AcDbArc
 50
97.18378796009911
 51
100.4439972368002
  0
ARC
  5
113
330
2
100
AcDbEntity
  8
GAIKEI
  6
Continuous
 62
     1
100
AcDbCircle
 10
21.97698632638156
 20
30.48320432233879
 30
0.0
 40
0.0199999999998965
100
AcDbArc
 50
74.66251889869688
 51
97.17812871179821
  0
LWPOLYLINE
  5
114
330
2
100
AcDbEntity
  8
GAIKEI
  6
Continuous
 62
     1
100
AcDbPolyline
 90
        5
 70
     0
 43
0.0
 10
18.25993835446155
 20
0.493145110098908
 10
18.26641570280157
 20
0.5519980821989066
 10
18.26868002352165
 20
0.601841304498862
 10
18.26641782874157
 20
0.6356857002988363
 10
18.25995859562153
 20
0.6481379715588674
  0
ARC
  5
115
330
2
100
AcDbEntity
  8
GAIKEI
  6
Continuous
 62
     1
100
AcDbCircle
 10
16.56426215172149
 20
0.7281369420388728
 30
0.0
 40
1.711881700601
100
AcDbArc
 50
347.2018879393031
 51
352.1100345697972
  0
ARC
  5
116
330
2
100
AcDbEntity
  8
GAIKEI
  6
Continuous
 62
     1
100
AcDbCircle
 10
18.21577747658165
 20
1.104017491158856
 30
0.0
 40
0.0200000000014144
100
AcDbArc
 50
347.7171982491003
 51
12.79319302039761
  0
ARC
  5
117
330
2
100
AcDbEntity
  8
GAIKEI
  6
Continuous
 62
     1
100
AcDbCircle
 10
16.31080853706152
 20
0.7281369768188597
 30
0.0
 40
1.924469987726413
100
AcDbArc
 50
357.6175344090982
 51
2.382465590197762
  0
LINE
  5
118
330
2
100
AcDbEntity
  8
GAIKEI
  6
Continuous
 62
     1
100
AcDbLine
 10
18.23361501034168
 20
0.6481369768188188
 30
0.0
 11
18.25993706166167
 21
0.6481369600388689
 31
0.0
  0
ARC
  5
119
330
2
100
AcDbEntity
  8
GAIKEI
  6
Continuous
 62
     1
100
AcDbCircle
 10
16.56426215172149
 20
0.7281369327388348
 30
0.0
 40
1.71374999999786
100
AcDbArc
 50
12.8240668653987
 51
19.86599872999843
  0
LINE
  5
11A
330
2
100
AcDbEntity
  8
GAIKEI
  6
Continuous
 62
     1
100
AcDbLine
 10
18.23527841822164
 20
0.3478181631987809
 30
0.0
 11
18.23361498286152
 21
0.3489271293988168
 31
0.0
  0
LINE
  5
11B
330
2
100
AcDbEntity
  8
GAIKEI
  6
Continuous
 62
     1
100
AcDbLine
 10
18.23361501070161
 20
0.6481369064788396
 30
0.0
 11
18.26000748366158
 21
0.6481369053988147
 31
0.0
  0
ARC
  5
11C
330
2
100
AcDbEntity
  8
GAIKEI
  6
Continuous
 62
     1
100
AcDbCircle
 10
16.31080853778161
 20
0.7281368886588098
 30
0.0
 40
1.92446998700912
100
AcDbArc
 50
357.6175344081985
 51
2.382465591201641
  0
ARC
  5
11D
330
2
100
AcDbEntity
  8
GAIKEI
  6
Continuous
 62
     1
100
AcDbCircle
 10
16.56426215172149
 20
0.7281369327388348
 30
0.0
 40
1.71374999999786
100
AcDbArc
 50
340.1330254371018
 51
347.1800950361997
  0
ARC
  5
11E
330
2
100
AcDbEntity
  8
GAIKEI
  6
Continuous
 62
     1
100
AcDbCircle
 10
18.21577747658165
 20
0.352256374318813
 30
0.0
 40
0.0199999999990253
100
AcDbArc
 50
347.1814555485994
 51
12.28282929869972
  0
ARC
  5
11F
330
2
100
AcDbEntity
  8
GAIKEI
  6
Continuous
 62
     1
100
AcDbCircle
 10
18.13839260710159
 20
1.296953574458825
 30
0.0
 40
0.0400000000018876
100
AcDbArc
 50
19.85997137030195
 51
85.02538304709672
  0
LINE
  5
120
330
2
100
AcDbEntity
  8
GAIKEI
  6
Continuous
 62
     1
100
AcDbLine
 10
17.94149838204151
 20
1.354332380558844
 30
0.0
 11
18.14187883742164
 21
1.33680136233886
 31
0.0
  0
ARC
  5
121
330
2
100
AcDbEntity
  8
GAIKEI
  6
Continuous
 62
     1
100
AcDbCircle
 10
17.93801215170146
 20
1.314484592698818
 30
0.0
 40
0.0400000000002577
100
AcDbArc
 50
85.02538298389669
 51
90.0
  0
LINE
  5
122
330
2
100
AcDbEntity
  8
GAIKEI
  6
Continuous
 62
     1
100
AcDbLine
 10
18.25993831522163
 20
0.808136960038837
 30
0.0
 11
18.23361501034168
 21
0.8081369768187869
 31
0.0
  0
ARC
  5
123
330
2
100
AcDbEntity
  8
GAIKEI
  6
Continuous
 62
     1
100
AcDbCircle
 10
18.13839260710159
 20
0.1593202910188438
 30
0.0
 40
0.0400000000018814
100
AcDbArc
 50
274.9754105175029
 51
340.1072999791024
  0
LINE
  5
124
330
2
100
AcDbEntity
  8
GAIKEI
  6
Continuous
 62
     1
100
AcDbLine
 10
18.14187883622156
 20
0.1194725030388781
 30
0.0
 11
17.94149838080165
 21
0.1019414847987718
 31
0.0
  0
ARC
  5
125
330
2
100
AcDbEntity
  8
GAIKEI
  6
Continuous
 62
     1
100
AcDbCircle
 10
17.93801215170146
 20
0.1417892727788512
 30
0.0
 40
0.040000000000258
100
AcDbArc
 50
270.0
 51
274.9754104666012
  0
LINE
  5
126
330
2
100
AcDbEntity
  8
GAIKEI
  6
Continuous
 62
     1
100
AcDbLine
 10
18.23527876456154
 20
1.108455933178788
 30
0.0
 11
18.23361498286152
 21
1.107346754678815
 31
0.0
  0
ARC
  5
127
330
2
100
AcDbEntity
  8
GAIKEI
  6
Continuous
 62
     1
100
AcDbCircle
 10
16.56426215172149
 20
0.7281369420388728
 30
0.0
 40
1.71188170060114
100
AcDbArc
 50
7.889886846197844
 51
12.79811206089759
  0
LINE
  5
128
330
2
100
AcDbEntity
  8
GAIKEI
  6
Continuous
 62
     1
100
AcDbLine
 10
18.23361500888148
 20
0.8081369589788209
 30
0.0
 11
18.25993628842155
 21
0.808136960038837
 31
0.0
  0
LWPOLYLINE
  5
129
330
2
100
AcDbEntity
  8
GAIKEI
  6
Continuous
 62
     1
100
AcDbPolyline
 90
        5
 70
     0
 43
0.0
 10
18.25993729960163
 20
0.8081370077588871
 10
18.26641577208164
 20
0.8205965991788843
 10
18.26868002260147
 20
0.8544554521388363
 10
18.26641404628157
 20
0.9042918057389215
 10
18.25993213812165
 20
0.9631255421188598
  0
LWPOLYLINE
  5
12A
330
2
100
AcDbEntity
  8
GAIKEI
  6
Continuous
 62
     1
100
AcDbPolyline
 90
        5
 70
     0
 43
0.0
 10
18.25993835446155
 20
24.49314511009891
 10
18.26641570280157
 20
24.55199808219891
 10
18.26868002352165
 20
24.60184130449886
 10
18.26641782874157
 20
24.63568570029884
 10
18.25995859562153
 20
24.64813797155887
  0
ARC
  5
12B
330
2
100
AcDbEntity
  8
GAIKEI
  6
Continuous
 62
     1
100
AcDbCircle
 10
16.56426215172149
 20
24.72813694203888
 30
0.0
 40
1.711881700601056
100
AcDbArc
 50
347.2018879393031
 51
352.1100345697972
  0
ARC
  5
12C
330
2
100
AcDbEntity
  8
GAIKEI
  6
Continuous
 62
     1
100
AcDbCircle
 10
16.31080853706152
 20
24.72813697681886
 30
0.0
 40
1.924469987726563
100
AcDbArc
 50
357.6175344090982
 51
2.382465590197762
  0
LINE
  5
12D
330
2
100
AcDbEntity
  8
GAIKEI
  6
Continuous
 62
     1
100
AcDbLine
 10
18.23361501034168
 20
24.64813697681882
 30
0.0
 11
18.25993706166167
 21
24.64813696003887
 31
0.0
  0
ARC
  5
12E
330
2
100
AcDbEntity
  8
GAIKEI
  6
Continuous
 62
     1
100
AcDbCircle
 10
16.56426215172149
 20
24.72813693273884
 30
0.0
 40
1.71374999999786
100
AcDbArc
 50
12.8240668653987
 51
19.86599872999843
  0
LINE
  5
12F
330
2
100
AcDbEntity
  8
GAIKEI
  6
Continuous
 62
     1
100
AcDbLine
 10
18.23361501070161
 20
24.64813690647884
 30
0.0
 11
18.26000748366158
 21
24.64813690539882
 31
0.0
  0
ARC
  5
130
330
2
100
AcDbEntity
  8
GAIKEI
  6
Continuous
 62
     1
100
AcDbCircle
 10
16.31080853778161
 20
24.72813688865881
 30
0.0
 40
1.924469987008969
100
AcDbArc
 50
357.6175344081985
 51
2.382465591201641
  0
ARC
  5
131
330
2
100
AcDbEntity
  8
GAIKEI
  6
Continuous
 62
     1
100
AcDbCircle
 10
16.56426215172149
 20
24.72813693273884
 30
0.0
 40
1.71374999999786
100
AcDbArc
 50
340.1330254371018
 51
347.1800950361997
  0
ARC
  5
132
330
2
100
AcDbEntity
  8
GAIKEI
  6
Continuous
 62
     1
100
AcDbCircle
 10
18.13839260710159
 20
25.29695357445883
 30
0.0
 40
0.0400000000018876
100
AcDbArc
 50
19.85997137030195
 51
85.02538304709672
  0
LINE
  5
133
330
2
100
AcDbEntity
  8
GAIKEI
  6
Continuous
 62
     1
100
AcDbLine
 10
17.94149838204151
 20
25.35433238055885
 30
0.0
 11
18.14187883742164
 21
25.33680136233886
 31
0.0
  0
ARC
  5
134
330
2
100
AcDbEntity
  8
GAIKEI
  6
Continuous
 62
     1
100
AcDbCircle
 10
17.93801215170168
 20
25.31448459269882
 30
0.0
 40
0.0400000000002577
100
AcDbArc
 50
85.02538298389669
 51
90.0
  0
LINE
  5
135
330
2
100
AcDbEntity
  8
GAIKEI
  6
Continuous
 62
     1
100
AcDbLine
 10
18.25993831522163
 20
24.80813696003884
 30
0.0
 11
18.23361501034168
 21
24.80813697681879
 31
0.0
  0
ARC
  5
136
330
2
100
AcDbEntity
  8
GAIKEI
  6
Continuous
 62
     1
100
AcDbCircle
 10
18.13839260710159
 20
24.15932029101885
 30
0.0
 40
0.0400000000018814
100
AcDbArc
 50
274.9754105175029
 51
340.1072999791024
  0
LINE
  5
137
330
2
100
AcDbEntity
  8
GAIKEI
  6
Continuous
 62
     1
100
AcDbLine
 10
18.14187883622156
 20
24.11947250303888
 30
0.0
 11
17.94149838080165
 21
24.10194148479877
 31
0.0
  0
ARC
  5
138
330
2
100
AcDbEntity
  8
GAIKEI
  6
Continuous
 62
     1
100
AcDbCircle
 10
17.93801215170168
 20
24.14178927277885
 30
0.0
 40
0.040000000000258
100
AcDbArc
 50
270.0
 51
274.9754104666012
  0
ARC
  5
139
330
2
100
AcDbEntity
  8
GAIKEI
  6
Continuous
 62
     1
100
AcDbCircle
 10
16.56426215172149
 20
24.72813694203888
 30
0.0
 40
1.71188170060097
100
AcDbArc
 50
7.889886846197844
 51
12.79811206089759
  0
LINE
  5
13A
330
2
100
AcDbEntity
  8
GAIKEI
  6
Continuous
 62
     1
100
AcDbLine
 10
18.23361500888148
 20
24.80813695897882
 30
0.0
 11
18.25993628842155
 21
24.80813696003884
 31
0.0
  0
LWPOLYLINE
  5
13B
330
2
100
AcDbEntity
  8
GAIKEI
  6
Continuous
 62
     1
100
AcDbPolyline
 90
        5
 70
     0
 43
0.0
 10
18.25993729960163
 20
24.80813700775889
 10
18.26641577208164
 20
24.82059659917889
 10
18.26868002260147
 20
24.85445545213884
 10
18.26641404628157
 20
24.90429180573892
 10
18.25993213812165
 20
24.96312554211886
  0
LINE
  5
13C
330
2
100
AcDbEntity
  8
GAIKEI
  6
Continuous
 62
     1
100
AcDbLine
 10
21.7516390146015
 20
28.49185237767881
 30
0.0
 11
21.75251057202166
 21
28.50181432465888
 31
0.0
  0
LINE
  5
13D
330
2
100
AcDbEntity
  8
GAIKEI
  6
Continuous
 62
     1
100
AcDbLine
 10
25.97885076802157
 20
29.53740524185878
 30
0.0
 11
26.01371306512163
 21
29.93588312109887
 31
0.0
  0
LINE
  5
13E
330
2
100
AcDbEntity
  8
GAIKEI
  6
Continuous
 62
     1
100
AcDbLine
 10
25.40478792656171
 20
30.08953915139887
 30
0.0
 11
21.79856311948169
 21
30.40504294015887
 31
0.0
  0
LINE
  5
13F
330
2
100
AcDbEntity
  8
GAIKEI
  6
Continuous
 62
     1
100
AcDbLine
 10
25.82318969976149
 20
30.05293373945881
 30
0.0
 11
25.40478792656171
 21
30.08953915139887
 31
0.0
  0
LINE
  5
140
330
2
100
AcDbEntity
  8
GAIKEI
  6
Continuous
 62
     1
100
AcDbLine
 10
21.79856311948169
 20
30.40504294015887
 30
0.0
 11
21.69894364966166
 21
30.41375851443877
 31
0.0
  0
LINE
  5
141
330
2
100
AcDbEntity
  8
GAIKEI
  6
Continuous
 62
     1
100
AcDbLine
 10
25.92280916958151
 20
30.04421816517879
 30
0.0
 11
25.82318969976149
 21
30.05293373945881
 31
0.0
  0
LINE
  5
142
330
2
100
AcDbEntity
  8
GAIKEI
  6
Continuous
 62
     1
100
AcDbLine
 10
24.98019119228156
 20
30.12668655221887
 30
0.0
 11
24.9066905775216
 21
30.13311702277884
 31
0.0
  0
LINE
  5
143
330
2
100
AcDbEntity
  8
GAIKEI
  6
Continuous
 62
     1
100
AcDbLine
 10
25.9028852756216
 20
30.0459612800388
 30
0.0
 11
25.82938466086165
 21
30.05239175057886
 31
0.0
  0
ARC
  5
144
330
2
100
AcDbEntity
  8
GAIKEI
  6
Continuous
 62
     1
100
AcDbCircle
 10
25.91409359530161
 20
29.94459869537877
 30
0.0
 40
0.0999999999999997
100
AcDbArc
 50
354.9999999999999
 51
84.99999999999998
  0
ARC
  5
145
330
2
100
AcDbEntity
  8
GAIKEI
  6
Continuous
 62
     1
100
AcDbCircle
 10
21.69022807540153
 20
30.31413904461885
 30
0.0
 40
0.1000000000000011
100
AcDbArc
 50
84.99999999999998
 51
175.0
  0
LINE
  5
146
330
2
100
AcDbEntity
  8
GAIKEI
  6
Continuous
 62
     1
100
AcDbLine
 10
21.79236815840153
 20
30.4055849290188
 30
0.0
 11
21.71886754362157
 21
30.41201539957888
 31
0.0
  0
LINE
  5
147
330
2
100
AcDbEntity
  8
GAIKEI
  6
Continuous
 62
     1
100
AcDbLine
 10
21.59060860558151
 20
30.32285461889888
 30
0.0
 11
21.55574630848168
 21
29.92437673965878
 31
0.0
  0
LINE
  5
148
330
2
100
AcDbEntity
  8
GAIKEI
  6
Continuous
 62
     1
100
AcDbLine
 10
14.06067459380159
 20
10.12813693273881
 30
0.0
 11
14.37801215170151
 21
10.12813693273881
 31
0.0
  0
LINE
  5
149
330
2
100
AcDbEntity
  8
GAIKEI
  6
Continuous
 62
     1
100
AcDbLine
 10
14.05768489328164
 20
13.72813693273883
 30
0.0
 11
13.96099113812164
 21
13.72813693273883
 31
0.0
  0
LINE
  5
14A
330
2
100
AcDbEntity
  8
GAIKEI
  6
Continuous
 62
     1
100
AcDbLine
 10
13.89801215170149
 20
19.62348512911876
 30
0.0
 11
13.89801215170149
 21
17.43278873635881
 31
0.0
  0
LINE
  5
14B
330
2
100
AcDbEntity
  8
GAIKEI
  6
Continuous
 62
     1
100
AcDbLine
 10
13.89801215170149
 20
19.66813693273877
 30
0.0
 11
13.89801215170149
 21
19.62348512911876
 31
0.0
  0
LINE
  5
14C
330
2
100
AcDbEntity
  8
GAIKEI
  6
Continuous
 62
     1
100
AcDbLine
 10
13.89801215170149
 20
17.43278873635881
 30
0.0
 11
13.89801215170149
 21
17.3881369327388
 31
0.0
  0
ARC
  5
14D
330
2
100
AcDbEntity
  8
GAIKEI
  6
Continuous
 62
     1
100
AcDbCircle
 10
13.95801215170166
 20
17.3881369327388
 30
0.0
 40
0.06
100
AcDbArc
 50
180.0
 51
270.0
  0
LINE
  5
14E
330
2
100
AcDbEntity
  8
GAIKEI
  6
Continuous
 62
     1
100
AcDbLine
 10
13.95801215170166
 20
19.72813693273883
 30
0.0
 11
14.37801215170151
 21
19.72813693273883
 31
0.0
  0
LINE
  5
14F
330
2
100
AcDbEntity
  8
GAIKEI
  6
Continuous
 62
     1
100
AcDbLine
 10
13.95801215170166
 20
17.32813693273886
 30
0.0
 11
14.37801215170151
 21
17.32813693273886
 31
0.0
  0
LINE
  5
150
330
2
100
AcDbEntity
  8
GAIKEI
  6
Continuous
 62
     1
100
AcDbLine
 10
13.95801215170166
 20
23.32813693273886
 30
0.0
 11
14.37801215170151
 21
23.32813693273886
 31
0.0
  0
LINE
  5
151
330
2
100
AcDbEntity
  8
GAIKEI
  6
Continuous
 62
     1
100
AcDbLine
 10
14.37801215170151
 20
24.52813693273879
 30
0.0
 11
13.95801215170166
 21
24.52813693273879
 31
0.0
  0
LINE
  5
152
330
2
100
AcDbEntity
  8
GAIKEI
  6
Continuous
 62
     1
100
AcDbLine
 10
13.89801215170149
 20
24.42813693273888
 30
0.0
 11
13.89801215170149
 21
23.42813693273888
 31
0.0
  0
LINE
  5
153
330
2
100
AcDbEntity
  8
GAIKEI
  6
Continuous
 62
     1
100
AcDbLine
 10
13.89801215170149
 20
24.46813693273885
 30
0.0
 11
13.89801215170149
 21
24.42813693273888
 31
0.0
  0
LINE
  5
154
330
2
100
AcDbEntity
  8
GAIKEI
  6
Continuous
 62
     1
100
AcDbLine
 10
13.89801215170149
 20
23.42813693273888
 30
0.0
 11
13.89801215170149
 21
23.38813693273881
 31
0.0
  0
LINE
  5
155
330
2
100
AcDbEntity
  8
GAIKEI
  6
Continuous
 62
     1
100
AcDbLine
 10
14.05768489328164
 20
7.128136932738811
 30
0.0
 11
13.96099113812164
 21
7.128136932738811
 31
0.0
  0
ARC
  5
156
330
2
100
AcDbEntity
  8
GAIKEI
  6
Continuous
 62
     1
100
AcDbCircle
 10
16.90369963498159
 20
13.53568952175885
 30
0.0
 40
3.005687483265516
100
AcDbArc
 50
177.4215314454028
 51
180.0
  0
ARC
  5
157
330
2
100
AcDbEntity
  8
GAIKEI
  6
Continuous
 62
     1
100
AcDbCircle
 10
16.90369963498159
 20
6.935689521758831
 30
0.0
 40
3.005687483265516
100
AcDbArc
 50
177.4215314454028
 51
180.0
  0
ARC
  5
158
330
2
100
AcDbEntity
  8
GAIKEI
  6
Continuous
 62
     1
100
AcDbCircle
 10
16.90369963498159
 20
10.33568952175881
 30
0.0
 40
3.005687483265516
100
AcDbArc
 50
180.0
 51
182.8732988082022
  0
ARC
  5
159
330
2
100
AcDbEntity
  8
GAIKEI
  6
Continuous
 62
     1
100
AcDbCircle
 10
13.96172977630152
 20
10.18813692897879
 30
0.0
 40
0.0599999657566698
100
AcDbArc
 50
183.1625666185997
 51
269.9722945507005
  0
ARC
  5
15A
330
2
100
AcDbEntity
  8
GAIKEI
  6
Continuous
 62
     1
100
AcDbCircle
 10
13.96172977630152
 20
3.588136928978883
 30
0.0
 40
0.0599999657566689
100
AcDbArc
 50
183.1625666186977
 51
269.9722945507005
  0
ARC
  5
15B
330
2
100
AcDbEntity
  8
GAIKEI
  6
Continuous
 62
     1
100
AcDbCircle
 10
16.90369963498159
 20
3.735689521758786
 30
0.0
 40
3.005687483265516
100
AcDbArc
 50
180.0
 51
182.8732988082022
  0
ARC
  5
15C
330
2
100
AcDbEntity
  8
GAIKEI
  6
Continuous
 62
     1
100
AcDbCircle
 10
13.96100149346165
 20
7.068136934178824
 30
0.0
 40
0.0599999985560372
100
AcDbArc
 50
90.01268551959677
 51
177.4051289932987
  0
ARC
  5
15D
330
2
100
AcDbEntity
  8
GAIKEI
  6
Continuous
 62
     1
100
AcDbCircle
 10
13.96100149346165
 20
13.66813693417884
 30
0.0
 40
0.0599999985560374
100
AcDbArc
 50
90.01268551940134
 51
177.4051289932008
  0
ARC
  5
15E
330
2
100
AcDbEntity
  8
GAIKEI
  6
Continuous
 62
     1
100
AcDbCircle
 10
13.95801215170166
 20
19.66813693273877
 30
0.0
 40
0.0600000000000003
100
AcDbArc
 50
90.0
 51
180.0
  0
ARC
  5
15F
330
2
100
AcDbEntity
  8
GAIKEI
  6
Continuous
 62
     1
100
AcDbCircle
 10
13.95801215170166
 20
24.46813693273885
 30
0.0
 40
0.06
100
AcDbArc
 50
90.0
 51
180.0
  0
ARC
  5
160
330
2
100
AcDbEntity
  8
GAIKEI
  6
Continuous
 62
     1
100
AcDbCircle
 10
13.95801215170166
 20
23.38813693273881
 30
0.0
 40
0.0600000000000003
100
AcDbArc
 50
180.0
 51
270.0
  0
LINE
  5
161
330
2
100
AcDbEntity
  8
GAIKEI
  6
Continuous
 62
     1
100
AcDbLine
 10
13.96170990862168
 20
3.528136932738789
 30
0.0
 11
14.06067459380159
 21
3.528136932738789
 31
0.0
  0
LINE
  5
162
330
2
100
AcDbEntity
  8
GAIKEI
  6
Continuous
 62
     1
100
AcDbLine
 10
14.05768489328164
 20
13.72813693273883
 30
0.0
 11
14.37801215170151
 21
13.72813693273883
 31
0.0
  0
LINE
  5
163
330
2
100
AcDbEntity
  8
GAIKEI
  6
Continuous
 62
     1
100
AcDbLine
 10
13.96170990862168
 20
10.12813693273881
 30
0.0
 11
14.06067459380159
 21
10.12813693273881
 31
0.0
  0
LINE
  5
164
330
2
100
AcDbEntity
  8
GAIKEI
  6
Continuous
 62
     1
100
AcDbLine
 10
14.05768489328164
 20
7.128136932738811
 30
0.0
 11
14.37801215170151
 21
7.128136932738811
 31
0.0
  0
LINE
  5
165
330
2
100
AcDbEntity
  8
GAIKEI
  6
Continuous
 62
     1
100
AcDbLine
 10
13.89801215170149
 20
6.935689521758831
 30
0.0
 11
13.89801215170149
 21
3.735689521758786
 31
0.0
  0
LINE
  5
166
330
2
100
AcDbEntity
  8
GAIKEI
  6
Continuous
 62
     1
100
AcDbLine
 10
14.06067459380159
 20
3.528136932738789
 30
0.0
 11
14.37801215170151
 21
3.528136932738789
 31
0.0
  0
ARC
  5
167
330
2
100
AcDbEntity
  8
GAIKEI
  6
Continuous
 62
     7
100
AcDbCircle
 10
19.00301215170151
 20
28.82813693273886
 30
0.0
 40
4.625000000000167
100
AcDbArc
 50
148.6045467001983
 51
166.9389758852025
  0
ARC
  5
168
330
2
100
AcDbEntity
  8
GAIKEI
  6
Continuous
 62
     7
100
AcDbCircle
 10
19.00301215170151
 20
-1.371863067261188
 30
0.0
 40
4.624999999999908
100
AcDbArc
 50
193.0610241147974
 51
211.3954532998016
  0
ARC
  5
169
330
2
100
AcDbEntity
  8
GAIKEI
  6
Continuous
 62
     7
100
AcDbCircle
 10
15.22586693554166
 20
-3.677030960481147
 30
0.0
 40
0.1999999999999995
100
AcDbArc
 50
211.3954532998016
 51
268.0000000000028
  0
ARC
  5
16A
330
2
100
AcDbEntity
  8
GAIKEI
  6
Continuous
 62
     7
100
AcDbCircle
 10
15.22586693554166
 20
31.13330482595882
 30
0.0
 40
0.1999999999999971
100
AcDbArc
 50
91.99999999999722
 51
148.6045467001983
  0
ARC
  5
16B
330
2
100
AcDbEntity
  8
GAIKEI
  6
Continuous
 62
     7
100
AcDbCircle
 10
19.00301215170151
 20
28.82813693273886
 30
0.0
 40
4.624999999999988
100
AcDbArc
 50
166.9389758852025
 51
180.0
  0
ARC
  5
16C
330
2
100
AcDbEntity
  8
GAIKEI
  6
Continuous
 62
     7
100
AcDbCircle
 10
19.00301215170151
 20
-1.371863067261188
 30
0.0
 40
4.625000000000014
100
AcDbArc
 50
180.0
 51
193.0610241147974
  0
LINE
  5
16D
330
2
100
AcDbEntity
  8
GAIKEI
  6
Continuous
 62
     1
100
AcDbLine
 10
14.48741418465437
 20
29.82813693273886
 30
0.0
 11
17.83807306900161
 21
29.82813693273886
 31
0.0
  0
LINE
  5
16E
330
2
100
AcDbEntity
  8
GAIKEI
  6
Continuous
 62
     1
100
AcDbLine
 10
17.83807306900161
 20
-2.371863067261188
 30
0.0
 11
14.48741418465437
 21
-2.371863067261188
 31
0.0
  0
LINE
  5
16F
330
2
100
AcDbEntity
  8
GAIKEI
  6
Continuous
 62
     7
100
AcDbLine
 10
15.21888703620146
 20
-3.876909125881184
 30
0.0
 11
17.83807306900161
 21
-3.968373117581222
 31
0.0
  0
LINE
  5
170
330
2
100
AcDbEntity
  8
GAIKEI
  6
Continuous
 62
     7
100
AcDbLine
 10
17.83807306900161
 20
31.42464698307879
 30
0.0
 11
15.21888703620146
 21
31.33318299135885
 31
0.0
  0
LINE
  5
171
330
2
100
AcDbEntity
  8
GAIKEI
  6
Continuous
 62
     7
100
AcDbLine
 10
17.93801215170168
 20
31.32813693273886
 30
0.0
 11
17.83807306900161
 21
31.42464698307879
 31
0.0
  0
LINE
  5
172
330
2
100
AcDbEntity
  8
GAIKEI
  6
Continuous
 62
     1
100
AcDbLine
 10
17.93801215170168
 20
29.82813693273886
 30
0.0
 11
17.83807306900161
 21
29.82813693273886
 31
0.0
  0
LINE
  5
173
330
2
100
AcDbEntity
  8
GAIKEI
  6
Continuous
 62
     7
100
AcDbLine
 10
17.93801215170146
 20
-3.871863067261188
 30
0.0
 11
17.83807306900161
 21
-3.968373117581222
 31
0.0
  0
LINE
  5
174
330
2
100
AcDbEntity
  8
GAIKEI
  6
Continuous
 62
     1
100
AcDbLine
 10
17.93801215170146
 20
-2.371863067261188
 30
0.0
 11
17.83807306900161
 21
-2.371863067261188
 31
0.0
  0
LINE
  5
175
330
2
100
AcDbEntity
  8
GAIKEI
  6
Continuous
 62
     7
100
AcDbLine
 10
14.37801215170151
 20
28.82813693273886
 30
0.0
 11
14.37801215170151
 21
-1.371863067261188
 31
0.0
  0
LINE
  5
176
330
2
100
AcDbEntity
  8
GAIKEI
  6
Continuous
 62
     7
100
AcDbLine
 10
17.93801215170168
 20
30.24088746601888
 30
0.0
 11
17.93801215170168
 21
31.32813693273886
 31
0.0
  0
LINE
  5
177
330
2
100
AcDbEntity
  8
GAIKEI
  6
Continuous
 62
     7
100
AcDbLine
 10
17.93801215170168
 20
-2.626499387601143
 30
0.0
 11
17.93801215170168
 21
30.24088746601888
 31
0.0
  0
LINE
  5
178
330
2
100
AcDbEntity
  8
GAIKEI
  6
Continuous
 62
     7
100
AcDbLine
 10
17.93801215170146
 20
-3.871863067261188
 30
0.0
 11
17.93801215170168
 21
-2.626499387601143
 31
0.0
  0
ARC
  5
179
330
2
100
AcDbEntity
  8
GAIKEI
  6
Continuous
 62
     1
100
AcDbCircle
 10
17.46137706466169
 20
31.08564350281881
 30
0.0
 40
0.5
100
AcDbArc
 50
43.27366000040284
 51
141.3602412391
  0
LINE
  5
17A
330
2
100
AcDbEntity
  8
GAIKEI
  6
Continuous
 62
     1
100
AcDbLine
 10
17.1824335145215
 20
31.91310377125887
 30
0.0
 11
17.87976980318166
 21
31.85209475131888
 31
0.0
  0
ARC
  5
17B
330
2
100
AcDbEntity
  8
GAIKEI
  6
Continuous
 62
     1
100
AcDbCircle
 10
17.13014006888164
 20
31.31538695239886
 30
0.0
 40
0.6000000000000001
100
AcDbArc
 50
84.99999999999998
 51
173.9051865722004
  0
ARC
  5
17C
330
2
100
AcDbEntity
  8
GAIKEI
  6
Continuous
 62
     1
100
AcDbCircle
 10
17.82747635754157
 20
31.25437793247886
 30
0.0
 40
0.600000000000001
100
AcDbArc
 50
0.7391704773002367
 51
84.99999999999998
  0
LINE
  5
17D
330
2
100
AcDbEntity
  8
GAIKEI
  6
Continuous
 62
     7
100
AcDbLine
 10
24.6567017951615
 20
-1.408550948981201
 30
0.0
 11
24.74848638678162
 21
-0.3594482660412268
 31
0.0
  0
ARC
  5
17E
330
2
100
AcDbEntity
  8
GAIKEI
  6
Continuous
 62
     7
100
AcDbCircle
 10
24.45706437766165
 20
-1.391084938141148
 30
0.0
 40
0.2003999999999996
100
AcDbArc
 50
278.9999999999988
 51
354.9999999999999
  0
LINE
  5
17F
330
2
100
AcDbEntity
  8
GAIKEI
  6
Continuous
 62
     7
100
AcDbLine
 10
17.93801215170168
 20
-2.626499387601143
 30
0.0
 11
24.48841384445535
 21
-1.589017681594214
 31
0.0
  0
LINE
  5
180
330
2
100
AcDbEntity
  8
GAIKEI
  6
Continuous
 62
     1
100
AcDbLine
 10
24.75174276651063
 20
-0.3222276754520408
 30
0.0
 11
17.93801215170146
 21
-1.401416585401193
 31
0.0
  0
LINE
  5
181
330
2
100
AcDbEntity
  8
GAIKEI
  6
Continuous
 62
     1
100
AcDbLine
 10
27.23158141152925
 20
28.02245773953917
 30
0.0
 11
17.93801215170168
 21
28.83553969345883
 31
0.0
  0
LINE
  5
182
330
2
100
AcDbEntity
  8
GAIKEI
  6
Continuous
 62
     7
100
AcDbLine
 10
17.93801215170168
 20
30.24088746601888
 30
0.0
 11
27.11451272384164
 21
29.43804769511883
 31
0.0
  0
LINE
  5
183
330
2
100
AcDbEntity
  8
GAIKEI
  6
Continuous
 62
     7
100
AcDbLine
 10
24.74852124908165
 20
-0.3590497881612009
 30
0.0
 11
27.33613344054169
 21
29.21749289937884
 31
0.0
  0
LINE
  5
184
330
2
100
AcDbEntity
  8
GAIKEI
  6
Continuous
 62
     7
100
AcDbLine
 10
27.11451272384164
 20
29.43804769511883
 30
0.0
 11
27.15396203388167
 21
29.43459632771885
 31
0.0
  0
ARC
  5
185
330
2
100
AcDbEntity
  8
GAIKEI
  6
Continuous
 62
     7
100
AcDbCircle
 10
27.13649602304162
 20
29.23495891021878
 30
0.0
 40
0.2004000000000004
100
AcDbArc
 50
354.9999999999999
 51
84.99999999999998
  0
LINE
  5
186
330
2
100
AcDbEntity
  8
GAIKEI
  6
Continuous
 62
     1
100
AcDbLine
 10
14.15781215170153
 20
24.52813693273879
 30
0.0
 11
14.15781215170153
 21
25.12813693273881
 31
0.0
  0
LINE
  5
187
330
2
100
AcDbEntity
  8
GAIKEI
  6
Continuous
 62
     1
100
AcDbLine
 10
14.15781215170153
 20
22.72813693273883
 30
0.0
 11
14.15781215170153
 21
23.32813693273886
 31
0.0
  0
LINE
  5
188
330
2
100
AcDbEntity
  8
GAIKEI
  6
Continuous
 62
     1
100
AcDbLine
 10
13.67711416178162
 20
25.11135058903881
 30
0.0
 11
14.15781215170153
 21
25.12813693273881
 31
0.0
  0
LWPOLYLINE
  5
189
330
2
100
AcDbEntity
  8
GAIKEI
  6
Continuous
 62
     1
100
AcDbPolyline
 90
        9
 70
     0
 43
0.0
 10
12.12206667290155
 20
25.03200161853886
 10
12.09875786282163
 20
25.00701748397887
 10
12.0796223268016
 20
24.98381819381882
 10
12.06659580368153
 20
24.9635870078589
 10
12.06179406994164
 20
24.94807588671893
 10
12.0665632292816
 20
24.93898036443886
 10
12.07955834350167
 20
24.93640657085882
 10
12.09868125098154
 20
24.93952632867888
 10
12.12206667288154
 20
24.94717820577887
  0
LWPOLYLINE
  5
18A
330
2
100
AcDbEntity
  8
GAIKEI
  6
Continuous
 62
     1
100
AcDbPolyline
 90
        9
 70
     0
 43
0.0
 10
12.12206667290155
 20
24.91173462715892
 10
12.09875786282163
 20
24.88136055803887
 10
12.0796223268016
 20
24.8510777588989
 10
12.06659580368153
 20
24.82189978149881
 10
12.06179406994164
 20
24.79579595539883
 10
12.0665632292816
 20
24.77511821003884
 10
12.07955834350167
 20
24.76094141905889
 10
12.09868125098154
 20
24.75304058635891
 10
12.12206667288154
 20
24.75039090825885
  0
LWPOLYLINE
  5
18B
330
2
100
AcDbEntity
  8
GAIKEI
  6
Continuous
 62
     1
100
AcDbPolyline
 90
        9
 70
     0
 43
0.0
 10
12.12206667290155
 20
24.40355372289889
 10
12.09875786282163
 20
24.37155602551889
 10
12.0796223268016
 20
24.3364023002789
 10
12.06659580368153
 20
24.29849536619884
 10
12.06179406994164
 20
24.2596585678989
 10
12.0665632292816
 20
24.22282423921888
 10
12.07955834350167
 20
24.19060456489888
 10
12.09868125098154
 20
24.16398578431893
 10
12.12206667288154
 20
24.14249410187892
  0
LWPOLYLINE
  5
18C
330
2
100
AcDbEntity
  8
GAIKEI
  6
Continuous
 62
     1
100
AcDbPolyline
 90
        9
 70
     0
 43
0.0
 10
12.12206667290155
 20
24.69518624031889
 10
12.09875786282163
 20
24.66239546213888
 10
12.0796223268016
 20
24.62799344541884
 10
12.06659580368153
 20
24.59272482027882
 10
12.06179406994164
 20
24.55858351361883
 10
12.0665632292816
 20
24.52834762695886
 10
12.07955834350167
 20
24.50395556165882
 10
12.09868125098154
 20
24.48580752697888
 10
12.12206667288154
 20
24.47311566265887
  0
ARC
  5
18D
330
2
100
AcDbEntity
  8
GAIKEI
  6
Continuous
 62
     1
100
AcDbCircle
 10
12.25016420168157
 20
23.92813693273888
 30
0.0
 40
0.1877385446597429
100
AcDbArc
 50
133.0251050017011
 51
226.9748949981976
  0
LWPOLYLINE
  5
18E
330
2
100
AcDbEntity
  8
GAIKEI
  6
Continuous
 62
     1
100
AcDbPolyline
 90
        9
 70
     0
 43
0.0
 10
12.12206667290155
 20
23.71377976361884
 10
12.09875786282163
 20
23.69238047081887
 10
12.0796223268016
 20
23.66578334769883
 10
12.06659580368153
 20
23.63362661733891
 10
12.06179406994164
 20
23.5968911837789
 10
12.0665632292816
 20
23.55796973335885
 10
12.07955834350167
 20
23.52001399619883
 10
12.09868125098154
 20
23.48484473719884
 10
12.12206667288154
 20
23.45272014259888
  0
LWPOLYLINE
  5
18F
330
2
100
AcDbEntity
  8
GAIKEI
  6
Continuous
 62
     1
100
AcDbPolyline
 90
        9
 70
     0
 43
0.0
 10
12.12206667290155
 20
23.3831582028389
 10
12.09875786282163
 20
23.37052678813893
 10
12.0796223268016
 20
23.3524003957989
 10
12.06659580368153
 20
23.32806930811887
 10
12.06179406994164
 20
23.29792503467889
 10
12.0665632292816
 20
23.26371920661882
 10
12.07955834350167
 20
23.2284165013989
 10
12.09868125098154
 20
23.19400449027887
 10
12.12206667288154
 20
23.16108762517888
  0
LWPOLYLINE
  5
190
330
2
100
AcDbEntity
  8
GAIKEI
  6
Continuous
 62
     1
100
AcDbPolyline
 90
        9
 70
     0
 43
0.0
 10
12.12206667290155
 20
22.90909565969889
 10
12.09875786282163
 20
22.91673006043891
 10
12.0796223268016
 20
22.91986528371888
 10
12.06659580368153
 20
22.91733140509882
 10
12.06179406994164
 20
22.90828761961882
 10
12.0665632292816
 20
22.89276859717893
 10
12.07955834350167
 20
22.87254101737881
 10
12.09868125098154
 20
22.84934510849883
 10
12.12206667288154
 20
22.82427224695891
  0
LWPOLYLINE
  5
191
330
2
100
AcDbEntity
  8
GAIKEI
  6
Continuous
 62
     1
100
AcDbPolyline
 90
        9
 70
     0
 43
0.0
 10
12.12206667290155
 20
23.10588295721891
 10
12.09875786282163
 20
23.10325587149884
 10
12.0796223268016
 20
23.09537454751887
 10
12.06659580368153
 20
23.08125079891886
 10
12.06179406994164
 20
23.06064841711884
 10
12.0665632292816
 20
23.0345065161589
 10
12.07955834350167
 20
23.00531251765892
 10
12.09868125098154
 20
22.97502624181891
 10
12.12206667288154
 20
22.94453923833885
  0
POLYLINE
  5
192
330
2
100
AcDbEntity
  8
GAIKEI
  6
Continuous
 62
     1
100
AcDb3dPolyline
 66
     1
 10
0.0
 20
0.0
 30
0.0
 70
     8
  0
VERTEX
  5
193
330
192
100
AcDbEntity
  8
GAIKEI
  6
Continuous
 62
     1
100
AcDbVertex
100
AcDb3dPolylineVertex
 10
12.06300317318158
 20
22.85490308211888
 30
0.0
 70
    32
  0
VERTEX
  5
194
330
192
100
AcDbEntity
  8
GAIKEI
  6
Continuous
 62
     1
100
AcDbVertex
100
AcDb3dPolylineVertex
 10
12.06179406994164
 20
22.85575677857878
 30
0.0
 70
    32
  0
VERTEX
  5
195
330
192
100
AcDbEntity
  8
GAIKEI
  6
Continuous
 62
     1
100
AcDbVertex
100
AcDb3dPolylineVertex
 10
12.06179401118146
 20
22.85575682035881
 30
0.0
 70
    32
  0
SEQEND
  5
196
330
192
100
AcDbEntity
  8
GAIKEI
  6
Continuous
 62
     1
  0
LWPOLYLINE
  5
197
330
2
100
AcDbEntity
  8
GAIKEI
  6
Continuous
 62
     1
100
AcDbPolyline
 90
        3
 70
     0
 43
0.0
 10
12.12206667290155
 20
22.81205922207892
 10
12.0796223268016
 20
22.84305267395883
 10
12.06300317318158
 20
22.85490308211888
  0
ARC
  5
198
330
2
100
AcDbEntity
  8
GAIKEI
  6
Continuous
 62
     1
100
AcDbCircle
 10
12.13514641646151
 20
22.82707621501879
 30
0.0
 40
0.019999999999982
100
AcDbArc
 50
233.3444208536999
 51
267.9231430398997
  0
ARC
  5
199
330
2
100
AcDbEntity
  8
GAIKEI
  6
Continuous
 62
     1
100
AcDbCircle
 10
12.13500212315006
 20
25.02918046813955
 30
0.0
 40
0.0200124658447569
100
AcDbArc
 50
91.66222955143757
 51
124.2841903656142
  0
LINE
  5
19A
330
2
100
AcDbEntity
  8
GAIKEI
  6
Continuous
 62
     1
100
AcDbLine
 10
14.15781215170153
 20
24.87813693273881
 30
0.0
 11
14.37801215170151
 21
24.87429332743886
 31
0.0
  0
ARC
  5
19B
330
2
100
AcDbEntity
  8
GAIKEI
  6
Continuous
 62
     1
100
AcDbCircle
 10
10.44461477077715
 20
27.28650586316633
 30
0.0
 40
2.800100886893339
100
AcDbArc
 50
305.2936141479971
 51
306.8457009343224
  0
ARC
  5
19C
330
2
100
AcDbEntity
  8
GAIKEI
  6
Continuous
 62
     1
100
AcDbCircle
 10
10.7372577370815
 20
20.98177625651886
 30
0.0
 40
2.294725864474629
100
AcDbArc
 50
54.14376454979858
 51
54.69948539139973
  0
ARC
  5
19D
330
2
100
AcDbEntity
  8
GAIKEI
  6
Continuous
 62
     1
100
AcDbCircle
 10
19.20781215170149
 20
23.92813693273888
 30
0.0
 40
7.25000000000003
100
AcDbArc
 50
171.6857939205024
 51
188.3142060794975
  0
LINE
  5
19E
330
2
100
AcDbEntity
  8
GAIKEI
  6
Continuous
 62
     1
100
AcDbLine
 10
12.06241970472155
 20
22.85521591737881
 30
0.0
 11
12.03400989412165
 21
22.87977575021887
 31
0.0
  0
LINE
  5
19F
330
2
100
AcDbEntity
  8
GAIKEI
  6
Continuous
 62
     1
100
AcDbLine
 10
14.15781215170153
 20
22.72813693273883
 30
0.0
 11
13.67711416178162
 21
22.74492327643884
 31
0.0
  0
LWPOLYLINE
  5
1A0
330
2
100
AcDbEntity
  8
GAIKEI
  6
Continuous
 62
     1
100
AcDbPolyline
 90
        3
 70
     0
 43
0.0
 10
12.12206667290155
 20
24.94717820577887
 10
12.12784191054146
 20
24.9503393791789
 10
12.1344484265216
 20
24.95158039993885
  0
LINE
  5
1A1
330
2
100
AcDbEntity
  8
GAIKEI
  6
Continuous
 62
     1
100
AcDbLine
 10
12.03400989412165
 20
24.97649811525878
 30
0.0
 11
12.06241970472155
 21
25.00105794809883
 31
0.0
  0
LINE
  5
1A2
330
2
100
AcDbEntity
  8
GAIKEI
  6
Continuous
 62
     1
100
AcDbLine
 10
12.0645235711815
 20
22.85370730613886
 30
0.0
 11
12.06329939456162
 21
22.85457638353887
 31
0.0
  0
LINE
  5
1A3
330
2
100
AcDbEntity
  8
GAIKEI
  6
Continuous
 62
     1
100
AcDbLine
 10
14.37801215170151
 20
22.98198053803878
 30
0.0
 11
14.15781215170153
 21
22.97813693273884
 31
0.0
  0
LWPOLYLINE
  5
1A4
330
2
100
AcDbEntity
  8
GAIKEI
  6
Continuous
 62
     1
100
AcDbPolyline
 90
        3
 70
     0
 43
0.0
 10
13.63851014164169
 20
22.84808800823885
 10
13.25596627484168
 20
22.86258811883886
 10
12.13444842668167
 20
22.90469346553891
  0
LWPOLYLINE
  5
1A5
330
2
100
AcDbEntity
  8
GAIKEI
  6
Continuous
 62
     1
100
AcDbPolyline
 90
        3
 70
     0
 43
0.0
 10
12.1344484265216
 20
22.90469346553891
 10
12.12784191054146
 20
22.90593448631887
 10
12.12206667290155
 20
22.90909565969889
  0
LWPOLYLINE
  5
1A6
330
2
100
AcDbEntity
  8
GAIKEI
  6
Continuous
 62
     1
100
AcDbPolyline
 90
        3
 70
     0
 43
0.0
 10
12.1344484265216
 20
22.94029015817887
 10
12.12784191054146
 20
22.94148801463882
 10
12.12206667290155
 20
22.94453923831884
  0
ARC
  5
1A7
330
2
100
AcDbEntity
  8
GAIKEI
  6
Continuous
 62
     1
100
AcDbCircle
 10
-10.53087988719863
 20
-770.4665733269811
 30
0.0
 40
794.1708729762074
100
AcDbArc
 50
88.25602027819948
 51
88.36457864010204
  0
LWPOLYLINE
  5
1A8
330
2
100
AcDbEntity
  8
GAIKEI
  6
Continuous
 62
     1
100
AcDbPolyline
 90
        3
 70
     0
 43
0.0
 10
12.1344484265216
 20
23.10233087179881
 10
12.12784191054146
 20
23.10333223875887
 10
12.12206667290155
 20
23.10588295721891
  0
LWPOLYLINE
  5
1A9
330
2
100
AcDbEntity
  8
GAIKEI
  6
Continuous
 62
     1
100
AcDbPolyline
 90
        3
 70
     0
 43
0.0
 10
12.1344484265216
 20
23.38080392901884
 10
12.12784191054146
 20
23.38146762139889
 10
12.12206667290155
 20
23.3831582028389
  0
LWPOLYLINE
  5
1AA
330
2
100
AcDbEntity
  8
GAIKEI
  6
Continuous
 62
     1
100
AcDbPolyline
 90
        3
 70
     0
 43
0.0
 10
12.1344484265216
 20
23.45066637195885
 10
12.12784191054146
 20
23.45124534959882
 10
12.12206667290155
 20
23.45272014257887
  0
ARC
  5
1AB
330
2
100
AcDbEntity
  8
GAIKEI
  6
Continuous
 62
     1
100
AcDbCircle
 10
6.412769292821337
 20
-617.1599213037012
 30
0.0
 40
641.2514251550255
100
AcDbArc
 50
89.35436678980213
 51
89.48876150080101
  0
LWPOLYLINE
  5
1AC
330
2
100
AcDbEntity
  8
GAIKEI
  6
Continuous
 62
     1
100
AcDbPolyline
 90
        3
 70
     0
 43
0.0
 10
12.1344484265216
 20
23.7128537541389
 10
12.12784191054146
 20
23.71311480509882
 10
12.12206667290155
 20
23.71377976361884
  0
LWPOLYLINE
  5
1AD
330
2
100
AcDbEntity
  8
GAIKEI
  6
Continuous
 62
     1
100
AcDbPolyline
 90
        3
 70
     0
 43
0.0
 10
12.12206667290155
 20
24.14249410185892
 10
12.12784191054146
 20
24.14315906037882
 10
12.1344484265216
 20
24.14342011133886
  0
LWPOLYLINE
  5
1AE
330
2
100
AcDbEntity
  8
GAIKEI
  6
Continuous
 62
     1
100
AcDbPolyline
 90
        3
 70
     0
 43
0.0
 10
12.12206667290155
 20
24.06538409763891
 10
12.12784191054146
 20
24.06580985281892
 10
12.1344484265216
 20
24.06597699675888
  0
ARC
  5
1AF
330
2
100
AcDbEntity
  8
GAIKEI
  6
Continuous
 62
     1
100
AcDbCircle
 10
23.31243407242135
 20
-767.3090149177612
 30
0.0
 40
792.0863909977691
100
AcDbArc
 50
90.69978325510211
 51
90.80858940119908
  0
LWPOLYLINE
  5
1B0
330
2
100
AcDbEntity
  8
GAIKEI
  6
Continuous
 62
     1
100
AcDbPolyline
 90
        3
 70
     0
 43
0.0
 10
12.12206667290155
 20
24.40355372289889
 10
12.12784191054146
 20
24.40502851587883
 10
12.1344484265216
 20
24.40560749351892
  0
LWPOLYLINE
  5
1B1
330
2
100
AcDbEntity
  8
GAIKEI
  6
Continuous
 62
     1
100
AcDbPolyline
 90
        3
 70
     0
 43
0.0
 10
12.12206667290155
 20
24.75039090825885
 10
12.12784191054146
 20
24.7529416267189
 10
12.1344484265216
 20
24.75394299367883
  0
LWPOLYLINE
  5
1B2
330
2
100
AcDbEntity
  8
GAIKEI
  6
Continuous
 62
     1
100
AcDbPolyline
 90
        3
 70
     0
 43
0.0
 10
12.12206667290155
 20
24.69518624031889
 10
12.12784191054146
 20
24.69756570807886
 10
12.1344484265216
 20
24.6984998450589
  0
LINE
  5
1B3
330
2
100
AcDbEntity
  8
GAIKEI
  6
Continuous
 62
     1
100
AcDbLine
 10
13.63851014164169
 20
25.00847004693878
 30
0.0
 11
13.63851014164169
 21
25.0081858572388
 31
0.0
  0
LWPOLYLINE
  5
1B4
330
2
100
AcDbEntity
  8
GAIKEI
  6
Continuous
 62
     1
100
AcDbPolyline
 90
        3
 70
     0
 43
0.0
 10
13.63851014164169
 20
25.08399089485886
 10
13.25596627484168
 20
25.07208450205883
 10
12.13444842668167
 20
25.03677024451884
  0
LWPOLYLINE
  5
1B5
330
2
100
AcDbEntity
  8
GAIKEI
  6
Continuous
 62
     1
100
AcDbPolyline
 90
        3
 70
     0
 43
0.0
 10
12.12206667290155
 20
24.91173462715892
 10
12.12784191054146
 20
24.91478585083882
 10
12.1344484265216
 20
24.91598370729889
  0
LINE
  5
1B6
330
2
100
AcDbEntity
  8
GAIKEI
  6
Continuous
 62
     1
100
AcDbLine
 10
12.13442277178154
 20
25.04918413125881
 30
0.0
 11
12.1344484265216
 21
25.04903602887885
 31
0.0
  0
LWPOLYLINE
  5
1B7
330
2
100
AcDbEntity
  8
GAIKEI
  6
Continuous
 62
     1
100
AcDbPolyline
 90
        3
 70
     0
 43
0.0
 10
12.12206667290155
 20
25.03200161853886
 10
12.12784191054146
 20
25.03542592309884
 10
12.1344484265216
 20
25.03677024451884
  0
LINE
  5
1B8
330
2
100
AcDbEntity
  8
GAIKEI
  6
Continuous
 62
     1
100
AcDbLine
 10
12.12206667290155
 20
25.04447053482613
 30
0.0
 11
12.12206667290155
 21
25.03200161853886
 31
0.0
  0
LINE
  5
1B9
330
2
100
AcDbEntity
  8
GAIKEI
  6
Continuous
 62
     1
100
AcDbLine
 10
12.1344484265216
 20
25.04903602887885
 30
0.0
 11
13.63851014164169
 21
25.10362064391882
 31
0.0
  0
LWPOLYLINE
  5
1BA
330
2
100
AcDbEntity
  8
GAIKEI
  6
Continuous
 62
     1
100
AcDbPolyline
 90
        4
 70
     0
 43
0.0
 10
13.67711416178162
 20
25.11008292581891
 10
13.67052596502157
 20
25.10713901579891
 10
13.65834499382157
 20
25.10511847449891
 10
13.6385101416617
 20
25.10362064391893
  0
LINE
  5
1BB
330
2
100
AcDbEntity
  8
GAIKEI
  6
Continuous
 62
     1
100
AcDbLine
 10
13.67711416178162
 20
25.11135058903881
 30
0.0
 11
13.67711416178162
 21
25.1100829258188
 31
0.0
  0
LINE
  5
1BC
330
2
100
AcDbEntity
  8
GAIKEI
  6
Continuous
 62
     1
100
AcDbLine
 10
12.12206667290155
 20
24.94717820577887
 30
0.0
 11
12.12206667290155
 21
24.91173462715881
 31
0.0
  0
LWPOLYLINE
  5
1BD
330
2
100
AcDbEntity
  8
GAIKEI
  6
Continuous
 62
     1
100
AcDbPolyline
 90
        3
 70
     0
 43
0.0
 10
12.1344484265216
 20
24.95158039993885
 10
12.62558512712161
 20
24.96995062715882
 10
13.63851014150162
 20
25.00818585723891
  0
LWPOLYLINE
  5
1BE
330
2
100
AcDbEntity
  8
GAIKEI
  6
Continuous
 62
     1
100
AcDbPolyline
 90
        7
 70
     0
 43
0.0
 10
13.67711416178162
 20
25.03531381883886
 10
13.6759046030815
 20
25.02749861075893
 10
13.67052596502157
 20
25.01946744027885
 10
13.66543343780148
 20
25.01554354701887
 10
13.65834499382157
 20
25.01206553675888
 10
13.64914470792149
 20
25.00944519265886
 10
13.6385101416617
 20
25.00818585723891
  0
LINE
  5
1BF
330
2
100
AcDbEntity
  8
GAIKEI
  6
Continuous
 62
     1
100
AcDbLine
 10
13.67711416178162
 20
25.03531381883886
 30
0.0
 11
13.67711416178162
 21
25.06915492387884
 31
0.0
  0
LWPOLYLINE
  5
1C0
330
2
100
AcDbEntity
  8
GAIKEI
  6
Continuous
 62
     1
100
AcDbPolyline
 90
        6
 70
     0
 43
0.0
 10
13.63851014164169
 20
25.08399089485886
 10
13.64909051960166
 20
25.08388428935882
 10
13.65827661926158
 20
25.08297088725885
 10
13.6704568500017
 20
25.07943765793891
 10
13.67585811800148
 20
25.07465726251883
 10
13.67711416178162
 20
25.06915492387884
  0
LINE
  5
1C1
330
2
100
AcDbEntity
  8
GAIKEI
  6
Continuous
 62
     1
100
AcDbLine
 10
12.12206667290155
 20
24.75039090825885
 30
0.0
 11
12.12206667290155
 21
24.69518624031878
 31
0.0
  0
ARC
  5
1C2
330
2
100
AcDbEntity
  8
GAIKEI
  6
Continuous
 62
     1
100
AcDbCircle
 10
-27.66606014209816
 20
1173.751097076759
 30
0.0
 40
1149.686279196775
100
AcDbArc
 50
271.9838950330977
 51
272.0588981492012
  0
LWPOLYLINE
  5
1C3
330
2
100
AcDbEntity
  8
GAIKEI
  6
Continuous
 62
     1
100
AcDbPolyline
 90
        8
 70
     0
 43
0.0
 10
13.67711416178162
 20
24.85216652409884
 10
13.6759046030815
 20
24.83853688757893
 10
13.67390047792168
 20
24.83171867993883
 10
13.67052596502157
 20
24.82496883093882
 10
13.66543343780148
 20
24.81851311671892
 10
13.65834499382157
 20
24.81291011509893
 10
13.64914470792149
 20
24.80882036951892
 10
13.6385101416617
 20
24.80702835669888
  0
LINE
  5
1C4
330
2
100
AcDbEntity
  8
GAIKEI
  6
Continuous
 62
     1
100
AcDbLine
 10
13.67711416178162
 20
24.85216652409884
 30
0.0
 11
13.67711416178162
 21
24.91653613103881
 31
0.0
  0
LINE
  5
1C5
330
2
100
AcDbEntity
  8
GAIKEI
  6
Continuous
 62
     1
100
AcDbLine
 10
12.12206667290155
 20
24.47311566263886
 30
0.0
 11
12.12206667290155
 21
24.40355372289878
 31
0.0
  0
LWPOLYLINE
  5
1C6
330
2
100
AcDbEntity
  8
GAIKEI
  6
Continuous
 62
     1
100
AcDbPolyline
 90
        8
 70
     0
 43
0.0
 10
13.63851014164169
 20
24.95121810667888
 10
13.64909051960166
 20
24.95041705809888
 10
13.65827661926158
 20
24.94778832407883
 10
13.66538320072158
 20
24.94383308201884
 10
13.6704568500017
 20
24.93905505383884
 10
13.67382874358162
 20
24.93381346531885
 10
13.67585811800148
 20
24.92825201497885
 10
13.67711416178162
 20
24.91653613103892
  0
ARC
  5
1C7
330
2
100
AcDbEntity
  8
GAIKEI
  6
Continuous
 62
     1
100
AcDbCircle
 10
38.41548269880144
 20
-1064.830871871541
 30
0.0
 40
1090.063714654512
100
AcDbArc
 50
91.30243600049759
 51
91.38151398190052
  0
LINE
  5
1C8
330
2
100
AcDbEntity
  8
GAIKEI
  6
Continuous
 62
     1
100
AcDbLine
 10
13.67711416178162
 20
24.57856877485881
 30
0.0
 11
13.67711416178162
 21
24.66716593807883
 31
0.0
  0
LINE
  5
1C9
330
2
100
AcDbEntity
  8
GAIKEI
  6
Continuous
 62
     1
100
AcDbLine
 10
12.12206667290155
 20
24.1424941018588
 30
0.0
 11
12.12206667290155
 21
24.0653840976388
 31
0.0
  0
ARC
  5
1CA
330
2
100
AcDbEntity
  8
GAIKEI
  6
Continuous
 62
     1
100
AcDbCircle
 10
-11.71118952177818
 20
858.3341702622787
 30
0.0
 40
834.1995843670982
100
AcDbArc
 50
271.6380259239027
 51
271.7413751578011
  0
LWPOLYLINE
  5
1CB
330
2
100
AcDbEntity
  8
GAIKEI
  6
Continuous
 62
     1
100
AcDbPolyline
 90
        8
 70
     0
 43
0.0
 10
13.67711416178162
 20
24.57856877485892
 10
13.6759046030815
 20
24.56045887369885
 10
13.67390047792168
 20
24.55149218009888
 10
13.67052596502157
 20
24.54268206679888
 10
13.66543343780148
 20
24.53432646193892
 10
13.65834499382157
 20
24.52714692975883
 10
13.64914470792149
 20
24.52198811549886
 10
13.6385101416617
 20
24.5198388399989
  0
LWPOLYLINE
  5
1CC
330
2
100
AcDbEntity
  8
GAIKEI
  6
Continuous
 62
     1
100
AcDbPolyline
 90
        8
 70
     0
 43
0.0
 10
13.63851014164169
 20
24.71829900495891
 10
13.64909051960166
 20
24.71688192553893
 10
13.65827661926158
 20
24.71279517837889
 10
13.66538320072158
 20
24.7068191874389
 10
13.6704568500017
 20
24.69971674055887
 10
13.67382874358162
 20
24.69202403637883
 10
13.67585811800148
 20
24.68394853497887
 10
13.67711416178162
 20
24.66716593809883
  0
ARC
  5
1CD
330
2
100
AcDbEntity
  8
GAIKEI
  6
Continuous
 62
     1
100
AcDbCircle
 10
-1.865488672478306
 20
732.8260053215788
 30
0.0
 40
708.8208552371002
100
AcDbArc
 50
271.1317238553972
 51
271.2533273228982
  0
LWPOLYLINE
  5
1CE
330
2
100
AcDbEntity
  8
GAIKEI
  6
Continuous
 62
     1
100
AcDbPolyline
 90
        8
 70
     0
 43
0.0
 10
13.67711416178162
 20
24.24130222509882
 10
13.6759046030815
 20
24.22048478259887
 10
13.67390047792168
 20
24.21024732545891
 10
13.67052596502157
 20
24.20023934315884
 10
13.66543343780148
 20
24.19080175245893
 10
13.65834499382157
 20
24.18274847237888
 10
13.64914470792149
 20
24.17702557011887
 10
13.6385101416617
 20
24.17472941795882
  0
LINE
  5
1CF
330
2
100
AcDbEntity
  8
GAIKEI
  6
Continuous
 62
     1
100
AcDbLine
 10
13.67711416178162
 20
24.24130222509882
 30
0.0
 11
13.67711416178162
 21
24.34545443695879
 31
0.0
  0
LWPOLYLINE
  5
1D0
330
2
100
AcDbEntity
  8
GAIKEI
  6
Continuous
 62
     1
100
AcDbPolyline
 90
        8
 70
     0
 43
0.0
 10
13.63851014164169
 20
24.4080333342389
 10
13.64909051960166
 20
24.40613893757882
 10
13.65827661926158
 20
24.40099421657885
 10
13.66538320072158
 20
24.39358244837888
 10
13.6704568500017
 20
24.38485081977888
 10
13.67382874358162
 20
24.37546001543888
 10
13.67585811800148
 20
24.3656609492989
 10
13.67711416178162
 20
24.34545443697891
  0
ARC
  5
1D1
330
2
100
AcDbEntity
  8
GAIKEI
  6
Continuous
 62
     1
100
AcDbCircle
 10
13.97340127512137
 20
-649.5029442167212
 30
0.0
 40
673.9110607608267
100
AcDbArc
 50
90.02847237630225
 51
90.15634758630019
  0
LINE
  5
1D2
330
2
100
AcDbEntity
  8
GAIKEI
  6
Continuous
 62
     1
100
AcDbLine
 10
12.12206667290155
 20
23.79088976783885
 30
0.0
 11
12.12206667290155
 21
23.71377976361884
 31
0.0
  0
ARC
  5
1D3
330
2
100
AcDbEntity
  8
GAIKEI
  6
Continuous
 62
     1
100
AcDbCircle
 10
6.086760861521668
 20
697.307195892379
 30
0.0
 40
673.544050374833
100
AcDbArc
 50
270.5144602334996
 51
270.6424114759004
  0
LWPOLYLINE
  5
1D4
330
2
100
AcDbEntity
  8
GAIKEI
  6
Continuous
 62
     1
100
AcDbPolyline
 90
        8
 70
     0
 43
0.0
 10
13.67711416178162
 20
23.87338087455885
 10
13.6759046030815
 20
23.85189364701887
 10
13.67390047792168
 20
23.84138753999889
 10
13.67052596502157
 20
23.83116133971885
 10
13.66543343780148
 20
23.82156558031886
 10
13.65834499382157
 20
23.81342686349888
 10
13.64914470792149
 20
23.80770007079889
 10
13.6385101416617
 20
23.80548180537892
  0
LINE
  5
1D5
330
2
100
AcDbEntity
  8
GAIKEI
  6
Continuous
 62
     1
100
AcDbLine
 10
13.67711416178162
 20
23.87338087455885
 30
0.0
 11
13.67711416178162
 21
23.9828929909188
 31
0.0
  0
LWPOLYLINE
  5
1D6
330
2
100
AcDbEntity
  8
GAIKEI
  6
Continuous
 62
     1
100
AcDbPolyline
 90
        8
 70
     0
 43
0.0
 10
13.63851014164169
 20
24.05079206011885
 10
13.64909051960166
 20
24.04860578293892
 10
13.65827661926158
 20
24.04290668921885
 10
13.66538320072158
 20
24.03478465929891
 10
13.6704568500017
 20
24.02527856163886
 10
13.67382874358162
 20
24.01510889445888
 10
13.67585811800148
 20
24.00454546445883
 10
13.67711416178162
 20
23.98289299091891
  0
LINE
  5
1D7
330
2
100
AcDbEntity
  8
GAIKEI
  6
Continuous
 62
     1
100
AcDbLine
 10
12.12206667290155
 20
23.45272014257887
 30
0.0
 11
12.12206667290155
 21
23.38315820283879
 31
0.0
  0
ARC
  5
1D8
330
2
100
AcDbEntity
  8
GAIKEI
  6
Continuous
 62
     1
100
AcDbCircle
 10
14.02812190066169
 20
731.2869186770988
 30
0.0
 40
707.8387853717945
100
AcDbArc
 50
269.8467170356983
 51
269.9684630016991
  0
LWPOLYLINE
  5
1D9
330
2
100
AcDbEntity
  8
GAIKEI
  6
Continuous
 62
     1
100
AcDbPolyline
 90
        8
 70
     0
 43
0.0
 10
13.67711416178162
 20
23.51081942851886
 10
13.6759046030815
 20
23.49076573547882
 10
13.67390047792168
 20
23.48101938953892
 10
13.67052596502157
 20
23.47157598301885
 10
13.66543343780148
 20
23.46276135469884
 10
13.65834499382157
 20
23.45533387543889
 10
13.64914470792149
 20
23.45016377063882
 10
13.6385101416617
 20
23.44824053123887
  0
LINE
  5
1DA
330
2
100
AcDbEntity
  8
GAIKEI
  6
Continuous
 62
     1
100
AcDbLine
 10
13.67711416178162
 20
23.51081942851886
 30
0.0
 11
13.67711416178162
 21
23.61497164037883
 31
0.0
  0
LWPOLYLINE
  5
1DB
330
2
100
AcDbEntity
  8
GAIKEI
  6
Continuous
 62
     1
100
AcDbPolyline
 90
        8
 70
     0
 43
0.0
 10
13.63851014164169
 20
23.68154444751883
 10
13.64909051960166
 20
23.6792802978789
 10
13.65827661926158
 20
23.67358469847886
 10
13.66538320072158
 20
23.66554744767882
 10
13.6704568500017
 20
23.65619740401883
 10
13.67382874358162
 20
23.64624435191888
 10
13.67585811800148
 20
23.63595058017882
 10
13.67711416178162
 20
23.61497164039883
  0
ARC
  5
1DC
330
2
100
AcDbEntity
  8
GAIKEI
  6
Continuous
 62
     1
100
AcDbCircle
 10
-1.157997269598638
 20
-650.9826890262813
 30
0.0
 40
674.826469961252
100
AcDbArc
 50
88.74360978839957
 51
88.87133903340219
  0
LINE
  5
1DD
330
2
100
AcDbEntity
  8
GAIKEI
  6
Continuous
 62
     1
100
AcDbLine
 10
12.12206667290155
 20
23.16108762515887
 30
0.0
 11
12.12206667290155
 21
23.10588295721879
 31
0.0
  0
ARC
  5
1DE
330
2
100
AcDbEntity
  8
GAIKEI
  6
Continuous
 62
     1
100
AcDbCircle
 10
23.83708554534172
 20
855.0209290053388
 30
0.0
 40
831.9454671653611
100
AcDbArc
 50
269.1940170879025
 51
269.2976102557027
  0
LWPOLYLINE
  5
1DF
330
2
100
AcDbEntity
  8
GAIKEI
  6
Continuous
 62
     1
100
AcDbPolyline
 90
        8
 70
     0
 43
0.0
 10
13.67711416178162
 20
23.18910792739882
 10
13.6759046030815
 20
23.17245076407892
 10
13.67390047792168
 20
23.16441821943886
 10
13.67052596502157
 20
23.15668199309891
 10
13.66543343780148
 20
23.14951133311888
 10
13.65834499382157
 20
23.14352214483893
 10
13.64914470792149
 20
23.13941481383892
 10
13.6385101416617
 20
23.13797486051885
  0
LINE
  5
1E0
330
2
100
AcDbEntity
  8
GAIKEI
  6
Continuous
 62
     1
100
AcDbLine
 10
13.67711416178162
 20
23.18910792739882
 30
0.0
 11
13.67711416178162
 21
23.27770509061884
 31
0.0
  0
LWPOLYLINE
  5
1E1
330
2
100
AcDbEntity
  8
GAIKEI
  6
Continuous
 62
     1
100
AcDbPolyline
 90
        8
 70
     0
 43
0.0
 10
13.63851014164169
 20
23.33643502549887
 10
13.64909051960166
 20
23.33431463413888
 10
13.65827661926158
 20
23.32918005397892
 10
13.66538320072158
 20
23.32201432441889
 10
13.6704568500017
 20
23.31373558217888
 10
13.67382874358162
 20
23.30497341923888
 10
13.67585811800148
 20
23.29595693187889
 10
13.67711416178162
 20
23.27770509061884
  0
LINE
  5
1E2
330
2
100
AcDbEntity
  8
GAIKEI
  6
Continuous
 62
     1
100
AcDbLine
 10
12.12206667290155
 20
22.94453923831884
 30
0.0
 11
12.12206667290155
 21
22.90909565969878
 31
0.0
  0
ARC
  5
1E3
330
2
100
AcDbEntity
  8
GAIKEI
  6
Continuous
 62
     1
100
AcDbCircle
 10
39.69889972046184
 20
1167.472765498599
 30
0.0
 40
1144.864352700349
100
AcDbArc
 50
268.6203786110979
 51
268.6956714065029
  0
LWPOLYLINE
  5
1E4
330
2
100
AcDbEntity
  8
GAIKEI
  6
Continuous
 62
     1
100
AcDbPolyline
 90
        8
 70
     0
 43
0.0
 10
13.67711416178162
 20
22.93973773443884
 10
13.6759046030815
 20
22.92810762003887
 10
13.67390047792168
 20
22.9225751581389
 10
13.67052596502157
 20
22.91730338773891
 10
13.66543343780148
 20
22.91247861021884
 10
13.65834499382157
 20
22.90851397639881
 10
13.64914470792149
 20
22.90587147337885
 10
13.6385101416617
 20
22.90505575879888
  0
LINE
  5
1E5
330
2
100
AcDbEntity
  8
GAIKEI
  6
Continuous
 62
     1
100
AcDbLine
 10
13.67711416178162
 20
22.93973773443884
 30
0.0
 11
13.67711416178162
 21
23.00410734137881
 31
0.0
  0
LWPOLYLINE
  5
1E6
330
2
100
AcDbEntity
  8
GAIKEI
  6
Continuous
 62
     1
100
AcDbPolyline
 90
        8
 70
     0
 43
0.0
 10
13.63851014164169
 20
23.04924550877888
 10
13.64909051960166
 20
23.04747643437884
 10
13.65827661926158
 20
23.04340548195887
 10
13.66538320072158
 20
23.03781270517891
 10
13.6704568500017
 20
23.03141564531882
 10
13.67382874358162
 20
23.02470207309887
 10
13.67585811800148
 20
23.01784546669887
 10
13.67711416178162
 20
23.00410734137881
  0
ARC
  5
1E7
330
2
100
AcDbEntity
  8
GAIKEI
  6
Continuous
 62
     1
100
AcDbCircle
 10
-25.7181271722987
 20
-1070.704253965961
 30
0.0
 40
1094.461357250172
100
AcDbArc
 50
87.93920957669774
 51
88.01799724100293
  0
LINE
  5
1E8
330
2
100
AcDbEntity
  8
GAIKEI
  6
Continuous
 62
     1
100
AcDbLine
 10
12.12206667290155
 20
22.82427224693879
 30
0.0
 11
12.12206667290155
 21
22.8120592220788
 31
0.0
  0
LWPOLYLINE
  5
1E9
330
2
100
AcDbEntity
  8
GAIKEI
  6
Continuous
 62
     1
100
AcDbPolyline
 90
        3
 70
     0
 43
0.0
 10
12.1344484265216
 20
22.81950362095881
 10
12.62558512712161
 20
22.80396963469889
 10
13.63851014150162
 20
22.77228297063891
  0
LWPOLYLINE
  5
1EA
330
2
100
AcDbEntity
  8
GAIKEI
  6
Continuous
 62
     1
100
AcDbPolyline
 90
        6
 70
     0
 43
0.0
 10
13.67711416178162
 20
22.78711894159892
 10
13.6759046030815
 20
22.78165431273885
 10
13.67052596502157
 20
22.77687221263887
 10
13.65834499382157
 20
22.77331360707888
 10
13.64914470792149
 20
22.77239459863881
 10
13.6385101416617
 20
22.7722829706189
  0
LINE
  5
1EB
330
2
100
AcDbEntity
  8
GAIKEI
  6
Continuous
 62
     1
100
AcDbLine
 10
13.67711416178162
 20
22.78711894159881
 30
0.0
 11
13.67711416178162
 21
22.82096004663879
 31
0.0
  0
LWPOLYLINE
  5
1EC
330
2
100
AcDbEntity
  8
GAIKEI
  6
Continuous
 62
     1
100
AcDbPolyline
 90
        7
 70
     0
 43
0.0
 10
13.63851014164169
 20
22.84808800823885
 10
13.64909051960166
 20
22.84684342013884
 10
13.65827661926158
 20
22.84423458861886
 10
13.66538320072158
 20
22.84076222457884
 10
13.6704568500017
 20
22.83687303591887
 10
13.67585811800148
 20
22.82883967259886
 10
13.67711416178162
 20
22.8209600466389
  0
LWPOLYLINE
  5
1ED
330
2
100
AcDbEntity
  8
GAIKEI
  6
Continuous
 62
     1
100
AcDbPolyline
 90
        3
 70
     0
 43
0.0
 10
12.1232063493016
 20
22.81103144029885
 10
12.12261391094165
 20
22.81151727339886
 10
12.12206667290155
 20
22.81205922207892
  0
LINE
  5
1EE
330
2
100
AcDbEntity
  8
GAIKEI
  6
Continuous
 62
     1
100
AcDbLine
 10
12.13442277178154
 20
22.80708973421884
 30
0.0
 11
12.1344484265216
 21
22.8072378365988
 31
0.0
  0
LINE
  5
1EF
330
2
100
AcDbEntity
  8
GAIKEI
  6
Continuous
 62
     1
100
AcDbLine
 10
13.67711416178162
 20
22.74492327643884
 30
0.0
 11
13.67711416178162
 21
22.74619093965885
 31
0.0
  0
LWPOLYLINE
  5
1F0
330
2
100
AcDbEntity
  8
GAIKEI
  6
Continuous
 62
     1
100
AcDbPolyline
 90
        4
 70
     0
 43
0.0
 10
13.63851014164169
 20
22.75265322155883
 10
13.65827661926158
 20
22.75116360871891
 10
13.6704568500017
 20
22.74915093999891
 10
13.67711416178162
 20
22.74619093965885
  0
LINE
  5
1F1
330
2
100
AcDbEntity
  8
GAIKEI
  6
Continuous
 62
     1
100
AcDbLine
 10
13.63851014164169
 20
22.75265322155883
 30
0.0
 11
12.1344484265216
 21
22.8072378365988
 31
0.0
  0
LWPOLYLINE
  5
1F2
330
2
100
AcDbEntity
  8
GAIKEI
  6
Continuous
 62
     1
100
AcDbPolyline
 90
        3
 70
     0
 43
0.0
 10
12.1344484265216
 20
22.81950362095881
 10
12.12784191054146
 20
22.82084794237881
 10
12.12206667290155
 20
22.8242722469389
  0
LWPOLYLINE
  5
1F3
330
2
100
AcDbEntity
  8
GAIKEI
  6
Continuous
 62
     1
100
AcDbPolyline
 90
        3
 70
     0
 43
0.0
 10
12.1344484265216
 20
23.15777402041886
 10
12.12784191054146
 20
23.15870815739891
 10
12.12206667290155
 20
23.16108762515887
  0
LWPOLYLINE
  5
1F4
330
2
100
AcDbEntity
  8
GAIKEI
  6
Continuous
 62
     1
100
AcDbPolyline
 90
        3
 70
     0
 43
0.0
 10
12.1344484265216
 20
23.79029686871888
 10
12.12784191054146
 20
23.79046401267885
 10
12.12206667290155
 20
23.79088976783885
  0
LWPOLYLINE
  5
1F5
330
2
100
AcDbEntity
  8
GAIKEI
  6
Continuous
 62
     1
100
AcDbPolyline
 90
        3
 70
     0
 43
0.0
 10
12.12206667290155
 20
24.47311566263886
 10
12.12784191054146
 20
24.47480624407888
 10
12.1344484265216
 20
24.47546993645892
  0
LINE
  5
1F6
330
2
100
AcDbEntity
  8
GAIKEI
  6
Continuous
 62
     1
100
AcDbLine
 10
27.73865625792149
 20
26.9341218078788
 30
0.0
 11
27.52948247534158
 21
24.54325453245883
 31
0.0
  0
LINE
  5
1F7
330
2
100
AcDbEntity
  8
GAIKEI
  6
Continuous
 62
     1
100
AcDbLine
 10
27.52948247534158
 20
24.54325453245883
 30
0.0
 11
26.93176565648168
 21
24.59554797809881
 31
0.0
  0
LINE
  5
1F8
330
2
100
AcDbEntity
  8
GAIKEI
  6
Continuous
 62
     1
100
AcDbLine
 10
25.6887531885015
 20
3.50362250875878
 30
0.0
 11
25.47957940590158
 21
1.112755233338816
 31
0.0
  0
LINE
  5
1F9
330
2
100
AcDbEntity
  8
GAIKEI
  6
Continuous
 62
     1
100
AcDbLine
 10
25.47957940590158
 20
1.112755233338816
 30
0.0
 11
24.88186258706168
 21
1.165048678978791
 31
0.0
  0
LINE
  5
1FA
330
2
100
AcDbEntity
  8
GAIKEI
  6
Continuous
 62
     1
100
AcDbLine
 10
25.09103636964159
 20
3.555915954398869
 30
0.0
 11
25.6887531885015
 21
3.50362250875878
 31
0.0
  0
LINE
  5
1FB
330
2
100
AcDbEntity
  8
GAIKEI
  6
Continuous
 62
     1
100
AcDbLine
 10
27.73865625792149
 20
26.9341218078788
 30
0.0
 11
27.7421424876415
 21
26.97396959579885
 31
0.0
  0
LINE
  5
1FC
330
2
100
AcDbEntity
  8
GAIKEI
  6
Continuous
 62
     1
100
AcDbLine
 10
27.14442566878159
 20
27.02626304143882
 30
0.0
 11
27.7421424876415
 21
26.97396959579885
 31
0.0
  0
LINE
  5
1FD
330
2
100
AcDbEntity
  8
GAIKEI
  6
Continuous
 62
     1
100
AcDbLine
 10
20.37923462166162
 20
30.58944728377878
 30
0.0
 11
20.51851271632171
 21
30.57726202941888
 31
0.0
  0
ARC
  5
1FE
330
2
100
AcDbEntity
  8
GAIKEI
  6
Continuous
 62
     1
100
AcDbCircle
 10
20.36538041026159
 20
30.42994739627886
 30
0.0
 40
0.1601004478512836
100
AcDbArc
 50
85.03593652359986
 51
139.5198245304007
  0
LINE
  5
1FF
330
2
100
AcDbEntity
  8
GAIKEI
  6
Continuous
 62
     1
100
AcDbLine
 10
20.3792346216016
 20
30.58944728379879
 30
0.0
 11
20.37944780562151
 21
30.58942863259881
 31
0.0
  0
LINE
  5
200
330
2
100
AcDbEntity
  8
GAIKEI
  6
Continuous
 62
     1
100
AcDbLine
 10
20.37923462166162
 20
30.58944728377878
 30
0.0
 11
20.37944780566153
 21
30.58942863259881
 31
0.0
  0
LINE
  5
201
330
2
100
AcDbEntity
  8
GAIKEI
  6
Continuous
 62
     1
100
AcDbLine
 10
20.37923462166162
 20
30.58944728377878
 30
0.0
 11
20.37944780566153
 21
30.58942863259881
 31
0.0
  0
LINE
  5
202
330
2
100
AcDbEntity
  8
GAIKEI
  6
Continuous
 62
     1
100
AcDbLine
 10
24.37745036678161
 20
30.55798823889882
 30
0.0
 11
24.45516058746165
 21
30.59422510991885
 31
0.0
  0
LINE
  5
203
330
2
100
AcDbEntity
  8
GAIKEI
  6
Continuous
 62
     1
100
AcDbLine
 10
25.48174465884171
 20
30.46137500715884
 30
0.0
 11
25.45863213640149
 21
30.1971976669588
 31
0.0
  0
LINE
  5
204
330
2
100
AcDbEntity
  8
GAIKEI
  6
Continuous
 62
     1
100
AcDbLine
 10
24.37745036678161
 20
30.55798823889882
 30
0.0
 11
24.34458148458151
 21
30.18229519607883
 31
0.0
  0
LWPOLYLINE
  5
205
330
2
100
AcDbEntity
  8
GAIKEI
  6
Continuous
 62
     1
100
AcDbPolyline
 90
        5
 70
     0
 43
0.0
 10
24.93333404256163
 20
30.55239035339889
 10
24.86332065466167
 20
30.55555918711889
 10
24.79323972980154
 20
30.55311676009888
 10
24.72311678524164
 20
30.54558834455884
 10
24.6535239398217
 20
30.53383493097886
  0
ARC
  5
206
330
2
100
AcDbEntity
  8
GAIKEI
  6
Continuous
 62
     1
100
AcDbCircle
 10
25.31313437804164
 20
30.24004945659886
 30
0.0
 40
0.278234480463552
100
AcDbArc
 50
52.69911643999959
 51
82.91663609190164
  0
ARC
  5
207
330
2
100
AcDbEntity
  8
GAIKEI
  6
Continuous
 62
     1
100
AcDbCircle
 10
25.33299044798167
 20
30.23965893809884
 30
0.0
 40
0.276878981718591
100
AcDbArc
 50
87.00761984350297
 51
117.3766276244987
  0
LINE
  5
208
330
2
100
AcDbEntity
  8
GAIKEI
  6
Continuous
 62
     1
100
AcDbLine
 10
24.51922368304162
 20
30.58862031531885
 30
0.0
 11
24.45516058746165
 21
30.59422510991885
 31
0.0
  0
LINE
  5
209
330
2
100
AcDbEntity
  8
GAIKEI
  6
Continuous
 62
     1
100
AcDbLine
 10
25.34744440206163
 20
30.51616039149883
 30
0.0
 11
25.4115074976416
 21
30.51055559687882
 31
0.0
  0
LINE
  5
20A
330
2
100
AcDbEntity
  8
GAIKEI
  6
Continuous
 62
     1
100
AcDbLine
 10
24.51922368304162
 20
30.58862031531885
 30
0.0
 11
24.93333404256163
 21
30.55239035339878
 31
0.0
  0
LINE
  5
20B
330
2
100
AcDbEntity
  8
GAIKEI
  6
Continuous
 62
     1
100
AcDbLine
 10
25.4115074976416
 20
30.51055559687882
 30
0.0
 11
25.48174465884171
 21
30.46137500715884
 31
0.0
  0
LINE
  5
20C
330
2
100
AcDbEntity
  8
GAIKEI
  6
Continuous
 62
     1
100
AcDbLine
 10
24.65352393980169
 20
30.53383493095885
 30
0.0
 11
24.62065505758159
 21
30.15814188813886
 31
0.0
  0
LINE
  5
20D
330
2
100
AcDbEntity
  8
GAIKEI
  6
Continuous
 62
     1
100
AcDbLine
 10
25.20567108582162
 20
30.4855283150788
 30
0.0
 11
25.1828824269216
 21
30.22505275193885
 31
0.0
  0
LWPOLYLINE
  5
20E
330
2
100
AcDbEntity
  8
GAIKEI
  6
Continuous
 62
     1
100
AcDbPolyline
 90
        5
 70
     0
 43
0.0
 10
25.20567108582162
 20
30.48552831507891
 10
25.13977327516153
 20
30.50900518063884
 10
25.07242009056148
 20
30.52852726873891
 10
25.00333717760162
 20
30.54324686561881
 10
24.93333404258164
 20
30.55239035339889
  0
LINE
  5
20F
330
2
100
AcDbEntity
  8
GAIKEI
  6
Continuous
 62
     1
100
AcDbLine
 10
24.93333404256163
 20
30.55239035339878
 30
0.0
 11
25.34744440206163
 21
30.51616039149883
 31
0.0
  0
ARC
  5
210
330
2
100
AcDbEntity
  8
GAIKEI
  6
Continuous
 62
     1
100
AcDbCircle
 10
24.50476972894165
 20
30.31211886191886
 30
0.0
 40
0.2768789817186256
100
AcDbArc
 50
87.00761984350297
 51
117.3766276244987
  0
ARC
  5
211
330
2
100
AcDbEntity
  8
GAIKEI
  6
Continuous
 62
     1
100
AcDbCircle
 10
24.48491365900162
 20
30.31250938041888
 30
0.0
 40
0.278234480463594
100
AcDbArc
 50
52.69911643999959
 51
82.91663609190164
  0
LINE
  5
212
330
2
100
AcDbEntity
  8
GAIKEI
  6
Continuous
 62
     1
100
AcDbLine
 10
13.56909657742148
 20
11.3391238097322
 30
0.0
 11
13.56909657742148
 21
6.362724157265461
 31
0.0
  0
ARC
  5
213
330
2
100
AcDbEntity
  8
GAIKEI
  6
Continuous
 62
     1
100
AcDbCircle
 10
14.45689836564151
 20
8.609386041178822
 30
0.0
 40
2.879031583821632
100
AcDbArc
 50
108.8370417620007
 51
134.4828295605023
  0
ARC
  5
214
330
2
100
AcDbEntity
  8
GAIKEI
  6
Continuous
 62
     1
100
AcDbCircle
 10
12.50964348098154
 20
10.59211521029886
 30
0.0
 40
0.1
100
AcDbArc
 50
134.4828295605023
 51
216.1440781139013
  0
ARC
  5
215
330
2
100
AcDbEntity
  8
GAIKEI
  6
Continuous
 62
     1
100
AcDbCircle
 10
12.50964348098154
 20
7.109732756678795
 30
0.0
 40
0.0999999999999996
100
AcDbArc
 50
143.8559218860987
 51
225.5171704394977
  0
ARC
  5
216
330
2
100
AcDbEntity
  8
GAIKEI
  6
Continuous
 62
     1
100
AcDbCircle
 10
13.55961121400168
 20
11.23957468677883
 30
0.0
 40
0.1
100
AcDbArc
 50
53.13010235420026
 51
108.8370417620007
  0
LINE
  5
217
330
2
100
AcDbEntity
  8
GAIKEI
  6
Continuous
 62
     1
100
AcDbLine
 10
13.89801215170149
 20
11.11077398347879
 30
0.0
 11
13.63781215170155
 21
11.30592398349881
 31
0.0
  0
LINE
  5
218
330
2
100
AcDbEntity
  8
GAIKEI
  6
Continuous
 62
     1
100
AcDbLine
 10
13.61961121400162
 20
11.31957468677888
 30
0.0
 11
13.63781215170155
 21
11.30592398349881
 31
0.0
  0
ARC
  5
219
330
2
100
AcDbEntity
  8
GAIKEI
  6
Continuous
 62
     1
100
AcDbCircle
 10
13.55961121400168
 20
6.462273280218823
 30
0.0
 40
0.0999999999999998
100
AcDbArc
 50
251.1629582379993
 51
306.8698976457998
  0
ARC
  5
21A
330
2
100
AcDbEntity
  8
GAIKEI
  6
Continuous
 62
     1
100
AcDbCircle
 10
10.12572881836166
 20
8.850923983498887
 30
0.0
 40
2.852083333333334
100
AcDbArc
 50
323.8559218860987
 51
36.14407811390127
  0
LINE
  5
21B
330
2
100
AcDbEntity
  8
GAIKEI
  6
Continuous
 62
     1
100
AcDbLine
 10
13.63781215170155
 20
6.395923983498846
 30
0.0
 11
13.89801215170149
 21
6.591073983498858
 31
0.0
  0
ARC
  5
21C
330
2
100
AcDbEntity
  8
GAIKEI
  6
Continuous
 62
     1
100
AcDbCircle
 10
14.45689836564151
 20
9.092461925798829
 30
0.0
 40
2.879031583821626
100
AcDbArc
 50
225.5171704394977
 51
251.1629582379993
  0
LINE
  5
21D
330
2
100
AcDbEntity
  8
GAIKEI
  6
Continuous
 62
     1
100
AcDbLine
 10
13.63781215170155
 20
6.395923983498846
 30
0.0
 11
13.61961121400162
 21
6.382273280218782
 31
0.0
  0
LINE
  5
21E
330
2
100
AcDbEntity
  8
GAIKEI
  6
Continuous
 62
     1
100
AcDbLine
 10
14.08652772598151
 20
10.12813693273881
 30
0.0
 11
14.08652772598151
 21
7.128136932738811
 31
0.0
  0
LINE
  5
21F
330
2
100
AcDbEntity
  8
GAIKEI
  6
Continuous
 62
     1
100
AcDbLine
 10
24.21806444226167
 20
30.77557950873881
 30
0.0
 11
24.21009488478166
 21
30.77627675467886
 31
0.0
  0
LINE
  5
220
330
2
100
AcDbEntity
  8
GAIKEI
  6
Continuous
 62
     1
100
AcDbLine
 10
24.13132338784084
 20
30.73954500241098
 30
0.0
 11
24.21009488478166
 21
30.77627675467886
 31
0.0
  0
LINE
  5
221
330
2
100
AcDbEntity
  8
GAIKEI
  6
Continuous
 62
     1
100
AcDbLine
 10
20.69652612272165
 20
30.20031273289885
 30
0.0
 11
20.68622388538159
 21
30.21259046125886
 31
0.0
  0
LINE
  5
222
330
2
100
AcDbEntity
  8
GAIKEI
  6
Continuous
 62
     1
100
AcDbLine
 10
20.24220409350158
 20
30.51477053473877
 30
0.0
 11
20.29156349154158
 21
31.07895103581882
 31
0.0
  0
LINE
  5
223
330
2
100
AcDbEntity
  8
GAIKEI
  6
Continuous
 62
     1
100
AcDbLine
 10
18.25932630742153
 20
31.25674875101879
 30
0.0
 11
18.21036891974148
 21
30.69716324917886
 31
0.0
  0
LINE
  5
224
330
2
100
AcDbEntity
  8
GAIKEI
  6
Continuous
 62
     1
100
AcDbLine
 10
18.21051075308168
 20
30.69878441151877
 30
0.0
 11
18.21035280872155
 21
30.6969790992988
 31
0.0
  0
LINE
  5
225
330
2
100
AcDbEntity
  8
GAIKEI
  6
Continuous
 62
     1
100
AcDbLine
 10
20.27338271242155
 20
31.10061804461884
 30
0.0
 11
18.28099331624156
 21
31.27492953011881
 31
0.0
  0
LINE
  5
226
330
2
100
AcDbEntity
  8
GAIKEI
  6
Continuous
 62
     1
100
AcDbLine
 10
20.3370425433015
 20
28.6156135323788
 30
0.0
 11
20.33791410074167
 21
28.62557547935887
 31
0.0
  0
LINE
  5
227
330
2
100
AcDbEntity
  8
GAIKEI
  6
Continuous
 62
     1
100
AcDbLine
 10
20.23829463092164
 20
28.63429105361888
 30
0.0
 11
20.2374230735017
 21
28.62432910663881
 31
0.0
  0
LINE
  5
228
330
2
100
AcDbEntity
  8
GAIKEI
  6
Continuous
 62
     1
100
AcDbLine
 10
20.68622388538159
 20
30.21259046125886
 30
0.0
 11
20.51471833164163
 21
30.41698282105881
 31
0.0
  0
LINE
  5
229
330
2
100
AcDbEntity
  8
GAIKEI
  6
Continuous
 62
     1
100
AcDbLine
 10
20.51471833164163
 20
30.41698282105881
 30
0.0
 11
20.4724533700616
 21
30.42068052605884
 31
0.0
  0
ARC
  5
22A
330
2
100
AcDbEntity
  8
GAIKEI
  6
Continuous
 62
     1
100
AcDbCircle
 10
20.27163959758167
 20
31.08069415065882
 30
0.0
 40
0.0199999999999997
100
AcDbArc
 50
354.9999999999999
 51
84.99999999999998
  0
ARC
  5
22B
330
2
100
AcDbEntity
  8
GAIKEI
  6
Continuous
 62
     1
100
AcDbCircle
 10
18.27925020140168
 20
31.25500563615879
 30
0.0
 40
0.0199999999999999
100
AcDbArc
 50
84.99999999999998
 51
175.0
  0
LINE
  5
22C
330
2
100
AcDbEntity
  8
GAIKEI
  6
Continuous
 62
     1
100
AcDbLine
 10
20.67909497416161
 20
30.00107379327881
 30
0.0
 11
20.69652612272165
 21
30.20031273289885
 31
0.0
  0
LINE
  5
22D
330
2
100
AcDbEntity
  8
GAIKEI
  6
Continuous
 62
     1
100
AcDbLine
 10
20.24258999282159
 20
30.51918138409883
 30
0.0
 11
20.23578381618148
 21
30.44138642903886
 31
0.0
  0
LINE
  5
22E
330
2
100
AcDbEntity
  8
GAIKEI
  6
Continuous
 62
     1
100
AcDbLine
 10
18.21035280872155
 20
30.6969790992988
 30
0.0
 11
18.20354663208167
 21
30.61918414423883
 31
0.0
  0
LINE
  5
22F
330
2
100
AcDbEntity
  8
GAIKEI
  6
Continuous
 62
     1
100
AcDbLine
 10
20.4724533700616
 20
30.42068052605884
 30
0.0
 11
17.93801215170168
 21
30.64241540103933
 31
0.0
  0
LINE
  5
230
330
2
100
AcDbEntity
  8
GAIKEI
  6
Continuous
 62
     1
100
AcDbLine
 10
21.29338945340163
 20
28.53194401933888
 30
0.0
 11
21.29426101084158
 21
28.54190596631884
 31
0.0
  0
CIRCLE
  5
231
330
2
100
AcDbEntity
  8
GAIKEI
  6
Continuous
 62
     1
100
AcDbCircle
 10
21.58187496206159
 20
31.82934847141883
 30
0.0
 40
0.2
  0
LINE
  5
232
330
2
100
AcDbEntity
  8
GAIKEI
  6
Continuous
 62
     1
100
AcDbLine
 10
22.59798451946148
 20
32.54350627417887
 30
0.0
 11
20.70521459310151
 21
32.70910218543884
 31
0.0
  0
LINE
  5
233
330
2
100
AcDbEntity
  8
GAIKEI
  6
Continuous
 62
     1
100
AcDbLine
 10
22.59798451946148
 20
32.54350627417887
 30
0.0
 11
22.41699190872163
 21
30.47475126711879
 31
0.0
  0
LINE
  5
234
330
2
100
AcDbEntity
  8
GAIKEI
  6
Continuous
 62
     1
100
AcDbLine
 10
21.7416770675415
 20
28.49272393509887
 30
0.0
 11
21.74254862496167
 21
28.50268588207882
 31
0.0
  0
LINE
  5
235
330
2
100
AcDbEntity
  8
GAIKEI
  6
Continuous
 62
     1
100
AcDbLine
 10
20.50475638459506
 20
30.41785437849148
 30
0.0
 11
20.70521459304149
 21
32.70910218461882
 31
0.0
  0
LINE
  5
236
330
2
100
AcDbEntity
  8
GAIKEI
  6
Continuous
 62
     1
100
AcDbLine
 10
22.59798451940168
 20
32.54350627333884
 30
0.0
 11
22.41699190868161
 21
30.47475126711879
 31
0.0
  0
ARC
  5
237
330
2
100
AcDbEntity
  8
GAIKEI
  6
Continuous
 62
     1
100
AcDbCircle
 10
24.27086366486168
 20
30.69065458837883
 30
0.0
 40
0.1000000000000004
100
AcDbArc
 50
84.99999999990206
 51
174.999999999902
  0
LINE
  5
238
330
2
100
AcDbEntity
  8
GAIKEI
  6
Continuous
 62
     1
100
AcDbLine
 10
25.67546950452169
 20
30.17733087373881
 30
0.0
 11
25.70936880890162
 21
30.56480169585882
 31
0.0
  0
LINE
  5
239
330
2
100
AcDbEntity
  8
GAIKEI
  6
Continuous
 62
     1
100
AcDbLine
 10
24.17124419504165
 20
30.69937016265885
 30
0.0
 11
24.12766632366169
 21
30.20127281359885
 31
0.0
  0
LINE
  5
23A
330
2
100
AcDbEntity
  8
GAIKEI
  6
Continuous
 62
     1
100
AcDbLine
 10
25.56339662482168
 20
30.67795459089882
 30
0.0
 11
25.19647006736153
 21
30.71005650501877
 31
0.0
  0
LINE
  5
23B
330
2
100
AcDbEntity
  8
GAIKEI
  6
Continuous
 62
     1
100
AcDbLine
 10
25.19647006736153
 20
30.71005650501877
 30
0.0
 11
24.3791987089416
 21
30.78155848391884
 31
0.0
  0
LINE
  5
23C
330
2
100
AcDbEntity
  8
GAIKEI
  6
Continuous
 62
     1
100
AcDbLine
 10
24.3791987089416
 20
30.78155848391884
 30
0.0
 11
24.27957923912158
 21
30.79027405819886
 31
0.0
  0
LINE
  5
23D
330
2
100
AcDbEntity
  8
GAIKEI
  6
Continuous
 62
     1
100
AcDbLine
 10
25.6184649133615
 20
30.67313673993885
 30
0.0
 11
25.56339662482168
 21
30.67795459089882
 31
0.0
  0
ARC
  5
23E
330
2
100
AcDbEntity
  8
GAIKEI
  6
Continuous
 62
     1
100
AcDbCircle
 10
25.60974933908159
 20
30.57351727011883
 30
0.0
 40
0.0999999999999988
100
AcDbArc
 50
354.9999999999021
 51
84.99999999990206
  0
LINE
  5
23F
330
2
100
AcDbEntity
  8
GAIKEI
  6
Continuous
 62
     1
100
AcDbLine
 10
24.1298816022217
 20
30.72306531737877
 30
0.0
 11
24.13089184928157
 21
30.72297693221879
 31
0.0
  0
LINE
  5
240
330
2
100
AcDbEntity
  8
GAIKEI
  6
Continuous
 62
     1
100
AcDbLine
 10
24.1298816022217
 20
30.72306531737877
 30
0.0
 11
23.89604518382151
 21
30.7435233530988
 31
0.0
  0
LINE
  5
241
330
2
100
AcDbEntity
  8
GAIKEI
  6
Continuous
 62
     1
100
AcDbLine
 10
24.08456061598162
 20
30.20504407435885
 30
0.0
 11
24.13132338784084
 21
30.73954500241098
 31
0.0
  0
LINE
  5
242
330
2
100
AcDbEntity
  8
GAIKEI
  6
Continuous
 62
     1
100
AcDbLine
 10
23.89604518382151
 20
30.7435233530988
 30
0.0
 11
23.85072419758166
 21
30.22550211009877
 31
0.0
  0
ARC
  5
243
330
2
100
AcDbEntity
  8
GAIKEI
  6
Continuous
 62
     1
100
AcDbCircle
 10
-19.9589090842951
 20
31.82934219167885
 30
0.0
 40
0.9355528376834065
100
AcDbArc
 50
167.6569438938981
 51
192.3432249252018
  0
LINE
  5
244
330
2
100
AcDbEntity
  8
GAIKEI
  6
Continuous
 62
     1
100
AcDbLine
 10
-20.85919189043512
 20
31.62934846883877
 30
0.0
 11
-20.87297008385508
 21
31.62934846883877
 31
0.0
  0
LINE
  5
245
330
2
100
AcDbEntity
  8
GAIKEI
  6
Continuous
 62
     1
100
AcDbLine
 10
-20.87297008385508
 20
31.62934846883877
 30
0.0
 11
-20.87297008385508
 21
31.34083713629877
 31
0.0
  0
ARC
  5
246
330
2
100
AcDbEntity
  8
GAIKEI
  6
Continuous
 62
     1
100
AcDbCircle
 10
-47.60269042279515
 20
0.3481369332588429
 30
0.0
 40
0.200000000000003
100
AcDbArc
 50
90.00000000199973
 51
180.0
  0
ARC
  5
247
330
2
100
AcDbEntity
  8
GAIKEI
  6
Continuous
 62
     1
100
AcDbCircle
 10
-47.60269042279515
 20
0.3481369332588429
 30
0.0
 40
0.2000000000000002
100
AcDbArc
 50
180.0
 51
270.0
  0
LINE
  5
248
330
2
100
AcDbEntity
  8
GAIKEI
  6
Continuous
 62
     1
100
AcDbLine
 10
-47.60269042279515
 20
0.1481369332587974
 30
0.0
 11
-12.44269042279507
 21
0.1481369332587974
 31
0.0
  0
ARC
  5
249
330
2
100
AcDbEntity
  8
GAIKEI
  6
Continuous
 62
     1
100
AcDbCircle
 10
-12.44269042279507
 20
0.3481369332588429
 30
0.0
 40
0.2000000000068752
100
AcDbArc
 50
270.0
 51
0.0
  0
ARC
  5
24A
330
2
100
AcDbEntity
  8
GAIKEI
  6
Continuous
 62
     1
100
AcDbCircle
 10
-12.44269042279507
 20
0.3481369332588429
 30
0.0
 40
0.200000000000003
100
AcDbArc
 50
0.0
 51
90.0
  0
LINE
  5
24B
330
2
100
AcDbEntity
  8
GAIKEI
  6
Continuous
 62
     1
100
AcDbLine
 10
-12.44269042279507
 20
0.5481369332587747
 30
0.0
 11
-47.60269042281516
 21
0.5481369332587747
 31
0.0
  0
CIRCLE
  5
24C
330
2
100
AcDbEntity
  8
GAIKEI
  6
Continuous
 62
     1
100
AcDbCircle
 10
-45.32269042279517
 20
23.9281369333188
 30
0.0
 40
0.35
  0
CIRCLE
  5
24D
330
2
100
AcDbEntity
  8
GAIKEI
  6
Continuous
 62
     1
100
AcDbCircle
 10
-41.12269042279513
 20
23.9281369333188
 30
0.0
 40
0.35
  0
CIRCLE
  5
24E
330
2
100
AcDbEntity
  8
GAIKEI
  6
Continuous
 62
     1
100
AcDbCircle
 10
-36.92269042279509
 20
23.9281369333188
 30
0.0
 40
0.35
  0
LINE
  5
24F
330
2
100
AcDbEntity
  8
GAIKEI
  6
Continuous
 62
     1
100
AcDbLine
 10
-47.60269042281516
 20
0.5481369332587747
 30
0.0
 11
-12.44269042279507
 21
0.5481369332587747
 31
0.0
  0
LINE
  5
250
330
2
100
AcDbEntity
  8
GAIKEI
  6
Continuous
 62
     1
100
AcDbLine
 10
-12.44269042279507
 20
0.1481369332587974
 30
0.0
 11
-47.60269042279515
 21
0.1481369332587974
 31
0.0
  0
ARC
  5
251
330
2
100
AcDbEntity
  8
GAIKEI
  6
Continuous
 62
     1
100
AcDbCircle
 10
-47.60269042279515
 20
0.3481369332588429
 30
0.0
 40
0.2000000000000002
100
AcDbArc
 50
180.0
 51
270.0
  0
ARC
  5
252
330
2
100
AcDbEntity
  8
GAIKEI
  6
Continuous
 62
     1
100
AcDbCircle
 10
-47.60269042279515
 20
0.3481369332588429
 30
0.0
 40
0.2000000000000002
100
AcDbArc
 50
90.00000000199973
 51
180.0
  0
CIRCLE
  5
253
330
2
100
AcDbEntity
  8
GAIKEI
  6
Continuous
 62
     1
100
AcDbCircle
 10
-36.92269042279509
 20
23.9281369333188
 30
0.0
 40
0.35
  0
CIRCLE
  5
254
330
2
100
AcDbEntity
  8
GAIKEI
  6
Continuous
 62
     1
100
AcDbCircle
 10
-41.12269042279513
 20
23.9281369333188
 30
0.0
 40
0.35
  0
CIRCLE
  5
255
330
2
100
AcDbEntity
  8
GAIKEI
  6
Continuous
 62
     1
100
AcDbCircle
 10
-45.32269042279517
 20
23.9281369333188
 30
0.0
 40
0.35
  0
ARC
  5
256
330
2
100
AcDbEntity
  8
GAIKEI
  6
Continuous
 62
     1
100
AcDbCircle
 10
-49.22269042279515
 20
-0.7718630667411617
 30
0.0
 40
0.58
100
AcDbArc
 50
180.0
 51
270.0
  0
LINE
  5
257
330
2
100
AcDbEntity
  8
GAIKEI
  6
Continuous
 62
     1
100
AcDbLine
 10
-16.37269042331513
 20
9.978136933258838
 30
0.0
 11
-13.07269042331518
 21
9.978136933258838
 31
0.0
  0
ARC
  5
258
330
2
100
AcDbEntity
  8
GAIKEI
  6
Continuous
 62
     1
100
AcDbCircle
 10
-13.07269042331518
 20
10.27813693325879
 30
0.0
 40
0.3000000000000003
100
AcDbArc
 50
270.0
 51
0.0
  0
LINE
  5
259
330
2
100
AcDbEntity
  8
GAIKEI
  6
Continuous
 62
     1
100
AcDbLine
 10
-12.77269042331522
 20
10.27813693325879
 30
0.0
 11
-12.77269042331522
 21
13.57813693325875
 31
0.0
  0
ARC
  5
25A
330
2
100
AcDbEntity
  8
GAIKEI
  6
Continuous
 62
     1
100
AcDbCircle
 10
-13.07269042331518
 20
13.57813693325875
 30
0.0
 40
0.2999999999999948
100
AcDbArc
 50
0.0
 51
90.0
  0
LINE
  5
25B
330
2
100
AcDbEntity
  8
GAIKEI
  6
Continuous
 62
     1
100
AcDbLine
 10
-16.67269042331509
 20
13.57813693325875
 30
0.0
 11
-16.67269042331509
 21
10.27813693325879
 31
0.0
  0
ARC
  5
25C
330
2
100
AcDbEntity
  8
GAIKEI
  6
Continuous
 62
     1
100
AcDbCircle
 10
-16.37269042331513
 20
10.27813693325879
 30
0.0
 40
0.3000000000000003
100
AcDbArc
 50
180.0
 51
270.0
  0
LINE
  5
25D
330
2
100
AcDbEntity
  8
GAIKEI
  6
Continuous
 62
     1
100
AcDbLine
 10
-13.07269042331518
 20
13.87813693325881
 30
0.0
 11
-16.37269042331513
 21
13.87813693325881
 31
0.0
  0
ARC
  5
25E
330
2
100
AcDbEntity
  8
GAIKEI
  6
Continuous
 62
     1
100
AcDbCircle
 10
-16.37269042331513
 20
13.57813693325875
 30
0.0
 40
0.3
100
AcDbArc
 50
90.0
 51
180.0
  0
LINE
  5
25F
330
2
100
AcDbEntity
  8
GAIKEI
  6
Continuous
 62
     1
100
AcDbLine
 10
-16.37269042331513
 20
3.378136933258815
 30
0.0
 11
-13.07269042331518
 21
3.378136933258815
 31
0.0
  0
ARC
  5
260
330
2
100
AcDbEntity
  8
GAIKEI
  6
Continuous
 62
     1
100
AcDbCircle
 10
-13.07269042331518
 20
3.67813693325877
 30
0.0
 40
0.3000000000000003
100
AcDbArc
 50
270.0
 51
0.0
  0
LINE
  5
261
330
2
100
AcDbEntity
  8
GAIKEI
  6
Continuous
 62
     1
100
AcDbLine
 10
-12.77269042331522
 20
3.67813693325877
 30
0.0
 11
-12.77269042331522
 21
6.978136933258838
 31
0.0
  0
ARC
  5
262
330
2
100
AcDbEntity
  8
GAIKEI
  6
Continuous
 62
     1
100
AcDbCircle
 10
-13.07269042331518
 20
6.978136933258838
 30
0.0
 40
0.3000000000000003
100
AcDbArc
 50
0.0
 51
90.0
  0
LINE
  5
263
330
2
100
AcDbEntity
  8
GAIKEI
  6
Continuous
 62
     1
100
AcDbLine
 10
-16.67269042331509
 20
6.978136933258838
 30
0.0
 11
-16.67269042331509
 21
3.67813693325877
 31
0.0
  0
ARC
  5
264
330
2
100
AcDbEntity
  8
GAIKEI
  6
Continuous
 62
     1
100
AcDbCircle
 10
-16.37269042331513
 20
3.67813693325877
 30
0.0
 40
0.3000000000000003
100
AcDbArc
 50
180.0
 51
270.0
  0
LINE
  5
265
330
2
100
AcDbEntity
  8
GAIKEI
  6
Continuous
 62
     1
100
AcDbLine
 10
-13.07269042331518
 20
7.278136933258792
 30
0.0
 11
-16.37269042331513
 21
7.278136933258792
 31
0.0
  0
ARC
  5
266
330
2
100
AcDbEntity
  8
GAIKEI
  6
Continuous
 62
     1
100
AcDbCircle
 10
-16.37269042331513
 20
6.978136933258838
 30
0.0
 40
0.3000000000000003
100
AcDbArc
 50
90.0
 51
180.0
  0
ARC
  5
267
330
2
100
AcDbEntity
  8
GAIKEI
  6
Continuous
 62
     1
100
AcDbCircle
 10
-44.17269042279508
 20
17.37813693325881
 30
0.0
 40
0.2000000000000002
100
AcDbArc
 50
270.0
 51
0.0
  0
LINE
  5
268
330
2
100
AcDbEntity
  8
GAIKEI
  6
Continuous
 62
     1
100
AcDbLine
 10
-43.97269042279515
 20
17.37813693325881
 30
0.0
 11
-43.97269042279515
 21
19.67813693325877
 31
0.0
  0
ARC
  5
269
330
2
100
AcDbEntity
  8
GAIKEI
  6
Continuous
 62
     1
100
AcDbCircle
 10
-44.17269042279508
 20
19.67813693325877
 30
0.0
 40
0.1999999999999974
100
AcDbArc
 50
0.0
 51
90.0
  0
LINE
  5
26A
330
2
100
AcDbEntity
  8
GAIKEI
  6
Continuous
 62
     1
100
AcDbLine
 10
-44.17269042279508
 20
19.87813693325881
 30
0.0
 11
-46.47269042279515
 21
19.87813693325881
 31
0.0
  0
ARC
  5
26B
330
2
100
AcDbEntity
  8
GAIKEI
  6
Continuous
 62
     1
100
AcDbCircle
 10
-46.47269042279515
 20
17.37813693325881
 30
0.0
 40
0.1999999999999974
100
AcDbArc
 50
180.0
 51
270.0
  0
LINE
  5
26C
330
2
100
AcDbEntity
  8
GAIKEI
  6
Continuous
 62
     1
100
AcDbLine
 10
-46.47269042279515
 20
17.17813693325877
 30
0.0
 11
-44.17269042279508
 21
17.17813693325877
 31
0.0
  0
ARC
  5
26D
330
2
100
AcDbEntity
  8
GAIKEI
  6
Continuous
 62
     1
100
AcDbCircle
 10
-46.47269042279515
 20
19.67813693325877
 30
0.0
 40
0.2000000000000016
100
AcDbArc
 50
90.0
 51
180.0
  0
LINE
  5
26E
330
2
100
AcDbEntity
  8
GAIKEI
  6
Continuous
 62
     1
100
AcDbLine
 10
-46.67269042279508
 20
19.67813693325877
 30
0.0
 11
-46.67269042279508
 21
17.37813693325881
 31
0.0
  0
ARC
  5
26F
330
2
100
AcDbEntity
  8
GAIKEI
  6
Continuous
 62
     1
100
AcDbCircle
 10
-39.97269042279516
 20
17.37813693325881
 30
0.0
 40
0.2000000000000002
100
AcDbArc
 50
270.0
 51
0.0
  0
LINE
  5
270
330
2
100
AcDbEntity
  8
GAIKEI
  6
Continuous
 62
     1
100
AcDbLine
 10
-39.77269042279511
 20
17.37813693325881
 30
0.0
 11
-39.77269042279511
 21
19.67813693325877
 31
0.0
  0
ARC
  5
271
330
2
100
AcDbEntity
  8
GAIKEI
  6
Continuous
 62
     1
100
AcDbCircle
 10
-39.97269042279516
 20
19.67813693325877
 30
0.0
 40
0.1999999999999974
100
AcDbArc
 50
0.0
 51
90.0
  0
LINE
  5
272
330
2
100
AcDbEntity
  8
GAIKEI
  6
Continuous
 62
     1
100
AcDbLine
 10
-39.97269042279516
 20
19.87813693325881
 30
0.0
 11
-42.27269042279511
 21
19.87813693325881
 31
0.0
  0
ARC
  5
273
330
2
100
AcDbEntity
  8
GAIKEI
  6
Continuous
 62
     1
100
AcDbCircle
 10
-42.27269042279511
 20
17.37813693325881
 30
0.0
 40
0.1999999999999974
100
AcDbArc
 50
180.0
 51
270.0
  0
LINE
  5
274
330
2
100
AcDbEntity
  8
GAIKEI
  6
Continuous
 62
     1
100
AcDbLine
 10
-42.27269042279511
 20
17.17813693325877
 30
0.0
 11
-39.97269042279516
 21
17.17813693325877
 31
0.0
  0
ARC
  5
275
330
2
100
AcDbEntity
  8
GAIKEI
  6
Continuous
 62
     1
100
AcDbCircle
 10
-42.27269042279511
 20
19.67813693325877
 30
0.0
 40
0.2000000000000016
100
AcDbArc
 50
90.0
 51
180.0
  0
LINE
  5
276
330
2
100
AcDbEntity
  8
GAIKEI
  6
Continuous
 62
     1
100
AcDbLine
 10
-42.47269042279515
 20
19.67813693325877
 30
0.0
 11
-42.47269042279515
 21
17.37813693325881
 31
0.0
  0
ARC
  5
277
330
2
100
AcDbEntity
  8
GAIKEI
  6
Continuous
 62
     1
100
AcDbCircle
 10
-35.77269042279522
 20
17.37813693325881
 30
0.0
 40
0.2000000000000002
100
AcDbArc
 50
270.0
 51
0.0
  0
LINE
  5
278
330
2
100
AcDbEntity
  8
GAIKEI
  6
Continuous
 62
     1
100
AcDbLine
 10
-35.57269042279518
 20
17.37813693325881
 30
0.0
 11
-35.57269042279518
 21
19.67813693325877
 31
0.0
  0
ARC
  5
279
330
2
100
AcDbEntity
  8
GAIKEI
  6
Continuous
 62
     1
100
AcDbCircle
 10
-35.77269042279522
 20
19.67813693325877
 30
0.0
 40
0.1999999999999974
100
AcDbArc
 50
0.0
 51
90.0
  0
LINE
  5
27A
330
2
100
AcDbEntity
  8
GAIKEI
  6
Continuous
 62
     1
100
AcDbLine
 10
-35.77269042279522
 20
19.87813693325881
 30
0.0
 11
-38.07269042279518
 21
19.87813693325881
 31
0.0
  0
ARC
  5
27B
330
2
100
AcDbEntity
  8
GAIKEI
  6
Continuous
 62
     1
100
AcDbCircle
 10
-38.07269042279518
 20
17.37813693325881
 30
0.0
 40
0.1999999999999974
100
AcDbArc
 50
180.0
 51
270.0
  0
LINE
  5
27C
330
2
100
AcDbEntity
  8
GAIKEI
  6
Continuous
 62
     1
100
AcDbLine
 10
-38.07269042279518
 20
17.17813693325877
 30
0.0
 11
-35.77269042279522
 21
17.17813693325877
 31
0.0
  0
ARC
  5
27D
330
2
100
AcDbEntity
  8
GAIKEI
  6
Continuous
 62
     1
100
AcDbCircle
 10
-38.07269042279518
 20
19.67813693325877
 30
0.0
 40
0.2000000000000016
100
AcDbArc
 50
90.0
 51
180.0
  0
LINE
  5
27E
330
2
100
AcDbEntity
  8
GAIKEI
  6
Continuous
 62
     1
100
AcDbLine
 10
-38.27269042279522
 20
19.67813693325877
 30
0.0
 11
-38.27269042279522
 21
17.37813693325881
 31
0.0
  0
ARC
  5
27F
330
2
100
AcDbEntity
  8
GAIKEI
  6
Continuous
 62
     1
100
AcDbCircle
 10
-31.57269042279518
 20
17.37813693325881
 30
0.0
 40
0.2000000000000002
100
AcDbArc
 50
270.0
 51
0.0
  0
LINE
  5
280
330
2
100
AcDbEntity
  8
GAIKEI
  6
Continuous
 62
     1
100
AcDbLine
 10
-31.37269042279513
 20
17.37813693325881
 30
0.0
 11
-31.37269042279513
 21
19.67813693325877
 31
0.0
  0
ARC
  5
281
330
2
100
AcDbEntity
  8
GAIKEI
  6
Continuous
 62
     1
100
AcDbCircle
 10
-31.57269042279518
 20
19.67813693325877
 30
0.0
 40
0.1999999999999974
100
AcDbArc
 50
0.0
 51
90.0
  0
LINE
  5
282
330
2
100
AcDbEntity
  8
GAIKEI
  6
Continuous
 62
     1
100
AcDbLine
 10
-31.57269042279518
 20
19.87813693325881
 30
0.0
 11
-33.87269042279513
 21
19.87813693325881
 31
0.0
  0
ARC
  5
283
330
2
100
AcDbEntity
  8
GAIKEI
  6
Continuous
 62
     1
100
AcDbCircle
 10
-33.87269042279513
 20
17.37813693325881
 30
0.0
 40
0.1999999999999974
100
AcDbArc
 50
180.0
 51
270.0
  0
LINE
  5
284
330
2
100
AcDbEntity
  8
GAIKEI
  6
Continuous
 62
     1
100
AcDbLine
 10
-33.87269042279513
 20
17.17813693325877
 30
0.0
 11
-31.57269042279518
 21
17.17813693325877
 31
0.0
  0
ARC
  5
285
330
2
100
AcDbEntity
  8
GAIKEI
  6
Continuous
 62
     1
100
AcDbCircle
 10
-33.87269042279513
 20
19.67813693325877
 30
0.0
 40
0.2000000000000016
100
AcDbArc
 50
90.0
 51
180.0
  0
LINE
  5
286
330
2
100
AcDbEntity
  8
GAIKEI
  6
Continuous
 62
     1
100
AcDbLine
 10
-34.07269042279518
 20
19.67813693325877
 30
0.0
 11
-34.07269042279518
 21
17.37813693325881
 31
0.0
  0
ARC
  5
287
330
2
100
AcDbEntity
  8
GAIKEI
  6
Continuous
 62
     1
100
AcDbCircle
 10
-27.37269042279513
 20
17.37813693325881
 30
0.0
 40
0.2000000000000002
100
AcDbArc
 50
270.0
 51
0.0
  0
LINE
  5
288
330
2
100
AcDbEntity
  8
GAIKEI
  6
Continuous
 62
     1
100
AcDbLine
 10
-27.17269042279509
 20
17.37813693325881
 30
0.0
 11
-27.17269042279509
 21
19.67813693325877
 31
0.0
  0
ARC
  5
289
330
2
100
AcDbEntity
  8
GAIKEI
  6
Continuous
 62
     1
100
AcDbCircle
 10
-27.37269042279513
 20
19.67813693325877
 30
0.0
 40
0.1999999999999974
100
AcDbArc
 50
0.0
 51
90.0
  0
LINE
  5
28A
330
2
100
AcDbEntity
  8
GAIKEI
  6
Continuous
 62
     1
100
AcDbLine
 10
-27.37269042279513
 20
19.87813693325881
 30
0.0
 11
-29.67269042279509
 21
19.87813693325881
 31
0.0
  0
ARC
  5
28B
330
2
100
AcDbEntity
  8
GAIKEI
  6
Continuous
 62
     1
100
AcDbCircle
 10
-29.67269042279509
 20
17.37813693325881
 30
0.0
 40
0.1999999999999974
100
AcDbArc
 50
180.0
 51
270.0
  0
LINE
  5
28C
330
2
100
AcDbEntity
  8
GAIKEI
  6
Continuous
 62
     1
100
AcDbLine
 10
-29.67269042279509
 20
17.17813693325877
 30
0.0
 11
-27.37269042279513
 21
17.17813693325877
 31
0.0
  0
ARC
  5
28D
330
2
100
AcDbEntity
  8
GAIKEI
  6
Continuous
 62
     1
100
AcDbCircle
 10
-29.67269042279509
 20
19.67813693325877
 30
0.0
 40
0.2000000000000016
100
AcDbArc
 50
90.0
 51
180.0
  0
LINE
  5
28E
330
2
100
AcDbEntity
  8
GAIKEI
  6
Continuous
 62
     1
100
AcDbLine
 10
-29.87269042279513
 20
19.67813693325877
 30
0.0
 11
-29.87269042279513
 21
17.37813693325881
 31
0.0
  0
ARC
  5
28F
330
2
100
AcDbEntity
  8
GAIKEI
  6
Continuous
 62
     1
100
AcDbCircle
 10
-22.02269049233519
 20
17.42813693223877
 30
0.0
 40
0.2500000000000106
100
AcDbArc
 50
270.0
 51
0.0
  0
LINE
  5
290
330
2
100
AcDbEntity
  8
GAIKEI
  6
Continuous
 62
     1
100
AcDbLine
 10
-21.77269049233519
 20
17.42813693223877
 30
0.0
 11
-21.77269049233519
 21
19.62813693223882
 31
0.0
  0
ARC
  5
291
330
2
100
AcDbEntity
  8
GAIKEI
  6
Continuous
 62
     1
100
AcDbCircle
 10
-22.02269049233519
 20
19.62813693223882
 30
0.0
 40
0.2500000000000002
100
AcDbArc
 50
0.0
 51
90.0
  0
LINE
  5
292
330
2
100
AcDbEntity
  8
GAIKEI
  6
Continuous
 62
     1
100
AcDbLine
 10
-22.02269049233519
 20
19.87813693223882
 30
0.0
 11
-24.22269049233523
 21
19.87813693223882
 31
0.0
  0
ARC
  5
293
330
2
100
AcDbEntity
  8
GAIKEI
  6
Continuous
 62
     1
100
AcDbCircle
 10
-24.22269049233523
 20
17.42813693223877
 30
0.0
 40
0.249999999999992
100
AcDbArc
 50
180.0
 51
270.0
  0
LINE
  5
294
330
2
100
AcDbEntity
  8
GAIKEI
  6
Continuous
 62
     1
100
AcDbLine
 10
-24.22269049233523
 20
17.17813693223877
 30
0.0
 11
-22.02269049233519
 21
17.17813693223877
 31
0.0
  0
ARC
  5
295
330
2
100
AcDbEntity
  8
GAIKEI
  6
Continuous
 62
     1
100
AcDbCircle
 10
-24.22269049233523
 20
19.62813693223882
 30
0.0
 40
0.2499999999999988
100
AcDbArc
 50
90.0
 51
180.0
  0
LINE
  5
296
330
2
100
AcDbEntity
  8
GAIKEI
  6
Continuous
 62
     1
100
AcDbLine
 10
-24.47269049233523
 20
19.62813693223882
 30
0.0
 11
-24.47269049233523
 21
17.42813693223877
 31
0.0
  0
LINE
  5
297
330
2
100
AcDbEntity
  8
GAIKEI
  6
Continuous
 62
     1
100
AcDbLine
 10
-17.57269049239517
 20
17.42813693223877
 30
0.0
 11
-17.57269049239517
 21
19.62813693223882
 31
0.0
  0
ARC
  5
298
330
2
100
AcDbEntity
  8
GAIKEI
  6
Continuous
 62
     1
100
AcDbCircle
 10
-17.82269049239516
 20
19.62813693223882
 30
0.0
 40
0.2500000000000016
100
AcDbArc
 50
0.0
 51
90.0
  0
LINE
  5
299
330
2
100
AcDbEntity
  8
GAIKEI
  6
Continuous
 62
     1
100
AcDbLine
 10
-17.82269049239516
 20
19.87813693223882
 30
0.0
 11
-20.02269049239521
 21
19.87813693223882
 31
0.0
  0
ARC
  5
29A
330
2
100
AcDbEntity
  8
GAIKEI
  6
Continuous
 62
     1
100
AcDbCircle
 10
-20.02269049239521
 20
19.62813693223882
 30
0.0
 40
0.2499999999999926
100
AcDbArc
 50
90.0
 51
180.0
  0
LINE
  5
29B
330
2
100
AcDbEntity
  8
GAIKEI
  6
Continuous
 62
     1
100
AcDbLine
 10
-20.02269049239521
 20
17.17813693223877
 30
0.0
 11
-17.82269049239516
 21
17.17813693223877
 31
0.0
  0
ARC
  5
29C
330
2
100
AcDbEntity
  8
GAIKEI
  6
Continuous
 62
     1
100
AcDbCircle
 10
-17.82269049239516
 20
17.42813693223877
 30
0.0
 40
0.2499999999999932
100
AcDbArc
 50
270.0
 51
0.0
  0
LINE
  5
29D
330
2
100
AcDbEntity
  8
GAIKEI
  6
Continuous
 62
     1
100
AcDbLine
 10
-20.27269049239521
 20
19.62813693223882
 30
0.0
 11
-20.27269049239521
 21
17.42813693223877
 31
0.0
  0
ARC
  5
29E
330
2
100
AcDbEntity
  8
GAIKEI
  6
Continuous
 62
     1
100
AcDbCircle
 10
-20.02269049239521
 20
17.42813693223877
 30
0.0
 40
0.2500000000000002
100
AcDbArc
 50
180.0
 51
270.0
  0
LINE
  5
29F
330
2
100
AcDbEntity
  8
GAIKEI
  6
Continuous
 62
     1
100
AcDbLine
 10
-13.37269049233509
 20
17.42813693223877
 30
0.0
 11
-13.37269049233509
 21
19.62813693223882
 31
0.0
  0
ARC
  5
2A0
330
2
100
AcDbEntity
  8
GAIKEI
  6
Continuous
 62
     1
100
AcDbCircle
 10
-13.62269049233509
 20
19.62813693223882
 30
0.0
 40
0.2499999999999974
100
AcDbArc
 50
0.0
 51
90.0
  0
LINE
  5
2A1
330
2
100
AcDbEntity
  8
GAIKEI
  6
Continuous
 62
     1
100
AcDbLine
 10
-13.62269049233509
 20
19.87813693223882
 30
0.0
 11
-15.82269049233514
 21
19.87813693223882
 31
0.0
  0
ARC
  5
2A2
330
2
100
AcDbEntity
  8
GAIKEI
  6
Continuous
 62
     1
100
AcDbCircle
 10
-15.82269049233514
 20
19.62813693223882
 30
0.0
 40
0.2499999999999988
100
AcDbArc
 50
90.0
 51
180.0
  0
LINE
  5
2A3
330
2
100
AcDbEntity
  8
GAIKEI
  6
Continuous
 62
     1
100
AcDbLine
 10
-15.82269049233514
 20
17.17813693223877
 30
0.0
 11
-13.62269049233509
 21
17.17813693223877
 31
0.0
  0
ARC
  5
2A4
330
2
100
AcDbEntity
  8
GAIKEI
  6
Continuous
 62
     1
100
AcDbCircle
 10
-13.62269049233509
 20
17.42813693223877
 30
0.0
 40
0.2499999999999932
100
AcDbArc
 50
270.0
 51
0.0
  0
LINE
  5
2A5
330
2
100
AcDbEntity
  8
GAIKEI
  6
Continuous
 62
     1
100
AcDbLine
 10
-16.07269049233514
 20
19.62813693223882
 30
0.0
 11
-16.07269049233514
 21
17.42813693223877
 31
0.0
  0
ARC
  5
2A6
330
2
100
AcDbEntity
  8
GAIKEI
  6
Continuous
 62
     1
100
AcDbCircle
 10
-15.82269049233514
 20
17.42813693223877
 30
0.0
 40
0.2500000000000142
100
AcDbArc
 50
180.0
 51
270.0
  0
ARC
  5
2A7
330
2
100
AcDbEntity
  8
GAIKEI
  6
Continuous
 62
     1
100
AcDbCircle
 10
-32.17269056187524
 20
23.37813693331884
 30
0.0
 40
0.2000000000000002
100
AcDbArc
 50
270.0
 51
0.0
  0
LINE
  5
2A8
330
2
100
AcDbEntity
  8
GAIKEI
  6
Continuous
 62
     1
100
AcDbLine
 10
-31.9726905618752
 20
23.37813693331884
 30
0.0
 11
-31.9726905618752
 21
24.47813693331887
 31
0.0
  0
ARC
  5
2A9
330
2
100
AcDbEntity
  8
GAIKEI
  6
Continuous
 62
     1
100
AcDbCircle
 10
-32.17269056187524
 20
24.47813693331887
 30
0.0
 40
0.2000000000000002
100
AcDbArc
 50
0.0
 51
90.0
  0
LINE
  5
2AA
330
2
100
AcDbEntity
  8
GAIKEI
  6
Continuous
 62
     1
100
AcDbLine
 10
-32.17269056187524
 20
24.6781369333188
 30
0.0
 11
-33.27269056187515
 21
24.6781369333188
 31
0.0
  0
ARC
  5
2AB
330
2
100
AcDbEntity
  8
GAIKEI
  6
Continuous
 62
     1
100
AcDbCircle
 10
-33.27269056187515
 20
23.37813693331884
 30
0.0
 40
0.2000000000000002
100
AcDbArc
 50
180.0
 51
270.0
  0
LINE
  5
2AC
330
2
100
AcDbEntity
  8
GAIKEI
  6
Continuous
 62
     1
100
AcDbLine
 10
-33.27269056187515
 20
23.1781369333188
 30
0.0
 11
-32.17269056187524
 21
23.1781369333188
 31
0.0
  0
ARC
  5
2AD
330
2
100
AcDbEntity
  8
GAIKEI
  6
Continuous
 62
     1
100
AcDbCircle
 10
-33.27269056187515
 20
24.47813693331887
 30
0.0
 40
0.2000000000000002
100
AcDbArc
 50
90.0
 51
180.0
  0
LINE
  5
2AE
330
2
100
AcDbEntity
  8
GAIKEI
  6
Continuous
 62
     1
100
AcDbLine
 10
-33.4726905618752
 20
24.47813693331887
 30
0.0
 11
-33.4726905618752
 21
23.37813693331884
 31
0.0
  0
ARC
  5
2AF
330
2
100
AcDbEntity
  8
GAIKEI
  6
Continuous
 62
     1
100
AcDbCircle
 10
-27.97269071321512
 20
23.37813693215878
 30
0.0
 40
0.1999999988539946
100
AcDbArc
 50
270.0
 51
0.0
  0
LINE
  5
2B0
330
2
100
AcDbEntity
  8
GAIKEI
  6
Continuous
 62
     1
100
AcDbLine
 10
-27.77269071435512
 20
23.37813693215878
 30
0.0
 11
-27.77269071435512
 21
24.47813693331887
 31
0.0
  0
ARC
  5
2B1
330
2
100
AcDbEntity
  8
GAIKEI
  6
Continuous
 62
     1
100
AcDbCircle
 10
-27.97269071435517
 20
24.47813693331887
 30
0.0
 40
0.2000000000000002
100
AcDbArc
 50
0.0
 51
90.0
  0
LINE
  5
2B2
330
2
100
AcDbEntity
  8
GAIKEI
  6
Continuous
 62
     1
100
AcDbLine
 10
-27.97269071435517
 20
24.6781369333188
 30
0.0
 11
-29.07269071435507
 21
24.6781369333188
 31
0.0
  0
ARC
  5
2B3
330
2
100
AcDbEntity
  8
GAIKEI
  6
Continuous
 62
     1
100
AcDbCircle
 10
-29.07269071549513
 20
23.37813693215878
 30
0.0
 40
0.1999999988539932
100
AcDbArc
 50
180.0
 51
270.0
  0
LINE
  5
2B4
330
2
100
AcDbEntity
  8
GAIKEI
  6
Continuous
 62
     1
100
AcDbLine
 10
-29.07269071549513
 20
23.1781369333188
 30
0.0
 11
-27.97269071321512
 21
23.1781369333188
 31
0.0
  0
ARC
  5
2B5
330
2
100
AcDbEntity
  8
GAIKEI
  6
Continuous
 62
     1
100
AcDbCircle
 10
-29.07269071435507
 20
24.47813693331887
 30
0.0
 40
0.2000000000000016
100
AcDbArc
 50
90.0
 51
180.0
  0
LINE
  5
2B6
330
2
100
AcDbEntity
  8
GAIKEI
  6
Continuous
 62
     1
100
AcDbLine
 10
-29.27269071435512
 20
24.47813693331887
 30
0.0
 11
-29.27269071435512
 21
23.37813693215878
 31
0.0
  0
ARC
  5
2B7
330
2
100
AcDbEntity
  8
GAIKEI
  6
Continuous
 62
     1
100
AcDbCircle
 10
-14.17269050611503
 20
24.4781369306188
 30
0.0
 40
0.2000000000000002
100
AcDbArc
 50
0.0
 51
90.0
  0
LINE
  5
2B8
330
2
100
AcDbEntity
  8
GAIKEI
  6
Continuous
 62
     1
100
AcDbLine
 10
-14.17269050611503
 20
24.67813693061885
 30
0.0
 11
-15.27269050767518
 21
24.67813693061885
 31
0.0
  0
ARC
  5
2B9
330
2
100
AcDbEntity
  8
GAIKEI
  6
Continuous
 62
     1
100
AcDbCircle
 10
-15.27269050767518
 20
23.37813693331884
 30
0.0
 40
0.2000000000000002
100
AcDbArc
 50
180.0
 51
270.0
  0
LINE
  5
2BA
330
2
100
AcDbEntity
  8
GAIKEI
  6
Continuous
 62
     1
100
AcDbLine
 10
-15.27269050767518
 20
23.1781369333188
 30
0.0
 11
-14.17269050611503
 21
23.1781369333188
 31
0.0
  0
ARC
  5
2BB
330
2
100
AcDbEntity
  8
GAIKEI
  6
Continuous
 62
     1
100
AcDbCircle
 10
-14.17269050611503
 20
23.37813693331884
 30
0.0
 40
0.2000000000000002
100
AcDbArc
 50
270.0
 51
0.0
  0
LINE
  5
2BC
330
2
100
AcDbEntity
  8
GAIKEI
  6
Continuous
 62
     1
100
AcDbLine
 10
-13.97269050611521
 20
23.37813693331884
 30
0.0
 11
-13.97269050611521
 21
24.4781369306188
 31
0.0
  0
ARC
  5
2BD
330
2
100
AcDbEntity
  8
GAIKEI
  6
Continuous
 62
     1
100
AcDbCircle
 10
-15.27269050767518
 20
24.4781369306188
 30
0.0
 40
0.2000000000000002
100
AcDbArc
 50
90.0
 51
180.0
  0
LINE
  5
2BE
330
2
100
AcDbEntity
  8
GAIKEI
  6
Continuous
 62
     1
100
AcDbLine
 10
-15.47269050767522
 20
24.4781369306188
 30
0.0
 11
-15.47269050767522
 21
23.37813693331884
 31
0.0
  0
ARC
  5
2BF
330
2
100
AcDbEntity
  8
GAIKEI
  6
Continuous
 62
     1
100
AcDbCircle
 10
-20.92269042279509
 20
14.12813693325881
 30
0.0
 40
0.2500000000000016
100
AcDbArc
 50
359.9999998833969
 51
90.0
  0
LINE
  5
2C0
330
2
100
AcDbEntity
  8
GAIKEI
  6
Continuous
 62
     1
100
AcDbLine
 10
-20.92269042279509
 20
14.37813693325881
 30
0.0
 11
-21.12269042279513
 21
14.37813693325881
 31
0.0
  0
ARC
  5
2C1
330
2
100
AcDbEntity
  8
GAIKEI
  6
Continuous
 62
     1
100
AcDbCircle
 10
-21.12269042279513
 20
3.128136933258815
 30
0.0
 40
0.2500000000000002
100
AcDbArc
 50
180.0
 51
270.0
  0
LINE
  5
2C2
330
2
100
AcDbEntity
  8
GAIKEI
  6
Continuous
 62
     1
100
AcDbLine
 10
-21.12269042279513
 20
2.878136933258815
 30
0.0
 11
-20.92269045061517
 21
2.878136933258815
 31
0.0
  0
ARC
  5
2C3
330
2
100
AcDbEntity
  8
GAIKEI
  6
Continuous
 62
     1
100
AcDbCircle
 10
-20.92269042279509
 20
3.128136933258815
 30
0.0
 40
0.2499999999999948
100
AcDbArc
 50
270.0
 51
0.0
  0
LINE
  5
2C4
330
2
100
AcDbEntity
  8
GAIKEI
  6
Continuous
 62
     1
100
AcDbLine
 10
-20.67269042279509
 20
11.33957468677886
 30
0.0
 11
-20.67269042279509
 21
14.12813693273881
 31
0.0
  0
LINE
  5
2C5
330
2
100
AcDbEntity
  8
GAIKEI
  6
Continuous
 62
     1
100
AcDbLine
 10
-20.67269042279509
 20
3.128136933258815
 30
0.0
 11
-20.67269042279509
 21
6.362273280218801
 31
0.0
  0
ARC
  5
2C6
330
2
100
AcDbEntity
  8
GAIKEI
  6
Continuous
 62
     1
100
AcDbCircle
 10
-21.12269042279513
 20
14.12813693325881
 30
0.0
 40
0.25
100
AcDbArc
 50
90.0
 51
180.0
  0
LINE
  5
2C7
330
2
100
AcDbEntity
  8
GAIKEI
  6
Continuous
 62
     1
100
AcDbLine
 10
-21.37269042279513
 20
6.362273280218801
 30
0.0
 11
-21.37269042279513
 21
3.128136933258815
 31
0.0
  0
LINE
  5
2C8
330
2
100
AcDbEntity
  8
GAIKEI
  6
Continuous
 62
     1
100
AcDbLine
 10
-21.37269042279513
 20
14.12813693325881
 30
0.0
 11
-21.37269042279513
 21
11.33957468677886
 31
0.0
  0
ARC
  5
2C9
330
2
100
AcDbEntity
  8
GAIKEI
  6
Continuous
 62
     1
100
AcDbCircle
 10
-22.57269058969519
 20
24.47813693331887
 30
0.0
 40
0.2000000000000002
100
AcDbArc
 50
0.0
 51
90.0
  0
LINE
  5
2CA
330
2
100
AcDbEntity
  8
GAIKEI
  6
Continuous
 62
     1
100
AcDbLine
 10
-22.57269058969519
 20
24.6781369333188
 30
0.0
 11
-23.6726905896951
 21
24.6781369333188
 31
0.0
  0
ARC
  5
2CB
330
2
100
AcDbEntity
  8
GAIKEI
  6
Continuous
 62
     1
100
AcDbCircle
 10
-23.67269059083515
 20
23.37813693215878
 30
0.0
 40
0.1999999988539905
100
AcDbArc
 50
180.0
 51
270.0
  0
LINE
  5
2CC
330
2
100
AcDbEntity
  8
GAIKEI
  6
Continuous
 62
     1
100
AcDbLine
 10
-23.67269059083515
 20
23.1781369333188
 30
0.0
 11
-22.57269058853513
 21
23.1781369333188
 31
0.0
  0
ARC
  5
2CD
330
2
100
AcDbEntity
  8
GAIKEI
  6
Continuous
 62
     1
100
AcDbCircle
 10
-22.57269058853513
 20
23.37813693215878
 30
0.0
 40
0.1999999988539905
100
AcDbArc
 50
270.0
 51
0.0
  0
LINE
  5
2CE
330
2
100
AcDbEntity
  8
GAIKEI
  6
Continuous
 62
     1
100
AcDbLine
 10
-22.37269058969514
 20
23.37813693215878
 30
0.0
 11
-22.37269058969514
 21
24.47813693331887
 31
0.0
  0
ARC
  5
2CF
330
2
100
AcDbEntity
  8
GAIKEI
  6
Continuous
 62
     1
100
AcDbCircle
 10
-23.6726905896951
 20
24.47813693331887
 30
0.0
 40
0.2000000000000002
100
AcDbArc
 50
90.0
 51
180.0
  0
LINE
  5
2D0
330
2
100
AcDbEntity
  8
GAIKEI
  6
Continuous
 62
     1
100
AcDbLine
 10
-23.87269058969514
 20
24.47813693331887
 30
0.0
 11
-23.87269058969514
 21
23.37813693215878
 31
0.0
  0
ARC
  5
2D1
330
2
100
AcDbEntity
  8
GAIKEI
  6
Continuous
 62
     1
100
AcDbCircle
 10
-26.87269042279513
 20
13.57813693325875
 30
0.0
 40
0.2999999999999982
100
AcDbArc
 50
0.0
 51
90.0
  0
LINE
  5
2D2
330
2
100
AcDbEntity
  8
GAIKEI
  6
Continuous
 62
     1
100
AcDbLine
 10
-26.87269042279513
 20
13.87813693325881
 30
0.0
 11
-46.97269042279515
 21
13.87813693325881
 31
0.0
  0
ARC
  5
2D3
330
2
100
AcDbEntity
  8
GAIKEI
  6
Continuous
 62
     1
100
AcDbCircle
 10
-46.97269042279515
 20
13.57813693325875
 30
0.0
 40
0.3000000000000044
100
AcDbArc
 50
90.0
 51
180.0
  0
LINE
  5
2D4
330
2
100
AcDbEntity
  8
GAIKEI
  6
Continuous
 62
     1
100
AcDbLine
 10
-47.27269042279511
 20
13.57813693325875
 30
0.0
 11
-47.27269042279511
 21
10.27813693325879
 31
0.0
  0
ARC
  5
2D5
330
2
100
AcDbEntity
  8
GAIKEI
  6
Continuous
 62
     1
100
AcDbCircle
 10
-26.87269042279513
 20
10.27813693325879
 30
0.0
 40
0.3000000000000044
100
AcDbArc
 50
270.0
 51
0.0
  0
LINE
  5
2D6
330
2
100
AcDbEntity
  8
GAIKEI
  6
Continuous
 62
     1
100
AcDbLine
 10
-26.57269042279518
 20
10.27813693325879
 30
0.0
 11
-26.57269042279518
 21
13.57813693325875
 31
0.0
  0
ARC
  5
2D7
330
2
100
AcDbEntity
  8
GAIKEI
  6
Continuous
 62
     1
100
AcDbCircle
 10
-46.97269042279515
 20
10.27813693325879
 30
0.0
 40
0.3000000000000003
100
AcDbArc
 50
180.0
 51
270.0
  0
LINE
  5
2D8
330
2
100
AcDbEntity
  8
GAIKEI
  6
Continuous
 62
     1
100
AcDbLine
 10
-46.97269042279515
 20
9.978136933258838
 30
0.0
 11
-26.87269042279513
 21
9.978136933258838
 31
0.0
  0
ARC
  5
2D9
330
2
100
AcDbEntity
  8
GAIKEI
  6
Continuous
 62
     1
100
AcDbCircle
 10
-12.44269042279507
 20
0.3481369332588429
 30
0.0
 40
0.2000000000000002
100
AcDbArc
 50
0.0
 51
90.0
  0
ARC
  5
2DA
330
2
100
AcDbEntity
  8
GAIKEI
  6
Continuous
 62
     1
100
AcDbCircle
 10
-12.44269042279507
 20
0.3481369332588429
 30
0.0
 40
0.2000000000000002
100
AcDbArc
 50
270.0
 51
0.0
  0
ARC
  5
2DB
330
2
100
AcDbEntity
  8
GAIKEI
  6
Continuous
 62
     1
100
AcDbCircle
 10
-45.31774907905514
 20
-145.9489833847211
 30
0.0
 40
156.133850170998
100
AcDbArc
 50
89.4127795420008
 51
90.5909185131002
  0
LWPOLYLINE
  5
2DC
330
2
100
AcDbEntity
  8
GAIKEI
  6
Continuous
 62
     1
100
AcDbPolyline
 90
        9
 70
     0
 43
0.0
 10
-43.57164234937511
 20
13.50255628725881
 10
-43.57339231019511
 20
13.53443025279887
 10
-43.57948524277515
 20
13.56587284507884
 10
-43.59034035151512
 20
13.59601859659881
 10
-43.60657946495507
 20
13.62374858803889
 10
-43.62859988283514
 20
13.64765339077883
 10
-43.6554138436552
 20
13.66552427503882
 10
-43.68569535301515
 20
13.67609209639886
 10
-43.71767619691513
 20
13.67939445857883
  0
ARC
  5
2DD
330
2
100
AcDbEntity
  8
GAIKEI
  6
Continuous
 62
     1
100
AcDbCircle
 10
-45.31777612459507
 20
168.1150014626188
 30
0.0
 40
154.4438960609464
100
AcDbArc
 50
269.4026638221992
 51
270.5936175864996
  0
ARC
  5
2DE
330
2
100
AcDbEntity
  8
GAIKEI
  6
Continuous
 62
     1
100
AcDbCircle
 10
108.6099085779649
 20
11.93311051059879
 30
0.0
 40
152.1896435461146
100
AcDbArc
 50
179.4091305362009
 51
180.5946866357968
  0
LWPOLYLINE
  5
2DF
330
2
100
AcDbEntity
  8
GAIKEI
  6
Continuous
 62
     1
100
AcDbPolyline
 90
        9
 70
     0
 43
0.0
 10
-46.92789917631512
 20
13.67949863297883
 10
-46.9598173389752
 20
13.67621167449886
 10
-46.99004506435517
 20
13.66568818439884
 10
-47.01684464531513
 20
13.64787433777883
 10
-47.03886929773512
 20
13.6240411912388
 10
-47.05519488435515
 20
13.59619248205888
 10
-47.06612226427512
 20
13.5659180837788
 10
-47.0722021070751
 20
13.5345228709989
 10
-47.07395244927511
 20
13.50266105749881
  0
LWPOLYLINE
  5
2E0
330
2
100
AcDbEntity
  8
GAIKEI
  6
Continuous
 62
     1
100
AcDbPolyline
 90
        9
 70
     0
 43
0.0
 10
-43.71757212547516
 20
10.1766666633589
 10
-43.68564344583512
 20
10.17995775323879
 10
-43.65540915409519
 20
10.19049154535889
 10
-43.62861094581512
 20
10.20831783335882
 10
-43.60659317489512
 20
10.23216154691886
 10
-43.59027738613508
 20
10.2600138172188
 10
-43.57935984403513
 20
10.29028344573885
 10
-43.57328581139518
 20
10.32167115685888
 10
-43.57153745167511
 20
10.35352606471883
  0
LWPOLYLINE
  5
2E1
330
2
100
AcDbEntity
  8
GAIKEI
  6
Continuous
 62
     1
100
AcDbPolyline
 90
        9
 70
     0
 43
0.0
 10
-42.87405674867511
 20
10.35342163901884
 10
-42.87230631421516
 20
10.32155792937885
 10
-42.86621440041517
 20
10.29011785221882
 10
-42.85535973665514
 20
10.25996768197888
 10
-42.83911554047517
 20
10.23222602051885
 10
-42.81708391103506
 20
10.20830867357881
 10
-42.79025936179516
 20
10.19043229681881
 10
-42.75997465427508
 20
10.17986493375883
 10
-42.7280028841551
 20
10.17656305755884
  0
ARC
  5
2E2
330
2
100
AcDbEntity
  8
GAIKEI
  6
Continuous
 62
     1
100
AcDbCircle
 10
-41.11774907905521
 20
-145.9489833847211
 30
0.0
 40
156.1338501709886
100
AcDbArc
 50
89.4127795420008
 51
90.5909185131002
  0
LWPOLYLINE
  5
2E3
330
2
100
AcDbEntity
  8
GAIKEI
  6
Continuous
 62
     1
100
AcDbPolyline
 90
        9
 70
     0
 43
0.0
 10
-42.72789917631508
 20
13.67949863297883
 10
-42.75981733897515
 20
13.67621167449886
 10
-42.79004506435512
 20
13.66568818439884
 10
-42.81684464531508
 20
13.64787433777883
 10
-42.83886929773507
 20
13.6240411912388
 10
-42.85519488435511
 20
13.59619248205888
 10
-42.86612226427519
 20
13.5659180837788
 10
-42.87220210707516
 20
13.5345228709989
 10
-42.87395244927506
 20
13.50266105749881
  0
LWPOLYLINE
  5
2E4
330
2
100
AcDbEntity
  8
GAIKEI
  6
Continuous
 62
     1
100
AcDbPolyline
 90
        9
 70
     0
 43
0.0
 10
-39.51757212547511
 20
10.1766666633589
 10
-39.4856434458352
 20
10.17995775323879
 10
-39.45540915409515
 20
10.19049154535889
 10
-39.42861094581508
 20
10.20831783335882
 10
-39.40659317489508
 20
10.23216154691886
 10
-39.39027738613516
 20
10.2600138172188
 10
-39.37935984403509
 20
10.29028344573885
 10
-39.37328581139514
 20
10.32167115685888
 10
-39.37153745167507
 20
10.35352606471883
  0
ARC
  5
2E5
330
2
100
AcDbEntity
  8
GAIKEI
  6
Continuous
 62
     1
100
AcDbCircle
 10
-41.11777612459514
 20
168.1150014626188
 30
0.0
 40
154.4438960609466
100
AcDbArc
 50
269.4026638221992
 51
270.5936175864996
  0
ARC
  5
2E6
330
2
100
AcDbEntity
  8
GAIKEI
  6
Continuous
 62
     1
100
AcDbCircle
 10
112.8099085779449
 20
11.93311051059879
 30
0.0
 40
152.1896435460989
100
AcDbArc
 50
179.4091305362009
 51
180.5946866357968
  0
ARC
  5
2E7
330
2
100
AcDbEntity
  8
GAIKEI
  6
Continuous
 62
     1
100
AcDbCircle
 10
-196.7427584109351
 20
11.93313731485887
 30
0.0
 40
153.876810640347
100
AcDbArc
 50
359.4117851116016
 51
0.5844197399980708
  0
LWPOLYLINE
  5
2E8
330
2
100
AcDbEntity
  8
GAIKEI
  6
Continuous
 62
     1
100
AcDbPolyline
 90
        9
 70
     0
 43
0.0
 10
-39.37164234937518
 20
13.50255628725881
 10
-39.37339231019519
 20
13.53443025279887
 10
-39.37948524277511
 20
13.56587284507884
 10
-39.39034035151508
 20
13.59601859659881
 10
-39.40657946495515
 20
13.62374858803889
 10
-39.4285998828351
 20
13.64765339077883
 10
-39.45541384365515
 20
13.66552427503882
 10
-39.48569535301511
 20
13.67609209639886
 10
-39.51767619691509
 20
13.67939445857883
  0
LINE
  5
2E9
330
2
100
AcDbEntity
  8
GAIKEI
  6
Continuous
 62
     1
100
AcDbLine
 10
-33.81803863309506
 20
17.3881369327388
 30
0.0
 11
-31.6273422403151
 21
17.3881369327388
 31
0.0
  0
LWPOLYLINE
  5
2EA
330
2
100
AcDbEntity
  8
GAIKEI
  6
Continuous
 62
     1
100
AcDbPolyline
 90
        9
 70
     0
 43
0.0
 10
-33.81803863309506
 20
19.66813693273889
 10
-33.82712737091515
 20
19.66768224937891
 10
-33.83602922859518
 20
19.66611324399889
 10
-33.84464486813522
 20
19.66299828701881
 10
-33.85214273761517
 20
19.65774873211887
 10
-33.85744002205502
 20
19.6503243464789
 10
-33.86060473167504
 20
19.6417179899189
 10
-33.86222021957519
 20
19.6326916496389
 10
-33.86269043671518
 20
19.62348512913888
  0
LWPOLYLINE
  5
2EB
330
2
100
AcDbEntity
  8
GAIKEI
  6
Continuous
 62
     1
100
AcDbPolyline
 90
        9
 70
     0
 43
0.0
 10
-33.86269043671518
 20
17.43278873635881
 10
-33.86223575335521
 20
17.42369999853884
 10
-33.86066674795507
 20
17.41479814083891
 10
-33.8575517909751
 20
17.40618250129887
 10
-33.85230223609506
 20
17.39868463183882
 10
-33.84487785045508
 20
17.39338734737884
 10
-33.83627149387507
 20
17.39022263777883
 10
-33.82724515359519
 20
17.3886071498589
 10
-33.81803863309506
 20
17.38813693273892
  0
LINE
  5
2EC
330
2
100
AcDbEntity
  8
GAIKEI
  6
Continuous
 62
     1
100
AcDbLine
 10
-31.6273422403151
 20
19.66813693273877
 30
0.0
 11
-33.81803863309506
 21
19.66813693273877
 31
0.0
  0
LINE
  5
2ED
330
2
100
AcDbEntity
  8
GAIKEI
  6
Continuous
 62
     1
100
AcDbLine
 10
-33.86269043671518
 20
19.62348512911876
 30
0.0
 11
-33.86269043671518
 21
17.43278873635881
 31
0.0
  0
LINE
  5
2EE
330
2
100
AcDbEntity
  8
GAIKEI
  6
Continuous
 62
     1
100
AcDbLine
 10
-32.18269043671512
 20
23.42813693273877
 30
0.0
 11
-32.18269043671512
 21
24.42813693273877
 31
0.0
  0
ARC
  5
2EF
330
2
100
AcDbEntity
  8
GAIKEI
  6
Continuous
 62
     1
100
AcDbCircle
 10
-32.22269043671508
 20
23.42813693273877
 30
0.0
 40
0.0399999999999998
100
AcDbArc
 50
270.0
 51
0.0
  0
ARC
  5
2F0
330
2
100
AcDbEntity
  8
GAIKEI
  6
Continuous
 62
     1
100
AcDbCircle
 10
-32.22269043671508
 20
24.42813693273877
 30
0.0
 40
0.0400000000000001
100
AcDbArc
 50
0.0
 51
90.0
  0
ARC
  5
2F1
330
2
100
AcDbEntity
  8
GAIKEI
  6
Continuous
 62
     1
100
AcDbCircle
 10
-33.22269043671508
 20
23.42813693273877
 30
0.0
 40
0.0399999999999998
100
AcDbArc
 50
180.0
 51
270.0
  0
LINE
  5
2F2
330
2
100
AcDbEntity
  8
GAIKEI
  6
Continuous
 62
     1
100
AcDbLine
 10
-33.26269043671505
 20
24.42813693273877
 30
0.0
 11
-33.26269043671505
 21
23.42813693273877
 31
0.0
  0
LINE
  5
2F3
330
2
100
AcDbEntity
  8
GAIKEI
  6
Continuous
 62
     1
100
AcDbLine
 10
-33.22269043671508
 20
23.38813693273881
 30
0.0
 11
-32.22269043671508
 21
23.38813693273881
 31
0.0
  0
ARC
  5
2F4
330
2
100
AcDbEntity
  8
GAIKEI
  6
Continuous
 62
     1
100
AcDbCircle
 10
-33.22269043671508
 20
24.42813693273877
 30
0.0
 40
0.0399999999999998
100
AcDbArc
 50
90.0
 51
180.0
  0
LINE
  5
2F5
330
2
100
AcDbEntity
  8
GAIKEI
  6
Continuous
 62
     1
100
AcDbLine
 10
-32.22269043671508
 20
24.46813693273885
 30
0.0
 11
-33.22269043671508
 21
24.46813693273885
 31
0.0
  0
LINE
  5
2F6
330
2
100
AcDbEntity
  8
GAIKEI
  6
Continuous
 62
     1
100
AcDbLine
 10
-27.38269043671517
 20
17.43278873635881
 30
0.0
 11
-27.38269043671517
 21
19.62348512911876
 31
0.0
  0
LINE
  5
2F7
330
2
100
AcDbEntity
  8
GAIKEI
  6
Continuous
 62
     1
100
AcDbLine
 10
-44.22734224031512
 20
19.66813693273877
 30
0.0
 11
-46.41803863309519
 21
19.66813693273877
 31
0.0
  0
LINE
  5
2F8
330
2
100
AcDbEntity
  8
GAIKEI
  6
Continuous
 62
     1
100
AcDbLine
 10
-15.80165541469523
 20
17.3881369327388
 30
0.0
 11
-13.64372545871515
 21
17.3881369327388
 31
0.0
  0
LINE
  5
2F9
330
2
100
AcDbEntity
  8
GAIKEI
  6
Continuous
 62
     1
100
AcDbLine
 10
-13.64372545871515
 20
19.66813693273877
 30
0.0
 11
-15.80165541469523
 21
19.66813693273877
 31
0.0
  0
LINE
  5
2FA
330
2
100
AcDbEntity
  8
GAIKEI
  6
Continuous
 62
     1
100
AcDbLine
 10
-38.06269043671523
 20
19.62348512911876
 30
0.0
 11
-38.06269043671523
 21
17.43278873635881
 31
0.0
  0
CIRCLE
  5
2FB
330
2
100
AcDbEntity
  8
GAIKEI
  6
Continuous
 62
     1
100
AcDbCircle
 10
-28.51513784769509
 20
11.93568952175883
 30
0.0
 40
1.600000000000004
  0
LWPOLYLINE
  5
2FC
330
2
100
AcDbEntity
  8
GAIKEI
  6
Continuous
 62
     1
100
AcDbPolyline
 90
        9
 70
     0
 43
0.0
 10
-30.12789917631517
 20
13.67949863297883
 10
-30.15981733897524
 20
13.67621167449886
 10
-30.19004506435522
 20
13.66568818439884
 10
-30.21684464531518
 20
13.64787433777883
 10
-30.23886929773516
 20
13.6240411912388
 10
-30.2551948843552
 20
13.59619248205888
 10
-30.26612226427506
 20
13.5659180837788
 10
-30.27220210707515
 20
13.5345228709989
 10
-30.27395244927516
 20
13.50266105749881
  0
LWPOLYLINE
  5
2FD
330
2
100
AcDbEntity
  8
GAIKEI
  6
Continuous
 62
     1
100
AcDbPolyline
 90
        9
 70
     0
 43
0.0
 10
-30.27405674867509
 20
10.35342163901884
 10
-30.27230631421526
 20
10.32155792937885
 10
-30.26621440041504
 20
10.29011785221882
 10
-30.25535973665524
 20
10.25996768197888
 10
-30.23911554047504
 20
10.23222602051885
 10
-30.21708391103516
 20
10.20830867357881
 10
-30.19025936179514
 20
10.19043229681881
 10
-30.15997465427517
 20
10.17986493375883
 10
-30.12800288415519
 20
10.17656305755884
  0
ARC
  5
2FE
330
2
100
AcDbEntity
  8
GAIKEI
  6
Continuous
 62
     1
100
AcDbCircle
 10
-28.51774907905519
 20
-145.9489833847211
 30
0.0
 40
156.1338501709961
100
AcDbArc
 50
89.4127795420008
 51
90.5909185131002
  0
ARC
  5
2FF
330
2
100
AcDbEntity
  8
GAIKEI
  6
Continuous
 62
     1
100
AcDbCircle
 10
-184.1427584109751
 20
11.93313731485887
 30
0.0
 40
153.8768106403884
100
AcDbArc
 50
359.4117851116016
 51
0.5844197399980708
  0
LWPOLYLINE
  5
300
330
2
100
AcDbEntity
  8
GAIKEI
  6
Continuous
 62
     1
100
AcDbPolyline
 90
        9
 70
     0
 43
0.0
 10
-26.91757212547509
 20
10.1766666633589
 10
-26.88564344583506
 20
10.17995775323879
 10
-26.85540915409524
 20
10.19049154535889
 10
-26.82861094581517
 20
10.20831783335882
 10
-26.80659317489517
 20
10.23216154691886
 10
-26.79027738613513
 20
10.2600138172188
 10
-26.77935984403507
 20
10.29028344573885
 10
-26.77328581139523
 20
10.32167115685888
 10
-26.77153745167516
 20
10.35352606471883
  0
LWPOLYLINE
  5
301
330
2
100
AcDbEntity
  8
GAIKEI
  6
Continuous
 62
     1
100
AcDbPolyline
 90
        9
 70
     0
 43
0.0
 10
-26.77164234937504
 20
13.50255628725881
 10
-26.77339231019505
 20
13.53443025279887
 10
-26.77948524277508
 20
13.56587284507884
 10
-26.79034035151517
 20
13.59601859659881
 10
-26.80657946495512
 20
13.62374858803889
 10
-26.82859988283508
 20
13.64765339077883
 10
-26.85541384365524
 20
13.66552427503882
 10
-26.88569535301508
 20
13.67609209639886
 10
-26.91767619691518
 20
13.67939445857883
  0
ARC
  5
302
330
2
100
AcDbEntity
  8
GAIKEI
  6
Continuous
 62
     1
100
AcDbCircle
 10
-28.517776124595
 20
168.1150014626188
 30
0.0
 40
154.4438960609466
100
AcDbArc
 50
269.4026638221992
 51
270.5936175864996
  0
ARC
  5
303
330
2
100
AcDbEntity
  8
GAIKEI
  6
Continuous
 62
     1
100
AcDbCircle
 10
125.4099085779448
 20
11.93311051059879
 30
0.0
 40
152.1896435460977
100
AcDbArc
 50
179.4091305362009
 51
180.5946866357968
  0
LINE
  5
304
330
2
100
AcDbEntity
  8
GAIKEI
  6
Continuous
 62
     1
100
AcDbLine
 10
-29.66269043671514
 20
19.62348512911876
 30
0.0
 11
-29.66269043671514
 21
17.43278873635881
 31
0.0
  0
LWPOLYLINE
  5
305
330
2
100
AcDbEntity
  8
GAIKEI
  6
Continuous
 62
     1
100
AcDbPolyline
 90
        9
 70
     0
 43
0.0
 10
-29.61803863309524
 20
19.66813693273889
 10
-29.62712737091511
 20
19.66768224937891
 10
-29.63602922859513
 20
19.66611324399889
 10
-29.64464486813517
 20
19.66299828701881
 10
-29.65214273761512
 20
19.65774873211887
 10
-29.6574400220552
 20
19.6503243464789
 10
-29.66060473167522
 20
19.6417179899189
 10
-29.66222021957515
 20
19.6326916496389
 10
-29.66269043671514
 20
19.62348512913888
  0
LINE
  5
306
330
2
100
AcDbEntity
  8
GAIKEI
  6
Continuous
 62
     1
100
AcDbLine
 10
-29.61803863309524
 20
17.3881369327388
 30
0.0
 11
-27.42734224031506
 21
17.3881369327388
 31
0.0
  0
LWPOLYLINE
  5
307
330
2
100
AcDbEntity
  8
GAIKEI
  6
Continuous
 62
     1
100
AcDbPolyline
 90
        9
 70
     0
 43
0.0
 10
-27.38269043671517
 20
19.62348512911887
 10
-27.38314512005513
 20
19.63257386693885
 10
-27.38471412545505
 20
19.64147572463889
 10
-27.38782908243525
 20
19.65009136417882
 10
-27.39307863733507
 20
19.65758923365888
 10
-27.40050302295504
 20
19.66288651809884
 10
-27.40910937953504
 20
19.66605122769886
 10
-27.41813571981515
 20
19.66766671561891
 10
-27.42734224031506
 20
19.66813693273889
  0
LWPOLYLINE
  5
308
330
2
100
AcDbEntity
  8
GAIKEI
  6
Continuous
 62
     1
100
AcDbPolyline
 90
        9
 70
     0
 43
0.0
 10
-29.66269043671514
 20
17.43278873635881
 10
-29.66223575335516
 20
17.42369999853884
 10
-29.66066674795525
 20
17.41479814083891
 10
-29.65755179097505
 20
17.40618250129887
 10
-29.65230223609524
 20
17.39868463183882
 10
-29.64487785045503
 20
17.39338734737884
 10
-29.63627149387503
 20
17.39022263777883
 10
-29.62724515359514
 20
17.3886071498589
 10
-29.61803863309524
 20
17.38813693273892
  0
LINE
  5
309
330
2
100
AcDbEntity
  8
GAIKEI
  6
Continuous
 62
     1
100
AcDbLine
 10
-27.42734224031506
 20
19.66813693273877
 30
0.0
 11
-29.61803863309524
 21
19.66813693273877
 31
0.0
  0
LWPOLYLINE
  5
30A
330
2
100
AcDbEntity
  8
GAIKEI
  6
Continuous
 62
     1
100
AcDbPolyline
 90
        9
 70
     0
 43
0.0
 10
-27.42734224031506
 20
17.38813693273892
 10
-27.4182535025152
 20
17.38859161609889
 10
-27.40935164481516
 20
17.3901606214788
 10
-27.40073600527512
 20
17.39327557845888
 10
-27.39323813579517
 20
17.39852513335882
 10
-27.3879408513551
 20
17.40594951899879
 10
-27.38477614175508
 20
17.4145558755788
 10
-27.38316065383515
 20
17.4235822158389
 10
-27.38269043671517
 20
17.43278873633881
  0
LWPOLYLINE
  5
30B
330
2
100
AcDbEntity
  8
GAIKEI
  6
Continuous
 62
     1
100
AcDbPolyline
 90
        9
 70
     0
 43
0.0
 10
-31.6273422403151
 20
17.38813693273892
 10
-31.61825350251502
 20
17.38859161609889
 10
-31.60935164481521
 20
17.3901606214788
 10
-31.60073600527517
 20
17.39327557845888
 10
-31.59323813579522
 20
17.39852513335882
 10
-31.58794085135514
 20
17.40594951899879
 10
-31.58477614175513
 20
17.4145558755788
 10
-31.5831606538352
 20
17.4235822158389
 10
-31.58269043671521
 20
17.43278873633881
  0
LINE
  5
30C
330
2
100
AcDbEntity
  8
GAIKEI
  6
Continuous
 62
     1
100
AcDbLine
 10
-31.58269043671521
 20
17.43278873635881
 30
0.0
 11
-31.58269043671521
 21
19.62348512911876
 31
0.0
  0
LWPOLYLINE
  5
30D
330
2
100
AcDbEntity
  8
GAIKEI
  6
Continuous
 62
     1
100
AcDbPolyline
 90
        9
 70
     0
 43
0.0
 10
-31.58269043671521
 20
19.62348512911887
 10
-31.58314512005518
 20
19.63257386693885
 10
-31.58471412545509
 20
19.64147572463889
 10
-31.58782908243507
 20
19.65009136417882
 10
-31.59307863733511
 20
19.65758923365888
 10
-31.60050302295508
 20
19.66288651809884
 10
-31.60910937953508
 20
19.66605122769886
 10
-31.6181357198152
 20
19.66766671561891
 10
-31.6273422403151
 20
19.66813693273889
  0
ARC
  5
30E
330
2
100
AcDbEntity
  8
GAIKEI
  6
Continuous
 62
     1
100
AcDbCircle
 10
-22.62269043671517
 20
23.42813693273877
 30
0.0
 40
0.0399999999999998
100
AcDbArc
 50
270.0
 51
0.0
  0
LINE
  5
30F
330
2
100
AcDbEntity
  8
GAIKEI
  6
Continuous
 62
     1
100
AcDbLine
 10
-22.58269043671521
 20
23.42813693273877
 30
0.0
 11
-22.58269043671521
 21
24.42813693273877
 31
0.0
  0
ARC
  5
310
330
2
100
AcDbEntity
  8
GAIKEI
  6
Continuous
 62
     1
100
AcDbCircle
 10
-22.62269043671517
 20
24.42813693273877
 30
0.0
 40
0.0399999999999998
100
AcDbArc
 50
0.0
 51
90.0
  0
ARC
  5
311
330
2
100
AcDbEntity
  8
GAIKEI
  6
Continuous
 62
     1
100
AcDbCircle
 10
-23.62269043671517
 20
24.42813693273877
 30
0.0
 40
0.0399999999999998
100
AcDbArc
 50
90.0
 51
180.0
  0
LINE
  5
312
330
2
100
AcDbEntity
  8
GAIKEI
  6
Continuous
 62
     1
100
AcDbLine
 10
-23.62269043671517
 20
23.38813693273881
 30
0.0
 11
-22.62269043671517
 21
23.38813693273881
 31
0.0
  0
LINE
  5
313
330
2
100
AcDbEntity
  8
GAIKEI
  6
Continuous
 62
     1
100
AcDbLine
 10
-22.62269043671517
 20
24.46813693273885
 30
0.0
 11
-23.62269043671517
 21
24.46813693273885
 31
0.0
  0
LINE
  5
314
330
2
100
AcDbEntity
  8
GAIKEI
  6
Continuous
 62
     1
100
AcDbLine
 10
-23.66269043671514
 20
24.42813693273877
 30
0.0
 11
-23.66269043671514
 21
23.42813693273877
 31
0.0
  0
ARC
  5
315
330
2
100
AcDbEntity
  8
GAIKEI
  6
Continuous
 62
     1
100
AcDbCircle
 10
-23.62269043671517
 20
23.42813693273877
 30
0.0
 40
0.0399999999999998
100
AcDbArc
 50
180.0
 51
270.0
  0
LINE
  5
316
330
2
100
AcDbEntity
  8
GAIKEI
  6
Continuous
 62
     1
100
AcDbLine
 10
-21.98269043671507
 20
17.44917195475887
 30
0.0
 11
-21.98269043671507
 21
19.60710191071882
 31
0.0
  0
LWPOLYLINE
  5
317
330
2
100
AcDbEntity
  8
GAIKEI
  6
Continuous
 62
     1
100
AcDbPolyline
 90
        9
 70
     0
 43
0.0
 10
-21.98269043671507
 20
19.60710191071882
 10
-21.98343118161506
 20
19.61947729407882
 10
-21.98591934083515
 20
19.63155644053881
 10
-21.99063949685524
 20
19.64295330835887
 10
-21.99796797249519
 20
19.65280273373889
 10
-22.00785658461518
 20
19.66017041789882
 10
-22.01931558925526
 20
19.66492121287888
 10
-22.03137762849519
 20
19.66740267279886
 10
-22.04372545871525
 20
19.66813693273889
  0
LINE
  5
318
330
2
100
AcDbEntity
  8
GAIKEI
  6
Continuous
 62
     1
100
AcDbLine
 10
-22.04372545871525
 20
19.66813693273877
 30
0.0
 11
-24.2016554146951
 21
19.66813693273877
 31
0.0
  0
LWPOLYLINE
  5
319
330
2
100
AcDbEntity
  8
GAIKEI
  6
Continuous
 62
     1
100
AcDbPolyline
 90
        9
 70
     0
 43
0.0
 10
-22.04372545871525
 20
17.38813693273892
 10
-22.03135007537503
 20
17.38887767765891
 10
-22.01927092891515
 20
17.39136583687889
 10
-22.0078740610752
 20
17.39608599287885
 10
-21.99802463571518
 20
17.40341446853881
 10
-21.99065695153513
 20
17.41330308063879
 10
-21.98590615657508
 20
17.42476208527887
 10
-21.98342469665522
 20
17.43682412453881
 10
-21.98269043671507
 20
17.44917195473886
  0
LINE
  5
31A
330
2
100
AcDbEntity
  8
GAIKEI
  6
Continuous
 62
     1
100
AcDbLine
 10
-24.2016554146951
 20
17.3881369327388
 30
0.0
 11
-22.04372545871525
 21
17.3881369327388
 31
0.0
  0
LWPOLYLINE
  5
31B
330
2
100
AcDbEntity
  8
GAIKEI
  6
Continuous
 62
     1
100
AcDbPolyline
 90
        9
 70
     0
 43
0.0
 10
-24.26269043671505
 20
17.44917195475887
 10
-24.26194969179505
 20
17.43679657141888
 10
-24.25946153257519
 20
17.42471742493887
 10
-24.25474137657511
 20
17.41332055711882
 10
-24.24741290091515
 20
17.4034711317388
 10
-24.23752428879516
 20
17.39610344757887
 10
-24.22606528415509
 20
17.39135265259881
 10
-24.21400324491515
 20
17.38887119267883
 10
-24.20165541471511
 20
17.38813693273892
  0
LWPOLYLINE
  5
31C
330
2
100
AcDbEntity
  8
GAIKEI
  6
Continuous
 62
     1
100
AcDbPolyline
 90
        9
 70
     0
 43
0.0
 10
-24.2016554146951
 20
19.66813693273889
 10
-24.21403079803508
 20
19.66739618781889
 10
-24.2261099445152
 20
19.66490802861881
 10
-24.23750681233514
 20
19.66018787259884
 10
-24.24735623771517
 20
19.65285939693888
 10
-24.25472392187521
 20
19.64297078483889
 10
-24.25947471685504
 20
19.63151178019882
 10
-24.26195617677513
 20
19.61944974093887
 10
-24.26269043671505
 20
19.60710191073883
  0
LINE
  5
31D
330
2
100
AcDbEntity
  8
GAIKEI
  6
Continuous
 62
     1
100
AcDbLine
 10
-24.26269043671505
 20
19.60710191071882
 30
0.0
 11
-24.26269043671505
 21
17.44917195475887
 31
0.0
  0
LWPOLYLINE
  5
31E
330
2
100
AcDbEntity
  8
GAIKEI
  6
Continuous
 62
     1
100
AcDbPolyline
 90
        9
 70
     0
 43
0.0
 10
-38.67405674867518
 20
10.35342163901884
 10
-38.67230631421512
 20
10.32155792937885
 10
-38.66621440041513
 20
10.29011785221882
 10
-38.6553597366551
 20
10.25996768197888
 10
-38.63911554047513
 20
10.23222602051885
 10
-38.61708391103514
 20
10.20830867357881
 10
-38.59025936179512
 20
10.19043229681881
 10
-38.55997465427515
 20
10.17986493375883
 10
-38.52800288415517
 20
10.17656305755884
  0
ARC
  5
31F
330
2
100
AcDbEntity
  8
GAIKEI
  6
Continuous
 62
     1
100
AcDbCircle
 10
-36.91774907905529
 20
-145.9489833847211
 30
0.0
 40
156.1338501709979
100
AcDbArc
 50
89.4127795420008
 51
90.5909185131002
  0
LWPOLYLINE
  5
320
330
2
100
AcDbEntity
  8
GAIKEI
  6
Continuous
 62
     1
100
AcDbPolyline
 90
        9
 70
     0
 43
0.0
 10
-38.52789917631515
 20
13.67949863297883
 10
-38.55981733897511
 20
13.67621167449886
 10
-38.59004506435508
 20
13.66568818439884
 10
-38.61684464531516
 20
13.64787433777883
 10
-38.63886929773514
 20
13.6240411912388
 10
-38.65519488435507
 20
13.59619248205888
 10
-38.66612226427515
 20
13.5659180837788
 10
-38.67220210707512
 20
13.5345228709989
 10
-38.67395244927513
 20
13.50266105749881
  0
LWPOLYLINE
  5
321
330
2
100
AcDbEntity
  8
GAIKEI
  6
Continuous
 62
     1
100
AcDbPolyline
 90
        9
 70
     0
 43
0.0
 10
-35.31757212547518
 20
10.1766666633589
 10
-35.28564344583515
 20
10.17995775323879
 10
-35.25540915409511
 20
10.19049154535889
 10
-35.22861094581504
 20
10.20831783335882
 10
-35.20659317489526
 20
10.23216154691886
 10
-35.19027738613522
 20
10.2600138172188
 10
-35.17935984403516
 20
10.29028344573885
 10
-35.17328581139509
 20
10.32167115685888
 10
-35.17153745167525
 20
10.35352606471883
  0
ARC
  5
322
330
2
100
AcDbEntity
  8
GAIKEI
  6
Continuous
 62
     1
100
AcDbCircle
 10
-192.5427584109551
 20
11.93313731485887
 30
0.0
 40
153.8768106403833
100
AcDbArc
 50
359.4117851116016
 51
0.5844197399980708
  0
LWPOLYLINE
  5
323
330
2
100
AcDbEntity
  8
GAIKEI
  6
Continuous
 62
     1
100
AcDbPolyline
 90
        9
 70
     0
 43
0.0
 10
-35.17164234937514
 20
13.50255628725881
 10
-35.17339231019514
 20
13.53443025279887
 10
-35.17948524277517
 20
13.56587284507884
 10
-35.19034035151526
 20
13.59601859659881
 10
-35.20657946495521
 20
13.62374858803889
 10
-35.22859988283517
 20
13.64765339077883
 10
-35.25541384365511
 20
13.66552427503882
 10
-35.28569535301517
 20
13.67609209639886
 10
-35.31767619691505
 20
13.67939445857883
  0
ARC
  5
324
330
2
100
AcDbEntity
  8
GAIKEI
  6
Continuous
 62
     1
100
AcDbCircle
 10
-36.91777612459509
 20
168.1150014626188
 30
0.0
 40
154.4438960609463
100
AcDbArc
 50
269.4026638221992
 51
270.5936175864996
  0
ARC
  5
325
330
2
100
AcDbEntity
  8
GAIKEI
  6
Continuous
 62
     1
100
AcDbCircle
 10
117.0099085779247
 20
11.93311051059879
 30
0.0
 40
152.1896435460784
100
AcDbArc
 50
179.4091305362009
 51
180.5946866357968
  0
LWPOLYLINE
  5
326
330
2
100
AcDbEntity
  8
GAIKEI
  6
Continuous
 62
     1
100
AcDbPolyline
 90
        9
 70
     0
 43
0.0
 10
-13.11757212547513
 20
10.1766666633589
 10
-13.0856434458351
 20
10.17995775323879
 10
-13.05540915409506
 20
10.19049154535889
 10
-13.02861094581521
 20
10.20831783335882
 10
-13.00659317489521
 20
10.23216154691886
 10
-12.99027738613517
 20
10.2600138172188
 10
-12.97935984403511
 20
10.29028344573885
 10
-12.97328581139504
 20
10.32167115685888
 10
-12.9715374516752
 20
10.35352606471883
  0
ARC
  5
327
330
2
100
AcDbEntity
  8
GAIKEI
  6
Continuous
 62
     1
100
AcDbCircle
 10
-14.71774907905524
 20
-145.9489833847211
 30
0.0
 40
156.1338501709979
100
AcDbArc
 50
89.4127795420008
 51
90.5909185131002
  0
LWPOLYLINE
  5
328
330
2
100
AcDbEntity
  8
GAIKEI
  6
Continuous
 62
     1
100
AcDbPolyline
 90
        9
 70
     0
 43
0.0
 10
-12.97164234937509
 20
13.50255628725881
 10
-12.97339231019509
 20
13.53443025279887
 10
-12.97948524277513
 20
13.56587284507884
 10
-12.99034035151521
 20
13.59601859659881
 10
-13.00657946495517
 20
13.62374858803889
 10
-13.02859988283512
 20
13.64765339077883
 10
-13.05541384365506
 20
13.66552427503882
 10
-13.08569535301512
 20
13.67609209639886
 10
-13.11767619691522
 20
13.67939445857883
  0
ARC
  5
329
330
2
100
AcDbEntity
  8
GAIKEI
  6
Continuous
 62
     1
100
AcDbCircle
 10
-14.71777612459504
 20
168.1150014626188
 30
0.0
 40
154.4438960609465
100
AcDbArc
 50
269.4026638221992
 51
270.5936175864996
  0
ARC
  5
32A
330
2
100
AcDbEntity
  8
GAIKEI
  6
Continuous
 62
     1
100
AcDbCircle
 10
139.209908577925
 20
11.93311051059879
 30
0.0
 40
152.1896435460779
100
AcDbArc
 50
179.4091305362009
 51
180.5946866357968
  0
LWPOLYLINE
  5
32B
330
2
100
AcDbEntity
  8
GAIKEI
  6
Continuous
 62
     1
100
AcDbPolyline
 90
        9
 70
     0
 43
0.0
 10
-16.32789917631521
 20
13.67949863297883
 10
-16.35981733897506
 20
13.67621167449886
 10
-16.39004506435503
 20
13.66568818439884
 10
-16.41684464531522
 20
13.64787433777883
 10
-16.43886929773521
 20
13.6240411912388
 10
-16.45519488435502
 20
13.59619248205888
 10
-16.4661222642751
 20
13.5659180837788
 10
-16.47220210707519
 20
13.5345228709989
 10
-16.4739524492752
 20
13.50266105749881
  0
LINE
  5
32C
330
2
100
AcDbEntity
  8
GAIKEI
  6
Continuous
 62
     1
100
AcDbLine
 10
-35.78269043671526
 20
17.43278873635881
 30
0.0
 11
-35.78269043671526
 21
19.62348512911876
 31
0.0
  0
LWPOLYLINE
  5
32D
330
2
100
AcDbEntity
  8
GAIKEI
  6
Continuous
 62
     1
100
AcDbPolyline
 90
        9
 70
     0
 43
0.0
 10
-31.11757212547514
 20
10.1766666633589
 10
-31.0856434458351
 20
10.17995775323879
 10
-31.05540915409506
 20
10.19049154535889
 10
-31.02861094581522
 20
10.20831783335882
 10
-31.00659317489522
 20
10.23216154691886
 10
-30.99027738613518
 20
10.2600138172188
 10
-30.97935984403512
 20
10.29028344573885
 10
-30.97328581139505
 20
10.32167115685888
 10
-30.97153745167521
 20
10.35352606471883
  0
ARC
  5
32E
330
2
100
AcDbEntity
  8
GAIKEI
  6
Continuous
 62
     1
100
AcDbCircle
 10
-32.71774907905524
 20
-145.9489833847211
 30
0.0
 40
156.1338501709978
100
AcDbArc
 50
89.4127795420008
 51
90.5909185131002
  0
ARC
  5
32F
330
2
100
AcDbEntity
  8
GAIKEI
  6
Continuous
 62
     1
100
AcDbCircle
 10
-32.71777612459505
 20
168.1150014626188
 30
0.0
 40
154.4438960609498
100
AcDbArc
 50
269.4026638221992
 51
270.5936175864996
  0
ARC
  5
330
330
2
100
AcDbEntity
  8
GAIKEI
  6
Continuous
 62
     1
100
AcDbCircle
 10
121.2099085779448
 20
11.93311051059879
 30
0.0
 40
152.1896435460923
100
AcDbArc
 50
179.4091305362009
 51
180.5946866357968
  0
LWPOLYLINE
  5
331
330
2
100
AcDbEntity
  8
GAIKEI
  6
Continuous
 62
     1
100
AcDbPolyline
 90
        9
 70
     0
 43
0.0
 10
-30.97164234937509
 20
13.50255628725881
 10
-30.9733923101951
 20
13.53443025279887
 10
-30.97948524277513
 20
13.56587284507884
 10
-30.99034035151522
 20
13.59601859659881
 10
-31.00657946495517
 20
13.62374858803889
 10
-31.02859988283512
 20
13.64765339077883
 10
-31.05541384365506
 20
13.66552427503882
 10
-31.08569535301513
 20
13.67609209639886
 10
-31.11767619691523
 20
13.67939445857883
  0
LWPOLYLINE
  5
332
330
2
100
AcDbEntity
  8
GAIKEI
  6
Continuous
 62
     1
100
AcDbPolyline
 90
        9
 70
     0
 43
0.0
 10
-34.32789917631521
 20
13.67949863297883
 10
-34.35981733897506
 20
13.67621167449886
 10
-34.39004506435504
 20
13.66568818439884
 10
-34.41684464531522
 20
13.64787433777883
 10
-34.43886929773521
 20
13.6240411912388
 10
-34.45519488435503
 20
13.59619248205888
 10
-34.4661222642751
 20
13.5659180837788
 10
-34.47220210707519
 20
13.5345228709989
 10
-34.4739524492752
 20
13.50266105749881
  0
LWPOLYLINE
  5
333
330
2
100
AcDbEntity
  8
GAIKEI
  6
Continuous
 62
     1
100
AcDbPolyline
 90
        9
 70
     0
 43
0.0
 10
-34.47405674867514
 20
10.35342163901884
 10
-34.47230631421508
 20
10.32155792937885
 10
-34.46621440041508
 20
10.29011785221882
 10
-34.45535973665506
 20
10.25996768197888
 10
-34.43911554047509
 20
10.23222602051885
 10
-34.41708391103521
 20
10.20830867357881
 10
-34.39025936179519
 20
10.19043229681881
 10
-34.35997465427522
 20
10.17986493375883
 10
-34.32800288415501
 20
10.17656305755884
  0
ARC
  5
334
330
2
100
AcDbEntity
  8
GAIKEI
  6
Continuous
 62
     1
100
AcDbCircle
 10
-188.3427584109752
 20
11.93313731485887
 30
0.0
 40
153.8768106403915
100
AcDbArc
 50
359.4117851116016
 51
0.5844197399980708
  0
LINE
  5
335
330
2
100
AcDbEntity
  8
GAIKEI
  6
Continuous
 62
     1
100
AcDbLine
 10
-40.02734224031519
 20
19.66813693273877
 30
0.0
 11
-42.21803863309514
 21
19.66813693273877
 31
0.0
  0
LINE
  5
336
330
2
100
AcDbEntity
  8
GAIKEI
  6
Continuous
 62
     1
100
AcDbLine
 10
-39.98269043671519
 20
17.43278873635881
 30
0.0
 11
-39.98269043671519
 21
19.62348512911876
 31
0.0
  0
LINE
  5
337
330
2
100
AcDbEntity
  8
GAIKEI
  6
Continuous
 62
     1
100
AcDbLine
 10
-27.98269043671508
 20
23.42813693273877
 30
0.0
 11
-27.98269043671508
 21
24.42813693273877
 31
0.0
  0
ARC
  5
338
330
2
100
AcDbEntity
  8
GAIKEI
  6
Continuous
 62
     1
100
AcDbCircle
 10
-29.02269043671504
 20
24.42813693273877
 30
0.0
 40
0.0399999999999998
100
AcDbArc
 50
90.0
 51
180.0
  0
LINE
  5
339
330
2
100
AcDbEntity
  8
GAIKEI
  6
Continuous
 62
     1
100
AcDbLine
 10
-29.06269043671523
 20
24.42813693273877
 30
0.0
 11
-29.06269043671523
 21
23.42813693273877
 31
0.0
  0
ARC
  5
33A
330
2
100
AcDbEntity
  8
GAIKEI
  6
Continuous
 62
     1
100
AcDbCircle
 10
-29.02269043671504
 20
23.42813693273877
 30
0.0
 40
0.04
100
AcDbArc
 50
180.0
 51
270.0
  0
LINE
  5
33B
330
2
100
AcDbEntity
  8
GAIKEI
  6
Continuous
 62
     1
100
AcDbLine
 10
-29.02269043671504
 20
23.38813693273881
 30
0.0
 11
-28.02269043671504
 21
23.38813693273881
 31
0.0
  0
ARC
  5
33C
330
2
100
AcDbEntity
  8
GAIKEI
  6
Continuous
 62
     1
100
AcDbCircle
 10
-28.02269043671504
 20
23.42813693273877
 30
0.0
 40
0.0399999999999998
100
AcDbArc
 50
270.0
 51
0.0
  0
ARC
  5
33D
330
2
100
AcDbEntity
  8
GAIKEI
  6
Continuous
 62
     1
100
AcDbCircle
 10
-28.02269043671504
 20
24.42813693273877
 30
0.0
 40
0.0400000000000001
100
AcDbArc
 50
0.0
 51
90.0
  0
LINE
  5
33E
330
2
100
AcDbEntity
  8
GAIKEI
  6
Continuous
 62
     1
100
AcDbLine
 10
-28.02269043671504
 20
24.46813693273885
 30
0.0
 11
-29.02269043671504
 21
24.46813693273885
 31
0.0
  0
LINE
  5
33F
330
2
100
AcDbEntity
  8
GAIKEI
  6
Continuous
 62
     1
100
AcDbLine
 10
-46.46269043671509
 20
19.62348512911876
 30
0.0
 11
-46.46269043671509
 21
17.43278873635881
 31
0.0
  0
LWPOLYLINE
  5
340
330
2
100
AcDbEntity
  8
GAIKEI
  6
Continuous
 62
     1
100
AcDbPolyline
 90
        9
 70
     0
 43
0.0
 10
-46.46269043671509
 20
17.43278873635881
 10
-46.46223575335511
 20
17.42369999853884
 10
-46.46066674795508
 20
17.41479814083891
 10
-46.45755179097512
 20
17.40618250129887
 10
-46.45230223609519
 20
17.39868463183882
 10
-46.4448778504551
 20
17.39338734737884
 10
-46.43627149387509
 20
17.39022263777883
 10
-46.4272451535951
 20
17.3886071498589
 10
-46.41803863309519
 20
17.38813693273892
  0
LINE
  5
341
330
2
100
AcDbEntity
  8
GAIKEI
  6
Continuous
 62
     1
100
AcDbLine
 10
-44.18269043671512
 20
17.43278873635881
 30
0.0
 11
-44.18269043671512
 21
19.62348512911876
 31
0.0
  0
LWPOLYLINE
  5
342
330
2
100
AcDbEntity
  8
GAIKEI
  6
Continuous
 62
     1
100
AcDbPolyline
 90
        9
 70
     0
 43
0.0
 10
-44.22734224031512
 20
17.38813693273892
 10
-44.21825350251515
 20
17.38859161609889
 10
-44.20935164481512
 20
17.3901606214788
 10
-44.20073600527508
 20
17.39327557845888
 10
-44.19323813579512
 20
17.39852513335882
 10
-44.18794085135516
 20
17.40594951899879
 10
-44.18477614175515
 20
17.4145558755788
 10
-44.1831606538351
 20
17.4235822158389
 10
-44.18269043671512
 20
17.43278873633881
  0
LINE
  5
343
330
2
100
AcDbEntity
  8
GAIKEI
  6
Continuous
 62
     1
100
AcDbLine
 10
-46.41803863309519
 20
17.3881369327388
 30
0.0
 11
-44.22734224031512
 21
17.3881369327388
 31
0.0
  0
LWPOLYLINE
  5
344
330
2
100
AcDbEntity
  8
GAIKEI
  6
Continuous
 62
     1
100
AcDbPolyline
 90
        9
 70
     0
 43
0.0
 10
-44.18269043671512
 20
19.62348512911887
 10
-44.18314512005508
 20
19.63257386693885
 10
-44.18471412545511
 20
19.64147572463889
 10
-44.18782908243509
 20
19.65009136417882
 10
-44.19307863733513
 20
19.65758923365888
 10
-44.2005030229551
 20
19.66288651809884
 10
-44.2091093795351
 20
19.66605122769886
 10
-44.21813571981511
 20
19.66766671561891
 10
-44.22734224031512
 20
19.66813693273889
  0
LWPOLYLINE
  5
345
330
2
100
AcDbEntity
  8
GAIKEI
  6
Continuous
 62
     1
100
AcDbPolyline
 90
        9
 70
     0
 43
0.0
 10
-42.26269043671516
 20
17.43278873635881
 10
-42.26223575335507
 20
17.42369999853884
 10
-42.26066674795515
 20
17.41479814083891
 10
-42.25755179097518
 20
17.40618250129887
 10
-42.25230223609514
 20
17.39868463183882
 10
-42.24487785045517
 20
17.39338734737884
 10
-42.23627149387517
 20
17.39022263777883
 10
-42.22724515359516
 20
17.3886071498589
 10
-42.21803863309514
 20
17.38813693273892
  0
LWPOLYLINE
  5
346
330
2
100
AcDbEntity
  8
GAIKEI
  6
Continuous
 62
     1
100
AcDbPolyline
 90
        9
 70
     0
 43
0.0
 10
-42.21803863309514
 20
19.66813693273889
 10
-42.22712737091512
 20
19.66768224937891
 10
-42.23602922859515
 20
19.66611324399889
 10
-42.24464486813508
 20
19.66299828701881
 10
-42.25214273761515
 20
19.65774873211887
 10
-42.25744002205511
 20
19.6503243464789
 10
-42.26060473167513
 20
19.6417179899189
 10
-42.26222021957517
 20
19.6326916496389
 10
-42.26269043671516
 20
19.62348512913888
  0
LINE
  5
347
330
2
100
AcDbEntity
  8
GAIKEI
  6
Continuous
 62
     1
100
AcDbLine
 10
-42.26269043671516
 20
19.62348512911876
 30
0.0
 11
-42.26269043671516
 21
17.43278873635881
 31
0.0
  0
LWPOLYLINE
  5
348
330
2
100
AcDbEntity
  8
GAIKEI
  6
Continuous
 62
     1
100
AcDbPolyline
 90
        9
 70
     0
 43
0.0
 10
-39.98269043671508
 20
19.62348512911887
 10
-39.98314512005516
 20
19.63257386693885
 10
-39.98471412545518
 20
19.64147572463889
 10
-39.98782908243516
 20
19.65009136417882
 10
-39.99307863733509
 20
19.65758923365888
 10
-40.00050302295517
 20
19.66288651809884
 10
-40.00910937953517
 20
19.66605122769886
 10
-40.01813571981506
 20
19.66766671561891
 10
-40.02734224031519
 20
19.66813693273889
  0
LWPOLYLINE
  5
349
330
2
100
AcDbEntity
  8
GAIKEI
  6
Continuous
 62
     1
100
AcDbPolyline
 90
        9
 70
     0
 43
0.0
 10
-40.02734224031519
 20
17.38813693273892
 10
-40.0182535025151
 20
17.38859161609889
 10
-40.00935164481506
 20
17.3901606214788
 10
-40.00073600527514
 20
17.39327557845888
 10
-39.99323813579508
 20
17.39852513335882
 10
-39.98794085135512
 20
17.40594951899879
 10
-39.98477614175511
 20
17.4145558755788
 10
-39.98316065383517
 20
17.4235822158389
 10
-39.98269043671508
 20
17.43278873633881
  0
LINE
  5
34A
330
2
100
AcDbEntity
  8
GAIKEI
  6
Continuous
 62
     1
100
AcDbLine
 10
-42.21803863309514
 20
17.3881369327388
 30
0.0
 11
-40.02734224031519
 21
17.3881369327388
 31
0.0
  0
LINE
  5
34B
330
2
100
AcDbEntity
  8
GAIKEI
  6
Continuous
 62
     1
100
AcDbLine
 10
-35.82734224031515
 20
19.66813693273877
 30
0.0
 11
-38.0180386330951
 21
19.66813693273877
 31
0.0
  0
LWPOLYLINE
  5
34C
330
2
100
AcDbEntity
  8
GAIKEI
  6
Continuous
 62
     1
100
AcDbPolyline
 90
        9
 70
     0
 43
0.0
 10
-38.06269043671523
 20
17.43278873635881
 10
-38.06223575335526
 20
17.42369999853884
 10
-38.06066674795511
 20
17.41479814083891
 10
-38.05755179097514
 20
17.40618250129887
 10
-38.0523022360951
 20
17.39868463183882
 10
-38.04487785045512
 20
17.39338734737884
 10
-38.03627149387512
 20
17.39022263777883
 10
-38.02724515359523
 20
17.3886071498589
 10
-38.0180386330951
 20
17.38813693273892
  0
LWPOLYLINE
  5
34D
330
2
100
AcDbEntity
  8
GAIKEI
  6
Continuous
 62
     1
100
AcDbPolyline
 90
        9
 70
     0
 43
0.0
 10
-38.0180386330951
 20
19.66813693273889
 10
-38.0271273709152
 20
19.66768224937891
 10
-38.03602922859523
 20
19.66611324399889
 10
-38.04464486813504
 20
19.66299828701881
 10
-38.05214273761521
 20
19.65774873211887
 10
-38.05744002205506
 20
19.6503243464789
 10
-38.06060473167509
 20
19.6417179899189
 10
-38.06222021957524
 20
19.6326916496389
 10
-38.06269043671523
 20
19.62348512913888
  0
LWPOLYLINE
  5
34E
330
2
100
AcDbEntity
  8
GAIKEI
  6
Continuous
 62
     1
100
AcDbPolyline
 90
        9
 70
     0
 43
0.0
 10
-35.82734224031515
 20
17.38813693273892
 10
-35.81825350251506
 20
17.38859161609889
 10
-35.80935164481525
 20
17.3901606214788
 10
-35.80073600527521
 20
17.39327557845888
 10
-35.79323813579504
 20
17.39852513335882
 10
-35.78794085135519
 20
17.40594951899879
 10
-35.78477614175517
 20
17.4145558755788
 10
-35.78316065383524
 20
17.4235822158389
 10
-35.78269043671526
 20
17.43278873633881
  0
LWPOLYLINE
  5
34F
330
2
100
AcDbEntity
  8
GAIKEI
  6
Continuous
 62
     1
100
AcDbPolyline
 90
        9
 70
     0
 43
0.0
 10
-35.78269043671526
 20
19.62348512911887
 10
-35.78314512005523
 20
19.63257386693885
 10
-35.78471412545514
 20
19.64147572463889
 10
-35.78782908243511
 20
19.65009136417882
 10
-35.79307863733516
 20
19.65758923365888
 10
-35.80050302295513
 20
19.66288651809884
 10
-35.80910937953513
 20
19.66605122769886
 10
-35.81813571981502
 20
19.66766671561891
 10
-35.82734224031515
 20
19.66813693273889
  0
LINE
  5
350
330
2
100
AcDbEntity
  8
GAIKEI
  6
Continuous
 62
     1
100
AcDbLine
 10
-38.0180386330951
 20
17.3881369327388
 30
0.0
 11
-35.82734224031515
 21
17.3881369327388
 31
0.0
  0
LWPOLYLINE
  5
351
330
2
100
AcDbEntity
  8
GAIKEI
  6
Continuous
 62
     1
100
AcDbPolyline
 90
        9
 70
     0
 43
0.0
 10
-20.00165541469505
 20
19.66813693273889
 10
-20.01403079803504
 20
19.66739618781889
 10
-20.02610994451516
 20
19.66490802861881
 10
-20.0375068123351
 20
19.66018787259884
 10
-20.04735623771512
 20
19.65285939693888
 10
-20.05472392187517
 20
19.64297078483889
 10
-20.05947471685522
 20
19.63151178019882
 10
-20.06195617677509
 20
19.61944974093887
 10
-20.06269043671523
 20
19.60710191073883
  0
LINE
  5
352
330
2
100
AcDbEntity
  8
GAIKEI
  6
Continuous
 62
     1
100
AcDbLine
 10
-20.06269043671523
 20
19.60710191071882
 30
0.0
 11
-20.06269043671523
 21
17.44917195475887
 31
0.0
  0
LWPOLYLINE
  5
353
330
2
100
AcDbEntity
  8
GAIKEI
  6
Continuous
 62
     1
100
AcDbPolyline
 90
        9
 70
     0
 43
0.0
 10
-20.06269043671523
 20
17.44917195475887
 10
-20.06194969179524
 20
17.43679657141888
 10
-20.05946153257514
 20
17.42471742493887
 10
-20.05474137657507
 20
17.41332055711882
 10
-20.0474129009151
 20
17.4034711317388
 10
-20.03752428879511
 20
17.39610344757887
 10
-20.02606528415504
 20
17.39135265259881
 10
-20.0140032449151
 20
17.38887119267883
 10
-20.00165541471506
 20
17.38813693273892
  0
LWPOLYLINE
  5
354
330
2
100
AcDbEntity
  8
GAIKEI
  6
Continuous
 62
     1
100
AcDbPolyline
 90
        9
 70
     0
 43
0.0
 10
-17.8437254587152
 20
17.38813693273892
 10
-17.83135007537521
 20
17.38887767765891
 10
-17.8192709289151
 20
17.39136583687889
 10
-17.80787406107515
 20
17.39608599287885
 10
-17.79802463571513
 20
17.40341446853881
 10
-17.79065695153508
 20
17.41330308063879
 10
-17.78590615657504
 20
17.42476208527887
 10
-17.78342469665517
 20
17.43682412453881
 10
-17.78269043671526
 20
17.44917195473886
  0
LINE
  5
355
330
2
100
AcDbEntity
  8
GAIKEI
  6
Continuous
 62
     1
100
AcDbLine
 10
-20.00165541469505
 20
17.3881369327388
 30
0.0
 11
-17.8437254587152
 21
17.3881369327388
 31
0.0
  0
LWPOLYLINE
  5
356
330
2
100
AcDbEntity
  8
GAIKEI
  6
Continuous
 62
     1
100
AcDbPolyline
 90
        9
 70
     0
 43
0.0
 10
-17.78269043671526
 20
19.60710191071882
 10
-17.78343118161524
 20
19.61947729407882
 10
-17.78591934083511
 20
19.63155644053881
 10
-17.79063949685519
 20
19.64295330835887
 10
-17.79796797249514
 20
19.65280273373889
 10
-17.80785658461514
 20
19.66017041789882
 10
-17.81931558925521
 20
19.66492121287888
 10
-17.83137762849515
 20
19.66740267279886
 10
-17.8437254587152
 20
19.66813693273889
  0
LINE
  5
357
330
2
100
AcDbEntity
  8
GAIKEI
  6
Continuous
 62
     1
100
AcDbLine
 10
-17.78269043671526
 20
17.44917195475887
 30
0.0
 11
-17.78269043671526
 21
19.60710191071882
 31
0.0
  0
LINE
  5
358
330
2
100
AcDbEntity
  8
GAIKEI
  6
Continuous
 62
     1
100
AcDbLine
 10
-17.8437254587152
 20
19.66813693273877
 30
0.0
 11
-20.00165541469505
 21
19.66813693273877
 31
0.0
  0
LWPOLYLINE
  5
359
330
2
100
AcDbEntity
  8
GAIKEI
  6
Continuous
 62
     1
100
AcDbPolyline
 90
        9
 70
     0
 43
0.0
 10
-47.07405674867516
 20
10.35342163901884
 10
-47.07230631421509
 20
10.32155792937885
 10
-47.0662144004151
 20
10.29011785221882
 10
-47.05535973665519
 20
10.25996768197888
 10
-47.0391155404751
 20
10.23222602051885
 10
-47.01708391103511
 20
10.20830867357881
 10
-46.99025936179509
 20
10.19043229681881
 10
-46.95997465427512
 20
10.17986493375883
 10
-46.92800288415514
 20
10.17656305755884
  0
ARC
  5
35A
330
2
100
AcDbEntity
  8
GAIKEI
  6
Continuous
 62
     1
100
AcDbCircle
 10
-200.9427584109152
 20
11.93313731485887
 30
0.0
 40
153.8768106403276
100
AcDbArc
 50
359.4117851116016
 51
0.5844197399980708
  0
CIRCLE
  5
35B
330
2
100
AcDbEntity
  8
GAIKEI
  6
Continuous
 62
     1
100
AcDbCircle
 10
-45.31513784769515
 20
11.93568952175883
 30
0.0
 40
1.600000000000002
  0
LWPOLYLINE
  5
35C
330
2
100
AcDbEntity
  8
GAIKEI
  6
Continuous
 62
     1
100
AcDbPolyline
 90
        9
 70
     0
 43
0.0
 10
-15.86269043671518
 20
17.44917195475887
 10
-15.86194969179519
 20
17.43679657141888
 10
-15.85946153257509
 20
17.42471742493887
 10
-15.85474137657502
 20
17.41332055711882
 10
-15.84741290091506
 20
17.4034711317388
 10
-15.83752428879506
 20
17.39610344757887
 10
-15.82606528415522
 20
17.39135265259881
 10
-15.81400324491506
 20
17.38887119267883
 10
-15.80165541471524
 20
17.38813693273892
  0
LWPOLYLINE
  5
35D
330
2
100
AcDbEntity
  8
GAIKEI
  6
Continuous
 62
     1
100
AcDbPolyline
 90
        9
 70
     0
 43
0.0
 10
-13.64372545871515
 20
17.38813693273892
 10
-13.63135007537517
 20
17.38887767765891
 10
-13.61927092891505
 20
17.39136583687889
 10
-13.60787406107511
 20
17.39608599287885
 10
-13.59802463571509
 20
17.40341446853881
 10
-13.59065695153504
 20
17.41330308063879
 10
-13.58590615657522
 20
17.42476208527887
 10
-13.58342469665513
 20
17.43682412453881
 10
-13.58269043671521
 20
17.44917195473886
  0
LWPOLYLINE
  5
35E
330
2
100
AcDbEntity
  8
GAIKEI
  6
Continuous
 62
     1
100
AcDbPolyline
 90
        9
 70
     0
 43
0.0
 10
-13.58269043671521
 20
19.60710191071882
 10
-13.58343118161519
 20
19.61947729407882
 10
-13.58591934083506
 20
19.63155644053881
 10
-13.59063949685515
 20
19.64295330835887
 10
-13.5979679724951
 20
19.65280273373889
 10
-13.60785658461509
 20
19.66017041789882
 10
-13.61931558925516
 20
19.66492121287888
 10
-13.6313776284951
 20
19.66740267279886
 10
-13.64372545871515
 20
19.66813693273889
  0
LINE
  5
35F
330
2
100
AcDbEntity
  8
GAIKEI
  6
Continuous
 62
     1
100
AcDbLine
 10
-13.58269043671521
 20
17.44917195475887
 30
0.0
 11
-13.58269043671521
 21
19.60710191071882
 31
0.0
  0
ARC
  5
360
330
2
100
AcDbEntity
  8
GAIKEI
  6
Continuous
 62
     1
100
AcDbCircle
 10
-15.22269043671508
 20
23.42813693273877
 30
0.0
 40
0.0400000000000012
100
AcDbArc
 50
180.0
 51
270.0
  0
LINE
  5
361
330
2
100
AcDbEntity
  8
GAIKEI
  6
Continuous
 62
     1
100
AcDbLine
 10
-15.22269043671508
 20
23.38813693273881
 30
0.0
 11
-14.22269043671508
 21
23.38813693273881
 31
0.0
  0
LINE
  5
362
330
2
100
AcDbEntity
  8
GAIKEI
  6
Continuous
 62
     1
100
AcDbLine
 10
-14.18269043671512
 20
23.42813693273877
 30
0.0
 11
-14.18269043671512
 21
24.42813693273877
 31
0.0
  0
ARC
  5
363
330
2
100
AcDbEntity
  8
GAIKEI
  6
Continuous
 62
     1
100
AcDbCircle
 10
-14.22269043671508
 20
24.42813693273877
 30
0.0
 40
0.0400000000000012
100
AcDbArc
 50
0.0
 51
90.0
  0
LINE
  5
364
330
2
100
AcDbEntity
  8
GAIKEI
  6
Continuous
 62
     1
100
AcDbLine
 10
-14.22269043671508
 20
24.46813693273885
 30
0.0
 11
-15.22269043671508
 21
24.46813693273885
 31
0.0
  0
ARC
  5
365
330
2
100
AcDbEntity
  8
GAIKEI
  6
Continuous
 62
     1
100
AcDbCircle
 10
-14.22269043671508
 20
23.42813693273877
 30
0.0
 40
0.0399999999999998
100
AcDbArc
 50
270.0
 51
0.0
  0
ARC
  5
366
330
2
100
AcDbEntity
  8
GAIKEI
  6
Continuous
 62
     1
100
AcDbCircle
 10
-15.22269043671508
 20
24.42813693273877
 30
0.0
 40
0.0399999999999998
100
AcDbArc
 50
90.0
 51
180.0
  0
LINE
  5
367
330
2
100
AcDbEntity
  8
GAIKEI
  6
Continuous
 62
     1
100
AcDbLine
 10
-15.26269043671504
 20
24.42813693273877
 30
0.0
 11
-15.26269043671504
 21
23.42813693273877
 31
0.0
  0
LWPOLYLINE
  5
368
330
2
100
AcDbEntity
  8
GAIKEI
  6
Continuous
 62
     1
100
AcDbPolyline
 90
        9
 70
     0
 43
0.0
 10
-16.32789917631521
 20
7.079498632978811
 10
-16.35981733897506
 20
7.076211674498836
 10
-16.39004506435503
 20
7.065688184398823
 10
-16.41684464531522
 20
7.047874337778807
 10
-16.43886929773521
 20
7.024041191238893
 10
-16.45519488435502
 20
6.996192482058859
 10
-16.4661222642751
 20
6.965918083778888
 10
-16.47220210707519
 20
6.934522870998875
 10
-16.4739524492752
 20
6.902661057498903
  0
LWPOLYLINE
  5
369
330
2
100
AcDbEntity
  8
GAIKEI
  6
Continuous
 62
     1
100
AcDbPolyline
 90
        9
 70
     0
 43
0.0
 10
-13.11757212547513
 20
3.576666663358878
 10
-13.0856434458351
 20
3.579957753238886
 10
-13.05540915409506
 20
3.590491545358872
 10
-13.02861094581521
 20
3.608317833358796
 10
-13.00659317489521
 20
3.632161546918837
 10
-12.99027738613517
 20
3.660013817218896
 10
-12.97935984403511
 20
3.690283445738828
 10
-12.97328581139504
 20
3.72167115685886
 10
-12.9715374516752
 20
3.753526064718812
  0
ARC
  5
36A
330
2
100
AcDbEntity
  8
GAIKEI
  6
Continuous
 62
     1
100
AcDbCircle
 10
-14.71774907905524
 20
-152.5489833847412
 30
0.0
 40
156.1338501710225
100
AcDbArc
 50
89.4127795420008
 51
90.5909185131002
  0
ARC
  5
36B
330
2
100
AcDbEntity
  8
GAIKEI
  6
Continuous
 62
     1
100
AcDbCircle
 10
-14.71777612459504
 20
161.5150014625988
 30
0.0
 40
154.4438960609357
100
AcDbArc
 50
269.4026638221992
 51
270.5936175864996
  0
LWPOLYLINE
  5
36C
330
2
100
AcDbEntity
  8
GAIKEI
  6
Continuous
 62
     1
100
AcDbPolyline
 90
        9
 70
     0
 43
0.0
 10
-12.97164234937509
 20
6.902556287258903
 10
-12.97339231019509
 20
6.934430252798847
 10
-12.97948524277513
 20
6.96587284507882
 10
-12.99034035151521
 20
6.996018596598901
 10
-13.00657946495517
 20
7.02374858803887
 10
-13.02859988283512
 20
7.047653390778805
 10
-13.05541384365506
 20
7.065524275038796
 10
-13.08569535301512
 20
7.076092096398838
 10
-13.11767619691522
 20
7.079394458578917
  0
ARC
  5
36D
330
2
100
AcDbEntity
  8
GAIKEI
  6
Continuous
 62
     1
100
AcDbCircle
 10
139.2099085779848
 20
5.333110510598771
 30
0.0
 40
152.1896435461489
100
AcDbArc
 50
179.4091305362009
 51
180.5946866357968
  0
ARC
  5
36E
330
2
100
AcDbEntity
  8
GAIKEI
  6
Continuous
 62
     1
100
AcDbCircle
 10
-170.3427584109352
 20
11.93313731485887
 30
0.0
 40
153.8768106403519
100
AcDbArc
 50
359.4117851116016
 51
0.5844197399980708
  0
CIRCLE
  5
36F
330
2
100
AcDbEntity
  8
GAIKEI
  6
Continuous
 62
     1
100
AcDbCircle
 10
-14.71513784769513
 20
11.93568952175883
 30
0.0
 40
1.600000000000003
  0
LWPOLYLINE
  5
370
330
2
100
AcDbEntity
  8
GAIKEI
  6
Continuous
 62
     1
100
AcDbPolyline
 90
        9
 70
     0
 43
0.0
 10
-16.47405674867514
 20
3.753421639018824
 10
-16.47230631421507
 20
3.721557929378832
 10
-16.46621440041508
 20
3.690117852218804
 10
-16.45535973665505
 20
3.659967681978855
 10
-16.43911554047508
 20
3.632226020518828
 10
-16.4170839110352
 20
3.608308673578903
 10
-16.39025936179519
 20
3.590432296818903
 10
-16.35997465427522
 20
3.579864933758813
 10
-16.32800288415524
 20
3.576563057558814
  0
ARC
  5
371
330
2
100
AcDbEntity
  8
GAIKEI
  6
Continuous
 62
     1
100
AcDbCircle
 10
-170.3427584109151
 20
5.333137314858845
 30
0.0
 40
153.8768106403441
100
AcDbArc
 50
359.4117851116016
 51
0.5844197399980708
  0
CIRCLE
  5
372
330
2
100
AcDbEntity
  8
GAIKEI
  6
Continuous
 62
     1
100
AcDbCircle
 10
-14.71513784769513
 20
5.335689521758808
 30
0.0
 40
1.600000000000004
  0
LINE
  5
373
330
2
100
AcDbEntity
  8
GAIKEI
  6
Continuous
 62
     1
100
AcDbLine
 10
-15.86269043671518
 20
19.60710191071882
 30
0.0
 11
-15.86269043671518
 21
17.44917195475887
 31
0.0
  0
LWPOLYLINE
  5
374
330
2
100
AcDbEntity
  8
GAIKEI
  6
Continuous
 62
     1
100
AcDbPolyline
 90
        9
 70
     0
 43
0.0
 10
-15.80165541469523
 20
19.66813693273889
 10
-15.81403079803522
 20
19.66739618781889
 10
-15.82610994451511
 20
19.66490802861881
 10
-15.83750681233505
 20
19.66018787259884
 10
-15.84735623771507
 20
19.65285939693888
 10
-15.85472392187512
 20
19.64297078483889
 10
-15.85947471685517
 20
19.63151178019882
 10
-15.86195617677504
 20
19.61944974093887
 10
-15.86269043671518
 20
19.60710191073883
  0
LWPOLYLINE
  5
375
330
2
100
AcDbEntity
  8
GAIKEI
  6
Continuous
 62
     1
100
AcDbPolyline
 90
        9
 70
     0
 43
0.0
 10
-16.47405674867514
 20
10.35342163901884
 10
-16.47230631421507
 20
10.32155792937885
 10
-16.46621440041508
 20
10.29011785221882
 10
-16.45535973665505
 20
10.25996768197888
 10
-16.43911554047508
 20
10.23222602051885
 10
-16.4170839110352
 20
10.20830867357881
 10
-16.39025936179519
 20
10.19043229681881
 10
-16.35997465427522
 20
10.17986493375883
 10
-16.32800288415524
 20
10.17656305755884
  0
CIRCLE
  5
376
330
2
100
AcDbEntity
  8
GAIKEI
  6
Continuous
 62
     1
100
AcDbCircle
 10
-41.11513784769511
 20
11.93568952175883
 30
0.0
 40
1.600000000000003
  0
CIRCLE
  5
377
330
2
100
AcDbEntity
  8
GAIKEI
  6
Continuous
 62
     1
100
AcDbCircle
 10
-36.91513784769518
 20
11.93568952175883
 30
0.0
 40
1.600000000000004
  0
CIRCLE
  5
378
330
2
100
AcDbEntity
  8
GAIKEI
  6
Continuous
 62
     1
100
AcDbCircle
 10
-32.71513784769513
 20
11.93568952175883
 30
0.0
 40
1.600000000000004
  0
LWPOLYLINE
  5
379
330
2
100
AcDbEntity
  8
GAIKEI
  6
Continuous
 62
     1
100
AcDbPolyline
 90
        9
 70
     0
 43
0.0
 10
-46.41803863309519
 20
19.66813693273889
 10
-46.42712737091517
 20
19.66768224937891
 10
-46.43602922859509
 20
19.66611324399889
 10
-46.44464486813513
 20
19.66299828701881
 10
-46.45214273761507
 20
19.65774873211887
 10
-46.45744002205515
 20
19.6503243464789
 10
-46.46060473167517
 20
19.6417179899189
 10
-46.4622202195751
 20
19.6326916496389
 10
-46.46269043671509
 20
19.62348512913888
  0
LINE
  5
37A
330
2
100
AcDbEntity
  8
GAIKEI
  6
Continuous
 62
     7
100
AcDbLine
 10
-46.04350454236203
 20
31.33318299135885
 30
0.0
 11
-14.00187633104883
 21
31.33318299135885
 31
0.0
  0
LINE
  5
37B
330
2
100
AcDbEntity
  8
GAIKEI
  6
Continuous
 62
     7
100
AcDbLine
 10
-11.64729914739519
 20
31.41540663843875
 30
0.0
 11
-14.00187633104883
 21
31.33318299135885
 31
0.0
  0
LINE
  5
37C
330
2
100
AcDbEntity
  8
GAIKEI
  6
Continuous
 62
     1
100
AcDbLine
 10
-9.026180386375244
 20
28.82813693273874
 30
0.0
 11
-9.340146131055234
 21
28.82813693273886
 31
0.0
  0
LINE
  5
37D
330
2
100
AcDbEntity
  8
GAIKEI
  6
Continuous
 62
     1
100
AcDbLine
 10
-49.22269043671509
 20
28.82813693273886
 30
0.0
 11
-51.01920048703516
 21
28.82813693273874
 31
0.0
  0
LINE
  5
37E
330
2
100
AcDbEntity
  8
GAIKEI
  6
Continuous
 62
     1
100
AcDbLine
 10
-49.22269043671509
 20
-1.364878913361167
 30
0.0
 11
-49.22269043671509
 21
-1.371863067261188
 31
0.0
  0
LINE
  5
37F
330
2
100
AcDbEntity
  8
GAIKEI
  6
Continuous
 62
     1
100
AcDbLine
 10
-49.22269043671509
 20
-1.371863067261188
 30
0.0
 11
-50.70523474235518
 21
-1.371863067261188
 31
0.0
  0
LINE
  5
380
330
2
100
AcDbEntity
  8
GAIKEI
  6
Continuous
 62
     1
100
AcDbLine
 10
-9.026180386375244
 20
-1.371863067261188
 30
0.0
 11
-10.82269043671522
 21
-1.371863067261188
 31
0.0
  0
LINE
  5
381
330
2
100
AcDbEntity
  8
GAIKEI
  6
Continuous
 62
     1
100
AcDbLine
 10
-50.90511290775509
 20
28.82813693273886
 30
0.0
 11
-50.70523474235518
 21
28.82813693273886
 31
0.0
  0
ARC
  5
382
330
2
100
AcDbEntity
  8
GAIKEI
  6
Continuous
 62
     1
100
AcDbCircle
 10
-49.22269043671509
 20
28.22813693273884
 30
0.0
 40
0.6000000000000006
100
AcDbArc
 50
90.0
 51
180.0
  0
LINE
  5
383
330
2
100
AcDbEntity
  8
GAIKEI
  6
Continuous
 62
     1
100
AcDbLine
 10
-10.82269043671522
 20
28.82813693273886
 30
0.0
 11
-49.22269043671509
 21
28.82813693273886
 31
0.0
  0
LINE
  5
384
330
2
100
AcDbEntity
  8
GAIKEI
  6
Continuous
 62
     1
100
AcDbLine
 10
-49.82269043671511
 20
28.22813693273884
 30
0.0
 11
-49.82269043671511
 21
-0.7718630672611653
 31
0.0
  0
LINE
  5
385
330
2
100
AcDbEntity
  8
GAIKEI
  6
Continuous
 62
     1
100
AcDbLine
 10
-49.22269043671509
 20
-1.371863067261188
 30
0.0
 11
-10.82269043671522
 21
-1.371863067261188
 31
0.0
  0
ARC
  5
386
330
2
100
AcDbEntity
  8
GAIKEI
  6
Continuous
 62
     1
100
AcDbCircle
 10
-49.22269043671509
 20
-0.7718630672611653
 30
0.0
 40
0.6000000000000007
100
AcDbArc
 50
180.0
 51
270.0
  0
LINE
  5
387
330
2
100
AcDbEntity
  8
GAIKEI
  6
Continuous
 62
     1
100
AcDbLine
 10
-49.81570628281509
 20
-0.7718630672611653
 30
0.0
 11
-49.82269043671511
 21
-0.7718630672611653
 31
0.0
  0
ARC
  5
388
330
2
100
AcDbEntity
  8
GAIKEI
  6
Continuous
 62
     1
100
AcDbCircle
 10
-49.22269043671509
 20
-0.7718630672611653
 30
0.0
 40
0.5930158461016523
100
AcDbArc
 50
180.0
 51
270.0
  0
ARC
  5
389
330
2
100
AcDbEntity
  8
GAIKEI
  6
Continuous
 62
     1
100
AcDbCircle
 10
-10.82269043671522
 20
28.22813693273884
 30
0.0
 40
0.6000000000000007
100
AcDbArc
 50
0.0
 51
90.0
  0
LINE
  5
38A
330
2
100
AcDbEntity
  8
GAIKEI
  6
Continuous
 62
     7
100
AcDbLine
 10
-49.42269043671513
 20
-3.968373117581222
 30
0.0
 11
-10.62269043671517
 21
-3.968373117581222
 31
0.0
  0
LINE
  5
38B
330
2
100
AcDbEntity
  8
GAIKEI
  6
Continuous
 62
     1
100
AcDbLine
 10
-43.02269043669514
 20
13.57813700339875
 30
0.0
 11
-43.02269043671515
 21
10.27813693273879
 31
0.0
  0
LINE
  5
38C
330
2
100
AcDbEntity
  8
GAIKEI
  6
Continuous
 62
     1
100
AcDbLine
 10
-38.8226904279951
 20
13.57813693273886
 30
0.0
 11
-38.82269043671511
 21
13.57794569711882
 31
0.0
  0
LINE
  5
38D
330
2
100
AcDbEntity
  8
GAIKEI
  6
Continuous
 62
     1
100
AcDbLine
 10
-38.82269043671511
 20
13.57794569711882
 30
0.0
 11
-38.82269043671511
 21
10.27813693273879
 31
0.0
  0
LINE
  5
38E
330
2
100
AcDbEntity
  8
GAIKEI
  6
Continuous
 62
     1
100
AcDbLine
 10
-34.62269041929517
 20
13.57813693273886
 30
0.0
 11
-34.62269043671517
 21
13.57775446145877
 31
0.0
  0
LINE
  5
38F
330
2
100
AcDbEntity
  8
GAIKEI
  6
Continuous
 62
     1
100
AcDbLine
 10
-34.62269043671517
 20
13.57775446145877
 30
0.0
 11
-34.62269043671517
 21
10.27813693273879
 31
0.0
  0
LINE
  5
390
330
2
100
AcDbEntity
  8
GAIKEI
  6
Continuous
 62
     1
100
AcDbLine
 10
-30.42269043671513
 20
13.57756322589876
 30
0.0
 11
-30.42269043671513
 21
10.27813693273879
 31
0.0
  0
ARC
  5
391
330
2
100
AcDbEntity
  8
GAIKEI
  6
Continuous
 62
     7
100
AcDbCircle
 10
-49.00000389201512
 20
11.8889005278188
 30
0.0
 40
19.53578130460656
100
AcDbArc
 50
88.23436502430052
 51
90.10822304070041
  0
LINE
  5
392
330
2
100
AcDbEntity
  8
GAIKEI
  6
Continuous
 62
     7
100
AcDbLine
 10
-10.62269043671517
 20
31.42464698307879
 30
0.0
 11
-11.0084768743352
 21
31.42464698307879
 31
0.0
  0
ARC
  5
393
330
2
100
AcDbEntity
  8
GAIKEI
  6
Continuous
 62
     7
100
AcDbCircle
 10
-11.04537698141507
 20
11.8889005278188
 30
0.0
 40
19.53578130460691
100
AcDbArc
 50
89.89177695929958
 51
91.76563497569947
  0
LINE
  5
394
330
2
100
AcDbEntity
  8
GAIKEI
  6
Continuous
 62
     7
100
AcDbLine
 10
-46.04350454236203
 20
31.33318299135885
 30
0.0
 11
-48.39808172601511
 21
31.41540663843887
 31
0.0
  0
LINE
  5
395
330
2
100
AcDbEntity
  8
GAIKEI
  6
Continuous
 62
     7
100
AcDbLine
 10
-49.03690399907509
 20
31.42464698307879
 30
0.0
 11
-49.42269043671513
 21
31.42464698307879
 31
0.0
  0
ARC
  5
396
330
2
100
AcDbEntity
  8
GAIKEI
  6
Continuous
 62
     1
100
AcDbCircle
 10
-43.36300824693512
 20
10.0881906900388
 30
0.0
 40
0.0600000000000001
100
AcDbArc
 50
179.9947823841999
 51
269.9947823841999
  0
ARC
  5
397
330
2
100
AcDbEntity
  8
GAIKEI
  6
Continuous
 62
     1
100
AcDbCircle
 10
-43.3626731292951
 20
13.76819065901884
 30
0.0
 40
0.0600000000000001
100
AcDbArc
 50
89.99478238419991
 51
179.9947823841999
  0
ARC
  5
398
330
2
100
AcDbEntity
  8
GAIKEI
  6
Continuous
 62
     1
100
AcDbCircle
 10
-43.08300824975515
 20
10.08816519193885
 30
0.0
 40
0.0600000000000001
100
AcDbArc
 50
269.9947823841999
 51
359.9947823841999
  0
ARC
  5
399
330
2
100
AcDbEntity
  8
GAIKEI
  6
Continuous
 62
     1
100
AcDbCircle
 10
-43.08267313211513
 20
13.76816516093879
 30
0.0
 40
0.06
100
AcDbArc
 50
359.9947823841999
 51
89.99478238419991
  0
LINE
  5
39A
330
2
100
AcDbEntity
  8
GAIKEI
  6
Continuous
 62
     1
100
AcDbLine
 10
-43.36301371079514
 20
10.02819069027885
 30
0.0
 11
-43.08301371361517
 21
10.0281651921988
 31
0.0
  0
LINE
  5
39B
330
2
100
AcDbEntity
  8
GAIKEI
  6
Continuous
 62
     1
100
AcDbLine
 10
-43.0826676682351
 20
13.82816516067885
 30
0.0
 11
-43.36266766541519
 21
13.82819065875878
 31
0.0
  0
LINE
  5
39C
330
2
100
AcDbEntity
  8
GAIKEI
  6
Continuous
 62
     1
100
AcDbLine
 10
-43.42267312905517
 20
13.76819612289887
 30
0.0
 11
-43.42269043671513
 21
13.57813693271885
 31
0.0
  0
LINE
  5
39D
330
2
100
AcDbEntity
  8
GAIKEI
  6
Continuous
 62
     1
100
AcDbLine
 10
-43.02269043377509
 20
13.57816915671878
 30
0.0
 11
-43.02267313237519
 21
13.76815969705876
 31
0.0
  0
LINE
  5
39E
330
2
100
AcDbEntity
  8
GAIKEI
  6
Continuous
 62
     1
100
AcDbLine
 10
-43.42299206779512
 20
10.26585993937885
 30
0.0
 11
-43.42300824667518
 21
10.08819615389882
 31
0.0
  0
LINE
  5
39F
330
2
100
AcDbEntity
  8
GAIKEI
  6
Continuous
 62
     1
100
AcDbLine
 10
-43.42269043671513
 20
13.57813693271885
 30
0.0
 11
-43.42299206779512
 21
10.26585993937885
 31
0.0
  0
LINE
  5
3A0
330
2
100
AcDbEntity
  8
GAIKEI
  6
Continuous
 62
     1
100
AcDbLine
 10
-43.02300824999508
 20
10.08815972807883
 30
0.0
 11
-43.02269043669514
 21
13.57813700339875
 31
0.0
  0
ARC
  5
3A1
330
2
100
AcDbEntity
  8
GAIKEI
  6
Continuous
 62
     1
100
AcDbCircle
 10
-39.16300826433519
 20
10.08780821881885
 30
0.0
 40
0.0600000000000001
100
AcDbArc
 50
179.9947823841999
 51
269.9947823841999
  0
ARC
  5
3A2
330
2
100
AcDbEntity
  8
GAIKEI
  6
Continuous
 62
     1
100
AcDbCircle
 10
-38.88267314953509
 20
13.76778268971884
 30
0.0
 40
0.06
100
AcDbArc
 50
359.9947823841999
 51
89.99478238419991
  0
ARC
  5
3A3
330
2
100
AcDbEntity
  8
GAIKEI
  6
Continuous
 62
     1
100
AcDbCircle
 10
-39.16267314671518
 20
13.76780818779878
 30
0.0
 40
0.0599999999999987
100
AcDbArc
 50
89.99478238419991
 51
179.9947823841999
  0
ARC
  5
3A4
330
2
100
AcDbEntity
  8
GAIKEI
  6
Continuous
 62
     1
100
AcDbCircle
 10
-39.16267314671518
 20
13.76780818779878
 30
0.0
 40
0.0568555332430175
100
AcDbArc
 50
89.99478238419991
 51
179.9947823841999
  0
ARC
  5
3A5
330
2
100
AcDbEntity
  8
GAIKEI
  6
Continuous
 62
     1
100
AcDbCircle
 10
-38.88300826715511
 20
10.0877827207388
 30
0.0
 40
0.0599999999999987
100
AcDbArc
 50
269.9947823841999
 51
359.9947823841999
  0
LINE
  5
3A6
330
2
100
AcDbEntity
  8
GAIKEI
  6
Continuous
 62
     1
100
AcDbLine
 10
-38.88266768565518
 20
13.82778268947879
 30
0.0
 11
-39.16266768283515
 21
13.82780818755884
 31
0.0
  0
LINE
  5
3A7
330
2
100
AcDbEntity
  8
GAIKEI
  6
Continuous
 62
     1
100
AcDbLine
 10
-38.82269040857512
 20
13.57825473375885
 30
0.0
 11
-38.82267314977514
 21
13.76777722583881
 31
0.0
  0
LINE
  5
3A8
330
2
100
AcDbEntity
  8
GAIKEI
  6
Continuous
 62
     1
100
AcDbLine
 10
-39.22299205035518
 20
10.26586029423879
 30
0.0
 11
-39.22300826409514
 21
10.08781368269876
 31
0.0
  0
LINE
  5
3A9
330
2
100
AcDbEntity
  8
GAIKEI
  6
Continuous
 62
     1
100
AcDbLine
 10
-39.22267314645512
 20
13.76781365167881
 30
0.0
 11
-39.22269043671509
 21
13.57813693273886
 31
0.0
  0
LINE
  5
3AA
330
2
100
AcDbEntity
  8
GAIKEI
  6
Continuous
 62
     1
100
AcDbLine
 10
-39.22269043671509
 20
13.57794569713883
 30
0.0
 11
-39.22299205035518
 21
10.26586029423879
 31
0.0
  0
LINE
  5
3AB
330
2
100
AcDbEntity
  8
GAIKEI
  6
Continuous
 62
     1
100
AcDbLine
 10
-39.16301372821511
 20
10.02780821905878
 30
0.0
 11
-38.88301373103514
 21
10.02778272097885
 31
0.0
  0
LINE
  5
3AC
330
2
100
AcDbEntity
  8
GAIKEI
  6
Continuous
 62
     1
100
AcDbLine
 10
-38.82300826741516
 20
10.08777725685877
 30
0.0
 11
-38.82269043671511
 21
13.57794569711882
 31
0.0
  0
LINE
  5
3AD
330
2
100
AcDbEntity
  8
GAIKEI
  6
Continuous
 62
     1
100
AcDbLine
 10
-38.8226904279951
 20
13.57813693273886
 30
0.0
 11
-38.82269040875519
 21
13.57825473377875
 31
0.0
  0
LINE
  5
3AE
330
2
100
AcDbEntity
  8
GAIKEI
  6
Continuous
 62
     1
100
AcDbLine
 10
-39.22269043671509
 20
13.57813693273886
 30
0.0
 11
-39.22269043671509
 21
13.57794569713883
 31
0.0
  0
ARC
  5
3AF
330
2
100
AcDbEntity
  8
GAIKEI
  6
Continuous
 62
     1
100
AcDbCircle
 10
-34.96300828175504
 20
10.08742574759878
 30
0.0
 40
0.0600000000000001
100
AcDbArc
 50
179.9947823841999
 51
269.9947823841999
  0
ARC
  5
3B0
330
2
100
AcDbEntity
  8
GAIKEI
  6
Continuous
 62
     1
100
AcDbCircle
 10
-34.96267316413514
 20
13.76742571659884
 30
0.0
 40
0.0599999999999987
100
AcDbArc
 50
89.99478238419991
 51
179.9947823841999
  0
ARC
  5
3B1
330
2
100
AcDbEntity
  8
GAIKEI
  6
Continuous
 62
     1
100
AcDbCircle
 10
-34.68267316695506
 20
13.76740021851879
 30
0.0
 40
0.06
100
AcDbArc
 50
359.9947823841999
 51
89.99478238419991
  0
ARC
  5
3B2
330
2
100
AcDbEntity
  8
GAIKEI
  6
Continuous
 62
     1
100
AcDbCircle
 10
-34.68300828457518
 20
10.08740024951885
 30
0.0
 40
0.0599999999999994
100
AcDbArc
 50
269.9947823841999
 51
359.9947823841999
  0
LINE
  5
3B3
330
2
100
AcDbEntity
  8
GAIKEI
  6
Continuous
 62
     1
100
AcDbLine
 10
-34.96301374563518
 20
10.02742574785884
 30
0.0
 11
-34.6830137484551
 21
10.02740024977879
 31
0.0
  0
LINE
  5
3B4
330
2
100
AcDbEntity
  8
GAIKEI
  6
Continuous
 62
     1
100
AcDbLine
 10
-35.02299203291523
 20
10.26586064909884
 30
0.0
 11
-35.0230082815151
 21
10.08743121147881
 31
0.0
  0
LINE
  5
3B5
330
2
100
AcDbEntity
  8
GAIKEI
  6
Continuous
 62
     1
100
AcDbLine
 10
-35.0226731638752
 20
13.76743118045886
 30
0.0
 11
-35.02269041929503
 21
13.57813693273886
 31
0.0
  0
LINE
  5
3B6
330
2
100
AcDbEntity
  8
GAIKEI
  6
Continuous
 62
     1
100
AcDbLine
 10
-34.62269038761519
 20
13.57829361435881
 30
0.0
 11
-34.62267316719522
 21
13.76739475463887
 31
0.0
  0
LINE
  5
3B7
330
2
100
AcDbEntity
  8
GAIKEI
  6
Continuous
 62
     1
100
AcDbLine
 10
-34.68266770307514
 20
13.82740021825884
 30
0.0
 11
-34.96266770025523
 21
13.82742571633878
 31
0.0
  0
LINE
  5
3B8
330
2
100
AcDbEntity
  8
GAIKEI
  6
Continuous
 62
     1
100
AcDbLine
 10
-35.02269041929503
 20
13.57813693273886
 30
0.0
 11
-35.02269043671504
 21
13.57775446149878
 31
0.0
  0
LINE
  5
3B9
330
2
100
AcDbEntity
  8
GAIKEI
  6
Continuous
 62
     1
100
AcDbLine
 10
-35.02269043671504
 20
13.57775446149878
 30
0.0
 11
-35.02299203291523
 21
10.26586064909884
 31
0.0
  0
LINE
  5
3BA
330
2
100
AcDbEntity
  8
GAIKEI
  6
Continuous
 62
     1
100
AcDbLine
 10
-34.62300828483512
 20
10.08739478565883
 30
0.0
 11
-34.62269043671517
 21
13.57775446145877
 31
0.0
  0
LINE
  5
3BB
330
2
100
AcDbEntity
  8
GAIKEI
  6
Continuous
 62
     1
100
AcDbLine
 10
-34.62269041929517
 20
13.57813693273886
 30
0.0
 11
-34.62269038761519
 21
13.57829361435881
 31
0.0
  0
ARC
  5
3BC
330
2
100
AcDbEntity
  8
GAIKEI
  6
Continuous
 62
     1
100
AcDbCircle
 10
-30.76300829917523
 20
10.08704327639884
 30
0.0
 40
0.0600000000000001
100
AcDbArc
 50
179.9947823841999
 51
269.9947823841999
  0
ARC
  5
3BD
330
2
100
AcDbEntity
  8
GAIKEI
  6
Continuous
 62
     1
100
AcDbCircle
 10
-30.76267318153509
 20
13.76704324537877
 30
0.0
 40
0.0599999999999988
100
AcDbArc
 50
89.99478238419991
 51
179.9947823841999
  0
ARC
  5
3BE
330
2
100
AcDbEntity
  8
GAIKEI
  6
Continuous
 62
     1
100
AcDbCircle
 10
-30.48300830199514
 20
10.08701777831879
 30
0.0
 40
0.0599999999999992
100
AcDbArc
 50
269.9947823841999
 51
359.9947823841999
  0
ARC
  5
3BF
330
2
100
AcDbEntity
  8
GAIKEI
  6
Continuous
 62
     1
100
AcDbCircle
 10
-30.48267318435524
 20
13.76701774729883
 30
0.0
 40
0.06
100
AcDbArc
 50
359.9947823841999
 51
89.99478238419991
  0
LINE
  5
3C0
330
2
100
AcDbEntity
  8
GAIKEI
  6
Continuous
 62
     1
100
AcDbLine
 10
-30.82299201545516
 20
10.26586100397878
 30
0.0
 11
-30.82300829891506
 21
10.08704874027876
 31
0.0
  0
LINE
  5
3C1
330
2
100
AcDbEntity
  8
GAIKEI
  6
Continuous
 62
     1
100
AcDbLine
 10
-30.82267318129516
 20
13.7670487092588
 30
0.0
 11
-30.82269041059522
 21
13.57813693273886
 31
0.0
  0
LINE
  5
3C2
330
2
100
AcDbEntity
  8
GAIKEI
  6
Continuous
 62
     1
100
AcDbLine
 10
-30.82269043671522
 20
13.57756322585885
 30
0.0
 11
-30.82299201545516
 21
10.26586100397878
 31
0.0
  0
LINE
  5
3C3
330
2
100
AcDbEntity
  8
GAIKEI
  6
Continuous
 62
     1
100
AcDbLine
 10
-30.4826677204951
 20
13.82701774705879
 30
0.0
 11
-30.76266771767519
 21
13.82704324513884
 31
0.0
  0
LINE
  5
3C4
330
2
100
AcDbEntity
  8
GAIKEI
  6
Continuous
 62
     1
100
AcDbLine
 10
-30.76301376305514
 20
10.02704327663878
 30
0.0
 11
-30.48301376587506
 21
10.02701777855884
 31
0.0
  0
LINE
  5
3C5
330
2
100
AcDbEntity
  8
GAIKEI
  6
Continuous
 62
     1
100
AcDbLine
 10
-30.82269041059522
 20
13.57813693273886
 30
0.0
 11
-30.82269043671522
 21
13.57756322585885
 31
0.0
  0
ARC
  5
3C6
330
2
100
AcDbEntity
  8
GAIKEI
  6
Continuous
 62
     7
100
AcDbCircle
 10
-49.42269043671513
 20
-2.371863067261188
 30
0.0
 40
1.596510050329749
100
AcDbArc
 50
180.0
 51
270.0
  0
ARC
  5
3C7
330
2
100
AcDbEntity
  8
GAIKEI
  6
Continuous
 62
     7
100
AcDbCircle
 10
-10.62269043671517
 20
29.82813693273886
 30
0.0
 40
1.596510050329749
100
AcDbArc
 50
0.0
 51
90.0
  0
ARC
  5
3C8
330
2
100
AcDbEntity
  8
GAIKEI
  6
Continuous
 62
     7
100
AcDbCircle
 10
-10.62269043671517
 20
-2.371863067261188
 30
0.0
 40
1.596510050329749
100
AcDbArc
 50
270.0
 51
0.0
  0
ARC
  5
3C9
330
2
100
AcDbEntity
  8
GAIKEI
  6
Continuous
 62
     7
100
AcDbCircle
 10
-49.42269043671513
 20
29.82813693273886
 30
0.0
 40
1.596510050329749
100
AcDbArc
 50
90.0
 51
180.0
  0
LINE
  5
3CA
330
2
100
AcDbEntity
  8
GAIKEI
  6
Continuous
 62
     7
100
AcDbLine
 10
-9.026180386375244
 20
-2.371863067261188
 30
0.0
 11
-9.026180386375244
 21
29.82813693273886
 31
0.0
  0
LINE
  5
3CB
330
2
100
AcDbEntity
  8
GAIKEI
  6
Continuous
 62
     7
100
AcDbLine
 10
-51.01920048703516
 20
29.82813693273886
 30
0.0
 11
-51.01920048703516
 21
-2.371863067261188
 31
0.0
  0
ARC
  5
3CC
330
2
100
AcDbEntity
  8
GAIKEI
  6
Continuous
 62
     1
100
AcDbCircle
 10
-10.82269043671522
 20
-0.7718630672611653
 30
0.0
 40
0.5999999999999978
100
AcDbArc
 50
270.0
 51
0.0
  0
LINE
  5
3CD
330
2
100
AcDbEntity
  8
GAIKEI
  6
Continuous
 62
     1
100
AcDbLine
 10
-50.70523474235518
 20
-1.371863067261188
 30
0.0
 11
-50.90511290775509
 21
-1.371863067261188
 31
0.0
  0
LINE
  5
3CE
330
2
100
AcDbEntity
  8
GAIKEI
  6
Continuous
 62
     1
100
AcDbLine
 10
-10.22269043671508
 20
-0.7718630672611653
 30
0.0
 11
-10.22269043671508
 21
28.22813693273884
 31
0.0
  0
LINE
  5
3CF
330
2
100
AcDbEntity
  8
GAIKEI
  6
Continuous
 62
     1
100
AcDbLine
 10
-9.340146131055234
 20
28.82813693273886
 30
0.0
 11
-10.82269043671522
 21
28.82813693273886
 31
0.0
  0
LINE
  5
3D0
330
2
100
AcDbEntity
  8
GAIKEI
  6
Continuous
 62
     1
100
AcDbLine
 10
-30.4226903675351
 20
13.57832291935881
 30
0.0
 11
-30.42267318461518
 21
13.76701228341881
 31
0.0
  0
LINE
  5
3D1
330
2
100
AcDbEntity
  8
GAIKEI
  6
Continuous
 62
     1
100
AcDbLine
 10
-30.42300830223508
 20
10.08701231443876
 30
0.0
 11
-30.42269043671513
 21
13.57756322589876
 31
0.0
  0
LINE
  5
3D2
330
2
100
AcDbEntity
  8
GAIKEI
  6
Continuous
 62
     1
100
AcDbLine
 10
-30.42269041059512
 20
13.57813693273886
 30
0.0
 11
-30.4226903675351
 21
13.57832291935881
 31
0.0
  0
LINE
  5
3D3
330
2
100
AcDbEntity
  8
GAIKEI
  6
Continuous
 62
     1
100
AcDbLine
 10
-30.42269041059512
 20
13.57813693273886
 30
0.0
 11
-30.42269043671513
 21
13.57756322589876
 31
0.0
  0
LINE
  5
3D4
330
2
100
AcDbEntity
  8
GAIKEI
  6
Continuous
 62
     1
100
AcDbLine
 10
-33.32269043671522
 20
31.36768039803883
 30
0.0
 11
-33.52269043671504
 21
31.36768039803883
 31
0.0
  0
LINE
  5
3D5
330
2
100
AcDbEntity
  8
GAIKEI
  6
Continuous
 62
     1
100
AcDbLine
 10
-33.32269043671522
 20
31.91538695239876
 30
0.0
 11
-33.32269043671522
 21
31.36768039803883
 31
0.0
  0
LINE
  5
3D6
330
2
100
AcDbEntity
  8
GAIKEI
  6
Continuous
 62
     1
100
AcDbLine
 10
-33.52269043671504
 20
31.36768039803883
 30
0.0
 11
-33.52269043671504
 21
31.91538695239876
 31
0.0
  0
LINE
  5
3D7
330
2
100
AcDbEntity
  8
GAIKEI
  6
Continuous
 62
     1
100
AcDbLine
 10
-33.52269043671504
 20
31.34083713629877
 30
0.0
 11
-33.52269043671504
 21
31.36768039803883
 31
0.0
  0
LINE
  5
3D8
330
2
100
AcDbEntity
  8
GAIKEI
  6
Continuous
 62
     1
100
AcDbLine
 10
-33.32269043671522
 20
31.34083713629877
 30
0.0
 11
-33.32269043671522
 21
31.36768039803883
 31
0.0
  0
LINE
  5
3D9
330
2
100
AcDbEntity
  8
GAIKEI
  6
Continuous
 62
     1
100
AcDbLine
 10
-33.32269043671522
 20
31.91538695239876
 30
0.0
 11
-33.52269043671504
 21
31.91538695239876
 31
0.0
  0
CIRCLE
  5
3DA
330
2
100
AcDbEntity
  8
GAIKEI
  6
Continuous
 62
     1
100
AcDbCircle
 10
-18.92269043671513
 20
23.92813693273877
 30
0.0
 40
1.2
  0
CIRCLE
  5
3DB
330
2
100
AcDbEntity
  8
GAIKEI
  6
Continuous
 62
     1
100
AcDbCircle
 10
-18.92269043671513
 20
23.92813693273877
 30
0.0
 40
1.048361182519278
  0
LINE
  5
3DC
330
2
100
AcDbEntity
  8
GAIKEI
  6
Continuous
 62
     1
100
AcDbLine
 10
-19.42374593375507
 20
11.23751057225877
 30
0.0
 11
-19.42533830947514
 21
11.25116127553883
 31
0.0
  0
LINE
  5
3DD
330
2
100
AcDbEntity
  8
GAIKEI
  6
Continuous
 62
     1
100
AcDbLine
 10
-19.5246647961751
 20
11.33957468677886
 30
0.0
 11
-22.52071607723519
 21
11.33957468677886
 31
0.0
  0
LINE
  5
3DE
330
2
100
AcDbEntity
  8
GAIKEI
  6
Continuous
 62
     1
100
AcDbLine
 10
-22.52071607723519
 20
6.362273280218801
 30
0.0
 11
-19.5246647961751
 21
6.362273280218801
 31
0.0
  0
ARC
  5
3DF
330
2
100
AcDbEntity
  8
GAIKEI
  6
Continuous
 62
     1
100
AcDbCircle
 10
-19.5246647961751
 20
11.23957468677883
 30
0.0
 40
0.0999999999999998
100
AcDbArc
 50
6.653570631199583
 51
90.0
  0
ARC
  5
3E0
330
2
100
AcDbEntity
  8
GAIKEI
  6
Continuous
 62
     1
100
AcDbCircle
 10
-19.52307242045504
 20
6.475923983498773
 30
0.0
 40
0.0999999999999997
100
AcDbArc
 50
353.3464293688004
 51
0.0
  0
LINE
  5
3E1
330
2
100
AcDbEntity
  8
GAIKEI
  6
Continuous
 62
     1
100
AcDbLine
 10
-19.42533830947514
 20
6.450686691438818
 30
0.0
 11
-19.42374593375507
 21
6.464337394718768
 31
0.0
  0
ARC
  5
3E2
330
2
100
AcDbEntity
  8
GAIKEI
  6
Continuous
 62
     1
100
AcDbCircle
 10
-19.52307242045504
 20
11.22592398349877
 30
0.0
 40
0.1000000000000001
100
AcDbArc
 50
0.0
 51
6.653570631199583
  0
ARC
  5
3E3
330
2
100
AcDbEntity
  8
GAIKEI
  6
Continuous
 62
     1
100
AcDbCircle
 10
-19.5246647961751
 20
6.462273280218823
 30
0.0
 40
0.1000000000000001
100
AcDbArc
 50
270.0
 51
353.3464293688004
  0
LINE
  5
3E4
330
2
100
AcDbEntity
  8
GAIKEI
  6
Continuous
 62
     1
100
AcDbLine
 10
-22.42885580353505
 20
7.168714534298828
 30
0.0
 11
-19.61652506987502
 21
7.168714534298828
 31
0.0
  0
LINE
  5
3E5
330
2
100
AcDbEntity
  8
GAIKEI
  6
Continuous
 62
     1
100
AcDbLine
 10
-19.61652506987502
 20
10.66346125691882
 30
0.0
 11
-19.61652506987502
 21
10.53313343267882
 31
0.0
  0
LWPOLYLINE
  5
3E6
330
2
100
AcDbEntity
  8
GAIKEI
  6
Continuous
 62
     1
100
AcDbPolyline
 90
        5
 70
     0
 43
0.0
 10
-19.61652506987502
 20
7.038386710078839
 10
-19.5961562626951
 20
6.826588129478864
 10
-19.57377756067512
 20
6.64189260183889
 10
-19.54979252201519
 20
6.488043232938821
 10
-19.52354843357898
 20
6.362279511740212
  0
LINE
  5
3E7
330
2
100
AcDbEntity
  8
GAIKEI
  6
Continuous
 62
     1
100
AcDbLine
 10
-19.61652506987502
 20
7.038386710078839
 30
0.0
 11
-22.42885580353505
 21
7.038386710078839
 31
0.0
  0
LWPOLYLINE
  5
3E8
330
2
100
AcDbEntity
  8
GAIKEI
  6
Continuous
 62
     1
100
AcDbPolyline
 90
        5
 70
     0
 43
0.0
 10
-19.52354843357466
 20
11.33956845525745
 10
-19.54979252201519
 20
11.21380473403883
 10
-19.57377756067512
 20
11.05995536513887
 10
-19.5961562626951
 20
10.8752598374989
 10
-19.61652506987502
 20
10.66346125691882
  0
LINE
  5
3E9
330
2
100
AcDbEntity
  8
GAIKEI
  6
Continuous
 62
     1
100
AcDbLine
 10
-22.42885580353505
 20
10.66346125691882
 30
0.0
 11
-19.61652506987502
 21
10.66346125691882
 31
0.0
  0
LWPOLYLINE
  5
3EA
330
2
100
AcDbEntity
  8
GAIKEI
  6
Continuous
 62
     1
100
AcDbPolyline
 90
        9
 70
     0
 43
0.0
 10
-19.61652506987502
 20
7.168714534298828
 10
-19.59600661557511
 20
7.533814728258903
 10
-19.58021051091509
 20
7.944391294838851
 10
-19.5702316005752
 20
8.388668134598901
 10
-19.56681675223513
 20
8.850923983498887
 10
-19.5702316005752
 20
9.313179832398873
 10
-19.58021051091509
 20
9.757456672158809
 10
-19.59600661557511
 20
10.16803323873887
 10
-19.61652506987502
 20
10.53313343267882
  0
LINE
  5
3EB
330
2
100
AcDbEntity
  8
GAIKEI
  6
Continuous
 62
     1
100
AcDbLine
 10
-19.61652506987502
 20
10.53313343267882
 30
0.0
 11
-22.42885580353505
 21
10.53313343267882
 31
0.0
  0
LINE
  5
3EC
330
2
100
AcDbEntity
  8
GAIKEI
  6
Continuous
 62
     1
100
AcDbLine
 10
-19.61652506987502
 20
7.168714534298828
 30
0.0
 11
-19.61652506987502
 21
7.038386710078839
 31
0.0
  0
LINE
  5
3ED
330
2
100
AcDbEntity
  8
GAIKEI
  6
Continuous
 62
     1
100
AcDbLine
 10
-19.42307242045513
 20
6.475923983498773
 30
0.0
 11
-19.42307242045513
 21
11.22592398349877
 31
0.0
  0
LINE
  5
3EE
330
2
100
AcDbEntity
  8
GAIKEI
  6
Continuous
 62
     1
100
AcDbLine
 10
-37.12269043661513
 20
32.02934847103882
 30
0.0
 11
-37.12269043663514
 21
31.62934847103884
 31
0.0
  0
LINE
  5
3EF
330
2
100
AcDbEntity
  8
GAIKEI
  6
Continuous
 62
     1
100
AcDbLine
 10
-39.32269043661518
 20
32.02934847117877
 30
0.0
 11
-39.32269043663519
 21
31.62934847117879
 31
0.0
  0
LWPOLYLINE
  5
3F0
330
2
100
AcDbEntity
  8
GAIKEI
  6
Continuous
 62
     1
100
AcDbPolyline
 90
       21
 70
     0
 43
0.0
 10
-37.2726904365752
 20
32.62630422951884
 10
-37.27653327339522
 20
32.63374399327882
 10
-37.2885503365751
 20
32.64137039825892
 10
-37.30936142629526
 20
32.64908676717892
 10
-37.33939155055509
 20
32.65678171895888
 10
-37.42754470091518
 20
32.67161207839888
 10
-37.55093899443523
 20
32.68485122541881
 10
-37.70284117085521
 20
32.69560574673881
 10
-37.87300046247515
 20
32.70328880003888
 10
-38.04982553677519
 20
32.70771990381888
 10
-38.22269043655524
 20
32.70910218519885
 10
-38.39555533635508
 20
32.7077199038589
 10
-38.57238041065512
 20
32.7032888000989
 10
-38.74253970227517
 20
32.69560574681884
 10
-38.89444187869515
 20
32.68485122551886
 10
-39.01783617221509
 20
32.67161207851882
 10
-39.10598932257517
 20
32.65678171907882
 10
-39.13601944685513
 20
32.64908676729886
 10
-39.15683053655516
 20
32.64137039837886
 10
-39.16884759975517
 20
32.63374399341888
 10
-39.17269043657507
 20
32.62630422963889
  0
ARC
  5
3F1
330
2
100
AcDbEntity
  8
GAIKEI
  6
Continuous
 62
     1
100
AcDbCircle
 10
-40.08592307055517
 20
31.82936508197883
 30
0.0
 40
0.935013839934205
100
AcDbArc
 50
347.6917693021971
 51
12.34851342730205
  0
ARC
  5
3F2
330
2
100
AcDbEntity
  8
GAIKEI
  6
Continuous
 62
     1
100
AcDbCircle
 10
-36.35890908381521
 20
31.82934219389881
 30
0.0
 40
0.9355528376957447
100
AcDbArc
 50
167.6569438952985
 51
192.2987610860987
  0
LINE
  5
3F3
330
2
100
AcDbEntity
  8
GAIKEI
  6
Continuous
 62
     1
100
AcDbLine
 10
-40.32269043663518
 20
31.62934847125882
 30
0.0
 11
-40.32269043661517
 21
32.0293484712588
 31
0.0
  0
LINE
  5
3F4
330
2
100
AcDbEntity
  8
GAIKEI
  6
Continuous
 62
     1
100
AcDbLine
 10
-42.52269043663511
 20
31.62934847141878
 30
0.0
 11
-42.5226904366151
 21
32.02934847141887
 31
0.0
  0
ARC
  5
3F5
330
2
100
AcDbEntity
  8
GAIKEI
  6
Continuous
 62
     1
100
AcDbCircle
 10
-39.55890908389518
 20
31.82935474829879
 30
0.0
 40
0.9355528376296927
100
AcDbArc
 50
167.6567750648027
 51
192.3004039682026
  0
ARC
  5
3F6
330
2
100
AcDbEntity
  8
GAIKEI
  6
Continuous
 62
     1
100
AcDbCircle
 10
-43.28592307063513
 20
31.82933186073876
 30
0.0
 40
0.9350138399992811
100
AcDbArc
 50
347.6947400629996
 51
12.35138404829964
  0
LINE
  5
3F7
330
2
100
AcDbEntity
  8
GAIKEI
  6
Continuous
 62
     1
100
AcDbLine
 10
-37.27269043663523
 20
31.62934847103884
 30
0.0
 11
-37.12269043663514
 21
31.62934847103884
 31
0.0
  0
LINE
  5
3F8
330
2
100
AcDbEntity
  8
GAIKEI
  6
Continuous
 62
     1
100
AcDbLine
 10
-39.32269043663519
 20
31.62934847117879
 30
0.0
 11
-39.17269043663509
 21
31.62934847117879
 31
0.0
  0
LINE
  5
3F9
330
2
100
AcDbEntity
  8
GAIKEI
  6
Continuous
 62
     1
100
AcDbLine
 10
-37.27269043665524
 20
31.34083713629877
 30
0.0
 11
-37.27269043663523
 21
31.63252746867886
 31
0.0
  0
LINE
  5
3FA
330
2
100
AcDbEntity
  8
GAIKEI
  6
Continuous
 62
     1
100
AcDbLine
 10
-40.47269043663516
 20
31.62934847127883
 30
0.0
 11
-40.32269043663518
 21
31.62934847125882
 31
0.0
  0
LINE
  5
3FB
330
2
100
AcDbEntity
  8
GAIKEI
  6
Continuous
 62
     1
100
AcDbLine
 10
-42.52269043663511
 20
31.62934847141878
 30
0.0
 11
-42.37269043663514
 21
31.62934847139877
 31
0.0
  0
LINE
  5
3FC
330
2
100
AcDbEntity
  8
GAIKEI
  6
Continuous
 62
     1
100
AcDbLine
 10
-40.47269043661515
 20
32.02934847127881
 30
0.0
 11
-40.47269043657514
 21
32.62630422973882
 31
0.0
  0
LINE
  5
3FD
330
2
100
AcDbEntity
  8
GAIKEI
  6
Continuous
 62
     1
100
AcDbLine
 10
-39.17269043663509
 20
31.63084587481876
 30
0.0
 11
-39.1726904366551
 21
31.34083713629877
 31
0.0
  0
LINE
  5
3FE
330
2
100
AcDbEntity
  8
GAIKEI
  6
Continuous
 62
     1
100
AcDbLine
 10
-40.32269043661517
 20
32.0293484712588
 30
0.0
 11
-40.47297008335511
 21
32.02934847127881
 31
0.0
  0
LINE
  5
3FF
330
2
100
AcDbEntity
  8
GAIKEI
  6
Continuous
 62
     1
100
AcDbLine
 10
-42.37218725283514
 20
32.02934847139886
 30
0.0
 11
-42.5226904366151
 21
32.02934847141887
 31
0.0
  0
LINE
  5
400
330
2
100
AcDbEntity
  8
GAIKEI
  6
Continuous
 62
     1
100
AcDbLine
 10
-40.47269043665517
 20
31.34083713629877
 30
0.0
 11
-40.47269043663516
 21
31.6308458749188
 31
0.0
  0
LINE
  5
401
330
2
100
AcDbEntity
  8
GAIKEI
  6
Continuous
 62
     1
100
AcDbLine
 10
-39.17269043657518
 20
32.62630422963878
 30
0.0
 11
-39.17269043661509
 21
32.02934847117877
 31
0.0
  0
LINE
  5
402
330
2
100
AcDbEntity
  8
GAIKEI
  6
Continuous
 62
     1
100
AcDbLine
 10
-42.37269043663514
 20
31.63252746901878
 30
0.0
 11
-42.37269043665515
 21
31.34083713629877
 31
0.0
  0
LINE
  5
403
330
2
100
AcDbEntity
  8
GAIKEI
  6
Continuous
 62
     1
100
AcDbLine
 10
-42.37269043657511
 20
32.62630422987877
 30
0.0
 11
-42.37269043661513
 21
32.02934847139886
 31
0.0
  0
LWPOLYLINE
  5
404
330
2
100
AcDbEntity
  8
GAIKEI
  6
Continuous
 62
     1
100
AcDbPolyline
 90
       21
 70
     0
 43
0.0
 10
-40.47269043657514
 20
32.62630422973882
 10
-40.47653327339514
 20
32.63374399349891
 10
-40.48855033657514
 20
32.6413703984789
 10
-40.50936142629507
 20
32.6490867673989
 10
-40.53939155055513
 20
32.65678171917887
 10
-40.62754470091511
 20
32.67161207863888
 10
-40.75093899443515
 20
32.68485122565881
 10
-40.90284117085514
 20
32.69560574695891
 10
-41.07300046247519
 20
32.70328880027887
 10
-41.24982553677511
 20
32.70771990405888
 10
-41.42269043655505
 20
32.70910218543884
 10
-41.59555533635511
 20
32.70771990407889
 10
-41.77238041065516
 20
32.70328880031889
 10
-41.94253970227509
 20
32.69560574703883
 10
-42.09444187869507
 20
32.68485122573884
 10
-42.21783617221513
 20
32.67161207873892
 10
-42.30598932257509
 20
32.65678171929881
 10
-42.33601944685505
 20
32.64908676753885
 10
-42.35683053655509
 20
32.64137039861885
 10
-42.36884759975509
 20
32.63374399363886
 10
-42.37269043657511
 20
32.62630422987888
  0
LINE
  5
405
330
2
100
AcDbEntity
  8
GAIKEI
  6
Continuous
 62
     1
100
AcDbLine
 10
-37.12269043661513
 20
32.02934847103882
 30
0.0
 11
-37.27334555731522
 21
32.02934847103882
 31
0.0
  0
LINE
  5
406
330
2
100
AcDbEntity
  8
GAIKEI
  6
Continuous
 62
     1
100
AcDbLine
 10
-39.17196036215512
 20
32.02934847117877
 30
0.0
 11
-39.32269043661518
 21
32.02934847117877
 31
0.0
  0
LINE
  5
407
330
2
100
AcDbEntity
  8
GAIKEI
  6
Continuous
 62
     1
100
AcDbLine
 10
-37.27269043661522
 20
32.02934847103882
 30
0.0
 11
-37.2726904365752
 21
32.62630422951884
 31
0.0
  0
LINE
  5
408
330
2
100
AcDbEntity
  8
GAIKEI
  6
Continuous
 62
     1
100
AcDbLine
 10
-33.92269043761507
 20
31.62934847037877
 30
0.0
 11
-33.92269043755505
 21
32.02934847037886
 31
0.0
  0
LINE
  5
409
330
2
100
AcDbEntity
  8
GAIKEI
  6
Continuous
 62
     1
100
AcDbLine
 10
-36.12269043761512
 20
31.62934847063878
 30
0.0
 11
-36.12269043755509
 21
32.02934847063875
 31
0.0
  0
LWPOLYLINE
  5
40A
330
2
100
AcDbEntity
  8
GAIKEI
  6
Continuous
 62
     1
100
AcDbPolyline
 90
       21
 70
     0
 43
0.0
 10
-34.07269043749511
 20
32.62630422885889
 10
-34.07653327431513
 20
32.63374399263887
 10
-34.08855033749524
 20
32.64137039761886
 10
-34.10936142721516
 20
32.64908676653886
 10
-34.13939155147523
 20
32.65678171831883
 10
-34.22754470183509
 20
32.67161207777883
 10
-34.35093899535514
 20
32.68485122479888
 10
-34.50284117177512
 20
32.69560574613888
 10
-34.67300046339506
 20
32.70328879943884
 10
-34.8498255376951
 20
32.70771990323885
 10
-35.02269043747515
 20
32.70910218461882
 10
-35.19555533727521
 20
32.70771990327887
 10
-35.37238041157525
 20
32.70328879953888
 10
-35.54253970319519
 20
32.69560574625882
 10
-35.69444187961517
 20
32.68485122495884
 10
-35.81783617313522
 20
32.6716120779588
 10
-35.90598932349508
 20
32.65678171851892
 10
-35.93601944777515
 20
32.64908676675884
 10
-35.95683053749508
 20
32.64137039783884
 10
-35.96884760067519
 20
32.63374399285885
 10
-35.9726904374952
 20
32.62630422909888
  0
LINE
  5
40B
330
2
100
AcDbEntity
  8
GAIKEI
  6
Continuous
 62
     1
100
AcDbLine
 10
-30.72269043755523
 20
32.02934846999881
 30
0.0
 11
-30.8733455582751
 21
32.02934847001882
 31
0.0
  0
LINE
  5
40C
330
2
100
AcDbEntity
  8
GAIKEI
  6
Continuous
 62
     1
100
AcDbLine
 10
-32.7719603630951
 20
32.0293484702388
 30
0.0
 11
-32.92269043755505
 21
32.02934847025881
 31
0.0
  0
LINE
  5
40D
330
2
100
AcDbEntity
  8
GAIKEI
  6
Continuous
 62
     1
100
AcDbLine
 10
-30.87269043755509
 20
32.02934847001882
 30
0.0
 11
-30.87269043749507
 21
32.62630422847883
 31
0.0
  0
ARC
  5
40E
330
2
100
AcDbEntity
  8
GAIKEI
  6
Continuous
 62
     1
100
AcDbCircle
 10
-33.15890908483516
 20
31.82935474737883
 30
0.0
 40
0.9355528376465507
100
AcDbArc
 50
167.6567750621024
 51
192.3004039651026
  0
ARC
  5
40F
330
2
100
AcDbEntity
  8
GAIKEI
  6
Continuous
 62
     1
100
AcDbCircle
 10
-36.88592307155523
 20
31.82933185999877
 30
0.0
 40
0.935013839969261
100
AcDbArc
 50
347.6947400596998
 51
12.3513840457989
  0
LINE
  5
410
330
2
100
AcDbEntity
  8
GAIKEI
  6
Continuous
 62
     1
100
AcDbLine
 10
-30.87269043761512
 20
31.62934847001884
 30
0.0
 11
-30.72269043761526
 21
31.62934846999883
 31
0.0
  0
LINE
  5
411
330
2
100
AcDbEntity
  8
GAIKEI
  6
Continuous
 62
     1
100
AcDbLine
 10
-32.92269043761507
 20
31.62934847025884
 30
0.0
 11
-32.77269043761521
 21
31.62934847023882
 31
0.0
  0
LINE
  5
412
330
2
100
AcDbEntity
  8
GAIKEI
  6
Continuous
 62
     1
100
AcDbLine
 10
-30.87269043765514
 20
31.34083713629877
 30
0.0
 11
-30.87269043761512
 21
31.63252746763885
 31
0.0
  0
LINE
  5
413
330
2
100
AcDbEntity
  8
GAIKEI
  6
Continuous
 62
     1
100
AcDbLine
 10
-34.07269043761516
 20
31.62934847039878
 30
0.0
 11
-33.92269043761507
 21
31.62934847037877
 31
0.0
  0
LINE
  5
414
330
2
100
AcDbEntity
  8
GAIKEI
  6
Continuous
 62
     1
100
AcDbLine
 10
-36.12269043761512
 20
31.62934847063878
 30
0.0
 11
-35.97269043761526
 21
31.62934847061876
 31
0.0
  0
LINE
  5
415
330
2
100
AcDbEntity
  8
GAIKEI
  6
Continuous
 62
     1
100
AcDbLine
 10
-34.07269043755514
 20
32.02934847039876
 30
0.0
 11
-34.07269043749511
 21
32.62630422885877
 31
0.0
  0
LINE
  5
416
330
2
100
AcDbEntity
  8
GAIKEI
  6
Continuous
 62
     1
100
AcDbLine
 10
-32.77269043761521
 20
31.6308458738788
 30
0.0
 11
-32.77269043765523
 21
31.34083713629877
 31
0.0
  0
LINE
  5
417
330
2
100
AcDbEntity
  8
GAIKEI
  6
Continuous
 62
     1
100
AcDbLine
 10
-33.92269043755505
 20
32.02934847037886
 30
0.0
 11
-34.0729700843151
 21
32.02934847039876
 31
0.0
  0
LINE
  5
418
330
2
100
AcDbEntity
  8
GAIKEI
  6
Continuous
 62
     1
100
AcDbLine
 10
-35.97218725379526
 20
32.02934847061886
 30
0.0
 11
-36.12269043755509
 21
32.02934847063875
 31
0.0
  0
LINE
  5
419
330
2
100
AcDbEntity
  8
GAIKEI
  6
Continuous
 62
     1
100
AcDbLine
 10
-34.07269043765519
 20
31.34083713629877
 30
0.0
 11
-34.07269043761516
 21
31.63084587403887
 31
0.0
  0
LINE
  5
41A
330
2
100
AcDbEntity
  8
GAIKEI
  6
Continuous
 62
     1
100
AcDbLine
 10
-32.77269043749516
 20
32.62630422871882
 30
0.0
 11
-32.77269043755519
 21
32.0293484702388
 31
0.0
  0
LINE
  5
41B
330
2
100
AcDbEntity
  8
GAIKEI
  6
Continuous
 62
     1
100
AcDbLine
 10
-35.97269043761526
 20
31.63252746825879
 30
0.0
 11
-35.97269043765505
 21
31.34083713629877
 31
0.0
  0
LINE
  5
41C
330
2
100
AcDbEntity
  8
GAIKEI
  6
Continuous
 62
     1
100
AcDbLine
 10
-35.9726904374952
 20
32.62630422909877
 30
0.0
 11
-35.97269043755523
 21
32.02934847061886
 31
0.0
  0
LINE
  5
41D
330
2
100
AcDbEntity
  8
GAIKEI
  6
Continuous
 62
     1
100
AcDbLine
 10
-30.72269043755523
 20
32.02934846999881
 30
0.0
 11
-30.72269043761526
 21
31.62934846999883
 31
0.0
  0
LINE
  5
41E
330
2
100
AcDbEntity
  8
GAIKEI
  6
Continuous
 62
     1
100
AcDbLine
 10
-32.92269043755505
 20
32.02934847025881
 30
0.0
 11
-32.92269043761507
 21
31.62934847025884
 31
0.0
  0
LWPOLYLINE
  5
41F
330
2
100
AcDbEntity
  8
GAIKEI
  6
Continuous
 62
     1
100
AcDbPolyline
 90
       21
 70
     0
 43
0.0
 10
-30.87269043749507
 20
32.62630422847883
 10
-30.87653327431508
 20
32.63374399223881
 10
-30.88855033749519
 20
32.64137039721891
 10
-30.90936142721512
 20
32.6490867661588
 10
-30.93939155147519
 20
32.65678171791888
 10
-31.02754470183504
 20
32.67161207737888
 10
-31.15093899535509
 20
32.68485122441882
 10
-31.30284117177507
 20
32.69560574573882
 10
-31.47300046339524
 20
32.7032887990589
 10
-31.64982553769505
 20
32.7077199028588
 10
-31.8226904374751
 20
32.70910218423888
 10
-31.99555533727516
 20
32.70771990289882
 10
-32.1723804115752
 20
32.70328879913882
 10
-32.34253970319514
 20
32.69560574585887
 10
-32.49444187961513
 20
32.68485122457889
 10
-32.61783617313517
 20
32.67161207757886
 10
-32.70598932349503
 20
32.65678171813886
 10
-32.73601944777511
 20
32.6490867663789
 10
-32.75683053749503
 20
32.6413703974589
 10
-32.76884760067515
 20
32.63374399247891
 10
-32.77269043749516
 20
32.62630422871882
  0
ARC
  5
420
330
2
100
AcDbEntity
  8
GAIKEI
  6
Continuous
 62
     1
100
AcDbCircle
 10
-33.68592307153517
 20
31.82936508107878
 30
0.0
 40
0.9350138399505787
100
AcDbArc
 50
347.6917692996031
 51
12.34851342420147
  0
ARC
  5
421
330
2
100
AcDbEntity
  8
GAIKEI
  6
Continuous
 62
     1
100
AcDbCircle
 10
-29.95890908481511
 20
31.82934219281879
 30
0.0
 40
0.9355528376655174
100
AcDbArc
 50
167.6569438919979
 51
192.2987610836987
  0
LINE
  5
422
330
2
100
AcDbEntity
  8
GAIKEI
  6
Continuous
 62
     1
100
AcDbLine
 10
-23.92269043711508
 20
31.62934846911878
 30
0.0
 11
-23.92269043707506
 21
32.02934846911876
 31
0.0
  0
LWPOLYLINE
  5
423
330
2
100
AcDbEntity
  8
GAIKEI
  6
Continuous
 62
     1
100
AcDbPolyline
 90
       21
 70
     0
 43
0.0
 10
-24.07269043701513
 20
32.6263042276189
 10
-24.07653327383514
 20
32.63374399137888
 10
-24.08855033701502
 20
32.64137039635887
 10
-24.10936142673518
 20
32.64908676527887
 10
-24.13939155099524
 20
32.65678171703882
 10
-24.2275447013551
 20
32.67161207649883
 10
-24.35093899487515
 20
32.68485122351888
 10
-24.50284117129513
 20
32.69560574483887
 10
-24.67300046291507
 20
32.70328879815884
 10
-24.84982553721511
 20
32.70771990193884
 10
-25.02269043701517
 20
32.70910218331881
 10
-25.19555533679522
 20
32.70771990195886
 10
-25.37238041109504
 20
32.70328879821887
 10
-25.54253970273521
 20
32.6956057449388
 10
-25.69444187913518
 20
32.68485122363882
 10
-25.81783617267524
 20
32.67161207663889
 10
-25.90598932301509
 20
32.6567817171989
 10
-25.93601944729517
 20
32.64908676543882
 10
-25.9568305370151
 20
32.64137039651882
 10
-25.9688476001952
 20
32.63374399155885
 10
-25.97269043701522
 20
32.62630422779887
  0
LINE
  5
424
330
2
100
AcDbEntity
  8
GAIKEI
  6
Continuous
 62
     1
100
AcDbLine
 10
-29.17269043711508
 20
31.63252746723879
 30
0.0
 11
-29.17269043713509
 21
31.34083713629877
 31
0.0
  0
LINE
  5
425
330
2
100
AcDbEntity
  8
GAIKEI
  6
Continuous
 62
     1
100
AcDbLine
 10
-26.12269043711513
 20
31.62934846933877
 30
0.0
 11
-26.12269043707511
 21
32.02934846933886
 31
0.0
  0
LINE
  5
426
330
2
100
AcDbEntity
  8
GAIKEI
  6
Continuous
 62
     1
100
AcDbLine
 10
-29.32269043707515
 20
32.02934846961876
 30
0.0
 11
-29.32269043711517
 21
31.62934846961878
 31
0.0
  0
LINE
  5
427
330
2
100
AcDbEntity
  8
GAIKEI
  6
Continuous
 62
     1
100
AcDbLine
 10
-27.12269043707511
 20
32.02934846941878
 30
0.0
 11
-27.12269043711513
 21
31.6293484694188
 31
0.0
  0
LWPOLYLINE
  5
428
330
2
100
AcDbEntity
  8
GAIKEI
  6
Continuous
 62
     1
100
AcDbPolyline
 90
       21
 70
     0
 43
0.0
 10
-27.27269043701517
 20
32.62630422791881
 10
-27.27653327383519
 20
32.6337439916789
 10
-27.28855033701507
 20
32.64137039665889
 10
-27.30936142673523
 20
32.64908676557889
 10
-27.33939155099506
 20
32.65678171733885
 10
-27.42754470135515
 20
32.67161207679885
 10
-27.5509389948752
 20
32.6848512238189
 10
-27.70284117129518
 20
32.69560574513889
 10
-27.87300046291512
 20
32.70328879843885
 10
-28.04982553721515
 20
32.70771990223887
 10
-28.22269043701522
 20
32.70910218361883
 10
-28.39555533679504
 20
32.70771990225887
 10
-28.57238041109508
 20
32.70328879851888
 10
-28.74253970273503
 20
32.69560574523882
 10
-28.89444187913523
 20
32.68485122393884
 10
-29.01783617267506
 20
32.6716120769388
 10
-29.10598932301514
 20
32.6567817174988
 10
-29.13601944729521
 20
32.64908676573885
 10
-29.15683053701514
 20
32.64137039681884
 10
-29.16884760019502
 20
32.63374399183886
 10
-29.17269043701504
 20
32.62630422807888
  0
ARC
  5
429
330
2
100
AcDbEntity
  8
GAIKEI
  6
Continuous
 62
     1
100
AcDbCircle
 10
-30.08647490951512
 20
31.82934179523886
 30
0.0
 40
0.9355528376466358
100
AcDbArc
 50
347.701303399397
 51
12.34302504669749
  0
LINE
  5
42A
330
2
100
AcDbEntity
  8
GAIKEI
  6
Continuous
 62
     1
100
AcDbLine
 10
-24.07269043713518
 20
31.34083713629877
 30
0.0
 11
-24.07269043711517
 21
31.63084587279878
 31
0.0
  0
LINE
  5
42B
330
2
100
AcDbEntity
  8
GAIKEI
  6
Continuous
 62
     1
100
AcDbLine
 10
-23.92269043707506
 20
32.02934846911876
 30
0.0
 11
-24.07297008381511
 21
32.02934846913877
 31
0.0
  0
LINE
  5
42C
330
2
100
AcDbEntity
  8
GAIKEI
  6
Continuous
 62
     1
100
AcDbLine
 10
-20.85769043667506
 20
31.62934846883877
 30
0.0
 11
-20.72269043711504
 21
31.62934846883877
 31
0.0
  0
LINE
  5
42D
330
2
100
AcDbEntity
  8
GAIKEI
  6
Continuous
 62
     1
100
AcDbLine
 10
-20.87269043693504
 20
31.62934846883877
 30
0.0
 11
-20.85769043667506
 21
31.62934846883877
 31
0.0
  0
LINE
  5
42E
330
2
100
AcDbEntity
  8
GAIKEI
  6
Continuous
 62
     1
100
AcDbLine
 10
-22.92269043711508
 20
31.62934846903886
 30
0.0
 11
-22.77269043711521
 21
31.62934846901885
 31
0.0
  0
LINE
  5
42F
330
2
100
AcDbEntity
  8
GAIKEI
  6
Continuous
 62
     1
100
AcDbLine
 10
-20.87269043711513
 20
31.63165590967878
 30
0.0
 11
-20.87269043711513
 21
31.63252746647879
 31
0.0
  0
LINE
  5
430
330
2
100
AcDbEntity
  8
GAIKEI
  6
Continuous
 62
     1
100
AcDbLine
 10
-29.17203531637506
 20
32.02934846961876
 30
0.0
 11
-29.32269043707515
 21
32.02934846961876
 31
0.0
  0
LINE
  5
431
330
2
100
AcDbEntity
  8
GAIKEI
  6
Continuous
 62
     1
100
AcDbLine
 10
-27.27269043713523
 20
31.34083713629877
 30
0.0
 11
-27.27269043711522
 21
31.63084587307878
 31
0.0
  0
LINE
  5
432
330
2
100
AcDbEntity
  8
GAIKEI
  6
Continuous
 62
     1
100
AcDbLine
 10
-27.12269043707511
 20
32.02934846941878
 30
0.0
 11
-27.27342051153505
 21
32.02934846943879
 31
0.0
  0
LINE
  5
433
330
2
100
AcDbEntity
  8
GAIKEI
  6
Continuous
 62
     1
100
AcDbLine
 10
-25.97269043701522
 20
32.62630422779876
 30
0.0
 11
-25.97269043707524
 21
32.02934846931885
 31
0.0
  0
LINE
  5
434
330
2
100
AcDbEntity
  8
GAIKEI
  6
Continuous
 62
     1
100
AcDbLine
 10
-26.12269043711513
 20
31.62934846933877
 30
0.0
 11
-25.97269043711504
 21
31.62934846931876
 31
0.0
  0
LINE
  5
435
330
2
100
AcDbEntity
  8
GAIKEI
  6
Continuous
 62
     1
100
AcDbLine
 10
-22.77269043701517
 20
32.62630422749885
 30
0.0
 11
-22.7726904370752
 21
32.02934846901883
 31
0.0
  0
LINE
  5
436
330
2
100
AcDbEntity
  8
GAIKEI
  6
Continuous
 62
     1
100
AcDbLine
 10
-24.07269043707515
 20
32.02934846913877
 30
0.0
 11
-24.07269043701513
 21
32.62630422761879
 31
0.0
  0
LINE
  5
437
330
2
100
AcDbEntity
  8
GAIKEI
  6
Continuous
 62
     1
100
AcDbLine
 10
-24.07269043711517
 20
31.62934846913879
 30
0.0
 11
-23.92269043711508
 21
31.62934846911878
 31
0.0
  0
LINE
  5
438
330
2
100
AcDbEntity
  8
GAIKEI
  6
Continuous
 62
     1
100
AcDbLine
 10
-20.72269043707525
 20
32.02934846883886
 30
0.0
 11
-20.87334555777511
 21
32.02934846883886
 31
0.0
  0
LINE
  5
439
330
2
100
AcDbEntity
  8
GAIKEI
  6
Continuous
 62
     1
100
AcDbLine
 10
-22.77196036261512
 20
32.02934846901883
 30
0.0
 11
-22.92269043707506
 21
32.02934846903884
 31
0.0
  0
LINE
  5
43A
330
2
100
AcDbEntity
  8
GAIKEI
  6
Continuous
 62
     1
100
AcDbLine
 10
-20.87269043707511
 20
32.02934846883886
 30
0.0
 11
-20.87269043701508
 21
32.62630422731877
 31
0.0
  0
LINE
  5
43B
330
2
100
AcDbEntity
  8
GAIKEI
  6
Continuous
 62
     1
100
AcDbLine
 10
-29.17269043701504
 20
32.62630422807877
 30
0.0
 11
-29.17269043707506
 21
32.02934846961876
 31
0.0
  0
LINE
  5
43C
330
2
100
AcDbEntity
  8
GAIKEI
  6
Continuous
 62
     1
100
AcDbLine
 10
-29.32269043711517
 20
31.62934846961878
 30
0.0
 11
-29.17269043711508
 21
31.62934846961878
 31
0.0
  0
LINE
  5
43D
330
2
100
AcDbEntity
  8
GAIKEI
  6
Continuous
 62
     1
100
AcDbLine
 10
-27.2726904370752
 20
32.02934846943879
 30
0.0
 11
-27.27269043701517
 21
32.62630422791881
 31
0.0
  0
LINE
  5
43E
330
2
100
AcDbEntity
  8
GAIKEI
  6
Continuous
 62
     1
100
AcDbLine
 10
-27.27269043711522
 20
31.62934846943881
 30
0.0
 11
-27.12269043711513
 21
31.6293484694188
 31
0.0
  0
LINE
  5
43F
330
2
100
AcDbEntity
  8
GAIKEI
  6
Continuous
 62
     1
100
AcDbLine
 10
-25.97269043711504
 20
31.63084587295884
 30
0.0
 11
-25.97269043713505
 21
31.34083713629877
 31
0.0
  0
LINE
  5
440
330
2
100
AcDbEntity
  8
GAIKEI
  6
Continuous
 62
     1
100
AcDbLine
 10
-25.97241079031505
 20
32.02934846931885
 30
0.0
 11
-26.12269043707511
 21
32.02934846933886
 31
0.0
  0
LINE
  5
441
330
2
100
AcDbEntity
  8
GAIKEI
  6
Continuous
 62
     1
100
AcDbLine
 10
-22.77269043711521
 20
31.63084587267884
 30
0.0
 11
-22.77269043713523
 21
31.34083713629877
 31
0.0
  0
ARC
  5
442
330
2
100
AcDbEntity
  8
GAIKEI
  6
Continuous
 62
     1
100
AcDbCircle
 10
-26.88647490955509
 20
31.82935514385884
 30
0.0
 40
0.9355528376834261
100
AcDbArc
 50
347.6996129531969
 51
12.3431470781006
  0
ARC
  5
443
330
2
100
AcDbEntity
  8
GAIKEI
  6
Continuous
 62
     1
100
AcDbCircle
 10
-26.3594609599952
 20
31.8293650463188
 30
0.0
 40
0.9350138399872385
100
AcDbArc
 50
167.6514293949971
 51
192.3082699163975
  0
ARC
  5
444
330
2
100
AcDbEntity
  8
GAIKEI
  6
Continuous
 62
     1
100
AcDbCircle
 10
-23.68592307103518
 20
31.8293650798388
 30
0.0
 40
0.9350138399509578
100
AcDbArc
 50
347.691769301197
 51
12.34851342590172
  0
ARC
  5
445
330
2
100
AcDbEntity
  8
GAIKEI
  6
Continuous
 62
     1
100
AcDbCircle
 10
-19.9589090842951
 20
31.82934219167885
 30
0.0
 40
0.935552837683412
100
AcDbArc
 50
167.6569438938981
 51
192.2987610850987
  0
ARC
  5
446
330
2
100
AcDbEntity
  8
GAIKEI
  6
Continuous
 62
     1
100
AcDbCircle
 10
-23.15890908433516
 20
31.82935474613885
 30
0.0
 40
0.9355528376466569
100
AcDbArc
 50
167.6567750638026
 51
192.3004039668026
  0
LINE
  5
447
330
2
100
AcDbEntity
  8
GAIKEI
  6
Continuous
 62
     1
100
AcDbLine
 10
-20.72269043707525
 20
32.02934846883886
 30
0.0
 11
-20.72269043711504
 21
31.62934846883877
 31
0.0
  0
LINE
  5
448
330
2
100
AcDbEntity
  8
GAIKEI
  6
Continuous
 62
     1
100
AcDbLine
 10
-22.92269043707506
 20
32.02934846903884
 30
0.0
 11
-22.92269043711508
 21
31.62934846903886
 31
0.0
  0
LWPOLYLINE
  5
449
330
2
100
AcDbEntity
  8
GAIKEI
  6
Continuous
 62
     1
100
AcDbPolyline
 90
       21
 70
     0
 43
0.0
 10
-20.87269043701508
 20
32.62630422731888
 10
-20.8765332738351
 20
32.63374399107886
 10
-20.8885503370152
 20
32.64137039605885
 10
-20.90936142673513
 20
32.64908676497885
 10
-20.9393915509952
 20
32.65678171675882
 10
-21.02754470135506
 20
32.67161207619881
 10
-21.15093899487511
 20
32.68485122323887
 10
-21.30284117129509
 20
32.69560574453886
 10
-21.47300046291503
 20
32.70328879785882
 10
-21.64982553721507
 20
32.70771990163883
 10
-21.82269043701513
 20
32.7091021830189
 10
-21.99555533679518
 20
32.70771990167884
 10
-22.17238041109522
 20
32.70328879791885
 10
-22.34253970273517
 20
32.6956057446389
 10
-22.49444187913514
 20
32.68485122335881
 10
-22.6178361726752
 20
32.67161207635889
 10
-22.70598932301505
 20
32.65678171691889
 10
-22.73601944729512
 20
32.64908676515882
 10
-22.75683053701505
 20
32.64137039623881
 10
-22.76884760019516
 20
32.63374399125883
 10
-22.77269043701517
 20
32.62630422749885
  0
TEXT
  5
44A
330
2
100
AcDbEntity
  8
GAIKEI
  6
Continuous
 62
     1
100
AcDbText
 10
-15.71182487149508
 20
1.638900030618856
 30
0.0
 40
0.5
  1
BKGD
  7
SEACAD_SEANSI_TTF
 11
-15.71182487149508
 21
2.138900030618856
 31
0.0
100
AcDbText
 73
     3
  0
ARC
  5
44C
330
2
100
AcDbEntity
  8
GAIKEI
  6
Continuous
 62
     1
100
AcDbCircle
 10
-12.72269042331504
 20
2.278031465418848
 30
0.0
 40
0.4
100
AcDbArc
 50
270.0
 51
0.0
  0
ARC
  5
44D
330
2
100
AcDbEntity
  8
GAIKEI
  6
Continuous
 62
     1
100
AcDbCircle
 10
-16.72269042331504
 20
2.278031465418848
 30
0.0
 40
0.4
100
AcDbArc
 50
180.0
 51
270.0
  0
ARC
  5
44E
330
2
100
AcDbEntity
  8
GAIKEI
  6
Continuous
 62
     1
100
AcDbCircle
 10
-16.72269042331504
 20
13.92813693325877
 30
0.0
 40
0.4
100
AcDbArc
 50
90.0
 51
180.0
  0
ARC
  5
44F
330
2
100
AcDbEntity
  8
GAIKEI
  6
Continuous
 62
     1
100
AcDbCircle
 10
-12.72269042331504
 20
13.92813693325877
 30
0.0
 40
0.4
100
AcDbArc
 50
0.0
 51
90.0
  0
LINE
  5
450
330
2
100
AcDbEntity
  8
GAIKEI
  6
Continuous
 62
     1
100
AcDbLine
 10
-17.12269042331513
 20
13.92813693325877
 30
0.0
 11
-17.12269042331513
 21
2.278031465418848
 31
0.0
  0
LINE
  5
451
330
2
100
AcDbEntity
  8
GAIKEI
  6
Continuous
 62
     1
100
AcDbLine
 10
-12.72269042331504
 20
14.32813693325875
 30
0.0
 11
-16.72269042331504
 21
14.32813693325875
 31
0.0
  0
LINE
  5
452
330
2
100
AcDbEntity
  8
GAIKEI
  6
Continuous
 62
     1
100
AcDbLine
 10
-12.32269042331518
 20
2.278031465418848
 30
0.0
 11
-12.32269042331518
 21
13.92813693325877
 31
0.0
  0
LINE
  5
453
330
2
100
AcDbEntity
  8
GAIKEI
  6
Continuous
 62
     1
100
AcDbLine
 10
-15.91182487149513
 20
1.878031465418871
 30
0.0
 11
-16.72269042331504
 21
1.878031465418871
 31
0.0
  0
LINE
  5
454
330
2
100
AcDbEntity
  8
GAIKEI
  6
Continuous
 62
     1
100
AcDbLine
 10
-13.53356200193502
 20
1.878031465418871
 30
0.0
 11
-12.72269042331504
 21
1.878031465418871
 31
0.0
  0
TEXT
  5
455
330
2
100
AcDbEntity
  8
GAIKEI
  6
Continuous
 62
     1
100
AcDbText
 10
-49.08791182801519
 20
10.93672611757879
 30
0.0
 40
0.4
  1
AUX
  7
SEACAD_SEANSI_TTF
 11
-49.08791182801519
 21
11.33672611757879
 31
0.0
100
AcDbText
 73
     3
  0
TEXT
  5
456
330
2
100
AcDbEntity
  8
GAIKEI
  6
Continuous
 62
     1
100
AcDbText
 10
-45.95747704539507
 20
9.336726117578768
 30
0.0
 40
0.4
  1
PGM
  7
SEACAD_SEANSI_TTF
 11
-45.95747704539507
 21
9.736726117578768
 31
0.0
100
AcDbText
 73
     3
  0
LINE
  5
457
330
2
100
AcDbEntity
  8
GAIKEI
  6
Continuous
 62
     1
100
AcDbLine
 10
-46.15747704539512
 20
9.528031465418848
 30
0.0
 11
-48.52269343671514
 21
9.528031465418848
 31
0.0
  0
LINE
  5
458
330
2
100
AcDbEntity
  8
GAIKEI
  6
Continuous
 62
     1
100
AcDbLine
 10
-48.52269343671514
 20
10.72803146541878
 30
0.0
 11
-48.52269343671514
 21
9.528031465418848
 31
0.0
  0
ARC
  5
459
330
2
100
AcDbEntity
  8
GAIKEI
  6
Continuous
 62
     1
100
AcDbCircle
 10
-27.55923967653507
 20
8.98243317077879
 30
0.0
 40
0.106
100
AcDbArc
 50
0.0
 51
90.0
  0
ARC
  5
45A
330
2
100
AcDbEntity
  8
GAIKEI
  6
Continuous
 62
     1
100
AcDbCircle
 10
-27.55923967653507
 20
8.294433170778802
 30
0.0
 40
0.106
100
AcDbArc
 50
270.0
 51
0.0
  0
ARC
  5
45B
330
2
100
AcDbEntity
  8
GAIKEI
  6
Continuous
 62
     1
100
AcDbCircle
 10
-28.44723967653522
 20
8.294433170778802
 30
0.0
 40
0.106
100
AcDbArc
 50
180.0
 51
270.0
  0
ARC
  5
45C
330
2
100
AcDbEntity
  8
GAIKEI
  6
Continuous
 62
     1
100
AcDbCircle
 10
-28.44723967653522
 20
8.98243317077879
 30
0.0
 40
0.106
100
AcDbArc
 50
90.0
 51
180.0
  0
LINE
  5
45D
330
2
100
AcDbEntity
  8
GAIKEI
  6
Continuous
 62
     1
100
AcDbLine
 10
-27.55923967653507
 20
9.088433170778785
 30
0.0
 11
-28.44723967653522
 21
9.088433170778785
 31
0.0
  0
LINE
  5
45E
330
2
100
AcDbEntity
  8
GAIKEI
  6
Continuous
 62
     1
100
AcDbLine
 10
-27.45323967653508
 20
8.294433170778802
 30
0.0
 11
-27.45323967653508
 21
8.98243317077879
 31
0.0
  0
LINE
  5
45F
330
2
100
AcDbEntity
  8
GAIKEI
  6
Continuous
 62
     1
100
AcDbLine
 10
-28.44723967653522
 20
8.188433170778807
 30
0.0
 11
-27.55923967653507
 21
8.188433170778807
 31
0.0
  0
LINE
  5
460
330
2
100
AcDbEntity
  8
GAIKEI
  6
Continuous
 62
     1
100
AcDbLine
 10
-28.55323967653522
 20
8.98243317077879
 30
0.0
 11
-28.55323967653522
 21
8.294433170778802
 31
0.0
  0
ARC
  5
461
330
2
100
AcDbEntity
  8
GAIKEI
  6
Continuous
 62
     1
100
AcDbCircle
 10
-31.89663302415511
 20
8.98243317077879
 30
0.0
 40
0.106
100
AcDbArc
 50
0.0
 51
90.0
  0
ARC
  5
462
330
2
100
AcDbEntity
  8
GAIKEI
  6
Continuous
 62
     1
100
AcDbCircle
 10
-31.89663302415511
 20
8.294433170778802
 30
0.0
 40
0.106
100
AcDbArc
 50
270.0
 51
0.0
  0
ARC
  5
463
330
2
100
AcDbEntity
  8
GAIKEI
  6
Continuous
 62
     1
100
AcDbCircle
 10
-32.58463302415521
 20
8.294433170778802
 30
0.0
 40
0.106
100
AcDbArc
 50
180.0
 51
270.0
  0
ARC
  5
464
330
2
100
AcDbEntity
  8
GAIKEI
  6
Continuous
 62
     1
100
AcDbCircle
 10
-32.58463302415521
 20
8.98243317077879
 30
0.0
 40
0.106
100
AcDbArc
 50
90.0
 51
180.0
  0
LINE
  5
465
330
2
100
AcDbEntity
  8
GAIKEI
  6
Continuous
 62
     1
100
AcDbLine
 10
-31.89663302415511
 20
9.088433170778785
 30
0.0
 11
-32.58463302415521
 21
9.088433170778785
 31
0.0
  0
LINE
  5
466
330
2
100
AcDbEntity
  8
GAIKEI
  6
Continuous
 62
     1
100
AcDbLine
 10
-31.79063302415511
 20
8.294433170778802
 30
0.0
 11
-31.79063302415511
 21
8.98243317077879
 31
0.0
  0
LINE
  5
467
330
2
100
AcDbEntity
  8
GAIKEI
  6
Continuous
 62
     1
100
AcDbLine
 10
-32.58463302415521
 20
8.188433170778807
 30
0.0
 11
-31.89663302415511
 21
8.188433170778807
 31
0.0
  0
LINE
  5
468
330
2
100
AcDbEntity
  8
GAIKEI
  6
Continuous
 62
     1
100
AcDbLine
 10
-32.69063302415521
 20
8.98243317077879
 30
0.0
 11
-32.69063302415521
 21
8.294433170778802
 31
0.0
  0
ARC
  5
469
330
2
100
AcDbEntity
  8
GAIKEI
  6
Continuous
 62
     1
100
AcDbCircle
 10
-36.09663302415516
 20
8.98243317077879
 30
0.0
 40
0.106
100
AcDbArc
 50
0.0
 51
90.0
  0
ARC
  5
46A
330
2
100
AcDbEntity
  8
GAIKEI
  6
Continuous
 62
     1
100
AcDbCircle
 10
-36.09663302415516
 20
8.294433170778802
 30
0.0
 40
0.106
100
AcDbArc
 50
270.0
 51
0.0
  0
ARC
  5
46B
330
2
100
AcDbEntity
  8
GAIKEI
  6
Continuous
 62
     1
100
AcDbCircle
 10
-36.78463302415503
 20
8.294433170778802
 30
0.0
 40
0.106
100
AcDbArc
 50
180.0
 51
270.0
  0
ARC
  5
46C
330
2
100
AcDbEntity
  8
GAIKEI
  6
Continuous
 62
     1
100
AcDbCircle
 10
-36.78463302415503
 20
8.98243317077879
 30
0.0
 40
0.106
100
AcDbArc
 50
90.0
 51
180.0
  0
LINE
  5
46D
330
2
100
AcDbEntity
  8
GAIKEI
  6
Continuous
 62
     1
100
AcDbLine
 10
-36.09663302415516
 20
9.088433170778785
 30
0.0
 11
-36.78463302415503
 21
9.088433170778785
 31
0.0
  0
LINE
  5
46E
330
2
100
AcDbEntity
  8
GAIKEI
  6
Continuous
 62
     1
100
AcDbLine
 10
-35.99063302415516
 20
8.294433170778802
 30
0.0
 11
-35.99063302415516
 21
8.98243317077879
 31
0.0
  0
LINE
  5
46F
330
2
100
AcDbEntity
  8
GAIKEI
  6
Continuous
 62
     1
100
AcDbLine
 10
-36.78463302415503
 20
8.188433170778807
 30
0.0
 11
-36.09663302415516
 21
8.188433170778807
 31
0.0
  0
LINE
  5
470
330
2
100
AcDbEntity
  8
GAIKEI
  6
Continuous
 62
     1
100
AcDbLine
 10
-36.89063302415525
 20
8.98243317077879
 30
0.0
 11
-36.89063302415525
 21
8.294433170778802
 31
0.0
  0
ARC
  5
471
330
2
100
AcDbEntity
  8
GAIKEI
  6
Continuous
 62
     1
100
AcDbCircle
 10
-44.49663302415513
 20
8.98243317077879
 30
0.0
 40
0.106
100
AcDbArc
 50
0.0
 51
90.0
  0
ARC
  5
472
330
2
100
AcDbEntity
  8
GAIKEI
  6
Continuous
 62
     1
100
AcDbCircle
 10
-44.49663302415513
 20
8.294433170778802
 30
0.0
 40
0.106
100
AcDbArc
 50
270.0
 51
0.0
  0
ARC
  5
473
330
2
100
AcDbEntity
  8
GAIKEI
  6
Continuous
 62
     1
100
AcDbCircle
 10
-45.18463302415511
 20
8.294433170778802
 30
0.0
 40
0.106
100
AcDbArc
 50
180.0
 51
270.0
  0
ARC
  5
474
330
2
100
AcDbEntity
  8
GAIKEI
  6
Continuous
 62
     1
100
AcDbCircle
 10
-45.18463302415511
 20
8.98243317077879
 30
0.0
 40
0.106
100
AcDbArc
 50
90.0
 51
180.0
  0
LINE
  5
475
330
2
100
AcDbEntity
  8
GAIKEI
  6
Continuous
 62
     1
100
AcDbLine
 10
-44.49663302415513
 20
9.088433170778785
 30
0.0
 11
-45.18463302415511
 21
9.088433170778785
 31
0.0
  0
LINE
  5
476
330
2
100
AcDbEntity
  8
GAIKEI
  6
Continuous
 62
     1
100
AcDbLine
 10
-44.39063302415513
 20
8.294433170778802
 30
0.0
 11
-44.39063302415513
 21
8.98243317077879
 31
0.0
  0
LINE
  5
477
330
2
100
AcDbEntity
  8
GAIKEI
  6
Continuous
 62
     1
100
AcDbLine
 10
-45.18463302415511
 20
8.188433170778807
 30
0.0
 11
-44.49663302415513
 21
8.188433170778807
 31
0.0
  0
LINE
  5
478
330
2
100
AcDbEntity
  8
GAIKEI
  6
Continuous
 62
     1
100
AcDbLine
 10
-45.29063302415511
 20
8.98243317077879
 30
0.0
 11
-45.29063302415511
 21
8.294433170778802
 31
0.0
  0
ARC
  5
479
330
2
100
AcDbEntity
  8
GAIKEI
  6
Continuous
 62
     1
100
AcDbCircle
 10
-40.2966330241552
 20
8.98243317077879
 30
0.0
 40
0.106
100
AcDbArc
 50
0.0
 51
90.0
  0
ARC
  5
47A
330
2
100
AcDbEntity
  8
GAIKEI
  6
Continuous
 62
     1
100
AcDbCircle
 10
-40.2966330241552
 20
8.294433170778802
 30
0.0
 40
0.106
100
AcDbArc
 50
270.0
 51
0.0
  0
ARC
  5
47B
330
2
100
AcDbEntity
  8
GAIKEI
  6
Continuous
 62
     1
100
AcDbCircle
 10
-40.98463302415519
 20
8.294433170778802
 30
0.0
 40
0.106
100
AcDbArc
 50
180.0
 51
270.0
  0
ARC
  5
47C
330
2
100
AcDbEntity
  8
GAIKEI
  6
Continuous
 62
     1
100
AcDbCircle
 10
-40.98463302415519
 20
8.98243317077879
 30
0.0
 40
0.106
100
AcDbArc
 50
90.0
 51
180.0
  0
LINE
  5
47D
330
2
100
AcDbEntity
  8
GAIKEI
  6
Continuous
 62
     1
100
AcDbLine
 10
-40.2966330241552
 20
9.088433170778785
 30
0.0
 11
-40.98463302415519
 21
9.088433170778785
 31
0.0
  0
LINE
  5
47E
330
2
100
AcDbEntity
  8
GAIKEI
  6
Continuous
 62
     1
100
AcDbLine
 10
-40.19063302415509
 20
8.294433170778802
 30
0.0
 11
-40.19063302415509
 21
8.98243317077879
 31
0.0
  0
LINE
  5
47F
330
2
100
AcDbEntity
  8
GAIKEI
  6
Continuous
 62
     1
100
AcDbLine
 10
-40.98463302415519
 20
8.188433170778807
 30
0.0
 11
-40.2966330241552
 21
8.188433170778807
 31
0.0
  0
LINE
  5
480
330
2
100
AcDbEntity
  8
GAIKEI
  6
Continuous
 62
     1
100
AcDbLine
 10
-41.09063302415518
 20
8.98243317077879
 30
0.0
 11
-41.09063302415518
 21
8.294433170778802
 31
0.0
  0
TEXT
  5
481
330
2
100
AcDbEntity
  8
GAIKEI
  6
Continuous
 62
     1
100
AcDbText
 10
-46.02704126279514
 20
8.341073943678816
 30
0.0
 40
0.6000000000000001
  1
1  6
  7
SEACAD_SEANSI_TTF
 11
-46.02704126279514
 21
8.941073943678816
 31
0.0
100
AcDbText
 73
     3
  0
ARC
  5
482
330
2
100
AcDbEntity
  8
GAIKEI
  6
Continuous
 62
     1
100
AcDbCircle
 10
-23.85808075489513
 20
4.153240930318816
 30
0.0
 40
0.1
100
AcDbArc
 50
0.0
 51
90.0
  0
ARC
  5
483
330
2
100
AcDbEntity
  8
GAIKEI
  6
Continuous
 62
     1
100
AcDbCircle
 10
-23.85808075489513
 20
3.653240930318816
 30
0.0
 40
0.1
100
AcDbArc
 50
270.0
 51
0.0
  0
ARC
  5
484
330
2
100
AcDbEntity
  8
GAIKEI
  6
Continuous
 62
     1
100
AcDbCircle
 10
-26.05808075489517
 20
3.653240930318816
 30
0.0
 40
0.1
100
AcDbArc
 50
180.0
 51
270.0
  0
ARC
  5
485
330
2
100
AcDbEntity
  8
GAIKEI
  6
Continuous
 62
     1
100
AcDbCircle
 10
-26.05808075489517
 20
4.153240930318816
 30
0.0
 40
0.1
100
AcDbArc
 50
90.0
 51
180.0
  0
LINE
  5
486
330
2
100
AcDbEntity
  8
GAIKEI
  6
Continuous
 62
     1
100
AcDbLine
 10
-26.15808075489508
 20
3.653240930318816
 30
0.0
 11
-26.15808075489508
 21
4.153240930318816
 31
0.0
  0
LINE
  5
487
330
2
100
AcDbEntity
  8
GAIKEI
  6
Continuous
 62
     1
100
AcDbLine
 10
-23.85808075489513
 20
3.553240930318793
 30
0.0
 11
-26.05808075489517
 21
3.553240930318793
 31
0.0
  0
LINE
  5
488
330
2
100
AcDbEntity
  8
GAIKEI
  6
Continuous
 62
     1
100
AcDbLine
 10
-23.75808075489522
 20
4.153240930318816
 30
0.0
 11
-23.75808075489522
 21
3.653240930318816
 31
0.0
  0
LINE
  5
489
330
2
100
AcDbEntity
  8
GAIKEI
  6
Continuous
 62
     1
100
AcDbLine
 10
-26.05808075489517
 20
4.253240930318838
 30
0.0
 11
-23.85808075489513
 21
4.253240930318838
 31
0.0
  0
ARC
  5
48A
330
2
100
AcDbEntity
  8
GAIKEI
  6
Continuous
 62
     1
100
AcDbCircle
 10
-23.80632437653503
 20
10.75324093081883
 30
0.0
 40
0.1
100
AcDbArc
 50
0.0
 51
90.0
  0
ARC
  5
48B
330
2
100
AcDbEntity
  8
GAIKEI
  6
Continuous
 62
     1
100
AcDbCircle
 10
-23.80632437653503
 20
10.25324093081883
 30
0.0
 40
0.1
100
AcDbArc
 50
270.0
 51
0.0
  0
ARC
  5
48C
330
2
100
AcDbEntity
  8
GAIKEI
  6
Continuous
 62
     1
100
AcDbCircle
 10
-26.00632437653508
 20
10.25324093081883
 30
0.0
 40
0.1
100
AcDbArc
 50
180.0
 51
270.0
  0
ARC
  5
48D
330
2
100
AcDbEntity
  8
GAIKEI
  6
Continuous
 62
     1
100
AcDbCircle
 10
-26.00632437653508
 20
10.75324093081883
 30
0.0
 40
0.1
100
AcDbArc
 50
90.0
 51
180.0
  0
LINE
  5
48E
330
2
100
AcDbEntity
  8
GAIKEI
  6
Continuous
 62
     1
100
AcDbLine
 10
-26.10632437653521
 20
10.25324093081883
 30
0.0
 11
-26.10632437653521
 21
10.75324093081883
 31
0.0
  0
LINE
  5
48F
330
2
100
AcDbEntity
  8
GAIKEI
  6
Continuous
 62
     1
100
AcDbLine
 10
-23.80632437653503
 20
10.15324093081881
 30
0.0
 11
-26.00632437653508
 21
10.15324093081881
 31
0.0
  0
LINE
  5
490
330
2
100
AcDbEntity
  8
GAIKEI
  6
Continuous
 62
     1
100
AcDbLine
 10
-23.70632437653512
 20
10.75324093081883
 30
0.0
 11
-23.70632437653512
 21
10.25324093081883
 31
0.0
  0
LINE
  5
491
330
2
100
AcDbEntity
  8
GAIKEI
  6
Continuous
 62
     1
100
AcDbLine
 10
-26.00632437653508
 20
10.85324093081885
 30
0.0
 11
-23.80632437653503
 21
10.85324093081885
 31
0.0
  0
TEXT
  5
492
330
2
100
AcDbEntity
  8
GAIKEI
  6
Continuous
 62
     1
100
AcDbText
 10
-24.13356400193516
 20
21.93890003061881
 30
0.0
 40
0.5
  1
SHIFT
  7
SEACAD_SEANSI_TTF
 11
-24.13356400193516
 21
22.43890003061881
 31
0.0
100
AcDbText
 73
     3
  0
ARC
  5
493
330
2
100
AcDbEntity
  8
GAIKEI
  6
Continuous
 62
     1
100
AcDbCircle
 10
-22.02269343671515
 20
22.45203146541883
 30
0.0
 40
0.1
100
AcDbArc
 50
0.0
 51
90.0
  0
ARC
  5
494
330
2
100
AcDbEntity
  8
GAIKEI
  6
Continuous
 62
     1
100
AcDbCircle
 10
-22.02269343671515
 20
21.95203146541883
 30
0.0
 40
0.1
100
AcDbArc
 50
270.0
 51
0.0
  0
ARC
  5
495
330
2
100
AcDbEntity
  8
GAIKEI
  6
Continuous
 62
     1
100
AcDbCircle
 10
-24.22269343671519
 20
21.95203146541883
 30
0.0
 40
0.1
100
AcDbArc
 50
180.0
 51
270.0
  0
ARC
  5
496
330
2
100
AcDbEntity
  8
GAIKEI
  6
Continuous
 62
     1
100
AcDbCircle
 10
-24.22269343671519
 20
22.45203146541883
 30
0.0
 40
0.1
100
AcDbArc
 50
90.0
 51
180.0
  0
LINE
  5
497
330
2
100
AcDbEntity
  8
GAIKEI
  6
Continuous
 62
     1
100
AcDbLine
 10
-24.3226934367151
 20
21.95203146541883
 30
0.0
 11
-24.3226934367151
 21
22.45203146541883
 31
0.0
  0
LINE
  5
498
330
2
100
AcDbEntity
  8
GAIKEI
  6
Continuous
 62
     1
100
AcDbLine
 10
-22.02269343671515
 20
21.8520314654188
 30
0.0
 11
-24.22269343671519
 21
21.8520314654188
 31
0.0
  0
LINE
  5
499
330
2
100
AcDbEntity
  8
GAIKEI
  6
Continuous
 62
     1
100
AcDbLine
 10
-21.92269343671524
 20
22.45203146541883
 30
0.0
 11
-21.92269343671524
 21
21.95203146541883
 31
0.0
  0
LINE
  5
49A
330
2
100
AcDbEntity
  8
GAIKEI
  6
Continuous
 62
     1
100
AcDbLine
 10
-24.22269343671519
 20
22.55203146541885
 30
0.0
 11
-22.02269343671515
 21
22.55203146541885
 31
0.0
  0
ARC
  5
49B
330
2
100
AcDbEntity
  8
GAIKEI
  6
Continuous
 62
     1
100
AcDbCircle
 10
-27.32324632059522
 20
22.45201886971881
 30
0.0
 40
0.1
100
AcDbArc
 50
90.0
 51
180.0
  0
ARC
  5
49C
330
2
100
AcDbEntity
  8
GAIKEI
  6
Continuous
 62
     1
100
AcDbCircle
 10
-27.32324632059522
 20
21.95201886971881
 30
0.0
 40
0.1
100
AcDbArc
 50
180.0
 51
270.0
  0
ARC
  5
49D
330
2
100
AcDbEntity
  8
GAIKEI
  6
Continuous
 62
     1
100
AcDbCircle
 10
-26.82324632059522
 20
21.95201886971881
 30
0.0
 40
0.1
100
AcDbArc
 50
270.0
 51
0.0
  0
ARC
  5
49E
330
2
100
AcDbEntity
  8
GAIKEI
  6
Continuous
 62
     1
100
AcDbCircle
 10
-26.82324632059522
 20
22.45201886971881
 30
0.0
 40
0.1
100
AcDbArc
 50
0.0
 51
90.0
  0
LINE
  5
49F
330
2
100
AcDbEntity
  8
GAIKEI
  6
Continuous
 62
     1
100
AcDbLine
 10
-27.42324632059513
 20
21.95201886971881
 30
0.0
 11
-27.42324632059513
 21
22.45201886971881
 31
0.0
  0
LINE
  5
4A0
330
2
100
AcDbEntity
  8
GAIKEI
  6
Continuous
 62
     1
100
AcDbLine
 10
-26.82324632059522
 20
21.85201886971879
 30
0.0
 11
-27.32324632059522
 21
21.85201886971879
 31
0.0
  0
LINE
  5
4A1
330
2
100
AcDbEntity
  8
GAIKEI
  6
Continuous
 62
     1
100
AcDbLine
 10
-26.72324632059508
 20
22.45201886971881
 30
0.0
 11
-26.72324632059508
 21
21.95201886971881
 31
0.0
  0
LINE
  5
4A2
330
2
100
AcDbEntity
  8
GAIKEI
  6
Continuous
 62
     1
100
AcDbLine
 10
-27.32324632059522
 20
22.55201886971883
 30
0.0
 11
-26.82324632059522
 21
22.55201886971883
 31
0.0
  0
TEXT
  5
4A3
330
2
100
AcDbEntity
  8
GAIKEI
  6
Continuous
 62
     1
100
AcDbText
 10
-34.37486834975516
 20
21.93890003061881
 30
0.0
 40
0.5
  1
USER 1  3
  7
SEACAD_SEANSI_TTF
 11
-34.37486834975516
 21
22.43890003061881
 31
0.0
100
AcDbText
 73
     3
  0
ARC
  5
4A4
330
2
100
AcDbEntity
  8
GAIKEI
  6
Continuous
 62
     1
100
AcDbCircle
 10
-31.50267485331506
 20
22.45201886971881
 30
0.0
 40
0.1
100
AcDbArc
 50
90.0
 51
180.0
  0
ARC
  5
4A5
330
2
100
AcDbEntity
  8
GAIKEI
  6
Continuous
 62
     1
100
AcDbCircle
 10
-31.50267485331506
 20
21.95201886971881
 30
0.0
 40
0.1
100
AcDbArc
 50
180.0
 51
270.0
  0
ARC
  5
4A6
330
2
100
AcDbEntity
  8
GAIKEI
  6
Continuous
 62
     1
100
AcDbCircle
 10
-31.00267485331506
 20
21.95201886971881
 30
0.0
 40
0.1
100
AcDbArc
 50
270.0
 51
0.0
  0
ARC
  5
4A7
330
2
100
AcDbEntity
  8
GAIKEI
  6
Continuous
 62
     1
100
AcDbCircle
 10
-31.00267485331506
 20
22.45201886971881
 30
0.0
 40
0.1
100
AcDbArc
 50
0.0
 51
90.0
  0
LINE
  5
4A8
330
2
100
AcDbEntity
  8
GAIKEI
  6
Continuous
 62
     1
100
AcDbLine
 10
-31.6026748533152
 20
21.95201886971881
 30
0.0
 11
-31.6026748533152
 21
22.45201886971881
 31
0.0
  0
LINE
  5
4A9
330
2
100
AcDbEntity
  8
GAIKEI
  6
Continuous
 62
     1
100
AcDbLine
 10
-31.00267485331506
 20
21.85201886971879
 30
0.0
 11
-31.50267485331506
 21
21.85201886971879
 31
0.0
  0
LINE
  5
4AA
330
2
100
AcDbEntity
  8
GAIKEI
  6
Continuous
 62
     1
100
AcDbLine
 10
-30.90267485331515
 20
22.45201886971881
 30
0.0
 11
-30.90267485331515
 21
21.95201886971881
 31
0.0
  0
LINE
  5
4AB
330
2
100
AcDbEntity
  8
GAIKEI
  6
Continuous
 62
     1
100
AcDbLine
 10
-31.50267485331506
 20
22.55201886971883
 30
0.0
 11
-31.00267485331506
 21
22.55201886971883
 31
0.0
  0
TEXT
  5
4AC
330
2
100
AcDbEntity
  8
GAIKEI
  6
Continuous
 62
     1
100
AcDbText
 10
-44.19334661061509
 20
15.83890003061879
 30
0.0
 40
0.5
  1
BUS DELEGATION
  7
SEACAD_SEANSI_TTF
 11
-44.19334661061509
 21
16.33890003061878
 31
0.0
100
AcDbText
 73
     3
  0
LINE
  5
4AD
330
2
100
AcDbEntity
  8
GAIKEI
  6
Continuous
 62
     1
100
AcDbLine
 10
-44.39334661061514
 20
16.0780314654188
 30
0.0
 11
-46.79334661061512
 21
16.0780314654188
 31
0.0
  0
LINE
  5
4AE
330
2
100
AcDbEntity
  8
GAIKEI
  6
Continuous
 62
     1
100
AcDbLine
 10
-37.85204026279507
 20
16.0780314654188
 30
0.0
 11
-35.45204026279521
 21
16.0780314654188
 31
0.0
  0
TEXT
  5
4AF
330
2
100
AcDbEntity
  8
GAIKEI
  6
Continuous
 62
     1
100
AcDbText
 10
-33.37812921931504
 20
15.83890003061879
 30
0.0
 40
0.5
  1
TRANSITION TYPE
 41
0.9
  7
SEACAD_SEANSI_TTF
 11
-33.37812921931504
 21
16.33890003061878
 31
0.0
100
AcDbText
 73
     3
  0
LINE
  5
4B0
330
2
100
AcDbEntity
  8
GAIKEI
  6
Continuous
 62
     1
100
AcDbLine
 10
-33.47812921931518
 20
16.0780314654188
 30
0.0
 11
-34.17812921931523
 21
16.0780314654188
 31
0.0
  0
LINE
  5
4B1
330
2
100
AcDbEntity
  8
GAIKEI
  6
Continuous
 62
     1
100
AcDbLine
 10
-27.76725765409515
 20
16.0780314654188
 30
0.0
 11
-27.0672576540951
 21
16.0780314654188
 31
0.0
  0
TEXT
  5
4B2
330
2
100
AcDbEntity
  8
GAIKEI
  6
Continuous
 62
     1
100
AcDbText
 10
-25.93356300193523
 20
3.638900030618856
 30
0.0
 40
0.5
  1
SHIFT
  7
SEACAD_SEANSI_TTF
 11
-25.93356300193523
 21
4.138900030618856
 31
0.0
100
AcDbText
 73
     3
  0
TEXT
  5
4B3
330
2
100
AcDbEntity
  8
GAIKEI
  6
Continuous
 62
     1
100
AcDbText
 10
-25.15638908887513
 20
5.538900030618833
 30
0.0
 40
0.5
  1
B
  7
SEACAD_SEANSI_TTF
 11
-25.15638908887513
 21
6.038900030618833
 31
0.0
100
AcDbText
 73
     3
  0
TEXT
  5
4B4
330
2
100
AcDbEntity
  8
GAIKEI
  6
Continuous
 62
     1
100
AcDbText
 10
-25.93356300193523
 20
10.23890003061876
 30
0.0
 40
0.5
  1
SHIFT
  7
SEACAD_SEANSI_TTF
 11
-25.93356300193523
 21
10.73890003061876
 31
0.0
100
AcDbText
 73
     3
  0
TEXT
  5
4B5
330
2
100
AcDbEntity
  8
GAIKEI
  6
Continuous
 62
     1
100
AcDbText
 10
-25.15638908887513
 20
12.13890003061885
 30
0.0
 40
0.5
  1
A
  7
SEACAD_SEANSI_TTF
 11
-25.15638908887513
 21
12.63890003061886
 31
0.0
100
AcDbText
 73
     3
  0
CIRCLE
  5
4B6
330
2
100
AcDbEntity
  8
GAIKEI
  6
Continuous
 62
     1
100
AcDbCircle
 10
-24.92269043671513
 20
4.728136932738834
 30
0.0
 40
0.3
  0
CIRCLE
  5
4B7
330
2
100
AcDbEntity
  8
GAIKEI
  6
Continuous
 62
     1
100
AcDbCircle
 10
-24.92269043671513
 20
6.528136932738789
 30
0.0
 40
0.3
  0
CIRCLE
  5
4B8
330
2
100
AcDbEntity
  8
GAIKEI
  6
Continuous
 62
     1
100
AcDbCircle
 10
-24.92269043671513
 20
11.32813693273885
 30
0.0
 40
0.3
  0
CIRCLE
  5
4B9
330
2
100
AcDbEntity
  8
GAIKEI
  6
Continuous
 62
     1
100
AcDbCircle
 10
-24.92269043671513
 20
13.12813693273881
 30
0.0
 40
0.3
  0
TEXT
  5
4BA
330
2
100
AcDbEntity
  8
GAIKEI
  6
Continuous
 62
     1
100
AcDbText
 10
-49.35747604539518
 20
12.53672611757881
 30
0.0
 40
0.4
  1
KEY-S
  7
SEACAD_SEANSI_TTF
 11
-49.35747604539518
 21
12.93672611757881
 31
0.0
100
AcDbText
 73
     3
  0
TEXT
  5
4BB
330
2
100
AcDbEntity
  8
GAIKEI
  6
Continuous
 62
     1
100
AcDbText
 10
-49.08791082801508
 20
4.336726117578768
 30
0.0
 40
0.4
  1
AUX
  7
SEACAD_SEANSI_TTF
 11
-49.08791082801508
 21
4.736726117578768
 31
0.0
100
AcDbText
 73
     3
  0
TEXT
  5
4BC
330
2
100
AcDbEntity
  8
GAIKEI
  6
Continuous
 62
     1
100
AcDbText
 10
-49.34008474105519
 20
5.936726117578791
 30
0.0
 40
0.4
  1
KEY-F
  7
SEACAD_SEANSI_TTF
 11
-49.34008474105519
 21
6.336726117578791
 31
0.0
100
AcDbText
 73
     3
  0
TEXT
  5
4BD
330
2
100
AcDbEntity
  8
GAIKEI
  6
Continuous
 62
     1
100
AcDbText
 10
-49.11399778453517
 20
5.136726117578836
 30
0.0
 40
0.4
  1
PinP
  7
SEACAD_SEANSI_TTF
 11
-49.11399778453517
 21
5.536726117578837
 31
0.0
100
AcDbText
 73
     3
  0
TEXT
  5
4BE
330
2
100
AcDbEntity
  8
GAIKEI
  6
Continuous
 62
     1
100
AcDbText
 10
-15.69551952365509
 20
2.538900030618833
 30
0.0
 40
0.5
  1
AUTO
  7
SEACAD_SEANSI_TTF
 11
-15.69551952365509
 21
3.038900030618833
 31
0.0
100
AcDbText
 73
     3
  0
TEXT
  5
4BF
330
2
100
AcDbEntity
  8
GAIKEI
  6
Continuous
 62
     1
100
AcDbText
 10
-15.44008474105521
 20
9.138900030618856
 30
0.0
 40
0.5
  1
CUT
  7
SEACAD_SEANSI_TTF
 11
-15.44008474105521
 21
9.638900030618856
 31
0.0
100
AcDbText
 73
     3
  0
TEXT
  5
4C0
330
2
100
AcDbEntity
  8
GAIKEI
  6
Continuous
 62
     1
100
AcDbText
 10
-38.14878039323503
 20
9.336726117578768
 30
0.0
 40
0.4
  1
KEY OUT
  7
SEACAD_SEANSI_TTF
 11
-38.14878039323503
 21
9.736726117578768
 31
0.0
100
AcDbText
 73
     3
  0
TEXT
  5
4C1
330
2
100
AcDbEntity
  8
GAIKEI
  6
Continuous
 62
     1
100
AcDbText
 10
-41.77486734975514
 20
9.336726117578768
 30
0.0
 40
0.4
  1
PVW
  7
SEACAD_SEANSI_TTF
 11
-41.77486734975514
 21
9.736726117578768
 31
0.0
100
AcDbText
 73
     3
  0
TEXT
  5
4C2
330
2
100
AcDbEntity
  8
GAIKEI
  6
Continuous
 62
     1
100
AcDbText
 10
-33.27921517583514
 20
9.336726117578768
 30
0.0
 40
0.4
  1
CLN
  7
SEACAD_SEANSI_TTF
 11
-33.27921517583514
 21
9.736726117578768
 31
0.0
100
AcDbText
 73
     3
  0
TEXT
  5
4C3
330
2
100
AcDbEntity
  8
GAIKEI
  6
Continuous
 62
     1
100
AcDbText
 10
-28.94008474105522
 20
9.336726117578768
 30
0.0
 40
0.4
  1
MV
  7
SEACAD_SEANSI_TTF
 11
-28.94008474105522
 21
9.736726117578768
 31
0.0
100
AcDbText
 73
     3
  0
TEXT
  5
4C4
330
2
100
AcDbEntity
  8
GAIKEI
  6
Continuous
 62
     1
100
AcDbText
 10
-29.4618238714952
 20
8.341073943678816
 30
0.0
 40
0.6000000000000001
  1
5  10
  7
SEACAD_SEANSI_TTF
 11
-29.4618238714952
 21
8.941073943678816
 31
0.0
100
AcDbText
 73
     3
  0
TEXT
  5
4C5
330
2
100
AcDbEntity
  8
GAIKEI
  6
Continuous
 62
     1
100
AcDbText
 10
-33.42704126279523
 20
8.341073943678816
 30
0.0
 40
0.6000000000000001
  1
4  9
  7
SEACAD_SEANSI_TTF
 11
-33.42704126279523
 21
8.941073943678816
 31
0.0
100
AcDbText
 73
     3
  0
TEXT
  5
4C6
330
2
100
AcDbEntity
  8
GAIKEI
  6
Continuous
 62
     1
100
AcDbText
 10
-37.62704126279505
 20
8.341073943678816
 30
0.0
 40
0.6000000000000001
  1
3  8
  7
SEACAD_SEANSI_TTF
 11
-37.62704126279505
 21
8.941073943678816
 31
0.0
100
AcDbText
 73
     3
  0
TEXT
  5
4C7
330
2
100
AcDbEntity
  8
GAIKEI
  6
Continuous
 62
     1
100
AcDbText
 10
-41.82704126279509
 20
8.341073943678816
 30
0.0
 40
0.6000000000000001
  1
2  7
  7
SEACAD_SEANSI_TTF
 11
-41.82704126279509
 21
8.941073943678816
 31
0.0
100
AcDbText
 73
     3
  0
TEXT
  5
4C8
330
2
100
AcDbEntity
  8
GAIKEI
  6
Continuous
 62
     1
100
AcDbText
 10
-16.00530213235515
 20
16.53890003061883
 30
0.0
 40
0.5
  1
FTB ON
  7
SEACAD_SEANSI_TTF
 11
-16.00530213235515
 21
17.03890003061883
 31
0.0
100
AcDbText
 73
     3
  0
TEXT
  5
4C9
330
2
100
AcDbEntity
  8
GAIKEI
  6
Continuous
 62
     1
100
AcDbText
 10
-20.23791082801517
 20
16.53890003061883
 30
0.0
 40
0.5
  1
KEY ON
  7
SEACAD_SEANSI_TTF
 11
-20.23791082801517
 21
17.03890003061883
 31
0.0
100
AcDbText
 73
     3
  0
TEXT
  5
4CA
330
2
100
AcDbEntity
  8
GAIKEI
  6
Continuous
 62
     1
100
AcDbText
 10
-24.48138908887518
 20
16.53890003061883
 30
0.0
 40
0.5
  1
PinP ON
  7
SEACAD_SEANSI_TTF
 11
-24.48138908887518
 21
17.03890003061883
 31
0.0
100
AcDbText
 73
     3
  0
TEXT
  5
4CB
330
2
100
AcDbEntity
  8
GAIKEI
  6
Continuous
 62
     1
100
AcDbText
 10
-29.43573691497523
 20
16.53890003061883
 30
0.0
 40
0.5
  1
WIPE
  7
SEACAD_SEANSI_TTF
 11
-29.43573691497523
 21
17.03890003061883
 31
0.0
100
AcDbText
 73
     3
  0
TEXT
  5
4CC
330
2
100
AcDbEntity
  8
GAIKEI
  6
Continuous
 62
     1
100
AcDbText
 10
-33.33138908887509
 20
16.53890003061883
 30
0.0
 40
0.5
  1
MIX
  7
SEACAD_SEANSI_TTF
 11
-33.33138908887509
 21
17.03890003061883
 31
0.0
100
AcDbText
 73
     3
  0
TEXT
  5
4CD
330
2
100
AcDbEntity
  8
GAIKEI
  6
Continuous
 62
     1
100
AcDbText
 10
-38.27595430627525
 20
16.53890003061883
 30
0.0
 40
0.5
  1
KEY-F/S
  7
SEACAD_SEANSI_TTF
 11
-38.27595430627525
 21
17.03890003061883
 31
0.0
100
AcDbText
 73
     3
  0
TEXT
  5
4CE
330
2
100
AcDbEntity
  8
GAIKEI
  6
Continuous
 62
     1
100
AcDbText
 10
-41.86182387149517
 20
16.53890003061883
 30
0.0
 40
0.5
  1
PinP
  7
SEACAD_SEANSI_TTF
 11
-41.86182387149517
 21
17.03890003061883
 31
0.0
100
AcDbText
 73
     3
  0
TEXT
  5
4CF
330
2
100
AcDbEntity
  8
GAIKEI
  6
Continuous
 62
     1
100
AcDbText
 10
-46.02921517583513
 20
16.53890003061883
 30
0.0
 40
0.5
  1
AUX
  7
SEACAD_SEANSI_TTF
 11
-46.02921517583513
 21
17.03890003061883
 31
0.0
100
AcDbText
 73
     3
  0
TEXT
  5
4D0
330
2
100
AcDbEntity
  8
GAIKEI
  6
Continuous
 62
     1
100
AcDbText
 10
-30.17486734975523
 20
21.93890003061881
 30
0.0
 40
0.5
  1
USER 2  4
  7
SEACAD_SEANSI_TTF
 11
-30.17486734975523
 21
22.43890003061881
 31
0.0
100
AcDbText
 73
     3
  0
TEXT
  5
4D1
330
2
100
AcDbEntity
  8
GAIKEI
  6
Continuous
 62
     1
100
AcDbText
 10
-37.6998673497551
 20
21.93890003061881
 30
0.0
 40
0.5
  1
LINK
  7
SEACAD_SEANSI_TTF
 11
-37.6998673497551
 21
22.43890003061881
 31
0.0
100
AcDbText
 73
     3
  0
TEXT
  5
4D2
330
2
100
AcDbEntity
  8
GAIKEI
  6
Continuous
 62
     1
100
AcDbText
 10
-16.09769343671519
 20
21.93890003061881
 30
0.0
 40
0.5
  1
OSD ON
  7
SEACAD_SEANSI_TTF
 11
-16.09769343671519
 21
22.43890003061881
 31
0.0
100
AcDbText
 73
     3
  0
TEXT
  5
4D3
330
2
100
AcDbEntity
  8
GAIKEI
  6
Continuous
 62
     1
100
AcDbText
 10
-20.61291082801517
 20
21.93890003061881
 30
0.0
 40
0.5
  1
OSD/TIME
  7
SEACAD_SEANSI_TTF
 11
-20.61291082801517
 21
22.43890003061881
 31
0.0
100
AcDbText
 73
     3
  0
TEXT
  5
4D4
330
2
100
AcDbEntity
  8
GAIKEI
  6
Continuous
 62
     1
100
AcDbText
 10
-42.32378039323509
 20
21.93890003061881
 30
0.0
 40
0.5
  1
ALARM
  7
SEACAD_SEANSI_TTF
 11
-42.32378039323509
 21
22.43890003061881
 31
0.0
100
AcDbText
 73
     3
  0
TEXT
  5
4D5
330
2
100
AcDbEntity
  8
GAIKEI
  6
Continuous
 62
     1
100
AcDbText
 10
-46.65964995845513
 20
21.93890003061881
 30
0.0
 40
0.5
  1
POWER
  7
SEACAD_SEANSI_TTF
 11
-46.65964995845513
 21
22.43890003061881
 31
0.0
100
AcDbText
 73
     3
  0
ENDSEC
  0
SECTION
  2
OBJECTS
  0
DICTIONARY
  5
7
330
0
100
AcDbDictionary
281
     1
  3
ACAD_COLOR
350
2D
  3
ACAD_GROUP
350
29
  3
ACAD_LAYOUT
350
B
  3
ACAD_MATERIAL
350
2C
  3
ACAD_MLINESTYLE
350
2A
  3
ACAD_PLOTSETTINGS
350
2B
  3
ACAD_PLOTSTYLENAME
350
6
  3
ACDBHEADERROUNDTRIPXREC
350
507
  3
AcDbVariableDictionary
350
502
  0
DICTIONARY
  5
11
330
10
100
AcDbDictionary
280
     1
281
     1
  3
ACAD_LAYERFILTERS
360
12
  3
ACAD_LAYERSTATES
360
13
  0
DICTIONARY
  5
2D
102
{ACAD_REACTORS
330
7
102
}
330
7
100
AcDbDictionary
281
     1
  0
DICTIONARY
  5
29
102
{ACAD_REACTORS
330
7
102
}
330
7
100
AcDbDictionary
281
     1
  0
DICTIONARY
  5
B
102
{ACAD_REACTORS
330
7
102
}
330
7
100
AcDbDictionary
281
     1
  3
Model
350
A
  3
レイアウト1
350
F
  0
DICTIONARY
  5
2C
102
{ACAD_REACTORS
330
7
102
}
330
7
100
AcDbDictionary
281
     1
  0
DICTIONARY
  5
2A
102
{ACAD_REACTORS
330
7
102
}
330
7
100
AcDbDictionary
281
     1
  3
Standard
350
2F
  0
DICTIONARY
  5
2B
102
{ACAD_REACTORS
330
7
102
}
330
7
100
AcDbDictionary
281
     1
  0
ACDBDICTIONARYWDFLT
  5
6
102
{ACAD_REACTORS
330
7
102
}
330
7
100
AcDbDictionary
281
     1
  3
Normal
350
5
100
AcDbDictionaryWithDefault
340
5
  0
DICTIONARY
  5
507
102
{ACAD_REACTORS
330
7
102
}
330
7
100
AcDbDictionary
281
     1
  3
COLORDICT
350
509
  3
MATERIALDICT
350
508
  0
DICTIONARY
  5
502
102
{ACAD_REACTORS
330
7
102
}
330
7
100
AcDbDictionary
281
     1
  3
DIMASSOC
350
504
  3
HIDETEXT
350
503
  3
PROJECTNAME
350
505
  0
DICTIONARY
  5
12
102
{ACAD_REACTORS
330
11
102
}
330
11
100
AcDbDictionary
281
     1
  0
DICTIONARY
  5
13
102
{ACAD_REACTORS
330
11
102
}
330
11
100
AcDbDictionary
281
     1
  0
LAYOUT
  5
A
102
{ACAD_XDICTIONARY
360
50A
102
}
102
{ACAD_REACTORS
330
B
102
}
330
B
100
AcDbPlotSettings
  1

  2
10F06M_RICOH_SP-8100
  4
A4
  6

 40
5.873749732971191
 41
5.873747825622558
 42
5.873748779296875
 43
5.873748779296875
 44
209.9733276367187
 45
296.9259948730469
 46
5.419999999999999
 47
0.0
 48
0.0
 49
0.0
140
0.0
141
0.0
142
1.0
143
1.382430990074067
 70
 11956
 72
     1
 73
     0
 74
     1
  7
tmsacad.ctb
 75
     0
147
0.7233634135664325
148
0.0128164608993302
149
0.0120295854767392
100
AcDbLayout
  1
Model
 70
     1
 71
     0
 10
0.0
 20
0.0
 11
12.0
 21
9.0
 12
0.0
 22
0.0
 32
0.0
 14
0.0
 24
0.0
 34
0.0
 15
0.0
 25
0.0
 35
0.0
146
0.0
 13
0.0
 23
0.0
 33
0.0
 16
1.0
 26
0.0
 36
0.0
 17
0.0
 27
1.0
 37
0.0
 76
     0
330
2
  0
LAYOUT
  5
F
102
{ACAD_XDICTIONARY
360
50C
102
}
102
{ACAD_REACTORS
330
B
102
}
330
B
100
AcDbPlotSettings
  1

  2
None
  4

  6

 40
0.0
 41
0.0
 42
0.0
 43
0.0
 44
0.0
 45
0.0
 46
0.0
 47
0.0
 48
0.0
 49
0.0
140
0.0
141
0.0
142
1.0
143
1.0
 70
   688
 72
     0
 73
     0
 74
     5
  7
tmsacad.ctb
 75
    16
147
1.0
148
0.0
149
0.0
100
AcDbLayout
  1
レイアウト1
 70
     1
 71
     1
 10
0.0
 20
0.0
 11
12.0
 21
9.0
 12
0.0
 22
0.0
 32
0.0
 14
0.0
 24
0.0
 34
0.0
 15
0.0
 25
0.0
 35
0.0
146
0.0
 13
0.0
 23
0.0
 33
0.0
 16
1.0
 26
0.0
 36
0.0
 17
0.0
 27
1.0
 37
0.0
 76
     0
330
C
  0
MLINESTYLE
  5
2F
102
{ACAD_REACTORS
330
2A
102
}
330
2A
100
AcDbMlineStyle
  2
STANDARD
 70
     0
  3

 62
   256
 51
90.0
 52
90.0
 71
     2
 49
0.5
 62
   256
  6
BYLAYER
 49
-0.5
 62
   256
  6
BYLAYER
  0
ACDBPLACEHOLDER
  5
5
102
{ACAD_REACTORS
330
6
102
}
330
6
  0
XRECORD
  5
509
102
{ACAD_REACTORS
330
507
102
}
330
507
100
AcDbXrecord
280
     1
340
2D
  0
XRECORD
  5
508
102
{ACAD_REACTORS
330
507
102
}
330
507
100
AcDbXrecord
280
     1
340
2C
  0
DICTIONARYVAR
  5
504
102
{ACAD_REACTORS
330
502
102
}
330
502
100
DictionaryVariables
280
     0
  1
1
  0
DICTIONARYVAR
  5
503
102
{ACAD_REACTORS
330
502
102
}
330
502
100
DictionaryVariables
280
     0
  1
1
  0
DICTIONARYVAR
  5
505
102
{ACAD_REACTORS
330
502
102
}
330
502
100
DictionaryVariables
280
     0
  1

  0
DICTIONARY
  5
50A
330
A
100
AcDbDictionary
280
     1
281
     1
  3
ACAD_XREC_ROUNDTRIP
360
50B
  0
DICTIONARY
  5
50C
330
F
100
AcDbDictionary
280
     1
281
     1
  3
ACAD_XREC_ROUNDTRIP
360
50D
  0
XRECORD
  5
50B
102
{ACAD_REACTORS
330
50A
102
}
330
50A
100
AcDbXrecord
280
     1
102
SHADEPLOT
 70
     0
102
SHADEPLOTRESLEVEL
 70
     2
102
SHADEPLOTCUSTOMDPI
 70
   300
  0
XRECORD
  5
50D
102
{ACAD_REACTORS
330
50C
102
}
330
50C
100
AcDbXrecord
280
     1
102
SHADEPLOT
 70
     0
102
SHADEPLOTRESLEVEL
 70
     2
102
SHADEPLOTCUSTOMDPI
 70
   300
  0
ENDSEC
  0
EOF
