  0
SECTION
  2
HEADER
  9
$ACADVER
  1
AC1015
  9
$ACADMAINTVER
 70
    20
  9
$DWGCODEPAGE
  3
ANSI_932
  9
$INSBASE
 10
129.0
 20
120.4992141396419
 30
0.0
  9
$EXTMIN
 10
-58.30365335045645
 20
-55.01133936459154
 30
-0.0015258207003583
  9
$EXTMAX
 10
66.7768556195083
 20
58.11974255103359
 30
0.0000000349246037
  9
$LIMMIN
 10
-1101.784450318844
 20
-1579.160531687244
  9
$LIMMAX
 10
-508.2420711400536
 20
-1161.440814074914
  9
$ORTHOMODE
 70
     1
  9
$REGENMODE
 70
     1
  9
$FILLMODE
 70
     1
  9
$QTEXTMODE
 70
     0
  9
$MIRRTEXT
 70
     1
  9
$LTSCALE
 40
1.0
  9
$ATTMODE
 70
     1
  9
$TEXTSIZE
 40
3.0
  9
$TRACEWID
 40
0.5
  9
$TEXTSTYLE
  7
STANDARD
  9
$CLAYER
  8
GAIKEI
  9
$CELTYPE
  6
BYLAYER
  9
$CECOLOR
 62
   256
  9
$CELTSCALE
 40
1.0
  9
$DISPSILH
 70
     0
  9
$DIMSCALE
 40
1.0
  9
$DIMASZ
 40
2.0
  9
$DIMEXO
 40
2.0
  9
$DIMDLI
 40
8.0
  9
$DIMRND
 40
0.0
  9
$DIMDLE
 40
0.0
  9
$DIMEXE
 40
2.0
  9
$DIMTP
 40
0.0
  9
$DIMTM
 40
0.0
  9
$DIMTXT
 40
2.5
  9
$DIMCEN
 40
0.0
  9
$DIMTSZ
 40
0.0
  9
$DIMTOL
 70
     0
  9
$DIMLIM
 70
     0
  9
$DIMTIH
 70
     0
  9
$DIMTOH
 70
     0
  9
$DIMSE1
 70
     0
  9
$DIMSE2
 70
     0
  9
$DIMTAD
 70
     3
  9
$DIMZIN
 70
     0
  9
$DIMBLK
  1

  9
$DIMASO
 70
     1
  9
$DIMSHO
 70
     1
  9
$DIMPOST
  1

  9
$DIMAPOST
  1

  9
$DIMALT
 70
     0
  9
$DIMALTD
 70
     2
  9
$DIMALTF
 40
25.4
  9
$DIMLFAC
 40
1.0
  9
$DIMTOFL
 70
     1
  9
$DIMTVP
 40
0.0
  9
$DIMTIX
 70
     0
  9
$DIMSOXD
 70
     0
  9
$DIMSAH
 70
     1
  9
$DIMBLK1
  1
OPEN30
  9
$DIMBLK2
  1
OPEN30
  9
$DIMSTYLE
  2
STANDARD
  9
$DIMCLRD
 70
     0
  9
$DIMCLRE
 70
     0
  9
$DIMCLRT
 70
     0
  9
$DIMTFAC
 40
1.0
  9
$DIMGAP
 40
0.5
  9
$DIMJUST
 70
     0
  9
$DIMSD1
 70
     0
  9
$DIMSD2
 70
     0
  9
$DIMTOLJ
 70
     1
  9
$DIMTZIN
 70
     0
  9
$DIMALTZ
 70
     0
  9
$DIMALTTZ
 70
     0
  9
$DIMUPT
 70
     0
  9
$DIMDEC
 70
     4
  9
$DIMTDEC
 70
     4
  9
$DIMALTU
 70
     2
  9
$DIMALTTD
 70
     2
  9
$DIMTXSTY
  7
STANDARD
  9
$DIMAUNIT
 70
     0
  9
$DIMADEC
 70
     0
  9
$DIMALTRND
 40
0.0
  9
$DIMAZIN
 70
     0
  9
$DIMDSEP
 70
    46
  9
$DIMATFIT
 70
     3
  9
$DIMFRAC
 70
     0
  9
$DIMLDRBLK
  1
OPEN30
  9
$DIMLUNIT
 70
     2
  9
$DIMLWD
 70
    -2
  9
$DIMLWE
 70
    -2
  9
$DIMTMOVE
 70
     0
  9
$LUNITS
 70
     2
  9
$LUPREC
 70
     4
  9
$SKETCHINC
 40
0.1
  9
$FILLETRAD
 40
0.0
  9
$AUNITS
 70
     0
  9
$AUPREC
 70
     0
  9
$MENU
  1
ACAD
  9
$ELEVATION
 40
0.0
  9
$PELEVATION
 40
0.0
  9
$THICKNESS
 40
0.0
  9
$LIMCHECK
 70
     0
  9
$CHAMFERA
 40
0.0
  9
$CHAMFERB
 40
0.0
  9
$CHAMFERC
 40
0.0
  9
$CHAMFERD
 40
0.0
  9
$SKPOLY
 70
     0
  9
$TDCREATE
 40
2451815.565532581
  9
$TDUCREATE
 40
2451815.190532581
  9
$TDUPDATE
 40
2454211.694900174
  9
$TDUUPDATE
 40
2454211.319900174
  9
$TDINDWG
 40
1.1358940162
  9
$TDUSRTIMER
 40
1.1358940162
  9
$USRTIMER
 70
     1
  9
$ANGBASE
 50
0.0
  9
$ANGDIR
 70
     0
  9
$PDMODE
 70
     0
  9
$PDSIZE
 40
0.0
  9
$PLINEWID
 40
0.0
  9
$SPLFRAME
 70
     0
  9
$SPLINETYPE
 70
     6
  9
$SPLINESEGS
 70
     8
  9
$HANDSEED
  5
1D6
  9
$SURFTAB1
 70
     6
  9
$SURFTAB2
 70
     6
  9
$SURFTYPE
 70
     6
  9
$SURFU
 70
     6
  9
$SURFV
 70
     6
  9
$UCSBASE
  2

  9
$UCSNAME
  2

  9
$UCSORG
 10
0.0
 20
0.0
 30
0.0
  9
$UCSXDIR
 10
1.0
 20
0.0
 30
0.0
  9
$UCSYDIR
 10
0.0
 20
1.0
 30
0.0
  9
$UCSORTHOREF
  2

  9
$UCSORTHOVIEW
 70
     0
  9
$UCSORGTOP
 10
0.0
 20
0.0
 30
0.0
  9
$UCSORGBOTTOM
 10
0.0
 20
0.0
 30
0.0
  9
$UCSORGLEFT
 10
0.0
 20
0.0
 30
0.0
  9
$UCSORGRIGHT
 10
0.0
 20
0.0
 30
0.0
  9
$UCSORGFRONT
 10
0.0
 20
0.0
 30
0.0
  9
$UCSORGBACK
 10
0.0
 20
0.0
 30
0.0
  9
$PUCSBASE
  2

  9
$PUCSNAME
  2

  9
$PUCSORG
 10
0.0
 20
0.0
 30
0.0
  9
$PUCSXDIR
 10
1.0
 20
0.0
 30
0.0
  9
$PUCSYDIR
 10
0.0
 20
1.0
 30
0.0
  9
$PUCSORTHOREF
  2

  9
$PUCSORTHOVIEW
 70
     0
  9
$PUCSORGTOP
 10
0.0
 20
0.0
 30
0.0
  9
$PUCSORGBOTTOM
 10
0.0
 20
0.0
 30
0.0
  9
$PUCSORGLEFT
 10
0.0
 20
0.0
 30
0.0
  9
$PUCSORGRIGHT
 10
0.0
 20
0.0
 30
0.0
  9
$PUCSORGFRONT
 10
0.0
 20
0.0
 30
0.0
  9
$PUCSORGBACK
 10
0.0
 20
0.0
 30
0.0
  9
$USERI1
 70
     0
  9
$USERI2
 70
     0
  9
$USERI3
 70
     0
  9
$USERI4
 70
     0
  9
$USERI5
 70
     0
  9
$USERR1
 40
0.0
  9
$USERR2
 40
0.0
  9
$USERR3
 40
0.0
  9
$USERR4
 40
0.0
  9
$USERR5
 40
0.0
  9
$WORLDVIEW
 70
     1
  9
$SHADEDGE
 70
     3
  9
$SHADEDIF
 70
    70
  9
$TILEMODE
 70
     1
  9
$MAXACTVP
 70
    48
  9
$PINSBASE
 10
0.0
 20
0.0
 30
0.0
  9
$PLIMCHECK
 70
     0
  9
$PEXTMIN
 10
1.000000000000000E+20
 20
1.000000000000000E+20
 30
1.000000000000000E+20
  9
$PEXTMAX
 10
-1.000000000000000E+20
 20
-1.000000000000000E+20
 30
-1.000000000000000E+20
  9
$PLIMMIN
 10
0.0
 20
0.0
  9
$PLIMMAX
 10
12.0
 20
9.0
  9
$UNITMODE
 70
     0
  9
$VISRETAIN
 70
     1
  9
$PLINEGEN
 70
     0
  9
$PSLTSCALE
 70
     1
  9
$TREEDEPTH
 70
  3020
  9
$CMLSTYLE
  2
STANDARD
  9
$CMLJUST
 70
     0
  9
$CMLSCALE
 40
1.0
  9
$PROXYGRAPHICS
 70
     1
  9
$MEASUREMENT
 70
     0
  9
$CELWEIGHT
370
    -1
  9
$ENDCAPS
280
     0
  9
$JOINSTYLE
280
     0
  9
$LWDISPLAY
290
     0
  9
$INSUNITS
 70
     0
  9
$HYPERLINKBASE
  1

  9
$STYLESHEET
  1

  9
$XEDIT
290
     1
  9
$CEPSNTYPE
380
     0
  9
$PSTYLEMODE
290
     1
  9
$FINGERPRINTGUID
  2
{1754B7AB-9B3C-11D4-AD9E-00104B1004F2}
  9
$VERSIONGUID
  2
{54456B8B-60E1-4824-91D2-33BD0EBEDFE4}
  9
$EXTNAMES
290
     1
  9
$PSVPSCALE
 40
0.0
  9
$OLESTARTUP
290
     0
  0
ENDSEC
  0
SECTION
  2
CLASSES
  0
CLASS
  1
ACDBDICTIONARYWDFLT
  2
AcDbDictionaryWithDefault
  3
ObjectDBX Classes
 90
        0
280
     0
281
     0
  0
CLASS
  1
ACDBPLACEHOLDER
  2
AcDbPlaceHolder
  3
ObjectDBX Classes
 90
        0
280
     0
281
     0
  0
CLASS
  1
LAYOUT
  2
AcDbLayout
  3
ObjectDBX Classes
 90
        0
280
     0
281
     0
  0
CLASS
  1
DICTIONARYVAR
  2
AcDbDictionaryVar
  3
ObjectDBX Classes
 90
        0
280
     0
281
     0
  0
CLASS
  1
SORTENTSTABLE
  2
AcDbSortentsTable
  3
ObjectDBX Classes
 90
    32768
280
     0
281
     0
  0
CLASS
  1
DIMASSOC
  2
AcDbDimAssoc
  3
"AcDbDimAssoc|Product Desc:     AcDim ARX App For Dimension|Company:          Autodesk, Inc.|WEB Address:      www.autodesk.com"
 90
    32768
280
     0
281
     0
  0
ENDSEC
  0
SECTION
  2
TABLES
  0
TABLE
  2
VPORT
  5
20
330
0
100
AcDbSymbolTable
 70
     2
  0
VPORT
  5
1CE
330
20
100
AcDbSymbolTableRecord
100
AcDbViewportTableRecord
  2
*Active
 70
     0
 10
0.0
 20
0.0
 11
1.0
 21
1.0
 12
4.236601134525923
 22
1.554201593221023
 13
0.0
 23
0.0
 14
1.0
 24
1.0
 15
0.0
 25
0.0
 16
0.0
 26
0.0
 36
1.0
 17
0.0
 27
0.0
 37
0.0
 40
114.0013210072838
 41
1.410783055198973
 42
50.0
 43
0.0
 44
0.0
 50
0.0
 51
0.0
 71
     0
 72
 10000
 73
     1
 74
     0
 75
     0
 76
     1
 77
     0
 78
     0
281
     0
 65
     1
110
0.0
120
0.0
130
0.0
111
1.0
121
0.0
131
0.0
112
0.0
122
1.0
132
0.0
 79
     0
146
0.0
  0
ENDTAB
  0
TABLE
  2
LTYPE
  5
1B
330
0
100
AcDbSymbolTable
 70
     1
  0
LTYPE
  5
1C
330
1B
100
AcDbSymbolTableRecord
100
AcDbLinetypeTableRecord
  2
BYBLOCK
 70
     0
  3

 72
    65
 73
     0
 40
0.0
  0
LTYPE
  5
1D
330
1B
100
AcDbSymbolTableRecord
100
AcDbLinetypeTableRecord
  2
BYLAYER
 70
     0
  3

 72
    65
 73
     0
 40
0.0
  0
LTYPE
  5
A
330
1B
100
AcDbSymbolTableRecord
100
AcDbLinetypeTableRecord
  2
CONTINUOUS
 70
     0
  3
Solid line
 72
    65
 73
     0
 40
0.0
  0
ENDTAB
  0
TABLE
  2
LAYER
  5
14
102
{ACAD_XDICTIONARY
360
15
102
}
330
0
100
AcDbSymbolTable
 70
     7
  0
LAYER
  5
6
330
14
100
AcDbSymbolTableRecord
100
AcDbLayerTableRecord
  2
0
 70
     0
 62
     7
  6
CONTINUOUS
370
    -3
390
7
  0
LAYER
  5
167
330
14
100
AcDbSymbolTableRecord
100
AcDbLayerTableRecord
  2
DEFPOINTS
 70
     0
 62
     7
  6
CONTINUOUS
290
     0
370
    -3
390
7
  0
LAYER
  5
18C
330
14
100
AcDbSymbolTableRecord
100
AcDbLayerTableRecord
  2
WAKU
 70
     0
 62
     4
  6
CONTINUOUS
370
    -3
390
7
  0
LAYER
  5
35
330
14
100
AcDbSymbolTableRecord
100
AcDbLayerTableRecord
  2
MOJI1
 70
     0
 62
     2
  6
CONTINUOUS
370
    -3
390
7
  0
LAYER
  5
32
330
14
100
AcDbSymbolTableRecord
100
AcDbLayerTableRecord
  2
GAIKEI
 70
     0
 62
     7
  6
CONTINUOUS
370
    -3
390
7
  0
LAYER
  5
37
330
14
100
AcDbSymbolTableRecord
100
AcDbLayerTableRecord
  2
TOUROKU
 70
     0
 62
     1
  6
CONTINUOUS
370
    -3
390
7
  0
LAYER
  5
15D
330
14
100
AcDbSymbolTableRecord
100
AcDbLayerTableRecord
  2
SUNPO
 70
     0
 62
     3
  6
CONTINUOUS
370
    -3
390
7
  0
ENDTAB
  0
TABLE
  2
STYLE
  5
18
330
0
100
AcDbSymbolTable
 70
     2
  0
STYLE
  5
19
330
18
100
AcDbSymbolTableRecord
100
AcDbTextStyleTableRecord
  2
STANDARD
 70
     0
 40
0.0
 41
1.0
 50
0.0
 71
     0
 42
3.0
  3
MONOTXT.shx
  4
BIGFONT.shx
  0
STYLE
  5
39
330
18
100
AcDbSymbolTableRecord
100
AcDbTextStyleTableRecord
  2
SEACAD_seansi_ttf
 70
     0
 40
0.2
 41
1.0
 50
0.0
 71
     0
 42
0.2
  3
seansi.ttf
  4

  0
ENDTAB
  0
TABLE
  2
VIEW
  5
1E
330
0
100
AcDbSymbolTable
 70
     0
  0
ENDTAB
  0
TABLE
  2
UCS
  5
1F
330
0
100
AcDbSymbolTable
 70
     0
  0
ENDTAB
  0
TABLE
  2
APPID
  5
22
330
0
100
AcDbSymbolTable
 70
     1
  0
APPID
  5
23
330
22
100
AcDbSymbolTableRecord
100
AcDbRegAppTableRecord
  2
ACAD
 70
     0
  0
ENDTAB
  0
TABLE
  2
DIMSTYLE
  5
24
330
0
100
AcDbSymbolTable
 70
     1
100
AcDbDimStyleTable
 71
     1
340
25
  0
DIMSTYLE
105
25
102
{ACAD_REACTORS
330
17A
330
16B
330
15C
102
}
330
24
100
AcDbSymbolTableRecord
100
AcDbDimStyleTableRecord
  2
STANDARD
 70
     0
 40
0.0
 41
2.0
 42
2.0
 43
8.0
 44
2.0
 73
     0
 74
     0
 77
     3
140
3.0
141
0.0
173
     1
279
     2
288
     1
340
19
341
26
343
26
344
26
  0
ENDTAB
  0
TABLE
  2
BLOCK_RECORD
  5
1
330
0
100
AcDbSymbolTable
 70
     7
  0
BLOCK_RECORD
  5
2
102
{ACAD_XDICTIONARY
360
3
102
}
330
1
100
AcDbSymbolTableRecord
100
AcDbBlockTableRecord
  2
*MODEL_SPACE
340
C
  0
BLOCK_RECORD
  5
E
102
{ACAD_XDICTIONARY
360
F
102
}
330
1
100
AcDbSymbolTableRecord
100
AcDbBlockTableRecord
  2
*PAPER_SPACE
340
13
  0
BLOCK_RECORD
  5
26
330
1
100
AcDbSymbolTableRecord
100
AcDbBlockTableRecord
  2
_OPEN30
340
0
102
{BLKREFS
331
180
331
181
331
173
331
174
331
163
331
164
331
1A8
331
1A9
331
1B6
331
1B7
331
1C2
331
1C3
102
}
  0
BLOCK_RECORD
  5
17B
330
1
100
AcDbSymbolTableRecord
100
AcDbBlockTableRecord
  2
*D1
340
0
  0
BLOCK_RECORD
  5
16C
330
1
100
AcDbSymbolTableRecord
100
AcDbBlockTableRecord
  2
*D2
340
0
  0
BLOCK_RECORD
  5
15E
330
1
100
AcDbSymbolTableRecord
100
AcDbBlockTableRecord
  2
*D3
340
0
  0
BLOCK_RECORD
  5
1A4
330
1
100
AcDbSymbolTableRecord
100
AcDbBlockTableRecord
  2
*D4
340
0
  0
BLOCK_RECORD
  5
1B0
330
1
100
AcDbSymbolTableRecord
100
AcDbBlockTableRecord
  2
*D5
340
0
  0
BLOCK_RECORD
  5
1BE
330
1
100
AcDbSymbolTableRecord
100
AcDbBlockTableRecord
  2
*D6
340
0
  0
ENDTAB
  0
ENDSEC
  0
SECTION
  2
BLOCKS
  0
BLOCK
  5
5
330
2
100
AcDbEntity
  8
0
100
AcDbBlockBegin
  2
*MODEL_SPACE
 70
     0
 10
0.0
 20
0.0
 30
0.0
  3
*MODEL_SPACE
  1

  0
ENDBLK
  5
B
330
2
100
AcDbEntity
  8
0
100
AcDbBlockEnd
  0
BLOCK
  5
11
330
E
100
AcDbEntity
 67
     1
  8
0
100
AcDbBlockBegin
  2
*PAPER_SPACE
 70
     0
 10
0.0
 20
0.0
 30
0.0
  3
*PAPER_SPACE
  1

  0
ENDBLK
  5
12
330
E
100
AcDbEntity
 67
     1
  8
0
100
AcDbBlockEnd
  0
BLOCK
  5
27
330
26
100
AcDbEntity
  8
0
100
AcDbBlockBegin
  2
_OPEN30
 70
     0
 10
0.0
 20
0.0
 30
0.0
  3
_OPEN30
  1

  0
LINE
  5
28
330
26
100
AcDbEntity
  8
0
  6
ByBlock
 62
     0
100
AcDbLine
 10
-1.0
 20
0.26794919
 30
0.0
 11
0.0
 21
0.0
 31
0.0
  0
LINE
  5
29
330
26
100
AcDbEntity
  8
0
  6
ByBlock
 62
     0
100
AcDbLine
 10
0.0
 20
0.0
 30
0.0
 11
-1.0
 21
-0.26794919
 31
0.0
  0
LINE
  5
2A
330
26
100
AcDbEntity
  8
0
  6
ByBlock
 62
     0
100
AcDbLine
 10
0.0
 20
0.0
 30
0.0
 11
-1.0
 21
0.0
 31
0.0
  0
ENDBLK
  5
2B
330
26
100
AcDbEntity
  8
0
100
AcDbBlockEnd
  0
BLOCK
  5
17C
330
17B
100
AcDbEntity
  8
0
100
AcDbBlockBegin
  2
*D1
 70
     1
 10
0.0
 20
0.0
 30
0.0
  3
*D1
  1

  0
LINE
  5
17D
330
17B
100
AcDbEntity
  8
SUNPO
 62
     0
370
    -2
100
AcDbLine
 10
201.2456133339157
 20
80.78816152970858
 30
0.0
 11
201.2456133339157
 21
88.78816152970854
 31
0.0
  0
LINE
  5
17E
330
17B
100
AcDbEntity
  8
SUNPO
 62
     0
370
    -2
100
AcDbLine
 10
228.7456133339157
 20
80.78816152970858
 30
0.0
 11
228.7456133339157
 21
88.78816152970854
 31
0.0
  0
LINE
  5
17F
330
17B
100
AcDbEntity
  8
SUNPO
 62
     0
370
    -2
100
AcDbLine
 10
203.2456133339157
 20
86.78816152970853
 30
0.0
 11
226.7456133339157
 21
86.78816152970853
 31
0.0
  0
INSERT
  5
180
330
17B
100
AcDbEntity
  8
SUNPO
 62
     0
370
    -2
100
AcDbBlockReference
  2
_OPEN30
 10
201.2456133339157
 20
86.78816152970853
 30
0.0
 41
2.0
 42
2.0
 43
2.0
 50
180.0
  0
INSERT
  5
181
330
17B
100
AcDbEntity
  8
SUNPO
 62
     0
370
    -2
100
AcDbBlockReference
  2
_OPEN30
 10
228.7456133339157
 20
86.78816152970853
 30
0.0
 41
2.0
 42
2.0
 43
2.0
  0
MTEXT
  5
182
330
17B
100
AcDbEntity
  8
SUNPO
 62
     0
100
AcDbMText
 10
214.9956133339157
 20
88.53816152970853
 30
0.0
 40
2.5
 41
0.0
 71
     5
 72
     1
  1
\A1;275
 73
     1
 44
1.0
1001
ACAD
1000
MTEXTBEGIN
1070
    73
1070
     1
1070
    44
1040
1.0
1070
    74
1070
     0
1000
MTEXTEND
  0
POINT
  5
183
330
17B
100
AcDbEntity
  8
DEFPOINTS
 62
     0
100
AcDbPoint
 10
201.2456133339157
 20
78.78816152970859
 30
0.0
  0
POINT
  5
184
330
17B
100
AcDbEntity
  8
DEFPOINTS
 62
     0
100
AcDbPoint
 10
228.7456133339157
 20
78.78816152970859
 30
0.0
  0
POINT
  5
185
330
17B
100
AcDbEntity
  8
DEFPOINTS
 62
     0
100
AcDbPoint
 10
228.7456133339157
 20
86.78816152970853
 30
0.0
  0
ENDBLK
  5
186
330
17B
100
AcDbEntity
  8
0
100
AcDbBlockEnd
  0
BLOCK
  5
16D
330
16C
100
AcDbEntity
  8
0
100
AcDbBlockBegin
  2
*D2
 70
     1
 10
0.0
 20
0.0
 30
0.0
  3
*D2
  1

  0
LINE
  5
16E
330
16C
100
AcDbEntity
  8
SUNPO
 62
     0
370
    -2
100
AcDbLine
 10
181.5804649533212
 20
78.78816060455313
 30
0.0
 11
189.5804649533212
 21
78.78816060455313
 31
0.0
  0
LINE
  5
16F
330
16C
100
AcDbEntity
  8
SUNPO
 62
     0
370
    -2
100
AcDbLine
 10
181.5804649533212
 20
74.18816060455305
 30
0.0
 11
189.5804649533212
 21
74.18816060455305
 31
0.0
  0
LINE
  5
170
330
16C
100
AcDbEntity
  8
SUNPO
 62
     0
370
    -2
100
AcDbLine
 10
187.5804649533212
 20
80.78816060455313
 30
0.0
 11
187.5804649533212
 21
82.78816060455312
 31
0.0
  0
LINE
  5
171
330
16C
100
AcDbEntity
  8
SUNPO
 62
     0
370
    -2
100
AcDbLine
 10
187.5804649533212
 20
72.18816060455305
 30
0.0
 11
187.5804649533212
 21
65.02149393788638
 31
0.0
  0
LINE
  5
172
330
16C
100
AcDbEntity
  8
SUNPO
 62
     0
370
    -2
100
AcDbLine
 10
187.5804649533212
 20
78.78816060455313
 30
0.0
 11
187.5804649533212
 21
74.18816060455305
 31
0.0
  0
INSERT
  5
173
330
16C
100
AcDbEntity
  8
SUNPO
 62
     0
370
    -2
100
AcDbBlockReference
  2
_OPEN30
 10
187.5804649533212
 20
78.78816060455313
 30
0.0
 41
2.0
 42
2.0
 43
2.0
 50
270.0
  0
INSERT
  5
174
330
16C
100
AcDbEntity
  8
SUNPO
 62
     0
370
    -2
100
AcDbBlockReference
  2
_OPEN30
 10
187.5804649533212
 20
74.18816060455305
 30
0.0
 41
2.0
 42
2.0
 43
2.0
 50
90.0
  0
MTEXT
  5
175
330
16C
100
AcDbEntity
  8
SUNPO
 62
     0
100
AcDbMText
 10
185.8304649533211
 20
67.60482727121974
 30
0.0
 40
2.5
 41
0.0
 71
     5
 72
     1
  1
\A1;46
 11
0.0000000000000001
 21
1.0
 31
0.0
 73
     1
 44
1.0
1001
ACAD
1000
MTEXTBEGIN
1070
    73
1070
     1
1070
    44
1040
1.0
1070
    74
1070
     0
1000
MTEXTEND
  0
POINT
  5
176
330
16C
100
AcDbEntity
  8
DEFPOINTS
 62
     0
100
AcDbPoint
 10
179.5804649533212
 20
78.78816060455313
 30
0.0
  0
POINT
  5
177
330
16C
100
AcDbEntity
  8
DEFPOINTS
 62
     0
100
AcDbPoint
 10
179.5804649533212
 20
74.18816060455305
 30
0.0
  0
POINT
  5
178
330
16C
100
AcDbEntity
  8
DEFPOINTS
 62
     0
100
AcDbPoint
 10
187.5804649533212
 20
74.18816060455305
 30
0.0
  0
ENDBLK
  5
179
330
16C
100
AcDbEntity
  8
0
100
AcDbBlockEnd
  0
BLOCK
  5
15F
330
15E
100
AcDbEntity
  8
0
100
AcDbBlockBegin
  2
*D3
 70
     1
 10
0.0
 20
0.0
 30
0.0
  3
*D3
  1

  0
LINE
  5
160
330
15E
100
AcDbEntity
  8
SUNPO
 62
     0
370
    -2
100
AcDbLine
 10
158.5876027393527
 20
80.78816152970864
 30
0.0
 11
158.5876027393527
 21
88.78816152970864
 31
0.0
  0
LINE
  5
161
330
15E
100
AcDbEntity
  8
SUNPO
 62
     0
370
    -2
100
AcDbLine
 10
179.5876027393527
 20
80.78816152970864
 30
0.0
 11
179.5876027393527
 21
88.78816152970864
 31
0.0
  0
LINE
  5
162
330
15E
100
AcDbEntity
  8
SUNPO
 62
     0
370
    -2
100
AcDbLine
 10
160.5876027393527
 20
86.78816152970865
 30
0.0
 11
177.5876027393527
 21
86.78816152970865
 31
0.0
  0
INSERT
  5
163
330
15E
100
AcDbEntity
  8
SUNPO
 62
     0
370
    -2
100
AcDbBlockReference
  2
_OPEN30
 10
158.5876027393527
 20
86.78816152970865
 30
0.0
 41
2.0
 42
2.0
 43
2.0
 50
180.0
  0
INSERT
  5
164
330
15E
100
AcDbEntity
  8
SUNPO
 62
     0
370
    -2
100
AcDbBlockReference
  2
_OPEN30
 10
179.5876027393527
 20
86.78816152970865
 30
0.0
 41
2.0
 42
2.0
 43
2.0
  0
MTEXT
  5
165
330
15E
100
AcDbEntity
  8
SUNPO
 62
     0
100
AcDbMText
 10
169.0876027393527
 20
88.53816152970864
 30
0.0
 40
2.5
 41
0.0
 71
     5
 72
     1
  1
\A1;210
 73
     1
 44
1.0
1001
ACAD
1000
MTEXTBEGIN
1070
    73
1070
     1
1070
    44
1040
1.0
1070
    74
1070
     0
1000
MTEXTEND
  0
POINT
  5
166
330
15E
100
AcDbEntity
  8
DEFPOINTS
 62
     0
100
AcDbPoint
 10
158.5876027393527
 20
78.78816152970864
 30
0.0
  0
POINT
  5
168
330
15E
100
AcDbEntity
  8
DEFPOINTS
 62
     0
100
AcDbPoint
 10
179.5876027393527
 20
78.78816152970864
 30
0.0
  0
POINT
  5
169
330
15E
100
AcDbEntity
  8
DEFPOINTS
 62
     0
100
AcDbPoint
 10
179.5876027393527
 20
86.78816152970865
 30
0.0
  0
ENDBLK
  5
16A
330
15E
100
AcDbEntity
  8
0
100
AcDbBlockEnd
  0
BLOCK
  5
1AE
330
1A4
100
AcDbEntity
  8
0
100
AcDbBlockBegin
  2
*D4
 70
     1
 10
0.0
 20
0.0
 30
0.0
  3
*D4
  1

  0
LINE
  5
1A5
330
1A4
100
AcDbEntity
  8
SUNPO
 62
     0
370
    -2
100
AcDbLine
 10
11.95016812322512
 20
20.34105614618813
 30
0.0
 11
11.95016812322512
 21
28.34105614618806
 31
0.0
  0
LINE
  5
1A6
330
1A4
100
AcDbEntity
  8
SUNPO
 62
     0
370
    -2
100
AcDbLine
 10
39.45016812322513
 20
20.34105614618813
 30
0.0
 11
39.45016812322513
 21
28.34105614618806
 31
0.0
  0
LINE
  5
1A7
330
1A4
100
AcDbEntity
  8
SUNPO
 62
     0
370
    -2
100
AcDbLine
 10
13.95016812322512
 20
26.34105614618807
 30
0.0
 11
37.45016812322513
 21
26.34105614618807
 31
0.0
  0
INSERT
  5
1A8
330
1A4
100
AcDbEntity
  8
SUNPO
 62
     0
370
    -2
100
AcDbBlockReference
  2
_OPEN30
 10
11.95016812322512
 20
26.34105614618807
 30
0.0
 41
2.0
 42
2.0
 43
2.0
 50
180.0
  0
INSERT
  5
1A9
330
1A4
100
AcDbEntity
  8
SUNPO
 62
     0
370
    -2
100
AcDbBlockReference
  2
_OPEN30
 10
39.45016812322513
 20
26.34105614618807
 30
0.0
 41
2.0
 42
2.0
 43
2.0
  0
MTEXT
  5
1AA
330
1A4
100
AcDbEntity
  8
SUNPO
 62
     0
100
AcDbMText
 10
25.70016812322513
 20
28.09105614618807
 30
0.0
 40
2.5
 41
0.0
 71
     5
 72
     1
  1
\A1;275
 73
     1
 44
1.0
1001
ACAD
1000
MTEXTBEGIN
1070
    73
1070
     1
1070
    44
1040
1.0
1070
    74
1070
     0
1000
MTEXTEND
  0
POINT
  5
1AB
330
1A4
100
AcDbEntity
  8
DEFPOINTS
 62
     0
100
AcDbPoint
 10
11.95016812322512
 20
18.34105614618812
 30
0.0
  0
POINT
  5
1AC
330
1A4
100
AcDbEntity
  8
DEFPOINTS
 62
     0
100
AcDbPoint
 10
39.45016812322513
 20
18.34105614618812
 30
0.0
  0
POINT
  5
1AD
330
1A4
100
AcDbEntity
  8
DEFPOINTS
 62
     0
100
AcDbPoint
 10
39.45016812322513
 20
26.34105614618807
 30
0.0
  0
ENDBLK
  5
1AF
330
1A4
100
AcDbEntity
  8
0
100
AcDbBlockEnd
  0
BLOCK
  5
1BC
330
1B0
100
AcDbEntity
  8
0
100
AcDbBlockBegin
  2
*D5
 70
     1
 10
0.0
 20
0.0
 30
0.0
  3
*D5
  1

  0
LINE
  5
1B1
330
1B0
100
AcDbEntity
  8
SUNPO
 62
     0
370
    -2
100
AcDbLine
 10
-7.714980257369346
 20
18.34105522103266
 30
0.0
 11
0.2850197426306527
 21
18.34105522103266
 31
0.0
  0
LINE
  5
1B2
330
1B0
100
AcDbEntity
  8
SUNPO
 62
     0
370
    -2
100
AcDbLine
 10
-7.714980257369348
 20
13.74105522103258
 30
0.0
 11
0.2850197426306517
 21
13.74105522103258
 31
0.0
  0
LINE
  5
1B3
330
1B0
100
AcDbEntity
  8
SUNPO
 62
     0
370
    -2
100
AcDbLine
 10
-1.714980257369346
 20
20.34105522103266
 30
0.0
 11
-1.714980257369346
 21
22.34105522103266
 31
0.0
  0
LINE
  5
1B4
330
1B0
100
AcDbEntity
  8
SUNPO
 62
     0
370
    -2
100
AcDbLine
 10
-1.714980257369348
 20
11.74105522103258
 30
0.0
 11
-1.714980257369349
 21
4.574388554365913
 31
0.0
  0
LINE
  5
1B5
330
1B0
100
AcDbEntity
  8
SUNPO
 62
     0
370
    -2
100
AcDbLine
 10
-1.714980257369346
 20
18.34105522103266
 30
0.0
 11
-1.714980257369347
 21
13.74105522103258
 31
0.0
  0
INSERT
  5
1B6
330
1B0
100
AcDbEntity
  8
SUNPO
 62
     0
370
    -2
100
AcDbBlockReference
  2
_OPEN30
 10
-1.714980257369346
 20
18.34105522103266
 30
0.0
 41
2.0
 42
2.0
 43
2.0
 50
270.0
  0
INSERT
  5
1B7
330
1B0
100
AcDbEntity
  8
SUNPO
 62
     0
370
    -2
100
AcDbBlockReference
  2
_OPEN30
 10
-1.714980257369347
 20
13.74105522103258
 30
0.0
 41
2.0
 42
2.0
 43
2.0
 50
90.0
  0
MTEXT
  5
1B8
330
1B0
100
AcDbEntity
  8
SUNPO
 62
     0
100
AcDbMText
 10
-3.46498025736935
 20
7.157721887699246
 30
0.0
 40
2.5
 41
0.0
 71
     5
 72
     1
  1
\A1;46
 11
0.0000000000000001
 21
1.0
 31
0.0
 73
     1
 44
1.0
1001
ACAD
1000
MTEXTBEGIN
1070
    73
1070
     1
1070
    44
1040
1.0
1070
    74
1070
     0
1000
MTEXTEND
  0
POINT
  5
1B9
330
1B0
100
AcDbEntity
  8
DEFPOINTS
 62
     0
100
AcDbPoint
 10
-9.714980257369347
 20
18.34105522103266
 30
0.0
  0
POINT
  5
1BA
330
1B0
100
AcDbEntity
  8
DEFPOINTS
 62
     0
100
AcDbPoint
 10
-9.714980257369347
 20
13.74105522103258
 30
0.0
  0
POINT
  5
1BB
330
1B0
100
AcDbEntity
  8
DEFPOINTS
 62
     0
100
AcDbPoint
 10
-1.714980257369347
 20
13.74105522103258
 30
0.0
  0
ENDBLK
  5
1BD
330
1B0
100
AcDbEntity
  8
0
100
AcDbBlockEnd
  0
BLOCK
  5
1C8
330
1BE
100
AcDbEntity
  8
0
100
AcDbBlockBegin
  2
*D6
 70
     1
 10
0.0
 20
0.0
 30
0.0
  3
*D6
  1

  0
LINE
  5
1BF
330
1BE
100
AcDbEntity
  8
SUNPO
 62
     0
370
    -2
100
AcDbLine
 10
-30.70784247133782
 20
20.34105614618818
 30
0.0
 11
-30.70784247133782
 21
28.34105614618818
 31
0.0
  0
LINE
  5
1C0
330
1BE
100
AcDbEntity
  8
SUNPO
 62
     0
370
    -2
100
AcDbLine
 10
-9.707842471337812
 20
20.34105614618818
 30
0.0
 11
-9.707842471337812
 21
28.34105614618818
 31
0.0
  0
LINE
  5
1C1
330
1BE
100
AcDbEntity
  8
SUNPO
 62
     0
370
    -2
100
AcDbLine
 10
-28.70784247133781
 20
26.34105614618818
 30
0.0
 11
-11.70784247133781
 21
26.34105614618818
 31
0.0
  0
INSERT
  5
1C2
330
1BE
100
AcDbEntity
  8
SUNPO
 62
     0
370
    -2
100
AcDbBlockReference
  2
_OPEN30
 10
-30.70784247133782
 20
26.34105614618818
 30
0.0
 41
2.0
 42
2.0
 43
2.0
 50
180.0
  0
INSERT
  5
1C3
330
1BE
100
AcDbEntity
  8
SUNPO
 62
     0
370
    -2
100
AcDbBlockReference
  2
_OPEN30
 10
-9.707842471337812
 20
26.34105614618818
 30
0.0
 41
2.0
 42
2.0
 43
2.0
  0
MTEXT
  5
1C4
330
1BE
100
AcDbEntity
  8
SUNPO
 62
     0
100
AcDbMText
 10
-20.20784247133781
 20
28.09105614618818
 30
0.0
 40
2.5
 41
0.0
 71
     5
 72
     1
  1
\A1;210
 73
     1
 44
1.0
1001
ACAD
1000
MTEXTBEGIN
1070
    73
1070
     1
1070
    44
1040
1.0
1070
    74
1070
     0
1000
MTEXTEND
  0
POINT
  5
1C5
330
1BE
100
AcDbEntity
  8
DEFPOINTS
 62
     0
100
AcDbPoint
 10
-30.70784247133782
 20
18.34105614618818
 30
0.0
  0
POINT
  5
1C6
330
1BE
100
AcDbEntity
  8
DEFPOINTS
 62
     0
100
AcDbPoint
 10
-9.707842471337812
 20
18.34105614618818
 30
0.0
  0
POINT
  5
1C7
330
1BE
100
AcDbEntity
  8
DEFPOINTS
 62
     0
100
AcDbPoint
 10
-9.707842471337812
 20
26.34105614618818
 30
0.0
  0
ENDBLK
  5
1C9
330
1BE
100
AcDbEntity
  8
0
100
AcDbBlockEnd
  0
ENDSEC
  0
SECTION
  2
ENTITIES
  0
TEXT
  5
34
330
2
100
AcDbEntity
  8
MOJI1
100
AcDbText
 10
-31.2954452106909
 20
54.05210875612159
 30
0.0
 40
4.0
  1
ＡＣアダプター
100
AcDbText
  0
TEXT
  5
36
330
2
100
AcDbEntity
  8
TOUROKU
100
AcDbText
 10
48.17117148890339
 20
48.05210875612146
 30
0.0
 40
2.0
  1
ＡＷＰＳ３００Ａ
 72
     2
 11
66.70450482223674
 21
48.05210875612146
 31
0.0
100
AcDbText
  0
TEXT
  5
38
330
2
100
AcDbEntity
  8
GAIKEI
  6
Continuous
 62
     1
 48
25.4
100
AcDbText
 10
-27.71434983134782
 20
15.32859773716266
 30
0.0
 40
0.4
  1
I
  7
SEACAD_seansi_ttf
 11
-27.71434983134782
 21
15.72859773716266
 31
0.0
100
AcDbText
 73
     3
  0
TEXT
  5
3A
330
2
100
AcDbEntity
  8
GAIKEI
  6
Continuous
 62
     1
 48
25.4
100
AcDbText
 10
-29.03457259332782
 20
15.36420593091268
 30
0.0
 40
0.4
  1
○
  7
SEACAD_seansi_ttf
 11
-29.03457259332782
 21
15.76420593091268
 31
0.0
100
AcDbText
 73
     3
  0
CIRCLE
  5
3B
330
2
100
AcDbEntity
  8
GAIKEI
  6
Continuous
 62
     1
 48
25.4
100
AcDbCircle
 10
19.95016812322512
 20
17.04105522103265
 30
0.0
 40
0.125
  0
CIRCLE
  5
3C
330
2
100
AcDbEntity
  8
GAIKEI
  6
Continuous
 62
     1
 48
25.4
100
AcDbCircle
 10
19.95016812322512
 20
17.44105522103268
 30
0.0
 40
0.125
  0
CIRCLE
  5
3D
330
2
100
AcDbEntity
  8
GAIKEI
  6
Continuous
 62
     1
 48
25.4
100
AcDbCircle
 10
19.95016812322512
 20
17.84105522103266
 30
0.0
 40
0.125
  0
CIRCLE
  5
3E
330
2
100
AcDbEntity
  8
GAIKEI
  6
Continuous
 62
     1
 48
25.4
100
AcDbCircle
 10
19.95016812322512
 20
16.24105522103264
 30
0.0
 40
0.125
  0
CIRCLE
  5
3F
330
2
100
AcDbEntity
  8
GAIKEI
  6
Continuous
 62
     1
 48
25.4
100
AcDbCircle
 10
19.95016812322512
 20
16.64105522103267
 30
0.0
 40
0.125
  0
CIRCLE
  5
40
330
2
100
AcDbEntity
  8
GAIKEI
  6
Continuous
 62
     1
 48
25.4
100
AcDbCircle
 10
21.15016812322512
 20
16.64105522103267
 30
0.0
 40
0.125
  0
CIRCLE
  5
41
330
2
100
AcDbEntity
  8
GAIKEI
  6
Continuous
 62
     1
 48
25.4
100
AcDbCircle
 10
20.75016812322508
 20
15.04105522103265
 30
0.0
 40
0.125
  0
CIRCLE
  5
42
330
2
100
AcDbEntity
  8
GAIKEI
  6
Continuous
 62
     1
 48
25.4
100
AcDbCircle
 10
21.15016812322512
 20
17.44105522103268
 30
0.0
 40
0.125
  0
CIRCLE
  5
43
330
2
100
AcDbEntity
  8
GAIKEI
  6
Continuous
 62
     1
 48
25.4
100
AcDbCircle
 10
19.95016812322512
 20
15.04105522103265
 30
0.0
 40
0.125
  0
CIRCLE
  5
44
330
2
100
AcDbEntity
  8
GAIKEI
  6
Continuous
 62
     1
 48
25.4
100
AcDbCircle
 10
19.95016812322512
 20
15.44105522103268
 30
0.0
 40
0.125
  0
CIRCLE
  5
45
330
2
100
AcDbEntity
  8
GAIKEI
  6
Continuous
 62
     1
 48
25.4
100
AcDbCircle
 10
21.15016812322512
 20
17.84105522103266
 30
0.0
 40
0.125
  0
CIRCLE
  5
46
330
2
100
AcDbEntity
  8
GAIKEI
  6
Continuous
 62
     1
 48
25.4
100
AcDbCircle
 10
19.95016812322512
 20
15.84105522103266
 30
0.0
 40
0.125
  0
CIRCLE
  5
47
330
2
100
AcDbEntity
  8
GAIKEI
  6
Continuous
 62
     1
 48
25.4
100
AcDbCircle
 10
20.75016812322508
 20
15.84105522103266
 30
0.0
 40
0.125
  0
CIRCLE
  5
48
330
2
100
AcDbEntity
  8
GAIKEI
  6
Continuous
 62
     1
 48
25.4
100
AcDbCircle
 10
20.75016812322508
 20
15.44105522103268
 30
0.0
 40
0.125
  0
CIRCLE
  5
49
330
2
100
AcDbEntity
  8
GAIKEI
  6
Continuous
 62
     1
 48
25.4
100
AcDbCircle
 10
20.3501681232251
 20
17.44105522103268
 30
0.0
 40
0.125
  0
CIRCLE
  5
4A
330
2
100
AcDbEntity
  8
GAIKEI
  6
Continuous
 62
     1
 48
25.4
100
AcDbCircle
 10
20.3501681232251
 20
17.84105522103266
 30
0.0
 40
0.125
  0
LINE
  5
4B
330
2
100
AcDbEntity
  8
GAIKEI
  6
Continuous
 48
25.4
100
AcDbLine
 10
11.95016812322512
 20
18.34105522103266
 30
0.0
 11
39.45016812322513
 21
18.34105522103266
 31
0.0
  0
ARC
  5
4C
330
2
100
AcDbEntity
  8
GAIKEI
  6
Continuous
 62
     1
 48
25.4
100
AcDbCircle
 10
39.25016812322508
 20
14.04105522103265
 30
0.0
 40
0.2000000000000002
100
AcDbArc
 50
270.0
 51
0.0
  0
ARC
  5
4D
330
2
100
AcDbEntity
  8
GAIKEI
  6
Continuous
 62
     1
 48
25.4
100
AcDbCircle
 10
12.15016812322511
 20
14.04105522103265
 30
0.0
 40
0.1999999999999974
100
AcDbArc
 50
180.0
 51
270.0
  0
LINE
  5
4E
330
2
100
AcDbEntity
  8
GAIKEI
  6
Continuous
 48
25.4
100
AcDbLine
 10
11.95016812322512
 20
18.34105522103266
 30
0.0
 11
11.95016812322512
 21
14.04105522103265
 31
0.0
  0
LINE
  5
4F
330
2
100
AcDbEntity
  8
GAIKEI
  6
Continuous
 48
25.4
100
AcDbLine
 10
39.45016812322513
 20
18.34105522103266
 30
0.0
 11
39.45016812322513
 21
14.04105522103265
 31
0.0
  0
LINE
  5
50
330
2
100
AcDbEntity
  8
GAIKEI
  6
Continuous
 62
     1
 48
25.4
100
AcDbLine
 10
12.15016812322511
 20
13.84105522103266
 30
0.0
 11
39.25016812322508
 21
13.84105522103266
 31
0.0
  0
CIRCLE
  5
51
330
2
100
AcDbEntity
  8
GAIKEI
  6
Continuous
 62
     1
 48
25.4
100
AcDbCircle
 10
21.55016812322509
 20
15.04105522103265
 30
0.0
 40
0.125
  0
CIRCLE
  5
52
330
2
100
AcDbEntity
  8
GAIKEI
  6
Continuous
 62
     1
 48
25.4
100
AcDbCircle
 10
20.75016812322508
 20
16.64105522103267
 30
0.0
 40
0.125
  0
CIRCLE
  5
53
330
2
100
AcDbEntity
  8
GAIKEI
  6
Continuous
 62
     1
 48
25.4
100
AcDbCircle
 10
20.75016812322508
 20
16.24105522103264
 30
0.0
 40
0.125
  0
CIRCLE
  5
54
330
2
100
AcDbEntity
  8
GAIKEI
  6
Continuous
 62
     1
 48
25.4
100
AcDbCircle
 10
20.75016812322508
 20
17.44105522103268
 30
0.0
 40
0.125
  0
CIRCLE
  5
55
330
2
100
AcDbEntity
  8
GAIKEI
  6
Continuous
 62
     1
 48
25.4
100
AcDbCircle
 10
20.75016812322508
 20
17.04105522103265
 30
0.0
 40
0.125
  0
CIRCLE
  5
56
330
2
100
AcDbEntity
  8
GAIKEI
  6
Continuous
 62
     1
 48
25.4
100
AcDbCircle
 10
20.3501681232251
 20
15.04105522103265
 30
0.0
 40
0.125
  0
CIRCLE
  5
57
330
2
100
AcDbEntity
  8
GAIKEI
  6
Continuous
 62
     1
 48
25.4
100
AcDbCircle
 10
20.75016812322508
 20
17.84105522103266
 30
0.0
 40
0.125
  0
CIRCLE
  5
58
330
2
100
AcDbEntity
  8
GAIKEI
  6
Continuous
 62
     1
 48
25.4
100
AcDbCircle
 10
20.3501681232251
 20
16.24105522103264
 30
0.0
 40
0.125
  0
CIRCLE
  5
59
330
2
100
AcDbEntity
  8
GAIKEI
  6
Continuous
 62
     1
 48
25.4
100
AcDbCircle
 10
20.3501681232251
 20
15.84105522103266
 30
0.0
 40
0.125
  0
CIRCLE
  5
5A
330
2
100
AcDbEntity
  8
GAIKEI
  6
Continuous
 62
     1
 48
25.4
100
AcDbCircle
 10
20.3501681232251
 20
15.44105522103268
 30
0.0
 40
0.125
  0
CIRCLE
  5
5B
330
2
100
AcDbEntity
  8
GAIKEI
  6
Continuous
 62
     1
 48
25.4
100
AcDbCircle
 10
20.3501681232251
 20
17.04105522103265
 30
0.0
 40
0.125
  0
CIRCLE
  5
5C
330
2
100
AcDbEntity
  8
GAIKEI
  6
Continuous
 62
     1
 48
25.4
100
AcDbCircle
 10
20.3501681232251
 20
16.64105522103267
 30
0.0
 40
0.125
  0
CIRCLE
  5
5D
330
2
100
AcDbEntity
  8
GAIKEI
  6
Continuous
 62
     1
 48
25.4
100
AcDbCircle
 10
21.55016812322509
 20
17.44105522103268
 30
0.0
 40
0.125
  0
CIRCLE
  5
5E
330
2
100
AcDbEntity
  8
GAIKEI
  6
Continuous
 62
     1
 48
25.4
100
AcDbCircle
 10
21.55016812322509
 20
17.04105522103265
 30
0.0
 40
0.125
  0
CIRCLE
  5
5F
330
2
100
AcDbEntity
  8
GAIKEI
  6
Continuous
 62
     1
 48
25.4
100
AcDbCircle
 10
21.15016812322512
 20
15.04105522103265
 30
0.0
 40
0.125
  0
CIRCLE
  5
60
330
2
100
AcDbEntity
  8
GAIKEI
  6
Continuous
 62
     1
 48
25.4
100
AcDbCircle
 10
21.55016812322509
 20
17.84105522103266
 30
0.0
 40
0.125
  0
CIRCLE
  5
61
330
2
100
AcDbEntity
  8
GAIKEI
  6
Continuous
 62
     1
 48
25.4
100
AcDbCircle
 10
21.15016812322512
 20
16.24105522103264
 30
0.0
 40
0.125
  0
CIRCLE
  5
62
330
2
100
AcDbEntity
  8
GAIKEI
  6
Continuous
 62
     1
 48
25.4
100
AcDbCircle
 10
21.15016812322512
 20
15.84105522103266
 30
0.0
 40
0.125
  0
CIRCLE
  5
63
330
2
100
AcDbEntity
  8
GAIKEI
  6
Continuous
 62
     1
 48
25.4
100
AcDbCircle
 10
21.15016812322512
 20
15.44105522103268
 30
0.0
 40
0.125
  0
CIRCLE
  5
64
330
2
100
AcDbEntity
  8
GAIKEI
  6
Continuous
 62
     1
 48
25.4
100
AcDbCircle
 10
21.15016812322512
 20
17.04105522103265
 30
0.0
 40
0.125
  0
CIRCLE
  5
65
330
2
100
AcDbEntity
  8
GAIKEI
  6
Continuous
 62
     1
 48
25.4
100
AcDbCircle
 10
21.55016812322509
 20
16.24105522103264
 30
0.0
 40
0.125
  0
CIRCLE
  5
66
330
2
100
AcDbEntity
  8
GAIKEI
  6
Continuous
 62
     1
 48
25.4
100
AcDbCircle
 10
21.55016812322509
 20
16.64105522103267
 30
0.0
 40
0.125
  0
CIRCLE
  5
67
330
2
100
AcDbEntity
  8
GAIKEI
  6
Continuous
 62
     1
 48
25.4
100
AcDbCircle
 10
21.55016812322509
 20
15.44105522103268
 30
0.0
 40
0.125
  0
CIRCLE
  5
68
330
2
100
AcDbEntity
  8
GAIKEI
  6
Continuous
 62
     1
 48
25.4
100
AcDbCircle
 10
21.55016812322509
 20
15.84105522103266
 30
0.0
 40
0.125
  0
LINE
  5
69
330
2
100
AcDbEntity
  8
GAIKEI
  6
Continuous
 48
25.4
100
AcDbLine
 10
38.45016812322512
 20
13.74105522103264
 30
0.0
 11
12.95016812322512
 21
13.74105522103264
 31
0.0
  0
ARC
  5
6A
330
2
100
AcDbEntity
  8
GAIKEI
  6
Continuous
 48
25.4
100
AcDbCircle
 10
39.35016812322511
 20
13.84105522103266
 30
0.0
 40
0.1000000000000001
100
AcDbArc
 50
270.0
 51
0.0
  0
ARC
  5
6B
330
2
100
AcDbEntity
  8
GAIKEI
  6
Continuous
 48
25.4
100
AcDbCircle
 10
12.05016812322509
 20
13.84105522103266
 30
0.0
 40
0.1000000000000001
100
AcDbArc
 50
180.0
 51
270.0
  0
LINE
  5
6C
330
2
100
AcDbEntity
  8
GAIKEI
  6
Continuous
 48
25.4
100
AcDbLine
 10
39.45016812322513
 20
14.04105522103265
 30
0.0
 11
39.45016812322513
 21
13.94105522103268
 31
0.0
  0
LINE
  5
6D
330
2
100
AcDbEntity
  8
GAIKEI
  6
Continuous
 48
25.4
100
AcDbLine
 10
11.95016812322512
 20
13.94105522103268
 30
0.0
 11
11.95016812322512
 21
14.04105522103265
 31
0.0
  0
LINE
  5
6E
330
2
100
AcDbEntity
  8
GAIKEI
  6
Continuous
 48
25.4
100
AcDbLine
 10
39.35016812322511
 20
13.74105522103264
 30
0.0
 11
38.45016812322512
 21
13.74105522103264
 31
0.0
  0
LINE
  5
6F
330
2
100
AcDbEntity
  8
GAIKEI
  6
Continuous
 48
25.4
100
AcDbLine
 10
39.45016812322513
 20
13.94105522103268
 30
0.0
 11
39.45016812322513
 21
13.84105522103266
 31
0.0
  0
LINE
  5
70
330
2
100
AcDbEntity
  8
GAIKEI
  6
Continuous
 48
25.4
100
AcDbLine
 10
12.95016812322512
 20
13.74105522103264
 30
0.0
 11
12.05016812322509
 21
13.74105522103264
 31
0.0
  0
LINE
  5
71
330
2
100
AcDbEntity
  8
GAIKEI
  6
Continuous
 48
25.4
100
AcDbLine
 10
11.95016812322512
 20
13.84105522103266
 30
0.0
 11
11.95016812322512
 21
13.94105522103268
 31
0.0
  0
LINE
  5
72
330
2
100
AcDbEntity
  8
GAIKEI
  6
Continuous
 62
     1
 48
25.4
100
AcDbLine
 10
11.8501681232251
 20
15.19105522103268
 30
0.0
 11
11.95016812322512
 21
15.19105522103268
 31
0.0
  0
LINE
  5
73
330
2
100
AcDbEntity
  8
GAIKEI
  6
Continuous
 62
     1
 48
25.4
100
AcDbLine
 10
11.95016812322512
 20
15.89105522103267
 30
0.0
 11
11.8501681232251
 21
15.89105522103267
 31
0.0
  0
ARC
  5
74
330
2
100
AcDbEntity
  8
GAIKEI
  6
Continuous
 62
     1
 48
25.4
100
AcDbCircle
 10
11.7301681232251
 20
15.52105522103267
 30
0.0
 40
0.0799999999999995
100
AcDbArc
 50
180.0
 51
270.0
  0
LINE
  5
75
330
2
100
AcDbEntity
  8
GAIKEI
  6
Continuous
 62
     1
 48
25.4
100
AcDbLine
 10
11.7301681232251
 20
15.44105522103268
 30
0.0
 11
11.75016812322508
 21
15.44105522103268
 31
0.0
  0
ARC
  5
76
330
2
100
AcDbEntity
  8
GAIKEI
  6
Continuous
 62
     1
 48
25.4
100
AcDbCircle
 10
11.7301681232251
 20
15.56105522103269
 30
0.0
 40
0.0799999999999999
100
AcDbArc
 50
90.0
 51
180.0
  0
LINE
  5
77
330
2
100
AcDbEntity
  8
GAIKEI
  6
Continuous
 62
     1
 48
25.4
100
AcDbLine
 10
11.75016812322508
 20
15.64105522103267
 30
0.0
 11
11.7301681232251
 21
15.64105522103267
 31
0.0
  0
LINE
  5
78
330
2
100
AcDbEntity
  8
GAIKEI
  6
Continuous
 62
     1
 48
25.4
100
AcDbLine
 10
11.65016812322511
 20
15.52105522103267
 30
0.0
 11
11.65016812322511
 21
15.56105522103269
 31
0.0
  0
LINE
  5
79
330
2
100
AcDbEntity
  8
GAIKEI
  6
Continuous
 62
     1
 48
25.4
100
AcDbLine
 10
11.75016812322508
 20
15.29105522103265
 30
0.0
 11
11.8501681232251
 21
15.19105522103268
 31
0.0
  0
LINE
  5
7A
330
2
100
AcDbEntity
  8
GAIKEI
  6
Continuous
 62
     1
 48
25.4
100
AcDbLine
 10
11.8501681232251
 20
15.89105522103267
 30
0.0
 11
11.75016812322508
 21
15.79105522103265
 31
0.0
  0
LINE
  5
7B
330
2
100
AcDbEntity
  8
GAIKEI
  6
Continuous
 62
     1
 48
25.4
100
AcDbLine
 10
17.61016812788938
 20
14.15105554649847
 30
0.0
 11
17.4605632032351
 21
14.15105552911268
 31
0.0
  0
LINE
  5
7C
330
2
100
AcDbEntity
  8
GAIKEI
  6
Continuous
 62
     1
 48
25.4
100
AcDbLine
 10
17.69016810119507
 20
14.38066014115264
 30
0.0
 11
17.69016811858228
 21
14.23105555580662
 31
0.0
  0
LINE
  5
7D
330
2
100
AcDbEntity
  8
GAIKEI
  6
Continuous
 62
     1
 48
25.4
100
AcDbLine
 10
17.61016811858115
 20
14.23105554649839
 30
0.0
 11
17.61016810119508
 21
14.38066013186267
 31
0.0
  0
ARC
  5
7E
330
2
100
AcDbEntity
  8
GAIKEI
  6
Continuous
 62
     1
 48
25.4
100
AcDbCircle
 10
17.65016812322511
 20
14.19105522102268
 30
0.0
 40
0.3130977239402319
100
AcDbArc
 50
180.0000066602969
 51
0.0000066604010851
  0
ARC
  5
7F
330
2
100
AcDbEntity
  8
GAIKEI
  6
Continuous
 62
     1
 48
25.4
100
AcDbCircle
 10
17.65016812322511
 20
14.19105522102268
 30
0.0
 40
0.3130977239402319
100
AcDbArc
 50
0.0000066604010851
 51
180.0000066602969
  0
LINE
  5
80
330
2
100
AcDbEntity
  8
GAIKEI
  6
Continuous
 62
     1
 48
25.4
100
AcDbLine
 10
17.61016814527511
 20
14.00145030090266
 30
0.0
 11
17.61016812788938
 21
14.15105554649847
 31
0.0
  0
LINE
  5
81
330
2
100
AcDbEntity
  8
GAIKEI
  6
Continuous
 62
     1
 48
25.4
100
AcDbLine
 10
17.69016812788732
 20
14.15105555580663
 30
0.0
 11
17.69016814527509
 21
14.00145031020264
 31
0.0
  0
LINE
  5
82
330
2
100
AcDbEntity
  8
GAIKEI
  6
Continuous
 62
     1
 48
25.4
100
AcDbLine
 10
17.83977305251511
 20
14.15105557319265
 30
0.0
 11
17.69016812788732
 21
14.15105555580663
 31
0.0
  0
LINE
  5
83
330
2
100
AcDbEntity
  8
GAIKEI
  6
Continuous
 62
     1
 48
25.4
100
AcDbLine
 10
17.69016811858228
 20
14.23105555580662
 30
0.0
 11
17.83977302489506
 21
14.23105557319263
 31
0.0
  0
LINE
  5
84
330
2
100
AcDbEntity
  8
GAIKEI
  6
Continuous
 62
     1
 48
25.4
100
AcDbLine
 10
17.46056321225512
 20
14.23105552911266
 30
0.0
 11
17.61016811858115
 21
14.23105554649839
 31
0.0
  0
LINE
  5
85
330
2
100
AcDbEntity
  8
GAIKEI
  6
Continuous
 62
     1
 48
25.4
100
AcDbLine
 10
37.20016812322513
 20
13.59105522103266
 30
0.0
 11
37.20016812322513
 21
13.74105522103264
 31
0.0
  0
ARC
  5
86
330
2
100
AcDbEntity
  8
GAIKEI
  6
Continuous
 62
     1
 48
25.4
100
AcDbCircle
 10
36.90016812322511
 20
13.59105522103266
 30
0.0
 40
0.3
100
AcDbArc
 50
270.0
 51
0.0
  0
LINE
  5
87
330
2
100
AcDbEntity
  8
GAIKEI
  6
Continuous
 62
     1
 48
25.4
100
AcDbLine
 10
36.6001681232251
 20
13.29105522103265
 30
0.0
 11
36.90016812322511
 21
13.29105522103265
 31
0.0
  0
ARC
  5
88
330
2
100
AcDbEntity
  8
GAIKEI
  6
Continuous
 62
     1
 48
25.4
100
AcDbCircle
 10
36.6001681232251
 20
13.59105522103266
 30
0.0
 40
0.3000000000000003
100
AcDbArc
 50
180.0
 51
270.0
  0
LINE
  5
89
330
2
100
AcDbEntity
  8
GAIKEI
  6
Continuous
 62
     1
 48
25.4
100
AcDbLine
 10
36.30016812322509
 20
13.74105522103264
 30
0.0
 11
36.30016812322509
 21
13.59105522103266
 31
0.0
  0
LINE
  5
8A
330
2
100
AcDbEntity
  8
GAIKEI
  6
Continuous
 62
     1
 48
25.4
100
AcDbLine
 10
15.1001681232251
 20
13.59105522103266
 30
0.0
 11
15.1001681232251
 21
13.74105522103264
 31
0.0
  0
ARC
  5
8B
330
2
100
AcDbEntity
  8
GAIKEI
  6
Continuous
 62
     1
 48
25.4
100
AcDbCircle
 10
14.80016812322509
 20
13.59105522103266
 30
0.0
 40
0.3
100
AcDbArc
 50
270.0
 51
0.0
  0
LINE
  5
8C
330
2
100
AcDbEntity
  8
GAIKEI
  6
Continuous
 62
     1
 48
25.4
100
AcDbLine
 10
14.50016812322508
 20
13.29105522103265
 30
0.0
 11
14.80016812322509
 21
13.29105522103265
 31
0.0
  0
ARC
  5
8D
330
2
100
AcDbEntity
  8
GAIKEI
  6
Continuous
 62
     1
 48
25.4
100
AcDbCircle
 10
14.50016812322508
 20
13.59105522103266
 30
0.0
 40
0.3000000000000003
100
AcDbArc
 50
180.0
 51
270.0
  0
LINE
  5
8E
330
2
100
AcDbEntity
  8
GAIKEI
  6
Continuous
 62
     1
 48
25.4
100
AcDbLine
 10
14.20016812322512
 20
13.74105522103264
 30
0.0
 11
14.20016812322512
 21
13.59105522103266
 31
0.0
  0
LINE
  5
8F
330
2
100
AcDbEntity
  8
GAIKEI
  6
Continuous
 62
     1
 48
25.4
100
AcDbLine
 10
11.75016812322508
 20
16.69105522103268
 30
0.0
 11
11.95016812322512
 21
16.69105522103268
 31
0.0
  0
LINE
  5
90
330
2
100
AcDbEntity
  8
GAIKEI
  6
Continuous
 62
     1
 48
25.4
100
AcDbLine
 10
11.75016812322508
 20
14.39105522103267
 30
0.0
 11
11.75016812322508
 21
16.69105522103268
 31
0.0
  0
LINE
  5
91
330
2
100
AcDbEntity
  8
GAIKEI
  6
Continuous
 62
     1
 48
25.4
100
AcDbLine
 10
11.30543428496509
 20
14.64105522103267
 30
0.0
 11
11.30543428496509
 21
16.44105522103268
 31
0.0
  0
LINE
  5
92
330
2
100
AcDbEntity
  8
GAIKEI
  6
Continuous
 62
     1
 48
25.4
100
AcDbLine
 10
11.75016812322508
 20
14.64105522103267
 30
0.0
 11
11.30543428496509
 21
14.64105522103267
 31
0.0
  0
LINE
  5
93
330
2
100
AcDbEntity
  8
GAIKEI
  6
Continuous
 62
     1
 48
25.4
100
AcDbLine
 10
11.75016812322508
 20
16.44105522103268
 30
0.0
 11
11.30543428496509
 21
16.44105522103268
 31
0.0
  0
LINE
  5
94
330
2
100
AcDbEntity
  8
GAIKEI
  6
Continuous
 62
     1
 48
25.4
100
AcDbLine
 10
11.75016812322508
 20
14.39105522103267
 30
0.0
 11
11.95016812322512
 21
14.39105522103267
 31
0.0
  0
LINE
  5
95
330
2
100
AcDbEntity
  8
GAIKEI
  6
Continuous
 62
     1
 48
25.4
100
AcDbLine
 10
39.59016812322511
 20
17.34788139105262
 30
0.0
 11
39.59016812322511
 21
17.93422905100266
 31
0.0
  0
LINE
  5
96
330
2
100
AcDbEntity
  8
GAIKEI
  6
Continuous
 62
     1
 48
25.4
100
AcDbLine
 10
39.59016812322511
 20
14.14788139105263
 30
0.0
 11
39.59016812322511
 21
14.69725628725268
 31
0.0
  0
LINE
  5
97
330
2
100
AcDbEntity
  8
GAIKEI
  6
Continuous
 62
     1
 48
25.4
100
AcDbLine
 10
39.59016812322511
 20
14.69605522103268
 30
0.0
 11
39.59016812322511
 21
14.1510552210326
 31
0.0
  0
ARC
  5
98
330
2
100
AcDbEntity
  8
GAIKEI
  6
Continuous
 62
     1
 48
25.4
100
AcDbCircle
 10
39.52016812322512
 20
17.35105522103265
 30
0.0
 40
0.0700000000000006
100
AcDbArc
 50
180.0
 51
0.0
  0
LINE
  5
99
330
2
100
AcDbEntity
  8
GAIKEI
  6
Continuous
 62
     1
 48
25.4
100
AcDbLine
 10
39.85016812322511
 20
17.2950247141099
 30
0.0
 11
39.85016812322511
 21
14.78708572794539
 31
0.0
  0
LINE
  5
9A
330
2
100
AcDbEntity
  8
GAIKEI
  6
Continuous
 62
     1
 48
25.4
100
AcDbLine
 10
39.85016812322511
 20
17.2950247141099
 30
0.0
 11
39.72045852540509
 21
17.33938461540265
 31
0.0
  0
ARC
  5
9B
330
2
100
AcDbEntity
  8
GAIKEI
  6
Continuous
 62
     1
 48
25.4
100
AcDbCircle
 10
39.52016812322512
 20
14.1510552210326
 30
0.0
 40
0.0700000000000006
100
AcDbArc
 50
180.0
 51
0.0
  0
ARC
  5
9C
330
2
100
AcDbEntity
  8
GAIKEI
  6
Continuous
 62
     1
 48
25.4
100
AcDbCircle
 10
39.52016812322512
 20
17.93105522103263
 30
0.0
 40
0.0699999999999979
100
AcDbArc
 50
0.0
 51
180.0
  0
LINE
  5
9D
330
2
100
AcDbEntity
  8
GAIKEI
  6
Continuous
 62
     1
 48
25.4
100
AcDbLine
 10
39.72045852540509
 20
14.74272582665264
 30
0.0
 11
39.85016812322511
 21
14.78708572794539
 31
0.0
  0
LINE
  5
9E
330
2
100
AcDbEntity
  8
GAIKEI
  6
Continuous
 62
     1
 48
25.4
100
AcDbLine
 10
39.65016812322512
 20
16.00605522103262
 30
0.0
 11
39.45016812322513
 21
16.00605522103262
 31
0.0
  0
LINE
  5
9F
330
2
100
AcDbEntity
  8
GAIKEI
  6
Continuous
 62
     1
 48
25.4
100
AcDbLine
 10
39.65016812322512
 20
14.69605522103268
 30
0.0
 11
39.45016812322513
 21
14.69605522103268
 31
0.0
  0
LINE
  5
A0
330
2
100
AcDbEntity
  8
GAIKEI
  6
Continuous
 62
     1
 48
25.4
100
AcDbLine
 10
39.65016812322512
 20
16.00605522103262
 30
0.0
 11
39.65016812322512
 21
14.69605522103268
 31
0.0
  0
ARC
  5
A1
330
2
100
AcDbEntity
  8
GAIKEI
  6
Continuous
 48
25.4
100
AcDbCircle
 10
-9.807842471337835
 20
18.24105522103264
 30
0.0
 40
0.1000000000000001
100
AcDbArc
 50
0.0
 51
90.0
  0
LINE
  5
A2
330
2
100
AcDbEntity
  8
GAIKEI
  6
Continuous
 48
25.4
100
AcDbLine
 10
-30.60784247133785
 20
18.34105522103266
 30
0.0
 11
-9.807842471337835
 21
18.34105522103266
 31
0.0
  0
LINE
  5
A3
330
2
100
AcDbEntity
  8
GAIKEI
  6
Continuous
 48
25.4
100
AcDbLine
 10
-9.707842471337812
 20
18.24105522103264
 30
0.0
 11
-9.707842471337812
 21
13.84105522103266
 31
0.0
  0
LINE
  5
A4
330
2
100
AcDbEntity
  8
GAIKEI
  6
Continuous
 48
25.4
100
AcDbLine
 10
-30.70784247133782
 20
18.24105522103264
 30
0.0
 11
-30.70784247133782
 21
13.84105522103266
 31
0.0
  0
LINE
  5
A5
330
2
100
AcDbEntity
  8
GAIKEI
  6
Continuous
 62
     1
 48
25.4
100
AcDbLine
 10
-9.807842471337835
 20
18.24105522103264
 30
0.0
 11
-30.60784247133785
 21
18.24105522103264
 31
0.0
  0
LINE
  5
A6
330
2
100
AcDbEntity
  8
GAIKEI
  6
Continuous
 62
     1
 48
25.4
100
AcDbLine
 10
-9.807842471337835
 20
13.84105522103266
 30
0.0
 11
-9.807842471337835
 21
18.24105522103264
 31
0.0
  0
LINE
  5
A7
330
2
100
AcDbEntity
  8
GAIKEI
  6
Continuous
 62
     1
 48
25.4
100
AcDbLine
 10
-30.60784247133785
 20
18.24105522103264
 30
0.0
 11
-30.60784247133785
 21
13.84105522103266
 31
0.0
  0
LINE
  5
A8
330
2
100
AcDbEntity
  8
GAIKEI
  6
Continuous
 48
25.4
100
AcDbLine
 10
-30.60784247133785
 20
13.84105522103266
 30
0.0
 11
-30.70784247133782
 21
13.84105522103266
 31
0.0
  0
ARC
  5
A9
330
2
100
AcDbEntity
  8
GAIKEI
  6
Continuous
 48
25.4
100
AcDbCircle
 10
-30.60784247133785
 20
18.24105522103264
 30
0.0
 40
0.1000000000000001
100
AcDbArc
 50
90.0
 51
180.0
  0
LINE
  5
AA
330
2
100
AcDbEntity
  8
GAIKEI
  6
Continuous
 48
25.4
100
AcDbLine
 10
-9.907842471337858
 20
13.74105522103264
 30
0.0
 11
-30.50784247133782
 21
13.74105522103264
 31
0.0
  0
ARC
  5
AB
330
2
100
AcDbEntity
  8
GAIKEI
  6
Continuous
 48
25.4
100
AcDbCircle
 10
-30.50784247133782
 20
13.84105522103266
 30
0.0
 40
0.0999999999999987
100
AcDbArc
 50
180.0
 51
270.0
  0
CIRCLE
  5
AC
330
2
100
AcDbEntity
  8
GAIKEI
  6
Continuous
 62
     1
 48
25.4
100
AcDbCircle
 10
-25.60784247133785
 20
15.54105522103265
 30
0.0
 40
0.35
  0
CIRCLE
  5
AD
330
2
100
AcDbEntity
  8
GAIKEI
  6
Continuous
 62
     1
 48
25.4
100
AcDbCircle
 10
-25.60784247133785
 20
15.54105522103265
 30
0.0
 40
0.25
  0
ARC
  5
AE
330
2
100
AcDbEntity
  8
GAIKEI
  6
Continuous
 62
     1
 48
25.4
100
AcDbCircle
 10
-18.56034247133783
 20
13.59105522103266
 30
0.0
 40
0.020000000000097
100
AcDbArc
 50
90.00000000029965
 51
179.9999999997003
  0
ARC
  5
AF
330
2
100
AcDbEntity
  8
GAIKEI
  6
Continuous
 62
     1
 48
25.4
100
AcDbCircle
 10
-18.05534247133784
 20
13.59105522103266
 30
0.0
 40
0.0199999999998398
100
AcDbArc
 50
0.0
 51
90.00000000049993
  0
ARC
  5
B0
330
2
100
AcDbEntity
  8
GAIKEI
  6
Continuous
 62
     1
 48
25.4
100
AcDbCircle
 10
-18.12034247133783
 20
13.50605522103262
 30
0.0
 40
0.0849999999998255
100
AcDbArc
 50
269.999999999899
 51
0.0
  0
ARC
  5
B1
330
2
100
AcDbEntity
  8
GAIKEI
  6
Continuous
 62
     1
 48
25.4
100
AcDbCircle
 10
-18.49534247133783
 20
13.50605522103262
 30
0.0
 40
0.0850000000001151
100
AcDbArc
 50
180.0
 51
269.999999999899
  0
LINE
  5
B2
330
2
100
AcDbEntity
  8
GAIKEI
  6
Continuous
 62
     1
 48
25.4
100
AcDbLine
 10
-18.05534247133784
 20
13.61105522103264
 30
0.0
 11
-18.56034247133783
 21
13.61105522103264
 31
0.0
  0
LINE
  5
B3
330
2
100
AcDbEntity
  8
GAIKEI
  6
Continuous
 62
     1
 48
25.4
100
AcDbLine
 10
-18.58284247133781
 20
13.62105522103263
 30
0.0
 11
-18.03284247133786
 21
13.62105522103263
 31
0.0
  0
LINE
  5
B4
330
2
100
AcDbEntity
  8
GAIKEI
  6
Continuous
 62
     1
 48
25.4
100
AcDbLine
 10
-18.30784247133783
 20
13.69105522103268
 30
0.0
 11
-18.70784247133781
 21
13.69105522103268
 31
0.0
  0
LINE
  5
B5
330
2
100
AcDbEntity
  8
GAIKEI
  6
Continuous
 62
     1
 48
25.4
100
AcDbLine
 10
-18.30784247133783
 20
13.69105522103268
 30
0.0
 11
-17.90784247133785
 21
13.69105522103268
 31
0.0
  0
LINE
  5
B6
330
2
100
AcDbEntity
  8
GAIKEI
  6
Continuous
 62
     1
 48
25.4
100
AcDbLine
 10
-18.58034247133781
 20
13.50605522103262
 30
0.0
 11
-18.03534247133785
 21
13.50605522103262
 31
0.0
  0
LINE
  5
B7
330
2
100
AcDbEntity
  8
GAIKEI
  6
Continuous
 62
     1
 48
25.4
100
AcDbLine
 10
-17.90784247133785
 20
13.69105522103268
 30
0.0
 11
-17.90784247133785
 21
13.74105522103264
 31
0.0
  0
LINE
  5
B8
330
2
100
AcDbEntity
  8
GAIKEI
  6
Continuous
 62
     1
 48
25.4
100
AcDbLine
 10
-18.58284247133781
 20
13.69105522103268
 30
0.0
 11
-18.58284247133781
 21
13.62105522103263
 31
0.0
  0
LINE
  5
B9
330
2
100
AcDbEntity
  8
GAIKEI
  6
Continuous
 62
     1
 48
25.4
100
AcDbLine
 10
-18.58034247133781
 20
13.59105522103266
 30
0.0
 11
-18.58034247133787
 21
13.50605522103262
 31
0.0
  0
LINE
  5
BA
330
2
100
AcDbEntity
  8
GAIKEI
  6
Continuous
 62
     1
 48
25.4
100
AcDbLine
 10
-18.70784247133781
 20
13.74105522103264
 30
0.0
 11
-18.70784247133781
 21
13.69105522103268
 31
0.0
  0
LINE
  5
BB
330
2
100
AcDbEntity
  8
GAIKEI
  6
Continuous
 62
     1
 48
25.4
100
AcDbLine
 10
-18.03284247133786
 20
13.62105522103263
 30
0.0
 11
-18.03284247133786
 21
13.69105522103268
 31
0.0
  0
LINE
  5
BC
330
2
100
AcDbEntity
  8
GAIKEI
  6
Continuous
 62
     1
 48
25.4
100
AcDbLine
 10
-18.03534247133785
 20
13.50605522103262
 30
0.0
 11
-18.03534247133785
 21
13.59105522103266
 31
0.0
  0
LINE
  5
BD
330
2
100
AcDbEntity
  8
GAIKEI
  6
Continuous
 62
     1
 48
25.4
100
AcDbLine
 10
-18.12034247133783
 20
13.42105522103264
 30
0.0
 11
-18.49534247133783
 21
13.42105522103264
 31
0.0
  0
LINE
  5
BE
330
2
100
AcDbEntity
  8
GAIKEI
  6
Continuous
 62
     1
 48
25.4
100
AcDbLine
 10
-30.87564388690783
 20
14.15105491295264
 30
0.0
 11
-30.89397532894651
 21
14.15105490128121
 31
0.0
  0
ARC
  5
BF
330
2
100
AcDbEntity
  8
GAIKEI
  6
Continuous
 62
     1
 48
25.4
100
AcDbCircle
 10
-30.82803269903787
 20
13.90664690017263
 30
0.0
 40
0.0200000000014366
100
AcDbArc
 50
199.8927000158998
 51
265.0245894815002
  0
LINE
  5
C0
330
2
100
AcDbEntity
  8
GAIKEI
  6
Continuous
 62
     1
 48
25.4
100
AcDbLine
 10
-30.82977581418783
 20
13.88672300624262
 30
0.0
 11
-30.70784247133782
 21
13.87605522103615
 31
0.0
  0
LINE
  5
C1
330
2
100
AcDbEntity
  8
GAIKEI
  6
Continuous
 62
     1
 48
25.4
100
AcDbLine
 10
-30.87730765416444
 20
14.23105487884197
 30
0.0
 11
-30.87564388690783
 21
14.15105491295264
 31
0.0
  0
ARC
  5
C2
330
2
100
AcDbEntity
  8
GAIKEI
  6
Continuous
 62
     1
 48
25.4
100
AcDbCircle
 10
-11.25784247133782
 20
13.59105522103266
 30
0.0
 40
0.3
100
AcDbArc
 50
270.0
 51
0.0
  0
LINE
  5
C3
330
2
100
AcDbEntity
  8
GAIKEI
  6
Continuous
 62
     1
 48
25.4
100
AcDbLine
 10
-10.95784247133781
 20
13.59105522103266
 30
0.0
 11
-10.95784247133781
 21
13.74105522103264
 31
0.0
  0
LINE
  5
C4
330
2
100
AcDbEntity
  8
GAIKEI
  6
Continuous
 62
     1
 48
25.4
100
AcDbLine
 10
-11.55784247133783
 20
13.29105522103265
 30
0.0
 11
-11.25784247133782
 21
13.29105522103265
 31
0.0
  0
ARC
  5
C5
330
2
100
AcDbEntity
  8
GAIKEI
  6
Continuous
 62
     1
 48
25.4
100
AcDbCircle
 10
-11.55784247133783
 20
13.59105522103266
 30
0.0
 40
0.3000000000000003
100
AcDbArc
 50
180.0
 51
270.0
  0
LINE
  5
C6
330
2
100
AcDbEntity
  8
GAIKEI
  6
Continuous
 62
     1
 48
25.4
100
AcDbLine
 10
-11.85784247133784
 20
13.74105522103264
 30
0.0
 11
-11.85784247133784
 21
13.59105522103266
 31
0.0
  0
LINE
  5
C7
330
2
100
AcDbEntity
  8
GAIKEI
  6
Continuous
 62
     1
 48
25.4
100
AcDbLine
 10
-29.15784247133786
 20
13.29105522103265
 30
0.0
 11
-28.85784247133785
 21
13.29105522103265
 31
0.0
  0
ARC
  5
C8
330
2
100
AcDbEntity
  8
GAIKEI
  6
Continuous
 62
     1
 48
25.4
100
AcDbCircle
 10
-29.15784247133786
 20
13.59105522103266
 30
0.0
 40
0.3000000000000003
100
AcDbArc
 50
180.0
 51
270.0
  0
LINE
  5
C9
330
2
100
AcDbEntity
  8
GAIKEI
  6
Continuous
 62
     1
 48
25.4
100
AcDbLine
 10
-29.45784247133781
 20
13.74105522103264
 30
0.0
 11
-29.45784247133781
 21
13.59105522103266
 31
0.0
  0
LINE
  5
CA
330
2
100
AcDbEntity
  8
GAIKEI
  6
Continuous
 62
     1
 48
25.4
100
AcDbLine
 10
-28.55784247133783
 20
13.59105522103266
 30
0.0
 11
-28.55784247133783
 21
13.74105522103264
 31
0.0
  0
ARC
  5
CB
330
2
100
AcDbEntity
  8
GAIKEI
  6
Continuous
 62
     1
 48
25.4
100
AcDbCircle
 10
-28.85784247133785
 20
13.59105522103266
 30
0.0
 40
0.3000000000000002
100
AcDbArc
 50
270.0
 51
0.0
  0
LINE
  5
CC
330
2
100
AcDbEntity
  8
GAIKEI
  6
Continuous
 62
     1
 48
25.4
100
AcDbLine
 10
-29.70784247133781
 20
14.39105522103261
 30
0.0
 11
-26.50784247133783
 21
14.39105522103261
 31
0.0
  0
LINE
  5
CD
330
2
100
AcDbEntity
  8
GAIKEI
  6
Continuous
 62
     1
 48
25.4
100
AcDbLine
 10
-26.50784247133783
 20
16.69105522103268
 30
0.0
 11
-29.70784247133781
 21
16.69105522103268
 31
0.0
  0
LINE
  5
CE
330
2
100
AcDbEntity
  8
GAIKEI
  6
Continuous
 62
     1
 48
25.4
100
AcDbLine
 10
-26.50784247133783
 20
14.39105522103261
 30
0.0
 11
-26.50784247133783
 21
16.69105522103268
 31
0.0
  0
LINE
  5
CF
330
2
100
AcDbEntity
  8
GAIKEI
  6
Continuous
 62
     1
 48
25.4
100
AcDbLine
 10
-29.70784247133781
 20
16.69105522103268
 30
0.0
 11
-29.70784247133781
 21
14.39105522103261
 31
0.0
  0
LINE
  5
D0
330
2
100
AcDbEntity
  8
GAIKEI
  6
Continuous
 62
     1
 48
25.4
100
AcDbLine
 10
-26.97700854414785
 20
14.64105522103261
 30
0.0
 11
-26.97700854414785
 21
16.44105522103268
 31
0.0
  0
LINE
  5
D1
330
2
100
AcDbEntity
  8
GAIKEI
  6
Continuous
 62
     1
 48
25.4
100
AcDbLine
 10
-26.85784247133785
 20
14.64105522103261
 30
0.0
 11
-26.85784247133785
 21
16.44105522103268
 31
0.0
  0
LINE
  5
D2
330
2
100
AcDbEntity
  8
GAIKEI
  6
Continuous
 62
     1
 48
25.4
100
AcDbLine
 10
-26.97700854414785
 20
14.64105522103261
 30
0.0
 11
-29.35784247133785
 21
14.64105522103261
 31
0.0
  0
LINE
  5
D3
330
2
100
AcDbEntity
  8
GAIKEI
  6
Continuous
 62
     1
 48
25.4
100
AcDbLine
 10
-29.35784247133785
 20
14.64105522103261
 30
0.0
 11
-29.35784247133785
 21
16.44105522103268
 31
0.0
  0
LINE
  5
D4
330
2
100
AcDbEntity
  8
GAIKEI
  6
Continuous
 62
     1
 48
25.4
100
AcDbLine
 10
-26.97700854414785
 20
16.44105522103268
 30
0.0
 11
-29.35784247133785
 21
16.44105522103268
 31
0.0
  0
LINE
  5
D5
330
2
100
AcDbEntity
  8
GAIKEI
  6
Continuous
 62
     1
 48
25.4
100
AcDbLine
 10
-26.85784247133785
 20
14.64105522103261
 30
0.0
 11
-26.97700854414785
 21
14.64105522103261
 31
0.0
  0
LINE
  5
D6
330
2
100
AcDbEntity
  8
GAIKEI
  6
Continuous
 62
     1
 48
25.4
100
AcDbLine
 10
-26.85784247133785
 20
16.44105522103268
 30
0.0
 11
-26.97700854414785
 21
16.44105522103268
 31
0.0
  0
ARC
  5
D7
330
2
100
AcDbEntity
  8
GAIKEI
 62
     1
100
AcDbCircle
 10
-30.09510396820116
 20
14.17092110892179
 30
0.0
 40
0.7991183374351233
100
AcDbArc
 50
181.4245288550713
 51
199.8282970550447
  0
ARC
  5
D8
330
2
100
AcDbEntity
  8
GAIKEI
 62
     1
100
AcDbCircle
 10
-30.09510399568114
 20
14.21118868181349
 30
0.0
 40
0.7991183374351233
100
AcDbArc
 50
160.1717029449553
 51
178.5754711449286
  0
LINE
  5
D9
330
2
100
AcDbEntity
  8
GAIKEI
  6
Continuous
 62
     1
 48
25.4
100
AcDbLine
 10
-30.82977584166781
 20
14.49538678449266
 30
0.0
 11
-30.70784249881786
 21
14.50605456969913
 31
0.0
  0
ARC
  5
DA
330
2
100
AcDbEntity
  8
GAIKEI
  6
Continuous
 62
     1
 48
25.4
100
AcDbCircle
 10
-30.82803272651785
 20
14.47546289056265
 30
0.0
 40
0.0200000000014366
100
AcDbArc
 50
94.97541051849976
 51
160.1072999841002
  0
LINE
  5
DB
330
2
100
AcDbEntity
  8
GAIKEI
  6
Continuous
 62
     1
 48
25.4
100
AcDbLine
 10
-30.87730765416444
 20
14.23105487884197
 30
0.0
 11
-30.8939753564265
 21
14.23105488945407
 31
0.0
  0
LINE
  5
DC
330
2
100
AcDbEntity
  8
GAIKEI
  6
Continuous
 62
     1
 48
25.4
100
AcDbLine
 10
-26.46784248339856
 20
18.5105203763793
 30
0.0
 11
-26.4678424727864
 21
18.5271880786413
 31
0.0
  0
ARC
  5
DD
330
2
100
AcDbEntity
  8
GAIKEI
  6
Continuous
 62
     1
 48
25.4
100
AcDbCircle
 10
-26.22343447167782
 20
18.46124544873265
 30
0.0
 40
0.0200000000014366
100
AcDbArc
 50
4.97541051849969
 51
70.10729998409994
  0
LINE
  5
DE
330
2
100
AcDbEntity
  8
GAIKEI
  6
Continuous
 62
     1
 48
25.4
100
AcDbLine
 10
-26.20351057774781
 20
18.46298856388267
 30
0.0
 11
-26.19284279254134
 21
18.34105522103266
 31
0.0
  0
ARC
  5
DF
330
2
100
AcDbEntity
  8
GAIKEI
 62
     1
100
AcDbCircle
 10
-26.48770868042698
 20
17.72831671789601
 30
0.0
 40
0.7991183374351233
100
AcDbArc
 50
70.1717029449571
 51
88.57547114493028
  0
ARC
  5
E0
330
2
100
AcDbEntity
  8
GAIKEI
 62
     1
100
AcDbCircle
 10
-26.52797625331869
 20
17.72831669041602
 30
0.0
 40
0.7991183374351233
100
AcDbArc
 50
91.42452885506971
 51
109.8282970550429
  0
LINE
  5
E1
330
2
100
AcDbEntity
  8
GAIKEI
  6
Continuous
 62
     1
 48
25.4
100
AcDbLine
 10
-26.46784248339856
 20
18.5105203763793
 30
0.0
 11
-26.54784244928783
 21
18.50885660912263
 31
0.0
  0
LINE
  5
E2
330
2
100
AcDbEntity
  8
GAIKEI
  6
Continuous
 62
     1
 48
25.4
100
AcDbLine
 10
-26.81217435599786
 20
18.46298853640269
 30
0.0
 11
-26.82284214120432
 21
18.34105519355268
 31
0.0
  0
ARC
  5
E3
330
2
100
AcDbEntity
  8
GAIKEI
  6
Continuous
 62
     1
 48
25.4
100
AcDbCircle
 10
-26.79225046206784
 20
18.46124542125267
 30
0.0
 40
0.0200000000014366
100
AcDbArc
 50
109.8927000159
 51
175.0245894815003
  0
LINE
  5
E4
330
2
100
AcDbEntity
  8
GAIKEI
  6
Continuous
 62
     1
 48
25.4
100
AcDbLine
 10
-26.54784244928783
 20
18.50885660912263
 30
0.0
 11
-26.54784246095926
 21
18.52718805116132
 31
0.0
  0
LINE
  5
E5
330
2
100
AcDbEntity
  8
GAIKEI
  6
Continuous
 62
     1
 48
25.4
100
AcDbLine
 10
-23.54784244928783
 20
18.50885660912263
 30
0.0
 11
-23.54784246095926
 21
18.52718805116132
 31
0.0
  0
ARC
  5
E6
330
2
100
AcDbEntity
  8
GAIKEI
  6
Continuous
 62
     1
 48
25.4
100
AcDbCircle
 10
-23.79225046206784
 20
18.46124542125267
 30
0.0
 40
0.0200000000014366
100
AcDbArc
 50
109.8927000159
 51
175.0245894815003
  0
LINE
  5
E7
330
2
100
AcDbEntity
  8
GAIKEI
  6
Continuous
 62
     1
 48
25.4
100
AcDbLine
 10
-23.81217435599785
 20
18.46298853640269
 30
0.0
 11
-23.82284214120432
 21
18.34105519355268
 31
0.0
  0
LINE
  5
E8
330
2
100
AcDbEntity
  8
GAIKEI
  6
Continuous
 62
     1
 48
25.4
100
AcDbLine
 10
-23.46784248339856
 20
18.5105203763793
 30
0.0
 11
-23.54784244928783
 21
18.50885660912263
 31
0.0
  0
ARC
  5
E9
330
2
100
AcDbEntity
  8
GAIKEI
 62
     1
100
AcDbCircle
 10
-23.52797625331868
 20
17.72831669041602
 30
0.0
 40
0.7991183374351233
100
AcDbArc
 50
91.42452885506971
 51
109.8282970550429
  0
ARC
  5
EA
330
2
100
AcDbEntity
  8
GAIKEI
 62
     1
100
AcDbCircle
 10
-23.48770868042698
 20
17.72831671789601
 30
0.0
 40
0.7991183374351233
100
AcDbArc
 50
70.1717029449571
 51
88.57547114493028
  0
LINE
  5
EB
330
2
100
AcDbEntity
  8
GAIKEI
  6
Continuous
 62
     1
 48
25.4
100
AcDbLine
 10
-23.20351057774781
 20
18.46298856388267
 30
0.0
 11
-23.19284279254134
 21
18.34105522103266
 31
0.0
  0
ARC
  5
EC
330
2
100
AcDbEntity
  8
GAIKEI
  6
Continuous
 62
     1
 48
25.4
100
AcDbCircle
 10
-23.22343447167782
 20
18.46124544873265
 30
0.0
 40
0.0200000000014366
100
AcDbArc
 50
4.97541051849969
 51
70.10729998409994
  0
LINE
  5
ED
330
2
100
AcDbEntity
  8
GAIKEI
  6
Continuous
 62
     1
 48
25.4
100
AcDbLine
 10
-23.46784248339856
 20
18.5105203763793
 30
0.0
 11
-23.4678424727864
 21
18.5271880786413
 31
0.0
  0
LINE
  5
EE
330
2
100
AcDbEntity
  8
GAIKEI
  6
Continuous
 62
     1
 48
25.4
100
AcDbLine
 10
-13.86784248339853
 20
18.5105203763793
 30
0.0
 11
-13.86784247278643
 21
18.5271880786413
 31
0.0
  0
ARC
  5
EF
330
2
100
AcDbEntity
  8
GAIKEI
  6
Continuous
 62
     1
 48
25.4
100
AcDbCircle
 10
-13.62343447167785
 20
18.46124544873265
 30
0.0
 40
0.0200000000014366
100
AcDbArc
 50
4.97541051849969
 51
70.10729998409994
  0
LINE
  5
F0
330
2
100
AcDbEntity
  8
GAIKEI
  6
Continuous
 62
     1
 48
25.4
100
AcDbLine
 10
-13.60351057774784
 20
18.46298856388267
 30
0.0
 11
-13.59284279254137
 21
18.34105522103266
 31
0.0
  0
ARC
  5
F1
330
2
100
AcDbEntity
  8
GAIKEI
 62
     1
100
AcDbCircle
 10
-13.88770868042701
 20
17.72831671789601
 30
0.0
 40
0.7991183374351233
100
AcDbArc
 50
70.1717029449571
 51
88.57547114493028
  0
ARC
  5
F2
330
2
100
AcDbEntity
  8
GAIKEI
 62
     1
100
AcDbCircle
 10
-13.92797625331866
 20
17.72831669041602
 30
0.0
 40
0.7991183374351233
100
AcDbArc
 50
91.42452885506971
 51
109.8282970550429
  0
LINE
  5
F3
330
2
100
AcDbEntity
  8
GAIKEI
  6
Continuous
 62
     1
 48
25.4
100
AcDbLine
 10
-13.86784248339853
 20
18.5105203763793
 30
0.0
 11
-13.94784244928786
 21
18.50885660912263
 31
0.0
  0
LINE
  5
F4
330
2
100
AcDbEntity
  8
GAIKEI
  6
Continuous
 62
     1
 48
25.4
100
AcDbLine
 10
-14.21217435599783
 20
18.46298853640269
 30
0.0
 11
-14.22284214120429
 21
18.34105519355268
 31
0.0
  0
ARC
  5
F5
330
2
100
AcDbEntity
  8
GAIKEI
  6
Continuous
 62
     1
 48
25.4
100
AcDbCircle
 10
-14.19225046206782
 20
18.46124542125267
 30
0.0
 40
0.0200000000014366
100
AcDbArc
 50
109.8927000159
 51
175.0245894815003
  0
LINE
  5
F6
330
2
100
AcDbEntity
  8
GAIKEI
  6
Continuous
 62
     1
 48
25.4
100
AcDbLine
 10
-13.94784244928786
 20
18.50885660912263
 30
0.0
 11
-13.94784246095923
 21
18.52718805116132
 31
0.0
  0
LINE
  5
F7
330
2
100
AcDbEntity
  8
GAIKEI
  6
Continuous
 62
     1
 48
25.4
100
AcDbLine
 10
-9.538377288511242
 20
14.23105487884197
 30
0.0
 11
-9.521709586249187
 21
14.23105488945407
 31
0.0
  0
ARC
  5
F8
330
2
100
AcDbEntity
  8
GAIKEI
  6
Continuous
 62
     1
 48
25.4
100
AcDbCircle
 10
-9.587652216157835
 20
14.47546289056265
 30
0.0
 40
0.0200000000014366
100
AcDbArc
 50
19.89270001589979
 51
85.02458948150025
  0
LINE
  5
F9
330
2
100
AcDbEntity
  8
GAIKEI
  6
Continuous
 62
     1
 48
25.4
100
AcDbLine
 10
-9.585909101007814
 20
14.49538678449266
 30
0.0
 11
-9.707842443857828
 21
14.50605456969913
 31
0.0
  0
ARC
  5
FA
330
2
100
AcDbEntity
  8
GAIKEI
 62
     1
100
AcDbCircle
 10
-10.32058094699448
 20
14.21118868181349
 30
0.0
 40
0.7991183374351233
100
AcDbArc
 50
1.424528855071363
 51
19.82829705504471
  0
ARC
  5
FB
330
2
100
AcDbEntity
  8
GAIKEI
 62
     1
100
AcDbCircle
 10
-10.32058097447446
 20
14.17092110892179
 30
0.0
 40
0.7991183374351233
100
AcDbArc
 50
340.1717029449553
 51
358.5754711449287
  0
LINE
  5
FC
330
2
100
AcDbEntity
  8
GAIKEI
  6
Continuous
 62
     1
 48
25.4
100
AcDbLine
 10
-9.538377288511242
 20
14.23105487884197
 30
0.0
 11
-9.540041055767801
 21
14.15105491295264
 31
0.0
  0
LINE
  5
FD
330
2
100
AcDbEntity
  8
GAIKEI
  6
Continuous
 62
     1
 48
25.4
100
AcDbLine
 10
-9.585909128487799
 20
13.88672300624262
 30
0.0
 11
-9.707842471337812
 21
13.87605522103615
 31
0.0
  0
ARC
  5
FE
330
2
100
AcDbEntity
  8
GAIKEI
  6
Continuous
 62
     1
 48
25.4
100
AcDbCircle
 10
-9.587652243637819
 20
13.90664690017263
 30
0.0
 40
0.0200000000014366
100
AcDbArc
 50
274.9754105184997
 51
340.1072999841002
  0
LINE
  5
FF
330
2
100
AcDbEntity
  8
GAIKEI
  6
Continuous
 62
     1
 48
25.4
100
AcDbLine
 10
-9.540041055767801
 20
14.15105491295264
 30
0.0
 11
-9.521709613729171
 21
14.15105490128121
 31
0.0
  0
ARC
  5
100
330
2
100
AcDbEntity
  8
GAIKEI
  6
Continuous
 48
25.4
100
AcDbCircle
 10
-9.907842471337801
 20
13.84105522103266
 30
0.0
 40
0.0999999999999987
100
AcDbArc
 50
270.0
 51
0.0
  0
LINE
  5
101
330
2
100
AcDbEntity
  8
GAIKEI
  6
Continuous
 48
25.4
100
AcDbLine
 10
-9.807842471337835
 20
14.04105522103265
 30
0.0
 11
-9.807842471337835
 21
13.84105522103266
 31
0.0
  0
LINE
  5
102
330
2
100
AcDbEntity
  8
GAIKEI
  6
Continuous
 48
25.4
100
AcDbLine
 10
-9.807842471337835
 20
13.84105522103266
 30
0.0
 11
-9.707842471337812
 21
13.84105522103266
 31
0.0
  0
LINE
  5
103
330
2
100
AcDbEntity
  8
GAIKEI
  6
Continuous
 48
25.4
100
AcDbLine
 10
-9.707842471337812
 20
13.84105522103266
 30
0.0
 11
-9.707842471337812
 21
14.04105522103265
 31
0.0
  0
LINE
  5
104
330
2
100
AcDbEntity
  8
GAIKEI
  6
Continuous
 62
     1
 48
25.4
100
AcDbLine
 10
12.36927551693242
 20
18.50885660912263
 30
0.0
 11
12.36927550526099
 21
18.52718805116132
 31
0.0
  0
ARC
  5
105
330
2
100
AcDbEntity
  8
GAIKEI
  6
Continuous
 62
     1
 48
25.4
100
AcDbCircle
 10
12.1248675041524
 20
18.46124542125267
 30
0.0
 40
0.0200000000014366
100
AcDbArc
 50
109.8927000159
 51
175.0245894815003
  0
LINE
  5
106
330
2
100
AcDbEntity
  8
GAIKEI
  6
Continuous
 62
     1
 48
25.4
100
AcDbLine
 10
12.10494361022239
 20
18.46298853640269
 30
0.0
 11
12.09427582501592
 21
18.34105519355268
 31
0.0
  0
LINE
  5
107
330
2
100
AcDbEntity
  8
GAIKEI
  6
Continuous
 62
     1
 48
25.4
100
AcDbLine
 10
12.44927548282169
 20
18.5105203763793
 30
0.0
 11
12.36927551693242
 21
18.50885660912263
 31
0.0
  0
ARC
  5
108
330
2
100
AcDbEntity
  8
GAIKEI
 62
     1
100
AcDbCircle
 10
12.38914171290156
 20
17.72831669041602
 30
0.0
 40
0.7991183374351233
100
AcDbArc
 50
91.42452885506971
 51
109.8282970550429
  0
ARC
  5
109
330
2
100
AcDbEntity
  8
GAIKEI
 62
     1
100
AcDbCircle
 10
12.42940928579327
 20
17.72831671789601
 30
0.0
 40
0.7991183374351233
100
AcDbArc
 50
70.1717029449571
 51
88.57547114493028
  0
LINE
  5
10A
330
2
100
AcDbEntity
  8
GAIKEI
  6
Continuous
 62
     1
 48
25.4
100
AcDbLine
 10
12.71360738847238
 20
18.46298856388267
 30
0.0
 11
12.72427517367885
 21
18.34105522103266
 31
0.0
  0
ARC
  5
10B
330
2
100
AcDbEntity
  8
GAIKEI
  6
Continuous
 62
     1
 48
25.4
100
AcDbCircle
 10
12.69368349454242
 20
18.46124544873265
 30
0.0
 40
0.0200000000014366
100
AcDbArc
 50
4.97541051849969
 51
70.10729998409994
  0
LINE
  5
10C
330
2
100
AcDbEntity
  8
GAIKEI
  6
Continuous
 62
     1
 48
25.4
100
AcDbLine
 10
12.44927548282169
 20
18.5105203763793
 30
0.0
 11
12.44927549343384
 21
18.5271880786413
 31
0.0
  0
LINE
  5
10D
330
2
100
AcDbEntity
  8
GAIKEI
  6
Continuous
 62
     1
 48
25.4
100
AcDbLine
 10
38.9692755080124
 20
18.50885660912263
 30
0.0
 11
38.96927549634097
 21
18.52718805116132
 31
0.0
  0
ARC
  5
10E
330
2
100
AcDbEntity
  8
GAIKEI
  6
Continuous
 62
     1
 48
25.4
100
AcDbCircle
 10
38.72486749523245
 20
18.46124542125267
 30
0.0
 40
0.0200000000014366
100
AcDbArc
 50
109.8927000159
 51
175.0245894815003
  0
LINE
  5
10F
330
2
100
AcDbEntity
  8
GAIKEI
  6
Continuous
 62
     1
 48
25.4
100
AcDbLine
 10
38.70494360130243
 20
18.46298853640269
 30
0.0
 11
38.69427581609597
 21
18.34105519355262
 31
0.0
  0
LINE
  5
110
330
2
100
AcDbEntity
  8
GAIKEI
  6
Continuous
 62
     1
 48
25.4
100
AcDbLine
 10
39.04927547390173
 20
18.5105203763793
 30
0.0
 11
38.9692755080124
 21
18.50885660912263
 31
0.0
  0
ARC
  5
111
330
2
100
AcDbEntity
  8
GAIKEI
 62
     1
100
AcDbCircle
 10
38.98914170398155
 20
17.72831669041602
 30
0.0
 40
0.7991183374351233
100
AcDbArc
 50
91.42452885506971
 51
109.8282970550429
  0
ARC
  5
112
330
2
100
AcDbEntity
  8
GAIKEI
 62
     1
100
AcDbCircle
 10
39.02940927687325
 20
17.72831671789601
 30
0.0
 40
0.7991183374351233
100
AcDbArc
 50
70.1717029449571
 51
88.57547114493028
  0
LINE
  5
113
330
2
100
AcDbEntity
  8
GAIKEI
  6
Continuous
 62
     1
 48
25.4
100
AcDbLine
 10
39.31360737955242
 20
18.46298856388262
 30
0.0
 11
39.32427516475889
 21
18.34105522103266
 31
0.0
  0
ARC
  5
114
330
2
100
AcDbEntity
  8
GAIKEI
  6
Continuous
 62
     1
 48
25.4
100
AcDbCircle
 10
39.29368348562241
 20
18.46124544873265
 30
0.0
 40
0.0200000000014366
100
AcDbArc
 50
4.97541051849969
 51
70.10729998409994
  0
LINE
  5
115
330
2
100
AcDbEntity
  8
GAIKEI
  6
Continuous
 62
     1
 48
25.4
100
AcDbLine
 10
39.04927547390173
 20
18.5105203763793
 30
0.0
 11
39.04927548451383
 21
18.5271880786413
 31
0.0
  0
LINE
  5
116
330
2
100
AcDbEntity
  8
GAIKEI
  6
Continuous
 62
     1
 48
25.4
100
AcDbLine
 10
27.26056321225508
 20
14.23105552911261
 30
0.0
 11
27.41016811858117
 21
14.23105554649839
 31
0.0
  0
LINE
  5
117
330
2
100
AcDbEntity
  8
GAIKEI
  6
Continuous
 62
     1
 48
25.4
100
AcDbLine
 10
27.49016811858229
 20
14.23105555580662
 30
0.0
 11
27.63977302489508
 21
14.23105557319263
 31
0.0
  0
LINE
  5
118
330
2
100
AcDbEntity
  8
GAIKEI
  6
Continuous
 62
     1
 48
25.4
100
AcDbLine
 10
27.63977305251513
 20
14.15105557319259
 30
0.0
 11
27.49016812788733
 21
14.15105555580663
 31
0.0
  0
LINE
  5
119
330
2
100
AcDbEntity
  8
GAIKEI
  6
Continuous
 62
     1
 48
25.4
100
AcDbLine
 10
27.49016812788733
 20
14.15105555580663
 30
0.0
 11
27.49016814527511
 21
14.00145031020264
 31
0.0
  0
LINE
  5
11A
330
2
100
AcDbEntity
  8
GAIKEI
  6
Continuous
 62
     1
 48
25.4
100
AcDbLine
 10
27.41016814527512
 20
14.00145030090266
 30
0.0
 11
27.41016812788939
 21
14.15105554649847
 31
0.0
  0
ARC
  5
11B
330
2
100
AcDbEntity
  8
GAIKEI
  6
Continuous
 62
     1
 48
25.4
100
AcDbCircle
 10
27.45016812322513
 20
14.19105522102262
 30
0.0
 40
0.3130977239402319
100
AcDbArc
 50
0.0000066604010851
 51
180.0000066602969
  0
ARC
  5
11C
330
2
100
AcDbEntity
  8
GAIKEI
  6
Continuous
 62
     1
 48
25.4
100
AcDbCircle
 10
27.45016812322513
 20
14.19105522102262
 30
0.0
 40
0.3130977239402319
100
AcDbArc
 50
180.0000066602969
 51
0.0000066604010851
  0
LINE
  5
11D
330
2
100
AcDbEntity
  8
GAIKEI
  6
Continuous
 62
     1
 48
25.4
100
AcDbLine
 10
27.41016811858117
 20
14.23105554649839
 30
0.0
 11
27.4101681011951
 21
14.38066013186267
 31
0.0
  0
LINE
  5
11E
330
2
100
AcDbEntity
  8
GAIKEI
  6
Continuous
 62
     1
 48
25.4
100
AcDbLine
 10
27.49016810119508
 20
14.38066014115264
 30
0.0
 11
27.49016811858229
 21
14.23105555580662
 31
0.0
  0
LINE
  5
11F
330
2
100
AcDbEntity
  8
GAIKEI
  6
Continuous
 62
     1
 48
25.4
100
AcDbLine
 10
27.41016812788939
 20
14.15105554649847
 30
0.0
 11
27.26056320323511
 21
14.15105552911268
 31
0.0
  0
LINE
  5
120
330
2
100
AcDbEntity
  8
GAIKEI
  6
Continuous
 62
     1
 48
25.4
100
AcDbLine
 10
34.2101681278894
 20
14.15105554649847
 30
0.0
 11
34.06056320323512
 21
14.15105552911268
 31
0.0
  0
LINE
  5
121
330
2
100
AcDbEntity
  8
GAIKEI
  6
Continuous
 62
     1
 48
25.4
100
AcDbLine
 10
34.29016810119509
 20
14.38066014115264
 30
0.0
 11
34.2901681185823
 21
14.23105555580662
 31
0.0
  0
LINE
  5
122
330
2
100
AcDbEntity
  8
GAIKEI
  6
Continuous
 62
     1
 48
25.4
100
AcDbLine
 10
34.21016811858118
 20
14.23105554649839
 30
0.0
 11
34.21016810119511
 21
14.38066013186267
 31
0.0
  0
ARC
  5
123
330
2
100
AcDbEntity
  8
GAIKEI
  6
Continuous
 62
     1
 48
25.4
100
AcDbCircle
 10
34.25016812322508
 20
14.19105522102262
 30
0.0
 40
0.3130977239402319
100
AcDbArc
 50
180.0000066602969
 51
0.0000066604010851
  0
ARC
  5
124
330
2
100
AcDbEntity
  8
GAIKEI
  6
Continuous
 62
     1
 48
25.4
100
AcDbCircle
 10
34.25016812322508
 20
14.19105522102262
 30
0.0
 40
0.3130977239402319
100
AcDbArc
 50
0.0000066604010851
 51
180.0000066602969
  0
LINE
  5
125
330
2
100
AcDbEntity
  8
GAIKEI
  6
Continuous
 62
     1
 48
25.4
100
AcDbLine
 10
34.21016814527514
 20
14.00145030090266
 30
0.0
 11
34.2101681278894
 21
14.15105554649847
 31
0.0
  0
LINE
  5
126
330
2
100
AcDbEntity
  8
GAIKEI
  6
Continuous
 62
     1
 48
25.4
100
AcDbLine
 10
34.29016812788734
 20
14.15105555580663
 30
0.0
 11
34.29016814527512
 21
14.00145031020264
 31
0.0
  0
LINE
  5
127
330
2
100
AcDbEntity
  8
GAIKEI
  6
Continuous
 62
     1
 48
25.4
100
AcDbLine
 10
34.43977305251508
 20
14.15105557319259
 30
0.0
 11
34.29016812788734
 21
14.15105555580663
 31
0.0
  0
LINE
  5
128
330
2
100
AcDbEntity
  8
GAIKEI
  6
Continuous
 62
     1
 48
25.4
100
AcDbLine
 10
34.2901681185823
 20
14.23105555580662
 30
0.0
 11
34.43977302489509
 21
14.23105557319263
 31
0.0
  0
LINE
  5
129
330
2
100
AcDbEntity
  8
GAIKEI
  6
Continuous
 62
     1
 48
25.4
100
AcDbLine
 10
34.06056321225509
 20
14.23105552911261
 30
0.0
 11
34.21016811858118
 21
14.23105554649839
 31
0.0
  0
ARC
  5
12A
330
2
100
AcDbEntity
  8
GAIKEI
  6
Continuous
 62
     1
 48
25.4
100
AcDbCircle
 10
25.39766812322512
 20
13.59105522103266
 30
0.0
 40
0.020000000000097
100
AcDbArc
 50
90.00000000029965
 51
179.9999999997003
  0
ARC
  5
12B
330
2
100
AcDbEntity
  8
GAIKEI
  6
Continuous
 62
     1
 48
25.4
100
AcDbCircle
 10
25.90266812322511
 20
13.59105522103266
 30
0.0
 40
0.0199999999998398
100
AcDbArc
 50
0.0
 51
90.00000000049993
  0
ARC
  5
12C
330
2
100
AcDbEntity
  8
GAIKEI
  6
Continuous
 62
     1
 48
25.4
100
AcDbCircle
 10
25.83766812322512
 20
13.50605522103262
 30
0.0
 40
0.0849999999998255
100
AcDbArc
 50
269.999999999899
 51
0.0
  0
ARC
  5
12D
330
2
100
AcDbEntity
  8
GAIKEI
  6
Continuous
 62
     1
 48
25.4
100
AcDbCircle
 10
25.46266812322512
 20
13.50605522103262
 30
0.0
 40
0.0850000000001151
100
AcDbArc
 50
180.0
 51
269.999999999899
  0
LINE
  5
12E
330
2
100
AcDbEntity
  8
GAIKEI
  6
Continuous
 62
     1
 48
25.4
100
AcDbLine
 10
25.90266812322511
 20
13.61105522103264
 30
0.0
 11
25.39766812322512
 21
13.61105522103264
 31
0.0
  0
LINE
  5
12F
330
2
100
AcDbEntity
  8
GAIKEI
  6
Continuous
 62
     1
 48
25.4
100
AcDbLine
 10
25.37516812322508
 20
13.62105522103263
 30
0.0
 11
25.92516812322509
 21
13.62105522103263
 31
0.0
  0
LINE
  5
130
330
2
100
AcDbEntity
  8
GAIKEI
  6
Continuous
 62
     1
 48
25.4
100
AcDbLine
 10
25.65016812322511
 20
13.69105522103268
 30
0.0
 11
25.25016812322508
 21
13.69105522103268
 31
0.0
  0
LINE
  5
131
330
2
100
AcDbEntity
  8
GAIKEI
  6
Continuous
 62
     1
 48
25.4
100
AcDbLine
 10
25.65016812322511
 20
13.69105522103268
 30
0.0
 11
26.05016812322509
 21
13.69105522103268
 31
0.0
  0
LINE
  5
132
330
2
100
AcDbEntity
  8
GAIKEI
  6
Continuous
 62
     1
 48
25.4
100
AcDbLine
 10
25.37766812322514
 20
13.50605522103262
 30
0.0
 11
25.9226681232251
 21
13.50605522103262
 31
0.0
  0
LINE
  5
133
330
2
100
AcDbEntity
  8
GAIKEI
  6
Continuous
 62
     1
 48
25.4
100
AcDbLine
 10
26.05016812322509
 20
13.69105522103268
 30
0.0
 11
26.05016812322509
 21
13.74105522103264
 31
0.0
  0
LINE
  5
134
330
2
100
AcDbEntity
  8
GAIKEI
  6
Continuous
 62
     1
 48
25.4
100
AcDbLine
 10
25.37516812322508
 20
13.69105522103268
 30
0.0
 11
25.37516812322508
 21
13.62105522103263
 31
0.0
  0
LINE
  5
135
330
2
100
AcDbEntity
  8
GAIKEI
  6
Continuous
 62
     1
 48
25.4
100
AcDbLine
 10
25.37766812322514
 20
13.59105522103266
 30
0.0
 11
25.37766812322508
 21
13.50605522103262
 31
0.0
  0
LINE
  5
136
330
2
100
AcDbEntity
  8
GAIKEI
  6
Continuous
 62
     1
 48
25.4
100
AcDbLine
 10
25.25016812322508
 20
13.74105522103264
 30
0.0
 11
25.25016812322508
 21
13.69105522103268
 31
0.0
  0
LINE
  5
137
330
2
100
AcDbEntity
  8
GAIKEI
  6
Continuous
 62
     1
 48
25.4
100
AcDbLine
 10
25.92516812322509
 20
13.62105522103263
 30
0.0
 11
25.92516812322509
 21
13.69105522103268
 31
0.0
  0
LINE
  5
138
330
2
100
AcDbEntity
  8
GAIKEI
  6
Continuous
 62
     1
 48
25.4
100
AcDbLine
 10
25.9226681232251
 20
13.50605522103262
 30
0.0
 11
25.9226681232251
 21
13.59105522103266
 31
0.0
  0
LINE
  5
139
330
2
100
AcDbEntity
  8
GAIKEI
  6
Continuous
 62
     1
 48
25.4
100
AcDbLine
 10
25.83766812322512
 20
13.42105522103264
 30
0.0
 11
25.46266812322512
 21
13.42105522103264
 31
0.0
  0
LINE
  5
13A
330
2
100
AcDbEntity
  8
GAIKEI
  6
Continuous
 62
     1
 48
25.4
100
AcDbLine
 10
30.83766812322512
 20
13.42105522103264
 30
0.0
 11
30.46266812322512
 21
13.42105522103264
 31
0.0
  0
LINE
  5
13B
330
2
100
AcDbEntity
  8
GAIKEI
  6
Continuous
 62
     1
 48
25.4
100
AcDbLine
 10
30.9226681232251
 20
13.50605522103262
 30
0.0
 11
30.9226681232251
 21
13.59105522103266
 31
0.0
  0
LINE
  5
13C
330
2
100
AcDbEntity
  8
GAIKEI
  6
Continuous
 62
     1
 48
25.4
100
AcDbLine
 10
30.92516812322509
 20
13.62105522103263
 30
0.0
 11
30.92516812322509
 21
13.69105522103268
 31
0.0
  0
LINE
  5
13D
330
2
100
AcDbEntity
  8
GAIKEI
  6
Continuous
 62
     1
 48
25.4
100
AcDbLine
 10
30.25016812322508
 20
13.74105522103264
 30
0.0
 11
30.25016812322508
 21
13.69105522103268
 31
0.0
  0
LINE
  5
13E
330
2
100
AcDbEntity
  8
GAIKEI
  6
Continuous
 62
     1
 48
25.4
100
AcDbLine
 10
30.37766812322514
 20
13.59105522103266
 30
0.0
 11
30.37766812322508
 21
13.50605522103262
 31
0.0
  0
LINE
  5
13F
330
2
100
AcDbEntity
  8
GAIKEI
  6
Continuous
 62
     1
 48
25.4
100
AcDbLine
 10
30.37516812322508
 20
13.69105522103268
 30
0.0
 11
30.37516812322508
 21
13.62105522103263
 31
0.0
  0
LINE
  5
140
330
2
100
AcDbEntity
  8
GAIKEI
  6
Continuous
 62
     1
 48
25.4
100
AcDbLine
 10
31.05016812322509
 20
13.69105522103268
 30
0.0
 11
31.05016812322509
 21
13.74105522103264
 31
0.0
  0
LINE
  5
141
330
2
100
AcDbEntity
  8
GAIKEI
  6
Continuous
 62
     1
 48
25.4
100
AcDbLine
 10
30.37766812322514
 20
13.50605522103262
 30
0.0
 11
30.9226681232251
 21
13.50605522103262
 31
0.0
  0
LINE
  5
142
330
2
100
AcDbEntity
  8
GAIKEI
  6
Continuous
 62
     1
 48
25.4
100
AcDbLine
 10
30.65016812322511
 20
13.69105522103268
 30
0.0
 11
31.05016812322509
 21
13.69105522103268
 31
0.0
  0
LINE
  5
143
330
2
100
AcDbEntity
  8
GAIKEI
  6
Continuous
 62
     1
 48
25.4
100
AcDbLine
 10
30.65016812322511
 20
13.69105522103268
 30
0.0
 11
30.25016812322508
 21
13.69105522103268
 31
0.0
  0
LINE
  5
144
330
2
100
AcDbEntity
  8
GAIKEI
  6
Continuous
 62
     1
 48
25.4
100
AcDbLine
 10
30.37516812322508
 20
13.62105522103263
 30
0.0
 11
30.92516812322509
 21
13.62105522103263
 31
0.0
  0
LINE
  5
145
330
2
100
AcDbEntity
  8
GAIKEI
  6
Continuous
 62
     1
 48
25.4
100
AcDbLine
 10
30.90266812322511
 20
13.61105522103264
 30
0.0
 11
30.39766812322512
 21
13.61105522103264
 31
0.0
  0
ARC
  5
146
330
2
100
AcDbEntity
  8
GAIKEI
  6
Continuous
 62
     1
 48
25.4
100
AcDbCircle
 10
30.46266812322512
 20
13.50605522103262
 30
0.0
 40
0.0850000000001151
100
AcDbArc
 50
180.0
 51
269.999999999899
  0
ARC
  5
147
330
2
100
AcDbEntity
  8
GAIKEI
  6
Continuous
 62
     1
 48
25.4
100
AcDbCircle
 10
30.83766812322512
 20
13.50605522103262
 30
0.0
 40
0.0849999999998255
100
AcDbArc
 50
269.999999999899
 51
0.0
  0
ARC
  5
148
330
2
100
AcDbEntity
  8
GAIKEI
  6
Continuous
 62
     1
 48
25.4
100
AcDbCircle
 10
30.90266812322511
 20
13.59105522103266
 30
0.0
 40
0.0199999999998398
100
AcDbArc
 50
0.0
 51
90.00000000049993
  0
ARC
  5
149
330
2
100
AcDbEntity
  8
GAIKEI
  6
Continuous
 62
     1
 48
25.4
100
AcDbCircle
 10
30.39766812322512
 20
13.59105522103266
 30
0.0
 40
0.020000000000097
100
AcDbArc
 50
90.00000000029965
 51
179.9999999997003
  0
LINE
  5
14A
330
2
100
AcDbEntity
  8
GAIKEI
  6
Continuous
 62
     1
 48
25.4
100
AcDbLine
 10
39.75796955254509
 20
17.68105523414266
 30
0.0
 11
39.77630099458378
 21
17.68105524581409
 31
0.0
  0
ARC
  5
14B
330
2
100
AcDbEntity
  8
GAIKEI
  6
Continuous
 62
     1
 48
25.4
100
AcDbCircle
 10
39.71035836467507
 20
17.92546324692262
 30
0.0
 40
0.0200000000014366
100
AcDbArc
 50
19.89270001589979
 51
85.02458948150025
  0
LINE
  5
14C
330
2
100
AcDbEntity
  8
GAIKEI
  6
Continuous
 62
     1
 48
25.4
100
AcDbLine
 10
39.71210147982509
 20
17.94538714085263
 30
0.0
 11
39.59016813697508
 21
17.95605492605909
 31
0.0
  0
LINE
  5
14D
330
2
100
AcDbEntity
  8
GAIKEI
  6
Continuous
 62
     1
 48
25.4
100
AcDbLine
 10
39.75963331980171
 20
17.60105526825339
 30
0.0
 11
39.75796955254509
 21
17.68105523414266
 31
0.0
  0
ARC
  5
14E
330
2
100
AcDbEntity
  8
GAIKEI
 62
     1
100
AcDbCircle
 10
38.97742963383843
 20
17.66118903817346
 30
0.0
 40
0.7991183374351233
100
AcDbArc
 50
1.424528855071363
 51
19.82829705504471
  0
ARC
  5
14F
330
2
100
AcDbEntity
  8
GAIKEI
 62
     1
100
AcDbCircle
 10
38.97742966131841
 20
17.62092146528175
 30
0.0
 40
0.7991183374351233
100
AcDbArc
 50
340.1717029449553
 51
358.5754711449287
  0
LINE
  5
150
330
2
100
AcDbEntity
  8
GAIKEI
  6
Continuous
 62
     1
 48
25.4
100
AcDbLine
 10
39.71210150730508
 20
17.33672336260264
 30
0.0
 11
39.59016816445512
 21
17.32605557739617
 31
0.0
  0
ARC
  5
151
330
2
100
AcDbEntity
  8
GAIKEI
  6
Continuous
 62
     1
 48
25.4
100
AcDbCircle
 10
39.71035839215506
 20
17.35664725653265
 30
0.0
 40
0.0200000000014366
100
AcDbArc
 50
274.9754105184997
 51
340.1072999841002
  0
LINE
  5
152
330
2
100
AcDbEntity
  8
GAIKEI
  6
Continuous
 62
     1
 48
25.4
100
AcDbLine
 10
39.75963331980171
 20
17.60105526825339
 30
0.0
 11
39.77630102206376
 21
17.60105525764123
 31
0.0
  0
ARC
  5
153
330
2
100
AcDbEntity
  8
GAIKEI
 62
     1
100
AcDbCircle
 10
38.97742966131841
 20
14.42092146528182
 30
0.0
 40
0.7991183374351233
100
AcDbArc
 50
340.1717029449553
 51
358.5754711449287
  0
LINE
  5
154
330
2
100
AcDbEntity
  8
GAIKEI
  6
Continuous
 62
     1
 48
25.4
100
AcDbLine
 10
39.71210150730508
 20
14.13672336260265
 30
0.0
 11
39.58539038406895
 21
14.1256375757755
 31
0.0
  0
ARC
  5
155
330
2
100
AcDbEntity
  8
GAIKEI
  6
Continuous
 62
     1
 48
25.4
100
AcDbCircle
 10
39.71035839215506
 20
14.15664725653266
 30
0.0
 40
0.0200000000014366
100
AcDbArc
 50
274.9754105184997
 51
340.1072999841002
  0
LINE
  5
156
330
2
100
AcDbEntity
  8
GAIKEI
  6
Continuous
 62
     1
 48
25.4
100
AcDbLine
 10
39.75796955254509
 20
14.48105523414267
 30
0.0
 11
39.77630099458378
 21
14.4810552458141
 31
0.0
  0
ARC
  5
157
330
2
100
AcDbEntity
  8
GAIKEI
  6
Continuous
 62
     1
 48
25.4
100
AcDbCircle
 10
39.71035836467507
 20
14.72546324692263
 30
0.0
 40
0.0200000000014366
100
AcDbArc
 50
19.89270001589979
 51
85.02458948150025
  0
LINE
  5
158
330
2
100
AcDbEntity
  8
GAIKEI
  6
Continuous
 62
     1
 48
25.4
100
AcDbLine
 10
39.71210147982509
 20
14.74538714085264
 30
0.0
 11
39.65016812322512
 21
14.75080560744993
 31
0.0
  0
LINE
  5
159
330
2
100
AcDbEntity
  8
GAIKEI
  6
Continuous
 62
     1
 48
25.4
100
AcDbLine
 10
39.75963331980171
 20
14.40105526825334
 30
0.0
 11
39.75796955254509
 21
14.48105523414267
 31
0.0
  0
ARC
  5
15A
330
2
100
AcDbEntity
  8
GAIKEI
 62
     1
100
AcDbCircle
 10
38.97742963383843
 20
14.46118903817353
 30
0.0
 40
0.7991183374351233
100
AcDbArc
 50
1.424528855071363
 51
19.82829705504471
  0
LINE
  5
15B
330
2
100
AcDbEntity
  8
GAIKEI
  6
Continuous
 62
     1
 48
25.4
100
AcDbLine
 10
39.75963331980171
 20
14.40105526825334
 30
0.0
 11
39.77630102206376
 21
14.40105525764124
 31
0.0
  0
DIMENSION
  5
15C
330
2
100
AcDbEntity
  8
SUNPO
100
AcDbDimension
  2
*D6
 10
-9.707842471337812
 20
26.34105614618818
 30
0.0
 11
-20.20784247133781
 21
28.09105614618818
 31
0.0
 70
    33
  1
210
 71
     5
 42
21.0
  3
STANDARD
100
AcDbAlignedDimension
 13
-30.70784247133782
 23
18.34105614618818
 33
0.0
 14
-9.707842471337812
 24
18.34105614618818
 34
0.0
1001
ACAD
1000
DSTYLE
1002
{
1070
    40
1040
1.0
1070
   140
1040
2.5
1070
   147
1040
0.5
1070
   172
1070
     1
1070
   279
1070
     0
1070
   288
1070
     0
1002
}
  0
DIMENSION
  5
16B
330
2
100
AcDbEntity
  8
SUNPO
100
AcDbDimension
  2
*D5
 10
-1.714980257369347
 20
13.74105522103258
 30
0.0
 11
-3.46498025736935
 21
7.157721887699246
 31
0.0
 70
    33
  1
46
 71
     5
 42
4.600000000000077
  3
STANDARD
100
AcDbAlignedDimension
 13
-9.714980257369347
 23
18.34105522103266
 33
0.0
 14
-9.714980257369347
 24
13.74105522103258
 34
0.0
1001
ACAD
1000
DSTYLE
1002
{
1070
    40
1040
1.0
1070
   140
1040
2.5
1070
   147
1040
0.5
1070
   172
1070
     1
1070
   279
1070
     0
1070
   288
1070
     0
1002
}
  0
DIMENSION
  5
17A
330
2
100
AcDbEntity
  8
SUNPO
100
AcDbDimension
  2
*D4
 10
39.45016812322513
 20
26.34105614618807
 30
0.0
 11
25.70016812322513
 21
28.09105614618807
 31
0.0
 70
    33
  1
275
 71
     5
 42
27.5
  3
STANDARD
100
AcDbAlignedDimension
 13
11.95016812322512
 23
18.34105614618812
 33
0.0
 14
39.45016812322513
 24
18.34105614618812
 34
0.0
1001
ACAD
1000
DSTYLE
1002
{
1070
    40
1040
1.0
1070
   140
1040
2.5
1070
   147
1040
0.5
1070
   172
1070
     1
1070
   279
1070
     0
1070
   288
1070
     0
1002
}
  0
TEXT
  5
187
330
2
100
AcDbEntity
  8
MOJI1
100
AcDbText
 10
-55.79544521069064
 20
-38.94789124387841
 30
0.0
 40
3.0
  1
質　量
100
AcDbText
  0
TEXT
  5
188
330
2
100
AcDbEntity
  8
MOJI1
100
AcDbText
 10
-16.79544521069064
 20
-38.94789124387841
 30
0.0
 40
3.0
  1
約２．２Ｋｇ
100
AcDbText
  0
TEXT
  5
189
330
2
100
AcDbEntity
  8
MOJI1
100
AcDbText
 10
-16.79544521069064
 20
-28.94789124387841
 30
0.0
 40
3.0
  1
ＡＣ１００Ｖ　５０／６０Ｈｚ　５．９Ａ
100
AcDbText
  0
TEXT
  5
18A
330
2
100
AcDbEntity
  8
MOJI1
100
AcDbText
 10
-16.79544521069064
 20
-23.94789124387842
 30
0.0
 40
3.0
  1
ＡＣ１００Ｖ　５０／６０Ｈｚ　１．３Ａ
100
AcDbText
  0
LINE
  5
18B
330
2
100
AcDbEntity
  8
WAKU
 62
     4
100
AcDbLine
 10
66.70455478930913
 20
-54.94789124387842
 30
0.0
 11
-58.29544521069064
 21
-54.94789124387842
 31
0.0
  0
LINE
  5
18D
330
2
100
AcDbEntity
  8
WAKU
 62
     1
100
AcDbLine
 10
-58.29544521069064
 20
-49.94789124387842
 30
0.0
 11
66.70455478930913
 21
-49.94789124387842
 31
0.0
  0
LINE
  5
18E
330
2
100
AcDbEntity
  8
WAKU
 62
     1
100
AcDbLine
 10
-58.29544521069064
 20
-44.94789124387842
 30
0.0
 11
66.70455478930913
 21
-44.94789124387842
 31
0.0
  0
LINE
  5
18F
330
2
100
AcDbEntity
  8
WAKU
 62
     1
100
AcDbLine
 10
-58.29544521069064
 20
-34.94789124387842
 30
0.0
 11
66.70455478930913
 21
-34.94789124387842
 31
0.0
  0
LINE
  5
190
330
2
100
AcDbEntity
  8
WAKU
 62
     1
100
AcDbLine
 10
-58.29544521069064
 20
-24.94789124387842
 30
0.0
 11
66.70455478930913
 21
-24.94789124387842
 31
0.0
  0
LINE
  5
191
330
2
100
AcDbEntity
  8
WAKU
 62
     4
100
AcDbLine
 10
-58.29544521069064
 20
-19.94789124387841
 30
0.0
 11
66.70455478930913
 21
-19.94789124387841
 31
0.0
  0
LINE
  5
192
330
2
100
AcDbEntity
  8
WAKU
 62
     1
100
AcDbLine
 10
-58.29544521069064
 20
-39.94789124387842
 30
0.0
 11
66.70455478930913
 21
-39.94789124387842
 31
0.0
  0
LINE
  5
193
330
2
100
AcDbEntity
  8
WAKU
 62
     1
100
AcDbLine
 10
-58.29544521069064
 20
-29.94789124387842
 30
0.0
 11
66.70455478930913
 21
-29.94789124387842
 31
0.0
  0
TEXT
  5
194
330
2
100
AcDbEntity
  8
MOJI1
100
AcDbText
 10
-16.79544521069064
 20
-33.94789124387842
 30
0.0
 40
3.0
  1
３０ｍ（公称断面積１．２５ｍｍ以上）
100
AcDbText
  0
LINE
  5
195
330
2
100
AcDbEntity
  8
WAKU
 62
     4
100
AcDbLine
 10
-18.29544521069087
 20
-19.94789124387841
 30
0.0
 11
-18.29544521069087
 21
-54.94789124387842
 31
0.0
  0
LINE
  5
196
330
2
100
AcDbEntity
  8
WAKU
 62
     4
100
AcDbLine
 10
-58.29544521069087
 20
-19.94789124387841
 30
0.0
 11
-58.29544521069064
 21
-54.94789124387842
 31
0.0
  0
TEXT
  5
197
330
2
100
AcDbEntity
  8
MOJI1
100
AcDbText
 10
-55.79544521069064
 20
-33.94789124387842
 30
0.0
 40
3.0
  1
ケーブル最大延長距離
100
AcDbText
  0
TEXT
  5
198
330
2
100
AcDbEntity
  8
MOJI1
100
AcDbText
 10
-55.79544521069064
 20
-23.94789124387842
 30
0.0
 40
3.0
  1
電  源
100
AcDbText
  0
TEXT
  5
199
330
2
100
AcDbEntity
  8
MOJI1
100
AcDbText
 10
-55.79544521069064
 20
-28.94789124387841
 30
0.0
 40
3.0
  1
ハロゲンランプ使用時
100
AcDbText
  0
LINE
  5
19A
330
2
100
AcDbEntity
  8
WAKU
 62
     4
100
AcDbLine
 10
66.70455478930913
 20
-19.94789124387841
 30
0.0
 11
66.70455478930913
 21
-54.94789124387842
 31
0.0
  0
TEXT
  5
19B
330
2
100
AcDbEntity
  8
MOJI1
100
AcDbText
 10
35.8168965242302
 20
-31.60926223018317
 30
0.0
 40
1.0
  1
２
100
AcDbText
  0
ENDSEC
  0
SECTION
  2
OBJECTS
  0
DICTIONARY
  5
9
330
0
100
AcDbDictionary
281
     1
  3
ACAD_COLOR
350
31
  3
ACAD_GROUP
350
2D
  3
ACAD_LAYOUT
350
D
  3
ACAD_MATERIAL
350
30
  3
ACAD_MLINESTYLE
350
2E
  3
ACAD_PLOTSETTINGS
350
2F
  3
ACAD_PLOTSTYLENAME
350
8
  3
ACDBHEADERROUNDTRIPXREC
350
1CF
  3
AcDbVariableDictionary
350
1CA
  0
DICTIONARY
  5
15
330
14
100
AcDbDictionary
280
     1
281
     1
  3
ACAD_LAYERFILTERS
360
16
  3
ACAD_LAYERSTATES
360
17
  0
DICTIONARY
  5
3
330
2
100
AcDbDictionary
280
     1
281
     1
  3
ACAD_LAYOUTSELFREF
360
4
  0
DICTIONARY
  5
F
330
E
100
AcDbDictionary
280
     1
281
     1
  3
ACAD_LAYOUTSELFREF
360
10
  0
DICTIONARY
  5
31
102
{ACAD_REACTORS
330
9
102
}
330
9
100
AcDbDictionary
281
     1
  0
DICTIONARY
  5
2D
102
{ACAD_REACTORS
330
9
102
}
330
9
100
AcDbDictionary
281
     1
  0
DICTIONARY
  5
D
102
{ACAD_REACTORS
330
9
102
}
330
9
100
AcDbDictionary
281
     1
  3
Model
350
C
  3
ﾚｲｱｳﾄ1
350
13
  0
DICTIONARY
  5
30
102
{ACAD_REACTORS
330
9
102
}
330
9
100
AcDbDictionary
281
     1
  0
DICTIONARY
  5
2E
102
{ACAD_REACTORS
330
9
102
}
330
9
100
AcDbDictionary
281
     1
  3
STANDARD
350
33
  0
DICTIONARY
  5
2F
102
{ACAD_REACTORS
330
9
102
}
330
9
100
AcDbDictionary
281
     1
  0
ACDBDICTIONARYWDFLT
  5
8
102
{ACAD_REACTORS
330
9
102
}
330
9
100
AcDbDictionary
281
     1
  3
Normal
350
7
100
AcDbDictionaryWithDefault
340
7
  0
DICTIONARY
  5
1CF
102
{ACAD_REACTORS
330
9
102
}
330
9
100
AcDbDictionary
281
     1
  3
COLORDICT
350
1D1
  3
MATERIALDICT
350
1D0
  0
DICTIONARY
  5
1CA
102
{ACAD_REACTORS
330
9
102
}
330
9
100
AcDbDictionary
281
     1
  3
DIMASSOC
350
1CC
  3
HIDETEXT
350
1CB
  3
PROJECTNAME
350
1CD
  0
DICTIONARY
  5
16
102
{ACAD_REACTORS
330
15
102
}
330
15
100
AcDbDictionary
280
     1
281
     1
  0
DICTIONARY
  5
17
102
{ACAD_REACTORS
330
15
102
}
330
15
100
AcDbDictionary
281
     1
  0
XRECORD
  5
4
102
{ACAD_REACTORS
330
3
102
}
330
3
100
AcDbXrecord
280
     1
340
2
  0
XRECORD
  5
10
102
{ACAD_REACTORS
330
F
102
}
330
F
100
AcDbXrecord
280
     1
340
E
  0
LAYOUT
  5
C
102
{ACAD_XDICTIONARY
360
1D2
102
}
102
{ACAD_REACTORS
330
D
102
}
330
D
100
AcDbPlotSettings
  1

  2
DocuCentre-II 7000-A4縦.pc3
  4
A4
  6

 40
4.900083065032958
 41
4.900057315826416
 42
4.90008544921875
 43
4.90008544921875
 44
210.0156707763672
 45
297.0106506347656
 46
1.74
 47
0.0
 48
-6.068523874588208
 49
-0.7839319640286249
140
264.3484852628844
141
394.0084838035355
142
1.0
143
1.374575111112031
 70
 11956
 72
     1
 73
     0
 74
     4
  7
tmsacad.ctb
 75
     0
147
0.7274975313578897
148
6.068523874588208
149
0.7839319640286249
100
AcDbLayout
  1
Model
 70
     1
 71
     0
 10
0.0
 20
0.0
 11
12.0
 21
9.0
 12
0.0
 22
0.0
 32
0.0
 14
0.0
 24
0.0
 34
0.0
 15
0.0
 25
0.0
 35
0.0
146
0.0
 13
0.0
 23
0.0
 33
0.0
 16
1.0
 26
0.0
 36
0.0
 17
0.0
 27
1.0
 37
0.0
 76
     0
330
2
  0
LAYOUT
  5
13
102
{ACAD_XDICTIONARY
360
1D4
102
}
102
{ACAD_REACTORS
330
D
102
}
330
D
100
AcDbPlotSettings
  1

  2
C:\Program Files\ACAD2000\plotters\DWF ePlot.pc3
  4

  6

 40
0.0
 41
0.0
 42
0.0
 43
0.0
 44
0.0
 45
0.0
 46
0.0
 47
0.0
 48
0.0
 49
0.0
140
0.0
141
0.0
142
1.0
143
1.0
 70
   688
 72
     0
 73
     0
 74
     5
  7
tmsacad.ctb
 75
    16
147
1.0
148
0.0
149
0.0
100
AcDbLayout
  1
ﾚｲｱｳﾄ1
 70
     1
 71
     1
 10
0.0
 20
0.0
 11
12.0
 21
9.0
 12
0.0
 22
0.0
 32
0.0
 14
1.000000000000000E+20
 24
1.000000000000000E+20
 34
1.000000000000000E+20
 15
-1.000000000000000E+20
 25
-1.000000000000000E+20
 35
-1.000000000000000E+20
146
0.0
 13
0.0
 23
0.0
 33
0.0
 16
1.0
 26
0.0
 36
0.0
 17
0.0
 27
1.0
 37
0.0
 76
     0
330
E
  0
MLINESTYLE
  5
33
102
{ACAD_REACTORS
330
2E
102
}
330
2E
100
AcDbMlineStyle
  2
STANDARD
 70
     0
  3

 62
   256
 51
90.0
 52
90.0
 71
     2
 49
0.5
 62
   256
  6
BYLAYER
 49
-0.5
 62
   256
  6
BYLAYER
  0
ACDBPLACEHOLDER
  5
7
102
{ACAD_REACTORS
330
8
102
}
330
8
  0
XRECORD
  5
1D1
102
{ACAD_REACTORS
330
1CF
102
}
330
1CF
100
AcDbXrecord
280
     1
340
31
  0
XRECORD
  5
1D0
102
{ACAD_REACTORS
330
1CF
102
}
330
1CF
100
AcDbXrecord
280
     1
340
30
  0
DICTIONARYVAR
  5
1CC
102
{ACAD_REACTORS
330
1CA
102
}
330
1CA
100
DictionaryVariables
280
     0
  1
1
  0
DICTIONARYVAR
  5
1CB
102
{ACAD_REACTORS
330
1CA
102
}
330
1CA
100
DictionaryVariables
280
     0
  1
1
  0
DICTIONARYVAR
  5
1CD
102
{ACAD_REACTORS
330
1CA
102
}
330
1CA
100
DictionaryVariables
280
     0
  1

  0
DICTIONARY
  5
1D2
330
C
100
AcDbDictionary
280
     1
281
     1
  3
ACAD_XREC_ROUNDTRIP
360
1D3
  0
DICTIONARY
  5
1D4
330
13
100
AcDbDictionary
280
     1
281
     1
  3
ACAD_XREC_ROUNDTRIP
360
1D5
  0
XRECORD
  5
1D3
102
{ACAD_REACTORS
330
1D2
102
}
330
1D2
100
AcDbXrecord
280
     1
102
SHADEPLOT
 70
     0
102
SHADEPLOTRESLEVEL
 70
     2
102
SHADEPLOTCUSTOMDPI
 70
   300
  0
XRECORD
  5
1D5
102
{ACAD_REACTORS
330
1D4
102
}
330
1D4
100
AcDbXrecord
280
     1
102
SHADEPLOT
 70
     0
102
SHADEPLOTRESLEVEL
 70
     2
102
SHADEPLOTCUSTOMDPI
 70
   300
  0
ENDSEC
  0
EOF
