  0
SECTION
  2
HEADER
  9
$ACADVER
  1
AC1015
  9
$ACADMAINTVER
 70
    20
  9
$DWGCODEPAGE
  3
ANSI_932
  9
$INSBASE
 10
0.4999999440410648
 20
246.5008351249344
 30
0.0
  9
$EXTMIN
 10
-65.38146882478781
 20
-46.4636465104831
 30
-0.0015258207003583
  9
$EXTMAX
 10
63.69640726504258
 20
67.47033733836179
 30
0.0000000349246037
  9
$LIMMIN
 10
0.0
 20
0.0
  9
$LIMMAX
 10
420.0
 20
297.0
  9
$ORTHOMODE
 70
     1
  9
$REGENMODE
 70
     0
  9
$FILLMODE
 70
     1
  9
$QTEXTMODE
 70
     0
  9
$MIRRTEXT
 70
     0
  9
$LTSCALE
 40
1.0
  9
$ATTMODE
 70
     1
  9
$TEXTSIZE
 40
2.5
  9
$TRACEWID
 40
1.0
  9
$TEXTSTYLE
  7
Standard
  9
$CLAYER
  8
GAIKEI
  9
$CELTYPE
  6
ByLayer
  9
$CECOLOR
 62
   256
  9
$CELTSCALE
 40
1.0
  9
$DISPSILH
 70
     0
  9
$DIMSCALE
 40
1.0
  9
$DIMASZ
 40
2.0
  9
$DIMEXO
 40
2.0
  9
$DIMDLI
 40
8.0
  9
$DIMRND
 40
0.0
  9
$DIMDLE
 40
0.0
  9
$DIMEXE
 40
2.0
  9
$DIMTP
 40
0.0
  9
$DIMTM
 40
0.0
  9
$DIMTXT
 40
2.5
  9
$DIMCEN
 40
0.0
  9
$DIMTSZ
 40
0.0
  9
$DIMTOL
 70
     0
  9
$DIMLIM
 70
     0
  9
$DIMTIH
 70
     0
  9
$DIMTOH
 70
     0
  9
$DIMSE1
 70
     0
  9
$DIMSE2
 70
     0
  9
$DIMTAD
 70
     3
  9
$DIMZIN
 70
     0
  9
$DIMBLK
  1

  9
$DIMASO
 70
     1
  9
$DIMSHO
 70
     1
  9
$DIMPOST
  1

  9
$DIMAPOST
  1

  9
$DIMALT
 70
     0
  9
$DIMALTD
 70
     2
  9
$DIMALTF
 40
25.4
  9
$DIMLFAC
 40
1.0
  9
$DIMTOFL
 70
     1
  9
$DIMTVP
 40
0.0
  9
$DIMTIX
 70
     0
  9
$DIMSOXD
 70
     0
  9
$DIMSAH
 70
     1
  9
$DIMBLK1
  1
OPEN30
  9
$DIMBLK2
  1
OPEN30
  9
$DIMSTYLE
  2
STANDARD
  9
$DIMCLRD
 70
     0
  9
$DIMCLRE
 70
     0
  9
$DIMCLRT
 70
     0
  9
$DIMTFAC
 40
1.0
  9
$DIMGAP
 40
0.5
  9
$DIMJUST
 70
     0
  9
$DIMSD1
 70
     0
  9
$DIMSD2
 70
     0
  9
$DIMTOLJ
 70
     1
  9
$DIMTZIN
 70
     0
  9
$DIMALTZ
 70
     0
  9
$DIMALTTZ
 70
     0
  9
$DIMUPT
 70
     0
  9
$DIMDEC
 70
     4
  9
$DIMTDEC
 70
     4
  9
$DIMALTU
 70
     2
  9
$DIMALTTD
 70
     2
  9
$DIMTXSTY
  7
Standard
  9
$DIMAUNIT
 70
     0
  9
$DIMADEC
 70
     0
  9
$DIMALTRND
 40
0.0
  9
$DIMAZIN
 70
     0
  9
$DIMDSEP
 70
    46
  9
$DIMATFIT
 70
     3
  9
$DIMFRAC
 70
     0
  9
$DIMLDRBLK
  1
OPEN30
  9
$DIMLUNIT
 70
     2
  9
$DIMLWD
 70
    -2
  9
$DIMLWE
 70
    -2
  9
$DIMTMOVE
 70
     0
  9
$LUNITS
 70
     2
  9
$LUPREC
 70
     4
  9
$SKETCHINC
 40
1.0
  9
$FILLETRAD
 40
0.0
  9
$AUNITS
 70
     0
  9
$AUPREC
 70
     0
  9
$MENU
  1
.
  9
$ELEVATION
 40
0.0
  9
$PELEVATION
 40
0.0
  9
$THICKNESS
 40
0.0
  9
$LIMCHECK
 70
     0
  9
$CHAMFERA
 40
0.0
  9
$CHAMFERB
 40
0.0
  9
$CHAMFERC
 40
0.0
  9
$CHAMFERD
 40
0.0
  9
$SKPOLY
 70
     0
  9
$TDCREATE
 40
2454349.434269746
  9
$TDUCREATE
 40
2454349.059269746
  9
$TDUPDATE
 40
2454659.565084792
  9
$TDUUPDATE
 40
2454659.190084792
  9
$TDINDWG
 40
0.0854322338
  9
$TDUSRTIMER
 40
0.0854322338
  9
$USRTIMER
 70
     1
  9
$ANGBASE
 50
0.0
  9
$ANGDIR
 70
     0
  9
$PDMODE
 70
     0
  9
$PDSIZE
 40
0.0
  9
$PLINEWID
 40
0.0
  9
$SPLFRAME
 70
     0
  9
$SPLINETYPE
 70
     6
  9
$SPLINESEGS
 70
     8
  9
$HANDSEED
  5
152
  9
$SURFTAB1
 70
     6
  9
$SURFTAB2
 70
     6
  9
$SURFTYPE
 70
     6
  9
$SURFU
 70
     6
  9
$SURFV
 70
     6
  9
$UCSBASE
  2

  9
$UCSNAME
  2

  9
$UCSORG
 10
0.0
 20
0.0
 30
0.0
  9
$UCSXDIR
 10
1.0
 20
0.0
 30
0.0
  9
$UCSYDIR
 10
0.0
 20
1.0
 30
0.0
  9
$UCSORTHOREF
  2

  9
$UCSORTHOVIEW
 70
     0
  9
$UCSORGTOP
 10
0.0
 20
0.0
 30
0.0
  9
$UCSORGBOTTOM
 10
0.0
 20
0.0
 30
0.0
  9
$UCSORGLEFT
 10
0.0
 20
0.0
 30
0.0
  9
$UCSORGRIGHT
 10
0.0
 20
0.0
 30
0.0
  9
$UCSORGFRONT
 10
0.0
 20
0.0
 30
0.0
  9
$UCSORGBACK
 10
0.0
 20
0.0
 30
0.0
  9
$PUCSBASE
  2

  9
$PUCSNAME
  2

  9
$PUCSORG
 10
0.0
 20
0.0
 30
0.0
  9
$PUCSXDIR
 10
1.0
 20
0.0
 30
0.0
  9
$PUCSYDIR
 10
0.0
 20
1.0
 30
0.0
  9
$PUCSORTHOREF
  2

  9
$PUCSORTHOVIEW
 70
     0
  9
$PUCSORGTOP
 10
0.0
 20
0.0
 30
0.0
  9
$PUCSORGBOTTOM
 10
0.0
 20
0.0
 30
0.0
  9
$PUCSORGLEFT
 10
0.0
 20
0.0
 30
0.0
  9
$PUCSORGRIGHT
 10
0.0
 20
0.0
 30
0.0
  9
$PUCSORGFRONT
 10
0.0
 20
0.0
 30
0.0
  9
$PUCSORGBACK
 10
0.0
 20
0.0
 30
0.0
  9
$USERI1
 70
     0
  9
$USERI2
 70
     0
  9
$USERI3
 70
     0
  9
$USERI4
 70
     0
  9
$USERI5
 70
     0
  9
$USERR1
 40
0.0
  9
$USERR2
 40
0.0
  9
$USERR3
 40
0.0
  9
$USERR4
 40
0.0
  9
$USERR5
 40
0.0
  9
$WORLDVIEW
 70
     1
  9
$SHADEDGE
 70
     3
  9
$SHADEDIF
 70
    70
  9
$TILEMODE
 70
     1
  9
$MAXACTVP
 70
    64
  9
$PINSBASE
 10
0.0
 20
0.0
 30
0.0
  9
$PLIMCHECK
 70
     0
  9
$PEXTMIN
 10
0.0
 20
0.0
 30
0.0
  9
$PEXTMAX
 10
0.0
 20
0.0
 30
0.0
  9
$PLIMMIN
 10
0.0
 20
0.0
  9
$PLIMMAX
 10
12.0
 20
9.0
  9
$UNITMODE
 70
     0
  9
$VISRETAIN
 70
     1
  9
$PLINEGEN
 70
     0
  9
$PSLTSCALE
 70
     1
  9
$TREEDEPTH
 70
  3020
  9
$CMLSTYLE
  2
Standard
  9
$CMLJUST
 70
     0
  9
$CMLSCALE
 40
20.0
  9
$PROXYGRAPHICS
 70
     1
  9
$MEASUREMENT
 70
     1
  9
$CELWEIGHT
370
    -1
  9
$ENDCAPS
280
     0
  9
$JOINSTYLE
280
     0
  9
$LWDISPLAY
290
     0
  9
$INSUNITS
 70
     4
  9
$HYPERLINKBASE
  1

  9
$STYLESHEET
  1

  9
$XEDIT
290
     1
  9
$CEPSNTYPE
380
     0
  9
$PSTYLEMODE
290
     1
  9
$FINGERPRINTGUID
  2
{FDEAD578-A652-11D2-9A35-0060089B3A3F}
  9
$VERSIONGUID
  2
{DEEBA37B-1EA0-4FEE-A916-A35FF04C74B0}
  9
$EXTNAMES
290
     1
  9
$PSVPSCALE
 40
0.0
  9
$OLESTARTUP
290
     0
  0
ENDSEC
  0
SECTION
  2
CLASSES
  0
CLASS
  1
ACDBDICTIONARYWDFLT
  2
AcDbDictionaryWithDefault
  3
ObjectDBX Classes
 90
        0
280
     0
281
     0
  0
CLASS
  1
ACDBPLACEHOLDER
  2
AcDbPlaceHolder
  3
ObjectDBX Classes
 90
        0
280
     0
281
     0
  0
CLASS
  1
LAYOUT
  2
AcDbLayout
  3
ObjectDBX Classes
 90
        0
280
     0
281
     0
  0
CLASS
  1
DICTIONARYVAR
  2
AcDbDictionaryVar
  3
ObjectDBX Classes
 90
        0
280
     0
281
     0
  0
ENDSEC
  0
SECTION
  2
TABLES
  0
TABLE
  2
VPORT
  5
1B
330
0
100
AcDbSymbolTable
 70
     6
  0
VPORT
  5
14A
330
1B
100
AcDbSymbolTableRecord
100
AcDbViewportTableRecord
  2
*Active
 70
     0
 10
0.0
 20
0.0
 11
1.0
 21
1.0
 12
-2.864684328512115
 22
10.60681968381022
 13
0.0
 23
0.0
 14
10.0
 24
10.0
 15
10.0
 25
10.0
 16
0.0
 26
0.0
 36
1.0
 17
0.0
 27
0.0
 37
0.0
 40
114.6296100173323
 41
1.536842105263157
 42
50.0
 43
0.0
 44
0.0
 50
0.0
 51
0.0
 71
     0
 72
  1000
 73
     1
 74
     2
 75
     0
 76
     0
 77
     0
 78
     0
281
     0
 65
     1
110
0.0
120
0.0
130
0.0
111
1.0
121
0.0
131
0.0
112
0.0
122
1.0
132
0.0
 79
     0
146
0.0
  0
ENDTAB
  0
TABLE
  2
LTYPE
  5
16
330
0
100
AcDbSymbolTable
 70
     1
  0
LTYPE
  5
17
330
16
100
AcDbSymbolTableRecord
100
AcDbLinetypeTableRecord
  2
ByBlock
 70
     0
  3

 72
    65
 73
     0
 40
0.0
  0
LTYPE
  5
18
330
16
100
AcDbSymbolTableRecord
100
AcDbLinetypeTableRecord
  2
ByLayer
 70
     0
  3

 72
    65
 73
     0
 40
0.0
  0
LTYPE
  5
8
330
16
100
AcDbSymbolTableRecord
100
AcDbLinetypeTableRecord
  2
Continuous
 70
     0
  3
Solid line
 72
    65
 73
     0
 40
0.0
  0
ENDTAB
  0
TABLE
  2
LAYER
  5
10
102
{ACAD_XDICTIONARY
360
11
102
}
330
0
100
AcDbSymbolTable
 70
     7
  0
LAYER
  5
4
330
10
100
AcDbSymbolTableRecord
100
AcDbLayerTableRecord
  2
0
 70
     0
 62
     7
  6
Continuous
370
    -3
390
5
  0
LAYER
  5
DE
330
10
100
AcDbSymbolTableRecord
100
AcDbLayerTableRecord
  2
WAKU
 70
     0
 62
     4
  6
Continuous
370
    -3
390
5
  0
LAYER
  5
D8
330
10
100
AcDbSymbolTableRecord
100
AcDbLayerTableRecord
  2
MOJI1
 70
     0
 62
     2
  6
Continuous
370
    -3
390
5
  0
LAYER
  5
EB
330
10
100
AcDbSymbolTableRecord
100
AcDbLayerTableRecord
  2
TOUROKU
 70
     0
 62
     1
  6
Continuous
370
    -3
390
5
  0
LAYER
  5
3A
330
10
100
AcDbSymbolTableRecord
100
AcDbLayerTableRecord
  2
DEFPOINTS
 70
     0
 62
     7
  6
Continuous
290
     0
370
    -3
390
5
  0
LAYER
  5
2D
330
10
100
AcDbSymbolTableRecord
100
AcDbLayerTableRecord
  2
GAIKEI
 70
     0
 62
     7
  6
Continuous
370
    -3
390
5
  0
LAYER
  5
30
330
10
100
AcDbSymbolTableRecord
100
AcDbLayerTableRecord
  2
SUNPO
 70
     0
 62
     3
  6
Continuous
370
    -3
390
5
  0
ENDTAB
  0
TABLE
  2
STYLE
  5
13
330
0
100
AcDbSymbolTable
 70
     1
  0
STYLE
  5
14
330
13
100
AcDbSymbolTableRecord
100
AcDbTextStyleTableRecord
  2
Standard
 70
     0
 40
0.0
 41
1.0
 50
0.0
 71
     0
 42
2.5
  3
MONOTXT.shx
  4
BIGFONT.shx
  0
ENDTAB
  0
TABLE
  2
VIEW
  5
19
330
0
100
AcDbSymbolTable
 70
     0
  0
ENDTAB
  0
TABLE
  2
UCS
  5
1A
330
0
100
AcDbSymbolTable
 70
     0
  0
ENDTAB
  0
TABLE
  2
APPID
  5
1D
330
0
100
AcDbSymbolTable
 70
     2
  0
APPID
  5
1E
330
1D
100
AcDbSymbolTableRecord
100
AcDbRegAppTableRecord
  2
ACAD
 70
     0
  0
APPID
  5
F6
330
1D
100
AcDbSymbolTableRecord
100
AcDbRegAppTableRecord
  2
DCO15
 70
     0
  0
ENDTAB
  0
TABLE
  2
DIMSTYLE
  5
1F
330
0
100
AcDbSymbolTable
 70
     1
100
AcDbDimStyleTable
 71
     1
340
20
  0
DIMSTYLE
105
20
102
{ACAD_REACTORS
330
3E
330
2F
102
}
330
1F
100
AcDbSymbolTableRecord
100
AcDbDimStyleTableRecord
  2
STANDARD
 70
     0
 40
0.0
 41
2.0
 42
2.0
 43
8.0
 44
2.0
 73
     0
 74
     0
 77
     3
140
3.0
141
0.0
173
     1
279
     2
288
     1
340
14
341
21
343
21
344
21
  0
ENDTAB
  0
TABLE
  2
BLOCK_RECORD
  5
1
330
0
100
AcDbSymbolTable
 70
     5
  0
BLOCK_RECORD
  5
2
330
1
100
AcDbSymbolTableRecord
100
AcDbBlockTableRecord
  2
*Model_Space
340
A
  0
BLOCK_RECORD
  5
C
330
1
100
AcDbSymbolTableRecord
100
AcDbBlockTableRecord
  2
*Paper_Space
340
F
  0
BLOCK_RECORD
  5
21
330
1
100
AcDbSymbolTableRecord
100
AcDbBlockTableRecord
  2
_OPEN30
340
0
102
{BLKREFS
331
36
331
37
331
44
331
45
331
13B
331
13C
331
144
331
145
102
}
  0
BLOCK_RECORD
  5
3F
330
1
100
AcDbSymbolTableRecord
100
AcDbBlockTableRecord
  2
*D1
340
0
  0
BLOCK_RECORD
  5
31
330
1
100
AcDbSymbolTableRecord
100
AcDbBlockTableRecord
  2
*D2
340
0
  0
BLOCK_RECORD
  5
104
330
1
100
AcDbSymbolTableRecord
100
AcDbBlockTableRecord
  2
*D3
340
0
  0
BLOCK_RECORD
  5
110
330
1
100
AcDbSymbolTableRecord
100
AcDbBlockTableRecord
  2
*D4
340
0
  0
ENDTAB
  0
ENDSEC
  0
SECTION
  2
BLOCKS
  0
BLOCK
  5
3
330
2
100
AcDbEntity
  8
0
100
AcDbBlockBegin
  2
*Model_Space
 70
     0
 10
0.0
 20
0.0
 30
0.0
  3
*Model_Space
  1

  0
ENDBLK
  5
9
330
2
100
AcDbEntity
  8
0
100
AcDbBlockEnd
  0
BLOCK
  5
D
330
C
100
AcDbEntity
 67
     1
  8
0
100
AcDbBlockBegin
  2
*Paper_Space
 70
     0
 10
0.0
 20
0.0
 30
0.0
  3
*Paper_Space
  1

  0
ENDBLK
  5
E
330
C
100
AcDbEntity
 67
     1
  8
0
100
AcDbBlockEnd
  0
BLOCK
  5
22
330
21
100
AcDbEntity
  8
0
100
AcDbBlockBegin
  2
_OPEN30
 70
     0
 10
0.0
 20
0.0
 30
0.0
  3
_OPEN30
  1

  0
LINE
  5
23
330
21
100
AcDbEntity
  8
0
  6
ByBlock
 62
     0
100
AcDbLine
 10
-1.0
 20
0.26794919
 30
0.0
 11
0.0
 21
0.0
 31
0.0
  0
LINE
  5
24
330
21
100
AcDbEntity
  8
0
  6
ByBlock
 62
     0
100
AcDbLine
 10
0.0
 20
0.0
 30
0.0
 11
-1.0
 21
-0.26794919
 31
0.0
  0
LINE
  5
25
330
21
100
AcDbEntity
  8
0
  6
ByBlock
 62
     0
100
AcDbLine
 10
0.0
 20
0.0
 30
0.0
 11
-1.0
 21
0.0
 31
0.0
  0
ENDBLK
  5
26
330
21
100
AcDbEntity
  8
0
100
AcDbBlockEnd
  0
BLOCK
  5
40
330
3F
100
AcDbEntity
  8
0
100
AcDbBlockBegin
  2
*D1
 70
     1
 10
0.0
 20
0.0
 30
0.0
  3
*D1
  1

  0
LINE
  5
41
330
3F
100
AcDbEntity
  8
SUNPO
 62
     0
370
    -2
100
AcDbLine
 10
55.92799221427213
 20
213.1728262734272
 30
0.0
 11
63.92799221427214
 21
213.1728262734272
 31
0.0
  0
LINE
  5
42
330
3F
100
AcDbEntity
  8
SUNPO
 62
     0
370
    -2
100
AcDbLine
 10
55.92799221427213
 20
182.4328304734271
 30
0.0
 11
63.92799221427214
 21
182.4328304734271
 31
0.0
  0
LINE
  5
43
330
3F
100
AcDbEntity
  8
SUNPO
 62
     0
370
    -2
100
AcDbLine
 10
61.92799221427215
 20
211.1728262734272
 30
0.0
 11
61.92799221427214
 21
184.4328304734272
 31
0.0
  0
INSERT
  5
44
330
3F
100
AcDbEntity
  8
SUNPO
 62
     0
370
    -2
100
AcDbBlockReference
  2
_OPEN30
 10
61.92799221427215
 20
213.1728262734272
 30
0.0
 41
2.0
 42
2.0
 43
2.0
 50
90.0
  0
INSERT
  5
45
330
3F
100
AcDbEntity
  8
SUNPO
 62
     0
370
    -2
100
AcDbBlockReference
  2
_OPEN30
 10
61.92799221427214
 20
182.4328304734271
 30
0.0
 41
2.0
 42
2.0
 43
2.0
 50
270.0
  0
MTEXT
  5
46
330
3F
100
AcDbEntity
  8
SUNPO
 62
     0
100
AcDbMText
 10
60.1779922142721
 20
197.8028283734272
 30
0.0
 40
2.5
 41
0.0
 71
     5
 72
     1
  1
\A1;153.7
 11
0.0000000000000001
 21
1.0
 31
0.0
 73
     1
 44
1.0
1001
ACAD
1000
MTEXTBEGIN
1070
    73
1070
     1
1070
    44
1040
1.0
1070
    74
1070
     0
1000
MTEXTEND
  0
POINT
  5
47
330
3F
100
AcDbEntity
  8
DEFPOINTS
 62
     0
100
AcDbPoint
 10
53.92799221427214
 20
213.1728262734272
 30
0.0
  0
POINT
  5
48
330
3F
100
AcDbEntity
  8
DEFPOINTS
 62
     0
100
AcDbPoint
 10
53.92799221427214
 20
182.4328304734271
 30
0.0
  0
POINT
  5
49
330
3F
100
AcDbEntity
  8
DEFPOINTS
 62
     0
100
AcDbPoint
 10
61.92799221427214
 20
182.4328304734271
 30
0.0
  0
ENDBLK
  5
4A
330
3F
100
AcDbEntity
  8
0
100
AcDbBlockEnd
  0
BLOCK
  5
32
330
31
100
AcDbEntity
  8
0
100
AcDbBlockBegin
  2
*D2
 70
     1
 10
0.0
 20
0.0
 30
0.0
  3
*D2
  1

  0
LINE
  5
33
330
31
100
AcDbEntity
  8
SUNPO
 62
     0
370
    -2
100
AcDbLine
 10
20.19965976223216
 20
215.1728304734272
 30
0.0
 11
20.19965976223216
 21
223.1728304734272
 31
0.0
  0
LINE
  5
34
330
31
100
AcDbEntity
  8
SUNPO
 62
     0
370
    -2
100
AcDbLine
 10
53.99965976223217
 20
215.1728304734272
 30
0.0
 11
53.99965976223217
 21
223.1728304734272
 31
0.0
  0
LINE
  5
35
330
31
100
AcDbEntity
  8
SUNPO
 62
     0
370
    -2
100
AcDbLine
 10
22.19965976223216
 20
221.1728304734272
 30
0.0
 11
51.99965976223217
 21
221.1728304734272
 31
0.0
  0
INSERT
  5
36
330
31
100
AcDbEntity
  8
SUNPO
 62
     0
370
    -2
100
AcDbBlockReference
  2
_OPEN30
 10
20.19965976223216
 20
221.1728304734272
 30
0.0
 41
2.0
 42
2.0
 43
2.0
 50
180.0
  0
INSERT
  5
37
330
31
100
AcDbEntity
  8
SUNPO
 62
     0
370
    -2
100
AcDbBlockReference
  2
_OPEN30
 10
53.99965976223217
 20
221.1728304734272
 30
0.0
 41
2.0
 42
2.0
 43
2.0
  0
MTEXT
  5
38
330
31
100
AcDbEntity
  8
SUNPO
 62
     0
100
AcDbMText
 10
37.09965976223216
 20
222.9228304734272
 30
0.0
 40
2.5
 41
0.0
 71
     5
 72
     1
  1
\A1;φ169
 73
     1
 44
1.0
1001
ACAD
1000
MTEXTBEGIN
1070
    73
1070
     1
1070
    44
1040
1.0
1070
    74
1070
     0
1000
MTEXTEND
  0
POINT
  5
39
330
31
100
AcDbEntity
  8
DEFPOINTS
 62
     0
100
AcDbPoint
 10
20.19965976223216
 20
213.1728304734272
 30
0.0
  0
POINT
  5
3B
330
31
100
AcDbEntity
  8
DEFPOINTS
 62
     0
100
AcDbPoint
 10
53.99965976223217
 20
213.1728304734272
 30
0.0
  0
POINT
  5
3C
330
31
100
AcDbEntity
  8
DEFPOINTS
 62
     0
100
AcDbPoint
 10
53.99965976223217
 20
221.1728304734272
 30
0.0
  0
ENDBLK
  5
3D
330
31
100
AcDbEntity
  8
0
100
AcDbBlockEnd
  0
BLOCK
  5
10E
330
104
100
AcDbEntity
  8
0
100
AcDbBlockBegin
  2
*D3
 70
     1
 10
0.0
 20
0.0
 30
0.0
  3
*D3
  1

  0
LINE
  5
138
330
104
100
AcDbEntity
  8
SUNPO
 62
     0
370
    -2
100
AcDbLine
 10
-7.875600464726345
 20
35.92431014481349
 30
0.0
 11
0.1243995352736595
 21
35.92431014481349
 31
0.0
  0
LINE
  5
139
330
104
100
AcDbEntity
  8
SUNPO
 62
     0
370
    -2
100
AcDbLine
 10
-7.875600464726347
 20
5.184314344813486
 30
0.0
 11
0.1243995352736527
 21
5.184314344813484
 31
0.0
  0
LINE
  5
13A
330
104
100
AcDbEntity
  8
SUNPO
 62
     0
370
    -2
100
AcDbLine
 10
-1.87560046472634
 20
33.92431014481349
 30
0.0
 11
-1.875600464726346
 21
7.184314344813484
 31
0.0
  0
INSERT
  5
13B
330
104
100
AcDbEntity
  8
SUNPO
 62
     0
370
    -2
100
AcDbBlockReference
  2
_OPEN30
 10
-1.875600464726339
 20
35.92431014481349
 30
0.0
 41
2.0
 42
2.0
 43
2.0
 50
90.0
  0
INSERT
  5
13C
330
104
100
AcDbEntity
  8
SUNPO
 62
     0
370
    -2
100
AcDbBlockReference
  2
_OPEN30
 10
-1.875600464726346
 20
5.184314344813484
 30
0.0
 41
2.0
 42
2.0
 43
2.0
 50
270.0
  0
MTEXT
  5
13D
330
104
100
AcDbEntity
  8
SUNPO
 62
     0
100
AcDbMText
 10
-3.625600464726346
 20
20.55431224481349
 30
0.0
 40
2.5
 41
0.0
 71
     5
 72
     1
  1
\A1;153.7
 11
0.0000000000000001
 21
1.0
 31
0.0
 73
     1
 44
1.0
1001
ACAD
1000
MTEXTBEGIN
1070
    73
1070
     1
1070
    44
1040
1.0
1070
    74
1070
     0
1000
MTEXTEND
  0
POINT
  5
13E
330
104
100
AcDbEntity
  8
DEFPOINTS
 62
     0
100
AcDbPoint
 10
-9.875600464726346
 20
35.92431014481349
 30
0.0
  0
POINT
  5
13F
330
104
100
AcDbEntity
  8
DEFPOINTS
 62
     0
100
AcDbPoint
 10
-9.875600464726346
 20
5.184314344813486
 30
0.0
  0
POINT
  5
140
330
104
100
AcDbEntity
  8
DEFPOINTS
 62
     0
100
AcDbPoint
 10
-1.875600464726346
 20
5.184314344813484
 30
0.0
  0
ENDBLK
  5
10F
330
104
100
AcDbEntity
  8
0
100
AcDbBlockEnd
  0
BLOCK
  5
11A
330
110
100
AcDbEntity
  8
0
100
AcDbBlockBegin
  2
*D4
 70
     1
 10
0.0
 20
0.0
 30
0.0
  3
*D4
  1

  0
LINE
  5
141
330
110
100
AcDbEntity
  8
SUNPO
 62
     0
370
    -2
100
AcDbLine
 10
-43.60393291676632
 20
37.9243143448135
 30
0.0
 11
-43.60393291676632
 21
45.92431434481349
 31
0.0
  0
LINE
  5
142
330
110
100
AcDbEntity
  8
SUNPO
 62
     0
370
    -2
100
AcDbLine
 10
-9.803932916766314
 20
37.9243143448135
 30
0.0
 11
-9.803932916766314
 21
45.92431434481349
 31
0.0
  0
LINE
  5
143
330
110
100
AcDbEntity
  8
SUNPO
 62
     0
370
    -2
100
AcDbLine
 10
-41.60393291676633
 20
43.92431434481349
 30
0.0
 11
-11.80393291676631
 21
43.92431434481349
 31
0.0
  0
INSERT
  5
144
330
110
100
AcDbEntity
  8
SUNPO
 62
     0
370
    -2
100
AcDbBlockReference
  2
_OPEN30
 10
-43.60393291676632
 20
43.92431434481349
 30
0.0
 41
2.0
 42
2.0
 43
2.0
 50
180.0
  0
INSERT
  5
145
330
110
100
AcDbEntity
  8
SUNPO
 62
     0
370
    -2
100
AcDbBlockReference
  2
_OPEN30
 10
-9.803932916766314
 20
43.92431434481349
 30
0.0
 41
2.0
 42
2.0
 43
2.0
  0
MTEXT
  5
146
330
110
100
AcDbEntity
  8
SUNPO
 62
     0
100
AcDbMText
 10
-26.70393291676632
 20
45.67431434481349
 30
0.0
 40
2.5
 41
0.0
 71
     5
 72
     1
  1
\A1;φ169
 73
     1
 44
1.0
1001
ACAD
1000
MTEXTBEGIN
1070
    73
1070
     1
1070
    44
1040
1.0
1070
    74
1070
     0
1000
MTEXTEND
  0
POINT
  5
147
330
110
100
AcDbEntity
  8
DEFPOINTS
 62
     0
100
AcDbPoint
 10
-43.60393291676632
 20
35.9243143448135
 30
0.0
  0
POINT
  5
148
330
110
100
AcDbEntity
  8
DEFPOINTS
 62
     0
100
AcDbPoint
 10
-9.803932916766314
 20
35.9243143448135
 30
0.0
  0
POINT
  5
149
330
110
100
AcDbEntity
  8
DEFPOINTS
 62
     0
100
AcDbPoint
 10
-9.803932916766314
 20
43.92431434481349
 30
0.0
  0
ENDBLK
  5
11B
330
110
100
AcDbEntity
  8
0
100
AcDbBlockEnd
  0
ENDSEC
  0
SECTION
  2
ENTITIES
  0
DIMENSION
  5
2F
330
2
100
AcDbEntity
  8
SUNPO
100
AcDbDimension
  2
*D4
 10
-9.803932916766314
 20
43.92431434481349
 30
0.0
 11
-26.70393291676632
 21
45.67431434481349
 31
0.0
 70
    33
  1
φ169
 71
     5
 42
33.80000000000001
  3
STANDARD
100
AcDbAlignedDimension
 13
-43.60393291676632
 23
35.9243143448135
 33
0.0
 14
-9.803932916766314
 24
35.9243143448135
 34
0.0
1001
ACAD
1000
DSTYLE
1002
{
1070
    40
1040
1.0
1070
   140
1040
2.5
1070
   147
1040
0.5
1070
   172
1070
     1
1070
   279
1070
     0
1070
   288
1070
     0
1002
}
  0
DIMENSION
  5
3E
330
2
100
AcDbEntity
  8
SUNPO
100
AcDbDimension
  2
*D3
 10
-1.875600464726346
 20
5.184314344813484
 30
0.0
 11
-3.625600464726346
 21
20.55431224481349
 31
0.0
 70
    33
  1
153.7
 71
     5
 42
30.73999580000001
  3
STANDARD
100
AcDbAlignedDimension
 13
-9.875600464726346
 23
35.92431014481349
 33
0.0
 14
-9.875600464726346
 24
5.184314344813486
 34
0.0
1001
ACAD
1000
DSTYLE
1002
{
1070
    40
1040
1.0
1070
   140
1040
2.5
1070
   147
1040
0.5
1070
   172
1070
     1
1070
   279
1070
     0
1070
   288
1070
     0
1002
}
  0
LINE
  5
4B
330
2
100
AcDbEntity
  8
GAIKEI
  6
Continuous
 62
     1
100
AcDbLine
 10
13.95382546066656
 20
36.02431014481349
 30
0.0
 11
13.95382546066656
 21
35.92431014481349
 31
0.0
  0
LINE
  5
4C
330
2
100
AcDbEntity
  8
GAIKEI
  6
Continuous
 62
     1
100
AcDbLine
 10
42.35382546066659
 20
36.02431014481349
 30
0.0
 11
42.35382546066659
 21
35.92431014481349
 31
0.0
  0
LINE
  5
4D
330
2
100
AcDbEntity
  8
GAIKEI
  6
Continuous
 62
     1
100
AcDbLine
 10
42.35382546066659
 20
36.02431014481349
 30
0.0
 11
13.95382546066656
 21
36.02431014481349
 31
0.0
  0
LINE
  5
4E
330
2
100
AcDbEntity
  8
GAIKEI
  6
Continuous
100
AcDbLine
 10
11.25382546066657
 20
35.92431014481349
 30
0.0
 11
11.26954786066653
 21
35.62431014481348
 31
0.0
  0
LINE
  5
4F
330
2
100
AcDbEntity
  8
GAIKEI
  6
Continuous
100
AcDbLine
 10
11.45382546066656
 20
35.92431014481349
 30
0.0
 11
11.25382546066657
 21
35.92431014481349
 31
0.0
  0
LINE
  5
50
330
2
100
AcDbEntity
  8
GAIKEI
  6
Continuous
100
AcDbLine
 10
45.05382546066658
 20
35.92431014481349
 30
0.0
 11
45.03810306066656
 21
35.62431014481348
 31
0.0
  0
LINE
  5
51
330
2
100
AcDbEntity
  8
GAIKEI
  6
Continuous
100
AcDbLine
 10
44.85382546066659
 20
35.92431014481349
 30
0.0
 11
45.05382546066658
 21
35.92431014481349
 31
0.0
  0
LINE
  5
52
330
2
100
AcDbEntity
  8
GAIKEI
  6
Continuous
100
AcDbLine
 10
-43.60393291676632
 20
35.92431014481349
 30
0.0
 11
-43.58821051676637
 21
35.62431014481348
 31
0.0
  0
LINE
  5
53
330
2
100
AcDbEntity
  8
GAIKEI
  6
Continuous
100
AcDbLine
 10
-43.40393291676633
 20
35.92431014481349
 30
0.0
 11
-43.60393291676632
 21
35.92431014481349
 31
0.0
  0
LINE
  5
54
330
2
100
AcDbEntity
  8
GAIKEI
  6
Continuous
 62
     1
100
AcDbLine
 10
-40.90393291676633
 20
36.02431014481349
 30
0.0
 11
-40.90393291676633
 21
35.92431014481349
 31
0.0
  0
LINE
  5
55
330
2
100
AcDbEntity
  8
GAIKEI
  6
Continuous
 62
     1
100
AcDbLine
 10
-12.50393291676636
 20
36.02431014481349
 30
0.0
 11
-40.90393291676633
 21
36.02431014481349
 31
0.0
  0
LINE
  5
56
330
2
100
AcDbEntity
  8
GAIKEI
  6
Continuous
 62
     1
100
AcDbLine
 10
-12.50393291676636
 20
36.02431014481349
 30
0.0
 11
-12.50393291676636
 21
35.92431014481349
 31
0.0
  0
LINE
  5
57
330
2
100
AcDbEntity
  8
GAIKEI
  6
Continuous
100
AcDbLine
 10
-9.80393291676637
 20
35.92431014481349
 30
0.0
 11
-9.819655316766329
 21
35.62431014481348
 31
0.0
  0
LINE
  5
58
330
2
100
AcDbEntity
  8
GAIKEI
  6
Continuous
100
AcDbLine
 10
-10.00393291676636
 20
35.92431014481349
 30
0.0
 11
-9.80393291676637
 21
35.92431014481349
 31
0.0
  0
LINE
  5
59
330
2
100
AcDbEntity
  8
GAIKEI
  6
Continuous
100
AcDbLine
 10
45.03810326066655
 20
35.62431434481349
 30
0.0
 11
44.99245266066657
 21
34.75324794481347
 31
0.0
  0
ARC
  5
5A
330
2
100
AcDbEntity
  8
GAIKEI
  6
Continuous
100
AcDbCircle
 10
44.59300066066657
 20
34.77418234481348
 30
0.0
 40
0.4
100
AcDbArc
 50
321.2212060000005
 51
357.0000000000011
  0
LINE
  5
5B
330
2
100
AcDbEntity
  8
GAIKEI
  6
Continuous
100
AcDbLine
 10
11.26954786066653
 20
35.62431434481349
 30
0.0
 11
11.31519846066658
 21
34.75324794481347
 31
0.0
  0
LINE
  5
5C
330
2
100
AcDbEntity
  8
GAIKEI
  6
Continuous
 62
     1
100
AcDbLine
 10
44.96386246066651
 20
34.62431014481348
 30
0.0
 11
11.34378866066652
 21
34.62431014481348
 31
0.0
  0
ARC
  5
5D
330
2
100
AcDbEntity
  8
GAIKEI
  6
Continuous
100
AcDbCircle
 10
11.71465026066653
 20
34.77418234481348
 30
0.0
 40
0.4
100
AcDbArc
 50
182.9999999999989
 51
218.7787939999993
  0
LINE
  5
5E
330
2
100
AcDbEntity
  8
GAIKEI
  6
Continuous
100
AcDbLine
 10
11.45382546066656
 20
35.92431434481347
 30
0.0
 11
44.85382546066659
 21
35.92431434481347
 31
0.0
  0
LINE
  5
5F
330
2
100
AcDbEntity
  8
GAIKEI
  6
Continuous
 62
     1
100
AcDbLine
 10
45.05382546066658
 20
35.62431434481349
 30
0.0
 11
11.26954786066653
 21
35.62431434481349
 31
0.0
  0
LINE
  5
60
330
2
100
AcDbEntity
  8
GAIKEI
  6
Continuous
100
AcDbLine
 10
28.15382546066656
 20
18.68431434481349
 30
0.0
 11
14.51382546066656
 21
18.68431434481349
 31
0.0
  0
LINE
  5
61
330
2
100
AcDbEntity
  8
GAIKEI
  6
Continuous
100
AcDbLine
 10
41.79382546066654
 20
18.68431434481349
 30
0.0
 11
28.15382546066656
 21
18.68431434481349
 31
0.0
  0
LINE
  5
62
330
2
100
AcDbEntity
  8
GAIKEI
  6
Continuous
100
AcDbLine
 10
14.45423746066655
 20
18.74431434481349
 30
0.0
 11
41.85341146066656
 21
18.74431434481349
 31
0.0
  0
LWPOLYLINE
  5
63
330
2
100
AcDbEntity
  8
GAIKEI
  6
Continuous
 62
     1
100
AcDbPolyline
 90
       39
 70
     0
 43
0.0
 10
41.52861946066656
 20
31.05937234481348
 10
41.52863546066657
 20
31.05970034481348
 10
41.52865146066659
 20
31.0600303448135
 10
41.52866746066661
 20
31.0603583448135
 10
41.52868546066656
 20
31.06068634481349
 10
41.52870146066658
 20
31.06101634481348
 10
41.5287174606666
 20
31.06134434481351
 10
41.52873346066655
 20
31.0616743448135
 10
41.52875146066657
 20
31.06200234481349
 10
41.52876746066659
 20
31.06233034481349
 10
41.52878346066654
 20
31.06266034481348
 10
41.52879946066656
 20
31.0629883448135
 10
41.52881746066657
 20
31.06331634481347
 10
41.52883346066658
 20
31.06364634481349
 10
41.5288494606666
 20
31.06397434481349
 10
41.52886546066656
 20
31.06430434481348
 10
41.52888346066657
 20
31.06463234481348
 10
41.52889946066659
 20
31.06496034481347
 10
41.52891546066661
 20
31.06529034481349
 10
41.52893146066657
 20
31.06561834481349
 10
41.52894946066658
 20
31.06594834481351
 10
41.52896546066659
 20
31.06627634481347
 10
41.52898146066656
 20
31.0666043448135
 10
41.52899746066657
 20
31.06693434481349
 10
41.52901546066658
 20
31.06726234481349
 10
41.5290314606666
 20
31.06759234481348
 10
41.52904746066655
 20
31.0679203448135
 10
41.52906346066657
 20
31.0682483448135
 10
41.52908146066659
 20
31.06857834481349
 10
41.52909746066654
 20
31.06890834481351
 10
41.52911346066656
 20
31.06923634481348
 10
41.52912946066658
 20
31.06956234481348
 10
41.5291454606666
 20
31.06989434481349
 10
41.52916346066655
 20
31.07023234481349
 10
41.52917946066657
 20
31.07055034481348
 10
41.52919346066659
 20
31.0708383448135
 10
41.5292114606666
 20
31.0712083448135
 10
41.52924146066658
 20
31.07177834481348
 10
41.52927746066654
 20
31.0725243448135
  0
LWPOLYLINE
  5
64
330
2
100
AcDbEntity
  8
GAIKEI
  6
Continuous
100
AcDbPolyline
 90
       96
 70
     0
 43
0.0
 10
11.71368346066657
 20
34.22431634481347
 10
11.71393146066657
 20
34.22427034481348
 10
11.71409286066659
 20
34.22421794481349
 10
11.71424546066657
 20
34.22414434481348
 10
11.71444166066658
 20
34.22404554481349
 10
11.71462946066657
 20
34.22393234481348
 10
11.7148568606666
 20
34.22379134481349
 10
11.71507746066658
 20
34.22364034481347
 10
11.71533626066656
 20
34.2234599448135
 10
11.71558946066659
 20
34.2232723448135
 10
11.71587686066658
 20
34.22305414481349
 10
11.71615946066657
 20
34.22283034481348
 10
11.71647446066657
 20
34.22257474481347
 10
11.71678546066658
 20
34.2223143448135
 10
11.71712826066658
 20
34.22202434481349
 10
11.71746746066657
 20
34.2217303448135
 10
11.71783606066657
 20
34.22140594481348
 10
11.71820146066659
 20
34.22107834481349
 10
11.7185938606666
 20
34.22072274481349
 10
11.71898346066655
 20
34.22036434481351
 10
11.71939886066656
 20
34.21997654481348
 10
11.71981146066656
 20
34.21958634481348
 10
11.72024966066658
 20
34.2191705448135
 10
11.72068546066657
 20
34.21875234481348
 10
11.7211436606666
 20
34.21830734481347
 10
11.72159946066654
 20
34.21786034481349
 10
11.72207666066657
 20
34.21738934481349
 10
11.72255146066658
 20
34.21691634481348
 10
11.72304746066658
 20
34.21641934481349
 10
11.72354146066658
 20
34.2159203448135
 10
11.72405446066659
 20
34.21539914481349
 10
11.72456546066655
 20
34.21487634481349
 10
11.72509346066658
 20
34.21433314481348
 10
11.72561946066656
 20
34.21378834481351
 10
11.72616146066656
 20
34.21322314481347
 10
11.72670146066656
 20
34.21265634481347
 10
11.72725646066658
 20
34.21207014481348
 10
11.72780946066655
 20
34.21148234481348
 10
11.7283754606666
 20
34.21087814481348
 10
11.72893946066654
 20
34.21027234481349
 10
11.72951646066656
 20
34.20965094481349
 10
11.73009146066658
 20
34.20902834481351
 10
11.73067746066658
 20
34.20838994481349
 10
11.73126146066659
 20
34.20775034481349
 10
11.73185546066656
 20
34.20709794481349
 10
11.73244746066655
 20
34.20644434481349
 10
11.73304746066657
 20
34.20577794481349
 10
11.73364546066659
 20
34.20511034481348
 10
11.7342504606666
 20
34.20443194481348
 10
11.73485346066655
 20
34.2037523448135
 10
11.73546246066655
 20
34.2030619448135
 10
11.73606946066655
 20
34.20237034481349
 10
11.73668126066655
 20
34.20167094481349
 10
11.73729146066659
 20
34.2009703448135
 10
11.73790826066658
 20
34.2002599448135
 10
11.73852346066655
 20
34.19954834481348
 10
11.73914326066659
 20
34.1988279448135
 10
11.73976146066656
 20
34.19810634481348
 10
11.74038426066658
 20
34.1973759448135
 10
11.7410054606666
 20
34.19664434481348
 10
11.74163226066656
 20
34.1959057448135
 10
11.74225746066656
 20
34.19516634481349
 10
11.74288826066657
 20
34.19441774481351
 10
11.74351746066657
 20
34.19366834481349
 10
11.74415106066658
 20
34.1929107448135
 10
11.74478346066655
 20
34.19215234481348
 10
11.74542006066656
 20
34.19138674481349
 10
11.74605546066658
 20
34.19062034481348
 10
11.74669606066658
 20
34.18984674481351
 10
11.74733546066659
 20
34.1890723448135
 10
11.74798006066658
 20
34.18829174481349
 10
11.74862346066658
 20
34.18751034481349
 10
11.74927006066656
 20
34.18672154481348
 10
11.74991546066656
 20
34.18593234481347
 10
11.75056586066659
 20
34.18513554481348
 10
11.75121546066657
 20
34.18433834481351
 10
11.7518708606666
 20
34.18353254481349
 10
11.75252546066656
 20
34.18272634481349
 10
11.75318086066659
 20
34.1819185448135
 10
11.75383546066655
 20
34.18111034481348
 10
11.75449086066658
 20
34.18030054481349
 10
11.7551454606666
 20
34.17949034481348
 10
11.75581386066659
 20
34.17866154481348
 10
11.75648146066658
 20
34.17783234481348
 10
11.75716986066658
 20
34.1769775448135
 10
11.75785746066657
 20
34.17612234481348
 10
11.75850566066657
 20
34.1753153448135
 10
11.75915346066654
 20
34.17450834481349
 10
11.75974066066658
 20
34.17377634481349
 10
11.76032746066659
 20
34.17304434481349
 10
11.76108866066658
 20
34.1720943448135
 10
11.76184946066655
 20
34.17114434481348
 10
11.76303086066656
 20
34.16966854481348
 10
11.76421146066656
 20
34.16819234481349
 10
11.76576266066655
 20
34.16625134481348
 10
11.76731346066657
 20
34.16431034481349
  0
LWPOLYLINE
  5
65
330
2
100
AcDbEntity
  8
GAIKEI
  6
Continuous
100
AcDbPolyline
 90
      132
 70
     0
 43
0.0
 10
14.18651146066656
 20
31.13920234481347
 10
14.18760746066658
 20
31.13783234481349
 10
14.18815466066655
 20
31.13714734481348
 10
14.18870146066661
 20
31.13646234481348
 10
14.18924666066658
 20
31.13577734481348
 10
14.18979146066658
 20
31.13509234481347
 10
14.19033666066656
 20
31.1344083448135
 10
14.19088146066656
 20
31.13372434481349
 10
14.1914246606666
 20
31.13304034481348
 10
14.19196746066655
 20
31.13235634481347
 10
14.19250966066659
 20
31.13167334481349
 10
14.19305146066659
 20
31.13099034481348
 10
14.19359266066658
 20
31.13030734481347
 10
14.19413346066659
 20
31.1296243448135
 10
14.19467266066658
 20
31.12894234481348
 10
14.1952114606666
 20
31.1282603448135
 10
14.19574966066659
 20
31.12757934481348
 10
14.19628746066655
 20
31.1268983448135
 10
14.1968246606666
 20
31.12621834481348
 10
14.19736146066657
 20
31.12553834481349
 10
14.19789666066657
 20
31.12485834481351
 10
14.1984314606666
 20
31.12417834481349
 10
14.19896466066655
 20
31.1234993448135
 10
14.19949746066658
 20
31.12282034481348
 10
14.20002966066659
 20
31.12214234481348
 10
14.20056146066656
 20
31.12146434481349
 10
14.20109166066658
 20
31.1207863448135
 10
14.20162146066656
 20
31.1201083448135
 10
14.20215066066657
 20
31.11943234481348
 10
14.20267946066656
 20
31.11875634481348
 10
14.20320666066658
 20
31.11808034481348
 10
14.20373346066657
 20
31.11740434481351
 10
14.20425966066659
 20
31.11672934481351
 10
14.20478546066658
 20
31.11605434481351
 10
14.20530866066656
 20
31.11538034481351
 10
14.20583146066656
 20
31.1147063448135
 10
14.20635366066654
 20
31.11403434481349
 10
14.20687546066659
 20
31.11336234481348
 10
14.20739566066657
 20
31.11269034481348
 10
14.20791546066658
 20
31.11201834481349
 10
14.20843466066657
 20
31.11134734481348
 10
14.20895346066657
 20
31.1106763448135
 10
14.20946966066657
 20
31.11000734481348
 10
14.20998546066658
 20
31.10933834481349
 10
14.21049966066658
 20
31.1086703448135
 10
14.21101346066655
 20
31.10800234481349
 10
14.21152566066655
 20
31.10733634481349
 10
14.21203746066658
 20
31.1066703448135
 10
14.21254666066659
 20
31.10600734481349
 10
14.21305546066657
 20
31.10534434481349
 10
14.21356166066658
 20
31.10468334481351
 10
14.21406746066657
 20
31.10402234481347
 10
14.21457166066659
 20
31.10336534481348
 10
14.21507546066658
 20
31.1027083448135
 10
14.21557566066656
 20
31.1020543448135
 10
14.21607546066661
 20
31.1014003448135
 10
14.21657266066654
 20
31.10075034481349
 10
14.21706946066655
 20
31.10010034481348
 10
14.21756266066654
 20
31.0994533448135
 10
14.21805546066656
 20
31.09880634481348
 10
14.21854466066656
 20
31.09816534481348
 10
14.21903346066654
 20
31.09752434481351
 10
14.2195196606666
 20
31.09688734481347
 10
14.22000546066658
 20
31.09625034481349
 10
14.22048666066655
 20
31.09561834481349
 10
14.22096746066654
 20
31.09498634481349
 10
14.22144466066658
 20
31.09436034481348
 10
14.22192146066658
 20
31.0937343448135
 10
14.22286746066658
 20
31.09249434481351
 10
14.22380146066655
 20
31.09126434481348
 10
14.2247274606666
 20
31.09005034481348
 10
14.22564346066656
 20
31.0888483448135
 10
14.2260956606666
 20
31.0882533448135
 10
14.22654746066655
 20
31.08765834481349
 10
14.22699366066655
 20
31.0870703448135
 10
14.22743946066657
 20
31.08648234481348
 10
14.22788066066658
 20
31.0859003448135
 10
14.22832146066656
 20
31.08531834481349
 10
14.22875566066659
 20
31.08474234481349
 10
14.22918946066659
 20
31.08416634481347
 10
14.22961786066656
 20
31.08359654481347
 10
14.23004546066659
 20
31.08302634481348
 10
14.23046686066658
 20
31.08246354481349
 10
14.23088746066656
 20
31.08190034481348
 10
14.23130286066657
 20
31.08134254481348
 10
14.23171746066657
 20
31.08078434481348
 10
14.23212486066654
 20
31.0802335448135
 10
14.23253146066656
 20
31.07968234481348
 10
14.2329320606666
 20
31.07913654481348
 10
14.23333146066659
 20
31.07859034481348
 10
14.23372506066658
 20
31.07805074481348
 10
14.23411746066659
 20
31.07751034481351
 10
14.23450206066656
 20
31.07697674481349
 10
14.23488546066659
 20
31.07644234481347
 10
14.23526326066656
 20
31.07591474481348
 10
14.23563946066656
 20
31.0753863448135
 10
14.23600826066661
 20
31.07486374481349
 10
14.23637546066658
 20
31.07434034481349
 10
14.23673626066659
 20
31.0738227448135
 10
14.23709546066658
 20
31.0733043448135
 10
14.23744746066654
 20
31.07279274481348
 10
14.23779746066657
 20
31.07228034481349
 10
14.23814046066661
 20
31.07177494481351
 10
14.23848146066655
 20
31.07126834481349
 10
14.23881346066656
 20
31.07076994481349
 10
14.23914346066658
 20
31.07027034481348
 10
14.23946446066657
 20
31.06978194481349
 10
14.23978346066656
 20
31.06929234481348
 10
14.24009246066657
 20
31.06881494481348
 10
14.24039946066659
 20
31.06833634481347
 10
14.24069346066659
 20
31.06787294481347
 10
14.24098546066659
 20
31.06740834481349
 10
14.24126546066657
 20
31.06695894481348
 10
14.24154346066655
 20
31.06650834481349
 10
14.24180646066657
 20
31.06607794481349
 10
14.24206746066659
 20
31.06564634481348
 10
14.2423124606666
 20
31.06523574481349
 10
14.24255546066661
 20
31.0648243448135
 10
14.24278266066659
 20
31.06443194481349
 10
14.2430074606666
 20
31.0640383448135
 10
14.24321706066655
 20
31.06366614481348
 10
14.24342346066658
 20
31.06329234481348
 10
14.24360766066655
 20
31.0629549448135
 10
14.24378946066656
 20
31.06261634481348
 10
14.2439468606666
 20
31.0623225448135
 10
14.24410346066656
 20
31.06202834481349
 10
14.24425046066659
 20
31.06172114481348
 10
14.24439346066657
 20
31.06141234481348
 10
14.24454786066656
 20
31.06103674481349
 10
14.24468946066656
 20
31.06065634481348
 10
14.24484566066655
 20
31.0602213448135
 10
14.24498946066654
 20
31.05978234481347
  0
LINE
  5
66
330
2
100
AcDbEntity
  8
GAIKEI
  6
Continuous
100
AcDbLine
 10
11.76731146066657
 20
34.16431434481348
 30
0.0
 11
14.18651346066656
 21
31.13920434481349
 31
0.0
  0
LINE
  5
67
330
2
100
AcDbEntity
  8
GAIKEI
  6
Continuous
100
AcDbLine
 10
11.64331746066654
 20
34.22431434481348
 30
0.0
 11
11.71368546066656
 21
34.22431434481348
 31
0.0
  0
LINE
  5
68
330
2
100
AcDbEntity
  8
GAIKEI
  6
Continuous
100
AcDbLine
 10
11.64331546066654
 20
34.22431634481347
 30
0.0
 11
11.40282246066658
 21
34.52365614481349
 31
0.0
  0
LINE
  5
69
330
2
100
AcDbEntity
  8
GAIKEI
  6
Continuous
100
AcDbLine
 10
44.66433346066657
 20
34.22431634481347
 30
0.0
 11
44.90552686066656
 21
34.52452794481349
 31
0.0
  0
LINE
  5
6A
330
2
100
AcDbEntity
  8
GAIKEI
  6
Continuous
100
AcDbLine
 10
42.06718946066655
 20
30.99164834481348
 30
0.0
 11
42.12159946066651
 21
31.05937234481348
 31
0.0
  0
LINE
  5
6B
330
2
100
AcDbEntity
  8
GAIKEI
  6
Continuous
 62
     1
100
AcDbLine
 10
14.24045946066655
 20
30.99164834481348
 30
0.0
 11
42.06718946066655
 21
30.99164834481348
 31
0.0
  0
LINE
  5
6C
330
2
100
AcDbEntity
  8
GAIKEI
  6
Continuous
100
AcDbLine
 10
14.24045946066655
 20
30.99164834481348
 30
0.0
 11
14.18604946066654
 21
31.05937234481348
 31
0.0
  0
LINE
  5
6D
330
2
100
AcDbEntity
  8
GAIKEI
  6
Continuous
100
AcDbLine
 10
14.24498946066654
 20
31.05937034481349
 30
0.0
 11
14.18605146066653
 21
31.05937034481349
 31
0.0
  0
LINE
  5
6E
330
2
100
AcDbEntity
  8
GAIKEI
  6
Continuous
100
AcDbLine
 10
11.45382546066656
 20
35.92431434481347
 30
0.0
 11
11.44858746066654
 21
35.62431434481349
 31
0.0
  0
LINE
  5
6F
330
2
100
AcDbEntity
  8
GAIKEI
  6
Continuous
 62
     1
100
AcDbLine
 10
44.85906146066656
 20
35.62431434481349
 30
0.0
 11
44.85382546066659
 21
35.92431434481347
 31
0.0
  0
LINE
  5
70
330
2
100
AcDbEntity
  8
GAIKEI
  6
Continuous
100
AcDbLine
 10
14.51382546066656
 20
18.74431434481349
 30
0.0
 11
14.51382546066656
 21
18.68431434481349
 31
0.0
  0
LINE
  5
71
330
2
100
AcDbEntity
  8
GAIKEI
  6
Continuous
100
AcDbLine
 10
41.79382546066654
 20
18.68431434481349
 30
0.0
 11
41.79382546066654
 21
18.74431434481349
 31
0.0
  0
LINE
  5
72
330
2
100
AcDbEntity
  8
GAIKEI
  6
Continuous
100
AcDbLine
 10
41.85341146066656
 20
18.74431634481345
 30
0.0
 11
42.06718946066655
 21
30.99164834481348
 31
0.0
  0
LINE
  5
73
330
2
100
AcDbEntity
  8
GAIKEI
  6
Continuous
100
AcDbLine
 10
14.45423746066655
 20
18.74431634481345
 30
0.0
 11
14.24045946066655
 21
30.99164834481348
 31
0.0
  0
LINE
  5
74
330
2
100
AcDbEntity
  8
GAIKEI
  6
Continuous
100
AcDbLine
 10
14.18154146066655
 20
31.14542034481349
 30
0.0
 11
14.18605146066653
 21
31.05937034481349
 31
0.0
  0
LINE
  5
75
330
2
100
AcDbEntity
  8
GAIKEI
  6
Continuous
100
AcDbLine
 10
14.45528546066657
 20
18.68431434481349
 30
0.0
 11
41.85236546066653
 21
18.68431434481349
 31
0.0
  0
ARC
  5
76
330
2
100
AcDbEntity
  8
GAIKEI
  6
Continuous
100
AcDbCircle
 10
28.15382546066656
 20
18.88431434481347
 30
0.0
 40
13.7
100
AcDbArc
 50
270.0
 51
359.1635400000014
  0
ARC
  5
77
330
2
100
AcDbEntity
  8
GAIKEI
  6
Continuous
100
AcDbCircle
 10
28.15382546066656
 20
18.88431434481347
 30
0.0
 40
13.7
100
AcDbArc
 50
180.8364599999986
 51
270.0
  0
LINE
  5
78
330
2
100
AcDbEntity
  8
GAIKEI
  6
Continuous
 62
     1
100
AcDbLine
 10
41.57260946066651
 20
31.13920014481349
 30
0.0
 11
43.89680546066654
 21
34.16431014481347
 31
0.0
  0
LINE
  5
79
330
2
100
AcDbEntity
  8
GAIKEI
  6
Continuous
 62
     1
100
AcDbLine
 10
42.12159946066651
 20
31.05936614481348
 30
0.0
 11
41.52861946066656
 21
31.05936614481348
 31
0.0
  0
LWPOLYLINE
  5
7A
330
2
100
AcDbEntity
  8
GAIKEI
  6
Continuous
 62
     1
100
AcDbPolyline
 90
       39
 70
     0
 43
0.0
 10
41.52861946066656
 20
31.05936614481348
 10
41.52863546066657
 20
31.0596941448135
 10
41.52865346066659
 20
31.0600241448135
 10
41.5286694606666
 20
31.06035214481349
 10
41.52868546066656
 20
31.06068014481349
 10
41.52870146066658
 20
31.06100814481349
 10
41.52871946066659
 20
31.06133814481348
 10
41.5287354606666
 20
31.0616661448135
 10
41.52875146066657
 20
31.0619941448135
 10
41.52876746066659
 20
31.06232414481349
 10
41.52878546066659
 20
31.06265214481349
 10
41.52880146066656
 20
31.06298014481348
 10
41.52881746066657
 20
31.06330814481348
 10
41.52883346066658
 20
31.06363814481347
 10
41.5288494606666
 20
31.06396614481349
 10
41.52886746066656
 20
31.06429414481349
 10
41.52888346066657
 20
31.06462414481348
 10
41.52889946066659
 20
31.06495214481348
 10
41.52891546066661
 20
31.0652801448135
 10
41.52893346066656
 20
31.0656081448135
 10
41.52894946066658
 20
31.06593814481349
 10
41.52896546066659
 20
31.06626614481348
 10
41.52898146066656
 20
31.06659414481351
 10
41.52899946066656
 20
31.06692214481348
 10
41.52901546066658
 20
31.06725214481349
 10
41.5290314606666
 20
31.06758014481349
 10
41.52904746066655
 20
31.06790814481349
 10
41.52906346066657
 20
31.06823614481348
 10
41.52908146066659
 20
31.06856614481348
 10
41.52909746066654
 20
31.0688941448135
 10
41.52911346066656
 20
31.06922214481349
 10
41.52912946066658
 20
31.0695481448135
 10
41.52914746066653
 20
31.06988014481348
 10
41.52916346066655
 20
31.07021814481348
 10
41.52917946066657
 20
31.0705361448135
 10
41.52919346066659
 20
31.07082414481349
 10
41.52921346066659
 20
31.07119414481349
 10
41.52924146066658
 20
31.07176214481348
 10
41.52927946066654
 20
31.07250814481347
  0
LWPOLYLINE
  5
7B
330
2
100
AcDbEntity
  8
GAIKEI
  6
Continuous
 62
     1
100
AcDbPolyline
 90
      176
 70
     0
 43
0.0
 10
41.52861946066656
 20
31.05936614481348
 10
41.52822746066658
 20
31.0594041448135
 10
41.52805226066658
 20
31.0594467448135
 10
41.52788146066654
 20
31.05950414481351
 10
41.52772806066656
 20
31.0595803448135
 10
41.52758346066656
 20
31.05967214481348
 10
41.52744986066659
 20
31.05977894481347
 10
41.52732946066658
 20
31.0599001448135
 10
41.52721786066655
 20
31.0600375448135
 10
41.52712146066659
 20
31.06018614481349
 10
41.52702946066654
 20
31.06035234481348
 10
41.52695346066656
 20
31.06052614481348
 10
41.52688186066654
 20
31.06071974481347
 10
41.52682546066659
 20
31.06091814481349
 10
41.52677346066655
 20
31.06113474481347
 10
41.5267354606666
 20
31.06135414481349
 10
41.52670326066657
 20
31.06159454481349
 10
41.52668346066656
 20
31.0618361448135
 10
41.52666806066656
 20
31.0620969448135
 10
41.52666346066655
 20
31.06235814481349
 10
41.52666686066658
 20
31.06263834481348
 10
41.52667946066657
 20
31.06291814481347
 10
41.52669846066658
 20
31.06321454481349
 10
41.52672546066656
 20
31.06351014481351
 10
41.52675886066657
 20
31.06382174481348
 10
41.52679946066655
 20
31.06413214481347
 10
41.52684826066661
 20
31.0644567448135
 10
41.52690346066657
 20
31.06478014481349
 10
41.52696466066657
 20
31.06511674481351
 10
41.52703146066659
 20
31.06545214481349
 10
41.52710486066655
 20
31.06579874481349
 10
41.52718346066655
 20
31.06614414481351
 10
41.52726906066658
 20
31.06649874481349
 10
41.52735946066655
 20
31.06685214481348
 10
41.52745526066655
 20
31.0672127448135
 10
41.52755546066657
 20
31.06757214481348
 10
41.52766046066659
 20
31.06793774481349
 10
41.5277694606666
 20
31.06830214481349
 10
41.52788366066658
 20
31.06867174481349
 10
41.52800146066659
 20
31.0690401448135
 10
41.52812366066655
 20
31.06941274481349
 10
41.52824946066653
 20
31.0697841448135
 10
41.52838086066657
 20
31.07015974481348
 10
41.52851546066659
 20
31.07053414481351
 10
41.52865586066655
 20
31.07091474481348
 10
41.52879946066656
 20
31.07129414481349
 10
41.52894686066656
 20
31.07167874481348
 10
41.52909746066654
 20
31.07206214481349
 10
41.52925406066657
 20
31.0724507448135
 10
41.52941346066654
 20
31.07283814481349
 10
41.52957906066655
 20
31.07323074481349
 10
41.52974746066661
 20
31.0736221448135
 10
41.5299200606666
 20
31.07402074481348
 10
41.53009546066658
 20
31.07441814481348
 10
41.53027726066659
 20
31.07482174481351
 10
41.53046146066657
 20
31.07522414481349
 10
41.53065126066656
 20
31.0756327448135
 10
41.53084346066657
 20
31.07604014481348
 10
41.53104026066654
 20
31.07645474481348
 10
41.53123946066654
 20
31.07686814481349
 10
41.53144546066658
 20
31.07728874481348
 10
41.53165346066657
 20
31.07770814481347
 10
41.5318664606666
 20
31.0781347448135
 10
41.53208146066657
 20
31.07856014481348
 10
41.53230246066658
 20
31.07899274481349
 10
41.53252546066659
 20
31.07942414481349
 10
41.53275466066657
 20
31.07986374481348
 10
41.53298546066657
 20
31.08030214481349
 10
41.53322266066658
 20
31.08074874481349
 10
41.53346146066655
 20
31.08119414481348
 10
41.53370566066655
 20
31.08164654481348
 10
41.53395146066657
 20
31.08209814481347
 10
41.53420366066654
 20
31.08255954481348
 10
41.53445746066654
 20
31.0830201448135
 10
41.53471686066654
 20
31.0834875448135
 10
41.53497746066659
 20
31.0839541448135
 10
41.53524486066658
 20
31.08443054481347
 10
41.5355134606666
 20
31.08490614481349
 10
41.53578786066657
 20
31.0853895448135
 10
41.53606346066658
 20
31.0858721448135
 10
41.53634486066659
 20
31.08636354481348
 10
41.53662746066657
 20
31.08685414481349
 10
41.53691486066657
 20
31.08735154481349
 10
41.53720346066655
 20
31.08784814481348
 10
41.53749686066658
 20
31.08835154481346
 10
41.53779146066653
 20
31.0888541448135
 10
41.53809086066655
 20
31.08936154481347
 10
41.53839146066661
 20
31.08986814481347
 10
41.53869586066656
 20
31.09038054481349
 10
41.53900146066655
 20
31.0908921448135
 10
41.53931086066655
 20
31.09140754481348
 10
41.53962146066658
 20
31.09192214481348
 10
41.53993586066656
 20
31.09243954481349
 10
41.54025146066658
 20
31.09295614481349
 10
41.54056886066655
 20
31.09347554481349
 10
41.54088746066657
 20
31.09399414481351
 10
41.54120786066658
 20
31.09451354481348
 10
41.54152946066659
 20
31.0950321448135
 10
41.5418538606666
 20
31.0955525448135
 10
41.5421794606666
 20
31.09607214481349
 10
41.54250686066655
 20
31.09659154481346
 10
41.54283546066659
 20
31.09711014481348
 10
41.54316486066659
 20
31.09762954481349
 10
41.54349546066657
 20
31.09814814481348
 10
41.54382786066657
 20
31.09866754481351
 10
41.5441614606666
 20
31.09918614481347
 10
41.54449606066657
 20
31.09970554481348
 10
41.54483146066655
 20
31.10022414481349
 10
41.54517006066657
 20
31.1007435448135
 10
41.54550946066655
 20
31.10126214481349
 10
41.54585106066656
 20
31.10178154481349
 10
41.54619346066659
 20
31.10230014481349
 10
41.54653706066653
 20
31.10282154481348
 10
41.54688146066655
 20
31.1033421448135
 10
41.54722906066655
 20
31.10386454481349
 10
41.54757746066656
 20
31.10438614481348
 10
41.54792906066655
 20
31.10491054481349
 10
41.5482814606666
 20
31.1054341448135
 10
41.54863506066658
 20
31.10595954481349
 10
41.54898946066658
 20
31.10648414481349
 10
41.54934706066654
 20
31.1070125448135
 10
41.54970546066659
 20
31.1075401448135
 10
41.55006606066655
 20
31.10807054481347
 10
41.55042746066658
 20
31.1086001448135
 10
41.55079226066658
 20
31.10913234481348
 10
41.55115746066655
 20
31.10966414481351
 10
41.55152526066655
 20
31.11019934481348
 10
41.55189346066658
 20
31.11073414481351
 10
41.55226526066655
 20
31.11127134481348
 10
41.55263746066657
 20
31.11180814481349
 10
41.55301126066655
 20
31.11234834481348
 10
41.55338546066656
 20
31.1128881448135
 10
41.55376326066658
 20
31.11342934481348
 10
41.55414146066658
 20
31.1139701448135
 10
41.55452126066655
 20
31.11451234481348
 10
41.55490146066654
 20
31.11505414481348
 10
41.55528326066655
 20
31.11559934481349
 10
41.5556654606666
 20
31.11614414481349
 10
41.55605026066655
 20
31.11668934481349
 10
41.55643546066658
 20
31.1172341448135
 10
41.55682326066659
 20
31.1177803448135
 10
41.55721146066656
 20
31.11832614481349
 10
41.55760026066656
 20
31.1188733448135
 10
41.55798946066659
 20
31.11942014481349
 10
41.55838126066657
 20
31.11996834481349
 10
41.55877346066654
 20
31.12051614481348
 10
41.55916626066658
 20
31.12106434481348
 10
41.55955946066661
 20
31.12161214481347
 10
41.55995426066659
 20
31.12216134481349
 10
41.56034946066654
 20
31.12271014481348
 10
41.56074526066658
 20
31.12325834481351
 10
41.56114146066658
 20
31.1238061448135
 10
41.56153826066656
 20
31.1243543448135
 10
41.56193546066657
 20
31.12490214481349
 10
41.56233526066654
 20
31.12545134481349
 10
41.56273546066654
 20
31.1260001448135
 10
41.56313626066657
 20
31.1265493448135
 10
41.56353746066656
 20
31.12709814481349
 10
41.56393926066658
 20
31.12764534481349
 10
41.56434146066658
 20
31.12819214481348
 10
41.5647422606666
 20
31.12873734481349
 10
41.5651434606666
 20
31.12928214481349
 10
41.5655522606666
 20
31.1298353448135
 10
41.56596146066658
 20
31.13038814481348
 10
41.56638206066657
 20
31.13095454481348
 10
41.56680346066656
 20
31.13152014481349
 10
41.56720026066659
 20
31.13205234481347
 10
41.56759746066654
 20
31.13258414481351
 10
41.56795646066655
 20
31.13306534481348
 10
41.56831546066655
 20
31.13354614481349
 10
41.56878206066653
 20
31.13416654481347
 10
41.56924946066658
 20
31.13478614481349
 10
41.56997426066658
 20
31.13574214481349
 10
41.57070146066655
 20
31.1366961448135
 10
41.57165466066658
 20
31.13794874481349
 10
41.57260946066656
 20
31.13920014481349
  0
LINE
  5
7C
330
2
100
AcDbEntity
  8
GAIKEI
  6
Continuous
 62
     1
100
AcDbLine
 10
43.96034146066654
 20
34.22431014481347
 30
0.0
 11
44.66433346066657
 21
34.22431014481347
 31
0.0
  0
LWPOLYLINE
  5
7D
330
2
100
AcDbEntity
  8
GAIKEI
  6
Continuous
 62
     1
100
AcDbPolyline
 90
       96
 70
     0
 43
0.0
 10
43.89680346066654
 20
34.16431414481349
 10
43.89812946066661
 20
34.16603214481347
 10
43.89879266066657
 20
34.16688874481349
 10
43.89945746066655
 20
34.1677441448135
 10
43.90012366066656
 20
34.1685967448135
 10
43.9007914606666
 20
34.16944814481349
 10
43.9014596606666
 20
34.1702967448135
 10
43.90212946066657
 20
34.1711441448135
 10
43.90279866066657
 20
34.17198794481348
 10
43.90346946066654
 20
34.17283014481351
 10
43.90414166066659
 20
34.1736699448135
 10
43.90481546066655
 20
34.17450814481347
 10
43.9054886606666
 20
34.17534194481348
 10
43.90616346066656
 20
34.1761741448135
 10
43.90683846066656
 20
34.17700294481349
 10
43.90751546066655
 20
34.1778301448135
 10
43.90819246066655
 20
34.17865294481348
 10
43.9088714606666
 20
34.1794741448135
 10
43.90954946066654
 20
34.18029194481349
 10
43.91022946066658
 20
34.18110814481349
 10
43.91091046066662
 20
34.18191914481349
 10
43.9115934606666
 20
34.1827281448135
 10
43.91227546066659
 20
34.18353214481348
 10
43.91295946066657
 20
34.18433414481351
 10
43.91364346066654
 20
34.18513214481348
 10
43.91432946066657
 20
34.18592814481349
 10
43.91501526066656
 20
34.18671814481348
 10
43.91570346066657
 20
34.18750614481349
 10
43.91639026066662
 20
34.1882891448135
 10
43.91707946066657
 20
34.18907014481348
 10
43.91776826066655
 20
34.18984534481348
 10
43.91845946066655
 20
34.19061814481347
 10
43.91915026066658
 20
34.19138434481349
 10
43.91984346066658
 20
34.19214814481347
 10
43.92053526066661
 20
34.19290734481348
 10
43.92122946066661
 20
34.19366414481351
 10
43.92192426066657
 20
34.19441434481348
 10
43.92262146066662
 20
34.19516214481348
 10
43.92331626066652
 20
34.19590254481349
 10
43.92401346066657
 20
34.1966401448135
 10
43.92471106066659
 20
34.19737254481351
 10
43.92541146066662
 20
34.19810214481348
 10
43.92611006066658
 20
34.19882454481348
 10
43.92681146066661
 20
34.1995441448135
 10
43.92751206066657
 20
34.20025654481347
 10
43.92821546066659
 20
34.20096614481349
 10
43.92891706066655
 20
34.20166774481351
 10
43.92962146066657
 20
34.20236614481348
 10
43.93032506066663
 20
34.20305874481349
 10
43.93103146066659
 20
34.20374814481349
 10
43.93173606066659
 20
34.20442874481347
 10
43.9324434606666
 20
34.2051061448135
 10
43.93314806066655
 20
34.20577474481348
 10
43.93385546066656
 20
34.20644014481349
 10
43.93455886066658
 20
34.20709494481349
 10
43.93526546066659
 20
34.20774614481349
 10
43.93596686066655
 20
34.2083869448135
 10
43.93667146066661
 20
34.2090241448135
 10
43.93736886066659
 20
34.20964894481347
 10
43.93806946066661
 20
34.21027014481348
 10
43.93876086066654
 20
34.21087594481349
 10
43.93945546066663
 20
34.2114781448135
 10
43.94014086066658
 20
34.21206714481349
 10
43.94082946066657
 20
34.21265214481349
 10
43.94150686066654
 20
34.21322014481348
 10
43.94218746066655
 20
34.2137841448135
 10
43.94285686066655
 20
34.21433014481349
 10
43.94352946066658
 20
34.21487214481349
 10
43.9441878606666
 20
34.21539634481348
 10
43.94484946066654
 20
34.21591614481349
 10
43.94549586066659
 20
34.21641634481347
 10
43.94614546066657
 20
34.21691214481348
 10
43.94677766066661
 20
34.21738654481348
 10
43.94741346066655
 20
34.21785614481348
 10
43.94803266066662
 20
34.21830474481348
 10
43.9486554606666
 20
34.21874814481348
 10
43.94925866066659
 20
34.21916794481348
 10
43.94986546066661
 20
34.2195821448135
 10
43.9504516606666
 20
34.21997414481351
 10
43.9510414606666
 20
34.2203601448135
 10
43.95160566066659
 20
34.22071994481348
 10
43.95217346066658
 20
34.22107414481349
 10
43.95272446066655
 20
34.22140354481348
 10
43.95327946066657
 20
34.22172614481349
 10
43.95381686066662
 20
34.22202394481349
 10
43.95435946066657
 20
34.22231214481349
 10
43.95485246066658
 20
34.2225729448135
 10
43.95534946066658
 20
34.2228261448135
 10
43.95578686066659
 20
34.22304334481351
 10
43.95622546066658
 20
34.22325814481349
 10
43.95672506066659
 20
34.22345474481347
 10
43.95722946066655
 20
34.22363814481349
 10
43.95791786066661
 20
34.22383634481349
 10
43.95861746066657
 20
34.22399014481348
 10
43.95947506066659
 20
34.2241703448135
 10
43.96033946066654
 20
34.22431414481349
  0
LINE
  5
7E
330
2
100
AcDbEntity
  8
GAIKEI
  6
Continuous
100
AcDbLine
 10
42.06719406066656
 20
30.99164834481348
 30
0.0
 11
44.66433226066658
 21
34.22431014481347
 31
0.0
  0
LINE
  5
7F
330
2
100
AcDbEntity
  8
GAIKEI
  6
Continuous
 62
     1
100
AcDbLine
 10
-35.30230671676634
 20
17.08346414481349
 30
0.0
 11
-35.26343871676636
 21
17.08346414481349
 31
0.0
  0
LINE
  5
80
330
2
100
AcDbEntity
  8
GAIKEI
  6
Continuous
 62
     1
100
AcDbLine
 10
-35.45040471676634
 20
17.21434214481348
 30
0.0
 11
-35.30318671676634
 21
17.08346414481349
 31
0.0
  0
LWPOLYLINE
  5
81
330
2
100
AcDbEntity
  8
GAIKEI
  6
Continuous
 62
     1
100
AcDbPolyline
 90
       56
 70
     0
 43
0.0
 10
-35.50401071676629
 20
17.28324014481347
 10
-35.5026547167663
 20
17.2806641448135
 10
-35.5019645167663
 20
17.2793811448135
 10
-35.50126671676628
 20
17.27810214481349
 10
-35.50056051676631
 20
17.2768261448135
 10
-35.49984671676635
 20
17.2755541448135
 10
-35.4991235167663
 20
17.2742859448135
 10
-35.49839271676626
 20
17.27302214481349
 10
-35.49765451676632
 20
17.27176094481348
 10
-35.49690871676631
 20
17.27050414481348
 10
-35.4961545167663
 20
17.2692519448135
 10
-35.49539271676633
 20
17.26800414481349
 10
-35.4946225167663
 20
17.26675994481349
 10
-35.49384471676632
 20
17.26552014481348
 10
-35.49305851676633
 20
17.26428474481349
 10
-35.49226471676627
 20
17.26305414481351
 10
-35.49146351676632
 20
17.2618287448135
 10
-35.49065471676636
 20
17.26060814481349
 10
-35.48983851676633
 20
17.25939074481348
 10
-35.48901471676629
 20
17.25817814481348
 10
-35.48818331676631
 20
17.25697074481348
 10
-35.4873447167663
 20
17.25576814481349
 10
-35.4864983167663
 20
17.25457054481347
 10
-35.48564471676633
 20
17.25337814481349
 10
-35.48478331676631
 20
17.25219154481348
 10
-35.48391471676632
 20
17.2510101448135
 10
-35.48303831676629
 20
17.2498325448135
 10
-35.48215471676633
 20
17.2486601448135
 10
-35.48126431676633
 20
17.24749454481349
 10
-35.4803667167663
 20
17.24633414481349
 10
-35.47946331676633
 20
17.24517954481348
 10
-35.47855271676633
 20
17.24403014481351
 10
-35.47763411676636
 20
17.24288634481348
 10
-35.47670871676633
 20
17.24174814481347
 10
-35.47577611676627
 20
17.24061534481348
 10
-35.47483671676628
 20
17.23948814481349
 10
-35.47388811676632
 20
17.23836534481347
 10
-35.47293271676631
 20
17.23724814481349
 10
-35.47197611676632
 20
17.23614134481349
 10
-35.47101271676627
 20
17.23504014481349
 10
-35.47004871676632
 20
17.23395154481346
 10
-35.46907871676632
 20
17.23286814481349
 10
-35.46808511676636
 20
17.23177614481349
 10
-35.46708471676629
 20
17.23069014481348
 10
-35.46605371676629
 20
17.22958734481347
 10
-35.46501471676629
 20
17.22849214481349
 10
-35.46403851676632
 20
17.22746454481347
 10
-35.46305671676635
 20
17.22644214481349
 10
-35.46216571676632
 20
17.2255213448135
 10
-35.4612727167663
 20
17.22460214481347
 10
-35.46010631676632
 20
17.22344654481347
 10
-35.4589307167663
 20
17.22230014481349
 10
-35.45710551676632
 20
17.22055474481348
 10
-35.45525671676632
 20
17.21883414481348
 10
-35.45283811676632
 20
17.21658014481349
 10
-35.45040471676634
 20
17.21434214481348
  0
LINE
  5
82
330
2
100
AcDbEntity
  8
GAIKEI
  6
Continuous
 62
     1
100
AcDbLine
 10
-35.29640531676637
 20
17.01016154481346
 30
0.0
 11
-35.30393271676633
 21
16.98662214481348
 31
0.0
  0
ARC
  5
83
330
2
100
AcDbEntity
  8
GAIKEI
  6
Continuous
 62
     1
100
AcDbCircle
 10
-43.78209891676635
 20
20.86424694481349
 30
0.0
 40
9.319923399999998
100
AcDbArc
 50
335.5731040000013
 51
346.5031259999967
  0
ARC
  5
84
330
2
100
AcDbEntity
  8
GAIKEI
  6
Continuous
 62
     1
100
AcDbCircle
 10
-44.35029971676636
 20
20.96611814481347
 30
0.0
 40
9.658377000000001
100
AcDbArc
 50
337.1419759999978
 51
346.3346080000003
  0
ARC
  5
85
330
2
100
AcDbEntity
  8
GAIKEI
  6
Continuous
 62
     1
100
AcDbCircle
 10
-28.32423771676634
 20
20.97072314481346
 30
0.0
 40
8.0713488
100
AcDbArc
 50
196.4557469999989
 51
207.1847260000046
  0
LINE
  5
86
330
2
100
AcDbEntity
  8
GAIKEI
  6
Continuous
 62
     1
100
AcDbLine
 10
-18.11146031676634
 20
17.01016154481346
 30
0.0
 11
-18.10393291676632
 21
16.98662214481348
 31
0.0
  0
ARC
  5
87
330
2
100
AcDbEntity
  8
GAIKEI
  6
Continuous
 62
     1
100
AcDbCircle
 10
-9.625766716766349
 20
20.86424694481349
 30
0.0
 40
9.319923399999998
100
AcDbArc
 50
193.4968740000033
 51
204.4268959999987
  0
ARC
  5
88
330
2
100
AcDbEntity
  8
GAIKEI
  6
Continuous
 62
     1
100
AcDbCircle
 10
-9.05756591676635
 20
20.96611814481347
 30
0.0
 40
9.658377000000001
100
AcDbArc
 50
193.6653919999996
 51
202.8580240000021
  0
ARC
  5
89
330
2
100
AcDbEntity
  8
GAIKEI
  6
Continuous
 62
     1
100
AcDbCircle
 10
-25.08362791676638
 20
20.97072314481346
 30
0.0
 40
8.0713488
100
AcDbArc
 50
332.8152739999954
 51
343.544253000001
  0
LINE
  5
8A
330
2
100
AcDbEntity
  8
GAIKEI
  6
Continuous
100
AcDbLine
 10
-12.79056431676633
 20
30.99164834481348
 30
0.0
 11
-10.19342611676631
 21
34.22431014481347
 31
0.0
  0
LWPOLYLINE
  5
8B
330
2
100
AcDbEntity
  8
GAIKEI
  6
Continuous
 62
     1
100
AcDbPolyline
 90
       56
 70
     0
 43
0.0
 10
-30.90393291676628
 20
7.477088144813478
 10
-30.63247091676635
 20
7.407006144813493
 10
-30.49607171676632
 20
7.373630344813477
 10
-30.35938891676631
 20
7.341436144813485
 10
-30.22212891676634
 20
7.31040594481351
 10
-30.08460691676635
 20
7.280558144813483
 10
-29.94657991676632
 20
7.251806944813495
 10
-29.80831091676634
 20
7.224242144813501
 10
-29.66956491676632
 20
7.197895944813495
 10
-29.53059691676628
 20
7.172748144813482
 10
-29.39121711676632
 20
7.148733944813471
 10
-29.25163491676631
 20
7.12592614481349
 10
-29.11165271676635
 20
7.104360744813504
 10
-28.97148891676631
 20
7.084008144813481
 10
-28.83099051676629
 20
7.064813944813494
 10
-28.6903309167663
 20
7.046838144813477
 10
-28.54935871676628
 20
7.030130944813492
 10
-28.4082469167663
 20
7.014648144813463
 10
-28.26688231676633
 20
7.000343744813477
 10
-28.1253989167663
 20
6.987268144813469
 10
-27.98368951676628
 20
6.975479544813481
 10
-27.84188291676628
 20
6.964924144813494
 10
-27.69990891676628
 20
6.955560144813489
 10
-27.55785891676635
 20
6.94743214481349
 10
-27.4156769167663
 20
6.940603144813479
 10
-27.27344091676628
 20
6.935012144813498
 10
-27.13111131676635
 20
6.930624944813501
 10
-26.98874891676633
 20
6.927478144813477
 10
-26.84632831676629
 20
6.925638344813478
 10
-26.70389691676632
 20
6.925042144813488
 10
-26.56150051676633
 20
6.925639944813497
 10
-26.41911491676632
 20
6.927478144813477
 10
-26.27682671676633
 20
6.930613144813491
 10
-26.13457091676628
 20
6.934980144813494
 10
-25.99226071676628
 20
6.940584944813508
 10
-25.85000491676635
 20
6.94743214481349
 10
-25.70767671676629
 20
6.955612944813481
 10
-25.56542691676634
 20
6.965060144813492
 10
-25.42389791676635
 20
6.975552144813491
 10
-25.28246491676635
 20
6.987268144813469
 10
-25.14207471676633
 20
7.000119744813474
 10
-25.00179291676636
 20
7.014106144813467
 10
-24.8595901167663
 20
7.029839944813488
 10
-24.71753291676634
 20
7.046838144813477
 10
-24.57255811676635
 20
7.065727144813479
 10
-24.4277909167663
 20
7.086146144813483
 10
-24.29192991676632
 20
7.105489544813508
 10
-24.15622891676628
 20
7.12592614481349
 10
-24.03365551676632
 20
7.144945144813505
 10
-23.91113691676628
 20
7.164314144813488
 10
-23.75517611676634
 20
7.193401144813492
 10
-23.59955291676635
 20
7.224242144813501
 10
-23.36128431676627
 20
7.274911344813489
 10
-23.12403891676632
 20
7.330174144813497
 10
-22.8136361167663
 20
7.402158944813464
 10
-22.50393091676631
 20
7.477088144813478
  0
LWPOLYLINE
  5
8C
330
2
100
AcDbEntity
  8
GAIKEI
  6
Continuous
 62
     1
100
AcDbPolyline
 90
      116
 70
     0
 43
0.0
 10
-31.1752249167663
 20
7.923120144813481
 10
-31.17369891676629
 20
7.92284614481349
 10
-31.17292371676632
 20
7.922723944813469
 10
-31.17214691676634
 20
7.922612144813484
 10
-31.1713595167663
 20
7.922509144813489
 10
-31.17057091676634
 20
7.922416144813496
 10
-31.16977251676633
 20
7.922333144813478
 10
-31.16897291676628
 20
7.922260144813492
 10
-31.16816431676631
 20
7.922197744813502
 10
-31.16735491676633
 20
7.922146144813495
 10
-31.16653511676634
 20
7.922104744813481
 10
-31.16571491676632
 20
7.922074144813478
 10
-31.16488591676631
 20
7.922055544813474
 10
-31.1640569167663
 20
7.922048144813487
 10
-31.16321991676637
 20
7.922052544813482
 10
-31.16238291676632
 20
7.922068144813465
 10
-31.16153771676636
 20
7.922096344813468
 10
-31.16069291676633
 20
7.922136144813492
 10
-31.15984151676628
 20
7.922187344813465
 10
-31.1589909167663
 20
7.922250144813489
 10
-31.15813331676634
 20
7.922328144813491
 10
-31.15727691676631
 20
7.922418144813491
 10
-31.15641511676631
 20
7.922521144813487
 10
-31.15555491676634
 20
7.922636144813509
 10
-31.15468791676631
 20
7.922764944813479
 10
-31.15382291676633
 20
7.922906144813509
 10
-31.15295471676632
 20
7.923060944813499
 10
-31.15208891676628
 20
7.923228144813492
 10
-31.15121851676633
 20
7.923410944813497
 10
-31.15035091676634
 20
7.923606144813476
 10
-31.14948031676636
 20
7.923814744813483
 10
-31.1486129167663
 20
7.924036144813499
 10
-31.14774311676626
 20
7.924272744813492
 10
-31.14687691676636
 20
7.924522144813494
 10
-31.14600991676628
 20
7.924786744813502
 10
-31.14514691676629
 20
7.925064144813518
 10
-31.14428271676627
 20
7.925356744813484
 10
-31.14342291676633
 20
7.925662144813486
 10
-31.14256451676636
 20
7.925981744813498
 10
-31.14171091676633
 20
7.926314144813488
 10
-31.1408583167663
 20
7.926661744813486
 10
-31.1400109167663
 20
7.927022144813463
 10
-31.13916491676633
 20
7.927397744813475
 10
-31.13832491676635
 20
7.927786144813467
 10
-31.13748771676632
 20
7.928189744813494
 10
-31.13665691676636
 20
7.928606144813471
 10
-31.13583051676631
 20
7.929035944813477
 10
-31.13501091676631
 20
7.929478144813487
 10
-31.1341953167663
 20
7.929934944813481
 10
-31.13338691676631
 20
7.930404144813479
 10
-31.13258411676634
 20
7.930887944813491
 10
-31.13178891676631
 20
7.931384144813478
 10
-31.13100091676631
 20
7.931893144813471
 10
-31.13022091676635
 20
7.932414144813492
 10
-31.12944671676633
 20
7.932948144813479
 10
-31.12868091676631
 20
7.933494144813494
 10
-31.12792451676631
 20
7.934053344813492
 10
-31.12717691676631
 20
7.934624144813483
 10
-31.12643631676633
 20
7.935206544813468
 10
-31.12570491676633
 20
7.93580014481347
 10
-31.12498411676631
 20
7.936406544813479
 10
-31.12427291676636
 20
7.937024144813506
 10
-31.12357191676631
 20
7.937650744813481
 10
-31.12288091676635
 20
7.938288144813469
 10
-31.12220071676631
 20
7.938937944813488
 10
-31.12153091676635
 20
7.939598144813487
 10
-31.12087171676632
 20
7.940266144813477
 10
-31.12022291676635
 20
7.940944144813499
 10
-31.11958651676633
 20
7.941632344813484
 10
-31.11896091676636
 20
7.942330144813496
 10
-31.11834731676629
 20
7.943035544813483
 10
-31.11774491676636
 20
7.943750144813492
 10
-31.11715631676634
 20
7.944471744813483
 10
-31.11657891676634
 20
7.945202144813492
 10
-31.11601411676634
 20
7.945939944813517
 10
-31.11546091676633
 20
7.946686144813497
 10
-31.11492111676631
 20
7.947438144813474
 10
-31.11439291676629
 20
7.948198144813488
 10
-31.11387911676627
 20
7.94896234481348
 10
-31.11337691676636
 20
7.949734144813504
 10
-31.11288891676634
 20
7.950510544813482
 10
-31.11241291676629
 20
7.951294144813488
 10
-31.11195191676632
 20
7.952080744813486
 10
-31.11150291676632
 20
7.952874144813506
 10
-31.11106791676628
 20
7.953669944813498
 10
-31.11064491676632
 20
7.954472144813479
 10
-31.11023691676633
 20
7.955275144813498
 10
-31.1098409167663
 20
7.956084144813502
 10
-31.10945991676635
 20
7.956894344813491
 10
-31.10909091676632
 20
7.957710144813489
 10
-31.10873591676636
 20
7.958525544813483
 10
-31.10839291676632
 20
7.95934614481348
 10
-31.10806591676635
 20
7.960164944813499
 10
-31.10775091676635
 20
7.960988144813484
 10
-31.10744891676632
 20
7.961811144813509
 10
-31.10715891676631
 20
7.962638144813467
 10
-31.10688471676633
 20
7.963463144813488
 10
-31.10662291676636
 20
7.964292144813498
 10
-31.1063729167663
 20
7.965115544813471
 10
-31.10613491676634
 20
7.965942144813482
 10
-31.10591251676635
 20
7.966759744813487
 10
-31.1057009167663
 20
7.967580144813496
 10
-31.10550291676634
 20
7.968407744813475
 10
-31.10531691676636
 20
7.969238144813488
 10
-31.10514191676634
 20
7.970081744813484
 10
-31.1049809167663
 20
7.970928144813484
 10
-31.10483371676628
 20
7.971719344813493
 10
-31.10469691676633
 20
7.972512144813492
 10
-31.10457811676634
 20
7.97322694481349
 10
-31.10446291676635
 20
7.973942144813463
 10
-31.10435611676633
 20
7.974844344813504
 10
-31.10426491676629
 20
7.975748144813479
 10
-31.10415691676633
 20
7.977116944813474
 10
-31.10408891676627
 20
7.978488144813468
 10
-31.10399871676634
 20
7.980268744813486
 10
-31.10393491676632
 20
7.982050144813484
  0
LWPOLYLINE
  5
8D
330
2
100
AcDbEntity
  8
GAIKEI
  6
Continuous
 62
     1
100
AcDbPolyline
 90
       55
 70
     0
 43
0.0
 10
-31.50392891676631
 20
7.988508144813494
 10
-31.4929909167663
 20
7.9862541448135
 10
-31.48752211676629
 20
7.985129544813503
 10
-31.48205291676629
 20
7.984006144813491
 10
-31.47658211676628
 20
7.982883544813489
 10
-31.4711109167663
 20
7.981762144813501
 10
-31.46564011676628
 20
7.980642544813491
 10
-31.46016891676629
 20
7.979524144813495
 10
-31.45469711676629
 20
7.978407544813507
 10
-31.4492249167663
 20
7.977292144813475
 10
-31.44375311676629
 20
7.976177544813481
 10
-31.4382809167663
 20
7.975064144813501
 10
-31.4328081167663
 20
7.973951544813473
 10
-31.42733491676632
 20
7.972840144813488
 10
-31.42186111676631
 20
7.971730544813482
 10
-31.41638691676633
 20
7.970622144813489
 10
-31.41091311676632
 20
7.969515544813475
 10
-31.40543891676634
 20
7.968410144813475
 10
-31.39996411676634
 20
7.967305544813484
 10
-31.39448891676631
 20
7.966202144813479
 10
-31.38901411676631
 20
7.965100544813481
 10
-31.38353891676627
 20
7.964000144813496
 10
-31.37806211676628
 20
7.962900544813464
 10
-31.3725849167663
 20
7.961802144813475
 10
-31.3671091167663
 20
7.960705544813492
 10
-31.36163291676633
 20
7.959610144813495
 10
-31.35615511676633
 20
7.958515544813479
 10
-31.35067691676636
 20
7.957422144813477
 10
-31.34519811676631
 20
7.956330544813482
 10
-31.33971891676629
 20
7.955240144813501
 10
-31.33424111676629
 20
7.954150544813501
 10
-31.32876291676633
 20
7.953062144813486
 10
-31.32328611676633
 20
7.951976544813476
 10
-31.31780891676636
 20
7.950892144813479
 10
-31.31232711676631
 20
7.949807544813495
 10
-31.3068449167663
 20
7.948724144813496
 10
-31.30135311676634
 20
7.947640544813481
 10
-31.29586091676629
 20
7.946558144813479
 10
-31.29039111676628
 20
7.945481544813475
 10
-31.28492091676629
 20
7.944406144813484
 10
-31.2794821167663
 20
7.943337544813516
 10
-31.27404291676635
 20
7.942270144813505
 10
-31.26851711676636
 20
7.941188544813485
 10
-31.26299091676628
 20
7.940108144813478
 10
-31.25733511676628
 20
7.9390033448135
 10
-31.25167891676631
 20
7.937900144813511
 10
-31.24636811676635
 20
7.936864744813476
 10
-31.2410569167663
 20
7.935830144813508
 10
-31.23145491676633
 20
7.933960144813482
 10
-31.22528711676637
 20
7.932765344813475
 10
-31.21911891676632
 20
7.931572144813486
 10
-31.2096173167663
 20
7.929737744813479
 10
-31.20011491676633
 20
7.9279081448135
 10
-31.18767031676635
 20
7.9255125448135
 10
-31.1752249167663
 20
7.923120144813481
  0
LWPOLYLINE
  5
8E
330
2
100
AcDbEntity
  8
GAIKEI
  6
Continuous
 62
     1
100
AcDbPolyline
 90
      116
 70
     0
 43
0.0
 10
-22.30392891676627
 20
7.982050144813484
 10
-22.30390891676632
 20
7.980498144813481
 10
-22.3038843167663
 20
7.979714944813508
 10
-22.30384891676636
 20
7.978932144813484
 10
-22.30380211676629
 20
7.97813894481348
 10
-22.30374491676628
 20
7.977346144813509
 10
-22.30367611676633
 20
7.976546744813504
 10
-22.30359691676631
 20
7.975748144813479
 10
-22.30350631676629
 20
7.974941544813475
 10
-22.30340491676634
 20
7.974136144813485
 10
-22.30329131676632
 20
7.973323344813479
 10
-22.30316691676632
 20
7.972512144813492
 10
-22.30302951676629
 20
7.971695344813497
 10
-22.3028809167663
 20
7.970880144813492
 10
-22.30271951676633
 20
7.970058144813492
 10
-22.30254691676635
 20
7.969238144813488
 10
-22.30236071676632
 20
7.968413944813477
 10
-22.30216291676629
 20
7.967592144813465
 10
-22.30195171676633
 20
7.9667657448135
 10
-22.30172891676631
 20
7.965942144813482
 10
-22.30149071676635
 20
7.965114544813474
 10
-22.30124091676635
 20
7.964290144813503
 10
-22.30097871676628
 20
7.963462344813478
 10
-22.30070491676634
 20
7.962638144813467
 10
-22.30041491676627
 20
7.961812144813507
 10
-22.30011291676635
 20
7.960990144813507
 10
-22.29979791676635
 20
7.960165944813496
 10
-22.29947091676633
 20
7.95934614481348
 10
-22.29912791676634
 20
7.958525744813499
 10
-22.29877291676633
 20
7.957710144813489
 10
-22.29840391676635
 20
7.956894544813508
 10
-22.29802291676628
 20
7.956084144813502
 10
-22.29762691676632
 20
7.955275144813498
 10
-22.29721891676633
 20
7.954472144813479
 10
-22.29679591676632
 20
7.953669944813498
 10
-22.29636091676628
 20
7.952874144813506
 10
-22.29591191676633
 20
7.952080744813486
 10
-22.2954509167663
 20
7.951294144813488
 10
-22.29497471676632
 20
7.950510544813482
 10
-22.29448691676635
 20
7.949734144813504
 10
-22.29398471676632
 20
7.94896234481348
 10
-22.2934709167663
 20
7.948198144813488
 10
-22.29294371676633
 20
7.947438144813474
 10
-22.29240491676632
 20
7.946686144813497
 10
-22.29185151676631
 20
7.945939944813517
 10
-22.29128691676635
 20
7.945202144813492
 10
-22.2907085167663
 20
7.944471744813483
 10
-22.29011891676635
 20
7.943750144813492
 10
-22.28951631676637
 20
7.943035544813483
 10
-22.28890291676635
 20
7.942330144813496
 10
-22.28827831676631
 20
7.941632344813484
 10
-22.28764291676634
 20
7.940944144813499
 10
-22.28699411676632
 20
7.940266144813477
 10
-22.28633491676635
 20
7.939598144813487
 10
-22.28566391676634
 20
7.938937944813488
 10
-22.28498291676635
 20
7.938288144813469
 10
-22.28429191676633
 20
7.937650744813481
 10
-22.28359091676634
 20
7.937024144813506
 10
-22.28287971676633
 20
7.936406544813479
 10
-22.28215891676632
 20
7.93580014481347
 10
-22.28142851676631
 20
7.935206544813468
 10
-22.28068891676628
 20
7.934624144813483
 10
-22.27994031676633
 20
7.934053344813492
 10
-22.27918291676633
 20
7.933494144813494
 10
-22.27841811676632
 20
7.932948144813479
 10
-22.27764491676635
 20
7.932414144813492
 10
-22.27686391676627
 20
7.931893144813471
 10
-22.27607491676633
 20
7.931384144813478
 10
-22.27527971676636
 20
7.930887944813491
 10
-22.27447691676628
 20
7.930404144813479
 10
-22.27366951676629
 20
7.929934944813481
 10
-22.27285491676628
 20
7.929478144813487
 10
-22.27203431676628
 20
7.929035744813518
 10
-22.27120691676635
 20
7.928606144813471
 10
-22.27037711676633
 20
7.928189744813494
 10
-22.26954091676635
 20
7.927786144813467
 10
-22.26870091676631
 20
7.927397744813475
 10
-22.26785491676628
 20
7.927022144813463
 10
-22.26700771676633
 20
7.926661744813486
 10
-22.26615491676631
 20
7.926314144813488
 10
-22.26530031676634
 20
7.925981744813498
 10
-22.26444091676632
 20
7.925662144813486
 10
-22.26358211676632
 20
7.925356744813484
 10
-22.26271891676629
 20
7.925064144813518
 10
-22.26185591676631
 20
7.924786744813502
 10
-22.26098891676634
 20
7.924522144813494
 10
-22.26012271676632
 20
7.924272744813492
 10
-22.25925291676629
 20
7.924036144813499
 10
-22.25838551676634
 20
7.923814744813483
 10
-22.25751491676636
 20
7.923606144813476
 10
-22.2566473167663
 20
7.923410744813509
 10
-22.25577691676631
 20
7.923228144813492
 10
-22.25491111676632
 20
7.923060944813499
 10
-22.25404291676637
 20
7.922906144813509
 10
-22.25317891676633
 20
7.922764944813479
 10
-22.2523129167663
 20
7.922636144813509
 10
-22.25145071676627
 20
7.922520944813498
 10
-22.25058691676634
 20
7.922418144813491
 10
-22.2497325167663
 20
7.922328144813491
 10
-22.24887691676634
 20
7.922250144813489
 10
-22.24803231676629
 20
7.922186544813484
 10
-22.24718691676628
 20
7.922134144813497
 10
-22.24633611676631
 20
7.922095144813511
 10
-22.24548491676632
 20
7.922068144813465
 10
-22.24462391676627
 20
7.922054944813481
 10
-22.24376291676628
 20
7.922056144813495
 10
-22.24295791676633
 20
7.922059944813497
 10
-22.24215291676632
 20
7.922074144813478
 10
-22.24142891676627
 20
7.922092344813478
 10
-22.24070491676628
 20
7.922114144813491
 10
-22.23979931676632
 20
7.922179344813486
 10
-22.2388949167663
 20
7.922260144813492
 10
-22.23753051676636
 20
7.922410344813471
 10
-22.23617091676636
 20
7.922600144813486
 10
-22.23440591676632
 20
7.922847144813488
 10
-22.23264491676633
 20
7.923120144813481
  0
LWPOLYLINE
  5
8F
330
2
100
AcDbEntity
  8
GAIKEI
  6
Continuous
 62
     1
100
AcDbPolyline
 90
       55
 70
     0
 43
0.0
 10
-22.23264491676633
 20
7.923120144813481
 10
-22.2216689167663
 20
7.925224144813483
 10
-22.2161817167663
 20
7.926279544813496
 10
-22.21069491676633
 20
7.927336144813466
 10
-22.20520871676632
 20
7.928392544813505
 10
-22.19972291676629
 20
7.929450144813472
 10
-22.19423671676634
 20
7.9305105448135
 10
-22.18875091676631
 20
7.931572144813486
 10
-22.1832657167663
 20
7.932634544813481
 10
-22.17778091676632
 20
7.93369814481349
 10
-22.17229571676631
 20
7.93476254481348
 10
-22.16681091676628
 20
7.935828144813484
 10
-22.16132671676632
 20
7.936895544813495
 10
-22.15584291676635
 20
7.937964144813491
 10
-22.15035971676627
 20
7.939033544813469
 10
-22.14487691676629
 20
7.940104144813517
 10
-22.13939471676633
 20
7.941176544813487
 10
-22.13391291676635
 20
7.942250144813499
 10
-22.12843071676628
 20
7.94332554481349
 10
-22.12294891676629
 20
7.944402144813466
 10
-22.11746671676633
 20
7.94547954481348
 10
-22.11198491676634
 20
7.946558144813479
 10
-22.10650471676633
 20
7.947637544813488
 10
-22.10102491676628
 20
7.948718144813483
 10
-22.09554471676631
 20
7.949800544813484
 10
-22.09006491676632
 20
7.9508841448135
 10
-22.08458471676636
 20
7.951968544813496
 10
-22.07910491676631
 20
7.953054144813506
 10
-22.07362571676629
 20
7.954142544813493
 10
-22.0681469167663
 20
7.955232144813493
 10
-22.06266971676632
 20
7.956321544813476
 10
-22.05719291676633
 20
7.957412144813474
 10
-22.05171771676635
 20
7.958503544813481
 10
-22.04624291676635
 20
7.959596144813502
 10
-22.04076371676632
 20
7.960692544813497
 10
-22.03528491676627
 20
7.961790144813477
 10
-22.02979771676632
 20
7.962889544813492
 10
-22.02431091676635
 20
7.963990144813493
 10
-22.01884571676635
 20
7.965087544813513
 10
-22.01338091676632
 20
7.966186144813491
 10
-22.00794971676635
 20
7.967279544813493
 10
-22.00251891676635
 20
7.968374144813509
 10
-21.99700071676631
 20
7.969488544813486
 10
-21.9914829167663
 20
7.970604144813478
 10
-21.98583771676636
 20
7.971746344813482
 10
-21.98019291676633
 20
7.972890144813504
 10
-21.97489171676631
 20
7.973964744813486
 10
-21.96959091676632
 20
7.975040144813505
 10
-21.96000891676636
 20
7.976988144813475
 10
-21.95385671676632
 20
7.97824234481348
 10
-21.94770491676633
 20
7.979498144813476
 10
-21.93823031676629
 20
7.981436744813493
 10
-21.92875691676636
 20
7.983380144813509
 10
-21.91635151676633
 20
7.985925744813499
 10
-21.90394691676636
 20
7.988474144813494
  0
LINE
  5
90
330
2
100
AcDbEntity
  8
GAIKEI
  6
Continuous
 62
     1
100
AcDbLine
 10
-30.90393291676634
 20
8.54431214481346
 30
0.0
 11
-31.10393491676638
 21
8.744314144813472
 31
0.0
  0
LINE
  5
91
330
2
100
AcDbEntity
  8
GAIKEI
  6
Continuous
 62
     1
100
AcDbLine
 10
-22.30393291676637
 20
8.744310144813482
 30
0.0
 11
-22.50393091676636
 21
8.54431214481346
 31
0.0
  0
LINE
  5
92
330
2
100
AcDbEntity
  8
GAIKEI
  6
Continuous
 62
     1
100
AcDbLine
 10
-26.80393291676637
 20
11.42431014481349
 30
0.0
 11
-26.60393291676633
 21
11.42431014481349
 31
0.0
  0
LINE
  5
93
330
2
100
AcDbEntity
  8
GAIKEI
  6
Continuous
 62
     1
100
AcDbLine
 10
-26.80393291676637
 20
10.62431014481348
 30
0.0
 11
-26.60393291676633
 21
10.62431014481348
 31
0.0
  0
LINE
  5
94
330
2
100
AcDbEntity
  8
GAIKEI
  6
Continuous
 62
     1
100
AcDbLine
 10
-26.60393291676633
 20
10.62431014481348
 30
0.0
 11
-26.60393291676633
 21
11.42431014481349
 31
0.0
  0
LINE
  5
95
330
2
100
AcDbEntity
  8
GAIKEI
  6
Continuous
 62
     1
100
AcDbLine
 10
-26.80393291676637
 20
10.62431014481348
 30
0.0
 11
-26.80393291676637
 21
11.42431014481349
 31
0.0
  0
ARC
  5
96
330
2
100
AcDbEntity
  8
GAIKEI
  6
Continuous
 62
     1
100
AcDbCircle
 10
-26.70393291676635
 20
15.12431014481348
 30
0.0
 40
3.2192408
100
AcDbArc
 50
180.0
 51
207.9999999999984
  0
LINE
  5
97
330
2
100
AcDbEntity
  8
GAIKEI
  6
Continuous
 62
     1
100
AcDbLine
 10
-22.50393291676636
 20
7.477086144813483
 30
0.0
 11
-22.50393291676636
 21
15.12431014481348
 31
0.0
  0
LINE
  5
98
330
2
100
AcDbEntity
  8
GAIKEI
  6
Continuous
 62
     1
100
AcDbLine
 10
-30.90393291676634
 20
7.477086144813483
 30
0.0
 11
-30.90393291676634
 21
15.12431014481348
 31
0.0
  0
ARC
  5
99
330
2
100
AcDbEntity
  8
GAIKEI
  6
Continuous
 62
     1
100
AcDbCircle
 10
-26.70393291676635
 20
15.12431014481348
 30
0.0
 40
3.2192408
100
AcDbArc
 50
207.9999999999984
 51
0.0
  0
LINE
  5
9A
330
2
100
AcDbEntity
  8
GAIKEI
  6
Continuous
 62
     1
100
AcDbLine
 10
-22.30393291676637
 20
15.12431014481348
 30
0.0
 11
-22.30393291676637
 21
7.982050144813484
 31
0.0
  0
LINE
  5
9B
330
2
100
AcDbEntity
  8
GAIKEI
  6
Continuous
 62
     1
100
AcDbLine
 10
-21.90393291676634
 20
15.12431014481348
 30
0.0
 11
-21.90393291676634
 21
7.988474144813494
 31
0.0
  0
ARC
  5
9C
330
2
100
AcDbEntity
  8
GAIKEI
  6
Continuous
 62
     1
100
AcDbCircle
 10
-26.70393291676635
 20
15.12431014481348
 30
0.0
 40
8.599999999999999
100
AcDbArc
 50
303.9271000000003
 51
0.0
  0
LINE
  5
9D
330
2
100
AcDbEntity
  8
GAIKEI
  6
Continuous
 62
     1
100
AcDbLine
 10
-31.10393291676633
 20
7.982046144813466
 30
0.0
 11
-31.10393291676633
 21
15.12431014481348
 31
0.0
  0
LWPOLYLINE
  5
9E
330
2
100
AcDbEntity
  8
GAIKEI
  6
Continuous
 62
     1
100
AcDbPolyline
 90
       50
 70
     0
 43
0.0
 10
-31.50392891676631
 20
7.988508144813494
 10
-31.50393091676631
 20
7.991378144813467
 10
-31.50393371676637
 20
7.995784144813484
 10
-31.50393291676631
 20
8.000190144813473
 10
-31.50393291676631
 20
8.015160144813506
 10
-31.50393291676631
 20
8.0362361448135
 10
-31.50393291676631
 20
8.063902144813482
 10
-31.50393291676631
 20
8.098040144813495
 10
-31.50393291676631
 20
8.13905614481348
 10
-31.50393291676631
 20
8.186796144813484
 10
-31.50393291676631
 20
8.241664144813512
 10
-31.50393291676631
 20
8.30346014481347
 10
-31.50393291676631
 20
8.372554144813506
 10
-31.50393291676631
 20
8.448702144813495
 10
-31.50393291676631
 20
8.532236144813509
 10
-31.50393091676631
 20
8.622870144813504
 10
-31.50393091676631
 20
8.720890144813495
 10
-31.50393091676631
 20
8.825964144813497
 10
-31.50393091676631
 20
8.938326144813487
 10
-31.50393091676631
 20
9.057600144813477
 10
-31.50393091676631
 20
9.183966144813496
 10
-31.50393091676631
 20
9.31701014481348
 10
-31.50393091676631
 20
9.4568501448135
 10
-31.50393091676631
 20
9.603038144813467
 10
-31.50393091676631
 20
9.755632144813489
 10
-31.50393091676631
 20
9.914150144813476
 10
-31.50393091676631
 20
10.07859414481348
 10
-31.50393091676631
 20
10.24846414481351
 10
-31.50393091676631
 20
10.42369614481347
 10
-31.50393091676631
 20
10.60377814481347
 10
-31.50393091676631
 20
10.78859614481348
 10
-31.50393091676631
 20
10.97763614481348
 10
-31.50393091676631
 20
11.17072614481347
 10
-31.50393091676631
 20
11.36736014481349
 10
-31.50393091676631
 20
11.56732014481349
 10
-31.50393091676631
 20
11.77013814481347
 10
-31.50393091676631
 20
11.97556214481346
 10
-31.50393091676631
 20
12.18306214481347
 10
-31.50393091676631
 20
12.39232814481349
 10
-31.50393091676631
 20
12.60321814481347
 10
-31.50393091676631
 20
12.81552414481348
 10
-31.50393091676631
 20
13.02772814481349
 10
-31.50393091676631
 20
13.23911214481347
 10
-31.50393091676631
 20
13.45381214481347
 10
-31.50393091676631
 20
13.67304014481351
 10
-31.50393091676631
 20
13.87884414481348
 10
-31.50393091676631
 20
14.06481414481348
 10
-31.50393091676631
 20
14.30038014481349
 10
-31.50393091676631
 20
14.65836214481348
 10
-31.50392891676631
 20
15.1243101448135
  0
LWPOLYLINE
  5
9F
330
2
100
AcDbEntity
  8
GAIKEI
  6
Continuous
 62
     1
100
AcDbPolyline
 90
       56
 70
     0
 43
0.0
 10
-35.30393291676631
 20
15.1243101448135
 10
-35.30027691676634
 20
14.87255814481349
 10
-35.2956309167663
 20
14.74542114481349
 10
-35.28903691676635
 20
14.61837014481349
 10
-35.28043571676631
 20
14.48991254481348
 10
-35.26993491676632
 20
14.36159614481349
 10
-35.25743411676632
 20
14.23203954481349
 10
-35.24303491676631
 20
14.10268014481349
 10
-35.22635551676632
 20
13.97218714481349
 10
-35.20771291676636
 20
13.84196014481347
 10
-35.18691231676633
 20
13.71074094481349
 10
-35.16411291676633
 20
13.57985414481348
 10
-35.13892971676631
 20
13.4480585448135
 10
-35.11172091676633
 20
13.31666614481349
 10
-35.08224551676631
 20
13.18451214481348
 10
-35.05072691676634
 20
13.05283014481347
 10
-35.01671011676632
 20
12.92051234481346
 10
-34.98062291676632
 20
12.7887441448135
 10
-34.9421827167663
 20
12.6564775448135
 10
-34.90165891676634
 20
12.52483414481349
 10
-34.85856591676634
 20
12.39284414481349
 10
-34.8133729167663
 20
12.26155814481348
 10
-34.7657797167663
 20
12.1300589448135
 10
-34.71608291676631
 20
11.99934014481349
 10
-34.66378431676628
 20
11.86858654481349
 10
-34.60937691676634
 20
11.7386961448135
 10
-34.5525467167663
 20
11.60888314481349
 10
-34.49361091676633
 20
11.48001214481348
 10
-34.43206851676632
 20
11.35141574481349
 10
-34.36842091676636
 20
11.22384814481347
 10
-34.30242051676635
 20
11.09668914481349
 10
-34.23433491676633
 20
10.97063414481351
 10
-34.16374211676635
 20
10.84522734481348
 10
-34.09109291676634
 20
10.7210001448135
 10
-34.01600251676632
 20
10.59738254481351
 10
-33.93886091676632
 20
10.47503414481349
 10
-33.85912231676627
 20
10.35347354481348
 10
-33.77731691676633
 20
10.2332941448135
 10
-33.69380351676631
 20
10.11444214481349
 10
-33.60832091676627
 20
9.99699814481346
 10
-33.52115751676627
 20
9.881377744813477
 10
-33.43219691676632
 20
9.767134144813496
 10
-33.33926151676633
 20
9.652842544813495
 10
-33.24436691676635
 20
9.540172144813482
 10
-33.14484271676633
 20
9.426796344813482
 10
-33.04300691676633
 20
9.315492144813475
 10
-32.9468925167663
 20
9.210978344813497
 10
-32.84914891676635
 20
9.10798614481348
 10
-32.75976251676627
 20
9.015439944813493
 10
-32.66986091676631
 20
8.923394144813499
 10
-32.5487781167663
 20
8.812130744813487
 10
-32.42527491676629
 20
8.703560144813508
 10
-32.23110511676634
 20
8.542046144813497
 10
-32.03095891676628
 20
8.388000144813503
 10
-31.76930411676631
 20
8.18580014481347
 10
-31.50392891676631
 20
7.988508144813494
  0
LWPOLYLINE
  5
A0
330
2
100
AcDbEntity
  8
GAIKEI
  6
Continuous
 62
     1
100
AcDbPolyline
 90
       91
 70
     0
 43
0.0
 10
-35.30404491676632
 20
16.98665814481347
 10
-35.30403291676635
 20
16.98666414481349
 10
-35.30402331676635
 20
16.98667194481348
 10
-35.30401691676627
 20
16.98668214481347
 10
-35.30400611676635
 20
16.98669674481348
 10
-35.30399691676632
 20
16.98671214481348
 10
-35.30398351676633
 20
16.98673394481346
 10
-35.30397091676633
 20
16.98675614481348
 10
-35.30395551676634
 20
16.98678414481349
 10
-35.30394091676635
 20
16.98681214481348
 10
-35.30392271676635
 20
16.98684514481348
 10
-35.30390491676633
 20
16.98687814481349
 10
-35.30388471676634
 20
16.98691814481347
 10
-35.30386491676632
 20
16.98695814481348
 10
-35.30384271676633
 20
16.98700414481351
 10
-35.30382091676631
 20
16.98705014481351
 10
-35.30379571676633
 20
16.98710214481349
 10
-35.30377091676633
 20
16.9871541448135
 10
-35.30374371676635
 20
16.98721314481349
 10
-35.30371691676635
 20
16.98727214481349
 10
-35.30368671676632
 20
16.9873361448135
 10
-35.30365691676627
 20
16.98740014481348
 10
-35.30362491676636
 20
16.98747114481349
 10
-35.30359291676632
 20
16.98754214481349
 10
-35.30355891676629
 20
16.98761914481349
 10
-35.30352491676632
 20
16.98769614481349
 10
-35.3034879167663
 20
16.98777914481349
 10
-35.30345091676634
 20
16.98786214481347
 10
-35.30341191676632
 20
16.98795114481348
 10
-35.30337291676631
 20
16.98804014481348
 10
-35.3033309167663
 20
16.9881351448135
 10
-35.30328891676629
 20
16.98823014481348
 10
-35.30324491676629
 20
16.98833214481348
 10
-35.30320091676629
 20
16.98843414481348
 10
-35.30315391676629
 20
16.98854114481349
 10
-35.3031069167663
 20
16.98864814481348
 10
-35.30305791676631
 20
16.98876214481348
 10
-35.30300891676632
 20
16.9888761448135
 10
-35.30295691676633
 20
16.98899614481348
 10
-35.30290491676635
 20
16.98911614481349
 10
-35.30285091676632
 20
16.98924214481349
 10
-35.30279691676629
 20
16.98936814481348
 10
-35.30273991676632
 20
16.98950014481349
 10
-35.30268291676634
 20
16.98963214481347
 10
-35.30262391676627
 20
16.98977114481349
 10
-35.3025649167663
 20
16.9899101448135
 10
-35.30250291676634
 20
16.99005414481348
 10
-35.30244091676633
 20
16.99019814481349
 10
-35.30237691676632
 20
16.99034914481351
 10
-35.30231291676637
 20
16.99050014481349
 10
-35.30224591676631
 20
16.99065714481349
 10
-35.30217891676631
 20
16.9908141448135
 10
-35.30210991676631
 20
16.99097714481348
 10
-35.30204091676632
 20
16.9911401448135
 10
-35.30196991676632
 20
16.9913091448135
 10
-35.30189891676628
 20
16.99147814481347
 10
-35.30182391676635
 20
16.99165314481348
 10
-35.30174891676632
 20
16.99182814481349
 10
-35.30167191676628
 20
16.99201014481349
 10
-35.30159491676637
 20
16.99219214481348
 10
-35.30151591676633
 20
16.9923791448135
 10
-35.30143691676631
 20
16.99256614481348
 10
-35.30135491676629
 20
16.9927601448135
 10
-35.30127291676632
 20
16.99295414481349
 10
-35.30118891676631
 20
16.9931541448135
 10
-35.30110491676635
 20
16.99335414481351
 10
-35.30093091676633
 20
16.99376614481349
 10
-35.30075091676633
 20
16.9941901448135
 10
-35.30056691676634
 20
16.99462814481347
 10
-35.30037691676631
 20
16.99507614481348
 10
-35.30018291676629
 20
16.99553814481348
 10
-35.29998291676634
 20
16.99601214481347
 10
-35.29977891676629
 20
16.99649814481347
 10
-35.29956891676631
 20
16.99699614481349
 10
-35.29935291676634
 20
16.99750814481348
 10
-35.29913291676633
 20
16.9980301448135
 10
-35.29890691676633
 20
16.99856614481348
 10
-35.29867491676635
 20
16.99911414481349
 10
-35.29843891676632
 20
16.99967214481347
 10
-35.2981989167663
 20
17.0002441448135
 10
-35.29795091676636
 20
17.00082814481348
 10
-35.29769891676631
 20
17.00142614481348
 10
-35.29744291676627
 20
17.00203214481348
 10
-35.29718491676636
 20
17.00264814481349
 10
-35.29691491676635
 20
17.0032861448135
 10
-35.29663291676627
 20
17.00395414481349
 10
-35.29636491676632
 20
17.00458814481348
 10
-35.29612091676631
 20
17.00516614481347
 10
-35.29579691676634
 20
17.00593814481348
 10
-35.29528091676628
 20
17.00716214481349
 10
-35.2945969167663
 20
17.00878414481349
  0
LINE
  5
A1
330
2
100
AcDbEntity
  8
GAIKEI
  6
Continuous
 62
     1
100
AcDbLine
 10
-35.30230691676639
 20
17.08346414481349
 30
0.0
 11
-35.26343891676635
 21
17.08346414481349
 31
0.0
  0
LINE
  5
A2
330
2
100
AcDbEntity
  8
GAIKEI
  6
Continuous
 62
     1
100
AcDbLine
 10
-35.45040491676639
 20
17.21434214481348
 30
0.0
 11
-35.30318691676632
 21
17.08346414481349
 31
0.0
  0
LWPOLYLINE
  5
A3
330
2
100
AcDbEntity
  8
GAIKEI
  6
Continuous
 62
     1
100
AcDbPolyline
 90
       56
 70
     0
 43
0.0
 10
-35.50401091676633
 20
17.28324014481347
 10
-35.50265491676635
 20
17.2806641448135
 10
-35.50196471676634
 20
17.2793811448135
 10
-35.50126691676633
 20
17.27810214481349
 10
-35.50056071676636
 20
17.2768261448135
 10
-35.49984691676633
 20
17.2755541448135
 10
-35.49912371676635
 20
17.2742859448135
 10
-35.49839291676631
 20
17.27302214481349
 10
-35.49765471676631
 20
17.27176094481348
 10
-35.4969089167663
 20
17.27050414481348
 10
-35.49615471676634
 20
17.2692519448135
 10
-35.49539291676632
 20
17.26800414481349
 10
-35.49462271676635
 20
17.26675994481349
 10
-35.49384491676631
 20
17.26552014481348
 10
-35.49305871676632
 20
17.26428474481349
 10
-35.49226491676632
 20
17.26305414481351
 10
-35.49146371676631
 20
17.2618287448135
 10
-35.49065491676629
 20
17.26060814481349
 10
-35.48983851676633
 20
17.25939074481348
 10
-35.48901491676634
 20
17.25817814481348
 10
-35.4881835167663
 20
17.25697074481348
 10
-35.48734491676635
 20
17.25576814481349
 10
-35.48649851676635
 20
17.25457054481347
 10
-35.48564491676632
 20
17.25337814481349
 10
-35.48478351676636
 20
17.25219154481348
 10
-35.48391491676631
 20
17.2510101448135
 10
-35.48303851676633
 20
17.2498325448135
 10
-35.48215491676632
 20
17.2486601448135
 10
-35.48126451676632
 20
17.24749454481349
 10
-35.48036691676634
 20
17.24633414481349
 10
-35.47946331676633
 20
17.24517954481348
 10
-35.47855291676632
 20
17.24403014481351
 10
-35.47763431676628
 20
17.24288634481348
 10
-35.47670891676631
 20
17.24174814481347
 10
-35.47577631676631
 20
17.24061534481348
 10
-35.47483691676632
 20
17.23948814481349
 10
-35.47388831676631
 20
17.23836534481347
 10
-35.47293291676635
 20
17.23724814481349
 10
-35.47197631676636
 20
17.23614134481349
 10
-35.47101291676631
 20
17.23504014481349
 10
-35.47004891676631
 20
17.23395154481346
 10
-35.46907891676631
 20
17.23286814481349
 10
-35.46808531676629
 20
17.23177614481349
 10
-35.46708491676634
 20
17.23069014481348
 10
-35.46605391676633
 20
17.22958734481347
 10
-35.46501491676634
 20
17.22849214481349
 10
-35.46403871676631
 20
17.22746454481347
 10
-35.46305691676628
 20
17.22644214481349
 10
-35.46216591676631
 20
17.2255213448135
 10
-35.46127291676635
 20
17.22460214481347
 10
-35.46010651676636
 20
17.22344654481347
 10
-35.45893091676635
 20
17.22230014481349
 10
-35.45710571676636
 20
17.22055474481348
 10
-35.4552569167663
 20
17.21883414481348
 10
-35.45283831676631
 20
17.21658014481349
 10
-35.45040491676633
 20
17.21434214481348
  0
LWPOLYLINE
  5
A4
330
2
100
AcDbEntity
  8
GAIKEI
  6
Continuous
 62
     1
100
AcDbPolyline
 90
       56
 70
     0
 43
0.0
 10
-17.9038549167663
 20
17.28324014481347
 10
-17.90521091676635
 20
17.2806641448135
 10
-17.90590111676636
 20
17.2793811448135
 10
-17.90659891676631
 20
17.27810214481349
 10
-17.90730511676634
 20
17.2768261448135
 10
-17.90801891676631
 20
17.2755541448135
 10
-17.90874211676635
 20
17.2742859448135
 10
-17.90947291676627
 20
17.27302214481349
 10
-17.91021111676633
 20
17.27176094481348
 10
-17.91095691676628
 20
17.27050414481348
 10
-17.91171111676635
 20
17.2692519448135
 10
-17.91247291676632
 20
17.26800414481349
 10
-17.91324311676635
 20
17.26675994481349
 10
-17.91402091676627
 20
17.26552014481348
 10
-17.91480711676632
 20
17.26428474481349
 10
-17.91560091676626
 20
17.26305414481351
 10
-17.91640211676633
 20
17.2618287448135
 10
-17.91721091676629
 20
17.26060814481349
 10
-17.91802731676631
 20
17.25939074481348
 10
-17.91885091676636
 20
17.25817814481348
 10
-17.91968231676628
 20
17.25697074481348
 10
-17.92052091676635
 20
17.25576814481349
 10
-17.92136731676635
 20
17.25457054481347
 10
-17.92222091676632
 20
17.25337814481349
 10
-17.92308231676634
 20
17.25219154481348
 10
-17.92395091676633
 20
17.2510101448135
 10
-17.92482731676637
 20
17.2498325448135
 10
-17.92571091676632
 20
17.2486601448135
 10
-17.92660131676632
 20
17.24749454481349
 10
-17.92749891676635
 20
17.24633414481349
 10
-17.92840231676632
 20
17.24517954481348
 10
-17.92931291676632
 20
17.24403014481351
 10
-17.9302315167663
 20
17.24288634481348
 10
-17.93115691676632
 20
17.24174814481347
 10
-17.93208951676627
 20
17.24061534481348
 10
-17.93302891676631
 20
17.23948814481349
 10
-17.93397751676628
 20
17.23836534481347
 10
-17.93493291676634
 20
17.23724814481349
 10
-17.93588951676634
 20
17.23614134481349
 10
-17.93685291676627
 20
17.23504014481349
 10
-17.93781691676634
 20
17.23395154481346
 10
-17.93878691676633
 20
17.23286814481349
 10
-17.93978051676629
 20
17.23177614481349
 10
-17.9407809167663
 20
17.23069014481348
 10
-17.94181191676631
 20
17.22958734481347
 10
-17.9428509167663
 20
17.22849214481349
 10
-17.94382711676633
 20
17.22746454481347
 10
-17.9448089167663
 20
17.22644214481349
 10
-17.94569991676633
 20
17.2255213448135
 10
-17.94659291676635
 20
17.22460214481347
 10
-17.94775931676634
 20
17.22344654481347
 10
-17.94893491676635
 20
17.22230014481349
 10
-17.95076011676633
 20
17.22055474481348
 10
-17.95260891676628
 20
17.21883414481348
 10
-17.95502751676633
 20
17.21658014481349
 10
-17.95746091676631
 20
17.21434214481348
  0
LINE
  5
A5
330
2
100
AcDbEntity
  8
GAIKEI
  6
Continuous
 62
     1
100
AcDbLine
 10
-17.95746091676636
 20
17.21434214481348
 30
0.0
 11
-18.10467891676637
 21
17.08346414481349
 31
0.0
  0
LINE
  5
A6
330
2
100
AcDbEntity
  8
GAIKEI
  6
Continuous
 62
     1
100
AcDbLine
 10
-18.10555891676637
 20
17.08346414481349
 30
0.0
 11
-18.14442691676635
 21
17.08346414481349
 31
0.0
  0
CIRCLE
  5
A7
330
2
100
AcDbEntity
  8
GAIKEI
  6
Continuous
 62
     1
100
AcDbCircle
 10
-26.70393291676635
 20
15.12431014481348
 30
0.0
 40
2.9
  0
ARC
  5
A8
330
2
100
AcDbEntity
  8
GAIKEI
  6
Continuous
 62
     1
100
AcDbCircle
 10
-26.70393291676635
 20
15.12431014481348
 30
0.0
 40
3.2192408
100
AcDbArc
 50
0.0
 51
52.00000000000225
  0
ARC
  5
A9
330
2
100
AcDbEntity
  8
GAIKEI
  6
Continuous
 62
     1
100
AcDbCircle
 10
-26.70393291676635
 20
15.12431014481348
 30
0.0
 40
3.2192408
100
AcDbArc
 50
52.00000000000225
 51
180.0
  0
LINE
  5
AA
330
2
100
AcDbEntity
  8
GAIKEI
  6
Continuous
 62
     1
100
AcDbLine
 10
-22.50393171676638
 20
18.68431434481349
 30
0.0
 11
-22.50393291676636
 21
15.12431014481348
 31
0.0
  0
LINE
  5
AB
330
2
100
AcDbEntity
  8
GAIKEI
  6
Continuous
 62
     1
100
AcDbLine
 10
-30.90393291676634
 20
18.68431434481349
 30
0.0
 11
-30.90393291676634
 21
15.12431014481348
 31
0.0
  0
CIRCLE
  5
AC
330
2
100
AcDbEntity
  8
GAIKEI
  6
Continuous
 62
     1
100
AcDbCircle
 10
-26.70393291676635
 20
15.12431014481348
 30
0.0
 40
3.5
  0
LINE
  5
AD
330
2
100
AcDbEntity
  8
GAIKEI
  6
Continuous
 62
     1
100
AcDbLine
 10
-22.30393291676637
 20
18.68431434481349
 30
0.0
 11
-22.30393291676637
 21
15.12431014481348
 31
0.0
  0
LINE
  5
AE
330
2
100
AcDbEntity
  8
GAIKEI
  6
Continuous
 62
     1
100
AcDbLine
 10
-21.90393291676634
 20
18.68431434481349
 30
0.0
 11
-21.90393291676634
 21
15.12431014481348
 31
0.0
  0
LINE
  5
AF
330
2
100
AcDbEntity
  8
GAIKEI
  6
Continuous
 62
     1
100
AcDbLine
 10
-18.10393291676632
 20
15.12431014481348
 30
0.0
 11
-18.10393291676632
 21
16.98662214481348
 31
0.0
  0
LINE
  5
B0
330
2
100
AcDbEntity
  8
GAIKEI
  6
Continuous
 62
     1
100
AcDbLine
 10
-31.10393291676633
 20
15.12431014481348
 30
0.0
 11
-31.10393291676633
 21
18.68431434481349
 31
0.0
  0
LINE
  5
B1
330
2
100
AcDbEntity
  8
GAIKEI
  6
Continuous
 62
     1
100
AcDbLine
 10
-31.50393291676636
 20
15.12431014481348
 30
0.0
 11
-31.50393291676636
 21
18.68431434481349
 31
0.0
  0
LINE
  5
B2
330
2
100
AcDbEntity
  8
GAIKEI
  6
Continuous
 62
     1
100
AcDbLine
 10
-35.30393291676637
 20
16.98665814481347
 30
0.0
 11
-35.30393291676637
 21
15.12431014481348
 31
0.0
  0
LWPOLYLINE
  5
B3
330
2
100
AcDbEntity
  8
GAIKEI
  6
Continuous
100
AcDbPolyline
 90
       96
 70
     0
 43
0.0
 10
-10.96095491676635
 20
34.16431414481349
 10
-10.95962891676629
 20
34.16603214481347
 10
-10.95896571676633
 20
34.16688874481349
 10
-10.95830091676635
 20
34.1677441448135
 10
-10.95763471676628
 20
34.1685967448135
 10
-10.9569669167663
 20
34.16944814481349
 10
-10.95629871676635
 20
34.1702967448135
 10
-10.95562891676627
 20
34.1711441448135
 10
-10.95495971676632
 20
34.17198794481348
 10
-10.9542889167663
 20
34.17283014481351
 10
-10.9536167167663
 20
34.1736699448135
 10
-10.95294291676634
 20
34.17450814481347
 10
-10.95226971676629
 20
34.17534194481348
 10
-10.95159491676634
 20
34.1761741448135
 10
-10.95091991676634
 20
34.17700294481349
 10
-10.95024291676634
 20
34.1778301448135
 10
-10.94956591676634
 20
34.17865294481348
 10
-10.94888691676635
 20
34.1794741448135
 10
-10.94820891676636
 20
34.18029194481349
 10
-10.94752891676631
 20
34.18110814481349
 10
-10.94684791676633
 20
34.18191914481349
 10
-10.94616491676629
 20
34.1827281448135
 10
-10.94548291676631
 20
34.18353214481348
 10
-10.94479891676633
 20
34.18433414481351
 10
-10.94411491676635
 20
34.18513214481348
 10
-10.94342891676626
 20
34.18592814481349
 10
-10.94274311676634
 20
34.18671814481348
 10
-10.94205491676632
 20
34.18750614481349
 10
-10.94136811676628
 20
34.1882891448135
 10
-10.94067891676627
 20
34.18907014481348
 10
-10.93999011676635
 20
34.18984534481348
 10
-10.93929891676634
 20
34.19061814481347
 10
-10.93860811676631
 20
34.19138434481349
 10
-10.93791491676632
 20
34.19214814481347
 10
-10.93722311676629
 20
34.19290734481348
 10
-10.93652891676629
 20
34.19366414481351
 10
-10.93583411676633
 20
34.19441434481348
 10
-10.93513691676628
 20
34.19516214481348
 10
-10.93444211676632
 20
34.19590254481349
 10
-10.93374491676633
 20
34.1966401448135
 10
-10.9330473167663
 20
34.19737254481351
 10
-10.93234691676628
 20
34.19810214481348
 10
-10.93164831676631
 20
34.19882454481348
 10
-10.93094691676629
 20
34.1995441448135
 10
-10.93024631676633
 20
34.20025654481347
 10
-10.92954291676631
 20
34.20096614481349
 10
-10.92884131676635
 20
34.20166774481351
 10
-10.92813691676633
 20
34.20236614481348
 10
-10.92743331676632
 20
34.20305874481349
 10
-10.92672691676631
 20
34.20374814481349
 10
-10.92602231676631
 20
34.20442874481347
 10
-10.9253149167663
 20
34.2051061448135
 10
-10.92461031676634
 20
34.20577474481348
 10
-10.92390291676633
 20
34.20644014481349
 10
-10.92319951676631
 20
34.20709494481349
 10
-10.92249291676631
 20
34.20774614481349
 10
-10.92179151676635
 20
34.2083869448135
 10
-10.92108691676628
 20
34.2090241448135
 10
-10.92038951676636
 20
34.20964894481347
 10
-10.91968891676629
 20
34.21027014481348
 10
-10.91899751676635
 20
34.21087594481349
 10
-10.91830291676632
 20
34.2114781448135
 10
-10.91761751676631
 20
34.21206714481349
 10
-10.91692891676632
 20
34.21265214481349
 10
-10.91625151676635
 20
34.21322014481348
 10
-10.91557091676634
 20
34.2137841448135
 10
-10.91490151676635
 20
34.21433014481349
 10
-10.91422891676632
 20
34.21487214481349
 10
-10.9135705167663
 20
34.21539634481348
 10
-10.91290891676635
 20
34.21591614481349
 10
-10.9122625167663
 20
34.21641634481347
 10
-10.91161291676633
 20
34.21691214481348
 10
-10.91098071676629
 20
34.21738654481348
 10
-10.91034491676635
 20
34.21785614481348
 10
-10.90972571676627
 20
34.21830474481348
 10
-10.9091029167663
 20
34.21874814481348
 10
-10.9084997167663
 20
34.21916794481348
 10
-10.90789291676628
 20
34.2195821448135
 10
-10.90730671676635
 20
34.21997414481351
 10
-10.9067169167663
 20
34.2203601448135
 10
-10.90615271676631
 20
34.22071994481348
 10
-10.90558491676631
 20
34.22107414481349
 10
-10.90503391676634
 20
34.22140354481348
 10
-10.90447891676632
 20
34.22172614481349
 10
-10.90394151676628
 20
34.22202394481349
 10
-10.90339891676632
 20
34.22231214481349
 10
-10.90290591676631
 20
34.2225729448135
 10
-10.90240891676632
 20
34.2228261448135
 10
-10.90197151676631
 20
34.22304334481351
 10
-10.90153291676631
 20
34.22325814481349
 10
-10.9010333167663
 20
34.22345474481347
 10
-10.90052891676634
 20
34.22363814481349
 10
-10.89984051676629
 20
34.22383634481349
 10
-10.89914091676632
 20
34.22399014481348
 10
-10.89828331676631
 20
34.2241703448135
 10
-10.89741891676635
 20
34.22431414481349
  0
LINE
  5
B4
330
2
100
AcDbEntity
  8
GAIKEI
  6
Continuous
 62
     1
100
AcDbLine
 10
-10.89741691676636
 20
34.22431014481347
 30
0.0
 11
-10.19342491676633
 21
34.22431014481347
 31
0.0
  0
LWPOLYLINE
  5
B5
330
2
100
AcDbEntity
  8
GAIKEI
  6
Continuous
 62
     1
100
AcDbPolyline
 90
      176
 70
     0
 43
0.0
 10
-13.32913891676628
 20
31.05936614481348
 10
-13.32953091676631
 20
31.0594041448135
 10
-13.32970611676632
 20
31.0594467448135
 10
-13.32987691676635
 20
31.05950414481351
 10
-13.33003031676628
 20
31.0595803448135
 10
-13.33017491676628
 20
31.05967214481348
 10
-13.33030851676631
 20
31.05977894481347
 10
-13.33042891676632
 20
31.0599001448135
 10
-13.33054051676629
 20
31.0600375448135
 10
-13.33063691676631
 20
31.06018614481349
 10
-13.3307289167663
 20
31.06035234481348
 10
-13.33080491676628
 20
31.06052614481348
 10
-13.33087651676635
 20
31.06071974481347
 10
-13.3309329167663
 20
31.06091814481349
 10
-13.33098491676628
 20
31.06113474481347
 10
-13.3310229167663
 20
31.06135414481349
 10
-13.33105511676632
 20
31.06159454481349
 10
-13.33107491676628
 20
31.0618361448135
 10
-13.33109031676633
 20
31.0620969448135
 10
-13.33109491676635
 20
31.06235814481349
 10
-13.33109151676632
 20
31.06263834481348
 10
-13.33107891676627
 20
31.06291814481347
 10
-13.33105991676632
 20
31.06321454481349
 10
-13.33103291676627
 20
31.06351014481351
 10
-13.33099951676632
 20
31.06382174481348
 10
-13.33095891676635
 20
31.06413214481347
 10
-13.33091011676629
 20
31.0644567448135
 10
-13.33085491676633
 20
31.06478014481349
 10
-13.33079371676632
 20
31.06511674481351
 10
-13.33072691676631
 20
31.06545214481349
 10
-13.33065351676635
 20
31.06579874481349
 10
-13.33057491676629
 20
31.06614414481351
 10
-13.33048931676632
 20
31.06649874481349
 10
-13.33039891676628
 20
31.06685214481348
 10
-13.33030311676634
 20
31.0672127448135
 10
-13.33020291676632
 20
31.06757214481348
 10
-13.33009791676636
 20
31.06793774481349
 10
-13.32998891676629
 20
31.06830214481349
 10
-13.32987471676631
 20
31.06867174481349
 10
-13.32975691676631
 20
31.0690401448135
 10
-13.32963471676635
 20
31.06941274481349
 10
-13.32950891676631
 20
31.0697841448135
 10
-13.32937751676633
 20
31.07015974481348
 10
-13.32924291676636
 20
31.07053414481351
 10
-13.32910251676628
 20
31.07091474481348
 10
-13.32895891676628
 20
31.07129414481349
 10
-13.32881151676633
 20
31.07167874481348
 10
-13.32866091676635
 20
31.07206214481349
 10
-13.32850431676627
 20
31.0724507448135
 10
-13.32834491676635
 20
31.07283814481349
 10
-13.32817931676629
 20
31.07323074481349
 10
-13.32801091676629
 20
31.0736221448135
 10
-13.3278383167663
 20
31.07402074481348
 10
-13.32766291676631
 20
31.07441814481348
 10
-13.32748111676631
 20
31.07482174481351
 10
-13.32729691676633
 20
31.07522414481349
 10
-13.32710711676634
 20
31.0756327448135
 10
-13.32691491676633
 20
31.07604014481348
 10
-13.3267181167663
 20
31.07645474481348
 10
-13.3265189167663
 20
31.07686814481349
 10
-13.32631291676631
 20
31.07728874481348
 10
-13.32610491676632
 20
31.07770814481347
 10
-13.32589191676629
 20
31.0781347448135
 10
-13.32567691676632
 20
31.07856014481348
 10
-13.32545591676632
 20
31.07899274481349
 10
-13.32523291676631
 20
31.07942414481349
 10
-13.32500371676633
 20
31.07986374481348
 10
-13.32477291676628
 20
31.08030214481349
 10
-13.32453571676632
 20
31.08074874481349
 10
-13.32429691676634
 20
31.08119414481348
 10
-13.32405271676634
 20
31.08164654481348
 10
-13.32380691676633
 20
31.08209814481347
 10
-13.32355471676635
 20
31.08255954481348
 10
-13.32330091676636
 20
31.0830201448135
 10
-13.32304151676635
 20
31.0834875448135
 10
-13.3227809167663
 20
31.0839541448135
 10
-13.32251351676632
 20
31.08443054481347
 10
-13.32224491676629
 20
31.08490614481349
 10
-13.32197051676633
 20
31.0853895448135
 10
-13.32169491676632
 20
31.0858721448135
 10
-13.32141351676631
 20
31.08636354481348
 10
-13.32113091676632
 20
31.08685414481349
 10
-13.32084351676633
 20
31.08735154481349
 10
-13.32055491676635
 20
31.08784814481348
 10
-13.32026151676632
 20
31.08835154481346
 10
-13.31996691676636
 20
31.0888541448135
 10
-13.31966751676634
 20
31.08936154481347
 10
-13.31936691676628
 20
31.08986814481347
 10
-13.31906251676628
 20
31.09038054481349
 10
-13.31875691676634
 20
31.0908921448135
 10
-13.31844751676635
 20
31.09140754481348
 10
-13.31813691676632
 20
31.09192214481348
 10
-13.31782251676634
 20
31.09243954481349
 10
-13.31750691676632
 20
31.09295614481349
 10
-13.31718951676635
 20
31.09347554481349
 10
-13.31687091676633
 20
31.09399414481351
 10
-13.31655051676631
 20
31.09451354481348
 10
-13.3162289167663
 20
31.0950321448135
 10
-13.31590451676629
 20
31.0955525448135
 10
-13.3155789167663
 20
31.09607214481349
 10
-13.31525151676635
 20
31.09659154481346
 10
-13.31492291676636
 20
31.09711014481348
 10
-13.31459351676631
 20
31.09762954481349
 10
-13.31426291676632
 20
31.09814814481348
 10
-13.31393051676627
 20
31.09866754481351
 10
-13.3135969167663
 20
31.09918614481347
 10
-13.31326231676632
 20
31.09970554481348
 10
-13.31292691676629
 20
31.10022414481349
 10
-13.31258831676632
 20
31.1007435448135
 10
-13.31224891676629
 20
31.10126214481349
 10
-13.31190731676634
 20
31.10178154481349
 10
-13.31156491676631
 20
31.10230014481349
 10
-13.31122131676631
 20
31.10282154481348
 10
-13.31087691676634
 20
31.1033421448135
 10
-13.31052931676629
 20
31.10386454481349
 10
-13.31018091676628
 20
31.10438614481348
 10
-13.30982931676635
 20
31.10491054481349
 10
-13.30947691676636
 20
31.1054341448135
 10
-13.30912331676632
 20
31.10595954481349
 10
-13.30876891676632
 20
31.10648414481349
 10
-13.30841131676629
 20
31.1070125448135
 10
-13.30805291676631
 20
31.1075401448135
 10
-13.30769231676629
 20
31.10807054481347
 10
-13.30733091676632
 20
31.1086001448135
 10
-13.30696611676632
 20
31.10913234481348
 10
-13.30660091676634
 20
31.10966414481351
 10
-13.30623311676629
 20
31.11019934481348
 10
-13.30586491676632
 20
31.11073414481351
 10
-13.30549311676634
 20
31.11127134481348
 10
-13.30512091676633
 20
31.11180814481349
 10
-13.30474711676629
 20
31.11234834481348
 10
-13.30437291676628
 20
31.1128881448135
 10
-13.30399511676631
 20
31.11342934481348
 10
-13.30361691676631
 20
31.1139701448135
 10
-13.30323711676635
 20
31.11451234481348
 10
-13.30285691676636
 20
31.11505414481348
 10
-13.30247511676634
 20
31.11559934481349
 10
-13.30209291676635
 20
31.11614414481349
 10
-13.30170811676635
 20
31.11668934481349
 10
-13.30132291676631
 20
31.1172341448135
 10
-13.30093511676631
 20
31.1177803448135
 10
-13.30054691676628
 20
31.11832614481349
 10
-13.30015811676628
 20
31.1188733448135
 10
-13.29976891676631
 20
31.11942014481349
 10
-13.29937711676632
 20
31.11996834481349
 10
-13.29898491676636
 20
31.12051614481348
 10
-13.29859211676631
 20
31.12106434481348
 10
-13.29819891676629
 20
31.12161214481347
 10
-13.29780411676631
 20
31.12216134481349
 10
-13.2974089167663
 20
31.12271014481348
 10
-13.29701311676632
 20
31.12325834481351
 10
-13.29661691676631
 20
31.1238061448135
 10
-13.29622011676633
 20
31.1243543448135
 10
-13.29582291676627
 20
31.12490214481349
 10
-13.2954231167663
 20
31.12545134481349
 10
-13.29502291676635
 20
31.1260001448135
 10
-13.29462211676627
 20
31.1265493448135
 10
-13.29422091676633
 20
31.12709814481349
 10
-13.29381911676631
 20
31.12764534481349
 10
-13.29341691676632
 20
31.12819214481348
 10
-13.29301611676635
 20
31.12873734481349
 10
-13.2926149167663
 20
31.12928214481349
 10
-13.29220611676635
 20
31.1298353448135
 10
-13.29179691676631
 20
31.13038814481348
 10
-13.29137631676633
 20
31.13095454481348
 10
-13.29095491676628
 20
31.13152014481349
 10
-13.2905581167663
 20
31.13205234481347
 10
-13.29016091676635
 20
31.13258414481351
 10
-13.28980191676635
 20
31.13306534481348
 10
-13.28944291676634
 20
31.13354614481349
 10
-13.28897631676631
 20
31.13416654481347
 10
-13.28850891676632
 20
31.13478614481349
 10
-13.28778411676632
 20
31.13574214481349
 10
-13.28705691676634
 20
31.1366961448135
 10
-13.28610371676632
 20
31.13794874481349
 10
-13.28514891676627
 20
31.13920014481349
  0
LWPOLYLINE
  5
B6
330
2
100
AcDbEntity
  8
GAIKEI
  6
Continuous
 62
     1
100
AcDbPolyline
 90
       39
 70
     0
 43
0.0
 10
-13.32913891676628
 20
31.05936614481348
 10
-13.32912291676632
 20
31.0596941448135
 10
-13.32910491676631
 20
31.0600241448135
 10
-13.32908891676629
 20
31.06035214481349
 10
-13.32907291676633
 20
31.06068014481349
 10
-13.32905691676632
 20
31.06100814481349
 10
-13.32903891676631
 20
31.06133814481348
 10
-13.32902291676635
 20
31.0616661448135
 10
-13.32900691676633
 20
31.0619941448135
 10
-13.32899091676631
 20
31.06232414481349
 10
-13.32897291676636
 20
31.06265214481349
 10
-13.32895691676629
 20
31.06298014481348
 10
-13.32894091676633
 20
31.06330814481348
 10
-13.32892491676631
 20
31.06363814481347
 10
-13.32890891676629
 20
31.06396614481349
 10
-13.32889091676634
 20
31.06429414481349
 10
-13.32887491676632
 20
31.06462414481348
 10
-13.32885891676631
 20
31.06495214481348
 10
-13.32884291676635
 20
31.0652801448135
 10
-13.32882491676628
 20
31.0656081448135
 10
-13.32880891676632
 20
31.06593814481349
 10
-13.32879291676636
 20
31.06626614481348
 10
-13.32877691676628
 20
31.06659414481351
 10
-13.32875891676633
 20
31.06692214481348
 10
-13.32874291676631
 20
31.06725214481349
 10
-13.3287269167663
 20
31.06758014481349
 10
-13.32871091676634
 20
31.06790814481349
 10
-13.32869491676632
 20
31.06823614481348
 10
-13.32867691676631
 20
31.06856614481348
 10
-13.32866091676635
 20
31.0688941448135
 10
-13.32864491676628
 20
31.06922214481349
 10
-13.32862891676632
 20
31.0695481448135
 10
-13.32861091676631
 20
31.06988014481348
 10
-13.32859491676629
 20
31.07021814481348
 10
-13.32857891676633
 20
31.0705361448135
 10
-13.32856491676631
 20
31.07082414481349
 10
-13.3285449167663
 20
31.07119414481349
 10
-13.32851691676632
 20
31.07176214481348
 10
-13.3284789167663
 20
31.07250814481347
  0
LINE
  5
B7
330
2
100
AcDbEntity
  8
GAIKEI
  6
Continuous
 62
     1
100
AcDbLine
 10
-12.73615891676633
 20
31.05936614481348
 30
0.0
 11
-13.32913891676634
 21
31.05936614481348
 31
0.0
  0
LINE
  5
B8
330
2
100
AcDbEntity
  8
GAIKEI
  6
Continuous
 62
     1
100
AcDbLine
 10
-13.28514891676633
 20
31.13920014481349
 30
0.0
 11
-10.96095291676636
 21
34.16431014481347
 31
0.0
  0
ARC
  5
B9
330
2
100
AcDbEntity
  8
GAIKEI
  6
Continuous
100
AcDbCircle
 10
-26.70393291676635
 20
18.88431434481347
 30
0.0
 40
13.7
100
AcDbArc
 50
180.8364599999986
 51
270.0
  0
ARC
  5
BA
330
2
100
AcDbEntity
  8
GAIKEI
  6
Continuous
100
AcDbCircle
 10
-26.70393291676635
 20
18.88431434481347
 30
0.0
 40
13.7
100
AcDbArc
 50
270.0
 51
359.1635400000014
  0
LINE
  5
BB
330
2
100
AcDbEntity
  8
GAIKEI
  6
Continuous
100
AcDbLine
 10
-40.40247291676632
 20
18.68431434481349
 30
0.0
 11
-13.00539291676637
 21
18.68431434481349
 31
0.0
  0
LINE
  5
BC
330
2
100
AcDbEntity
  8
GAIKEI
  6
Continuous
100
AcDbLine
 10
-40.67621691676635
 20
31.14542034481349
 30
0.0
 11
-40.67170691676636
 21
31.05937034481349
 31
0.0
  0
LINE
  5
BD
330
2
100
AcDbEntity
  8
GAIKEI
  6
Continuous
100
AcDbLine
 10
-40.40352091676635
 20
18.74431634481345
 30
0.0
 11
-40.61729891676634
 21
30.99164834481348
 31
0.0
  0
LINE
  5
BE
330
2
100
AcDbEntity
  8
GAIKEI
  6
Continuous
100
AcDbLine
 10
-13.00434691676634
 20
18.74431634481345
 30
0.0
 11
-12.79056891676634
 21
30.99164834481348
 31
0.0
  0
LINE
  5
BF
330
2
100
AcDbEntity
  8
GAIKEI
  6
Continuous
100
AcDbLine
 10
-13.06393291676636
 20
18.68431434481349
 30
0.0
 11
-13.06393291676636
 21
18.74431434481349
 31
0.0
  0
LINE
  5
C0
330
2
100
AcDbEntity
  8
GAIKEI
  6
Continuous
100
AcDbLine
 10
-40.34393291676633
 20
18.74431434481349
 30
0.0
 11
-40.34393291676633
 21
18.68431434481349
 31
0.0
  0
LINE
  5
C1
330
2
100
AcDbEntity
  8
GAIKEI
  6
Continuous
100
AcDbLine
 10
-40.61276891676635
 20
31.05937034481349
 30
0.0
 11
-40.67170691676636
 21
31.05937034481349
 31
0.0
  0
LINE
  5
C2
330
2
100
AcDbEntity
  8
GAIKEI
  6
Continuous
100
AcDbLine
 10
-40.61729891676634
 20
30.99164834481348
 30
0.0
 11
-40.67170891676636
 21
31.05937234481348
 31
0.0
  0
LINE
  5
C3
330
2
100
AcDbEntity
  8
GAIKEI
  6
Continuous
 62
     1
100
AcDbLine
 10
-40.61729891676634
 20
30.99164834481348
 30
0.0
 11
-12.79056891676634
 21
30.99164834481348
 31
0.0
  0
LINE
  5
C4
330
2
100
AcDbEntity
  8
GAIKEI
  6
Continuous
 62
     1
100
AcDbLine
 10
-12.79056891676634
 20
30.99164834481348
 30
0.0
 11
-12.73615891676633
 21
31.05937234481348
 31
0.0
  0
LINE
  5
C5
330
2
100
AcDbEntity
  8
GAIKEI
  6
Continuous
100
AcDbLine
 10
-10.19342491676633
 20
34.22431634481347
 30
0.0
 11
-9.952231516766346
 21
34.52452794481349
 31
0.0
  0
LINE
  5
C6
330
2
100
AcDbEntity
  8
GAIKEI
  6
Continuous
100
AcDbLine
 10
-43.21444291676636
 20
34.22431634481347
 30
0.0
 11
-43.45493591676637
 21
34.52365614481349
 31
0.0
  0
LINE
  5
C7
330
2
100
AcDbEntity
  8
GAIKEI
  6
Continuous
100
AcDbLine
 10
-43.21444091676636
 20
34.22431434481348
 30
0.0
 11
-43.14407291676633
 21
34.22431434481348
 31
0.0
  0
LINE
  5
C8
330
2
100
AcDbEntity
  8
GAIKEI
  6
Continuous
100
AcDbLine
 10
-43.09044691676638
 20
34.16431434481348
 30
0.0
 11
-40.67124491676634
 21
31.13920434481349
 31
0.0
  0
LWPOLYLINE
  5
C9
330
2
100
AcDbEntity
  8
GAIKEI
  6
Continuous
100
AcDbPolyline
 90
      132
 70
     0
 43
0.0
 10
-40.67124691676633
 20
31.13920234481347
 10
-40.67015091676632
 20
31.13783234481349
 10
-40.66960371676635
 20
31.13714734481348
 10
-40.66905691676629
 20
31.13646234481348
 10
-40.66851171676631
 20
31.13577734481348
 10
-40.66796691676631
 20
31.13509234481347
 10
-40.66742171676628
 20
31.1344083448135
 10
-40.66687691676634
 20
31.13372434481349
 10
-40.6663337167663
 20
31.13304034481348
 10
-40.66579091676636
 20
31.13235634481347
 10
-40.66524871676631
 20
31.13167334481349
 10
-40.66470691676636
 20
31.13099034481348
 10
-40.66416571676632
 20
31.13030734481347
 10
-40.66362491676636
 20
31.1296243448135
 10
-40.66308571676631
 20
31.12894234481348
 10
-40.66254691676635
 20
31.1282603448135
 10
-40.6620087167663
 20
31.12757934481348
 10
-40.66147091676635
 20
31.1268983448135
 10
-40.66093371676629
 20
31.12621834481348
 10
-40.66039691676633
 20
31.12553834481349
 10
-40.65986171676633
 20
31.12485834481351
 10
-40.6593269167663
 20
31.12417834481349
 10
-40.65879371676635
 20
31.1234993448135
 10
-40.65826091676632
 20
31.12282034481348
 10
-40.65772871676631
 20
31.12214234481348
 10
-40.65719691676633
 20
31.12146434481349
 10
-40.65666671676632
 20
31.1207863448135
 10
-40.65613691676628
 20
31.1201083448135
 10
-40.65560771676632
 20
31.11943234481348
 10
-40.65507891676634
 20
31.11875634481348
 10
-40.65455171676632
 20
31.11808034481348
 10
-40.65402491676633
 20
31.11740434481351
 10
-40.6534987167663
 20
31.11672934481351
 10
-40.65297291676631
 20
31.11605434481351
 10
-40.65244971676634
 20
31.11538034481351
 10
-40.65192691676634
 20
31.1147063448135
 10
-40.65140471676636
 20
31.11403434481349
 10
-40.6508829167663
 20
31.11336234481348
 10
-40.65036271676632
 20
31.11269034481348
 10
-40.64984291676632
 20
31.11201834481349
 10
-40.64932371676633
 20
31.11134734481348
 10
-40.64880491676632
 20
31.1106763448135
 10
-40.64828871676633
 20
31.11000734481348
 10
-40.64777291676631
 20
31.10933834481349
 10
-40.64725871676631
 20
31.1086703448135
 10
-40.64674491676635
 20
31.10800234481349
 10
-40.64623271676635
 20
31.10733634481349
 10
-40.64572091676632
 20
31.1066703448135
 10
-40.64521171676631
 20
31.10600734481349
 10
-40.64470291676627
 20
31.10534434481349
 10
-40.64419671676631
 20
31.10468334481351
 10
-40.64369091676633
 20
31.10402234481347
 10
-40.6431867167663
 20
31.10336534481348
 10
-40.64268291676632
 20
31.1027083448135
 10
-40.64218271676634
 20
31.1020543448135
 10
-40.64168291676629
 20
31.1014003448135
 10
-40.64118571676636
 20
31.10075034481349
 10
-40.64068891676629
 20
31.10010034481348
 10
-40.64019571676635
 20
31.0994533448135
 10
-40.63970291676628
 20
31.09880634481348
 10
-40.63921371676634
 20
31.09816534481348
 10
-40.6387249167663
 20
31.09752434481351
 10
-40.63823871676629
 20
31.09688734481347
 10
-40.63775291676631
 20
31.09625034481349
 10
-40.63727171676634
 20
31.09561834481349
 10
-40.63679091676635
 20
31.09498634481349
 10
-40.63631371676627
 20
31.09436034481348
 10
-40.63583691676632
 20
31.0937343448135
 10
-40.63489091676626
 20
31.09249434481351
 10
-40.63395691676634
 20
31.09126434481348
 10
-40.6330309167663
 20
31.09005034481348
 10
-40.63211491676634
 20
31.0888483448135
 10
-40.6316627167663
 20
31.0882533448135
 10
-40.63121091676634
 20
31.08765834481349
 10
-40.63076471676629
 20
31.0870703448135
 10
-40.63031891676632
 20
31.08648234481348
 10
-40.62987771676631
 20
31.0859003448135
 10
-40.62943691676633
 20
31.08531834481349
 10
-40.62900271676631
 20
31.08474234481349
 10
-40.62856891676631
 20
31.08416634481347
 10
-40.62814051676627
 20
31.08359654481347
 10
-40.62771291676631
 20
31.08302634481348
 10
-40.62729151676632
 20
31.08246354481349
 10
-40.62687091676628
 20
31.08190034481348
 10
-40.62645551676633
 20
31.08134254481348
 10
-40.62604091676632
 20
31.08078434481348
 10
-40.62563351676636
 20
31.0802335448135
 10
-40.62522691676633
 20
31.07968234481348
 10
-40.6248263167663
 20
31.07913654481348
 10
-40.62442691676631
 20
31.07859034481348
 10
-40.62403331676631
 20
31.07805074481348
 10
-40.62364091676636
 20
31.07751034481351
 10
-40.62325631676628
 20
31.07697674481349
 10
-40.62287291676631
 20
31.07644234481347
 10
-40.62249511676634
 20
31.07591474481348
 10
-40.62211891676634
 20
31.0753863448135
 10
-40.62175011676629
 20
31.07486374481349
 10
-40.62138291676632
 20
31.07434034481349
 10
-40.62102211676631
 20
31.0738227448135
 10
-40.62066291676631
 20
31.0733043448135
 10
-40.62031091676636
 20
31.07279274481348
 10
-40.61996091676633
 20
31.07228034481349
 10
-40.61961791676629
 20
31.07177494481351
 10
-40.61927691676635
 20
31.07126834481349
 10
-40.61894491676627
 20
31.07076994481349
 10
-40.61861491676632
 20
31.07027034481348
 10
-40.61829391676633
 20
31.06978194481349
 10
-40.61797491676634
 20
31.06929234481348
 10
-40.61766591676632
 20
31.06881494481348
 10
-40.6173589167663
 20
31.06833634481347
 10
-40.61706491676637
 20
31.06787294481347
 10
-40.6167729167663
 20
31.06740834481349
 10
-40.61649291676633
 20
31.06695894481348
 10
-40.61621491676635
 20
31.06650834481349
 10
-40.61595191676633
 20
31.06607794481349
 10
-40.61569091676631
 20
31.06564634481348
 10
-40.6154459167663
 20
31.06523574481349
 10
-40.61520291676629
 20
31.0648243448135
 10
-40.61497571676636
 20
31.06443194481349
 10
-40.61475091676629
 20
31.0640383448135
 10
-40.61454131676635
 20
31.06366614481348
 10
-40.61433491676632
 20
31.06329234481348
 10
-40.61415071676629
 20
31.0629549448135
 10
-40.61396891676634
 20
31.06261634481348
 10
-40.6138115167663
 20
31.0623225448135
 10
-40.61365491676633
 20
31.06202834481349
 10
-40.61350791676637
 20
31.06172114481348
 10
-40.61336491676627
 20
31.06141234481348
 10
-40.61321051676634
 20
31.06103674481349
 10
-40.61306891676633
 20
31.06065634481348
 10
-40.61291271676634
 20
31.0602213448135
 10
-40.61276891676629
 20
31.05978234481347
  0
LWPOLYLINE
  5
CA
330
2
100
AcDbEntity
  8
GAIKEI
  6
Continuous
100
AcDbPolyline
 90
       96
 70
     0
 43
0.0
 10
-43.14407491676627
 20
34.22431634481347
 10
-43.14382691676633
 20
34.22427034481348
 10
-43.1436655167663
 20
34.22421794481349
 10
-43.14351291676632
 20
34.22414434481348
 10
-43.14331671676632
 20
34.22404554481349
 10
-43.14312891676633
 20
34.22393234481348
 10
-43.1429015167663
 20
34.22379134481349
 10
-43.14268091676632
 20
34.22364034481347
 10
-43.14242211676628
 20
34.2234599448135
 10
-43.14216891676631
 20
34.2232723448135
 10
-43.14188151676631
 20
34.22305414481349
 10
-43.14159891676633
 20
34.22283034481348
 10
-43.14128391676632
 20
34.22257474481347
 10
-43.14097291676631
 20
34.2223143448135
 10
-43.14063011676632
 20
34.22202434481349
 10
-43.14029091676627
 20
34.2217303448135
 10
-43.13992231676627
 20
34.22140594481348
 10
-43.13955691676631
 20
34.22107834481349
 10
-43.1391645167663
 20
34.22072274481349
 10
-43.13877491676635
 20
34.22036434481351
 10
-43.13835951676629
 20
34.21997654481348
 10
-43.13794691676628
 20
34.21958634481348
 10
-43.13750871676631
 20
34.2191705448135
 10
-43.13707291676633
 20
34.21875234481348
 10
-43.1366147167663
 20
34.21830734481347
 10
-43.13615891676636
 20
34.21786034481349
 10
-43.13568171676627
 20
34.21738934481349
 10
-43.13520691676631
 20
34.21691634481348
 10
-43.13471091676627
 20
34.21641934481349
 10
-43.13421691676632
 20
34.2159203448135
 10
-43.1337039167663
 20
34.21539914481349
 10
-43.13319291676634
 20
34.21487634481349
 10
-43.13266491676631
 20
34.21433314481348
 10
-43.13213891676627
 20
34.21378834481351
 10
-43.13159691676628
 20
34.21322314481347
 10
-43.13105691676628
 20
34.21265634481347
 10
-43.13050191676632
 20
34.21207014481348
 10
-43.12994891676635
 20
34.21148234481348
 10
-43.1293829167663
 20
34.21087814481348
 10
-43.12881891676631
 20
34.21027234481349
 10
-43.12824191676634
 20
34.20965094481349
 10
-43.12766691676631
 20
34.20902834481351
 10
-43.12708091676632
 20
34.20838994481349
 10
-43.12649691676631
 20
34.20775034481349
 10
-43.12590291676634
 20
34.20709794481349
 10
-43.12531091676635
 20
34.20644434481349
 10
-43.12471091676627
 20
34.20577794481349
 10
-43.12411291676631
 20
34.20511034481348
 10
-43.12350791676635
 20
34.20443194481348
 10
-43.12290491676629
 20
34.2037523448135
 10
-43.12229591676635
 20
34.2030619448135
 10
-43.12168891676629
 20
34.20237034481349
 10
-43.12107711676628
 20
34.20167094481349
 10
-43.1204669167663
 20
34.2009703448135
 10
-43.11985011676632
 20
34.2002599448135
 10
-43.11923491676634
 20
34.19954834481348
 10
-43.11861511676631
 20
34.1988279448135
 10
-43.11799691676628
 20
34.19810634481348
 10
-43.11737411676631
 20
34.1973759448135
 10
-43.1167529167663
 20
34.19664434481348
 10
-43.11612611676628
 20
34.1959057448135
 10
-43.11550091676633
 20
34.19516634481349
 10
-43.11487011676632
 20
34.19441774481351
 10
-43.11424091676633
 20
34.19366834481349
 10
-43.11360731676631
 20
34.1929107448135
 10
-43.11297491676635
 20
34.19215234481348
 10
-43.11233831676633
 20
34.19138674481349
 10
-43.11170291676631
 20
34.19062034481348
 10
-43.11106231676632
 20
34.18984674481351
 10
-43.1104229167663
 20
34.1890723448135
 10
-43.10977831676632
 20
34.18829174481349
 10
-43.10913491676632
 20
34.18751034481349
 10
-43.10848831676628
 20
34.18672154481348
 10
-43.10784291676634
 20
34.18593234481347
 10
-43.1071925167663
 20
34.18513554481348
 10
-43.10654291676633
 20
34.18433834481351
 10
-43.1058875167663
 20
34.18353254481349
 10
-43.10523291676633
 20
34.18272634481349
 10
-43.10457751676631
 20
34.1819185448135
 10
-43.10392291676635
 20
34.18111034481348
 10
-43.10326751676632
 20
34.18030054481349
 10
-43.1026129167663
 20
34.17949034481348
 10
-43.10194451676631
 20
34.17866154481348
 10
-43.10127691676632
 20
34.17783234481348
 10
-43.10058851676632
 20
34.1769775448135
 10
-43.09990091676633
 20
34.17612234481348
 10
-43.09925271676627
 20
34.1753153448135
 10
-43.09860491676636
 20
34.17450834481349
 10
-43.09801771676632
 20
34.17377634481349
 10
-43.09743091676631
 20
34.17304434481349
 10
-43.09666971676631
 20
34.1720943448135
 10
-43.09590891676634
 20
34.17114434481348
 10
-43.09472751676628
 20
34.16966854481348
 10
-43.09354691676628
 20
34.16819234481349
 10
-43.09199571676629
 20
34.16625134481348
 10
-43.09044491676632
 20
34.16431034481349
  0
LWPOLYLINE
  5
CB
330
2
100
AcDbEntity
  8
GAIKEI
  6
Continuous
 62
     1
100
AcDbPolyline
 90
       39
 70
     0
 43
0.0
 10
-13.32913891676628
 20
31.05937234481348
 10
-13.32912291676632
 20
31.05970034481348
 10
-13.3291069167663
 20
31.0600303448135
 10
-13.32909091676629
 20
31.0603583448135
 10
-13.32907291676633
 20
31.06068634481349
 10
-13.32905691676632
 20
31.06101634481348
 10
-13.3290409167663
 20
31.06134434481351
 10
-13.32902491676634
 20
31.0616743448135
 10
-13.32900691676633
 20
31.06200234481349
 10
-13.32899091676631
 20
31.06233034481349
 10
-13.32897491676635
 20
31.06266034481348
 10
-13.32895891676628
 20
31.0629883448135
 10
-13.32894091676633
 20
31.06331634481347
 10
-13.32892491676631
 20
31.06364634481349
 10
-13.32890891676629
 20
31.06397434481349
 10
-13.32889291676633
 20
31.06430434481348
 10
-13.32887491676632
 20
31.06463234481348
 10
-13.32885891676631
 20
31.06496034481347
 10
-13.32884291676635
 20
31.06529034481349
 10
-13.32882691676633
 20
31.06561834481349
 10
-13.32880891676632
 20
31.06594834481351
 10
-13.32879291676636
 20
31.06627634481347
 10
-13.32877691676628
 20
31.0666043448135
 10
-13.32876091676633
 20
31.06693434481349
 10
-13.32874291676631
 20
31.06726234481349
 10
-13.3287269167663
 20
31.06759234481348
 10
-13.32871091676634
 20
31.0679203448135
 10
-13.32869491676632
 20
31.0682483448135
 10
-13.32867691676631
 20
31.06857834481349
 10
-13.32866091676635
 20
31.06890834481351
 10
-13.32864491676628
 20
31.06923634481348
 10
-13.32862891676632
 20
31.06956234481348
 10
-13.32861291676636
 20
31.06989434481349
 10
-13.32859491676629
 20
31.07023234481349
 10
-13.32857891676633
 20
31.07055034481348
 10
-13.32856491676631
 20
31.0708383448135
 10
-13.3285469167663
 20
31.0712083448135
 10
-13.32851691676632
 20
31.07177834481348
 10
-13.32848091676635
 20
31.0725243448135
  0
LINE
  5
CC
330
2
100
AcDbEntity
  8
GAIKEI
  6
Continuous
100
AcDbLine
 10
-40.40352091676635
 20
18.74431434481349
 30
0.0
 11
-13.00434691676634
 21
18.74431434481349
 31
0.0
  0
LINE
  5
CD
330
2
100
AcDbEntity
  8
GAIKEI
  6
Continuous
100
AcDbLine
 10
-13.06393291676636
 20
18.68431434481349
 30
0.0
 11
-26.70393291676635
 21
18.68431434481349
 31
0.0
  0
LINE
  5
CE
330
2
100
AcDbEntity
  8
GAIKEI
  6
Continuous
100
AcDbLine
 10
-26.70393291676635
 20
18.68431434481349
 30
0.0
 11
-40.34393291676633
 21
18.68431434481349
 31
0.0
  0
LINE
  5
CF
330
2
100
AcDbEntity
  8
GAIKEI
  6
Continuous
 62
     1
100
AcDbLine
 10
-9.80393291676637
 20
35.62431434481349
 30
0.0
 11
-43.58821051676637
 21
35.62431434481349
 31
0.0
  0
LINE
  5
D0
330
2
100
AcDbEntity
  8
GAIKEI
  6
Continuous
100
AcDbLine
 10
-26.70393291676635
 20
35.92431434481347
 30
0.0
 11
-10.00393291676636
 21
35.92431434481347
 31
0.0
  0
LINE
  5
D1
330
2
100
AcDbEntity
  8
GAIKEI
  6
Continuous
100
AcDbLine
 10
-43.40393291676633
 20
35.92431434481347
 30
0.0
 11
-26.70393291676635
 21
35.92431434481347
 31
0.0
  0
ARC
  5
D2
330
2
100
AcDbEntity
  8
GAIKEI
  6
Continuous
100
AcDbCircle
 10
-43.14310811676636
 20
34.77418234481348
 30
0.0
 40
0.4
100
AcDbArc
 50
182.9999999999989
 51
218.7787939999993
  0
LINE
  5
D3
330
2
100
AcDbEntity
  8
GAIKEI
  6
Continuous
 62
     1
100
AcDbLine
 10
-9.893895916766382
 20
34.62431014481348
 30
0.0
 11
-43.51396971676638
 21
34.62431014481348
 31
0.0
  0
LINE
  5
D4
330
2
100
AcDbEntity
  8
GAIKEI
  6
Continuous
100
AcDbLine
 10
-43.58821051676637
 20
35.62431434481349
 30
0.0
 11
-43.54255991676637
 21
34.75324794481347
 31
0.0
  0
ARC
  5
D5
330
2
100
AcDbEntity
  8
GAIKEI
  6
Continuous
100
AcDbCircle
 10
-10.26475771676632
 20
34.77418234481348
 30
0.0
 40
0.4
100
AcDbArc
 50
321.2212060000005
 51
357.0000000000011
  0
LINE
  5
D6
330
2
100
AcDbEntity
  8
GAIKEI
  6
Continuous
100
AcDbLine
 10
-9.819655116766341
 20
35.62431434481349
 30
0.0
 11
-9.865305716766329
 21
34.75324794481347
 31
0.0
  0
TEXT
  5
D7
330
2
100
AcDbEntity
  8
MOJI1
100
AcDbText
 10
-17.80359273495742
 20
-20.4636465104831
 30
0.0
 40
3.0
  1
ＨＣＭ３８１、ＫＸ－ＨＣＭ１８０
100
AcDbText
  0
TEXT
  5
D9
330
2
100
AcDbEntity
  8
MOJI1
100
AcDbText
 10
-17.80359273495742
 20
-30.4636465104831
 30
0.0
 40
3.0
  1
湿度：２０％～８０％（結露なし）
100
AcDbText
  0
TEXT
  5
DA
330
2
100
AcDbEntity
  8
MOJI1
100
AcDbText
 10
-58.80359273495741
 20
-25.4636465104831
 30
0.0
 40
3.0
  1
使用環境
100
AcDbText
  0
TEXT
  5
DB
330
2
100
AcDbEntity
  8
MOJI1
100
AcDbText
 10
-17.80359273495742
 20
-15.4636465104831
 30
0.0
 40
3.0
  1
ＢＢ－ＨＣＭ５８１／ＨＣＭ５８０／ＨＣＥ４８１
100
AcDbText
  0
TEXT
  5
DC
330
2
100
AcDbEntity
  8
MOJI1
100
AcDbText
 10
-58.80359273495741
 20
-15.4636465104831
 30
0.0
 40
3.0
  1
対応機種
100
AcDbText
  0
LINE
  5
DD
330
2
100
AcDbEntity
  8
WAKU
 62
     4
100
AcDbLine
 10
-61.30359273495741
 20
-46.4636465104831
 30
0.0
 11
63.69640726504258
 21
-46.4636465104831
 31
0.0
  0
LINE
  5
DF
330
2
100
AcDbEntity
  8
WAKU
 62
     1
100
AcDbLine
 10
63.69640726504258
 20
-41.4636465104831
 30
0.0
 11
-61.30359273495741
 21
-41.4636465104831
 31
0.0
  0
LINE
  5
E0
330
2
100
AcDbEntity
  8
WAKU
 62
     1
100
AcDbLine
 10
63.69640726504258
 20
-36.4636465104831
 30
0.0
 11
-61.30359273495741
 21
-36.4636465104831
 31
0.0
  0
LINE
  5
E1
330
2
100
AcDbEntity
  8
WAKU
 62
     1
100
AcDbLine
 10
63.69640726504258
 20
-31.4636465104831
 30
0.0
 11
-61.30359273495741
 21
-31.4636465104831
 31
0.0
  0
LINE
  5
E2
330
2
100
AcDbEntity
  8
WAKU
 62
     1
100
AcDbLine
 10
63.69640726504258
 20
-26.4636465104831
 30
0.0
 11
-61.30359273495741
 21
-26.4636465104831
 31
0.0
  0
LINE
  5
E3
330
2
100
AcDbEntity
  8
WAKU
 62
     1
100
AcDbLine
 10
63.69640726504258
 20
-21.4636465104831
 30
0.0
 11
-61.30359273495741
 21
-21.4636465104831
 31
0.0
  0
LINE
  5
E4
330
2
100
AcDbEntity
  8
WAKU
 62
     4
100
AcDbLine
 10
63.69640726504258
 20
-11.4636465104831
 30
0.0
 11
-61.30359273495741
 21
-11.4636465104831
 31
0.0
  0
LINE
  5
E5
330
2
100
AcDbEntity
  8
WAKU
 62
     1
100
AcDbLine
 10
63.69640726504258
 20
-16.4636465104831
 30
0.0
 11
-61.30359273495741
 21
-16.4636465104831
 31
0.0
  0
LINE
  5
E6
330
2
100
AcDbEntity
  8
WAKU
 62
     4
100
AcDbLine
 10
-61.30359273495741
 20
-11.4636465104831
 30
0.0
 11
-61.30359273495741
 21
-46.4636465104831
 31
0.0
  0
LINE
  5
E7
330
2
100
AcDbEntity
  8
WAKU
 62
     4
100
AcDbLine
 10
63.69640726504258
 20
-46.4636465104831
 30
0.0
 11
63.69640726504258
 21
-11.4636465104831
 31
0.0
  0
LINE
  5
E8
330
2
100
AcDbEntity
  8
WAKU
 62
     4
100
AcDbLine
 10
-21.098011504439
 20
-46.46364651048287
 30
0.0
 11
-21.098011504439
 21
-11.46364651048287
 31
0.0
  0
TEXT
  5
E9
330
2
100
AcDbEntity
  8
MOJI1
100
AcDbText
 10
-17.80359273495742
 20
-25.4636465104831
 30
0.0
 40
3.0
  1
温度：０℃～４０℃
100
AcDbText
  0
TEXT
  5
EA
330
2
100
AcDbEntity
  8
TOUROKU
100
AcDbText
 10
47.69635729796987
 20
57.25231899632081
 30
0.0
 40
2.0
  1
ＢＢＨＣＡ１Ｂ
 72
     2
 11
63.69635729796987
 21
57.25231899632081
 31
0.0
100
AcDbText
  0
TEXT
  5
EC
330
2
100
AcDbEntity
  8
MOJI1
100
AcDbText
 10
-34.30359273495731
 20
63.252318996321
 30
0.0
 40
4.0
  1
カメラカバー（スモーク）
100
AcDbText
  0
ENDSEC
  0
SECTION
  2
OBJECTS
  0
DICTIONARY
  5
7
330
0
100
AcDbDictionary
281
     1
  3
ACAD_COLOR
350
2C
  3
ACAD_GROUP
350
28
  3
ACAD_LAYOUT
350
B
  3
ACAD_MATERIAL
350
2B
  3
ACAD_MLINESTYLE
350
29
  3
ACAD_PLOTSETTINGS
350
2A
  3
ACAD_PLOTSTYLENAME
350
6
  3
ACDBHEADERROUNDTRIPXREC
350
14B
  3
AcDbVariableDictionary
350
11C
  3
ASE_INDEX_DICTIONARY
350
F5
  0
DICTIONARY
  5
11
330
10
100
AcDbDictionary
280
     1
281
     1
  3
ACAD_LAYERSTATES
360
12
  0
DICTIONARY
  5
2C
102
{ACAD_REACTORS
330
7
102
}
330
7
100
AcDbDictionary
281
     1
  0
DICTIONARY
  5
28
102
{ACAD_REACTORS
330
7
102
}
330
7
100
AcDbDictionary
281
     1
  0
DICTIONARY
  5
B
102
{ACAD_REACTORS
330
7
102
}
330
7
100
AcDbDictionary
281
     1
  3
Model
350
A
  3
レイアウト1
350
F
  0
DICTIONARY
  5
2B
102
{ACAD_REACTORS
330
7
102
}
330
7
100
AcDbDictionary
281
     1
  0
DICTIONARY
  5
29
102
{ACAD_REACTORS
330
7
102
}
330
7
100
AcDbDictionary
281
     1
  3
Standard
350
2E
  0
DICTIONARY
  5
2A
102
{ACAD_REACTORS
330
7
102
}
330
7
100
AcDbDictionary
281
     1
  0
ACDBDICTIONARYWDFLT
  5
6
102
{ACAD_REACTORS
330
7
102
}
330
7
100
AcDbDictionary
281
     1
  3
Normal
350
5
100
AcDbDictionaryWithDefault
340
5
  0
DICTIONARY
  5
14B
102
{ACAD_REACTORS
330
7
102
}
330
7
100
AcDbDictionary
281
     1
  3
COLORDICT
350
14D
  3
MATERIALDICT
350
14C
  0
DICTIONARY
  5
11C
102
{ACAD_REACTORS
330
7
102
}
330
7
100
AcDbDictionary
281
     1
  3
DIMASSOC
350
11E
  3
HIDETEXT
350
11D
  3
PROJECTNAME
350
11F
  0
DICTIONARY
  5
F5
102
{ACAD_REACTORS
330
7
102
}
330
7
100
AcDbDictionary
281
     1
  3
ASEBlockHierarchyIndexRecord
350
F7
1001
DCO15
1040
1629188919.326
  0
DICTIONARY
  5
12
102
{ACAD_REACTORS
330
11
102
}
330
11
100
AcDbDictionary
281
     1
  0
LAYOUT
  5
A
102
{ACAD_XDICTIONARY
360
14E
102
}
102
{ACAD_REACTORS
330
B
102
}
330
B
100
AcDbPlotSettings
  1

  2
Ａ４－縦3FRIM01.pc3
  4
A4
  6

 40
5.873749732971191
 41
5.873747825622558
 42
5.873748779296875
 43
5.873748779296875
 44
209.9733276367187
 45
296.9259948730469
 46
5.41
 47
0.0
 48
0.0
 49
0.0
140
0.0
141
0.0
142
1.0
143
1.382515366965649
 70
 11956
 72
     1
 73
     0
 74
     1
  7
tmsacad.ctb
 75
     0
147
0.7233192656619828
148
0.0394843848000619
149
0.0240599051811614
100
AcDbLayout
  1
Model
 70
     1
 71
     0
 10
0.0
 20
0.0
 11
12.0
 21
9.0
 12
0.0
 22
0.0
 32
0.0
 14
0.0
 24
0.0
 34
0.0
 15
0.0
 25
0.0
 35
0.0
146
0.0
 13
0.0
 23
0.0
 33
0.0
 16
1.0
 26
0.0
 36
0.0
 17
0.0
 27
1.0
 37
0.0
 76
     0
330
2
  0
LAYOUT
  5
F
102
{ACAD_XDICTIONARY
360
150
102
}
102
{ACAD_REACTORS
330
B
102
}
330
B
100
AcDbPlotSettings
  1

  2
None
  4

  6

 40
0.0
 41
0.0
 42
0.0
 43
0.0
 44
0.0
 45
0.0
 46
0.0
 47
0.0
 48
0.0
 49
0.0
140
0.0
141
0.0
142
1.0
143
1.0
 70
   688
 72
     0
 73
     0
 74
     5
  7
tmsacad.ctb
 75
    16
147
1.0
148
0.0
149
0.0
100
AcDbLayout
  1
レイアウト1
 70
     1
 71
     1
 10
0.0
 20
0.0
 11
12.0
 21
9.0
 12
0.0
 22
0.0
 32
0.0
 14
0.0
 24
0.0
 34
0.0
 15
0.0
 25
0.0
 35
0.0
146
0.0
 13
0.0
 23
0.0
 33
0.0
 16
1.0
 26
0.0
 36
0.0
 17
0.0
 27
1.0
 37
0.0
 76
     0
330
C
  0
MLINESTYLE
  5
2E
102
{ACAD_REACTORS
330
29
102
}
330
29
100
AcDbMlineStyle
  2
STANDARD
 70
     0
  3

 62
   256
 51
90.0
 52
90.0
 71
     2
 49
0.5
 62
   256
  6
BYLAYER
 49
-0.5
 62
   256
  6
BYLAYER
  0
ACDBPLACEHOLDER
  5
5
102
{ACAD_REACTORS
330
6
102
}
330
6
  0
XRECORD
  5
14D
102
{ACAD_REACTORS
330
14B
102
}
330
14B
100
AcDbXrecord
280
     1
340
2C
  0
XRECORD
  5
14C
102
{ACAD_REACTORS
330
14B
102
}
330
14B
100
AcDbXrecord
280
     1
340
2B
  0
DICTIONARYVAR
  5
11E
102
{ACAD_REACTORS
330
11C
102
}
330
11C
100
DictionaryVariables
280
     0
  1
1
  0
DICTIONARYVAR
  5
11D
102
{ACAD_REACTORS
330
11C
102
}
330
11C
100
DictionaryVariables
280
     0
  1
1
  0
DICTIONARYVAR
  5
11F
102
{ACAD_REACTORS
330
11C
102
}
330
11C
100
DictionaryVariables
280
     0
  1

  0
XRECORD
  5
F7
102
{ACAD_REACTORS
330
F5
102
}
330
F5
100
AcDbXrecord
280
     1
330
44
330
45
330
36
330
37
330
13B
330
13C
330
144
330
145
  0
DICTIONARY
  5
14E
330
A
100
AcDbDictionary
280
     1
281
     1
  3
ACAD_XREC_ROUNDTRIP
360
14F
  0
DICTIONARY
  5
150
330
F
100
AcDbDictionary
280
     1
281
     1
  3
ACAD_XREC_ROUNDTRIP
360
151
  0
XRECORD
  5
14F
102
{ACAD_REACTORS
330
14E
102
}
330
14E
100
AcDbXrecord
280
     1
102
SHADEPLOT
 70
     0
102
SHADEPLOTRESLEVEL
 70
     2
102
SHADEPLOTCUSTOMDPI
 70
   300
  0
XRECORD
  5
151
102
{ACAD_REACTORS
330
150
102
}
330
150
100
AcDbXrecord
280
     1
102
SHADEPLOT
 70
     0
102
SHADEPLOTRESLEVEL
 70
     2
102
SHADEPLOTCUSTOMDPI
 70
   300
  0
ENDSEC
  0
EOF
