  0
SECTION
  2
HEADER
  9
$ACADVER
  1
AC1015
  9
$ACADMAINTVER
 70
    20
  9
$DWGCODEPAGE
  3
ANSI_932
  9
$INSBASE
 10
0.4999999440410648
 20
120.5008351249346
 30
0.0
  9
$EXTMIN
 10
-57.05016998696385
 20
-45.07841427796336
 30
-0.0015258207003583
  9
$EXTMAX
 10
67.98339900558744
 20
68.64862103113978
 30
0.0000000349246037
  9
$LIMMIN
 10
0.0
 20
0.0
  9
$LIMMAX
 10
420.0
 20
297.0
  9
$ORTHOMODE
 70
     1
  9
$REGENMODE
 70
     0
  9
$FILLMODE
 70
     1
  9
$QTEXTMODE
 70
     0
  9
$MIRRTEXT
 70
     0
  9
$LTSCALE
 40
1.0
  9
$ATTMODE
 70
     1
  9
$TEXTSIZE
 40
2.5
  9
$TRACEWID
 40
1.0
  9
$TEXTSTYLE
  7
Standard
  9
$CLAYER
  8
GAIKEI
  9
$CELTYPE
  6
ByLayer
  9
$CECOLOR
 62
   256
  9
$CELTSCALE
 40
1.0
  9
$DISPSILH
 70
     0
  9
$DIMSCALE
 40
1.0
  9
$DIMASZ
 40
2.0
  9
$DIMEXO
 40
2.0
  9
$DIMDLI
 40
8.0
  9
$DIMRND
 40
0.0
  9
$DIMDLE
 40
0.0
  9
$DIMEXE
 40
2.0
  9
$DIMTP
 40
0.0
  9
$DIMTM
 40
0.0
  9
$DIMTXT
 40
2.5
  9
$DIMCEN
 40
0.0
  9
$DIMTSZ
 40
0.0
  9
$DIMTOL
 70
     0
  9
$DIMLIM
 70
     0
  9
$DIMTIH
 70
     0
  9
$DIMTOH
 70
     0
  9
$DIMSE1
 70
     0
  9
$DIMSE2
 70
     0
  9
$DIMTAD
 70
     3
  9
$DIMZIN
 70
     0
  9
$DIMBLK
  1

  9
$DIMASO
 70
     1
  9
$DIMSHO
 70
     1
  9
$DIMPOST
  1

  9
$DIMAPOST
  1

  9
$DIMALT
 70
     0
  9
$DIMALTD
 70
     2
  9
$DIMALTF
 40
25.4
  9
$DIMLFAC
 40
1.0
  9
$DIMTOFL
 70
     1
  9
$DIMTVP
 40
0.0
  9
$DIMTIX
 70
     0
  9
$DIMSOXD
 70
     0
  9
$DIMSAH
 70
     1
  9
$DIMBLK1
  1
OPEN30
  9
$DIMBLK2
  1
OPEN30
  9
$DIMSTYLE
  2
STANDARD
  9
$DIMCLRD
 70
     0
  9
$DIMCLRE
 70
     0
  9
$DIMCLRT
 70
     0
  9
$DIMTFAC
 40
1.0
  9
$DIMGAP
 40
0.5
  9
$DIMJUST
 70
     0
  9
$DIMSD1
 70
     0
  9
$DIMSD2
 70
     0
  9
$DIMTOLJ
 70
     1
  9
$DIMTZIN
 70
     0
  9
$DIMALTZ
 70
     0
  9
$DIMALTTZ
 70
     0
  9
$DIMUPT
 70
     0
  9
$DIMDEC
 70
     4
  9
$DIMTDEC
 70
     4
  9
$DIMALTU
 70
     2
  9
$DIMALTTD
 70
     2
  9
$DIMTXSTY
  7
Standard
  9
$DIMAUNIT
 70
     0
  9
$DIMADEC
 70
     0
  9
$DIMALTRND
 40
0.0
  9
$DIMAZIN
 70
     0
  9
$DIMDSEP
 70
    46
  9
$DIMATFIT
 70
     3
  9
$DIMFRAC
 70
     0
  9
$DIMLDRBLK
  1
OPEN30
  9
$DIMLUNIT
 70
     2
  9
$DIMLWD
 70
    -2
  9
$DIMLWE
 70
    -2
  9
$DIMTMOVE
 70
     0
  9
$LUNITS
 70
     2
  9
$LUPREC
 70
     4
  9
$SKETCHINC
 40
1.0
  9
$FILLETRAD
 40
0.0
  9
$AUNITS
 70
     0
  9
$AUPREC
 70
     0
  9
$MENU
  1
.
  9
$ELEVATION
 40
0.0
  9
$PELEVATION
 40
0.0
  9
$THICKNESS
 40
0.0
  9
$LIMCHECK
 70
     0
  9
$CHAMFERA
 40
0.0
  9
$CHAMFERB
 40
0.0
  9
$CHAMFERC
 40
0.0
  9
$CHAMFERD
 40
0.0
  9
$SKPOLY
 70
     0
  9
$TDCREATE
 40
2454349.434269746
  9
$TDUCREATE
 40
2454349.059269746
  9
$TDUPDATE
 40
2454659.564738333
  9
$TDUUPDATE
 40
2454659.189738333
  9
$TDINDWG
 40
0.0852147106
  9
$TDUSRTIMER
 40
0.0852147106
  9
$USRTIMER
 70
     1
  9
$ANGBASE
 50
0.0
  9
$ANGDIR
 70
     0
  9
$PDMODE
 70
     0
  9
$PDSIZE
 40
0.0
  9
$PLINEWID
 40
0.0
  9
$SPLFRAME
 70
     0
  9
$SPLINETYPE
 70
     6
  9
$SPLINESEGS
 70
     8
  9
$HANDSEED
  5
128
  9
$SURFTAB1
 70
     6
  9
$SURFTAB2
 70
     6
  9
$SURFTYPE
 70
     6
  9
$SURFU
 70
     6
  9
$SURFV
 70
     6
  9
$UCSBASE
  2

  9
$UCSNAME
  2

  9
$UCSORG
 10
0.0
 20
0.0
 30
0.0
  9
$UCSXDIR
 10
1.0
 20
0.0
 30
0.0
  9
$UCSYDIR
 10
0.0
 20
1.0
 30
0.0
  9
$UCSORTHOREF
  2

  9
$UCSORTHOVIEW
 70
     0
  9
$UCSORGTOP
 10
0.0
 20
0.0
 30
0.0
  9
$UCSORGBOTTOM
 10
0.0
 20
0.0
 30
0.0
  9
$UCSORGLEFT
 10
0.0
 20
0.0
 30
0.0
  9
$UCSORGRIGHT
 10
0.0
 20
0.0
 30
0.0
  9
$UCSORGFRONT
 10
0.0
 20
0.0
 30
0.0
  9
$UCSORGBACK
 10
0.0
 20
0.0
 30
0.0
  9
$PUCSBASE
  2

  9
$PUCSNAME
  2

  9
$PUCSORG
 10
0.0
 20
0.0
 30
0.0
  9
$PUCSXDIR
 10
1.0
 20
0.0
 30
0.0
  9
$PUCSYDIR
 10
0.0
 20
1.0
 30
0.0
  9
$PUCSORTHOREF
  2

  9
$PUCSORTHOVIEW
 70
     0
  9
$PUCSORGTOP
 10
0.0
 20
0.0
 30
0.0
  9
$PUCSORGBOTTOM
 10
0.0
 20
0.0
 30
0.0
  9
$PUCSORGLEFT
 10
0.0
 20
0.0
 30
0.0
  9
$PUCSORGRIGHT
 10
0.0
 20
0.0
 30
0.0
  9
$PUCSORGFRONT
 10
0.0
 20
0.0
 30
0.0
  9
$PUCSORGBACK
 10
0.0
 20
0.0
 30
0.0
  9
$USERI1
 70
     0
  9
$USERI2
 70
     0
  9
$USERI3
 70
     0
  9
$USERI4
 70
     0
  9
$USERI5
 70
     0
  9
$USERR1
 40
0.0
  9
$USERR2
 40
0.0
  9
$USERR3
 40
0.0
  9
$USERR4
 40
0.0
  9
$USERR5
 40
0.0
  9
$WORLDVIEW
 70
     1
  9
$SHADEDGE
 70
     3
  9
$SHADEDIF
 70
    70
  9
$TILEMODE
 70
     1
  9
$MAXACTVP
 70
    64
  9
$PINSBASE
 10
0.0
 20
0.0
 30
0.0
  9
$PLIMCHECK
 70
     0
  9
$PEXTMIN
 10
0.0
 20
0.0
 30
0.0
  9
$PEXTMAX
 10
0.0
 20
0.0
 30
0.0
  9
$PLIMMIN
 10
0.0
 20
0.0
  9
$PLIMMAX
 10
12.0
 20
9.0
  9
$UNITMODE
 70
     0
  9
$VISRETAIN
 70
     1
  9
$PLINEGEN
 70
     0
  9
$PSLTSCALE
 70
     1
  9
$TREEDEPTH
 70
  3020
  9
$CMLSTYLE
  2
Standard
  9
$CMLJUST
 70
     0
  9
$CMLSCALE
 40
20.0
  9
$PROXYGRAPHICS
 70
     1
  9
$MEASUREMENT
 70
     1
  9
$CELWEIGHT
370
    -1
  9
$ENDCAPS
280
     0
  9
$JOINSTYLE
280
     0
  9
$LWDISPLAY
290
     0
  9
$INSUNITS
 70
     4
  9
$HYPERLINKBASE
  1

  9
$STYLESHEET
  1

  9
$XEDIT
290
     1
  9
$CEPSNTYPE
380
     0
  9
$PSTYLEMODE
290
     1
  9
$FINGERPRINTGUID
  2
{FDEAD578-A652-11D2-9A35-0060089B3A3F}
  9
$VERSIONGUID
  2
{92CC78F0-7AFE-4DD4-8C19-1B71E636539D}
  9
$EXTNAMES
290
     1
  9
$PSVPSCALE
 40
0.0
  9
$OLESTARTUP
290
     0
  0
ENDSEC
  0
SECTION
  2
CLASSES
  0
CLASS
  1
ACDBDICTIONARYWDFLT
  2
AcDbDictionaryWithDefault
  3
ObjectDBX Classes
 90
        0
280
     0
281
     0
  0
CLASS
  1
ACDBPLACEHOLDER
  2
AcDbPlaceHolder
  3
ObjectDBX Classes
 90
        0
280
     0
281
     0
  0
CLASS
  1
LAYOUT
  2
AcDbLayout
  3
ObjectDBX Classes
 90
        0
280
     0
281
     0
  0
CLASS
  1
DICTIONARYVAR
  2
AcDbDictionaryVar
  3
ObjectDBX Classes
 90
        0
280
     0
281
     0
  0
ENDSEC
  0
SECTION
  2
TABLES
  0
TABLE
  2
VPORT
  5
1B
330
0
100
AcDbSymbolTable
 70
     3
  0
VPORT
  5
120
330
1B
100
AcDbSymbolTableRecord
100
AcDbViewportTableRecord
  2
*Active
 70
     0
 10
0.0
 20
0.0
 11
1.0
 21
1.0
 12
5.466614509311803
 22
11.78510337658821
 13
0.0
 23
0.0
 14
10.0
 24
10.0
 15
10.0
 25
10.0
 16
0.0
 26
0.0
 36
1.0
 17
0.0
 27
0.0
 37
0.0
 40
114.623700502079
 41
1.536842105263157
 42
50.0
 43
0.0
 44
0.0
 50
0.0
 51
0.0
 71
     0
 72
  1000
 73
     1
 74
     2
 75
     0
 76
     0
 77
     0
 78
     0
281
     0
 65
     1
110
0.0
120
0.0
130
0.0
111
1.0
121
0.0
131
0.0
112
0.0
122
1.0
132
0.0
 79
     0
146
0.0
  0
ENDTAB
  0
TABLE
  2
LTYPE
  5
16
330
0
100
AcDbSymbolTable
 70
     1
  0
LTYPE
  5
17
330
16
100
AcDbSymbolTableRecord
100
AcDbLinetypeTableRecord
  2
ByBlock
 70
     0
  3

 72
    65
 73
     0
 40
0.0
  0
LTYPE
  5
18
330
16
100
AcDbSymbolTableRecord
100
AcDbLinetypeTableRecord
  2
ByLayer
 70
     0
  3

 72
    65
 73
     0
 40
0.0
  0
LTYPE
  5
8
330
16
100
AcDbSymbolTableRecord
100
AcDbLinetypeTableRecord
  2
Continuous
 70
     0
  3
Solid line
 72
    65
 73
     0
 40
0.0
  0
ENDTAB
  0
TABLE
  2
LAYER
  5
10
102
{ACAD_XDICTIONARY
360
11
102
}
330
0
100
AcDbSymbolTable
 70
     7
  0
LAYER
  5
4
330
10
100
AcDbSymbolTableRecord
100
AcDbLayerTableRecord
  2
0
 70
     0
 62
     7
  6
Continuous
370
    -3
390
5
  0
LAYER
  5
DA
330
10
100
AcDbSymbolTableRecord
100
AcDbLayerTableRecord
  2
WAKU
 70
     0
 62
     4
  6
Continuous
370
    -3
390
5
  0
LAYER
  5
D8
330
10
100
AcDbSymbolTableRecord
100
AcDbLayerTableRecord
  2
MOJI1
 70
     0
 62
     2
  6
Continuous
370
    -3
390
5
  0
LAYER
  5
EB
330
10
100
AcDbSymbolTableRecord
100
AcDbLayerTableRecord
  2
TOUROKU
 70
     0
 62
     1
  6
Continuous
370
    -3
390
5
  0
LAYER
  5
C6
330
10
100
AcDbSymbolTableRecord
100
AcDbLayerTableRecord
  2
DEFPOINTS
 70
     0
 62
     7
  6
Continuous
290
     0
370
    -3
390
5
  0
LAYER
  5
2D
330
10
100
AcDbSymbolTableRecord
100
AcDbLayerTableRecord
  2
GAIKEI
 70
     0
 62
     7
  6
Continuous
370
    -3
390
5
  0
LAYER
  5
BC
330
10
100
AcDbSymbolTableRecord
100
AcDbLayerTableRecord
  2
SUNPO
 70
     0
 62
     3
  6
Continuous
370
    -3
390
5
  0
ENDTAB
  0
TABLE
  2
STYLE
  5
13
330
0
100
AcDbSymbolTable
 70
     1
  0
STYLE
  5
14
330
13
100
AcDbSymbolTableRecord
100
AcDbTextStyleTableRecord
  2
Standard
 70
     0
 40
0.0
 41
1.0
 50
0.0
 71
     0
 42
2.5
  3
MONOTXT.shx
  4
BIGFONT.shx
  0
ENDTAB
  0
TABLE
  2
VIEW
  5
19
330
0
100
AcDbSymbolTable
 70
     0
  0
ENDTAB
  0
TABLE
  2
UCS
  5
1A
330
0
100
AcDbSymbolTable
 70
     0
  0
ENDTAB
  0
TABLE
  2
APPID
  5
1D
330
0
100
AcDbSymbolTable
 70
     2
  0
APPID
  5
1E
330
1D
100
AcDbSymbolTableRecord
100
AcDbRegAppTableRecord
  2
ACAD
 70
     0
  0
APPID
  5
F6
330
1D
100
AcDbSymbolTableRecord
100
AcDbRegAppTableRecord
  2
DCO15
 70
     0
  0
ENDTAB
  0
TABLE
  2
DIMSTYLE
  5
1F
330
0
100
AcDbSymbolTable
 70
     1
100
AcDbDimStyleTable
 71
     1
340
20
  0
DIMSTYLE
105
20
102
{ACAD_REACTORS
330
BB
330
CA
102
}
330
1F
100
AcDbSymbolTableRecord
100
AcDbDimStyleTableRecord
  2
STANDARD
 70
     0
 40
0.0
 41
2.0
 42
2.0
 43
8.0
 44
2.0
 73
     0
 74
     0
 77
     3
140
3.0
141
0.0
173
     1
279
     2
288
     1
340
14
341
21
343
21
344
21
  0
ENDTAB
  0
TABLE
  2
BLOCK_RECORD
  5
1
330
0
100
AcDbSymbolTable
 70
     5
  0
BLOCK_RECORD
  5
2
330
1
100
AcDbSymbolTableRecord
100
AcDbBlockTableRecord
  2
*Model_Space
340
A
  0
BLOCK_RECORD
  5
C
330
1
100
AcDbSymbolTableRecord
100
AcDbBlockTableRecord
  2
*Paper_Space
340
F
  0
BLOCK_RECORD
  5
21
330
1
100
AcDbSymbolTableRecord
100
AcDbBlockTableRecord
  2
_OPEN30
340
0
102
{BLKREFS
331
C2
331
C3
331
D0
331
D1
331
108
331
109
331
114
331
115
102
}
  0
BLOCK_RECORD
  5
BD
330
1
100
AcDbSymbolTableRecord
100
AcDbBlockTableRecord
  2
*D1
340
0
  0
BLOCK_RECORD
  5
CB
330
1
100
AcDbSymbolTableRecord
100
AcDbBlockTableRecord
  2
*D2
340
0
  0
BLOCK_RECORD
  5
104
330
1
100
AcDbSymbolTableRecord
100
AcDbBlockTableRecord
  2
*D3
340
0
  0
BLOCK_RECORD
  5
110
330
1
100
AcDbSymbolTableRecord
100
AcDbBlockTableRecord
  2
*D4
340
0
  0
ENDTAB
  0
ENDSEC
  0
SECTION
  2
BLOCKS
  0
BLOCK
  5
3
330
2
100
AcDbEntity
  8
0
100
AcDbBlockBegin
  2
*Model_Space
 70
     0
 10
0.0
 20
0.0
 30
0.0
  3
*Model_Space
  1

  0
ENDBLK
  5
9
330
2
100
AcDbEntity
  8
0
100
AcDbBlockEnd
  0
BLOCK
  5
D
330
C
100
AcDbEntity
 67
     1
  8
0
100
AcDbBlockBegin
  2
*Paper_Space
 70
     0
 10
0.0
 20
0.0
 30
0.0
  3
*Paper_Space
  1

  0
ENDBLK
  5
E
330
C
100
AcDbEntity
 67
     1
  8
0
100
AcDbBlockEnd
  0
BLOCK
  5
22
330
21
100
AcDbEntity
  8
0
100
AcDbBlockBegin
  2
_OPEN30
 70
     0
 10
0.0
 20
0.0
 30
0.0
  3
_OPEN30
  1

  0
LINE
  5
23
330
21
100
AcDbEntity
  8
0
  6
ByBlock
 62
     0
100
AcDbLine
 10
-1.0
 20
0.26794919
 30
0.0
 11
0.0
 21
0.0
 31
0.0
  0
LINE
  5
24
330
21
100
AcDbEntity
  8
0
  6
ByBlock
 62
     0
100
AcDbLine
 10
0.0
 20
0.0
 30
0.0
 11
-1.0
 21
-0.26794919
 31
0.0
  0
LINE
  5
25
330
21
100
AcDbEntity
  8
0
  6
ByBlock
 62
     0
100
AcDbLine
 10
0.0
 20
0.0
 30
0.0
 11
-1.0
 21
0.0
 31
0.0
  0
ENDBLK
  5
26
330
21
100
AcDbEntity
  8
0
100
AcDbBlockEnd
  0
BLOCK
  5
BE
330
BD
100
AcDbEntity
  8
0
100
AcDbBlockBegin
  2
*D1
 70
     1
 10
0.0
 20
0.0
 30
0.0
  3
*D1
  1

  0
LINE
  5
BF
330
BD
100
AcDbEntity
  8
SUNPO
 62
     0
370
    -2
100
AcDbLine
 10
55.92799221427225
 20
87.1728262734272
 30
0.0
 11
63.92799221427226
 21
87.1728262734272
 31
0.0
  0
LINE
  5
C0
330
BD
100
AcDbEntity
  8
SUNPO
 62
     0
370
    -2
100
AcDbLine
 10
55.92799221427225
 20
56.4328304734272
 30
0.0
 11
63.92799221427225
 21
56.4328304734272
 31
0.0
  0
LINE
  5
C1
330
BD
100
AcDbEntity
  8
SUNPO
 62
     0
370
    -2
100
AcDbLine
 10
61.92799221427225
 20
85.17282627342721
 30
0.0
 11
61.92799221427225
 21
58.4328304734272
 31
0.0
  0
INSERT
  5
C2
330
BD
100
AcDbEntity
  8
SUNPO
 62
     0
370
    -2
100
AcDbBlockReference
  2
_OPEN30
 10
61.92799221427225
 20
87.1728262734272
 30
0.0
 41
2.0
 42
2.0
 43
2.0
 50
90.0
  0
INSERT
  5
C3
330
BD
100
AcDbEntity
  8
SUNPO
 62
     0
370
    -2
100
AcDbBlockReference
  2
_OPEN30
 10
61.92799221427225
 20
56.4328304734272
 30
0.0
 41
2.0
 42
2.0
 43
2.0
 50
270.0
  0
MTEXT
  5
C4
330
BD
100
AcDbEntity
  8
SUNPO
 62
     0
100
AcDbMText
 10
60.17799221427225
 20
71.80282837342722
 30
0.0
 40
2.5
 41
0.0
 71
     5
 72
     1
  1
\A1;153.7
 11
0.0000000000000001
 21
1.0
 31
0.0
 73
     1
 44
1.0
1001
ACAD
1000
MTEXTBEGIN
1070
    73
1070
     1
1070
    44
1040
1.0
1070
    74
1070
     0
1000
MTEXTEND
  0
POINT
  5
C5
330
BD
100
AcDbEntity
  8
DEFPOINTS
 62
     0
100
AcDbPoint
 10
53.92799221427225
 20
87.1728262734272
 30
0.0
  0
POINT
  5
C7
330
BD
100
AcDbEntity
  8
DEFPOINTS
 62
     0
100
AcDbPoint
 10
53.92799221427225
 20
56.4328304734272
 30
0.0
  0
POINT
  5
C8
330
BD
100
AcDbEntity
  8
DEFPOINTS
 62
     0
100
AcDbPoint
 10
61.92799221427225
 20
56.4328304734272
 30
0.0
  0
ENDBLK
  5
C9
330
BD
100
AcDbEntity
  8
0
100
AcDbBlockEnd
  0
BLOCK
  5
CC
330
CB
100
AcDbEntity
  8
0
100
AcDbBlockBegin
  2
*D2
 70
     1
 10
0.0
 20
0.0
 30
0.0
  3
*D2
  1

  0
LINE
  5
CD
330
CB
100
AcDbEntity
  8
SUNPO
 62
     0
370
    -2
100
AcDbLine
 10
20.19965976223227
 20
89.17283047342721
 30
0.0
 11
20.19965976223227
 21
97.17283047342721
 31
0.0
  0
LINE
  5
CE
330
CB
100
AcDbEntity
  8
SUNPO
 62
     0
370
    -2
100
AcDbLine
 10
53.99965976223228
 20
89.17283047342721
 30
0.0
 11
53.99965976223228
 21
97.17283047342721
 31
0.0
  0
LINE
  5
CF
330
CB
100
AcDbEntity
  8
SUNPO
 62
     0
370
    -2
100
AcDbLine
 10
22.19965976223227
 20
95.1728304734272
 30
0.0
 11
51.99965976223229
 21
95.1728304734272
 31
0.0
  0
INSERT
  5
D0
330
CB
100
AcDbEntity
  8
SUNPO
 62
     0
370
    -2
100
AcDbBlockReference
  2
_OPEN30
 10
20.19965976223227
 20
95.1728304734272
 30
0.0
 41
2.0
 42
2.0
 43
2.0
 50
180.0
  0
INSERT
  5
D1
330
CB
100
AcDbEntity
  8
SUNPO
 62
     0
370
    -2
100
AcDbBlockReference
  2
_OPEN30
 10
53.99965976223228
 20
95.1728304734272
 30
0.0
 41
2.0
 42
2.0
 43
2.0
  0
MTEXT
  5
D2
330
CB
100
AcDbEntity
  8
SUNPO
 62
     0
100
AcDbMText
 10
37.09965976223228
 20
96.92283047342721
 30
0.0
 40
2.5
 41
0.0
 71
     5
 72
     1
  1
\A1;φ169
 73
     1
 44
1.0
1001
ACAD
1000
MTEXTBEGIN
1070
    73
1070
     1
1070
    44
1040
1.0
1070
    74
1070
     0
1000
MTEXTEND
  0
POINT
  5
D3
330
CB
100
AcDbEntity
  8
DEFPOINTS
 62
     0
100
AcDbPoint
 10
20.19965976223227
 20
87.17283047342721
 30
0.0
  0
POINT
  5
D4
330
CB
100
AcDbEntity
  8
DEFPOINTS
 62
     0
100
AcDbPoint
 10
53.99965976223228
 20
87.17283047342721
 30
0.0
  0
POINT
  5
D5
330
CB
100
AcDbEntity
  8
DEFPOINTS
 62
     0
100
AcDbPoint
 10
53.99965976223228
 20
95.1728304734272
 30
0.0
  0
ENDBLK
  5
D6
330
CB
100
AcDbEntity
  8
0
100
AcDbBlockEnd
  0
BLOCK
  5
10E
330
104
100
AcDbEntity
  8
0
100
AcDbBlockBegin
  2
*D3
 70
     1
 10
0.0
 20
0.0
 30
0.0
  3
*D3
  1

  0
LINE
  5
105
330
104
100
AcDbEntity
  8
SUNPO
 62
     0
370
    -2
100
AcDbLine
 10
-39.33263311681549
 20
39.31395964600574
 30
0.0
 11
-39.33263311681549
 21
47.31395964600574
 31
0.0
  0
LINE
  5
106
330
104
100
AcDbEntity
  8
SUNPO
 62
     0
370
    -2
100
AcDbLine
 10
-5.532633116815475
 20
39.31395964600574
 30
0.0
 11
-5.532633116815474
 21
47.31395964600574
 31
0.0
  0
LINE
  5
107
330
104
100
AcDbEntity
  8
SUNPO
 62
     0
370
    -2
100
AcDbLine
 10
-37.33263311681549
 20
45.31395964600574
 30
0.0
 11
-7.532633116815474
 21
45.31395964600574
 31
0.0
  0
INSERT
  5
108
330
104
100
AcDbEntity
  8
SUNPO
 62
     0
370
    -2
100
AcDbBlockReference
  2
_OPEN30
 10
-39.33263311681549
 20
45.31395964600574
 30
0.0
 41
2.0
 42
2.0
 43
2.0
 50
180.0
  0
INSERT
  5
109
330
104
100
AcDbEntity
  8
SUNPO
 62
     0
370
    -2
100
AcDbBlockReference
  2
_OPEN30
 10
-5.532633116815474
 20
45.31395964600574
 30
0.0
 41
2.0
 42
2.0
 43
2.0
  0
MTEXT
  5
10A
330
104
100
AcDbEntity
  8
SUNPO
 62
     0
100
AcDbMText
 10
-22.43263311681548
 20
47.06395964600574
 30
0.0
 40
2.5
 41
0.0
 71
     5
 72
     1
  1
\A1;φ169
 73
     1
 44
1.0
1001
ACAD
1000
MTEXTBEGIN
1070
    73
1070
     1
1070
    44
1040
1.0
1070
    74
1070
     0
1000
MTEXTEND
  0
POINT
  5
10B
330
104
100
AcDbEntity
  8
DEFPOINTS
 62
     0
100
AcDbPoint
 10
-39.33263311681549
 20
37.31395964600574
 30
0.0
  0
POINT
  5
10C
330
104
100
AcDbEntity
  8
DEFPOINTS
 62
     0
100
AcDbPoint
 10
-5.532633116815475
 20
37.31395964600574
 30
0.0
  0
POINT
  5
10D
330
104
100
AcDbEntity
  8
DEFPOINTS
 62
     0
100
AcDbPoint
 10
-5.532633116815474
 20
45.31395964600574
 30
0.0
  0
ENDBLK
  5
10F
330
104
100
AcDbEntity
  8
0
100
AcDbBlockEnd
  0
BLOCK
  5
11A
330
110
100
AcDbEntity
  8
0
100
AcDbBlockBegin
  2
*D4
 70
     1
 10
0.0
 20
0.0
 30
0.0
  3
*D4
  1

  0
LINE
  5
111
330
110
100
AcDbEntity
  8
SUNPO
 62
     0
370
    -2
100
AcDbLine
 10
-3.604300664775507
 20
37.31395544600573
 30
0.0
 11
4.395699335224499
 21
37.31395544600573
 31
0.0
  0
LINE
  5
112
330
110
100
AcDbEntity
  8
SUNPO
 62
     0
370
    -2
100
AcDbLine
 10
-3.604300664775508
 20
6.573959646005732
 30
0.0
 11
4.395699335224492
 21
6.57395964600573
 31
0.0
  0
LINE
  5
113
330
110
100
AcDbEntity
  8
SUNPO
 62
     0
370
    -2
100
AcDbLine
 10
2.395699335224498
 20
35.31395544600574
 30
0.0
 11
2.395699335224492
 21
8.573959646005731
 31
0.0
  0
INSERT
  5
114
330
110
100
AcDbEntity
  8
SUNPO
 62
     0
370
    -2
100
AcDbBlockReference
  2
_OPEN30
 10
2.395699335224499
 20
37.31395544600573
 30
0.0
 41
2.0
 42
2.0
 43
2.0
 50
90.0
  0
INSERT
  5
115
330
110
100
AcDbEntity
  8
SUNPO
 62
     0
370
    -2
100
AcDbBlockReference
  2
_OPEN30
 10
2.395699335224492
 20
6.57395964600573
 30
0.0
 41
2.0
 42
2.0
 43
2.0
 50
270.0
  0
MTEXT
  5
116
330
110
100
AcDbEntity
  8
SUNPO
 62
     0
100
AcDbMText
 10
0.645699335224492
 20
21.94395754600574
 30
0.0
 40
2.5
 41
0.0
 71
     5
 72
     1
  1
\A1;153.7
 11
0.0000000000000001
 21
1.0
 31
0.0
 73
     1
 44
1.0
1001
ACAD
1000
MTEXTBEGIN
1070
    73
1070
     1
1070
    44
1040
1.0
1070
    74
1070
     0
1000
MTEXTEND
  0
POINT
  5
117
330
110
100
AcDbEntity
  8
DEFPOINTS
 62
     0
100
AcDbPoint
 10
-5.604300664775507
 20
37.31395544600573
 30
0.0
  0
POINT
  5
118
330
110
100
AcDbEntity
  8
DEFPOINTS
 62
     0
100
AcDbPoint
 10
-5.604300664775507
 20
6.573959646005732
 30
0.0
  0
POINT
  5
119
330
110
100
AcDbEntity
  8
DEFPOINTS
 62
     0
100
AcDbPoint
 10
2.395699335224492
 20
6.57395964600573
 30
0.0
  0
ENDBLK
  5
11B
330
110
100
AcDbEntity
  8
0
100
AcDbBlockEnd
  0
ENDSEC
  0
SECTION
  2
ENTITIES
  0
LINE
  5
2F
330
2
100
AcDbEntity
  8
GAIKEI
  6
Continuous
100
AcDbLine
 10
-5.548355316815502
 20
37.01395964600573
 30
0.0
 11
-5.59400591681549
 21
36.14289324600572
 31
0.0
  0
ARC
  5
30
330
2
100
AcDbEntity
  8
GAIKEI
  6
Continuous
100
AcDbCircle
 10
-5.993457916815486
 20
36.16382764600573
 30
0.0
 40
0.4
100
AcDbArc
 50
321.2212060000005
 51
357.0000000000011
  0
LINE
  5
31
330
2
100
AcDbEntity
  8
GAIKEI
  6
Continuous
100
AcDbLine
 10
-39.31691071681553
 20
37.01395964600573
 30
0.0
 11
-39.27126011681554
 21
36.14289324600572
 31
0.0
  0
LINE
  5
32
330
2
100
AcDbEntity
  8
GAIKEI
  6
Continuous
 62
     1
100
AcDbLine
 10
-5.622596116815543
 20
36.01395544600573
 30
0.0
 11
-39.24266991681554
 21
36.01395544600573
 31
0.0
  0
ARC
  5
33
330
2
100
AcDbEntity
  8
GAIKEI
  6
Continuous
100
AcDbCircle
 10
-38.87180831681553
 20
36.16382764600573
 30
0.0
 40
0.4
100
AcDbArc
 50
182.9999999999989
 51
218.7787939999993
  0
LINE
  5
34
330
2
100
AcDbEntity
  8
GAIKEI
  6
Continuous
100
AcDbLine
 10
-39.1326331168155
 20
37.31395964600571
 30
0.0
 11
-22.43263311681551
 21
37.31395964600571
 31
0.0
  0
LINE
  5
35
330
2
100
AcDbEntity
  8
GAIKEI
  6
Continuous
100
AcDbLine
 10
-22.43263311681551
 20
37.31395964600571
 30
0.0
 11
-5.73263311681552
 21
37.31395964600571
 31
0.0
  0
LINE
  5
36
330
2
100
AcDbEntity
  8
GAIKEI
  6
Continuous
 62
     1
100
AcDbLine
 10
-5.532633116815532
 20
37.01395964600573
 30
0.0
 11
-39.31691071681553
 21
37.01395964600573
 31
0.0
  0
LINE
  5
37
330
2
100
AcDbEntity
  8
GAIKEI
  6
Continuous
100
AcDbLine
 10
-22.43263311681551
 20
20.07395964600573
 30
0.0
 11
-36.0726331168155
 21
20.07395964600573
 31
0.0
  0
LINE
  5
38
330
2
100
AcDbEntity
  8
GAIKEI
  6
Continuous
100
AcDbLine
 10
-8.792633116815522
 20
20.07395964600573
 30
0.0
 11
-22.43263311681551
 21
20.07395964600573
 31
0.0
  0
LINE
  5
39
330
2
100
AcDbEntity
  8
GAIKEI
  6
Continuous
100
AcDbLine
 10
-36.13222111681551
 20
20.13395964600574
 30
0.0
 11
-8.733047116815498
 21
20.13395964600574
 31
0.0
  0
LWPOLYLINE
  5
3A
330
2
100
AcDbEntity
  8
GAIKEI
  6
Continuous
 62
     1
100
AcDbPolyline
 90
       39
 70
     0
 43
0.0
 10
-9.057839116815443
 20
32.44901764600573
 10
-9.057823116815484
 20
32.44934564600573
 10
-9.057807116815467
 20
32.44967564600575
 10
-9.057791116815451
 20
32.45000364600574
 10
-9.057773116815496
 20
32.45033164600574
 10
-9.05775711681548
 20
32.45066164600573
 10
-9.057741116815464
 20
32.45098964600575
 10
-9.057725116815504
 20
32.45131964600574
 10
-9.057707116815493
 20
32.45164764600574
 10
-9.057691116815476
 20
32.45197564600573
 10
-9.057675116815516
 20
32.45230564600573
 10
-9.057659116815443
 20
32.45263364600575
 10
-9.057641116815489
 20
32.45296164600572
 10
-9.057625116815472
 20
32.45329164600574
 10
-9.057609116815456
 20
32.45361964600574
 10
-9.057593116815496
 20
32.45394964600573
 10
-9.057575116815485
 20
32.45427764600572
 10
-9.057559116815468
 20
32.45460564600572
 10
-9.057543116815509
 20
32.45493564600574
 10
-9.057527116815492
 20
32.45526364600574
 10
-9.057509116815481
 20
32.45559364600576
 10
-9.057493116815521
 20
32.45592164600572
 10
-9.057477116815448
 20
32.45624964600575
 10
-9.057461116815488
 20
32.45657964600574
 10
-9.057443116815477
 20
32.45690764600573
 10
-9.05742711681546
 20
32.45723764600572
 10
-9.057411116815501
 20
32.45756564600575
 10
-9.057395116815484
 20
32.45789364600574
 10
-9.057377116815473
 20
32.45822364600574
 10
-9.057361116815513
 20
32.45855364600576
 10
-9.05734511681544
 20
32.45888164600572
 10
-9.057329116815481
 20
32.45920764600572
 10
-9.057313116815521
 20
32.45953964600574
 10
-9.057295116815453
 20
32.45987764600574
 10
-9.057279116815493
 20
32.46019564600573
 10
-9.057265116815472
 20
32.46048364600574
 10
-9.05724711681546
 20
32.46085364600574
 10
-9.057217116815479
 20
32.46142364600573
 10
-9.057181116815513
 20
32.46216964600575
  0
LWPOLYLINE
  5
3B
330
2
100
AcDbEntity
  8
GAIKEI
  6
Continuous
100
AcDbPolyline
 90
       96
 70
     0
 43
0.0
 10
-38.87277511681543
 20
35.61396164600572
 10
-38.87252711681549
 20
35.61391564600572
 10
-38.87236571681547
 20
35.61386324600574
 10
-38.87221311681549
 20
35.61378964600573
 10
-38.87201691681548
 20
35.61369084600574
 10
-38.87182911681549
 20
35.61357764600572
 10
-38.87160171681546
 20
35.61343664600574
 10
-38.87138111681549
 20
35.61328564600572
 10
-38.87112231681545
 20
35.61310524600575
 10
-38.87086911681547
 20
35.61291764600574
 10
-38.87058171681548
 20
35.61269944600574
 10
-38.87029911681549
 20
35.61247564600572
 10
-38.86998411681549
 20
35.61222004600572
 10
-38.86967311681548
 20
35.61195964600575
 10
-38.86933031681548
 20
35.61166964600574
 10
-38.86899111681544
 20
35.61137564600574
 10
-38.86862251681544
 20
35.61105124600573
 10
-38.86825711681547
 20
35.61072364600574
 10
-38.86786471681546
 20
35.61036804600573
 10
-38.86747511681551
 20
35.61000964600575
 10
-38.86705971681545
 20
35.60962184600573
 10
-38.86664711681545
 20
35.60923164600573
 10
-38.86620891681548
 20
35.60881584600574
 10
-38.86577311681549
 20
35.60839764600573
 10
-38.86531491681547
 20
35.60795264600571
 10
-38.86485911681552
 20
35.60750564600573
 10
-38.86438191681543
 20
35.60703464600573
 10
-38.86390711681548
 20
35.60656164600573
 10
-38.86341111681543
 20
35.60606464600573
 10
-38.86291711681548
 20
35.60556564600574
 10
-38.86240411681547
 20
35.60504444600574
 10
-38.86189311681551
 20
35.60452164600574
 10
-38.86136511681548
 20
35.60397844600573
 10
-38.86083911681544
 20
35.60343364600575
 10
-38.86029711681544
 20
35.60286844600572
 10
-38.85975711681544
 20
35.60230164600572
 10
-38.85920211681548
 20
35.60171544600573
 10
-38.85864911681551
 20
35.60112764600572
 10
-38.85808311681547
 20
35.60052344600573
 10
-38.85751911681547
 20
35.59991764600574
 10
-38.85694211681551
 20
35.59929624600574
 10
-38.85636711681548
 20
35.59867364600575
 10
-38.85578111681548
 20
35.59803524600574
 10
-38.85519711681548
 20
35.59739564600574
 10
-38.8546031168155
 20
35.59674324600573
 10
-38.85401111681551
 20
35.59608964600574
 10
-38.85341111681544
 20
35.59542324600574
 10
-38.85281311681547
 20
35.59475564600572
 10
-38.85220811681552
 20
35.59407724600573
 10
-38.85160511681545
 20
35.59339764600574
 10
-38.85099611681551
 20
35.59270724600575
 10
-38.85038911681545
 20
35.59201564600574
 10
-38.84977731681545
 20
35.59131624600573
 10
-38.84916711681547
 20
35.59061564600574
 10
-38.84855031681548
 20
35.58990524600574
 10
-38.8479351168155
 20
35.58919364600573
 10
-38.84731531681547
 20
35.58847324600575
 10
-38.84669711681545
 20
35.58775164600573
 10
-38.84607431681548
 20
35.58702124600575
 10
-38.84545311681547
 20
35.58628964600572
 10
-38.84482631681544
 20
35.58555104600575
 10
-38.8442011168155
 20
35.58481164600574
 10
-38.84357031681549
 20
35.58406304600576
 10
-38.8429411168155
 20
35.58331364600574
 10
-38.84230751681548
 20
35.58255604600575
 10
-38.84167511681551
 20
35.58179764600573
 10
-38.8410385168155
 20
35.58103204600573
 10
-38.84040311681548
 20
35.58026564600573
 10
-38.83976251681549
 20
35.57949204600575
 10
-38.83912311681547
 20
35.57871764600574
 10
-38.83847851681549
 20
35.57793704600573
 10
-38.83783511681548
 20
35.57715564600574
 10
-38.83718851681545
 20
35.57636684600573
 10
-38.83654311681551
 20
35.57557764600571
 10
-38.83589271681547
 20
35.57478084600572
 10
-38.83524311681549
 20
35.57398364600576
 10
-38.83458771681546
 20
35.57317784600574
 10
-38.8339331168155
 20
35.57237164600574
 10
-38.83327771681548
 20
35.57156384600574
 10
-38.83262311681551
 20
35.57075564600572
 10
-38.83196771681549
 20
35.56994584600574
 10
-38.83131311681547
 20
35.56913564600572
 10
-38.83064471681547
 20
35.56830684600573
 10
-38.82997711681549
 20
35.56747764600573
 10
-38.82928871681548
 20
35.56662284600574
 10
-38.82860111681549
 20
35.56576764600573
 10
-38.82795291681544
 20
35.56496064600575
 10
-38.82730511681553
 20
35.56415364600574
 10
-38.82671791681548
 20
35.56342164600574
 10
-38.82613111681548
 20
35.56268964600574
 10
-38.82536991681547
 20
35.56173964600575
 10
-38.82460911681551
 20
35.56078964600573
 10
-38.82342771681545
 20
35.55931384600572
 10
-38.82224711681545
 20
35.55783764600574
 10
-38.82069591681545
 20
35.55589664600572
 10
-38.81914511681549
 20
35.55395564600573
  0
LWPOLYLINE
  5
3C
330
2
100
AcDbEntity
  8
GAIKEI
  6
Continuous
100
AcDbPolyline
 90
      132
 70
     0
 43
0.0
 10
-36.3999471168155
 20
32.52884764600572
 10
-36.39885111681548
 20
32.52747764600574
 10
-36.39830391681551
 20
32.52679264600573
 10
-36.39775711681546
 20
32.52610764600573
 10
-36.39721191681548
 20
32.52542264600573
 10
-36.39666711681548
 20
32.52473764600572
 10
-36.39612191681545
 20
32.52405364600574
 10
-36.3955771168155
 20
32.52336964600573
 10
-36.39503391681547
 20
32.52268564600573
 10
-36.39449111681552
 20
32.52200164600572
 10
-36.39394891681547
 20
32.52131864600574
 10
-36.39340711681553
 20
32.52063564600573
 10
-36.39286591681548
 20
32.51995264600572
 10
-36.39232511681553
 20
32.51926964600574
 10
-36.39178591681548
 20
32.51858764600573
 10
-36.39124711681552
 20
32.51790564600574
 10
-36.39070891681547
 20
32.51722464600573
 10
-36.39017111681551
 20
32.51654364600574
 10
-36.38963391681546
 20
32.51586364600573
 10
-36.38909711681549
 20
32.51518364600574
 10
-36.38856191681549
 20
32.51450364600575
 10
-36.38802711681547
 20
32.51382364600573
 10
-36.38749391681552
 20
32.51314464600574
 10
-36.38696111681549
 20
32.51246564600573
 10
-36.38642891681548
 20
32.51178764600573
 10
-36.3858971168155
 20
32.51110964600574
 10
-36.38536691681549
 20
32.51043164600574
 10
-36.38483711681545
 20
32.50975364600575
 10
-36.38430791681549
 20
32.50907764600572
 10
-36.3837791168155
 20
32.50840164600572
 10
-36.38325191681548
 20
32.50772564600572
 10
-36.38272511681549
 20
32.50704964600576
 10
-36.38219891681547
 20
32.50637464600576
 10
-36.38167311681548
 20
32.50569964600575
 10
-36.3811499168155
 20
32.50502564600575
 10
-36.38062711681551
 20
32.50435164600574
 10
-36.38010491681553
 20
32.50367964600574
 10
-36.37958311681547
 20
32.50300764600573
 10
-36.37906291681549
 20
32.50233564600572
 10
-36.37854311681548
 20
32.50166364600574
 10
-36.3780239168155
 20
32.50099264600573
 10
-36.37750511681549
 20
32.50032164600574
 10
-36.37698891681549
 20
32.49965264600573
 10
-36.37647311681547
 20
32.49898364600574
 10
-36.37595891681548
 20
32.49831564600575
 10
-36.37544511681551
 20
32.49764764600573
 10
-36.37493291681551
 20
32.49698164600574
 10
-36.37442111681548
 20
32.49631564600574
 10
-36.37391191681548
 20
32.49565264600574
 10
-36.37340311681544
 20
32.49498964600574
 10
-36.37289691681548
 20
32.49432864600576
 10
-36.37239111681549
 20
32.49366764600572
 10
-36.37188691681547
 20
32.49301064600573
 10
-36.37138311681548
 20
32.49235364600574
 10
-36.3708829168155
 20
32.49169964600574
 10
-36.37038311681545
 20
32.49104564600575
 10
-36.36988591681552
 20
32.49039564600574
 10
-36.36938911681546
 20
32.48974564600573
 10
-36.36889591681552
 20
32.48909864600574
 10
-36.36840311681544
 20
32.48845164600573
 10
-36.3679139168155
 20
32.48781064600573
 10
-36.36742511681547
 20
32.48716964600575
 10
-36.36693891681546
 20
32.48653264600572
 10
-36.36645311681548
 20
32.48589564600573
 10
-36.36597191681551
 20
32.48526364600574
 10
-36.36549111681552
 20
32.48463164600574
 10
-36.36501391681543
 20
32.48400564600573
 10
-36.36453711681549
 20
32.48337964600575
 10
-36.36359111681543
 20
32.48213964600575
 10
-36.36265711681551
 20
32.48090964600573
 10
-36.36173111681546
 20
32.47969564600572
 10
-36.3608151168155
 20
32.47849364600575
 10
-36.36036291681546
 20
32.47789864600574
 10
-36.35991111681551
 20
32.47730364600574
 10
-36.35946491681546
 20
32.47671564600575
 10
-36.35901911681549
 20
32.47612764600572
 10
-36.35857791681548
 20
32.47554564600574
 10
-36.3581371168155
 20
32.47496364600574
 10
-36.35770291681547
 20
32.47438764600574
 10
-36.35726911681548
 20
32.47381164600572
 10
-36.35684071681544
 20
32.47324184600572
 10
-36.35641311681548
 20
32.47267164600572
 10
-36.35599171681548
 20
32.47210884600574
 10
-36.35557111681544
 20
32.47154564600573
 10
-36.35515571681549
 20
32.47098784600573
 10
-36.35474111681549
 20
32.47042964600573
 10
-36.35433371681552
 20
32.46987884600574
 10
-36.3539271168155
 20
32.46932764600572
 10
-36.35352651681547
 20
32.46878184600573
 10
-36.35312711681547
 20
32.46823564600572
 10
-36.35273351681548
 20
32.46769604600573
 10
-36.35234111681552
 20
32.46715564600575
 10
-36.35195651681545
 20
32.46662204600574
 10
-36.35157311681548
 20
32.46608764600572
 10
-36.35119531681551
 20
32.46556004600572
 10
-36.3508191168155
 20
32.46503164600574
 10
-36.35045031681546
 20
32.46450904600573
 10
-36.35008311681549
 20
32.46398564600574
 10
-36.34972231681548
 20
32.46346804600575
 10
-36.34936311681548
 20
32.46294964600574
 10
-36.34901111681552
 20
32.46243804600573
 10
-36.34866111681549
 20
32.46192564600574
 10
-36.34831811681545
 20
32.46142024600576
 10
-36.34797711681552
 20
32.46091364600574
 10
-36.34764511681544
 20
32.46041524600574
 10
-36.34731511681548
 20
32.45991564600573
 10
-36.3469941168155
 20
32.45942724600573
 10
-36.34667511681551
 20
32.45893764600572
 10
-36.34636611681549
 20
32.45846024600573
 10
-36.34605911681547
 20
32.45798164600572
 10
-36.34576511681553
 20
32.45751824600572
 10
-36.34547311681547
 20
32.45705364600573
 10
-36.34519311681549
 20
32.45660424600572
 10
-36.34491511681551
 20
32.45615364600573
 10
-36.3446521168155
 20
32.45572324600573
 10
-36.34439111681547
 20
32.45529164600572
 10
-36.34414611681547
 20
32.45488104600574
 10
-36.34390311681546
 20
32.45446964600575
 10
-36.34367591681553
 20
32.45407724600574
 10
-36.34345111681546
 20
32.45368364600575
 10
-36.34324151681551
 20
32.45331144600573
 10
-36.34303511681549
 20
32.45293764600572
 10
-36.34285091681545
 20
32.45260024600574
 10
-36.3426691168155
 20
32.45226164600572
 10
-36.34251171681547
 20
32.45196784600575
 10
-36.3423551168155
 20
32.45167364600573
 10
-36.34220811681553
 20
32.45136644600572
 10
-36.34206511681544
 20
32.45105764600572
 10
-36.34191071681551
 20
32.45068204600574
 10
-36.3417691168155
 20
32.45030164600573
 10
-36.34161291681551
 20
32.44986664600574
 10
-36.34146911681546
 20
32.44942764600572
  0
LINE
  5
3D
330
2
100
AcDbEntity
  8
GAIKEI
  6
Continuous
100
AcDbLine
 10
-38.81914711681555
 20
35.55395964600573
 30
0.0
 11
-36.3999451168155
 21
32.52884964600574
 31
0.0
  0
LINE
  5
3E
330
2
100
AcDbEntity
  8
GAIKEI
  6
Continuous
100
AcDbLine
 10
-38.94314111681552
 20
35.61395964600573
 30
0.0
 11
-38.87277311681549
 21
35.61395964600573
 31
0.0
  0
LINE
  5
3F
330
2
100
AcDbEntity
  8
GAIKEI
  6
Continuous
100
AcDbLine
 10
-38.94314311681552
 20
35.61396164600572
 30
0.0
 11
-39.18363611681554
 21
35.91330144600573
 31
0.0
  0
LINE
  5
40
330
2
100
AcDbEntity
  8
GAIKEI
  6
Continuous
100
AcDbLine
 10
-5.922125116815493
 20
35.61396164600572
 30
0.0
 11
-5.680931716815507
 21
35.91417324600573
 31
0.0
  0
LINE
  5
41
330
2
100
AcDbEntity
  8
GAIKEI
  6
Continuous
 62
     1
100
AcDbLine
 10
-8.519269116815507
 20
32.38129364600573
 30
0.0
 11
-8.464859116815489
 21
32.44901764600573
 31
0.0
  0
LINE
  5
42
330
2
100
AcDbEntity
  8
GAIKEI
  6
Continuous
 62
     1
100
AcDbLine
 10
-36.34599911681551
 20
32.38129364600573
 30
0.0
 11
-8.519269116815507
 21
32.38129364600573
 31
0.0
  0
LINE
  5
43
330
2
100
AcDbEntity
  8
GAIKEI
  6
Continuous
100
AcDbLine
 10
-36.34599911681551
 20
32.38129364600573
 30
0.0
 11
-36.40040911681552
 21
32.44901764600573
 31
0.0
  0
LINE
  5
44
330
2
100
AcDbEntity
  8
GAIKEI
  6
Continuous
100
AcDbLine
 10
-36.34146911681552
 20
32.44901564600573
 30
0.0
 11
-36.40040711681553
 21
32.44901564600573
 31
0.0
  0
LINE
  5
45
330
2
100
AcDbEntity
  8
GAIKEI
  6
Continuous
100
AcDbLine
 10
-36.0726331168155
 20
20.13395964600574
 30
0.0
 11
-36.0726331168155
 21
20.07395964600573
 31
0.0
  0
LINE
  5
46
330
2
100
AcDbEntity
  8
GAIKEI
  6
Continuous
100
AcDbLine
 10
-8.792633116815522
 20
20.07395964600573
 30
0.0
 11
-8.792633116815522
 21
20.13395964600574
 31
0.0
  0
LINE
  5
47
330
2
100
AcDbEntity
  8
GAIKEI
  6
Continuous
100
AcDbLine
 10
-8.733047116815498
 20
20.1339616460057
 30
0.0
 11
-8.519269116815507
 21
32.38129364600573
 31
0.0
  0
LINE
  5
48
330
2
100
AcDbEntity
  8
GAIKEI
  6
Continuous
100
AcDbLine
 10
-36.13222111681551
 20
20.1339616460057
 30
0.0
 11
-36.34599911681551
 21
32.38129364600573
 31
0.0
  0
LINE
  5
49
330
2
100
AcDbEntity
  8
GAIKEI
  6
Continuous
100
AcDbLine
 10
-36.40491711681551
 20
32.53506564600574
 30
0.0
 11
-36.40040711681553
 21
32.44901564600573
 31
0.0
  0
LINE
  5
4A
330
2
100
AcDbEntity
  8
GAIKEI
  6
Continuous
100
AcDbLine
 10
-36.13117311681549
 20
20.07395964600573
 30
0.0
 11
-8.734093116815529
 21
20.07395964600573
 31
0.0
  0
ARC
  5
4B
330
2
100
AcDbEntity
  8
GAIKEI
  6
Continuous
100
AcDbCircle
 10
-22.43263311681551
 20
20.27395964600572
 30
0.0
 40
13.7
100
AcDbArc
 50
270.0
 51
359.1635400000014
  0
ARC
  5
4C
330
2
100
AcDbEntity
  8
GAIKEI
  6
Continuous
100
AcDbCircle
 10
-22.43263311681551
 20
20.27395964600572
 30
0.0
 40
13.7
100
AcDbArc
 50
180.8364599999986
 51
270.0
  0
LINE
  5
4D
330
2
100
AcDbEntity
  8
GAIKEI
  6
Continuous
 62
     1
100
AcDbLine
 10
-9.013849116815492
 20
32.52884544600573
 30
0.0
 11
-6.68965311681552
 21
35.55395544600572
 31
0.0
  0
LINE
  5
4E
330
2
100
AcDbEntity
  8
GAIKEI
  6
Continuous
 62
     1
100
AcDbLine
 10
-8.464859116815489
 20
32.44901144600573
 30
0.0
 11
-9.0578391168155
 21
32.44901144600573
 31
0.0
  0
LWPOLYLINE
  5
4F
330
2
100
AcDbEntity
  8
GAIKEI
  6
Continuous
 62
     1
100
AcDbPolyline
 90
       39
 70
     0
 43
0.0
 10
-9.057839116815443
 20
32.44901144600573
 10
-9.057823116815484
 20
32.44933944600575
 10
-9.057805116815472
 20
32.44966944600574
 10
-9.057789116815456
 20
32.44999744600574
 10
-9.057773116815496
 20
32.45032544600574
 10
-9.05775711681548
 20
32.45065344600573
 10
-9.057739116815469
 20
32.45098344600573
 10
-9.057723116815509
 20
32.45131144600575
 10
-9.057707116815493
 20
32.45163944600574
 10
-9.057691116815476
 20
32.45196944600574
 10
-9.057673116815522
 20
32.45229744600573
 10
-9.057657116815448
 20
32.45262544600573
 10
-9.057641116815489
 20
32.45295344600573
 10
-9.057625116815472
 20
32.45328344600571
 10
-9.057609116815456
 20
32.45361144600574
 10
-9.057591116815501
 20
32.45393944600574
 10
-9.057575116815485
 20
32.45426944600573
 10
-9.057559116815468
 20
32.45459744600572
 10
-9.057543116815509
 20
32.45492544600575
 10
-9.05752511681544
 20
32.45525344600574
 10
-9.057509116815481
 20
32.45558344600573
 10
-9.057493116815521
 20
32.45591144600573
 10
-9.057477116815448
 20
32.45623944600576
 10
-9.057459116815493
 20
32.45656744600572
 10
-9.057443116815477
 20
32.45689744600574
 10
-9.05742711681546
 20
32.45722544600574
 10
-9.057411116815501
 20
32.45755344600573
 10
-9.057395116815484
 20
32.45788144600573
 10
-9.057377116815473
 20
32.45821144600572
 10
-9.057361116815513
 20
32.45853944600574
 10
-9.05734511681544
 20
32.45886744600574
 10
-9.057329116815481
 20
32.45919344600574
 10
-9.057311116815469
 20
32.45952544600573
 10
-9.057295116815453
 20
32.45986344600573
 10
-9.057279116815493
 20
32.46018144600575
 10
-9.057265116815472
 20
32.46046944600573
 10
-9.057245116815465
 20
32.46083944600574
 10
-9.057217116815479
 20
32.46140744600572
 10
-9.057179116815461
 20
32.46215344600571
  0
LWPOLYLINE
  5
50
330
2
100
AcDbEntity
  8
GAIKEI
  6
Continuous
 62
     1
100
AcDbPolyline
 90
      176
 70
     0
 43
0.0
 10
-9.057839116815443
 20
32.44901144600573
 10
-9.058231116815477
 20
32.44904944600575
 10
-9.058406316815478
 20
32.44909204600574
 10
-9.058577116815513
 20
32.44914944600575
 10
-9.058730516815444
 20
32.44922564600575
 10
-9.058875116815443
 20
32.44931744600572
 10
-9.059008716815469
 20
32.44942424600572
 10
-9.059129116815483
 20
32.44954544600574
 10
-9.059240716815452
 20
32.44968284600574
 10
-9.05933711681547
 20
32.44983144600573
 10
-9.059429116815465
 20
32.44999764600573
 10
-9.059505116815444
 20
32.45017144600573
 10
-9.059576716815513
 20
32.45036504600572
 10
-9.059633116815462
 20
32.45056344600573
 10
-9.059685116815444
 20
32.45078004600572
 10
-9.059723116815462
 20
32.45099944600574
 10
-9.059755316815483
 20
32.45123984600573
 10
-9.059775116815444
 20
32.45148144600574
 10
-9.059790516815496
 20
32.45174224600575
 10
-9.059795116815507
 20
32.45200344600573
 10
-9.059791716815482
 20
32.45228364600573
 10
-9.059779116815434
 20
32.45256344600571
 10
-9.059760116815482
 20
32.45285984600574
 10
-9.059733116815436
 20
32.45315544600575
 10
-9.059699716815487
 20
32.45346704600573
 10
-9.05965911681551
 20
32.45377744600572
 10
-9.059610316815451
 20
32.45410204600574
 10
-9.059555116815488
 20
32.45442544600573
 10
-9.059493916815483
 20
32.45476204600576
 10
-9.05942711681547
 20
32.45509744600574
 10
-9.059353716815508
 20
32.45544404600574
 10
-9.059275116815456
 20
32.45578944600576
 10
-9.059189516815479
 20
32.45614404600573
 10
-9.059099116815445
 20
32.45649744600573
 10
-9.059003316815505
 20
32.45685804600575
 10
-9.058903116815486
 20
32.45721744600573
 10
-9.058798116815523
 20
32.45758304600574
 10
-9.058689116815457
 20
32.45794744600573
 10
-9.058574916815473
 20
32.45831704600573
 10
-9.058457116815475
 20
32.45868544600575
 10
-9.05833491681551
 20
32.45905804600574
 10
-9.058209116815476
 20
32.45942944600574
 10
-9.058077716815489
 20
32.45980504600573
 10
-9.057943116815522
 20
32.46017944600576
 10
-9.057802716815444
 20
32.46056004600573
 10
-9.057659116815443
 20
32.46093944600574
 10
-9.057511716815497
 20
32.46132404600573
 10
-9.057361116815513
 20
32.46170744600573
 10
-9.057204516815431
 20
32.46209604600574
 10
-9.057045116815515
 20
32.46248344600573
 10
-9.056879516815456
 20
32.46287604600573
 10
-9.056711116815449
 20
32.46326744600575
 10
-9.056538516815464
 20
32.46366604600573
 10
-9.056363116815475
 20
32.46406344600572
 10
-9.056181316815468
 20
32.46446704600575
 10
-9.05599711681549
 20
32.46486944600574
 10
-9.055807316815503
 20
32.46527804600575
 10
-9.055615116815488
 20
32.46568544600572
 10
-9.055418316815462
 20
32.46610004600572
 10
-9.055219116815464
 20
32.46651344600574
 10
-9.055013116815473
 20
32.46693404600572
 10
-9.054805116815487
 20
32.46735344600572
 10
-9.054592116815456
 20
32.46778004600574
 10
-9.054377116815487
 20
32.46820544600573
 10
-9.054156116815477
 20
32.46863804600574
 10
-9.053933116815471
 20
32.46906944600573
 10
-9.053703916815493
 20
32.46950904600573
 10
-9.053473116815439
 20
32.46994744600574
 10
-9.053235916815481
 20
32.47039404600574
 10
-9.052997116815504
 20
32.47083944600573
 10
-9.052752916815506
 20
32.47129184600573
 10
-9.05250711681549
 20
32.47174344600572
 10
-9.052254916815513
 20
32.47220484600572
 10
-9.052001116815517
 20
32.47266544600575
 10
-9.051741716815513
 20
32.47313284600574
 10
-9.051481116815466
 20
32.47359944600575
 10
-9.051213716815482
 20
32.47407584600572
 10
-9.050945116815455
 20
32.47455144600574
 10
-9.050670716815488
 20
32.47503484600574
 10
-9.050395116815479
 20
32.47551744600574
 10
-9.050113716815474
 20
32.47600884600573
 10
-9.049831116815482
 20
32.47649944600573
 10
-9.049543716815492
 20
32.47699684600573
 10
-9.049255116815515
 20
32.47749344600573
 10
-9.048961716815483
 20
32.47799684600571
 10
-9.048667116815522
 20
32.47849944600574
 10
-9.048367716815505
 20
32.47900684600572
 10
-9.048067116815445
 20
32.47951344600571
 10
-9.047762716815441
 20
32.48002584600573
 10
-9.047457116815508
 20
32.48053744600574
 10
-9.047147716815516
 20
32.48105284600573
 10
-9.046837116815481
 20
32.48156744600573
 10
-9.046522716815502
 20
32.48208484600573
 10
-9.04620711681548
 20
32.48260144600573
 10
-9.045889716815509
 20
32.48312084600573
 10
-9.045571116815494
 20
32.48363944600575
 10
-9.045250716815473
 20
32.48415884600573
 10
-9.044929116815467
 20
32.48467744600575
 10
-9.044604716815456
 20
32.48519784600575
 10
-9.044279116815459
 20
32.48571744600574
 10
-9.043951716815513
 20
32.48623684600571
 10
-9.043623116815524
 20
32.48675544600573
 10
-9.043293716815469
 20
32.48727484600574
 10
-9.042963116815485
 20
32.48779344600573
 10
-9.042630716815438
 20
32.48831284600576
 10
-9.042297116815461
 20
32.48883144600572
 10
-9.041962516815488
 20
32.48935084600572
 10
-9.041627116815448
 20
32.48986944600574
 10
-9.041288516815484
 20
32.49038884600575
 10
-9.040949116815454
 20
32.49090744600574
 10
-9.040607516815498
 20
32.49142684600574
 10
-9.040265116815476
 20
32.49194544600573
 10
-9.039921516815468
 20
32.49246684600573
 10
-9.039577116815507
 20
32.49298744600574
 10
-9.039229516815453
 20
32.49350984600574
 10
-9.038881116815446
 20
32.49403144600572
 10
-9.038529516815515
 20
32.49455584600574
 10
-9.038177116815518
 20
32.49507944600575
 10
-9.037823516815478
 20
32.49560484600574
 10
-9.037469116815486
 20
32.49612944600574
 10
-9.037111516815457
 20
32.49665784600575
 10
-9.036753116815475
 20
32.49718544600574
 10
-9.036392516815453
 20
32.49771584600572
 10
-9.036031116815479
 20
32.49824544600574
 10
-9.035666316815479
 20
32.49877764600572
 10
-9.035301116815503
 20
32.49930944600575
 10
-9.034933316815454
 20
32.49984464600573
 10
-9.034565116815485
 20
32.50037944600575
 10
-9.034193316815503
 20
32.50091664600572
 10
-9.033821116815488
 20
32.50145344600574
 10
-9.033447316815454
 20
32.50199364600573
 10
-9.033073116815444
 20
32.50253344600575
 10
-9.032695316815477
 20
32.50307464600573
 10
-9.032317116815477
 20
32.50361544600574
 10
-9.031937316815515
 20
32.50415764600572
 10
-9.03155711681552
 20
32.50469944600573
 10
-9.031175316815506
 20
32.50524464600573
 10
-9.030793116815516
 20
32.50578944600574
 10
-9.03040831681551
 20
32.50633464600574
 10
-9.03002311681547
 20
32.50687944600574
 10
-9.029635316815472
 20
32.50742564600574
 10
-9.02924711681544
 20
32.50797144600574
 10
-9.028858316815444
 20
32.50851864600574
 10
-9.028469116815472
 20
32.50906544600574
 10
-9.028077316815483
 20
32.50961364600573
 10
-9.027685116815518
 20
32.51016144600573
 10
-9.027292316815476
 20
32.51070964600572
 10
-9.026899116815457
 20
32.51125744600571
 10
-9.026504316815476
 20
32.51180664600574
 10
-9.026109116815462
 20
32.51235544600573
 10
-9.025713316815483
 20
32.51290364600575
 10
-9.025317116815472
 20
32.51345144600575
 10
-9.024920316815496
 20
32.51399964600575
 10
-9.02452311681543
 20
32.51454744600574
 10
-9.024123316815462
 20
32.51509664600573
 10
-9.023723116815517
 20
32.51564544600575
 10
-9.023322316815438
 20
32.51619464600575
 10
-9.022921116815496
 20
32.51674344600573
 10
-9.022519316815476
 20
32.51729064600573
 10
-9.022117116815479
 20
32.51783744600573
 10
-9.021716316815513
 20
32.51838264600574
 10
-9.021315116815458
 20
32.51892744600573
 10
-9.020906316815512
 20
32.51948064600575
 10
-9.020497116815477
 20
32.52003344600573
 10
-9.020076516815493
 20
32.52059984600573
 10
-9.019655116815442
 20
32.52116544600574
 10
-9.019258316815466
 20
32.52169764600572
 10
-9.018861116815514
 20
32.52222944600575
 10
-9.018502116815511
 20
32.52271064600572
 10
-9.018143116815508
 20
32.52319144600574
 10
-9.01767651681547
 20
32.52381184600571
 10
-9.017209116815479
 20
32.52443144600574
 10
-9.016484316815478
 20
32.52538744600574
 10
-9.015757116815507
 20
32.52634144600575
 10
-9.01480391681548
 20
32.52759404600573
 10
-9.013849116815435
 20
32.52884544600573
  0
LINE
  5
51
330
2
100
AcDbEntity
  8
GAIKEI
  6
Continuous
 62
     1
100
AcDbLine
 10
-6.626117116815521
 20
35.61395544600572
 30
0.0
 11
-5.922125116815493
 21
35.61395544600572
 31
0.0
  0
LWPOLYLINE
  5
52
330
2
100
AcDbEntity
  8
GAIKEI
  6
Continuous
100
AcDbPolyline
 90
       96
 70
     0
 43
0.0
 10
-6.689655116815515
 20
35.55395944600574
 10
-6.688329116815452
 20
35.55567744600572
 10
-6.68766591681549
 20
35.55653404600574
 10
-6.687001116815508
 20
35.55738944600574
 10
-6.68633491681544
 20
35.55824204600575
 10
-6.685667116815466
 20
35.55909344600574
 10
-6.684998916815516
 20
35.55994204600575
 10
-6.684329116815433
 20
35.56078944600574
 10
-6.683659916815486
 20
35.56163324600573
 10
-6.682989116815463
 20
35.56247544600575
 10
-6.682316916815466
 20
35.56331524600575
 10
-6.681643116815507
 20
35.56415344600572
 10
-6.680969916815456
 20
35.56498724600573
 10
-6.6802951168155
 20
35.56581944600575
 10
-6.679620116815499
 20
35.56664824600574
 10
-6.678943116815503
 20
35.56747544600574
 10
-6.678266116815507
 20
35.56829824600573
 10
-6.677587116815516
 20
35.56911944600575
 10
-6.676909116815522
 20
35.56993724600574
 10
-6.676229116815477
 20
35.57075344600574
 10
-6.675548116815491
 20
35.57156444600574
 10
-6.674865116815453
 20
35.57237344600574
 10
-6.67418311681547
 20
35.57317744600573
 10
-6.673499116815492
 20
35.57397944600575
 10
-6.672815116815513
 20
35.57477744600573
 10
-6.672129116815426
 20
35.57557344600573
 10
-6.671443316815498
 20
35.57636344600573
 10
-6.670755116815485
 20
35.57715144600573
 10
-6.670068316815445
 20
35.57793444600574
 10
-6.669379116815434
 20
35.57871544600573
 10
-6.668690316815514
 20
35.57949064600573
 10
-6.667999116815508
 20
35.58026344600572
 10
-6.667308316815478
 20
35.58102964600573
 10
-6.666615116815478
 20
35.58179344600572
 10
-6.665923316815451
 20
35.58255264600572
 10
-6.665229116815453
 20
35.58330944600576
 10
-6.66453431681549
 20
35.58405964600573
 10
-6.663837116815443
 20
35.58480744600573
 10
-6.663142316815481
 20
35.58554784600574
 10
-6.66244511681549
 20
35.58628544600575
 10
-6.661747516815466
 20
35.58701784600575
 10
-6.661047116815439
 20
35.58774744600572
 10
-6.660348516815474
 20
35.58846984600573
 10
-6.659647116815449
 20
35.58918944600575
 10
-6.65894651681549
 20
35.58990184600572
 10
-6.658243116815469
 20
35.59061144600574
 10
-6.657541516815513
 20
35.59131304600575
 10
-6.656837116815495
 20
35.59201144600573
 10
-6.656133516815486
 20
35.59270404600574
 10
-6.655427116815474
 20
35.59339344600573
 10
-6.654722516815468
 20
35.59407404600572
 10
-6.654015116815457
 20
35.59475144600575
 10
-6.653310516815508
 20
35.59542004600573
 10
-6.652603116815498
 20
35.59608544600573
 10
-6.651899716815478
 20
35.59674024600574
 10
-6.651193116815477
 20
35.59739144600573
 10
-6.650491716815508
 20
35.59803224600575
 10
-6.649787116815446
 20
35.59866944600575
 10
-6.649089716815524
 20
35.59929424600571
 10
-6.648389116815451
 20
35.59991544600573
 10
-6.647697716815514
 20
35.60052124600574
 10
-6.647003116815483
 20
35.60112344600574
 10
-6.646317716815474
 20
35.60171244600573
 10
-6.645629116815484
 20
35.60229744600574
 10
-6.644951716815512
 20
35.60286544600572
 10
-6.644271116815502
 20
35.60342944600575
 10
-6.64360171681551
 20
35.60397544600574
 10
-6.64292911681548
 20
35.60451744600573
 10
-6.64227071681546
 20
35.60504164600573
 10
-6.641609116815516
 20
35.60556144600574
 10
-6.640962716815465
 20
35.60606164600571
 10
-6.640313116815491
 20
35.60655744600572
 10
-6.63968091681545
 20
35.60703184600573
 10
-6.639045116815509
 20
35.60750144600573
 10
-6.638425916815435
 20
35.60795004600573
 10
-6.637803116815462
 20
35.60839344600572
 10
-6.637199916815461
 20
35.60881324600572
 10
-6.636593116815447
 20
35.60922744600575
 10
-6.636006916815517
 20
35.60961944600575
 10
-6.63541711681546
 20
35.61000544600574
 10
-6.634852916815475
 20
35.61036524600573
 10
-6.634285116815476
 20
35.61071944600573
 10
-6.633734116815503
 20
35.61104884600573
 10
-6.633179116815483
 20
35.61137144600574
 10
-6.632641716815442
 20
35.61166924600573
 10
-6.632099116815481
 20
35.61195744600573
 10
-6.631606116815476
 20
35.61221824600574
 10
-6.63110911681548
 20
35.61247144600574
 10
-6.63067171681547
 20
35.61268864600575
 10
-6.630233116815475
 20
35.61290344600573
 10
-6.629733516815463
 20
35.61310004600571
 10
-6.629229116815508
 20
35.61328344600574
 10
-6.62854071681545
 20
35.61348164600574
 10
-6.627841116815488
 20
35.61363544600573
 10
-6.626983516815471
 20
35.61381564600575
 10
-6.626119116815516
 20
35.61395944600574
  0
LINE
  5
53
330
2
100
AcDbEntity
  8
GAIKEI
  6
Continuous
 62
     1
100
AcDbLine
 10
-31.03263311681554
 20
18.37630344600572
 30
0.0
 11
-31.03263311681554
 21
16.51395544600572
 31
0.0
  0
LINE
  5
54
330
2
100
AcDbEntity
  8
GAIKEI
  6
Continuous
 62
     1
100
AcDbLine
 10
-27.23263311681552
 20
16.51395544600572
 30
0.0
 11
-27.23263311681552
 21
20.07395964600573
 31
0.0
  0
LINE
  5
55
330
2
100
AcDbEntity
  8
GAIKEI
  6
Continuous
 62
     1
100
AcDbLine
 10
-26.83263311681549
 20
16.51395544600572
 30
0.0
 11
-26.83263311681549
 21
20.07395964600573
 31
0.0
  0
LINE
  5
56
330
2
100
AcDbEntity
  8
GAIKEI
  6
Continuous
 62
     1
100
AcDbLine
 10
-13.83263311681548
 20
16.51395544600572
 30
0.0
 11
-13.83263311681548
 21
18.37626744600573
 31
0.0
  0
LINE
  5
57
330
2
100
AcDbEntity
  8
GAIKEI
  6
Continuous
 62
     1
100
AcDbLine
 10
-17.6326331168155
 20
20.07395964600573
 30
0.0
 11
-17.6326331168155
 21
16.51395544600572
 31
0.0
  0
LINE
  5
58
330
2
100
AcDbEntity
  8
GAIKEI
  6
Continuous
 62
     1
100
AcDbLine
 10
-18.03263311681553
 20
20.07395964600573
 30
0.0
 11
-18.03263311681553
 21
16.51395544600572
 31
0.0
  0
CIRCLE
  5
59
330
2
100
AcDbEntity
  8
GAIKEI
  6
Continuous
 62
     1
100
AcDbCircle
 10
-22.43263311681551
 20
16.51395544600572
 30
0.0
 40
3.5
  0
LINE
  5
5A
330
2
100
AcDbEntity
  8
GAIKEI
  6
Continuous
 62
     1
100
AcDbLine
 10
-26.6326331168155
 20
20.07395964600573
 30
0.0
 11
-26.6326331168155
 21
16.51395544600572
 31
0.0
  0
LINE
  5
5B
330
2
100
AcDbEntity
  8
GAIKEI
  6
Continuous
 62
     1
100
AcDbLine
 10
-18.23263191681553
 20
20.07395964600573
 30
0.0
 11
-18.23263311681552
 21
16.51395544600572
 31
0.0
  0
ARC
  5
5C
330
2
100
AcDbEntity
  8
GAIKEI
  6
Continuous
 62
     1
100
AcDbCircle
 10
-22.43263311681551
 20
16.51395544600572
 30
0.0
 40
3.2192408
100
AcDbArc
 50
52.00000000000225
 51
180.0
  0
ARC
  5
5D
330
2
100
AcDbEntity
  8
GAIKEI
  6
Continuous
 62
     1
100
AcDbCircle
 10
-22.43263311681551
 20
16.51395544600572
 30
0.0
 40
3.2192408
100
AcDbArc
 50
0.0
 51
52.00000000000225
  0
CIRCLE
  5
5E
330
2
100
AcDbEntity
  8
GAIKEI
  6
Continuous
 62
     1
100
AcDbCircle
 10
-22.43263311681551
 20
16.51395544600572
 30
0.0
 40
2.9
  0
LINE
  5
5F
330
2
100
AcDbEntity
  8
GAIKEI
  6
Continuous
 62
     1
100
AcDbLine
 10
-13.83425911681553
 20
18.47310944600573
 30
0.0
 11
-13.87312711681551
 21
18.47310944600573
 31
0.0
  0
LINE
  5
60
330
2
100
AcDbEntity
  8
GAIKEI
  6
Continuous
 62
     1
100
AcDbLine
 10
-13.68616111681552
 20
18.60398744600573
 30
0.0
 11
-13.83337911681553
 21
18.47310944600573
 31
0.0
  0
LWPOLYLINE
  5
61
330
2
100
AcDbEntity
  8
GAIKEI
  6
Continuous
 62
     1
100
AcDbPolyline
 90
       56
 70
     0
 43
0.0
 10
-13.63255511681547
 20
18.67288544600572
 10
-13.63391111681551
 20
18.67030944600574
 10
-13.63460131681552
 20
18.66902644600574
 10
-13.63529911681547
 20
18.66774744600573
 10
-13.6360053168155
 20
18.66647144600574
 10
-13.63671911681547
 20
18.66519944600574
 10
-13.63744231681551
 20
18.66393124600574
 10
-13.63817311681543
 20
18.66266744600574
 10
-13.63891131681549
 20
18.66140624600572
 10
-13.63965711681544
 20
18.66014944600573
 10
-13.64041131681551
 20
18.65889724600575
 10
-13.64117311681548
 20
18.65764944600573
 10
-13.64194331681551
 20
18.65640524600573
 10
-13.64272111681543
 20
18.65516544600572
 10
-13.64350731681549
 20
18.65393004600574
 10
-13.64430111681542
 20
18.65269944600575
 10
-13.64510231681549
 20
18.65147404600574
 10
-13.64591111681545
 20
18.65025344600573
 10
-13.64672751681547
 20
18.64903604600573
 10
-13.64755111681552
 20
18.64782344600573
 10
-13.64838251681544
 20
18.64661604600573
 10
-13.64922111681551
 20
18.64541344600573
 10
-13.65006751681551
 20
18.64421584600572
 10
-13.65092111681548
 20
18.64302344600574
 10
-13.6517825168155
 20
18.64183684600573
 10
-13.65265111681549
 20
18.64065544600575
 10
-13.65352751681553
 20
18.63947784600575
 10
-13.65441111681548
 20
18.63830544600574
 10
-13.65530151681548
 20
18.63713984600574
 10
-13.65619911681551
 20
18.63597944600573
 10
-13.65710251681548
 20
18.63482484600573
 10
-13.65801311681548
 20
18.63367544600575
 10
-13.65893171681546
 20
18.63253164600573
 10
-13.65985711681549
 20
18.63139344600572
 10
-13.66078971681543
 20
18.63026064600572
 10
-13.66172911681548
 20
18.62913344600574
 10
-13.66267771681544
 20
18.62801064600572
 10
-13.6636331168155
 20
18.62689344600574
 10
-13.6645897168155
 20
18.62578664600573
 10
-13.66555311681543
 20
18.62468544600574
 10
-13.6665171168155
 20
18.62359684600571
 10
-13.66748711681549
 20
18.62251344600574
 10
-13.66848071681545
 20
18.62142144600574
 10
-13.66948111681546
 20
18.62033544600572
 10
-13.67051211681547
 20
18.61923264600571
 10
-13.67155111681546
 20
18.61813744600573
 10
-13.67252731681549
 20
18.61710984600572
 10
-13.67350911681546
 20
18.61608744600573
 10
-13.67440011681549
 20
18.61516664600575
 10
-13.67529311681551
 20
18.61424744600572
 10
-13.6764595168155
 20
18.61309184600571
 10
-13.67763511681551
 20
18.61194544600573
 10
-13.67946031681549
 20
18.61020004600573
 10
-13.68130911681544
 20
18.60847944600573
 10
-13.68372771681549
 20
18.60622544600573
 10
-13.68616111681547
 20
18.60398744600573
  0
LWPOLYLINE
  5
62
330
2
100
AcDbEntity
  8
GAIKEI
  6
Continuous
 62
     1
100
AcDbPolyline
 90
       56
 70
     0
 43
0.0
 10
-31.2327111168155
 20
18.67288544600572
 10
-31.23135511681551
 20
18.67030944600574
 10
-31.2306649168155
 20
18.66902644600574
 10
-31.22996711681549
 20
18.66774744600573
 10
-31.22926091681552
 20
18.66647144600574
 10
-31.22854711681549
 20
18.66519944600574
 10
-31.22782391681551
 20
18.66393124600574
 10
-31.22709311681547
 20
18.66266744600574
 10
-31.22635491681547
 20
18.66140624600572
 10
-31.22560911681546
 20
18.66014944600573
 10
-31.2248549168155
 20
18.65889724600575
 10
-31.22409311681548
 20
18.65764944600573
 10
-31.22332291681551
 20
18.65640524600573
 10
-31.22254511681547
 20
18.65516544600572
 10
-31.22175891681548
 20
18.65393004600574
 10
-31.22096511681548
 20
18.65269944600575
 10
-31.22016391681547
 20
18.65147404600574
 10
-31.21935511681545
 20
18.65025344600573
 10
-31.21853871681549
 20
18.64903604600573
 10
-31.2177151168155
 20
18.64782344600573
 10
-31.21688371681546
 20
18.64661604600573
 10
-31.21604511681551
 20
18.64541344600573
 10
-31.21519871681551
 20
18.64421584600572
 10
-31.21434511681548
 20
18.64302344600574
 10
-31.21348371681552
 20
18.64183684600573
 10
-31.21261511681547
 20
18.64065544600575
 10
-31.21173871681549
 20
18.63947784600575
 10
-31.21085511681548
 20
18.63830544600574
 10
-31.20996471681548
 20
18.63713984600574
 10
-31.20906711681551
 20
18.63597944600573
 10
-31.20816351681549
 20
18.63482484600573
 10
-31.20725311681548
 20
18.63367544600575
 10
-31.20633451681545
 20
18.63253164600573
 10
-31.20540911681548
 20
18.63139344600572
 10
-31.20447651681548
 20
18.63026064600572
 10
-31.20353711681548
 20
18.62913344600574
 10
-31.20258851681547
 20
18.62801064600572
 10
-31.20163311681551
 20
18.62689344600574
 10
-31.20067651681552
 20
18.62578664600573
 10
-31.19971311681548
 20
18.62468544600574
 10
-31.19874911681546
 20
18.62359684600571
 10
-31.19777911681547
 20
18.62251344600574
 10
-31.19678551681545
 20
18.62142144600574
 10
-31.1957851168155
 20
18.62033544600572
 10
-31.19475411681549
 20
18.61923264600571
 10
-31.1937151168155
 20
18.61813744600573
 10
-31.19273891681547
 20
18.61710984600572
 10
-31.19175711681544
 20
18.61608744600573
 10
-31.19086611681547
 20
18.61516664600575
 10
-31.18997311681551
 20
18.61424744600572
 10
-31.18880671681552
 20
18.61309184600571
 10
-31.18763111681551
 20
18.61194544600573
 10
-31.18580591681553
 20
18.61020004600573
 10
-31.18395711681547
 20
18.60847944600573
 10
-31.18153851681547
 20
18.60622544600573
 10
-31.17910511681549
 20
18.60398744600573
  0
LINE
  5
63
330
2
100
AcDbEntity
  8
GAIKEI
  6
Continuous
 62
     1
100
AcDbLine
 10
-31.17910511681555
 20
18.60398744600573
 30
0.0
 11
-31.03188711681549
 21
18.47310944600573
 31
0.0
  0
LINE
  5
64
330
2
100
AcDbEntity
  8
GAIKEI
  6
Continuous
 62
     1
100
AcDbLine
 10
-31.03100711681554
 20
18.47310944600573
 30
0.0
 11
-30.99213911681551
 21
18.47310944600573
 31
0.0
  0
LWPOLYLINE
  5
65
330
2
100
AcDbEntity
  8
GAIKEI
  6
Continuous
 62
     1
100
AcDbPolyline
 90
       91
 70
     0
 43
0.0
 10
-31.03274511681548
 20
18.37630344600572
 10
-31.03273311681551
 20
18.37630944600573
 10
-31.03272351681551
 20
18.37631724600572
 10
-31.03271711681543
 20
18.37632744600572
 10
-31.03270631681551
 20
18.37634204600573
 10
-31.03269711681548
 20
18.37635744600573
 10
-31.03268371681549
 20
18.37637924600571
 10
-31.0326711168155
 20
18.37640144600573
 10
-31.0326557168155
 20
18.37642944600574
 10
-31.03264111681551
 20
18.37645744600573
 10
-31.03262291681551
 20
18.37649044600573
 10
-31.03260511681549
 20
18.37652344600573
 10
-31.03258491681549
 20
18.37656344600572
 10
-31.03256511681548
 20
18.37660344600573
 10
-31.03254291681549
 20
18.37664944600575
 10
-31.03252111681547
 20
18.37669544600575
 10
-31.03249591681549
 20
18.37674744600574
 10
-31.03247111681549
 20
18.37679944600575
 10
-31.03244391681551
 20
18.37685844600574
 10
-31.03241711681551
 20
18.37691744600573
 10
-31.03238691681549
 20
18.37698144600574
 10
-31.03235711681544
 20
18.37704544600572
 10
-31.03232511681552
 20
18.37711644600574
 10
-31.03229311681548
 20
18.37718744600573
 10
-31.03225911681545
 20
18.37726444600574
 10
-31.03222511681548
 20
18.37734144600574
 10
-31.03218811681546
 20
18.37742444600573
 10
-31.0321511168155
 20
18.37750744600572
 10
-31.03211211681549
 20
18.37759644600572
 10
-31.03207311681547
 20
18.37768544600573
 10
-31.03203111681546
 20
18.37778044600574
 10
-31.03198911681545
 20
18.37787544600573
 10
-31.03194511681545
 20
18.37797744600573
 10
-31.03190111681545
 20
18.37807944600573
 10
-31.03185411681546
 20
18.37818644600574
 10
-31.03180711681546
 20
18.37829344600573
 10
-31.03175811681547
 20
18.37840744600572
 10
-31.03170911681548
 20
18.37852144600575
 10
-31.0316571168155
 20
18.37864144600573
 10
-31.03160511681551
 20
18.37876144600574
 10
-31.03155111681548
 20
18.37888744600573
 10
-31.03149711681544
 20
18.37901344600573
 10
-31.03144011681548
 20
18.37914544600574
 10
-31.03138311681551
 20
18.37927744600571
 10
-31.03132411681543
 20
18.37941644600573
 10
-31.03126511681546
 20
18.37955544600575
 10
-31.0312031168155
 20
18.37969944600573
 10
-31.03114111681549
 20
18.37984344600574
 10
-31.03107711681548
 20
18.37999444600575
 10
-31.03101311681553
 20
18.38014544600574
 10
-31.03094611681547
 20
18.38030244600574
 10
-31.03087911681547
 20
18.38045944600574
 10
-31.03081011681548
 20
18.38062244600573
 10
-31.03074111681548
 20
18.38078544600574
 10
-31.03067011681549
 20
18.38095444600574
 10
-31.03059911681544
 20
18.38112344600572
 10
-31.03052411681551
 20
18.38129844600573
 10
-31.03044911681548
 20
18.38147344600574
 10
-31.03037211681544
 20
18.38165544600574
 10
-31.03029511681552
 20
18.38183744600573
 10
-31.0302161168155
 20
18.38202444600574
 10
-31.03013711681547
 20
18.38221144600572
 10
-31.03005511681545
 20
18.38240544600575
 10
-31.02997311681548
 20
18.38259944600574
 10
-31.02988911681547
 20
18.38279944600575
 10
-31.02980511681551
 20
18.38299944600575
 10
-31.0296311168155
 20
18.38341144600574
 10
-31.02945111681549
 20
18.38383544600574
 10
-31.02926711681551
 20
18.38427344600572
 10
-31.02907711681547
 20
18.38472144600572
 10
-31.02888311681545
 20
18.38518344600572
 10
-31.0286831168155
 20
18.38565744600572
 10
-31.02847911681545
 20
18.38614344600572
 10
-31.02826911681547
 20
18.38664144600574
 10
-31.0280531168155
 20
18.38715344600572
 10
-31.02783311681549
 20
18.38767544600574
 10
-31.02760711681549
 20
18.38821144600572
 10
-31.02737511681551
 20
18.38875944600573
 10
-31.02713911681548
 20
18.38931744600572
 10
-31.02689911681546
 20
18.38988944600575
 10
-31.02665111681552
 20
18.39047344600573
 10
-31.02639911681547
 20
18.39107144600572
 10
-31.02614311681544
 20
18.39167744600573
 10
-31.02588511681552
 20
18.39229344600574
 10
-31.02561511681552
 20
18.39293144600574
 10
-31.02533311681543
 20
18.39359944600573
 10
-31.02506511681549
 20
18.39423344600573
 10
-31.02482111681548
 20
18.39481144600572
 10
-31.0244971168155
 20
18.39558344600573
 10
-31.02398111681544
 20
18.39680744600574
 10
-31.02329711681546
 20
18.39842944600573
  0
LWPOLYLINE
  5
66
330
2
100
AcDbEntity
  8
GAIKEI
  6
Continuous
 62
     1
100
AcDbPolyline
 90
       56
 70
     0
 43
0.0
 10
-31.03263311681548
 20
16.51395544600575
 10
-31.0289771168155
 20
16.26220344600574
 10
-31.02433111681546
 20
16.13506644600574
 10
-31.01773711681551
 20
16.00801544600574
 10
-31.00913591681547
 20
15.87955784600572
 10
-30.99863511681548
 20
15.75124144600573
 10
-30.98613431681548
 20
15.62168484600573
 10
-30.97173511681547
 20
15.49232544600573
 10
-30.95505571681548
 20
15.36183244600573
 10
-30.93641311681551
 20
15.23160544600571
 10
-30.91561251681549
 20
15.10038624600574
 10
-30.89281311681549
 20
14.96949944600572
 10
-30.86762991681548
 20
14.83770384600575
 10
-30.84042111681549
 20
14.70631144600574
 10
-30.81094571681547
 20
14.57415744600573
 10
-30.7794271168155
 20
14.44247544600571
 10
-30.74541031681548
 20
14.3101576460057
 10
-30.70932311681549
 20
14.17838944600575
 10
-30.67088291681546
 20
14.04612284600574
 10
-30.6303591168155
 20
13.91447944600574
 10
-30.5872661168155
 20
13.78248944600574
 10
-30.54207311681546
 20
13.65120344600572
 10
-30.49447991681546
 20
13.51970424600574
 10
-30.44478311681547
 20
13.38898544600573
 10
-30.39248451681544
 20
13.25823184600574
 10
-30.3380771168155
 20
13.12834144600575
 10
-30.28124691681546
 20
12.99852844600573
 10
-30.22231111681549
 20
12.86965744600573
 10
-30.16076871681548
 20
12.74106104600574
 10
-30.09712111681551
 20
12.61349344600572
 10
-30.03112071681551
 20
12.48633444600574
 10
-29.96303511681549
 20
12.36027944600576
 10
-29.89244231681551
 20
12.23487264600572
 10
-29.81979311681551
 20
12.11064544600574
 10
-29.74470271681548
 20
11.98702784600576
 10
-29.66756111681548
 20
11.86467944600574
 10
-29.58782251681544
 20
11.74311884600573
 10
-29.50601711681549
 20
11.62293944600574
 10
-29.42250371681547
 20
11.50408744600574
 10
-29.33702111681544
 20
11.3866434460057
 10
-29.24985771681543
 20
11.27102304600572
 10
-29.16089711681548
 20
11.15677944600574
 10
-29.06796171681549
 20
11.04248784600574
 10
-28.97306711681551
 20
10.92981744600573
 10
-28.8735429168155
 20
10.81644164600572
 10
-28.77170711681549
 20
10.70513744600572
 10
-28.67559271681546
 20
10.60062364600574
 10
-28.57784911681552
 20
10.49763144600572
 10
-28.48846271681543
 20
10.40508524600574
 10
-28.39856111681547
 20
10.31303944600574
 10
-28.27747831681546
 20
10.20177604600573
 10
-28.15397511681545
 20
10.09320544600575
 10
-27.9598053168155
 20
9.931691446005743
 10
-27.75965911681544
 20
9.777645446005749
 10
-27.49800431681547
 20
9.575445446005716
 10
-27.23262911681548
 20
9.37815344600574
  0
LWPOLYLINE
  5
67
330
2
100
AcDbEntity
  8
GAIKEI
  6
Continuous
 62
     1
100
AcDbPolyline
 90
       50
 70
     0
 43
0.0
 10
-27.23262911681548
 20
9.37815344600574
 10
-27.23263111681547
 20
9.381023446005713
 10
-27.23263391681553
 20
9.38542944600573
 10
-27.23263311681547
 20
9.389835446005719
 10
-27.23263311681547
 20
9.404805446005752
 10
-27.23263311681547
 20
9.425881446005746
 10
-27.23263311681547
 20
9.453547446005728
 10
-27.23263311681547
 20
9.487685446005741
 10
-27.23263311681547
 20
9.528701446005726
 10
-27.23263311681547
 20
9.57644144600573
 10
-27.23263311681547
 20
9.631309446005758
 10
-27.23263311681547
 20
9.693105446005716
 10
-27.23263311681547
 20
9.762199446005752
 10
-27.23263311681547
 20
9.838347446005741
 10
-27.23263311681547
 20
9.921881446005755
 10
-27.23263111681547
 20
10.01251544600575
 10
-27.23263111681547
 20
10.11053544600574
 10
-27.23263111681547
 20
10.21560944600574
 10
-27.23263111681547
 20
10.32797144600573
 10
-27.23263111681547
 20
10.44724544600572
 10
-27.23263111681547
 20
10.57361144600574
 10
-27.23263111681547
 20
10.70665544600572
 10
-27.23263111681547
 20
10.84649544600575
 10
-27.23263111681547
 20
10.99268344600571
 10
-27.23263111681547
 20
11.14527744600573
 10
-27.23263111681547
 20
11.30379544600572
 10
-27.23263111681547
 20
11.46823944600572
 10
-27.23263111681547
 20
11.63810944600575
 10
-27.23263111681547
 20
11.81334144600572
 10
-27.23263111681547
 20
11.99342344600572
 10
-27.23263111681547
 20
12.17824144600573
 10
-27.23263111681547
 20
12.36728144600573
 10
-27.23263111681547
 20
12.56037144600572
 10
-27.23263111681547
 20
12.75700544600573
 10
-27.23263111681547
 20
12.95696544600574
 10
-27.23263111681547
 20
13.15978344600572
 10
-27.23263111681547
 20
13.36520744600571
 10
-27.23263111681547
 20
13.57270744600572
 10
-27.23263111681547
 20
13.78197344600573
 10
-27.23263111681547
 20
13.99286344600571
 10
-27.23263111681547
 20
14.20516944600572
 10
-27.23263111681547
 20
14.41737344600574
 10
-27.23263111681547
 20
14.62875744600572
 10
-27.23263111681547
 20
14.84345744600571
 10
-27.23263111681547
 20
15.06268544600576
 10
-27.23263111681547
 20
15.26848944600573
 10
-27.23263111681547
 20
15.45445944600573
 10
-27.23263111681547
 20
15.69002544600573
 10
-27.23263111681547
 20
16.04800744600573
 10
-27.23262911681548
 20
16.51395544600575
  0
LINE
  5
68
330
2
100
AcDbEntity
  8
GAIKEI
  6
Continuous
 62
     1
100
AcDbLine
 10
-26.83263311681549
 20
9.371691446005712
 30
0.0
 11
-26.83263311681549
 21
16.51395544600572
 31
0.0
  0
ARC
  5
69
330
2
100
AcDbEntity
  8
GAIKEI
  6
Continuous
 62
     1
100
AcDbCircle
 10
-22.43263311681551
 20
16.51395544600572
 30
0.0
 40
8.599999999999999
100
AcDbArc
 50
303.9271000000003
 51
0.0
  0
LINE
  5
6A
330
2
100
AcDbEntity
  8
GAIKEI
  6
Continuous
 62
     1
100
AcDbLine
 10
-17.6326331168155
 20
16.51395544600572
 30
0.0
 11
-17.6326331168155
 21
9.37811944600574
 31
0.0
  0
LINE
  5
6B
330
2
100
AcDbEntity
  8
GAIKEI
  6
Continuous
 62
     1
100
AcDbLine
 10
-18.03263311681553
 20
16.51395544600572
 30
0.0
 11
-18.03263311681553
 21
9.37169544600573
 31
0.0
  0
ARC
  5
6C
330
2
100
AcDbEntity
  8
GAIKEI
  6
Continuous
 62
     1
100
AcDbCircle
 10
-22.43263311681551
 20
16.51395544600572
 30
0.0
 40
3.2192408
100
AcDbArc
 50
207.9999999999984
 51
0.0
  0
LINE
  5
6D
330
2
100
AcDbEntity
  8
GAIKEI
  6
Continuous
 62
     1
100
AcDbLine
 10
-26.6326331168155
 20
8.866731446005729
 30
0.0
 11
-26.6326331168155
 21
16.51395544600572
 31
0.0
  0
LINE
  5
6E
330
2
100
AcDbEntity
  8
GAIKEI
  6
Continuous
 62
     1
100
AcDbLine
 10
-18.23263311681552
 20
8.866731446005729
 30
0.0
 11
-18.23263311681552
 21
16.51395544600572
 31
0.0
  0
ARC
  5
6F
330
2
100
AcDbEntity
  8
GAIKEI
  6
Continuous
 62
     1
100
AcDbCircle
 10
-22.43263311681551
 20
16.51395544600572
 30
0.0
 40
3.2192408
100
AcDbArc
 50
180.0
 51
207.9999999999984
  0
LINE
  5
70
330
2
100
AcDbEntity
  8
GAIKEI
  6
Continuous
 62
     1
100
AcDbLine
 10
-22.53263311681553
 20
12.01395544600572
 30
0.0
 11
-22.53263311681553
 21
12.81395544600573
 31
0.0
  0
LINE
  5
71
330
2
100
AcDbEntity
  8
GAIKEI
  6
Continuous
 62
     1
100
AcDbLine
 10
-22.33263311681549
 20
12.01395544600572
 30
0.0
 11
-22.33263311681549
 21
12.81395544600573
 31
0.0
  0
LINE
  5
72
330
2
100
AcDbEntity
  8
GAIKEI
  6
Continuous
 62
     1
100
AcDbLine
 10
-22.53263311681553
 20
12.01395544600572
 30
0.0
 11
-22.33263311681549
 21
12.01395544600572
 31
0.0
  0
LINE
  5
73
330
2
100
AcDbEntity
  8
GAIKEI
  6
Continuous
 62
     1
100
AcDbLine
 10
-22.53263311681553
 20
12.81395544600573
 30
0.0
 11
-22.33263311681549
 21
12.81395544600573
 31
0.0
  0
LINE
  5
74
330
2
100
AcDbEntity
  8
GAIKEI
  6
Continuous
 62
     1
100
AcDbLine
 10
-18.03263311681553
 20
10.13395544600573
 30
0.0
 11
-18.23263111681552
 21
9.933957446005706
 31
0.0
  0
LINE
  5
75
330
2
100
AcDbEntity
  8
GAIKEI
  6
Continuous
 62
     1
100
AcDbLine
 10
-26.6326331168155
 20
9.933957446005706
 30
0.0
 11
-26.83263511681554
 21
10.13395944600572
 31
0.0
  0
LWPOLYLINE
  5
76
330
2
100
AcDbEntity
  8
GAIKEI
  6
Continuous
 62
     1
100
AcDbPolyline
 90
       55
 70
     0
 43
0.0
 10
-17.96134511681549
 20
9.312765446005727
 10
-17.95036911681546
 20
9.314869446005729
 10
-17.94488191681546
 20
9.315924846005742
 10
-17.93939511681549
 20
9.316981446005712
 10
-17.93390891681548
 20
9.318037846005751
 10
-17.92842311681545
 20
9.319095446005718
 10
-17.9229369168155
 20
9.320155846005746
 10
-17.91745111681547
 20
9.321217446005732
 10
-17.91196591681546
 20
9.322279846005727
 10
-17.90648111681548
 20
9.323343446005736
 10
-17.90099591681547
 20
9.324407846005726
 10
-17.89551111681544
 20
9.32547344600573
 10
-17.89002691681548
 20
9.326540846005741
 10
-17.88454311681551
 20
9.327609446005737
 10
-17.87905991681543
 20
9.328678846005715
 10
-17.87357711681545
 20
9.329749446005763
 10
-17.86809491681549
 20
9.330821846005733
 10
-17.86261311681551
 20
9.331895446005745
 10
-17.85713091681543
 20
9.332970846005736
 10
-17.85164911681545
 20
9.334047446005712
 10
-17.84616691681549
 20
9.335124846005726
 10
-17.84068511681551
 20
9.336203446005725
 10
-17.83520491681548
 20
9.337282846005734
 10
-17.82972511681544
 20
9.338363446005729
 10
-17.82424491681547
 20
9.33944584600573
 10
-17.81876511681548
 20
9.340529446005746
 10
-17.81328491681552
 20
9.341613846005742
 10
-17.80780511681547
 20
9.342699446005752
 10
-17.80232591681545
 20
9.343787846005739
 10
-17.79684711681546
 20
9.344877446005739
 10
-17.79136991681548
 20
9.345966846005723
 10
-17.78589311681549
 20
9.34705744600572
 10
-17.78041791681551
 20
9.348148846005727
 10
-17.7749431168155
 20
9.349241446005748
 10
-17.76946391681548
 20
9.350337846005743
 10
-17.76398511681543
 20
9.351435446005723
 10
-17.75849791681548
 20
9.352534846005738
 10
-17.75301111681551
 20
9.353635446005739
 10
-17.74754591681551
 20
9.354732846005759
 10
-17.74208111681548
 20
9.355831446005737
 10
-17.73664991681551
 20
9.356924846005739
 10
-17.73121911681551
 20
9.358019446005755
 10
-17.72570091681547
 20
9.359133846005732
 10
-17.72018311681546
 20
9.360249446005724
 10
-17.71453791681551
 20
9.361391646005728
 10
-17.70889311681549
 20
9.36253544600575
 10
-17.70359191681547
 20
9.363610046005732
 10
-17.69829111681548
 20
9.364685446005751
 10
-17.68870911681552
 20
9.366633446005721
 10
-17.68255691681548
 20
9.367887646005726
 10
-17.67640511681548
 20
9.369143446005722
 10
-17.66693051681545
 20
9.371082046005739
 10
-17.65745711681552
 20
9.373025446005755
 10
-17.64505171681548
 20
9.375571046005745
 10
-17.63264711681552
 20
9.37811944600574
  0
LWPOLYLINE
  5
77
330
2
100
AcDbEntity
  8
GAIKEI
  6
Continuous
 62
     1
100
AcDbPolyline
 90
      116
 70
     0
 43
0.0
 10
-18.03262911681543
 20
9.37169544600573
 10
-18.03260911681548
 20
9.370143446005727
 10
-18.03258451681546
 20
9.369360246005754
 10
-18.03254911681552
 20
9.36857744600573
 10
-18.03250231681545
 20
9.367784246005726
 10
-18.03244511681544
 20
9.366991446005755
 10
-18.03237631681549
 20
9.36619204600575
 10
-18.03229711681547
 20
9.365393446005725
 10
-18.03220651681545
 20
9.364586846005721
 10
-18.0321051168155
 20
9.363781446005731
 10
-18.03199151681548
 20
9.362968646005725
 10
-18.03186711681547
 20
9.362157446005738
 10
-18.03172971681545
 20
9.361340646005743
 10
-18.03158111681546
 20
9.360525446005738
 10
-18.03141971681549
 20
9.359703446005738
 10
-18.03124711681551
 20
9.358883446005734
 10
-18.03106091681548
 20
9.358059246005723
 10
-18.03086311681545
 20
9.357237446005711
 10
-18.03065191681548
 20
9.356411046005746
 10
-18.03042911681547
 20
9.355587446005728
 10
-18.03019091681551
 20
9.35475984600572
 10
-18.02994111681551
 20
9.353935446005749
 10
-18.02967891681544
 20
9.353107646005724
 10
-18.0294051168155
 20
9.352283446005714
 10
-18.02911511681543
 20
9.351457446005753
 10
-18.02881311681551
 20
9.350635446005753
 10
-18.02849811681551
 20
9.349811246005742
 10
-18.02817111681548
 20
9.348991446005726
 10
-18.0278281168155
 20
9.348171046005745
 10
-18.02747311681548
 20
9.347355446005735
 10
-18.02710411681551
 20
9.346539846005754
 10
-18.02672311681545
 20
9.345729446005748
 10
-18.02632711681548
 20
9.344920446005744
 10
-18.02591911681549
 20
9.344117446005725
 10
-18.02549611681547
 20
9.343315246005744
 10
-18.02506111681543
 20
9.342519446005752
 10
-18.02461211681549
 20
9.341726046005732
 10
-18.02415111681546
 20
9.340939446005734
 10
-18.02367491681548
 20
9.340155846005728
 10
-18.0231871168155
 20
9.33937944600575
 10
-18.02268491681548
 20
9.338607646005726
 10
-18.02217111681546
 20
9.337843446005734
 10
-18.02164391681549
 20
9.337083446005721
 10
-18.02110511681547
 20
9.336331446005743
 10
-18.02055171681547
 20
9.335585246005763
 10
-18.01998711681551
 20
9.334847446005738
 10
-18.01940871681546
 20
9.334117046005729
 10
-18.01881911681551
 20
9.333395446005738
 10
-18.01821651681553
 20
9.332680846005729
 10
-18.01760311681551
 20
9.331975446005742
 10
-18.01697851681547
 20
9.33127764600573
 10
-18.0163431168155
 20
9.330589446005745
 10
-18.01569431681548
 20
9.329911446005723
 10
-18.01503511681551
 20
9.329243446005733
 10
-18.0143641168155
 20
9.328583246005734
 10
-18.01368311681551
 20
9.327933446005715
 10
-18.0129921168155
 20
9.327296046005727
 10
-18.0122911168155
 20
9.326669446005752
 10
-18.01157991681549
 20
9.326051846005725
 10
-18.01085911681548
 20
9.325445446005716
 10
-18.01012871681547
 20
9.324851846005714
 10
-18.00938911681544
 20
9.324269446005729
 10
-18.00864051681549
 20
9.323698646005738
 10
-18.00788311681549
 20
9.32313944600574
 10
-18.00711831681548
 20
9.322593446005726
 10
-18.00634511681551
 20
9.322059446005738
 10
-18.00556411681543
 20
9.321538446005718
 10
-18.00477511681549
 20
9.321029446005724
 10
-18.00397991681552
 20
9.320533246005737
 10
-18.00317711681543
 20
9.320049446005725
 10
-18.00236971681545
 20
9.319580246005727
 10
-18.00155511681544
 20
9.319123446005733
 10
-18.00073451681544
 20
9.318681046005764
 10
-17.99990711681551
 20
9.318251446005717
 10
-17.99907731681549
 20
9.31783504600574
 10
-17.99824111681551
 20
9.317431446005713
 10
-17.99740111681547
 20
9.317043046005721
 10
-17.99655511681544
 20
9.316667446005709
 10
-17.99570791681549
 20
9.316307046005732
 10
-17.99485511681547
 20
9.315959446005734
 10
-17.9940005168155
 20
9.315627046005744
 10
-17.99314111681548
 20
9.315307446005732
 10
-17.99228231681547
 20
9.31500204600573
 10
-17.99141911681545
 20
9.314709446005764
 10
-17.99055611681547
 20
9.314432046005748
 10
-17.9896891168155
 20
9.31416744600574
 10
-17.98882291681548
 20
9.313918046005738
 10
-17.98795311681544
 20
9.313681446005745
 10
-17.9870857168155
 20
9.313460046005729
 10
-17.98621511681551
 20
9.313251446005722
 10
-17.98534751681546
 20
9.313056046005755
 10
-17.98447711681547
 20
9.312873446005738
 10
-17.98361131681548
 20
9.312706246005745
 10
-17.98274311681552
 20
9.312551446005755
 10
-17.98187911681549
 20
9.312410246005725
 10
-17.98101311681546
 20
9.312281446005755
 10
-17.98015091681543
 20
9.312166246005745
 10
-17.9792871168155
 20
9.312063446005737
 10
-17.97843271681546
 20
9.311973446005737
 10
-17.97757711681549
 20
9.311895446005735
 10
-17.97673251681544
 20
9.31183184600573
 10
-17.97588711681544
 20
9.311779446005743
 10
-17.97503631681547
 20
9.311740446005757
 10
-17.97418511681548
 20
9.311713446005711
 10
-17.97332411681543
 20
9.311700246005727
 10
-17.97246311681545
 20
9.311701446005741
 10
-17.97165811681549
 20
9.311705246005743
 10
-17.97085311681547
 20
9.311719446005724
 10
-17.97012911681543
 20
9.311737646005724
 10
-17.96940511681544
 20
9.311759446005737
 10
-17.96849951681548
 20
9.311824646005732
 10
-17.96759511681546
 20
9.311905446005738
 10
-17.96623071681551
 20
9.312055646005717
 10
-17.96487111681551
 20
9.312245446005732
 10
-17.96310611681548
 20
9.312492446005734
 10
-17.96134511681549
 20
9.312765446005727
  0
LWPOLYLINE
  5
78
330
2
100
AcDbEntity
  8
GAIKEI
  6
Continuous
 62
     1
100
AcDbPolyline
 90
       55
 70
     0
 43
0.0
 10
-27.23262911681548
 20
9.37815344600574
 10
-27.22169111681547
 20
9.375899446005746
 10
-27.21622231681545
 20
9.374774846005749
 10
-27.21075311681545
 20
9.373651446005737
 10
-27.20528231681544
 20
9.372528846005735
 10
-27.19981111681545
 20
9.371407446005747
 10
-27.19434031681544
 20
9.370287846005737
 10
-27.18886911681546
 20
9.369169446005741
 10
-27.18339731681544
 20
9.368052846005753
 10
-27.17792511681546
 20
9.366937446005721
 10
-27.17245331681545
 20
9.365822846005727
 10
-27.16698111681547
 20
9.364709446005747
 10
-27.16150831681546
 20
9.363596846005719
 10
-27.15603511681548
 20
9.362485446005734
 10
-27.15056131681547
 20
9.361375846005728
 10
-27.14508711681549
 20
9.360267446005735
 10
-27.13961331681549
 20
9.359160846005721
 10
-27.13413911681551
 20
9.358055446005721
 10
-27.1286643168155
 20
9.35695084600573
 10
-27.12318911681547
 20
9.355847446005725
 10
-27.11771431681547
 20
9.354745846005727
 10
-27.11223911681543
 20
9.353645446005742
 10
-27.10676231681544
 20
9.35254584600571
 10
-27.10128511681546
 20
9.351447446005721
 10
-27.09580931681546
 20
9.350350846005738
 10
-27.09033311681549
 20
9.349255446005741
 10
-27.08485531681549
 20
9.348160846005725
 10
-27.07937711681552
 20
9.347067446005723
 10
-27.07389831681548
 20
9.345975846005728
 10
-27.06841911681545
 20
9.344885446005747
 10
-27.06294131681545
 20
9.343795846005747
 10
-27.05746311681548
 20
9.342707446005732
 10
-27.05198631681549
 20
9.341621846005722
 10
-27.04650911681552
 20
9.340537446005725
 10
-27.04102731681548
 20
9.339452846005741
 10
-27.03554511681546
 20
9.338369446005742
 10
-27.0300533168155
 20
9.337285846005727
 10
-27.02456111681545
 20
9.336203446005725
 10
-27.01909131681544
 20
9.335126846005721
 10
-27.01362111681544
 20
9.33405144600573
 10
-27.00818231681547
 20
9.332982846005762
 10
-27.00274311681551
 20
9.331915446005751
 10
-26.99721731681552
 20
9.330833846005731
 10
-26.99169111681545
 20
9.329753446005724
 10
-26.98603531681545
 20
9.328648646005746
 10
-26.98037911681547
 20
9.327545446005757
 10
-26.97506831681551
 20
9.326510046005722
 10
-26.96975711681546
 20
9.325475446005754
 10
-26.96015511681549
 20
9.323605446005728
 10
-26.95398731681553
 20
9.322410646005721
 10
-26.94781911681548
 20
9.321217446005732
 10
-26.93831751681546
 20
9.319383046005725
 10
-26.92881511681548
 20
9.317553446005746
 10
-26.91637051681551
 20
9.315157846005746
 10
-26.90392511681546
 20
9.312765446005727
  0
LWPOLYLINE
  5
79
330
2
100
AcDbEntity
  8
GAIKEI
  6
Continuous
 62
     1
100
AcDbPolyline
 90
      116
 70
     0
 43
0.0
 10
-26.90392511681546
 20
9.312765446005727
 10
-26.90239911681544
 20
9.312491446005736
 10
-26.90162391681548
 20
9.312369246005715
 10
-26.9008471168155
 20
9.31225744600573
 10
-26.90005971681546
 20
9.312154446005735
 10
-26.8992711168155
 20
9.312061446005742
 10
-26.89847271681549
 20
9.311978446005724
 10
-26.89767311681544
 20
9.311905446005738
 10
-26.89686451681547
 20
9.311843046005748
 10
-26.89605511681549
 20
9.311791446005742
 10
-26.8952353168155
 20
9.311750046005727
 10
-26.89441511681548
 20
9.311719446005724
 10
-26.89358611681547
 20
9.31170084600572
 10
-26.89275711681546
 20
9.311693446005733
 10
-26.89192011681553
 20
9.311697846005728
 10
-26.89108311681548
 20
9.311713446005711
 10
-26.89023791681552
 20
9.311741646005714
 10
-26.88939311681548
 20
9.311781446005738
 10
-26.88854171681544
 20
9.311832646005711
 10
-26.88769111681546
 20
9.311895446005735
 10
-26.8868335168155
 20
9.311973446005737
 10
-26.88597711681547
 20
9.312063446005737
 10
-26.88511531681547
 20
9.312166446005733
 10
-26.8842551168155
 20
9.312281446005755
 10
-26.88338811681547
 20
9.312410246005725
 10
-26.88252311681549
 20
9.312551446005755
 10
-26.88165491681548
 20
9.312706246005745
 10
-26.88078911681544
 20
9.312873446005738
 10
-26.8799187168155
 20
9.313056246005743
 10
-26.8790511168155
 20
9.313251446005722
 10
-26.87818051681552
 20
9.313460046005729
 10
-26.87731311681546
 20
9.313681446005745
 10
-26.87644331681543
 20
9.313918046005738
 10
-26.87557711681552
 20
9.31416744600574
 10
-26.87471011681544
 20
9.314432046005748
 10
-26.87384711681545
 20
9.314709446005764
 10
-26.87298291681543
 20
9.31500204600573
 10
-26.87212311681549
 20
9.315307446005732
 10
-26.87126471681552
 20
9.315627046005744
 10
-26.87041111681549
 20
9.315959446005734
 10
-26.86955851681546
 20
9.316307046005732
 10
-26.86871111681546
 20
9.316667446005709
 10
-26.8678651168155
 20
9.317043046005721
 10
-26.86702511681551
 20
9.317431446005713
 10
-26.86618791681548
 20
9.31783504600574
 10
-26.86535711681552
 20
9.318251446005717
 10
-26.86453071681547
 20
9.318681246005724
 10
-26.86371111681547
 20
9.319123446005733
 10
-26.86289551681546
 20
9.319580246005727
 10
-26.86208711681548
 20
9.320049446005725
 10
-26.8612843168155
 20
9.320533246005737
 10
-26.86048911681548
 20
9.321029446005724
 10
-26.85970111681547
 20
9.321538446005718
 10
-26.85892111681551
 20
9.322059446005738
 10
-26.85814691681549
 20
9.322593446005726
 10
-26.85738111681548
 20
9.32313944600574
 10
-26.85662471681548
 20
9.323698646005738
 10
-26.85587711681546
 20
9.324269446005729
 10
-26.85513651681549
 20
9.324851846005714
 10
-26.85440511681548
 20
9.325445446005716
 10
-26.85368431681548
 20
9.326051846005725
 10
-26.85297311681552
 20
9.326669446005752
 10
-26.85227211681547
 20
9.327296046005727
 10
-26.85158111681551
 20
9.327933446005715
 10
-26.85090091681548
 20
9.328583246005734
 10
-26.85023111681551
 20
9.329243446005733
 10
-26.84957191681548
 20
9.329911446005723
 10
-26.84892311681551
 20
9.330589446005745
 10
-26.84828671681549
 20
9.33127764600573
 10
-26.84766111681552
 20
9.331975446005742
 10
-26.84704751681545
 20
9.332680846005729
 10
-26.84644511681552
 20
9.333395446005738
 10
-26.8458565168155
 20
9.334117046005729
 10
-26.84527911681551
 20
9.334847446005738
 10
-26.8447143168155
 20
9.335585246005763
 10
-26.84416111681549
 20
9.336331446005743
 10
-26.84362131681548
 20
9.337083446005721
 10
-26.84309311681545
 20
9.337843446005734
 10
-26.84257931681543
 20
9.338607646005726
 10
-26.84207711681552
 20
9.33937944600575
 10
-26.8415891168155
 20
9.340155846005728
 10
-26.84111311681545
 20
9.340939446005734
 10
-26.84065211681548
 20
9.341726046005732
 10
-26.84020311681547
 20
9.342519446005752
 10
-26.83976811681544
 20
9.343315246005744
 10
-26.83934511681548
 20
9.344117446005725
 10
-26.83893711681549
 20
9.344920446005744
 10
-26.83854111681546
 20
9.345729446005748
 10
-26.83816011681552
 20
9.346539646005737
 10
-26.83779111681548
 20
9.347355446005735
 10
-26.83743611681553
 20
9.348170846005729
 10
-26.83709311681548
 20
9.348991446005726
 10
-26.83676611681551
 20
9.349810246005745
 10
-26.83645111681551
 20
9.35063344600573
 10
-26.83614911681548
 20
9.351456446005755
 10
-26.83585911681547
 20
9.352283446005714
 10
-26.83558491681549
 20
9.353108446005734
 10
-26.83532311681552
 20
9.353937446005744
 10
-26.83507311681547
 20
9.354760846005717
 10
-26.8348351168155
 20
9.355587446005728
 10
-26.83461271681551
 20
9.356405046005733
 10
-26.83440111681546
 20
9.357225446005742
 10
-26.8342031168155
 20
9.358053046005721
 10
-26.83401711681552
 20
9.358883446005734
 10
-26.83384211681551
 20
9.35972704600573
 10
-26.83368111681545
 20
9.36057344600573
 10
-26.83353391681544
 20
9.361364646005739
 10
-26.83339711681549
 20
9.362157446005738
 10
-26.8332783168155
 20
9.362872246005736
 10
-26.83316311681551
 20
9.363587446005709
 10
-26.83305631681549
 20
9.36448964600575
 10
-26.83296511681545
 20
9.365393446005725
 10
-26.83285711681549
 20
9.36676224600572
 10
-26.83278911681544
 20
9.368133446005714
 10
-26.8326989168155
 20
9.369914046005732
 10
-26.83263511681548
 20
9.37169544600573
  0
LWPOLYLINE
  5
7A
330
2
100
AcDbEntity
  8
GAIKEI
  6
Continuous
 62
     1
100
AcDbPolyline
 90
       56
 70
     0
 43
0.0
 10
-26.63263311681544
 20
8.866733446005724
 10
-26.36117111681552
 20
8.796651446005739
 10
-26.22477191681549
 20
8.763275646005723
 10
-26.08808911681547
 20
8.731081446005731
 10
-25.9508291168155
 20
8.700051246005756
 10
-25.81330711681551
 20
8.670203446005729
 10
-25.67528011681549
 20
8.641452246005741
 10
-25.53701111681551
 20
8.613887446005747
 10
-25.39826511681548
 20
8.587541246005741
 10
-25.25929711681545
 20
8.562393446005728
 10
-25.11991731681547
 20
8.538379246005717
 10
-24.98033511681547
 20
8.515571446005736
 10
-24.8403529168155
 20
8.49400604600575
 10
-24.70018911681547
 20
8.473653446005727
 10
-24.55969071681546
 20
8.45445924600574
 10
-24.41903111681546
 20
8.436483446005723
 10
-24.27805891681544
 20
8.419776246005739
 10
-24.13694711681547
 20
8.404293446005709
 10
-23.99558251681549
 20
8.389989046005723
 10
-23.85409911681546
 20
8.376913446005715
 10
-23.71238971681544
 20
8.365124846005727
 10
-23.57058311681544
 20
8.35456944600574
 10
-23.42860911681544
 20
8.345205446005735
 10
-23.28655911681551
 20
8.337077446005736
 10
-23.14437711681546
 20
8.330248446005725
 10
-23.00214111681544
 20
8.324657446005744
 10
-22.85981151681551
 20
8.320270246005748
 10
-22.71744911681549
 20
8.317123446005723
 10
-22.57502851681545
 20
8.315283646005724
 10
-22.43259711681549
 20
8.314687446005734
 10
-22.29020071681549
 20
8.315285246005743
 10
-22.14781511681548
 20
8.317123446005723
 10
-22.00552691681548
 20
8.320258446005738
 10
-21.86327111681544
 20
8.32462544600574
 10
-21.72096091681544
 20
8.330230246005754
 10
-21.57870511681551
 20
8.337077446005736
 10
-21.43637691681545
 20
8.345258246005727
 10
-21.2941271168155
 20
8.354705446005738
 10
-21.15259811681551
 20
8.365197446005737
 10
-21.01116511681551
 20
8.376913446005715
 10
-20.87077491681549
 20
8.38976504600572
 10
-20.73049311681552
 20
8.403751446005713
 10
-20.58829031681546
 20
8.419485246005734
 10
-20.44623311681551
 20
8.436483446005723
 10
-20.30125831681551
 20
8.455372446005725
 10
-20.15649111681546
 20
8.475791446005729
 10
-20.02063011681548
 20
8.495134846005754
 10
-19.88492911681544
 20
8.515571446005736
 10
-19.76235571681548
 20
8.534590446005751
 10
-19.63983711681544
 20
8.553959446005734
 10
-19.4838763168155
 20
8.583046446005738
 10
-19.32825311681552
 20
8.613887446005747
 10
-19.08998451681543
 20
8.664556646005735
 10
-18.85273911681548
 20
8.719819446005743
 10
-18.54233631681546
 20
8.79180424600571
 10
-18.23263111681547
 20
8.866733446005724
  0
LINE
  5
7B
330
2
100
AcDbEntity
  8
GAIKEI
  6
Continuous
100
AcDbLine
 10
-8.519264516815496
 20
32.38129364600573
 30
0.0
 11
-5.922126316815479
 21
35.61395544600572
 31
0.0
  0
ARC
  5
7C
330
2
100
AcDbEntity
  8
GAIKEI
  6
Continuous
 62
     1
100
AcDbCircle
 10
-20.81232811681553
 20
22.36036844600571
 30
0.0
 40
8.0713488
100
AcDbArc
 50
332.8152739999954
 51
343.544253000001
  0
ARC
  5
7D
330
2
100
AcDbEntity
  8
GAIKEI
  6
Continuous
 62
     1
100
AcDbCircle
 10
-4.786266116815511
 20
22.35576344600571
 30
0.0
 40
9.658377000000001
100
AcDbArc
 50
193.6653919999996
 51
202.8580240000021
  0
ARC
  5
7E
330
2
100
AcDbEntity
  8
GAIKEI
  6
Continuous
 62
     1
100
AcDbCircle
 10
-5.354466916815511
 20
22.25389224600573
 30
0.0
 40
9.319923399999998
100
AcDbArc
 50
193.4968740000033
 51
204.4268959999987
  0
LINE
  5
7F
330
2
100
AcDbEntity
  8
GAIKEI
  6
Continuous
 62
     1
100
AcDbLine
 10
-13.8401605168155
 20
18.3998068460057
 30
0.0
 11
-13.83263311681548
 21
18.37626744600573
 31
0.0
  0
ARC
  5
80
330
2
100
AcDbEntity
  8
GAIKEI
  6
Continuous
 62
     1
100
AcDbCircle
 10
-24.05293791681549
 20
22.36036844600571
 30
0.0
 40
8.0713488
100
AcDbArc
 50
196.4557469999989
 51
207.1847260000046
  0
ARC
  5
81
330
2
100
AcDbEntity
  8
GAIKEI
  6
Continuous
 62
     1
100
AcDbCircle
 10
-40.07899991681552
 20
22.35576344600571
 30
0.0
 40
9.658377000000001
100
AcDbArc
 50
337.1419759999978
 51
346.3346080000003
  0
ARC
  5
82
330
2
100
AcDbEntity
  8
GAIKEI
  6
Continuous
 62
     1
100
AcDbCircle
 10
-39.51079911681552
 20
22.25389224600573
 30
0.0
 40
9.319923399999998
100
AcDbArc
 50
335.5731040000013
 51
346.5031259999967
  0
LINE
  5
83
330
2
100
AcDbEntity
  8
GAIKEI
  6
Continuous
 62
     1
100
AcDbLine
 10
-31.02510551681553
 20
18.3998068460057
 30
0.0
 11
-31.03263291681549
 21
18.37626744600573
 31
0.0
  0
LWPOLYLINE
  5
84
330
2
100
AcDbEntity
  8
GAIKEI
  6
Continuous
 62
     1
100
AcDbPolyline
 90
       56
 70
     0
 43
0.0
 10
-31.23271091681545
 20
18.67288544600572
 10
-31.23135491681547
 20
18.67030944600574
 10
-31.23066471681545
 20
18.66902644600574
 10
-31.22996691681545
 20
18.66774744600573
 10
-31.22926071681547
 20
18.66647144600574
 10
-31.2285469168155
 20
18.66519944600574
 10
-31.22782371681547
 20
18.66393124600574
 10
-31.22709291681542
 20
18.66266744600574
 10
-31.22635471681548
 20
18.66140624600572
 10
-31.22560891681548
 20
18.66014944600573
 10
-31.22485471681546
 20
18.65889724600575
 10
-31.22409291681549
 20
18.65764944600573
 10
-31.22332271681546
 20
18.65640524600573
 10
-31.22254491681548
 20
18.65516544600572
 10
-31.22175871681549
 20
18.65393004600574
 10
-31.22096491681543
 20
18.65269944600575
 10
-31.22016371681548
 20
18.65147404600574
 10
-31.21935491681552
 20
18.65025344600573
 10
-31.21853871681549
 20
18.64903604600573
 10
-31.21771491681545
 20
18.64782344600573
 10
-31.21688351681547
 20
18.64661604600573
 10
-31.21604491681547
 20
18.64541344600573
 10
-31.21519851681546
 20
18.64421584600572
 10
-31.21434491681549
 20
18.64302344600574
 10
-31.21348351681547
 20
18.64183684600573
 10
-31.21261491681548
 20
18.64065544600575
 10
-31.21173851681545
 20
18.63947784600575
 10
-31.2108549168155
 20
18.63830544600574
 10
-31.20996451681549
 20
18.63713984600574
 10
-31.20906691681546
 20
18.63597944600573
 10
-31.20816351681549
 20
18.63482484600573
 10
-31.20725291681549
 20
18.63367544600575
 10
-31.20633431681552
 20
18.63253164600573
 10
-31.20540891681549
 20
18.63139344600572
 10
-31.20447631681543
 20
18.63026064600572
 10
-31.20353691681544
 20
18.62913344600574
 10
-31.20258831681548
 20
18.62801064600572
 10
-31.20163291681547
 20
18.62689344600574
 10
-31.20067631681548
 20
18.62578664600573
 10
-31.19971291681543
 20
18.62468544600574
 10
-31.19874891681547
 20
18.62359684600571
 10
-31.19777891681548
 20
18.62251344600574
 10
-31.19678531681552
 20
18.62142144600574
 10
-31.19578491681546
 20
18.62033544600572
 10
-31.19475391681544
 20
18.61923264600571
 10
-31.19371491681545
 20
18.61813744600573
 10
-31.19273871681548
 20
18.61710984600572
 10
-31.19175691681551
 20
18.61608744600573
 10
-31.19086591681548
 20
18.61516664600575
 10
-31.18997291681547
 20
18.61424744600572
 10
-31.18880651681548
 20
18.61309184600571
 10
-31.18763091681547
 20
18.61194544600573
 10
-31.18580571681548
 20
18.61020004600573
 10
-31.18395691681548
 20
18.60847944600573
 10
-31.18153831681548
 20
18.60622544600573
 10
-31.17910491681551
 20
18.60398744600573
  0
LINE
  5
85
330
2
100
AcDbEntity
  8
GAIKEI
  6
Continuous
 62
     1
100
AcDbLine
 10
-31.17910491681551
 20
18.60398744600573
 30
0.0
 11
-31.0318869168155
 21
18.47310944600573
 31
0.0
  0
LINE
  5
86
330
2
100
AcDbEntity
  8
GAIKEI
  6
Continuous
 62
     1
100
AcDbLine
 10
-31.0310069168155
 20
18.47310944600573
 30
0.0
 11
-30.99213891681552
 21
18.47310944600573
 31
0.0
  0
LINE
  5
87
330
2
100
AcDbEntity
  8
GAIKEI
  6
Continuous
100
AcDbLine
 10
46.3384938606174
 20
32.38129364600573
 30
0.0
 11
48.93563206061742
 21
35.61395544600572
 31
0.0
  0
LWPOLYLINE
  5
88
330
2
100
AcDbEntity
  8
GAIKEI
  6
Continuous
 62
     1
100
AcDbPolyline
 90
       96
 70
     0
 43
0.0
 10
48.16810326061738
 20
35.55395944600574
 10
48.16942926061745
 20
35.55567744600572
 10
48.17009246061741
 20
35.55653404600574
 10
48.17075726061739
 20
35.55738944600574
 10
48.1714234606174
 20
35.55824204600575
 10
48.17209126061744
 20
35.55909344600574
 10
48.17275946061744
 20
35.55994204600575
 10
48.17342926061741
 20
35.56078944600574
 10
48.17409846061742
 20
35.56163324600573
 10
48.17476926061738
 20
35.56247544600575
 10
48.17544146061743
 20
35.56331524600575
 10
48.17611526061739
 20
35.56415344600572
 10
48.17678846061745
 20
35.56498724600573
 10
48.1774632606174
 20
35.56581944600575
 10
48.1781382606174
 20
35.56664824600574
 10
48.17881526061739
 20
35.56747544600574
 10
48.17949226061739
 20
35.56829824600573
 10
48.18017126061744
 20
35.56911944600575
 10
48.18084926061738
 20
35.56993724600574
 10
48.18152926061742
 20
35.57075344600574
 10
48.18221026061746
 20
35.57156444600574
 10
48.18289326061744
 20
35.57237344600574
 10
48.18357526061743
 20
35.57317744600573
 10
48.18425926061741
 20
35.57397944600575
 10
48.18494326061738
 20
35.57477744600573
 10
48.18562926061741
 20
35.57557344600573
 10
48.1863150606174
 20
35.57636344600573
 10
48.18700326061741
 20
35.57715144600573
 10
48.18769006061746
 20
35.57793444600574
 10
48.18837926061741
 20
35.57871544600573
 10
48.18906806061739
 20
35.57949064600573
 10
48.18975926061739
 20
35.58026344600572
 10
48.19045006061742
 20
35.58102964600573
 10
48.19114326061742
 20
35.58179344600572
 10
48.19183506061745
 20
35.58255264600572
 10
48.19252926061745
 20
35.58330944600576
 10
48.19322406061741
 20
35.58405964600573
 10
48.19392126061746
 20
35.58480744600573
 10
48.19461606061736
 20
35.58554784600574
 10
48.19531326061741
 20
35.58628544600575
 10
48.19601086061743
 20
35.58701784600575
 10
48.19671126061746
 20
35.58774744600572
 10
48.19740986061742
 20
35.58846984600573
 10
48.19811126061745
 20
35.58918944600575
 10
48.19881186061741
 20
35.58990184600572
 10
48.19951526061743
 20
35.59061144600574
 10
48.20021686061739
 20
35.59131304600575
 10
48.20092126061741
 20
35.59201144600573
 10
48.20162486061747
 20
35.59270404600574
 10
48.20233126061743
 20
35.59339344600573
 10
48.20303586061744
 20
35.59407404600572
 10
48.20374326061744
 20
35.59475144600575
 10
48.20444786061739
 20
35.59542004600573
 10
48.2051552606174
 20
35.59608544600573
 10
48.20585866061742
 20
35.59674024600574
 10
48.20656526061743
 20
35.59739144600573
 10
48.20726666061739
 20
35.59803224600575
 10
48.20797126061745
 20
35.59866944600575
 10
48.20866866061743
 20
35.59929424600571
 10
48.20936926061745
 20
35.59991544600573
 10
48.21006066061738
 20
35.60052124600574
 10
48.21075526061747
 20
35.60112344600574
 10
48.21144066061743
 20
35.60171244600573
 10
48.21212926061742
 20
35.60229744600574
 10
48.21280666061738
 20
35.60286544600572
 10
48.2134872606174
 20
35.60342944600575
 10
48.21415666061739
 20
35.60397544600574
 10
48.21482926061742
 20
35.60451744600573
 10
48.21548766061744
 20
35.60504164600573
 10
48.21614926061738
 20
35.60556144600574
 10
48.21679566061743
 20
35.60606164600571
 10
48.21744526061741
 20
35.60655744600572
 10
48.21807746061745
 20
35.60703184600573
 10
48.21871326061739
 20
35.60750144600573
 10
48.21933246061746
 20
35.60795004600573
 10
48.21995526061744
 20
35.60839344600572
 10
48.22055846061743
 20
35.60881324600572
 10
48.22116526061745
 20
35.60922744600575
 10
48.22175146061744
 20
35.60961944600575
 10
48.22234126061744
 20
35.61000544600574
 10
48.22290546061743
 20
35.61036524600573
 10
48.22347326061742
 20
35.61071944600573
 10
48.22402426061739
 20
35.61104884600573
 10
48.22457926061741
 20
35.61137144600574
 10
48.22511666061746
 20
35.61166924600573
 10
48.22565926061741
 20
35.61195744600573
 10
48.22615226061742
 20
35.61221824600574
 10
48.22664926061742
 20
35.61247144600574
 10
48.22708666061743
 20
35.61268864600575
 10
48.22752526061742
 20
35.61290344600573
 10
48.22802486061743
 20
35.61310004600571
 10
48.22852926061739
 20
35.61328344600574
 10
48.22921766061745
 20
35.61348164600574
 10
48.22991726061741
 20
35.61363544600573
 10
48.23077486061743
 20
35.61381564600575
 10
48.23163926061738
 20
35.61395944600574
  0
LINE
  5
89
330
2
100
AcDbEntity
  8
GAIKEI
  6
Continuous
 62
     1
100
AcDbLine
 10
48.23164126061738
 20
35.61395544600572
 30
0.0
 11
48.93563326061741
 21
35.61395544600572
 31
0.0
  0
LWPOLYLINE
  5
8A
330
2
100
AcDbEntity
  8
GAIKEI
  6
Continuous
 62
     1
100
AcDbPolyline
 90
      176
 70
     0
 43
0.0
 10
45.79991926061739
 20
32.44901144600573
 10
45.79952726061742
 20
32.44904944600575
 10
45.79935206061742
 20
32.44909204600574
 10
45.79918126061738
 20
32.44914944600575
 10
45.79902786061739
 20
32.44922564600575
 10
45.7988832606174
 20
32.44931744600572
 10
45.79874966061743
 20
32.44942424600572
 10
45.79862926061742
 20
32.44954544600574
 10
45.79851766061739
 20
32.44968284600574
 10
45.79842126061743
 20
32.44983144600573
 10
45.79832926061738
 20
32.44999764600573
 10
45.79825326061739
 20
32.45017144600573
 10
45.79818166061738
 20
32.45036504600572
 10
45.79812526061743
 20
32.45056344600573
 10
45.7980732606174
 20
32.45078004600572
 10
45.79803526061744
 20
32.45099944600574
 10
45.79800306061741
 20
32.45123984600573
 10
45.7979832606174
 20
32.45148144600574
 10
45.79796786061741
 20
32.45174224600575
 10
45.79796326061739
 20
32.45200344600573
 10
45.79796666061741
 20
32.45228364600573
 10
45.79797926061741
 20
32.45256344600571
 10
45.79799826061742
 20
32.45285984600574
 10
45.7980252606174
 20
32.45315544600575
 10
45.79805866061741
 20
32.45346704600573
 10
45.79809926061739
 20
32.45377744600572
 10
45.79814806061745
 20
32.45410204600574
 10
45.79820326061741
 20
32.45442544600573
 10
45.79826446061741
 20
32.45476204600576
 10
45.79833126061743
 20
32.45509744600574
 10
45.79840466061739
 20
32.45544404600574
 10
45.79848326061738
 20
32.45578944600576
 10
45.79856886061742
 20
32.45614404600573
 10
45.7986592606174
 20
32.45649744600573
 10
45.79875506061739
 20
32.45685804600575
 10
45.79885526061741
 20
32.45721744600573
 10
45.79896026061743
 20
32.45758304600574
 10
45.79906926061744
 20
32.45794744600573
 10
45.79918346061742
 20
32.45831704600573
 10
45.79930126061742
 20
32.45868544600575
 10
45.79942346061739
 20
32.45905804600574
 10
45.79954926061737
 20
32.45942944600574
 10
45.79968066061741
 20
32.45980504600573
 10
45.79981526061743
 20
32.46017944600576
 10
45.79995566061739
 20
32.46056004600573
 10
45.8000992606174
 20
32.46093944600574
 10
45.8002466606174
 20
32.46132404600573
 10
45.80039726061738
 20
32.46170744600573
 10
45.80055386061741
 20
32.46209604600574
 10
45.80071326061738
 20
32.46248344600573
 10
45.80087886061739
 20
32.46287604600573
 10
45.80104726061745
 20
32.46326744600575
 10
45.80121986061743
 20
32.46366604600573
 10
45.80139526061742
 20
32.46406344600572
 10
45.80157706061743
 20
32.46446704600575
 10
45.80176126061741
 20
32.46486944600574
 10
45.80195106061739
 20
32.46527804600575
 10
45.80214326061741
 20
32.46568544600572
 10
45.80234006061738
 20
32.46610004600572
 10
45.80253926061738
 20
32.46651344600574
 10
45.80274526061742
 20
32.46693404600572
 10
45.80295326061741
 20
32.46735344600572
 10
45.80316626061744
 20
32.46778004600574
 10
45.80338126061741
 20
32.46820544600573
 10
45.80360226061742
 20
32.46863804600574
 10
45.80382526061742
 20
32.46906944600573
 10
45.80405446061741
 20
32.46950904600573
 10
45.8042852606174
 20
32.46994744600574
 10
45.80452246061741
 20
32.47039404600574
 10
45.80476126061739
 20
32.47083944600573
 10
45.80500546061739
 20
32.47129184600573
 10
45.80525126061741
 20
32.47174344600572
 10
45.80550346061738
 20
32.47220484600572
 10
45.80575726061738
 20
32.47266544600575
 10
45.80601666061738
 20
32.47313284600574
 10
45.80627726061743
 20
32.47359944600575
 10
45.80654466061742
 20
32.47407584600572
 10
45.80681326061744
 20
32.47455144600574
 10
45.80708766061741
 20
32.47503484600574
 10
45.80736326061741
 20
32.47551744600574
 10
45.80764466061743
 20
32.47600884600573
 10
45.80792726061742
 20
32.47649944600573
 10
45.80821466061741
 20
32.47699684600573
 10
45.80850326061738
 20
32.47749344600573
 10
45.80879666061742
 20
32.47799684600571
 10
45.80909126061738
 20
32.47849944600574
 10
45.80939066061739
 20
32.47900684600572
 10
45.80969126061745
 20
32.47951344600571
 10
45.8099956606174
 20
32.48002584600573
 10
45.81030126061739
 20
32.48053744600574
 10
45.81061066061738
 20
32.48105284600573
 10
45.81092126061742
 20
32.48156744600573
 10
45.8112356606174
 20
32.48208484600573
 10
45.81155126061742
 20
32.48260144600573
 10
45.81186866061739
 20
32.48312084600573
 10
45.81218726061741
 20
32.48363944600575
 10
45.81250766061742
 20
32.48415884600573
 10
45.81282926061743
 20
32.48467744600575
 10
45.81315366061744
 20
32.48519784600575
 10
45.81347926061744
 20
32.48571744600574
 10
45.81380666061739
 20
32.48623684600571
 10
45.81413526061743
 20
32.48675544600573
 10
45.81446466061743
 20
32.48727484600574
 10
45.81479526061741
 20
32.48779344600573
 10
45.81512766061741
 20
32.48831284600576
 10
45.81546126061744
 20
32.48883144600572
 10
45.81579586061741
 20
32.48935084600572
 10
45.81613126061739
 20
32.48986944600574
 10
45.81646986061741
 20
32.49038884600575
 10
45.81680926061738
 20
32.49090744600574
 10
45.8171508606174
 20
32.49142684600574
 10
45.81749326061742
 20
32.49194544600573
 10
45.81783686061737
 20
32.49246684600573
 10
45.81818126061739
 20
32.49298744600574
 10
45.81852886061739
 20
32.49350984600574
 10
45.81887726061739
 20
32.49403144600572
 10
45.81922886061739
 20
32.49455584600574
 10
45.81958126061744
 20
32.49507944600575
 10
45.81993486061742
 20
32.49560484600574
 10
45.82028926061741
 20
32.49612944600574
 10
45.82064686061738
 20
32.49665784600575
 10
45.82100526061743
 20
32.49718544600574
 10
45.82136586061738
 20
32.49771584600572
 10
45.82172726061742
 20
32.49824544600574
 10
45.82209206061742
 20
32.49877764600572
 10
45.82245726061739
 20
32.49930944600575
 10
45.82282506061739
 20
32.49984464600573
 10
45.82319326061742
 20
32.50037944600575
 10
45.82356506061739
 20
32.50091664600572
 10
45.82393726061741
 20
32.50145344600574
 10
45.82431106061739
 20
32.50199364600573
 10
45.8246852606174
 20
32.50253344600575
 10
45.82506306061742
 20
32.50307464600573
 10
45.82544126061742
 20
32.50361544600574
 10
45.82582106061738
 20
32.50415764600572
 10
45.82620126061738
 20
32.50469944600573
 10
45.82658306061739
 20
32.50524464600573
 10
45.82696526061744
 20
32.50578944600574
 10
45.82735006061739
 20
32.50633464600574
 10
45.82773526061743
 20
32.50687944600574
 10
45.82812306061742
 20
32.50742564600574
 10
45.8285112606174
 20
32.50797144600574
 10
45.8289000606174
 20
32.50851864600574
 10
45.82928926061742
 20
32.50906544600574
 10
45.82968106061741
 20
32.50961364600573
 10
45.83007326061738
 20
32.51016144600573
 10
45.83046606061742
 20
32.51070964600572
 10
45.83085926061744
 20
32.51125744600571
 10
45.83125406061742
 20
32.51180664600574
 10
45.83164926061738
 20
32.51235544600573
 10
45.83204506061742
 20
32.51290364600575
 10
45.83244126061742
 20
32.51345144600575
 10
45.8328380606174
 20
32.51399964600575
 10
45.83323526061741
 20
32.51454744600574
 10
45.83363506061738
 20
32.51509664600573
 10
45.83403526061738
 20
32.51564544600575
 10
45.83443606061741
 20
32.51619464600575
 10
45.8348372606174
 20
32.51674344600573
 10
45.83523906061742
 20
32.51729064600573
 10
45.83564126061742
 20
32.51783744600573
 10
45.83604206061744
 20
32.51838264600574
 10
45.83644326061744
 20
32.51892744600573
 10
45.83685206061744
 20
32.51948064600575
 10
45.83726126061742
 20
32.52003344600573
 10
45.83768186061741
 20
32.52059984600573
 10
45.83810326061739
 20
32.52116544600574
 10
45.83850006061743
 20
32.52169764600572
 10
45.83889726061738
 20
32.52222944600575
 10
45.83925626061739
 20
32.52271064600572
 10
45.83961526061739
 20
32.52319144600574
 10
45.84008186061737
 20
32.52381184600571
 10
45.84054926061742
 20
32.52443144600574
 10
45.84127406061742
 20
32.52538744600574
 10
45.84200126061739
 20
32.52634144600575
 10
45.84295446061742
 20
32.52759404600573
 10
45.84390926061741
 20
32.52884544600573
  0
LWPOLYLINE
  5
8B
330
2
100
AcDbEntity
  8
GAIKEI
  6
Continuous
 62
     1
100
AcDbPolyline
 90
       39
 70
     0
 43
0.0
 10
45.79991926061739
 20
32.44901144600573
 10
45.79993526061741
 20
32.44933944600575
 10
45.79995326061743
 20
32.44966944600574
 10
45.79996926061745
 20
32.44999744600574
 10
45.7999852606174
 20
32.45032544600574
 10
45.80000126061742
 20
32.45065344600573
 10
45.80001926061743
 20
32.45098344600573
 10
45.80003526061744
 20
32.45131144600575
 10
45.80005126061741
 20
32.45163944600574
 10
45.80006726061742
 20
32.45196944600574
 10
45.80008526061743
 20
32.45229744600573
 10
45.80010126061739
 20
32.45262544600573
 10
45.80011726061741
 20
32.45295344600573
 10
45.80013326061743
 20
32.45328344600571
 10
45.80014926061744
 20
32.45361144600574
 10
45.8001672606174
 20
32.45393944600574
 10
45.80018326061741
 20
32.45426944600573
 10
45.80019926061743
 20
32.45459744600572
 10
45.80021526061744
 20
32.45492544600575
 10
45.8002332606174
 20
32.45525344600574
 10
45.80024926061741
 20
32.45558344600573
 10
45.80026526061743
 20
32.45591144600573
 10
45.8002812606174
 20
32.45623944600576
 10
45.8002992606174
 20
32.45656744600572
 10
45.80031526061742
 20
32.45689744600574
 10
45.80033126061744
 20
32.45722544600574
 10
45.8003472606174
 20
32.45755344600573
 10
45.80036326061741
 20
32.45788144600573
 10
45.80038126061743
 20
32.45821144600572
 10
45.80039726061738
 20
32.45853944600574
 10
45.8004132606174
 20
32.45886744600574
 10
45.80042926061742
 20
32.45919344600574
 10
45.80044726061737
 20
32.45952544600573
 10
45.80046326061739
 20
32.45986344600573
 10
45.8004792606174
 20
32.46018144600575
 10
45.80049326061742
 20
32.46046944600573
 10
45.80051326061743
 20
32.46083944600574
 10
45.80054126061742
 20
32.46140744600572
 10
45.80057926061738
 20
32.46215344600571
  0
LINE
  5
8C
330
2
100
AcDbEntity
  8
GAIKEI
  6
Continuous
 62
     1
100
AcDbLine
 10
46.39289926061735
 20
32.44901144600573
 30
0.0
 11
45.79991926061739
 21
32.44901144600573
 31
0.0
  0
LINE
  5
8D
330
2
100
AcDbEntity
  8
GAIKEI
  6
Continuous
 62
     1
100
AcDbLine
 10
45.84390926061735
 20
32.52884544600573
 30
0.0
 11
48.16810526061738
 21
35.55395544600572
 31
0.0
  0
ARC
  5
8E
330
2
100
AcDbEntity
  8
GAIKEI
  6
Continuous
100
AcDbCircle
 10
32.4251252606174
 20
20.27395964600572
 30
0.0
 40
13.7
100
AcDbArc
 50
180.8364599999986
 51
270.0
  0
ARC
  5
8F
330
2
100
AcDbEntity
  8
GAIKEI
  6
Continuous
100
AcDbCircle
 10
32.4251252606174
 20
20.27395964600572
 30
0.0
 40
13.7
100
AcDbArc
 50
270.0
 51
359.1635400000014
  0
LINE
  5
90
330
2
100
AcDbEntity
  8
GAIKEI
  6
Continuous
100
AcDbLine
 10
18.72658526061741
 20
20.07395964600573
 30
0.0
 11
46.12366526061737
 21
20.07395964600573
 31
0.0
  0
LINE
  5
91
330
2
100
AcDbEntity
  8
GAIKEI
  6
Continuous
100
AcDbLine
 10
18.45284126061739
 20
32.53506564600574
 30
0.0
 11
18.45735126061737
 21
32.44901564600573
 31
0.0
  0
LINE
  5
92
330
2
100
AcDbEntity
  8
GAIKEI
  6
Continuous
100
AcDbLine
 10
18.72553726061738
 20
20.1339616460057
 30
0.0
 11
18.51175926061739
 21
32.38129364600573
 31
0.0
  0
LINE
  5
93
330
2
100
AcDbEntity
  8
GAIKEI
  6
Continuous
100
AcDbLine
 10
46.1247112606174
 20
20.1339616460057
 30
0.0
 11
46.33848926061739
 21
32.38129364600573
 31
0.0
  0
LINE
  5
94
330
2
100
AcDbEntity
  8
GAIKEI
  6
Continuous
100
AcDbLine
 10
46.06512526061737
 20
20.07395964600573
 30
0.0
 11
46.06512526061737
 21
20.13395964600574
 31
0.0
  0
LINE
  5
95
330
2
100
AcDbEntity
  8
GAIKEI
  6
Continuous
100
AcDbLine
 10
18.7851252606174
 20
20.13395964600574
 30
0.0
 11
18.7851252606174
 21
20.07395964600573
 31
0.0
  0
LINE
  5
96
330
2
100
AcDbEntity
  8
GAIKEI
  6
Continuous
 62
     1
100
AcDbLine
 10
49.1303612606174
 20
37.01395964600573
 30
0.0
 11
49.12512526061743
 21
37.31395964600571
 31
0.0
  0
LINE
  5
97
330
2
100
AcDbEntity
  8
GAIKEI
  6
Continuous
100
AcDbLine
 10
15.7251252606174
 20
37.31395964600571
 30
0.0
 11
15.71988726061738
 21
37.01395964600573
 31
0.0
  0
LINE
  5
98
330
2
100
AcDbEntity
  8
GAIKEI
  6
Continuous
100
AcDbLine
 10
18.51628926061738
 20
32.44901564600573
 30
0.0
 11
18.45735126061737
 21
32.44901564600573
 31
0.0
  0
LINE
  5
99
330
2
100
AcDbEntity
  8
GAIKEI
  6
Continuous
100
AcDbLine
 10
18.51175926061739
 20
32.38129364600573
 30
0.0
 11
18.45734926061737
 21
32.44901764600573
 31
0.0
  0
LINE
  5
9A
330
2
100
AcDbEntity
  8
GAIKEI
  6
Continuous
 62
     1
100
AcDbLine
 10
18.51175926061739
 20
32.38129364600573
 30
0.0
 11
46.33848926061739
 21
32.38129364600573
 31
0.0
  0
LINE
  5
9B
330
2
100
AcDbEntity
  8
GAIKEI
  6
Continuous
100
AcDbLine
 10
46.33848926061739
 20
32.38129364600573
 30
0.0
 11
46.39289926061735
 21
32.44901764600573
 31
0.0
  0
LINE
  5
9C
330
2
100
AcDbEntity
  8
GAIKEI
  6
Continuous
100
AcDbLine
 10
48.93563326061741
 20
35.61396164600572
 30
0.0
 11
49.1768266606174
 21
35.91417324600573
 31
0.0
  0
LINE
  5
9D
330
2
100
AcDbEntity
  8
GAIKEI
  6
Continuous
100
AcDbLine
 10
15.91461526061738
 20
35.61396164600572
 30
0.0
 11
15.67412226061742
 21
35.91330144600573
 31
0.0
  0
LINE
  5
9E
330
2
100
AcDbEntity
  8
GAIKEI
  6
Continuous
100
AcDbLine
 10
15.91461726061737
 20
35.61395964600573
 30
0.0
 11
15.98498526061741
 21
35.61395964600573
 31
0.0
  0
LINE
  5
9F
330
2
100
AcDbEntity
  8
GAIKEI
  6
Continuous
100
AcDbLine
 10
16.03861126061741
 20
35.55395964600573
 30
0.0
 11
18.4578132606174
 21
32.52884964600574
 31
0.0
  0
LWPOLYLINE
  5
A0
330
2
100
AcDbEntity
  8
GAIKEI
  6
Continuous
100
AcDbPolyline
 90
      132
 70
     0
 43
0.0
 10
18.4578112606174
 20
32.52884764600572
 10
18.45890726061742
 20
32.52747764600574
 10
18.45945446061739
 20
32.52679264600573
 10
18.46000126061744
 20
32.52610764600573
 10
18.46054646061742
 20
32.52542264600573
 10
18.46109126061742
 20
32.52473764600572
 10
18.4616364606174
 20
32.52405364600574
 10
18.4621812606174
 20
32.52336964600573
 10
18.46272446061744
 20
32.52268564600573
 10
18.46326726061738
 20
32.52200164600572
 10
18.46380946061742
 20
32.52131864600574
 10
18.46435126061743
 20
32.52063564600573
 10
18.46489246061742
 20
32.51995264600572
 10
18.46543326061743
 20
32.51926964600574
 10
18.46597246061742
 20
32.51858764600573
 10
18.46651126061743
 20
32.51790564600574
 10
18.46704946061743
 20
32.51722464600573
 10
18.46758726061739
 20
32.51654364600574
 10
18.46812446061744
 20
32.51586364600573
 10
18.46866126061741
 20
32.51518364600574
 10
18.46919646061741
 20
32.51450364600575
 10
18.46973126061743
 20
32.51382364600573
 10
18.47026446061738
 20
32.51314464600574
 10
18.47079726061742
 20
32.51246564600573
 10
18.47132946061742
 20
32.51178764600573
 10
18.4718612606174
 20
32.51110964600574
 10
18.47239146061741
 20
32.51043164600574
 10
18.4729212606174
 20
32.50975364600575
 10
18.47345046061741
 20
32.50907764600572
 10
18.4739792606174
 20
32.50840164600572
 10
18.47450646061742
 20
32.50772564600572
 10
18.47503326061741
 20
32.50704964600576
 10
18.47555946061743
 20
32.50637464600576
 10
18.47608526061742
 20
32.50569964600575
 10
18.4766084606174
 20
32.50502564600575
 10
18.4771312606174
 20
32.50435164600574
 10
18.47765346061737
 20
32.50367964600574
 10
18.47817526061743
 20
32.50300764600573
 10
18.47869546061741
 20
32.50233564600572
 10
18.47921526061742
 20
32.50166364600574
 10
18.47973446061741
 20
32.50099264600573
 10
18.48025326061742
 20
32.50032164600574
 10
18.48076946061741
 20
32.49965264600573
 10
18.48128526061742
 20
32.49898364600574
 10
18.48179946061742
 20
32.49831564600575
 10
18.48231326061739
 20
32.49764764600573
 10
18.48282546061739
 20
32.49698164600574
 10
18.48333726061742
 20
32.49631564600574
 10
18.48384646061743
 20
32.49565264600574
 10
18.4843552606174
 20
32.49498964600574
 10
18.48486146061742
 20
32.49432864600576
 10
18.48536726061741
 20
32.49366764600572
 10
18.48587146061743
 20
32.49301064600573
 10
18.48637526061742
 20
32.49235364600574
 10
18.48687546061739
 20
32.49169964600574
 10
18.48737526061745
 20
32.49104564600575
 10
18.48787246061738
 20
32.49039564600574
 10
18.48836926061739
 20
32.48974564600573
 10
18.48886246061738
 20
32.48909864600574
 10
18.4893552606174
 20
32.48845164600573
 10
18.4898444606174
 20
32.48781064600573
 10
18.49033326061737
 20
32.48716964600575
 10
18.49081946061744
 20
32.48653264600572
 10
18.49130526061742
 20
32.48589564600573
 10
18.49178646061739
 20
32.48526364600574
 10
18.49226726061738
 20
32.48463164600574
 10
18.49274446061741
 20
32.48400564600573
 10
18.49322126061742
 20
32.48337964600575
 10
18.49416726061742
 20
32.48213964600575
 10
18.49510126061739
 20
32.48090964600573
 10
18.49602726061744
 20
32.47969564600572
 10
18.4969432606174
 20
32.47849364600575
 10
18.49739546061744
 20
32.47789864600574
 10
18.49784726061739
 20
32.47730364600574
 10
18.49829346061739
 20
32.47671564600575
 10
18.49873926061741
 20
32.47612764600572
 10
18.49918046061742
 20
32.47554564600574
 10
18.4996212606174
 20
32.47496364600574
 10
18.50005546061743
 20
32.47438764600574
 10
18.50048926061743
 20
32.47381164600572
 10
18.5009176606174
 20
32.47324184600572
 10
18.50134526061743
 20
32.47267164600572
 10
18.50176666061742
 20
32.47210884600574
 10
18.5021872606174
 20
32.47154564600573
 10
18.50260266061741
 20
32.47098784600573
 10
18.50301726061741
 20
32.47042964600573
 10
18.50342466061738
 20
32.46987884600574
 10
18.5038312606174
 20
32.46932764600572
 10
18.50423186061744
 20
32.46878184600573
 10
18.50463126061743
 20
32.46823564600572
 10
18.50502486061742
 20
32.46769604600573
 10
18.50541726061743
 20
32.46715564600575
 10
18.50580186061739
 20
32.46662204600574
 10
18.50618526061743
 20
32.46608764600572
 10
18.50656306061739
 20
32.46556004600572
 10
18.5069392606174
 20
32.46503164600574
 10
18.50730806061745
 20
32.46450904600573
 10
18.50767526061742
 20
32.46398564600574
 10
18.50803606061743
 20
32.46346804600575
 10
18.50839526061742
 20
32.46294964600574
 10
18.50874726061738
 20
32.46243804600573
 10
18.50909726061741
 20
32.46192564600574
 10
18.50944026061745
 20
32.46142024600576
 10
18.50978126061739
 20
32.46091364600574
 10
18.5101132606174
 20
32.46041524600574
 10
18.51044326061742
 20
32.45991564600573
 10
18.51076426061741
 20
32.45942724600573
 10
18.5110832606174
 20
32.45893764600572
 10
18.51139226061741
 20
32.45846024600573
 10
18.51169926061743
 20
32.45798164600572
 10
18.51199326061743
 20
32.45751824600572
 10
18.51228526061743
 20
32.45705364600573
 10
18.51256526061741
 20
32.45660424600572
 10
18.51284326061739
 20
32.45615364600573
 10
18.5131062606174
 20
32.45572324600573
 10
18.51336726061743
 20
32.45529164600572
 10
18.51361226061743
 20
32.45488104600574
 10
18.51385526061745
 20
32.45446964600575
 10
18.51408246061743
 20
32.45407724600574
 10
18.51430726061744
 20
32.45368364600575
 10
18.51451686061739
 20
32.45331144600573
 10
18.51472326061741
 20
32.45293764600572
 10
18.51490746061739
 20
32.45260024600574
 10
18.5150892606174
 20
32.45226164600572
 10
18.51524666061743
 20
32.45196784600575
 10
18.5154032606174
 20
32.45167364600573
 10
18.51555026061743
 20
32.45136644600572
 10
18.51569326061741
 20
32.45105764600572
 10
18.51584766061739
 20
32.45068204600574
 10
18.5159892606174
 20
32.45030164600573
 10
18.51614546061739
 20
32.44986664600574
 10
18.51628926061738
 20
32.44942764600572
  0
LWPOLYLINE
  5
A1
330
2
100
AcDbEntity
  8
GAIKEI
  6
Continuous
100
AcDbPolyline
 90
       96
 70
     0
 43
0.0
 10
15.98498326061741
 20
35.61396164600572
 10
15.98523126061741
 20
35.61391564600572
 10
15.98539266061743
 20
35.61386324600574
 10
15.98554526061741
 20
35.61378964600573
 10
15.98574146061742
 20
35.61369084600574
 10
15.98592926061741
 20
35.61357764600572
 10
15.98615666061744
 20
35.61343664600574
 10
15.98637726061741
 20
35.61328564600572
 10
15.9866360606174
 20
35.61310524600575
 10
15.98688926061743
 20
35.61291764600574
 10
15.98717666061742
 20
35.61269944600574
 10
15.98745926061741
 20
35.61247564600572
 10
15.98777426061741
 20
35.61222004600572
 10
15.98808526061742
 20
35.61195964600575
 10
15.98842806061742
 20
35.61166964600574
 10
15.98876726061741
 20
35.61137564600574
 10
15.98913586061741
 20
35.61105124600573
 10
15.98950126061743
 20
35.61072364600574
 10
15.98989366061744
 20
35.61036804600573
 10
15.99028326061739
 20
35.61000964600575
 10
15.99069866061739
 20
35.60962184600573
 10
15.9911112606174
 20
35.60923164600573
 10
15.99154946061742
 20
35.60881584600574
 10
15.99198526061741
 20
35.60839764600573
 10
15.99244346061744
 20
35.60795264600571
 10
15.99289926061738
 20
35.60750564600573
 10
15.99337646061741
 20
35.60703464600573
 10
15.99385126061742
 20
35.60656164600573
 10
15.99434726061742
 20
35.60606464600573
 10
15.99484126061742
 20
35.60556564600574
 10
15.99535426061743
 20
35.60504444600574
 10
15.99586526061739
 20
35.60452164600574
 10
15.99639326061742
 20
35.60397844600573
 10
15.9969192606174
 20
35.60343364600575
 10
15.9974612606174
 20
35.60286844600572
 10
15.9980012606174
 20
35.60230164600572
 10
15.99855626061742
 20
35.60171544600573
 10
15.99910926061738
 20
35.60112764600572
 10
15.99967526061744
 20
35.60052344600573
 10
16.00023926061737
 20
35.59991764600574
 10
16.0008162606174
 20
35.59929624600574
 10
16.00139126061742
 20
35.59867364600575
 10
16.00197726061742
 20
35.59803524600574
 10
16.00256126061742
 20
35.59739564600574
 10
16.0031552606174
 20
35.59674324600573
 10
16.00374726061739
 20
35.59608964600574
 10
16.00434726061741
 20
35.59542324600574
 10
16.00494526061743
 20
35.59475564600572
 10
16.00555026061744
 20
35.59407724600573
 10
16.00615326061739
 20
35.59339764600574
 10
16.00676226061739
 20
35.59270724600575
 10
16.00736926061739
 20
35.59201564600574
 10
16.0079810606174
 20
35.59131624600573
 10
16.00859126061743
 20
35.59061564600574
 10
16.00920806061742
 20
35.58990524600574
 10
16.00982326061739
 20
35.58919364600573
 10
16.01044306061743
 20
35.58847324600575
 10
16.01106126061739
 20
35.58775164600573
 10
16.01168406061742
 20
35.58702124600575
 10
16.01230526061744
 20
35.58628964600572
 10
16.0129320606174
 20
35.58555104600575
 10
16.0135572606174
 20
35.58481164600574
 10
16.01418806061741
 20
35.58406304600576
 10
16.0148172606174
 20
35.58331364600574
 10
16.01545086061742
 20
35.58255604600575
 10
16.01608326061739
 20
35.58179764600573
 10
16.0167198606174
 20
35.58103204600573
 10
16.01735526061742
 20
35.58026564600573
 10
16.01799586061742
 20
35.57949204600575
 10
16.01863526061743
 20
35.57871764600574
 10
16.01927986061741
 20
35.57793704600573
 10
16.01992326061742
 20
35.57715564600574
 10
16.0205698606174
 20
35.57636684600573
 10
16.02121526061739
 20
35.57557764600571
 10
16.02186566061743
 20
35.57478084600572
 10
16.02251526061741
 20
35.57398364600576
 10
16.02317066061744
 20
35.57317784600574
 10
16.0238252606174
 20
35.57237164600574
 10
16.02448066061743
 20
35.57156384600574
 10
16.02513526061739
 20
35.57075564600572
 10
16.02579066061742
 20
35.56994584600574
 10
16.02644526061743
 20
35.56913564600572
 10
16.02711366061743
 20
35.56830684600573
 10
16.02778126061742
 20
35.56747764600573
 10
16.02846966061742
 20
35.56662284600574
 10
16.02915726061741
 20
35.56576764600573
 10
16.02980546061741
 20
35.56496064600575
 10
16.03045326061738
 20
35.56415364600574
 10
16.03104046061742
 20
35.56342164600574
 10
16.03162726061742
 20
35.56268964600574
 10
16.03238846061742
 20
35.56173964600575
 10
16.03314926061739
 20
35.56078964600573
 10
16.0343306606174
 20
35.55931384600572
 10
16.0355112606174
 20
35.55783764600574
 10
16.03706246061739
 20
35.55589664600572
 10
16.03861326061741
 20
35.55395564600573
  0
LWPOLYLINE
  5
A2
330
2
100
AcDbEntity
  8
GAIKEI
  6
Continuous
 62
     1
100
AcDbPolyline
 90
       39
 70
     0
 43
0.0
 10
45.79991926061739
 20
32.44901764600573
 10
45.79993526061741
 20
32.44934564600573
 10
45.79995126061743
 20
32.44967564600575
 10
45.79996726061745
 20
32.45000364600574
 10
45.7999852606174
 20
32.45033164600574
 10
45.80000126061742
 20
32.45066164600573
 10
45.80001726061744
 20
32.45098964600575
 10
45.80003326061739
 20
32.45131964600574
 10
45.80005126061741
 20
32.45164764600574
 10
45.80006726061742
 20
32.45197564600573
 10
45.80008326061738
 20
32.45230564600573
 10
45.8000992606174
 20
32.45263364600575
 10
45.80011726061741
 20
32.45296164600572
 10
45.80013326061743
 20
32.45329164600574
 10
45.80014926061744
 20
32.45361964600574
 10
45.8001652606174
 20
32.45394964600573
 10
45.80018326061741
 20
32.45427764600572
 10
45.80019926061743
 20
32.45460564600572
 10
45.80021526061744
 20
32.45493564600574
 10
45.80023126061741
 20
32.45526364600574
 10
45.80024926061741
 20
32.45559364600576
 10
45.80026526061743
 20
32.45592164600572
 10
45.8002812606174
 20
32.45624964600575
 10
45.80029726061741
 20
32.45657964600574
 10
45.80031526061742
 20
32.45690764600573
 10
45.80033126061744
 20
32.45723764600572
 10
45.8003472606174
 20
32.45756564600575
 10
45.80036326061741
 20
32.45789364600574
 10
45.80038126061743
 20
32.45822364600574
 10
45.80039726061738
 20
32.45855364600576
 10
45.8004132606174
 20
32.45888164600572
 10
45.80042926061742
 20
32.45920764600572
 10
45.80044526061743
 20
32.45953964600574
 10
45.80046326061739
 20
32.45987764600574
 10
45.8004792606174
 20
32.46019564600573
 10
45.80049326061742
 20
32.46048364600574
 10
45.80051126061744
 20
32.46085364600574
 10
45.80054126061742
 20
32.46142364600573
 10
45.80057726061738
 20
32.46216964600575
  0
LINE
  5
A3
330
2
100
AcDbEntity
  8
GAIKEI
  6
Continuous
100
AcDbLine
 10
18.72553726061738
 20
20.13395964600574
 30
0.0
 11
46.1247112606174
 21
20.13395964600574
 31
0.0
  0
LINE
  5
A4
330
2
100
AcDbEntity
  8
GAIKEI
  6
Continuous
100
AcDbLine
 10
46.06512526061737
 20
20.07395964600573
 30
0.0
 11
32.4251252606174
 21
20.07395964600573
 31
0.0
  0
LINE
  5
A5
330
2
100
AcDbEntity
  8
GAIKEI
  6
Continuous
100
AcDbLine
 10
32.4251252606174
 20
20.07395964600573
 30
0.0
 11
18.7851252606174
 21
20.07395964600573
 31
0.0
  0
LINE
  5
A6
330
2
100
AcDbEntity
  8
GAIKEI
  6
Continuous
 62
     1
100
AcDbLine
 10
49.32512526061742
 20
37.01395964600573
 30
0.0
 11
15.54084766061737
 21
37.01395964600573
 31
0.0
  0
LINE
  5
A7
330
2
100
AcDbEntity
  8
GAIKEI
  6
Continuous
100
AcDbLine
 10
15.7251252606174
 20
37.31395964600571
 30
0.0
 11
49.12512526061743
 21
37.31395964600571
 31
0.0
  0
ARC
  5
A8
330
2
100
AcDbEntity
  8
GAIKEI
  6
Continuous
100
AcDbCircle
 10
15.98595006061737
 20
36.16382764600573
 30
0.0
 40
0.4
100
AcDbArc
 50
182.9999999999989
 51
218.7787939999993
  0
LINE
  5
A9
330
2
100
AcDbEntity
  8
GAIKEI
  6
Continuous
 62
     1
100
AcDbLine
 10
49.23516226061735
 20
36.01395544600573
 30
0.0
 11
15.61508846061736
 21
36.01395544600573
 31
0.0
  0
LINE
  5
AA
330
2
100
AcDbEntity
  8
GAIKEI
  6
Continuous
100
AcDbLine
 10
15.54084766061737
 20
37.01395964600573
 30
0.0
 11
15.58649826061742
 21
36.14289324600572
 31
0.0
  0
ARC
  5
AB
330
2
100
AcDbEntity
  8
GAIKEI
  6
Continuous
100
AcDbCircle
 10
48.86430046061741
 20
36.16382764600573
 30
0.0
 40
0.4
100
AcDbArc
 50
321.2212060000005
 51
357.0000000000011
  0
LINE
  5
AC
330
2
100
AcDbEntity
  8
GAIKEI
  6
Continuous
100
AcDbLine
 10
49.3094030606174
 20
37.01395964600573
 30
0.0
 11
49.26375246061741
 21
36.14289324600572
 31
0.0
  0
LINE
  5
AD
330
2
100
AcDbEntity
  8
GAIKEI
  6
Continuous
100
AcDbLine
 10
-5.73263311681552
 20
37.31395544600573
 30
0.0
 11
-5.532633116815532
 21
37.31395544600573
 31
0.0
  0
LINE
  5
AE
330
2
100
AcDbEntity
  8
GAIKEI
  6
Continuous
100
AcDbLine
 10
-5.532633116815532
 20
37.31395544600573
 30
0.0
 11
-5.54835551681549
 21
37.01395544600572
 31
0.0
  0
LINE
  5
AF
330
2
100
AcDbEntity
  8
GAIKEI
  6
Continuous
 62
     1
100
AcDbLine
 10
-8.23263311681552
 20
37.41395544600573
 30
0.0
 11
-8.23263311681552
 21
37.31395544600573
 31
0.0
  0
LINE
  5
B0
330
2
100
AcDbEntity
  8
GAIKEI
  6
Continuous
 62
     1
100
AcDbLine
 10
-8.23263311681552
 20
37.41395544600573
 30
0.0
 11
-36.6326331168155
 21
37.41395544600573
 31
0.0
  0
LINE
  5
B1
330
2
100
AcDbEntity
  8
GAIKEI
  6
Continuous
 62
     1
100
AcDbLine
 10
-36.6326331168155
 20
37.41395544600573
 30
0.0
 11
-36.6326331168155
 21
37.31395544600573
 31
0.0
  0
LINE
  5
B2
330
2
100
AcDbEntity
  8
GAIKEI
  6
Continuous
100
AcDbLine
 10
-39.1326331168155
 20
37.31395544600573
 30
0.0
 11
-39.33263311681549
 21
37.31395544600573
 31
0.0
  0
LINE
  5
B3
330
2
100
AcDbEntity
  8
GAIKEI
  6
Continuous
100
AcDbLine
 10
-39.33263311681549
 20
37.31395544600573
 30
0.0
 11
-39.31691071681553
 21
37.01395544600572
 31
0.0
  0
LINE
  5
B4
330
2
100
AcDbEntity
  8
GAIKEI
  6
Continuous
100
AcDbLine
 10
49.12512526061743
 20
37.31395544600573
 30
0.0
 11
49.32512526061742
 21
37.31395544600573
 31
0.0
  0
LINE
  5
B5
330
2
100
AcDbEntity
  8
GAIKEI
  6
Continuous
100
AcDbLine
 10
49.32512526061742
 20
37.31395544600573
 30
0.0
 11
49.30940286061741
 21
37.01395544600572
 31
0.0
  0
LINE
  5
B6
330
2
100
AcDbEntity
  8
GAIKEI
  6
Continuous
100
AcDbLine
 10
15.7251252606174
 20
37.31395544600573
 30
0.0
 11
15.52512526061741
 21
37.31395544600573
 31
0.0
  0
LINE
  5
B7
330
2
100
AcDbEntity
  8
GAIKEI
  6
Continuous
100
AcDbLine
 10
15.52512526061741
 20
37.31395544600573
 30
0.0
 11
15.54084766061737
 21
37.01395544600572
 31
0.0
  0
LINE
  5
B8
330
2
100
AcDbEntity
  8
GAIKEI
  6
Continuous
 62
     1
100
AcDbLine
 10
46.62512526061743
 20
37.41395544600573
 30
0.0
 11
18.2251252606174
 21
37.41395544600573
 31
0.0
  0
LINE
  5
B9
330
2
100
AcDbEntity
  8
GAIKEI
  6
Continuous
 62
     1
100
AcDbLine
 10
46.62512526061743
 20
37.41395544600573
 30
0.0
 11
46.62512526061743
 21
37.31395544600573
 31
0.0
  0
LINE
  5
BA
330
2
100
AcDbEntity
  8
GAIKEI
  6
Continuous
 62
     1
100
AcDbLine
 10
18.2251252606174
 20
37.41395544600573
 30
0.0
 11
18.2251252606174
 21
37.31395544600573
 31
0.0
  0
DIMENSION
  5
BB
330
2
100
AcDbEntity
  8
SUNPO
100
AcDbDimension
  2
*D4
 10
2.395699335224492
 20
6.57395964600573
 30
0.0
 11
0.645699335224492
 21
21.94395754600574
 31
0.0
 70
    33
  1
153.7
 71
     5
 42
30.73999580000001
  3
STANDARD
100
AcDbAlignedDimension
 13
-5.604300664775507
 23
37.31395544600573
 33
0.0
 14
-5.604300664775507
 24
6.573959646005732
 34
0.0
1001
ACAD
1000
DSTYLE
1002
{
1070
    40
1040
1.0
1070
   140
1040
2.5
1070
   147
1040
0.5
1070
   172
1070
     1
1070
   279
1070
     0
1070
   288
1070
     0
1002
}
  0
DIMENSION
  5
CA
330
2
100
AcDbEntity
  8
SUNPO
100
AcDbDimension
  2
*D3
 10
-5.532633116815474
 20
45.31395964600574
 30
0.0
 11
-22.43263311681548
 21
47.06395964600574
 31
0.0
 70
    33
  1
φ169
 71
     5
 42
33.80000000000001
  3
STANDARD
100
AcDbAlignedDimension
 13
-39.33263311681549
 23
37.31395964600574
 33
0.0
 14
-5.532633116815475
 24
37.31395964600574
 34
0.0
1001
ACAD
1000
DSTYLE
1002
{
1070
    40
1040
1.0
1070
   140
1040
2.5
1070
   147
1040
0.5
1070
   172
1070
     1
1070
   279
1070
     0
1070
   288
1070
     0
1002
}
  0
TEXT
  5
D7
330
2
100
AcDbEntity
  8
MOJI1
100
AcDbText
 10
-13.53229293500658
 20
-24.07400120929088
 30
0.0
 40
3.0
  1
温度：０℃～４０℃
100
AcDbText
  0
LINE
  5
D9
330
2
100
AcDbEntity
  8
WAKU
 62
     4
100
AcDbLine
 10
-16.82671170448816
 20
-45.07400120929065
 30
0.0
 11
-16.82671170448816
 21
-10.07400120929065
 31
0.0
  0
LINE
  5
DB
330
2
100
AcDbEntity
  8
WAKU
 62
     4
100
AcDbLine
 10
67.96770706499342
 20
-45.07400120929088
 30
0.0
 11
67.96770706499342
 21
-10.07400120929088
 31
0.0
  0
LINE
  5
DC
330
2
100
AcDbEntity
  8
WAKU
 62
     4
100
AcDbLine
 10
-57.03229293500658
 20
-10.07400120929088
 30
0.0
 11
-57.03229293500658
 21
-45.07400120929088
 31
0.0
  0
LINE
  5
DD
330
2
100
AcDbEntity
  8
WAKU
 62
     1
100
AcDbLine
 10
67.96770706499342
 20
-15.07400120929088
 30
0.0
 11
-57.03229293500658
 21
-15.07400120929088
 31
0.0
  0
LINE
  5
DE
330
2
100
AcDbEntity
  8
WAKU
 62
     4
100
AcDbLine
 10
67.96770706499342
 20
-10.07400120929088
 30
0.0
 11
-57.03229293500658
 21
-10.07400120929088
 31
0.0
  0
LINE
  5
DF
330
2
100
AcDbEntity
  8
WAKU
 62
     1
100
AcDbLine
 10
67.96770706499342
 20
-20.07400120929089
 30
0.0
 11
-57.03229293500658
 21
-20.07400120929089
 31
0.0
  0
LINE
  5
E0
330
2
100
AcDbEntity
  8
WAKU
 62
     1
100
AcDbLine
 10
67.96770706499342
 20
-25.07400120929089
 30
0.0
 11
-57.03229293500658
 21
-25.07400120929089
 31
0.0
  0
LINE
  5
E1
330
2
100
AcDbEntity
  8
WAKU
 62
     1
100
AcDbLine
 10
67.96770706499342
 20
-30.07400120929089
 30
0.0
 11
-57.03229293500658
 21
-30.07400120929089
 31
0.0
  0
LINE
  5
E2
330
2
100
AcDbEntity
  8
WAKU
 62
     1
100
AcDbLine
 10
67.96770706499342
 20
-35.07400120929089
 30
0.0
 11
-57.03229293500658
 21
-35.07400120929089
 31
0.0
  0
LINE
  5
E3
330
2
100
AcDbEntity
  8
WAKU
 62
     1
100
AcDbLine
 10
67.96770706499342
 20
-40.07400120929088
 30
0.0
 11
-57.03229293500658
 21
-40.07400120929088
 31
0.0
  0
LINE
  5
E4
330
2
100
AcDbEntity
  8
WAKU
 62
     4
100
AcDbLine
 10
-57.03229293500658
 20
-45.07400120929088
 30
0.0
 11
67.96770706499342
 21
-45.07400120929088
 31
0.0
  0
TEXT
  5
E5
330
2
100
AcDbEntity
  8
MOJI1
100
AcDbText
 10
-54.53229293500658
 20
-14.07400120929088
 30
0.0
 40
3.0
  1
対応機種
100
AcDbText
  0
TEXT
  5
E6
330
2
100
AcDbEntity
  8
MOJI1
100
AcDbText
 10
-13.53229293500658
 20
-14.07400120929088
 30
0.0
 40
3.0
  1
ＢＢ－ＨＣＭ５８１／ＨＣＭ５８０／ＨＣＥ４８１
100
AcDbText
  0
TEXT
  5
E7
330
2
100
AcDbEntity
  8
MOJI1
100
AcDbText
 10
-54.53229293500658
 20
-24.07400120929088
 30
0.0
 40
3.0
  1
使用環境
100
AcDbText
  0
TEXT
  5
E8
330
2
100
AcDbEntity
  8
MOJI1
100
AcDbText
 10
-13.53229293500658
 20
-29.07400120929088
 30
0.0
 40
3.0
  1
湿度：２０％～８０％（結露なし）
100
AcDbText
  0
TEXT
  5
E9
330
2
100
AcDbEntity
  8
MOJI1
100
AcDbText
 10
-13.53229293500658
 20
-19.07400120929088
 30
0.0
 40
3.0
  1
ＨＣＭ３８１、ＫＸ－ＨＣＭ１８０
100
AcDbText
  0
TEXT
  5
EA
330
2
100
AcDbEntity
  8
TOUROKU
100
AcDbText
 10
51.83432376458737
 20
58.641964297513
 30
0.0
 40
2.0
  1
ＢＢＨＣＡ１Ｘ
 72
     2
 11
67.96765709792071
 21
58.641964297513
 31
0.0
100
AcDbText
  0
TEXT
  5
EC
330
2
100
AcDbEntity
  8
MOJI1
100
AcDbText
 10
-30.03229293500647
 20
64.6419642975132
 30
0.0
 40
4.0
  1
カメラカバー(クリア)
100
AcDbText
  0
ENDSEC
  0
SECTION
  2
OBJECTS
  0
DICTIONARY
  5
7
330
0
100
AcDbDictionary
281
     1
  3
ACAD_COLOR
350
2C
  3
ACAD_GROUP
350
28
  3
ACAD_LAYOUT
350
B
  3
ACAD_MATERIAL
350
2B
  3
ACAD_MLINESTYLE
350
29
  3
ACAD_PLOTSETTINGS
350
2A
  3
ACAD_PLOTSTYLENAME
350
6
  3
ACDBHEADERROUNDTRIPXREC
350
121
  3
AcDbVariableDictionary
350
11C
  3
ASE_INDEX_DICTIONARY
350
F5
  0
DICTIONARY
  5
11
330
10
100
AcDbDictionary
280
     1
281
     1
  3
ACAD_LAYERSTATES
360
12
  0
DICTIONARY
  5
2C
102
{ACAD_REACTORS
330
7
102
}
330
7
100
AcDbDictionary
281
     1
  0
DICTIONARY
  5
28
102
{ACAD_REACTORS
330
7
102
}
330
7
100
AcDbDictionary
281
     1
  0
DICTIONARY
  5
B
102
{ACAD_REACTORS
330
7
102
}
330
7
100
AcDbDictionary
281
     1
  3
Model
350
A
  3
レイアウト1
350
F
  0
DICTIONARY
  5
2B
102
{ACAD_REACTORS
330
7
102
}
330
7
100
AcDbDictionary
281
     1
  0
DICTIONARY
  5
29
102
{ACAD_REACTORS
330
7
102
}
330
7
100
AcDbDictionary
281
     1
  3
Standard
350
2E
  0
DICTIONARY
  5
2A
102
{ACAD_REACTORS
330
7
102
}
330
7
100
AcDbDictionary
281
     1
  0
ACDBDICTIONARYWDFLT
  5
6
102
{ACAD_REACTORS
330
7
102
}
330
7
100
AcDbDictionary
281
     1
  3
Normal
350
5
100
AcDbDictionaryWithDefault
340
5
  0
DICTIONARY
  5
121
102
{ACAD_REACTORS
330
7
102
}
330
7
100
AcDbDictionary
281
     1
  3
COLORDICT
350
123
  3
MATERIALDICT
350
122
  0
DICTIONARY
  5
11C
102
{ACAD_REACTORS
330
7
102
}
330
7
100
AcDbDictionary
281
     1
  3
DIMASSOC
350
11E
  3
HIDETEXT
350
11D
  3
PROJECTNAME
350
11F
  0
DICTIONARY
  5
F5
102
{ACAD_REACTORS
330
7
102
}
330
7
100
AcDbDictionary
281
     1
  3
ASEBlockHierarchyIndexRecord
350
F7
1001
DCO15
1040
1629188889.392
  0
DICTIONARY
  5
12
102
{ACAD_REACTORS
330
11
102
}
330
11
100
AcDbDictionary
281
     1
  0
LAYOUT
  5
A
102
{ACAD_XDICTIONARY
360
124
102
}
102
{ACAD_REACTORS
330
B
102
}
330
B
100
AcDbPlotSettings
  1

  2
Ａ４－縦3FRIM01.pc3
  4
A4
  6

 40
5.873749732971191
 41
5.873747825622558
 42
5.873748779296875
 43
5.873748779296875
 44
209.9733276367187
 45
296.9259948730469
 46
5.41
 47
0.0
 48
0.0
 49
0.0
140
0.0
141
0.0
142
1.0
143
1.382515366965649
 70
 11956
 72
     1
 73
     0
 74
     1
  7
tmsacad.ctb
 75
     0
147
0.7233192656619828
148
0.0394843848000619
149
0.0240599051811614
100
AcDbLayout
  1
Model
 70
     1
 71
     0
 10
0.0
 20
0.0
 11
12.0
 21
9.0
 12
0.0
 22
0.0
 32
0.0
 14
0.0
 24
0.0
 34
0.0
 15
0.0
 25
0.0
 35
0.0
146
0.0
 13
0.0
 23
0.0
 33
0.0
 16
1.0
 26
0.0
 36
0.0
 17
0.0
 27
1.0
 37
0.0
 76
     0
330
2
  0
LAYOUT
  5
F
102
{ACAD_XDICTIONARY
360
126
102
}
102
{ACAD_REACTORS
330
B
102
}
330
B
100
AcDbPlotSettings
  1

  2
None
  4

  6

 40
0.0
 41
0.0
 42
0.0
 43
0.0
 44
0.0
 45
0.0
 46
0.0
 47
0.0
 48
0.0
 49
0.0
140
0.0
141
0.0
142
1.0
143
1.0
 70
   688
 72
     0
 73
     0
 74
     5
  7
tmsacad.ctb
 75
    16
147
1.0
148
0.0
149
0.0
100
AcDbLayout
  1
レイアウト1
 70
     1
 71
     1
 10
0.0
 20
0.0
 11
12.0
 21
9.0
 12
0.0
 22
0.0
 32
0.0
 14
0.0
 24
0.0
 34
0.0
 15
0.0
 25
0.0
 35
0.0
146
0.0
 13
0.0
 23
0.0
 33
0.0
 16
1.0
 26
0.0
 36
0.0
 17
0.0
 27
1.0
 37
0.0
 76
     0
330
C
  0
MLINESTYLE
  5
2E
102
{ACAD_REACTORS
330
29
102
}
330
29
100
AcDbMlineStyle
  2
STANDARD
 70
     0
  3

 62
   256
 51
90.0
 52
90.0
 71
     2
 49
0.5
 62
   256
  6
BYLAYER
 49
-0.5
 62
   256
  6
BYLAYER
  0
ACDBPLACEHOLDER
  5
5
102
{ACAD_REACTORS
330
6
102
}
330
6
  0
XRECORD
  5
123
102
{ACAD_REACTORS
330
121
102
}
330
121
100
AcDbXrecord
280
     1
340
2C
  0
XRECORD
  5
122
102
{ACAD_REACTORS
330
121
102
}
330
121
100
AcDbXrecord
280
     1
340
2B
  0
DICTIONARYVAR
  5
11E
102
{ACAD_REACTORS
330
11C
102
}
330
11C
100
DictionaryVariables
280
     0
  1
1
  0
DICTIONARYVAR
  5
11D
102
{ACAD_REACTORS
330
11C
102
}
330
11C
100
DictionaryVariables
280
     0
  1
1
  0
DICTIONARYVAR
  5
11F
102
{ACAD_REACTORS
330
11C
102
}
330
11C
100
DictionaryVariables
280
     0
  1

  0
XRECORD
  5
F7
102
{ACAD_REACTORS
330
F5
102
}
330
F5
100
AcDbXrecord
280
     1
330
C2
330
C3
330
D0
330
D1
330
108
330
109
330
114
330
115
  0
DICTIONARY
  5
124
330
A
100
AcDbDictionary
280
     1
281
     1
  3
ACAD_XREC_ROUNDTRIP
360
125
  0
DICTIONARY
  5
126
330
F
100
AcDbDictionary
280
     1
281
     1
  3
ACAD_XREC_ROUNDTRIP
360
127
  0
XRECORD
  5
125
102
{ACAD_REACTORS
330
124
102
}
330
124
100
AcDbXrecord
280
     1
102
SHADEPLOT
 70
     0
102
SHADEPLOTRESLEVEL
 70
     2
102
SHADEPLOTCUSTOMDPI
 70
   300
  0
XRECORD
  5
127
102
{ACAD_REACTORS
330
126
102
}
330
126
100
AcDbXrecord
280
     1
102
SHADEPLOT
 70
     0
102
SHADEPLOTRESLEVEL
 70
     2
102
SHADEPLOTCUSTOMDPI
 70
   300
  0
ENDSEC
  0
EOF
