  0
SECTION
  2
HEADER
  9
$ACADVER
  1
AC1015
  9
$ACADMAINTVER
 70
    20
  9
$DWGCODEPAGE
  3
ANSI_932
  9
$INSBASE
 10
0.0
 20
246.4992141396417
 30
0.0
  9
$EXTMIN
 10
-60.06890248708623
 20
-57.66190788704989
 30
-0.0015258207003583
  9
$EXTMAX
 10
65.0116064828785
 20
56.1920563528829
 30
0.0000000349246037
  9
$LIMMIN
 10
-1101.784450318844
 20
-1579.160531687244
  9
$LIMMAX
 10
-508.2420711400536
 20
-1161.440814074914
  9
$ORTHOMODE
 70
     0
  9
$REGENMODE
 70
     1
  9
$FILLMODE
 70
     1
  9
$QTEXTMODE
 70
     0
  9
$MIRRTEXT
 70
     1
  9
$LTSCALE
 40
1.0
  9
$ATTMODE
 70
     1
  9
$TEXTSIZE
 40
3.0
  9
$TRACEWID
 40
0.5
  9
$TEXTSTYLE
  7
STANDARD
  9
$CLAYER
  8
MOJI1
  9
$CELTYPE
  6
BYLAYER
  9
$CECOLOR
 62
   256
  9
$CELTSCALE
 40
1.0
  9
$DISPSILH
 70
     0
  9
$DIMSCALE
 40
1.0
  9
$DIMASZ
 40
2.0
  9
$DIMEXO
 40
2.0
  9
$DIMDLI
 40
8.0
  9
$DIMRND
 40
0.0
  9
$DIMDLE
 40
0.0
  9
$DIMEXE
 40
2.0
  9
$DIMTP
 40
0.0
  9
$DIMTM
 40
0.0
  9
$DIMTXT
 40
2.5
  9
$DIMCEN
 40
0.0
  9
$DIMTSZ
 40
0.0
  9
$DIMTOL
 70
     0
  9
$DIMLIM
 70
     0
  9
$DIMTIH
 70
     0
  9
$DIMTOH
 70
     0
  9
$DIMSE1
 70
     0
  9
$DIMSE2
 70
     0
  9
$DIMTAD
 70
     3
  9
$DIMZIN
 70
     0
  9
$DIMBLK
  1

  9
$DIMASO
 70
     1
  9
$DIMSHO
 70
     1
  9
$DIMPOST
  1

  9
$DIMAPOST
  1

  9
$DIMALT
 70
     0
  9
$DIMALTD
 70
     2
  9
$DIMALTF
 40
25.4
  9
$DIMLFAC
 40
1.0
  9
$DIMTOFL
 70
     1
  9
$DIMTVP
 40
0.0
  9
$DIMTIX
 70
     0
  9
$DIMSOXD
 70
     0
  9
$DIMSAH
 70
     1
  9
$DIMBLK1
  1
OPEN30
  9
$DIMBLK2
  1
OPEN30
  9
$DIMSTYLE
  2
STANDARD
  9
$DIMCLRD
 70
     0
  9
$DIMCLRE
 70
     0
  9
$DIMCLRT
 70
     0
  9
$DIMTFAC
 40
1.0
  9
$DIMGAP
 40
0.5
  9
$DIMJUST
 70
     0
  9
$DIMSD1
 70
     0
  9
$DIMSD2
 70
     0
  9
$DIMTOLJ
 70
     1
  9
$DIMTZIN
 70
     0
  9
$DIMALTZ
 70
     0
  9
$DIMALTTZ
 70
     0
  9
$DIMUPT
 70
     0
  9
$DIMDEC
 70
     4
  9
$DIMTDEC
 70
     4
  9
$DIMALTU
 70
     2
  9
$DIMALTTD
 70
     2
  9
$DIMTXSTY
  7
STANDARD
  9
$DIMAUNIT
 70
     0
  9
$DIMADEC
 70
     0
  9
$DIMALTRND
 40
0.0
  9
$DIMAZIN
 70
     0
  9
$DIMDSEP
 70
    46
  9
$DIMATFIT
 70
     3
  9
$DIMFRAC
 70
     0
  9
$DIMLDRBLK
  1
OPEN30
  9
$DIMLUNIT
 70
     2
  9
$DIMLWD
 70
    -2
  9
$DIMLWE
 70
    -2
  9
$DIMTMOVE
 70
     0
  9
$LUNITS
 70
     2
  9
$LUPREC
 70
     4
  9
$SKETCHINC
 40
0.1
  9
$FILLETRAD
 40
1.0
  9
$AUNITS
 70
     0
  9
$AUPREC
 70
     0
  9
$MENU
  1
ACAD
  9
$ELEVATION
 40
0.0
  9
$PELEVATION
 40
0.0
  9
$THICKNESS
 40
0.0
  9
$LIMCHECK
 70
     0
  9
$CHAMFERA
 40
0.0
  9
$CHAMFERB
 40
0.0
  9
$CHAMFERC
 40
0.0
  9
$CHAMFERD
 40
0.0
  9
$SKPOLY
 70
     0
  9
$TDCREATE
 40
2451815.565532581
  9
$TDUCREATE
 40
2451815.190532581
  9
$TDUPDATE
 40
2453775.590845810
  9
$TDUUPDATE
 40
2453775.215845810
  9
$TDINDWG
 40
1.0756931250
  9
$TDUSRTIMER
 40
1.0756931250
  9
$USRTIMER
 70
     1
  9
$ANGBASE
 50
0.0
  9
$ANGDIR
 70
     0
  9
$PDMODE
 70
     0
  9
$PDSIZE
 40
0.0
  9
$PLINEWID
 40
0.0
  9
$SPLFRAME
 70
     0
  9
$SPLINETYPE
 70
     6
  9
$SPLINESEGS
 70
     8
  9
$HANDSEED
  5
2D5
  9
$SURFTAB1
 70
     6
  9
$SURFTAB2
 70
     6
  9
$SURFTYPE
 70
     6
  9
$SURFU
 70
     6
  9
$SURFV
 70
     6
  9
$UCSBASE
  2

  9
$UCSNAME
  2

  9
$UCSORG
 10
0.0
 20
0.0
 30
0.0
  9
$UCSXDIR
 10
1.0
 20
0.0
 30
0.0
  9
$UCSYDIR
 10
0.0
 20
1.0
 30
0.0
  9
$UCSORTHOREF
  2

  9
$UCSORTHOVIEW
 70
     0
  9
$UCSORGTOP
 10
0.0
 20
0.0
 30
0.0
  9
$UCSORGBOTTOM
 10
0.0
 20
0.0
 30
0.0
  9
$UCSORGLEFT
 10
0.0
 20
0.0
 30
0.0
  9
$UCSORGRIGHT
 10
0.0
 20
0.0
 30
0.0
  9
$UCSORGFRONT
 10
0.0
 20
0.0
 30
0.0
  9
$UCSORGBACK
 10
0.0
 20
0.0
 30
0.0
  9
$PUCSBASE
  2

  9
$PUCSNAME
  2

  9
$PUCSORG
 10
0.0
 20
0.0
 30
0.0
  9
$PUCSXDIR
 10
1.0
 20
0.0
 30
0.0
  9
$PUCSYDIR
 10
0.0
 20
1.0
 30
0.0
  9
$PUCSORTHOREF
  2

  9
$PUCSORTHOVIEW
 70
     0
  9
$PUCSORGTOP
 10
0.0
 20
0.0
 30
0.0
  9
$PUCSORGBOTTOM
 10
0.0
 20
0.0
 30
0.0
  9
$PUCSORGLEFT
 10
0.0
 20
0.0
 30
0.0
  9
$PUCSORGRIGHT
 10
0.0
 20
0.0
 30
0.0
  9
$PUCSORGFRONT
 10
0.0
 20
0.0
 30
0.0
  9
$PUCSORGBACK
 10
0.0
 20
0.0
 30
0.0
  9
$USERI1
 70
     0
  9
$USERI2
 70
     0
  9
$USERI3
 70
     0
  9
$USERI4
 70
     0
  9
$USERI5
 70
     0
  9
$USERR1
 40
0.0
  9
$USERR2
 40
0.0
  9
$USERR3
 40
0.0
  9
$USERR4
 40
0.0
  9
$USERR5
 40
0.0
  9
$WORLDVIEW
 70
     1
  9
$SHADEDGE
 70
     3
  9
$SHADEDIF
 70
    70
  9
$TILEMODE
 70
     1
  9
$MAXACTVP
 70
    48
  9
$PINSBASE
 10
0.0
 20
0.0
 30
0.0
  9
$PLIMCHECK
 70
     0
  9
$PEXTMIN
 10
1.000000000000000E+20
 20
1.000000000000000E+20
 30
1.000000000000000E+20
  9
$PEXTMAX
 10
-1.000000000000000E+20
 20
-1.000000000000000E+20
 30
-1.000000000000000E+20
  9
$PLIMMIN
 10
0.0
 20
0.0
  9
$PLIMMAX
 10
12.0
 20
9.0
  9
$UNITMODE
 70
     0
  9
$VISRETAIN
 70
     1
  9
$PLINEGEN
 70
     0
  9
$PSLTSCALE
 70
     1
  9
$TREEDEPTH
 70
  3020
  9
$CMLSTYLE
  2
STANDARD
  9
$CMLJUST
 70
     0
  9
$CMLSCALE
 40
1.0
  9
$PROXYGRAPHICS
 70
     1
  9
$MEASUREMENT
 70
     0
  9
$CELWEIGHT
370
    -1
  9
$ENDCAPS
280
     0
  9
$JOINSTYLE
280
     0
  9
$LWDISPLAY
290
     0
  9
$INSUNITS
 70
     0
  9
$HYPERLINKBASE
  1

  9
$STYLESHEET
  1

  9
$XEDIT
290
     1
  9
$CEPSNTYPE
380
     0
  9
$PSTYLEMODE
290
     1
  9
$FINGERPRINTGUID
  2
{1754B7AB-9B3C-11D4-AD9E-00104B1004F2}
  9
$VERSIONGUID
  2
{F930AB10-B19D-4962-8B89-B7D8D026EA67}
  9
$EXTNAMES
290
     1
  9
$PSVPSCALE
 40
0.0
  9
$OLESTARTUP
290
     0
  0
ENDSEC
  0
SECTION
  2
CLASSES
  0
CLASS
  1
ACDBDICTIONARYWDFLT
  2
AcDbDictionaryWithDefault
  3
ObjectDBX Classes
 90
        0
280
     0
281
     0
  0
CLASS
  1
ACDBPLACEHOLDER
  2
AcDbPlaceHolder
  3
ObjectDBX Classes
 90
        0
280
     0
281
     0
  0
CLASS
  1
LAYOUT
  2
AcDbLayout
  3
ObjectDBX Classes
 90
        0
280
     0
281
     0
  0
CLASS
  1
DICTIONARYVAR
  2
AcDbDictionaryVar
  3
ObjectDBX Classes
 90
        0
280
     0
281
     0
  0
ENDSEC
  0
SECTION
  2
TABLES
  0
TABLE
  2
VPORT
  5
20
330
0
100
AcDbSymbolTable
 70
     3
  0
VPORT
  5
2CD
330
20
100
AcDbSymbolTableRecord
100
AcDbViewportTableRecord
  2
*Active
 70
     0
 10
0.0
 20
0.0
 11
1.0
 21
1.0
 12
2.471351997896118
 22
-0.7349257670834959
 13
0.0
 23
0.0
 14
1.0
 24
1.0
 15
0.0
 25
0.0
 16
0.0
 26
0.0
 36
1.0
 17
0.0
 27
0.0
 37
0.0
 40
114.7539955777979
 41
1.447229551451187
 42
50.0
 43
0.0
 44
0.0
 50
0.0
 51
0.0
 71
     0
 72
 10000
 73
     1
 74
     0
 75
     0
 76
     1
 77
     0
 78
     0
281
     0
 65
     1
110
0.0
120
0.0
130
0.0
111
1.0
121
0.0
131
0.0
112
0.0
122
1.0
132
0.0
 79
     0
146
0.0
  0
ENDTAB
  0
TABLE
  2
LTYPE
  5
1B
330
0
100
AcDbSymbolTable
 70
     1
  0
LTYPE
  5
1C
330
1B
100
AcDbSymbolTableRecord
100
AcDbLinetypeTableRecord
  2
BYBLOCK
 70
     0
  3

 72
    65
 73
     0
 40
0.0
  0
LTYPE
  5
1D
330
1B
100
AcDbSymbolTableRecord
100
AcDbLinetypeTableRecord
  2
BYLAYER
 70
     0
  3

 72
    65
 73
     0
 40
0.0
  0
LTYPE
  5
A
330
1B
100
AcDbSymbolTableRecord
100
AcDbLinetypeTableRecord
  2
CONTINUOUS
 70
     0
  3
Solid line
 72
    65
 73
     0
 40
0.0
  0
ENDTAB
  0
TABLE
  2
LAYER
  5
14
102
{ACAD_XDICTIONARY
360
15
102
}
330
0
100
AcDbSymbolTable
 70
     7
  0
LAYER
  5
6
330
14
100
AcDbSymbolTableRecord
100
AcDbLayerTableRecord
  2
0
 70
     0
 62
     7
  6
CONTINUOUS
370
    -3
390
7
  0
LAYER
  5
42
330
14
100
AcDbSymbolTableRecord
100
AcDbLayerTableRecord
  2
DEFPOINTS
 70
     0
 62
     7
  6
CONTINUOUS
290
     0
370
    -3
390
7
  0
LAYER
  5
277
330
14
100
AcDbSymbolTableRecord
100
AcDbLayerTableRecord
  2
WAKU
 70
     0
 62
     4
  6
CONTINUOUS
370
    -3
390
7
  0
LAYER
  5
32
330
14
100
AcDbSymbolTableRecord
100
AcDbLayerTableRecord
  2
MOJI1
 70
     0
 62
     2
  6
CONTINUOUS
370
    -3
390
7
  0
LAYER
  5
61
330
14
100
AcDbSymbolTableRecord
100
AcDbLayerTableRecord
  2
GAIKEI
 70
     0
 62
     7
  6
CONTINUOUS
370
    -3
390
7
  0
LAYER
  5
36
330
14
100
AcDbSymbolTableRecord
100
AcDbLayerTableRecord
  2
TOUROKU
 70
     0
 62
     1
  6
CONTINUOUS
370
    -3
390
7
  0
LAYER
  5
38
330
14
100
AcDbSymbolTableRecord
100
AcDbLayerTableRecord
  2
SUNPO
 70
     0
 62
     3
  6
CONTINUOUS
370
    -3
390
7
  0
ENDTAB
  0
TABLE
  2
STYLE
  5
18
330
0
100
AcDbSymbolTable
 70
     1
  0
STYLE
  5
19
330
18
100
AcDbSymbolTableRecord
100
AcDbTextStyleTableRecord
  2
STANDARD
 70
     0
 40
0.0
 41
1.0
 50
0.0
 71
     0
 42
3.0
  3
MONOTXT.shx
  4
BIGFONT.shx
  0
ENDTAB
  0
TABLE
  2
VIEW
  5
1E
330
0
100
AcDbSymbolTable
 70
     0
  0
ENDTAB
  0
TABLE
  2
UCS
  5
1F
330
0
100
AcDbSymbolTable
 70
     0
  0
ENDTAB
  0
TABLE
  2
APPID
  5
22
330
0
100
AcDbSymbolTable
 70
     1
  0
APPID
  5
23
330
22
100
AcDbSymbolTableRecord
100
AcDbRegAppTableRecord
  2
ACAD
 70
     0
  0
ENDTAB
  0
TABLE
  2
DIMSTYLE
  5
24
330
0
100
AcDbSymbolTable
 70
     1
100
AcDbDimStyleTable
 71
     1
340
25
  0
DIMSTYLE
105
25
102
{ACAD_REACTORS
330
53
330
46
330
37
102
}
330
24
100
AcDbSymbolTableRecord
100
AcDbDimStyleTableRecord
  2
STANDARD
 70
     0
 40
0.0
 41
2.0
 42
2.0
 43
8.0
 44
2.0
 73
     0
 74
     0
 77
     3
140
3.0
141
0.0
173
     1
279
     2
288
     1
340
19
341
26
343
26
344
26
  0
ENDTAB
  0
TABLE
  2
BLOCK_RECORD
  5
1
330
0
100
AcDbSymbolTable
 70
     7
  0
BLOCK_RECORD
  5
2
102
{ACAD_XDICTIONARY
360
3
102
}
330
1
100
AcDbSymbolTableRecord
100
AcDbBlockTableRecord
  2
*MODEL_SPACE
340
C
  0
BLOCK_RECORD
  5
E
102
{ACAD_XDICTIONARY
360
F
102
}
330
1
100
AcDbSymbolTableRecord
100
AcDbBlockTableRecord
  2
*PAPER_SPACE
340
13
  0
BLOCK_RECORD
  5
26
330
1
100
AcDbSymbolTableRecord
100
AcDbBlockTableRecord
  2
_OPEN30
340
0
102
{BLKREFS
331
3E
331
3F
331
4C
331
4D
331
59
331
5A
331
2A9
331
2AA
331
2B5
331
2B6
331
2C1
331
2C2
102
}
  0
BLOCK_RECORD
  5
54
330
1
100
AcDbSymbolTableRecord
100
AcDbBlockTableRecord
  2
*D1
340
0
  0
BLOCK_RECORD
  5
47
330
1
100
AcDbSymbolTableRecord
100
AcDbBlockTableRecord
  2
*D2
340
0
  0
BLOCK_RECORD
  5
39
330
1
100
AcDbSymbolTableRecord
100
AcDbBlockTableRecord
  2
*D3
340
0
  0
BLOCK_RECORD
  5
2A5
330
1
100
AcDbSymbolTableRecord
100
AcDbBlockTableRecord
  2
*D4
340
0
  0
BLOCK_RECORD
  5
2B1
330
1
100
AcDbSymbolTableRecord
100
AcDbBlockTableRecord
  2
*D5
340
0
  0
BLOCK_RECORD
  5
2BD
330
1
100
AcDbSymbolTableRecord
100
AcDbBlockTableRecord
  2
*D6
340
0
  0
ENDTAB
  0
ENDSEC
  0
SECTION
  2
BLOCKS
  0
BLOCK
  5
5
330
2
100
AcDbEntity
  8
0
100
AcDbBlockBegin
  2
*MODEL_SPACE
 70
     0
 10
0.0
 20
0.0
 30
0.0
  3
*MODEL_SPACE
  1

  0
ENDBLK
  5
B
330
2
100
AcDbEntity
  8
0
100
AcDbBlockEnd
  0
BLOCK
  5
11
330
E
100
AcDbEntity
 67
     1
  8
0
100
AcDbBlockBegin
  2
*PAPER_SPACE
 70
     0
 10
0.0
 20
0.0
 30
0.0
  3
*PAPER_SPACE
  1

  0
ENDBLK
  5
12
330
E
100
AcDbEntity
 67
     1
  8
0
100
AcDbBlockEnd
  0
BLOCK
  5
27
330
26
100
AcDbEntity
  8
0
100
AcDbBlockBegin
  2
_OPEN30
 70
     0
 10
0.0
 20
0.0
 30
0.0
  3
_OPEN30
  1

  0
LINE
  5
28
330
26
100
AcDbEntity
  8
0
  6
ByBlock
 62
     0
100
AcDbLine
 10
-1.0
 20
0.26794919
 30
0.0
 11
0.0
 21
0.0
 31
0.0
  0
LINE
  5
29
330
26
100
AcDbEntity
  8
0
  6
ByBlock
 62
     0
100
AcDbLine
 10
0.0
 20
0.0
 30
0.0
 11
-1.0
 21
-0.26794919
 31
0.0
  0
LINE
  5
2A
330
26
100
AcDbEntity
  8
0
  6
ByBlock
 62
     0
100
AcDbLine
 10
0.0
 20
0.0
 30
0.0
 11
-1.0
 21
0.0
 31
0.0
  0
ENDBLK
  5
2B
330
26
100
AcDbEntity
  8
0
100
AcDbBlockEnd
  0
BLOCK
  5
55
330
54
100
AcDbEntity
  8
0
100
AcDbBlockBegin
  2
*D1
 70
     1
 10
0.0
 20
0.0
 30
0.0
  3
*D1
  1

  0
LINE
  5
56
330
54
100
AcDbEntity
  8
SUNPO
 62
     0
370
    -2
100
AcDbLine
 10
54.32068128749341
 20
215.0951898497122
 30
0.0
 11
62.32068128749342
 21
215.0951898497122
 31
0.0
  0
LINE
  5
57
330
54
100
AcDbEntity
  8
SUNPO
 62
     0
370
    -2
100
AcDbLine
 10
54.32068128749341
 20
195.0951898497122
 30
0.0
 11
62.32068128749341
 21
195.0951898497122
 31
0.0
  0
LINE
  5
58
330
54
100
AcDbEntity
  8
SUNPO
 62
     0
370
    -2
100
AcDbLine
 10
60.32068128749342
 20
213.0951898497122
 30
0.0
 11
60.32068128749341
 21
197.0951898497122
 31
0.0
  0
INSERT
  5
59
330
54
100
AcDbEntity
  8
SUNPO
 62
     0
370
    -2
100
AcDbBlockReference
  2
_OPEN30
 10
60.32068128749342
 20
215.0951898497122
 30
0.0
 41
2.0
 42
2.0
 43
2.0
 50
90.0
  0
INSERT
  5
5A
330
54
100
AcDbEntity
  8
SUNPO
 62
     0
370
    -2
100
AcDbBlockReference
  2
_OPEN30
 10
60.32068128749341
 20
195.0951898497122
 30
0.0
 41
2.0
 42
2.0
 43
2.0
 50
270.0
  0
MTEXT
  5
5B
330
54
100
AcDbEntity
  8
SUNPO
 62
     0
100
AcDbMText
 10
58.57068128749339
 20
205.0951898497122
 30
0.0
 40
2.5
 41
0.0
 71
     5
 72
     1
  1
\A1;100
 11
0.0000000000000001
 21
1.0
 31
0.0
 73
     1
 44
1.0
1001
ACAD
1000
MTEXTBEGIN
1070
    73
1070
     1
1070
    44
1040
1.0
1070
    74
1070
     0
1000
MTEXTEND
  0
POINT
  5
5C
330
54
100
AcDbEntity
  8
DEFPOINTS
 62
     0
100
AcDbPoint
 10
52.32068128749341
 20
215.0951898497122
 30
0.0
  0
POINT
  5
5D
330
54
100
AcDbEntity
  8
DEFPOINTS
 62
     0
100
AcDbPoint
 10
52.32068128749341
 20
195.0951898497122
 30
0.0
  0
POINT
  5
5E
330
54
100
AcDbEntity
  8
DEFPOINTS
 62
     0
100
AcDbPoint
 10
60.32068128749341
 20
195.0951898497122
 30
0.0
  0
ENDBLK
  5
5F
330
54
100
AcDbEntity
  8
0
100
AcDbBlockEnd
  0
BLOCK
  5
48
330
47
100
AcDbEntity
  8
0
100
AcDbBlockBegin
  2
*D2
 70
     1
 10
0.0
 20
0.0
 30
0.0
  3
*D2
  1

  0
LINE
  5
49
330
47
100
AcDbEntity
  8
SUNPO
 62
     0
370
    -2
100
AcDbLine
 10
32.32067928749341
 20
193.1462031876943
 30
0.0
 11
32.32067928749341
 21
185.1462031876943
 31
0.0
  0
LINE
  5
4A
330
47
100
AcDbEntity
  8
SUNPO
 62
     0
370
    -2
100
AcDbLine
 10
52.3206812874934
 20
193.1462031876943
 30
0.0
 11
52.3206812874934
 21
185.1462031876943
 31
0.0
  0
LINE
  5
4B
330
47
100
AcDbEntity
  8
SUNPO
 62
     0
370
    -2
100
AcDbLine
 10
34.32067928749341
 20
187.1462031876943
 30
0.0
 11
50.3206812874934
 21
187.1462031876943
 31
0.0
  0
INSERT
  5
4C
330
47
100
AcDbEntity
  8
SUNPO
 62
     0
370
    -2
100
AcDbBlockReference
  2
_OPEN30
 10
32.32067928749341
 20
187.1462031876943
 30
0.0
 41
2.0
 42
2.0
 43
2.0
 50
180.0
  0
INSERT
  5
4D
330
47
100
AcDbEntity
  8
SUNPO
 62
     0
370
    -2
100
AcDbBlockReference
  2
_OPEN30
 10
52.3206812874934
 20
187.1462031876943
 30
0.0
 41
2.0
 42
2.0
 43
2.0
  0
MTEXT
  5
4E
330
47
100
AcDbEntity
  8
SUNPO
 62
     0
100
AcDbMText
 10
42.32068028749341
 20
188.8962031876943
 30
0.0
 40
2.5
 41
0.0
 71
     5
 72
     1
  1
\A1;100
 73
     1
 44
1.0
1001
ACAD
1000
MTEXTBEGIN
1070
    73
1070
     1
1070
    44
1040
1.0
1070
    74
1070
     0
1000
MTEXTEND
  0
POINT
  5
4F
330
47
100
AcDbEntity
  8
DEFPOINTS
 62
     0
100
AcDbPoint
 10
32.32067928749341
 20
195.1462031876943
 30
0.0
  0
POINT
  5
50
330
47
100
AcDbEntity
  8
DEFPOINTS
 62
     0
100
AcDbPoint
 10
52.3206812874934
 20
195.1462031876943
 30
0.0
  0
POINT
  5
51
330
47
100
AcDbEntity
  8
DEFPOINTS
 62
     0
100
AcDbPoint
 10
52.3206812874934
 20
187.1462031876943
 30
0.0
  0
ENDBLK
  5
52
330
47
100
AcDbEntity
  8
0
100
AcDbBlockEnd
  0
BLOCK
  5
3A
330
39
100
AcDbEntity
  8
0
100
AcDbBlockBegin
  2
*D3
 70
     1
 10
0.0
 20
0.0
 30
0.0
  3
*D3
  1

  0
LINE
  5
3B
330
39
100
AcDbEntity
  8
SUNPO
 62
     0
370
    -2
100
AcDbLine
 10
85.40435330361805
 20
193.1808701532366
 30
0.0
 11
85.40435330361807
 21
185.1462031876943
 31
0.0
  0
LINE
  5
3C
330
39
100
AcDbEntity
  8
SUNPO
 62
     0
370
    -2
100
AcDbLine
 10
70.70435330361807
 20
193.1808701532366
 30
0.0
 11
70.70435330361807
 21
185.1462031876942
 31
0.0
  0
LINE
  5
3D
330
39
100
AcDbEntity
  8
SUNPO
 62
     0
370
    -2
100
AcDbLine
 10
83.40435330361806
 20
187.1462031876943
 30
0.0
 11
72.70435330361808
 21
187.1462031876943
 31
0.0
  0
INSERT
  5
3E
330
39
100
AcDbEntity
  8
SUNPO
 62
     0
370
    -2
100
AcDbBlockReference
  2
_OPEN30
 10
85.40435330361807
 20
187.1462031876943
 30
0.0
 41
2.0
 42
2.0
 43
2.0
 50
0.0000000000000799
  0
INSERT
  5
3F
330
39
100
AcDbEntity
  8
SUNPO
 62
     0
370
    -2
100
AcDbBlockReference
  2
_OPEN30
 10
70.70435330361807
 20
187.1462031876942
 30
0.0
 41
2.0
 42
2.0
 43
2.0
 50
180.0000000000001
  0
MTEXT
  5
40
330
39
100
AcDbEntity
  8
SUNPO
 62
     0
100
AcDbMText
 10
78.05435330361806
 20
188.8962031876943
 30
0.0
 40
2.5
 41
0.0
 71
     5
 72
     1
  1
\A1;73.5
 73
     1
 44
1.0
1001
ACAD
1000
MTEXTBEGIN
1070
    73
1070
     1
1070
    44
1040
1.0
1070
    74
1070
     0
1000
MTEXTEND
  0
POINT
  5
41
330
39
100
AcDbEntity
  8
DEFPOINTS
 62
     0
100
AcDbPoint
 10
85.40435330361805
 20
195.1808701532366
 30
0.0
  0
POINT
  5
43
330
39
100
AcDbEntity
  8
DEFPOINTS
 62
     0
100
AcDbPoint
 10
70.70435330361807
 20
195.1808701532366
 30
0.0
  0
POINT
  5
44
330
39
100
AcDbEntity
  8
DEFPOINTS
 62
     0
100
AcDbPoint
 10
70.70435330361807
 20
187.1462031876942
 30
0.0
  0
ENDBLK
  5
45
330
39
100
AcDbEntity
  8
0
100
AcDbBlockEnd
  0
BLOCK
  5
2AF
330
2A5
100
AcDbEntity
  8
0
100
AcDbBlockBegin
  2
*D4
 70
     1
 10
0.0
 20
0.0
 30
0.0
  3
*D4
  1

  0
LINE
  5
2A6
330
2A5
100
AcDbEntity
  8
SUNPO
 62
     0
370
    -2
100
AcDbLine
 10
-7.673242781482996
 20
26.74903186989814
 30
0.0
 11
0.3267572185170066
 21
26.74903186989814
 31
0.0
  0
LINE
  5
2A7
330
2A5
100
AcDbEntity
  8
SUNPO
 62
     0
370
    -2
100
AcDbLine
 10
-7.673242781482997
 20
6.749031869898146
 30
0.0
 11
0.3267572185170022
 21
6.749031869898144
 31
0.0
  0
LINE
  5
2A8
330
2A5
100
AcDbEntity
  8
SUNPO
 62
     0
370
    -2
100
AcDbLine
 10
-1.673242781482993
 20
24.74903186989815
 30
0.0
 11
-1.673242781482997
 21
8.749031869898143
 31
0.0
  0
INSERT
  5
2A9
330
2A5
100
AcDbEntity
  8
SUNPO
 62
     0
370
    -2
100
AcDbBlockReference
  2
_OPEN30
 10
-1.673242781482993
 20
26.74903186989814
 30
0.0
 41
2.0
 42
2.0
 43
2.0
 50
90.0
  0
INSERT
  5
2AA
330
2A5
100
AcDbEntity
  8
SUNPO
 62
     0
370
    -2
100
AcDbBlockReference
  2
_OPEN30
 10
-1.673242781482997
 20
6.749031869898144
 30
0.0
 41
2.0
 42
2.0
 43
2.0
 50
270.0
  0
MTEXT
  5
2AB
330
2A5
100
AcDbEntity
  8
SUNPO
 62
     0
100
AcDbMText
 10
-3.423242781482998
 20
16.74903186989814
 30
0.0
 40
2.5
 41
0.0
 71
     5
 72
     1
  1
\A1;100
 11
0.0000000000000001
 21
1.0
 31
0.0
 73
     1
 44
1.0
1001
ACAD
1000
MTEXTBEGIN
1070
    73
1070
     1
1070
    44
1040
1.0
1070
    74
1070
     0
1000
MTEXTEND
  0
POINT
  5
2AC
330
2A5
100
AcDbEntity
  8
DEFPOINTS
 62
     0
100
AcDbPoint
 10
-9.673242781482997
 20
26.74903186989815
 30
0.0
  0
POINT
  5
2AD
330
2A5
100
AcDbEntity
  8
DEFPOINTS
 62
     0
100
AcDbPoint
 10
-9.673242781482997
 20
6.749031869898146
 30
0.0
  0
POINT
  5
2AE
330
2A5
100
AcDbEntity
  8
DEFPOINTS
 62
     0
100
AcDbPoint
 10
-1.673242781482997
 20
6.749031869898144
 30
0.0
  0
ENDBLK
  5
2B0
330
2A5
100
AcDbEntity
  8
0
100
AcDbBlockEnd
  0
BLOCK
  5
2BB
330
2B1
100
AcDbEntity
  8
0
100
AcDbBlockBegin
  2
*D5
 70
     1
 10
0.0
 20
0.0
 30
0.0
  3
*D5
  1

  0
LINE
  5
2B2
330
2B1
100
AcDbEntity
  8
SUNPO
 62
     0
370
    -2
100
AcDbLine
 10
-29.673244781483
 20
4.800045207880231
 30
0.0
 11
-29.673244781483
 21
-3.199954792119768
 31
0.0
  0
LINE
  5
2B3
330
2B1
100
AcDbEntity
  8
SUNPO
 62
     0
370
    -2
100
AcDbLine
 10
-9.673242781483004
 20
4.800045207880231
 30
0.0
 11
-9.673242781483004
 21
-3.199954792119768
 31
0.0
  0
LINE
  5
2B4
330
2B1
100
AcDbEntity
  8
SUNPO
 62
     0
370
    -2
100
AcDbLine
 10
-27.673244781483
 20
-1.199954792119768
 30
0.0
 11
-11.673242781483
 21
-1.199954792119768
 31
0.0
  0
INSERT
  5
2B5
330
2B1
100
AcDbEntity
  8
SUNPO
 62
     0
370
    -2
100
AcDbBlockReference
  2
_OPEN30
 10
-29.673244781483
 20
-1.199954792119768
 30
0.0
 41
2.0
 42
2.0
 43
2.0
 50
180.0
  0
INSERT
  5
2B6
330
2B1
100
AcDbEntity
  8
SUNPO
 62
     0
370
    -2
100
AcDbBlockReference
  2
_OPEN30
 10
-9.673242781483004
 20
-1.199954792119768
 30
0.0
 41
2.0
 42
2.0
 43
2.0
  0
MTEXT
  5
2B7
330
2B1
100
AcDbEntity
  8
SUNPO
 62
     0
100
AcDbMText
 10
-19.673243781483
 20
0.5500452078802314
 30
0.0
 40
2.5
 41
0.0
 71
     5
 72
     1
  1
\A1;100
 73
     1
 44
1.0
1001
ACAD
1000
MTEXTBEGIN
1070
    73
1070
     1
1070
    44
1040
1.0
1070
    74
1070
     0
1000
MTEXTEND
  0
POINT
  5
2B8
330
2B1
100
AcDbEntity
  8
DEFPOINTS
 62
     0
100
AcDbPoint
 10
-29.673244781483
 20
6.800045207880231
 30
0.0
  0
POINT
  5
2B9
330
2B1
100
AcDbEntity
  8
DEFPOINTS
 62
     0
100
AcDbPoint
 10
-9.673242781483004
 20
6.800045207880231
 30
0.0
  0
POINT
  5
2BA
330
2B1
100
AcDbEntity
  8
DEFPOINTS
 62
     0
100
AcDbPoint
 10
-9.673242781483004
 20
-1.199954792119768
 30
0.0
  0
ENDBLK
  5
2BC
330
2B1
100
AcDbEntity
  8
0
100
AcDbBlockEnd
  0
BLOCK
  5
2C7
330
2BD
100
AcDbEntity
  8
0
100
AcDbBlockBegin
  2
*D6
 70
     1
 10
0.0
 20
0.0
 30
0.0
  3
*D6
  1

  0
LINE
  5
2BE
330
2BD
100
AcDbEntity
  8
SUNPO
 62
     0
370
    -2
100
AcDbLine
 10
23.41042923464164
 20
4.834712173422559
 30
0.0
 11
23.41042923464166
 21
-3.19995479211977
 31
0.0
  0
LINE
  5
2BF
330
2BD
100
AcDbEntity
  8
SUNPO
 62
     0
370
    -2
100
AcDbLine
 10
8.710429234641654
 20
4.834712173422531
 30
0.0
 11
8.710429234641669
 21
-3.199954792119796
 31
0.0
  0
LINE
  5
2C0
330
2BD
100
AcDbEntity
  8
SUNPO
 62
     0
370
    -2
100
AcDbLine
 10
21.41042923464166
 20
-1.199954792119774
 30
0.0
 11
10.71042923464166
 21
-1.199954792119793
 31
0.0
  0
INSERT
  5
2C1
330
2BD
100
AcDbEntity
  8
SUNPO
 62
     0
370
    -2
100
AcDbBlockReference
  2
_OPEN30
 10
23.41042923464165
 20
-1.199954792119771
 30
0.0
 41
2.0
 42
2.0
 43
2.0
 50
0.0000000000000799
  0
INSERT
  5
2C2
330
2BD
100
AcDbEntity
  8
SUNPO
 62
     0
370
    -2
100
AcDbBlockReference
  2
_OPEN30
 10
8.710429234641665
 20
-1.199954792119797
 30
0.0
 41
2.0
 42
2.0
 43
2.0
 50
180.0000000000001
  0
MTEXT
  5
2C3
330
2BD
100
AcDbEntity
  8
SUNPO
 62
     0
100
AcDbMText
 10
16.06042923464165
 20
0.5500452078802157
 30
0.0
 40
2.5
 41
0.0
 71
     5
 72
     1
  1
\A1;73.5
 73
     1
 44
1.0
1001
ACAD
1000
MTEXTBEGIN
1070
    73
1070
     1
1070
    44
1040
1.0
1070
    74
1070
     0
1000
MTEXTEND
  0
POINT
  5
2C4
330
2BD
100
AcDbEntity
  8
DEFPOINTS
 62
     0
100
AcDbPoint
 10
23.41042923464164
 20
6.834712173422559
 30
0.0
  0
POINT
  5
2C5
330
2BD
100
AcDbEntity
  8
DEFPOINTS
 62
     0
100
AcDbPoint
 10
8.710429234641651
 20
6.834712173422531
 30
0.0
  0
POINT
  5
2C6
330
2BD
100
AcDbEntity
  8
DEFPOINTS
 62
     0
100
AcDbPoint
 10
8.710429234641665
 20
-1.199954792119797
 30
0.0
  0
ENDBLK
  5
2C8
330
2BD
100
AcDbEntity
  8
0
100
AcDbBlockEnd
  0
ENDSEC
  0
SECTION
  2
ENTITIES
  0
TEXT
  5
34
330
2
100
AcDbEntity
  8
MOJI1
100
AcDbText
 10
-32.9939240689763
 20
52.15305615982791
 30
0.0
 40
4.0
  1
屋内タイプ　ネットワークカメラ
100
AcDbText
  0
TEXT
  5
35
330
2
100
AcDbEntity
  8
TOUROKU
100
AcDbText
 10
47.1393592972842
 20
46.15305615982776
 30
0.0
 40
2.0
  1
ＢＢＨＣＭ３１１
 72
     2
 11
65.00602596395087
 21
46.15305615982776
 31
0.0
100
AcDbText
  0
DIMENSION
  5
37
330
2
100
AcDbEntity
  8
SUNPO
100
AcDbDimension
  2
*D6
 10
8.710429234641665
 20
-1.199954792119797
 30
0.0
 11
16.06042923464165
 21
0.5500452078802157
 31
0.0
 70
    33
  1
73.5
 71
     5
 42
14.69999999999999
  3
STANDARD
100
AcDbAlignedDimension
 13
23.41042923464164
 23
6.834712173422559
 33
0.0
 14
8.710429234641651
 24
6.834712173422531
 34
0.0
1001
ACAD
1000
DSTYLE
1002
{
1070
    40
1040
1.0
1070
   140
1040
2.5
1070
   147
1040
0.5
1070
   172
1070
     1
1070
   279
1070
     0
1070
   288
1070
     0
1002
}
  0
DIMENSION
  5
46
330
2
100
AcDbEntity
  8
SUNPO
100
AcDbDimension
  2
*D5
 10
-9.673242781483004
 20
-1.199954792119768
 30
0.0
 11
-19.673243781483
 21
0.5500452078802314
 31
0.0
 70
    33
  1
100
 71
     5
 42
20.000002
  3
STANDARD
100
AcDbAlignedDimension
 13
-29.673244781483
 23
6.800045207880231
 33
0.0
 14
-9.673242781483004
 24
6.800045207880231
 34
0.0
1001
ACAD
1000
DSTYLE
1002
{
1070
    40
1040
1.0
1070
   140
1040
2.5
1070
   147
1040
0.5
1070
   172
1070
     1
1070
   279
1070
     0
1070
   288
1070
     0
1002
}
  0
DIMENSION
  5
53
330
2
100
AcDbEntity
  8
SUNPO
100
AcDbDimension
  2
*D4
 10
-1.673242781482997
 20
6.749031869898144
 30
0.0
 11
-3.423242781482998
 21
16.74903186989814
 31
0.0
 70
    33
  1
100
 71
     5
 42
20.0
  3
STANDARD
100
AcDbAlignedDimension
 13
-9.673242781482997
 23
26.74903186989815
 33
0.0
 14
-9.673242781482997
 24
6.749031869898146
 34
0.0
1001
ACAD
1000
DSTYLE
1002
{
1070
    40
1040
1.0
1070
   140
1040
2.5
1070
   147
1040
0.5
1070
   172
1070
     1
1070
   279
1070
     0
1070
   288
1070
     0
1002
}
  0
ARC
  5
60
330
2
100
AcDbEntity
  8
GAIKEI
 62
     1
100
AcDbCircle
 10
41.09433087469215
 20
16.7676487249962
 30
0.0
 40
27.16287397606031
100
AcDbArc
 50
165.0158380726004
 51
180.0391343117309
  0
ARC
  5
62
330
2
100
AcDbEntity
  8
GAIKEI
 62
     1
100
AcDbCircle
 10
14.95141422682658
 20
26.42775246824897
 30
0.0
 40
0.2196415971317068
100
AcDbArc
 50
9.517901491549434
 51
65.53074992174439
  0
ARC
  5
63
330
2
100
AcDbEntity
  8
GAIKEI
 62
     1
100
AcDbCircle
 10
13.20278828055967
 20
25.95927858026812
 30
0.0
 40
2.027326278365749
100
AcDbArc
 50
354.3219666270841
 51
14.96572435430299
  0
ARC
  5
64
330
2
100
AcDbEntity
  8
GAIKEI
 62
     1
100
AcDbCircle
 10
6.043922933131455
 20
26.44268907750063
 30
0.0
 40
9.201602728616782
100
AcDbArc
 50
343.2489814253893
 51
355.7651910899433
  0
ARC
  5
65
330
2
100
AcDbEntity
  8
GAIKEI
 62
     1
100
AcDbCircle
 10
41.09433087469215
 20
16.73041501480006
 30
0.0
 40
27.16287397606031
100
AcDbArc
 50
179.960865688269
 51
194.9841619273995
  0
ARC
  5
66
330
2
100
AcDbEntity
  8
GAIKEI
 62
     1
100
AcDbCircle
 10
6.043922933131455
 20
7.055374662295633
 30
0.0
 40
9.201602728616782
100
AcDbArc
 50
4.234808910056718
 51
16.75101857461073
  0
ARC
  5
67
330
2
100
AcDbEntity
  8
GAIKEI
 62
     1
100
AcDbCircle
 10
13.20278828055967
 20
7.538785159528146
 30
0.0
 40
2.027326278365749
100
AcDbArc
 50
345.034275645697
 51
5.6780333729159
  0
ARC
  5
68
330
2
100
AcDbEntity
  8
GAIKEI
 62
     1
100
AcDbCircle
 10
14.95141422682658
 20
7.070311271547296
 30
0.0
 40
0.2196415971317068
100
AcDbArc
 50
294.4692500782556
 51
350.4820985084506
  0
ARC
  5
69
330
2
100
AcDbEntity
  8
GAIKEI
  6
Continuous
100
AcDbCircle
 10
13.95228225066247
 20
26.17773208919772
 30
0.0
 40
0.4
100
AcDbArc
 50
92.99998736691291
 51
161.4255178509892
  0
ARC
  5
6A
330
2
100
AcDbEntity
  8
GAIKEI
  6
Continuous
100
AcDbCircle
 10
13.95228156653135
 20
7.320333686452187
 30
0.0
 40
0.4
100
AcDbArc
 50
198.5744779917217
 51
267.0000126330863
  0
ARC
  5
6B
330
2
100
AcDbEntity
  8
GAIKEI
  6
Continuous
 62
     1
100
AcDbCircle
 10
23.85640063464166
 20
17.92752194170751
 30
0.0
 40
0.2
100
AcDbArc
 50
0.0
 51
97.47892710243988
  0
ARC
  5
6C
330
2
100
AcDbEntity
  8
GAIKEI
  6
Continuous
 62
     1
100
AcDbCircle
 10
23.85640063464166
 20
17.44939219808873
 30
0.0
 40
0.2
100
AcDbArc
 50
262.5210728975602
 51
0.0
  0
ARC
  5
6D
330
2
100
AcDbEntity
  8
GAIKEI
  6
Continuous
100
AcDbCircle
 10
24.81042923464165
 20
19.37034950886488
 30
0.0
 40
0.2
100
AcDbArc
 50
272.500072334203
 51
0.0
  0
ARC
  5
6E
330
2
100
AcDbEntity
  8
GAIKEI
  6
Continuous
100
AcDbCircle
 10
24.81042923464165
 20
25.54771623093137
 30
0.0
 40
0.2
100
AcDbArc
 50
0.0
 51
87.50000885524615
  0
ARC
  5
6F
330
2
100
AcDbEntity
  8
GAIKEI
  6
Continuous
100
AcDbCircle
 10
26.33852923464164
 20
18.24949206989814
 30
0.0
 40
0.4
100
AcDbArc
 50
270.0
 51
0.0
  0
ARC
  5
70
330
2
100
AcDbEntity
  8
GAIKEI
  6
Continuous
100
AcDbCircle
 10
26.33852923464164
 20
26.44857126989814
 30
0.0
 40
0.4
100
AcDbArc
 50
0.0000000000000509
 51
90.0
  0
ARC
  5
71
330
2
100
AcDbEntity
  8
GAIKEI
100
AcDbCircle
 10
28.21059283464166
 20
23.14954427730612
 30
0.0
 40
0.1
100
AcDbArc
 50
180.0000000000004
 51
206.4923504611392
  0
ARC
  5
72
330
2
100
AcDbEntity
  8
GAIKEI
100
AcDbCircle
 10
25.42632368354083
 20
21.76182298776288
 30
0.0
 40
3.01093636759469
100
AcDbArc
 50
22.52952532877129
 51
26.49235046113899
  0
ARC
  5
73
330
2
100
AcDbEntity
  8
GAIKEI
100
AcDbCircle
 10
26.87281494688372
 20
22.36112862358329
 30
0.0
 40
1.44520864925955
100
AcDbArc
 50
1.767956811542738
 51
22.55604301318156
  0
ARC
  5
74
330
2
100
AcDbEntity
  8
GAIKEI
  6
Continuous
100
AcDbCircle
 10
28.41735763464166
 20
20.94918526989812
 30
0.0
 40
0.1
100
AcDbArc
 50
179.9999999999999
 51
270.0
  0
ELLIPSE
  5
75
330
2
100
AcDbEntity
  8
GAIKEI
 62
     1
100
AcDbEllipse
 10
25.46329798294408
 20
34.88806912185265
 30
0.0
 11
0.993949251697564
 21
-0.0848234273068558
 31
0.0
210
0.0
220
0.0
230
1.0
 40
0.1510105298288553
 41
0.0
 42
6.283185307179586
  0
ARC
  5
76
330
2
100
AcDbEntity
  8
GAIKEI
  6
Continuous
100
AcDbCircle
 10
39.11042923464166
 20
35.65241966989814
 30
0.0
 40
0.6000000000000001
100
AcDbArc
 50
280.007979999997
 51
0.0
  0
ARC
  5
77
330
2
100
AcDbEntity
  8
GAIKEI
  6
Continuous
100
AcDbCircle
 10
20.31042923464164
 20
35.65241966989814
 30
0.0
 40
0.6000000000000001
100
AcDbArc
 50
180.0
 51
259.9920199999967
  0
ARC
  5
78
330
2
100
AcDbEntity
  8
GAIKEI
  6
Continuous
100
AcDbCircle
 10
24.81227323464165
 20
32.21780366989813
 30
0.0
 40
2.0
100
AcDbArc
 50
11.11304099999972
 51
79.99201999999666
  0
LINE
  5
79
330
2
100
AcDbEntity
  8
GAIKEI
  6
Continuous
100
AcDbLine
 10
39.71043123464165
 20
35.65241966989814
 30
0.0
 11
39.71043123464165
 21
36.34903166989813
 31
0.0
  0
LINE
  5
7A
330
2
100
AcDbEntity
  8
GAIKEI
  6
Continuous
100
AcDbLine
 10
19.71042923464165
 20
36.34903166989813
 30
0.0
 11
19.71042923464165
 21
35.65241966989814
 31
0.0
  0
LINE
  5
7B
330
2
100
AcDbEntity
  8
GAIKEI
  6
Continuous
100
AcDbLine
 10
27.06042923464165
 20
31.14903166989814
 30
0.0
 11
26.77477123464166
 21
32.60329166989814
 31
0.0
  0
LINE
  5
7C
330
2
100
AcDbEntity
  8
GAIKEI
  6
Continuous
100
AcDbLine
 10
32.36043123464166
 20
31.14903166989814
 30
0.0
 11
32.64608923464166
 21
32.60329166989814
 31
0.0
  0
LINE
  5
7D
330
2
100
AcDbEntity
  8
GAIKEI
  6
Continuous
100
AcDbLine
 10
25.15984323464164
 20
34.18736966989815
 30
0.0
 11
20.20616323464165
 21
35.06154966989814
 31
0.0
  0
LINE
  5
7E
330
2
100
AcDbEntity
  8
GAIKEI
  6
Continuous
100
AcDbLine
 10
34.26101723464166
 20
34.18736966989815
 30
0.0
 11
39.21469723464165
 21
35.06154966989814
 31
0.0
  0
LINE
  5
7F
330
2
100
AcDbEntity
  8
GAIKEI
  6
Continuous
100
AcDbLine
 10
39.71043123464165
 20
36.34903166989813
 30
0.0
 11
19.71042923464165
 21
36.34903166989813
 31
0.0
  0
LINE
  5
80
330
2
100
AcDbEntity
  8
GAIKEI
  6
Continuous
100
AcDbLine
 10
27.06042923464165
 20
31.14903166989814
 30
0.0
 11
32.36043123464166
 21
31.14903166989814
 31
0.0
  0
ARC
  5
81
330
2
100
AcDbEntity
  8
GAIKEI
  6
Continuous
100
AcDbCircle
 10
34.60858923464167
 20
32.21780366989813
 30
0.0
 40
2.0
100
AcDbArc
 50
100.0079800000033
 51
168.8869590000003
  0
LINE
  5
82
330
2
100
AcDbEntity
  8
GAIKEI
 62
     1
100
AcDbLine
 10
19.71042923464165
 20
35.65241966989814
 30
0.0
 11
39.71043123464165
 21
35.65241966989814
 31
0.0
  0
ELLIPSE
  5
83
330
2
100
AcDbEntity
  8
GAIKEI
 62
     1
100
AcDbEllipse
 10
-12.322502934879
 20
34.89506432948275
 30
0.0
 11
-0.9889958466039846
 21
-0.1574284595846166
 31
0.0
210
0.0
220
0.0
230
-1.0
 40
0.0824553939839539
 41
0.0
 42
6.283185307179586
  0
ELLIPSE
  5
84
330
2
100
AcDbEntity
  8
GAIKEI
 62
     1
100
AcDbEllipse
 10
-27.02398462808691
 20
34.89506432948275
 30
0.0
 11
0.9889958466039846
 21
-0.1574284595846166
 31
0.0
210
0.0
220
0.0
230
1.0
 40
0.0824553939839539
 41
0.0
 42
6.283185307179586
  0
LINE
  5
85
330
2
100
AcDbEntity
  8
GAIKEI
 62
     1
100
AcDbLine
 10
-29.67324478148299
 20
35.65241986989813
 30
0.0
 11
-9.673242781482997
 21
35.65241986989813
 31
0.0
  0
ARC
  5
86
330
2
100
AcDbEntity
  8
GAIKEI
  6
Continuous
100
AcDbCircle
 10
-14.77508478148297
 20
32.21780386989812
 30
0.0
 40
2.0
100
AcDbArc
 50
100.0079800000033
 51
168.8869590000003
  0
CIRCLE
  5
87
330
2
100
AcDbEntity
  8
GAIKEI
 62
     1
100
AcDbCircle
 10
-19.67324614875596
 20
16.74901794479052
 30
0.0
 40
6.019486161369495
  0
CIRCLE
  5
88
330
2
100
AcDbEntity
  8
GAIKEI
 62
     1
100
AcDbCircle
 10
-19.673242781483
 20
16.74903186989815
 30
0.0
 40
7.505714199999999
  0
CIRCLE
  5
89
330
2
100
AcDbEntity
  8
GAIKEI
 62
     1
100
AcDbCircle
 10
-19.67322571163007
 20
16.74896347043008
 30
0.0
 40
8.178472097320192
  0
LINE
  5
8A
330
2
100
AcDbEntity
  8
GAIKEI
  6
Continuous
 62
     1
100
AcDbLine
 10
-13.52115218148296
 20
9.71136946989813
 30
0.0
 11
-13.52324478148299
 21
9.749031869898146
 31
0.0
  0
LINE
  5
8B
330
2
100
AcDbEntity
  8
GAIKEI
  6
Continuous
 62
     1
100
AcDbLine
 10
-13.51826078148298
 20
9.673759869898134
 30
0.0
 11
-13.52115218148296
 21
9.71136946989813
 31
0.0
  0
LINE
  5
8C
330
2
100
AcDbEntity
  8
GAIKEI
  6
Continuous
 62
     1
100
AcDbLine
 10
-13.51613078148298
 20
9.645101069898146
 30
0.0
 11
-13.51826078148298
 21
9.673759869898134
 31
0.0
  0
LINE
  5
8D
330
2
100
AcDbEntity
  8
GAIKEI
  6
Continuous
 62
     1
100
AcDbLine
 10
-13.51275678148297
 20
9.616561869898134
 30
0.0
 11
-13.51613078148298
 21
9.645101069898146
 31
0.0
  0
LINE
  5
8E
330
2
100
AcDbEntity
  8
GAIKEI
  6
Continuous
 62
     1
100
AcDbLine
 10
-13.50999418148299
 20
9.598149469898146
 30
0.0
 11
-13.51275678148297
 21
9.616561869898134
 31
0.0
  0
LINE
  5
8F
330
2
100
AcDbEntity
  8
GAIKEI
  6
Continuous
 62
     1
100
AcDbLine
 10
-13.506770781483
 20
9.579811869898151
 30
0.0
 11
-13.50999418148299
 21
9.598149469898146
 31
0.0
  0
LINE
  5
90
330
2
100
AcDbEntity
  8
GAIKEI
  6
Continuous
 62
     1
100
AcDbLine
 10
-13.50337538148295
 20
9.56570846989814
 30
0.0
 11
-13.506770781483
 21
9.579811869898151
 31
0.0
  0
LINE
  5
91
330
2
100
AcDbEntity
  8
GAIKEI
  6
Continuous
 62
     1
100
AcDbLine
 10
-13.49989478148296
 20
9.551625869898145
 30
0.0
 11
-13.50337538148295
 21
9.56570846989814
 31
0.0
  0
LINE
  5
92
330
2
100
AcDbEntity
  8
GAIKEI
  6
Continuous
 62
     1
100
AcDbLine
 10
-13.49590658148298
 20
9.536130269898137
 30
0.0
 11
-13.49989478148296
 21
9.551625869898145
 31
0.0
  0
LINE
  5
93
330
2
100
AcDbEntity
  8
GAIKEI
  6
Continuous
 62
     1
100
AcDbLine
 10
-13.49164278148299
 20
9.520707869898132
 30
0.0
 11
-13.49590658148298
 21
9.536130269898137
 31
0.0
  0
LINE
  5
94
330
2
100
AcDbEntity
  8
GAIKEI
  6
Continuous
 62
     1
100
AcDbLine
 10
-13.48707298148298
 20
9.504338869898134
 30
0.0
 11
-13.49164278148299
 21
9.520707869898132
 31
0.0
  0
LINE
  5
95
330
2
100
AcDbEntity
  8
GAIKEI
  6
Continuous
 62
     1
100
AcDbLine
 10
-13.48211878148297
 20
9.488081869898138
 30
0.0
 11
-13.48707298148298
 21
9.504338869898134
 31
0.0
  0
LINE
  5
96
330
2
100
AcDbEntity
  8
GAIKEI
  6
Continuous
 62
     1
100
AcDbLine
 10
-13.47691698148298
 20
9.472334669898117
 30
0.0
 11
-13.48211878148297
 21
9.488081869898138
 31
0.0
  0
LINE
  5
97
330
2
100
AcDbEntity
  8
GAIKEI
  6
Continuous
 62
     1
100
AcDbLine
 10
-13.47140278148296
 20
9.456693869898145
 30
0.0
 11
-13.47691698148298
 21
9.472334669898117
 31
0.0
  0
LINE
  5
98
330
2
100
AcDbEntity
  8
GAIKEI
  6
Continuous
 62
     1
100
AcDbLine
 10
-13.46561338148299
 20
9.441453269898147
 30
0.0
 11
-13.47140278148296
 21
9.456693869898145
 31
0.0
  0
LINE
  5
99
330
2
100
AcDbEntity
  8
GAIKEI
  6
Continuous
 62
     1
100
AcDbLine
 10
-13.45954878148296
 20
9.426319869898122
 30
0.0
 11
-13.46561338148299
 21
9.441453269898147
 31
0.0
  0
LINE
  5
9A
330
2
100
AcDbEntity
  8
GAIKEI
  6
Continuous
 62
     1
100
AcDbLine
 10
-13.45316798148298
 20
9.411249869898142
 30
0.0
 11
-13.45954878148296
 21
9.426319869898122
 31
0.0
  0
LINE
  5
9B
330
2
100
AcDbEntity
  8
GAIKEI
  6
Continuous
 62
     1
100
AcDbLine
 10
-13.44649678148298
 20
9.396305869898128
 30
0.0
 11
-13.45316798148298
 21
9.411249869898142
 31
0.0
  0
LINE
  5
9C
330
2
100
AcDbEntity
  8
GAIKEI
  6
Continuous
 62
     1
100
AcDbLine
 10
-13.43955218148295
 20
9.381446669898139
 30
0.0
 11
-13.44649678148298
 21
9.396305869898128
 31
0.0
  0
LINE
  5
9D
330
2
100
AcDbEntity
  8
GAIKEI
  6
Continuous
 62
     1
100
AcDbLine
 10
-13.43231478148297
 20
9.366727869898141
 30
0.0
 11
-13.43955218148295
 21
9.381446669898139
 31
0.0
  0
LINE
  5
9E
330
2
100
AcDbEntity
  8
GAIKEI
  6
Continuous
 62
     1
100
AcDbLine
 10
-13.42479378148297
 20
9.352207269898144
 30
0.0
 11
-13.43231478148297
 21
9.366727869898141
 31
0.0
  0
LINE
  5
9F
330
2
100
AcDbEntity
  8
GAIKEI
  6
Continuous
 62
     1
100
AcDbLine
 10
-13.41699478148297
 20
9.337833869898133
 30
0.0
 11
-13.42479378148297
 21
9.352207269898144
 31
0.0
  0
LINE
  5
A0
330
2
100
AcDbEntity
  8
GAIKEI
  6
Continuous
 62
     1
100
AcDbLine
 10
-13.40893538148299
 20
9.323645269898122
 30
0.0
 11
-13.41699478148297
 21
9.337833869898133
 31
0.0
  0
LINE
  5
A1
330
2
100
AcDbEntity
  8
GAIKEI
  6
Continuous
 62
     1
100
AcDbLine
 10
-13.40060878148296
 20
9.309611869898134
 30
0.0
 11
-13.40893538148299
 21
9.323645269898122
 31
0.0
  0
LINE
  5
A2
330
2
100
AcDbEntity
  8
GAIKEI
  6
Continuous
 62
     1
100
AcDbLine
 10
-13.39200718148296
 20
9.295758269898129
 30
0.0
 11
-13.40060878148296
 21
9.309611869898134
 31
0.0
  0
LINE
  5
A3
330
2
100
AcDbEntity
  8
GAIKEI
  6
Continuous
 62
     1
100
AcDbLine
 10
-13.38314478148297
 20
9.282069869898123
 30
0.0
 11
-13.39200718148296
 21
9.295758269898129
 31
0.0
  0
LINE
  5
A4
330
2
100
AcDbEntity
  8
GAIKEI
  6
Continuous
 62
     1
100
AcDbLine
 10
-13.37403778148297
 20
9.268554669898151
 30
0.0
 11
-13.38314478148297
 21
9.282069869898123
 31
0.0
  0
LINE
  5
A5
330
2
100
AcDbEntity
  8
GAIKEI
  6
Continuous
 62
     1
100
AcDbLine
 10
-13.36467678148298
 20
9.255213869898113
 30
0.0
 11
-13.37403778148297
 21
9.268554669898151
 31
0.0
  0
LINE
  5
A6
330
2
100
AcDbEntity
  8
GAIKEI
  6
Continuous
 62
     1
100
AcDbLine
 10
-13.35505838148299
 20
9.242072469898118
 30
0.0
 11
-13.36467678148298
 21
9.255213869898113
 31
0.0
  0
LINE
  5
A7
330
2
100
AcDbEntity
  8
GAIKEI
  6
Continuous
 62
     1
100
AcDbLine
 10
-13.34519478148297
 20
9.229113869898128
 30
0.0
 11
-13.35505838148299
 21
9.242072469898118
 31
0.0
  0
LINE
  5
A8
330
2
100
AcDbEntity
  8
GAIKEI
  6
Continuous
 62
     1
100
AcDbLine
 10
-13.33510038148296
 20
9.216347269898136
 30
0.0
 11
-13.34519478148297
 21
9.229113869898128
 31
0.0
  0
LINE
  5
A9
330
2
100
AcDbEntity
  8
GAIKEI
  6
Continuous
 62
     1
100
AcDbLine
 10
-13.32476878148298
 20
9.203771869898133
 30
0.0
 11
-13.33510038148296
 21
9.216347269898136
 31
0.0
  0
LINE
  5
AA
330
2
100
AcDbEntity
  8
GAIKEI
  6
Continuous
 62
     1
100
AcDbLine
 10
-13.31419558148297
 20
9.19140806989813
 30
0.0
 11
-13.32476878148298
 21
9.203771869898133
 31
0.0
  0
LINE
  5
AB
330
2
100
AcDbEntity
  8
GAIKEI
  6
Continuous
 62
     1
100
AcDbLine
 10
-13.30339278148298
 20
9.17924386989813
 30
0.0
 11
-13.31419558148297
 21
9.19140806989813
 31
0.0
  0
LINE
  5
AC
330
2
100
AcDbEntity
  8
GAIKEI
  6
Continuous
 62
     1
100
AcDbLine
 10
-13.29237358148299
 20
9.167281869898118
 30
0.0
 11
-13.30339278148298
 21
9.17924386989813
 31
0.0
  0
LINE
  5
AD
330
2
100
AcDbEntity
  8
GAIKEI
  6
Continuous
 62
     1
100
AcDbLine
 10
-13.28113278148299
 20
9.155527869898122
 30
0.0
 11
-13.29237358148299
 21
9.167281869898118
 31
0.0
  0
LINE
  5
AE
330
2
100
AcDbEntity
  8
GAIKEI
  6
Continuous
 62
     1
100
AcDbLine
 10
-13.26966558148297
 20
9.143999669898136
 30
0.0
 11
-13.28113278148299
 21
9.155527869898122
 31
0.0
  0
LINE
  5
AF
330
2
100
AcDbEntity
  8
GAIKEI
  6
Continuous
 62
     1
100
AcDbLine
 10
-13.25798478148297
 20
9.13268786989812
 30
0.0
 11
-13.26966558148297
 21
9.143999669898136
 31
0.0
  0
LINE
  5
B0
330
2
100
AcDbEntity
  8
GAIKEI
  6
Continuous
 62
     1
100
AcDbLine
 10
-13.24610278148299
 20
9.121590669898125
 30
0.0
 11
-13.25798478148297
 21
9.13268786989812
 31
0.0
  0
LINE
  5
B1
330
2
100
AcDbEntity
  8
GAIKEI
  6
Continuous
 62
     1
100
AcDbLine
 10
-13.23401478148295
 20
9.110717869898138
 30
0.0
 11
-13.24610278148299
 21
9.121590669898125
 31
0.0
  0
LINE
  5
B2
330
2
100
AcDbEntity
  8
GAIKEI
  6
Continuous
 62
     1
100
AcDbLine
 10
-13.22171658148301
 20
9.100086469898144
 30
0.0
 11
-13.23401478148295
 21
9.110717869898138
 31
0.0
  0
LINE
  5
B3
330
2
100
AcDbEntity
  8
GAIKEI
  6
Continuous
 62
     1
100
AcDbLine
 10
-13.20922078148299
 20
9.089687869898114
 30
0.0
 11
-13.22171658148301
 21
9.100086469898144
 31
0.0
  0
LINE
  5
B4
330
2
100
AcDbEntity
  8
GAIKEI
  6
Continuous
 62
     1
100
AcDbLine
 10
-13.19653858148297
 20
9.079516469898123
 30
0.0
 11
-13.20922078148299
 21
9.089687869898114
 31
0.0
  0
LINE
  5
B5
330
2
100
AcDbEntity
  8
GAIKEI
  6
Continuous
 62
     1
100
AcDbLine
 10
-13.18366678148297
 20
9.069585869898133
 30
0.0
 11
-13.19653858148297
 21
9.079516469898123
 31
0.0
  0
LINE
  5
B6
330
2
100
AcDbEntity
  8
GAIKEI
  6
Continuous
 62
     1
100
AcDbLine
 10
-13.17059938148299
 20
9.059910069898137
 30
0.0
 11
-13.18366678148297
 21
9.069585869898133
 31
0.0
  0
LINE
  5
B7
330
2
100
AcDbEntity
  8
GAIKEI
  6
Continuous
 62
     1
100
AcDbLine
 10
-13.15735078148299
 20
9.050483869898158
 30
0.0
 11
-13.17059938148299
 21
9.059910069898137
 31
0.0
  0
LINE
  5
B8
330
2
100
AcDbEntity
  8
GAIKEI
  6
Continuous
 62
     1
100
AcDbLine
 10
-13.14392818148298
 20
9.041298069898118
 30
0.0
 11
-13.15735078148299
 21
9.050483869898158
 31
0.0
  0
LINE
  5
B9
330
2
100
AcDbEntity
  8
GAIKEI
  6
Continuous
 62
     1
100
AcDbLine
 10
-13.13033278148299
 20
9.032369869898133
 30
0.0
 11
-13.14392818148298
 21
9.041298069898118
 31
0.0
  0
LINE
  5
BA
330
2
100
AcDbEntity
  8
GAIKEI
  6
Continuous
 62
     1
100
AcDbLine
 10
-13.11655758148299
 20
9.023710869898138
 30
0.0
 11
-13.13033278148299
 21
9.032369869898133
 31
0.0
  0
LINE
  5
BB
330
2
100
AcDbEntity
  8
GAIKEI
  6
Continuous
 62
     1
100
AcDbLine
 10
-13.10261878148296
 20
9.015317869898126
 30
0.0
 11
-13.11655758148299
 21
9.023710869898138
 31
0.0
  0
LINE
  5
BC
330
2
100
AcDbEntity
  8
GAIKEI
  6
Continuous
 62
     1
100
AcDbLine
 10
-13.08851918148298
 20
9.00717686989816
 30
0.0
 11
-13.10261878148296
 21
9.015317869898126
 31
0.0
  0
LINE
  5
BD
330
2
100
AcDbEntity
  8
GAIKEI
  6
Continuous
 62
     1
100
AcDbLine
 10
-13.07426478148298
 20
8.999309869898127
 30
0.0
 11
-13.08851918148298
 21
9.00717686989816
 31
0.0
  0
LINE
  5
BE
330
2
100
AcDbEntity
  8
GAIKEI
  6
Continuous
 62
     1
100
AcDbLine
 10
-13.05984358148299
 20
8.991725269898154
 30
0.0
 11
-13.07426478148298
 21
8.999309869898127
 31
0.0
  0
LINE
  5
BF
330
2
100
AcDbEntity
  8
GAIKEI
  6
Continuous
 62
     1
100
AcDbLine
 10
-13.04527678148298
 20
8.984423869898137
 30
0.0
 11
-13.05984358148299
 21
8.991725269898154
 31
0.0
  0
LINE
  5
C0
330
2
100
AcDbEntity
  8
GAIKEI
  6
Continuous
 62
     1
100
AcDbLine
 10
-13.03056138148298
 20
8.977389669898144
 30
0.0
 11
-13.04527678148298
 21
8.984423869898137
 31
0.0
  0
LINE
  5
C1
330
2
100
AcDbEntity
  8
GAIKEI
  6
Continuous
 62
     1
100
AcDbLine
 10
-13.01571078148299
 20
8.970645869898135
 30
0.0
 11
-13.03056138148298
 21
8.977389669898144
 31
0.0
  0
LINE
  5
C2
330
2
100
AcDbEntity
  8
GAIKEI
  6
Continuous
 62
     1
100
AcDbLine
 10
-13.00070258148298
 20
8.964199869898124
 30
0.0
 11
-13.01571078148299
 21
8.970645869898135
 31
0.0
  0
LINE
  5
C3
330
2
100
AcDbEntity
  8
GAIKEI
  6
Continuous
 62
     1
100
AcDbLine
 10
-12.98557078148298
 20
8.958049869898133
 30
0.0
 11
-13.00070258148298
 21
8.964199869898124
 31
0.0
  0
LINE
  5
C4
330
2
100
AcDbEntity
  8
GAIKEI
  6
Continuous
 62
     1
100
AcDbLine
 10
-12.97030178148299
 20
8.952180869898114
 30
0.0
 11
-12.98557078148298
 21
8.958049869898133
 31
0.0
  0
LINE
  5
C5
330
2
100
AcDbEntity
  8
GAIKEI
  6
Continuous
 62
     1
100
AcDbLine
 10
-12.95492078148299
 20
8.946611869898134
 30
0.0
 11
-12.97030178148299
 21
8.952180869898114
 31
0.0
  0
LINE
  5
C6
330
2
100
AcDbEntity
  8
GAIKEI
  6
Continuous
 62
     1
100
AcDbLine
 10
-12.93939938148298
 20
8.94135346989816
 30
0.0
 11
-12.95492078148299
 21
8.946611869898134
 31
0.0
  0
LINE
  5
C7
330
2
100
AcDbEntity
  8
GAIKEI
  6
Continuous
 62
     1
100
AcDbLine
 10
-12.92377878148298
 20
8.936397869898144
 30
0.0
 11
-12.93939938148298
 21
8.94135346989816
 31
0.0
  0
LINE
  5
C8
330
2
100
AcDbEntity
  8
GAIKEI
  6
Continuous
 62
     1
100
AcDbLine
 10
-12.90803838148298
 20
8.931733269898131
 30
0.0
 11
-12.92377878148298
 21
8.936397869898144
 31
0.0
  0
LINE
  5
C9
330
2
100
AcDbEntity
  8
GAIKEI
  6
Continuous
 62
     1
100
AcDbLine
 10
-12.89221078148299
 20
8.927373869898133
 30
0.0
 11
-12.90803838148298
 21
8.931733269898131
 31
0.0
  0
LINE
  5
CA
330
2
100
AcDbEntity
  8
GAIKEI
  6
Continuous
 62
     1
100
AcDbLine
 10
-12.87626738148296
 20
8.92333066989812
 30
0.0
 11
-12.89221078148299
 21
8.927373869898133
 31
0.0
  0
LINE
  5
CB
330
2
100
AcDbEntity
  8
GAIKEI
  6
Continuous
 62
     1
100
AcDbLine
 10
-12.86024878148299
 20
8.919595869898131
 30
0.0
 11
-12.87626738148296
 21
8.92333066989812
 31
0.0
  0
LINE
  5
CC
330
2
100
AcDbEntity
  8
GAIKEI
  6
Continuous
 62
     1
100
AcDbLine
 10
-12.84413238148298
 20
8.916156069898136
 30
0.0
 11
-12.86024878148299
 21
8.919595869898131
 31
0.0
  0
LINE
  5
CD
330
2
100
AcDbEntity
  8
GAIKEI
  6
Continuous
 62
     1
100
AcDbLine
 10
-12.82795278148299
 20
8.913027869898144
 30
0.0
 11
-12.84413238148298
 21
8.916156069898136
 31
0.0
  0
LINE
  5
CE
330
2
100
AcDbEntity
  8
GAIKEI
  6
Continuous
 62
     1
100
AcDbLine
 10
-12.81168038148297
 20
8.91022366989813
 30
0.0
 11
-12.82795278148299
 21
8.913027869898144
 31
0.0
  0
LINE
  5
CF
330
2
100
AcDbEntity
  8
GAIKEI
  6
Continuous
 62
     1
100
AcDbLine
 10
-12.79535678148298
 20
8.907733869898123
 30
0.0
 11
-12.81168038148297
 21
8.91022366989813
 31
0.0
  0
LINE
  5
D0
330
2
100
AcDbEntity
  8
GAIKEI
  6
Continuous
 62
     1
100
AcDbLine
 10
-12.77895838148299
 20
8.905545269898141
 30
0.0
 11
-12.79535678148298
 21
8.907733869898123
 31
0.0
  0
LINE
  5
D1
330
2
100
AcDbEntity
  8
GAIKEI
  6
Continuous
 62
     1
100
AcDbLine
 10
-12.76252078148297
 20
8.903673869898142
 30
0.0
 11
-12.77895838148299
 21
8.905545269898141
 31
0.0
  0
LINE
  5
D2
330
2
100
AcDbEntity
  8
GAIKEI
  6
Continuous
 62
     1
100
AcDbLine
 10
-12.74601318148296
 20
8.902132869898139
 30
0.0
 11
-12.76252078148297
 21
8.903673869898142
 31
0.0
  0
LINE
  5
D3
330
2
100
AcDbEntity
  8
GAIKEI
  6
Continuous
 62
     1
100
AcDbLine
 10
-12.72947878148298
 20
8.900911869898152
 30
0.0
 11
-12.74601318148296
 21
8.902132869898139
 31
0.0
  0
LINE
  5
D4
330
2
100
AcDbEntity
  8
GAIKEI
  6
Continuous
 62
     1
100
AcDbLine
 10
-12.71288998148299
 20
8.900000269898157
 30
0.0
 11
-12.72947878148298
 21
8.900911869898152
 31
0.0
  0
LINE
  5
D5
330
2
100
AcDbEntity
  8
GAIKEI
  6
Continuous
 62
     1
100
AcDbLine
 10
-12.69628678148299
 20
8.899409869898136
 30
0.0
 11
-12.71288998148299
 21
8.900000269898157
 31
0.0
  0
LINE
  5
D6
330
2
100
AcDbEntity
  8
GAIKEI
  6
Continuous
 62
     1
100
AcDbLine
 10
-12.67963758148298
 20
8.899157069898137
 30
0.0
 11
-12.69628678148299
 21
8.899409869898136
 31
0.0
  0
LINE
  5
D7
330
2
100
AcDbEntity
  8
GAIKEI
  6
Continuous
 62
     1
100
AcDbLine
 10
-12.66298678148297
 20
8.899225869898117
 30
0.0
 11
-12.67963758148298
 21
8.899157069898137
 31
0.0
  0
LINE
  5
D8
330
2
100
AcDbEntity
  8
GAIKEI
  6
Continuous
 62
     1
100
AcDbLine
 10
-12.64630658148297
 20
8.899609069898133
 30
0.0
 11
-12.66298678148297
 21
8.899225869898117
 31
0.0
  0
LINE
  5
D9
330
2
100
AcDbEntity
  8
GAIKEI
  6
Continuous
 62
     1
100
AcDbLine
 10
-12.62963678148298
 20
8.900313869898127
 30
0.0
 11
-12.64630658148297
 21
8.899609069898133
 31
0.0
  0
LINE
  5
DA
330
2
100
AcDbEntity
  8
GAIKEI
  6
Continuous
 62
     1
100
AcDbLine
 10
-12.61295018148297
 20
8.90135886989816
 30
0.0
 11
-12.62963678148298
 21
8.900313869898127
 31
0.0
  0
LINE
  5
DB
330
2
100
AcDbEntity
  8
GAIKEI
  6
Continuous
 62
     1
100
AcDbLine
 10
-12.596286781483
 20
8.902725869898119
 30
0.0
 11
-12.61295018148297
 21
8.90135886989816
 31
0.0
  0
LINE
  5
DC
330
2
100
AcDbEntity
  8
GAIKEI
  6
Continuous
 62
     1
100
AcDbLine
 10
-12.57962198148297
 20
8.904407869898136
 30
0.0
 11
-12.596286781483
 21
8.902725869898119
 31
0.0
  0
LINE
  5
DD
330
2
100
AcDbEntity
  8
GAIKEI
  6
Continuous
 62
     1
100
AcDbLine
 10
-12.56299278148296
 20
8.906411869898136
 30
0.0
 11
-12.57962198148297
 21
8.904407869898136
 31
0.0
  0
LINE
  5
DE
330
2
100
AcDbEntity
  8
GAIKEI
  6
Continuous
 62
     1
100
AcDbLine
 10
-12.54637738148295
 20
8.90875646989815
 30
0.0
 11
-12.56299278148296
 21
8.906411869898136
 31
0.0
  0
LINE
  5
DF
330
2
100
AcDbEntity
  8
GAIKEI
  6
Continuous
 62
     1
100
AcDbLine
 10
-12.52981078148298
 20
8.911423869898129
 30
0.0
 11
-12.54637738148295
 21
8.90875646989815
 31
0.0
  0
LINE
  5
E0
330
2
100
AcDbEntity
  8
GAIKEI
  6
Continuous
 62
     1
100
AcDbLine
 10
-12.51326898148298
 20
8.914405469898127
 30
0.0
 11
-12.52981078148298
 21
8.911423869898129
 31
0.0
  0
LINE
  5
E1
330
2
100
AcDbEntity
  8
GAIKEI
  6
Continuous
 62
     1
100
AcDbLine
 10
-12.49678878148296
 20
8.917709869898146
 30
0.0
 11
-12.51326898148298
 21
8.914405469898127
 31
0.0
  0
LINE
  5
E2
330
2
100
AcDbEntity
  8
GAIKEI
  6
Continuous
 62
     1
100
AcDbLine
 10
-12.48035218148297
 20
8.921356469898142
 30
0.0
 11
-12.49678878148296
 21
8.917709869898146
 31
0.0
  0
LINE
  5
E3
330
2
100
AcDbEntity
  8
GAIKEI
  6
Continuous
 62
     1
100
AcDbLine
 10
-12.463990781483
 20
8.925325869898131
 30
0.0
 11
-12.48035218148297
 21
8.921356469898142
 31
0.0
  0
LINE
  5
E4
330
2
100
AcDbEntity
  8
GAIKEI
  6
Continuous
 62
     1
100
AcDbLine
 10
-12.44768058148298
 20
8.929610269898148
 30
0.0
 11
-12.463990781483
 21
8.925325869898131
 31
0.0
  0
LINE
  5
E5
330
2
100
AcDbEntity
  8
GAIKEI
  6
Continuous
 62
     1
100
AcDbLine
 10
-12.43145878148297
 20
8.934217869898134
 30
0.0
 11
-12.44768058148298
 21
8.929610269898148
 31
0.0
  0
LINE
  5
E6
330
2
100
AcDbEntity
  8
GAIKEI
  6
Continuous
 62
     1
100
AcDbLine
 10
-12.41530838148299
 20
8.939165869898118
 30
0.0
 11
-12.43145878148297
 21
8.934217869898134
 31
0.0
  0
LINE
  5
E7
330
2
100
AcDbEntity
  8
GAIKEI
  6
Continuous
 62
     1
100
AcDbLine
 10
-12.39926078148298
 20
8.944437869898138
 30
0.0
 11
-12.41530838148299
 21
8.939165869898118
 31
0.0
  0
LINE
  5
E8
330
2
100
AcDbEntity
  8
GAIKEI
  6
Continuous
 62
     1
100
AcDbLine
 10
-12.38328958148298
 20
8.950027869898121
 30
0.0
 11
-12.39926078148298
 21
8.944437869898138
 31
0.0
  0
LINE
  5
E9
330
2
100
AcDbEntity
  8
GAIKEI
  6
Continuous
 62
     1
100
AcDbLine
 10
-12.36743478148295
 20
8.955939869898145
 30
0.0
 11
-12.38328958148298
 21
8.950027869898121
 31
0.0
  0
LINE
  5
EA
330
2
100
AcDbEntity
  8
GAIKEI
  6
Continuous
 62
     1
100
AcDbLine
 10
-12.35167998148299
 20
8.962199269898121
 30
0.0
 11
-12.36743478148295
 21
8.955939869898145
 31
0.0
  0
LINE
  5
EB
330
2
100
AcDbEntity
  8
GAIKEI
  6
Continuous
 62
     1
100
AcDbLine
 10
-12.33605478148297
 20
8.968775869898138
 30
0.0
 11
-12.35167998148299
 21
8.962199269898121
 31
0.0
  0
LINE
  5
EC
330
2
100
AcDbEntity
  8
GAIKEI
  6
Continuous
 62
     1
100
AcDbLine
 10
-12.32053278148299
 20
8.975671469898145
 30
0.0
 11
-12.33605478148297
 21
8.968775869898138
 31
0.0
  0
LINE
  5
ED
330
2
100
AcDbEntity
  8
GAIKEI
  6
Continuous
 62
     1
100
AcDbLine
 10
-12.30515278148297
 20
8.982877869898118
 30
0.0
 11
-12.32053278148299
 21
8.975671469898145
 31
0.0
  0
LINE
  5
EE
330
2
100
AcDbEntity
  8
GAIKEI
  6
Continuous
 62
     1
100
AcDbLine
 10
-12.28990098148299
 20
8.990425469898127
 30
0.0
 11
-12.30515278148297
 21
8.982877869898118
 31
0.0
  0
LINE
  5
EF
330
2
100
AcDbEntity
  8
GAIKEI
  6
Continuous
 62
     1
100
AcDbLine
 10
-12.27480278148297
 20
8.998275869898122
 30
0.0
 11
-12.28990098148299
 21
8.990425469898127
 31
0.0
  0
LINE
  5
F0
330
2
100
AcDbEntity
  8
GAIKEI
  6
Continuous
 62
     1
100
AcDbLine
 10
-12.25983538148298
 20
9.006434069898148
 30
0.0
 11
-12.27480278148297
 21
8.998275869898122
 31
0.0
  0
LINE
  5
F1
330
2
100
AcDbEntity
  8
GAIKEI
  6
Continuous
 62
     1
100
AcDbLine
 10
-12.24503278148296
 20
9.014887869898132
 30
0.0
 11
-12.25983538148298
 21
9.006434069898148
 31
0.0
  0
LINE
  5
F2
330
2
100
AcDbEntity
  8
GAIKEI
  6
Continuous
 62
     1
100
AcDbLine
 10
-12.23038838148298
 20
9.023664669898124
 30
0.0
 11
-12.24503278148296
 21
9.014887869898132
 31
0.0
  0
LINE
  5
F3
330
2
100
AcDbEntity
  8
GAIKEI
  6
Continuous
 62
     1
100
AcDbLine
 10
-12.21592078148299
 20
9.032729869898133
 30
0.0
 11
-12.23038838148298
 21
9.023664669898124
 31
0.0
  0
LINE
  5
F4
330
2
100
AcDbEntity
  8
GAIKEI
  6
Continuous
 62
     1
100
AcDbLine
 10
-12.20161158148298
 20
9.042084069898152
 30
0.0
 11
-12.21592078148299
 21
9.032729869898133
 31
0.0
  0
LINE
  5
F5
330
2
100
AcDbEntity
  8
GAIKEI
  6
Continuous
 62
     1
100
AcDbLine
 10
-12.18749078148298
 20
9.051719869898136
 30
0.0
 11
-12.20161158148298
 21
9.042084069898152
 31
0.0
  0
LINE
  5
F6
330
2
100
AcDbEntity
  8
GAIKEI
  6
Continuous
 62
     1
100
AcDbLine
 10
-12.17355758148298
 20
9.061658469898134
 30
0.0
 11
-12.18749078148298
 21
9.051719869898136
 31
0.0
  0
LINE
  5
F7
330
2
100
AcDbEntity
  8
GAIKEI
  6
Continuous
 62
     1
100
AcDbLine
 10
-12.15982478148297
 20
9.071871869898131
 30
0.0
 11
-12.17355758148298
 21
9.061658469898134
 31
0.0
  0
LINE
  5
F8
330
2
100
AcDbEntity
  8
GAIKEI
  6
Continuous
 62
     1
100
AcDbLine
 10
-12.14627778148298
 20
9.082357869898117
 30
0.0
 11
-12.15982478148297
 21
9.071871869898131
 31
0.0
  0
LINE
  5
F9
330
2
100
AcDbEntity
  8
GAIKEI
  6
Continuous
 62
     1
100
AcDbLine
 10
-12.13294278148299
 20
9.093111869898137
 30
0.0
 11
-12.14627778148298
 21
9.082357869898117
 31
0.0
  0
LINE
  5
FA
330
2
100
AcDbEntity
  8
GAIKEI
  6
Continuous
 62
     1
100
AcDbLine
 10
-12.11982338148297
 20
9.104149869898122
 30
0.0
 11
-12.13294278148299
 21
9.093111869898137
 31
0.0
  0
LINE
  5
FB
330
2
100
AcDbEntity
  8
GAIKEI
  6
Continuous
 62
     1
100
AcDbLine
 10
-12.10692878148296
 20
9.115449869898128
 30
0.0
 11
-12.11982338148297
 21
9.104149869898122
 31
0.0
  0
LINE
  5
FC
330
2
100
AcDbEntity
  8
GAIKEI
  6
Continuous
 62
     1
100
AcDbLine
 10
-12.09424758148299
 20
9.127002869898149
 30
0.0
 11
-12.10692878148296
 21
9.115449869898128
 31
0.0
  0
LINE
  5
FD
330
2
100
AcDbEntity
  8
GAIKEI
  6
Continuous
 62
     1
100
AcDbLine
 10
-12.08180278148296
 20
9.138809869898125
 30
0.0
 11
-12.09424758148299
 21
9.127002869898149
 31
0.0
  0
LINE
  5
FE
330
2
100
AcDbEntity
  8
GAIKEI
  6
Continuous
 62
     1
100
AcDbLine
 10
-12.06960418148298
 20
9.150885669898144
 30
0.0
 11
-12.08180278148296
 21
9.138809869898125
 31
0.0
  0
LINE
  5
FF
330
2
100
AcDbEntity
  8
GAIKEI
  6
Continuous
 62
     1
100
AcDbLine
 10
-12.057652781483
 20
9.163205869898149
 30
0.0
 11
-12.06960418148298
 21
9.150885669898144
 31
0.0
  0
LINE
  5
100
330
2
100
AcDbEntity
  8
GAIKEI
  6
Continuous
 62
     1
100
AcDbLine
 10
-12.04593998148297
 20
9.175763069898124
 30
0.0
 11
-12.057652781483
 21
9.163205869898149
 31
0.0
  0
LINE
  5
101
330
2
100
AcDbEntity
  8
GAIKEI
  6
Continuous
 62
     1
100
AcDbLine
 10
-12.03448278148298
 20
9.188553869898157
 30
0.0
 11
-12.04593998148297
 21
9.175763069898124
 31
0.0
  0
LINE
  5
102
330
2
100
AcDbEntity
  8
GAIKEI
  6
Continuous
 62
     1
100
AcDbLine
 10
-12.02329958148297
 20
9.201592669898133
 30
0.0
 11
-12.03448278148298
 21
9.188553869898157
 31
0.0
  0
LINE
  5
103
330
2
100
AcDbEntity
  8
GAIKEI
  6
Continuous
 62
     1
100
AcDbLine
 10
-12.01237878148296
 20
9.214851869898154
 30
0.0
 11
-12.02329958148297
 21
9.201592669898133
 31
0.0
  0
LINE
  5
104
330
2
100
AcDbEntity
  8
GAIKEI
  6
Continuous
 62
     1
100
AcDbLine
 10
-12.00171898148295
 20
9.228324469898154
 30
0.0
 11
-12.01237878148296
 21
9.214851869898154
 31
0.0
  0
LINE
  5
105
330
2
100
AcDbEntity
  8
GAIKEI
  6
Continuous
 62
     1
100
AcDbLine
 10
-11.99132878148299
 20
9.24200586989815
 30
0.0
 11
-12.00171898148295
 21
9.228324469898154
 31
0.0
  0
LINE
  5
106
330
2
100
AcDbEntity
  8
GAIKEI
  6
Continuous
 62
     1
100
AcDbLine
 10
-11.981229181483
 20
9.255901269898146
 30
0.0
 11
-11.99132878148299
 21
9.24200586989815
 31
0.0
  0
LINE
  5
107
330
2
100
AcDbEntity
  8
GAIKEI
  6
Continuous
 62
     1
100
AcDbLine
 10
-11.97140678148298
 20
9.269993869898144
 30
0.0
 11
-11.981229181483
 21
9.255901269898146
 31
0.0
  0
LINE
  5
108
330
2
100
AcDbEntity
  8
GAIKEI
  6
Continuous
 62
     1
100
AcDbLine
 10
-11.96186058148296
 20
9.284267869898116
 30
0.0
 11
-11.97140678148298
 21
9.269993869898144
 31
0.0
  0
LINE
  5
109
330
2
100
AcDbEntity
  8
GAIKEI
  6
Continuous
 62
     1
100
AcDbLine
 10
-11.95259878148297
 20
9.298727869898129
 30
0.0
 11
-11.96186058148296
 21
9.284267869898116
 31
0.0
  0
LINE
  5
10A
330
2
100
AcDbEntity
  8
GAIKEI
  6
Continuous
 62
     1
100
AcDbLine
 10
-11.94364578148298
 20
9.313368669898125
 30
0.0
 11
-11.95259878148297
 21
9.298727869898129
 31
0.0
  0
LINE
  5
10B
330
2
100
AcDbEntity
  8
GAIKEI
  6
Continuous
 62
     1
100
AcDbLine
 10
-11.93498478148296
 20
9.32818386989814
 30
0.0
 11
-11.94364578148298
 21
9.313368669898125
 31
0.0
  0
LINE
  5
10C
330
2
100
AcDbEntity
  8
GAIKEI
  6
Continuous
 62
     1
100
AcDbLine
 10
-11.92661598148297
 20
9.343149069898146
 30
0.0
 11
-11.93498478148296
 21
9.32818386989814
 31
0.0
  0
LINE
  5
10D
330
2
100
AcDbEntity
  8
GAIKEI
  6
Continuous
 62
     1
100
AcDbLine
 10
-11.91854678148297
 20
9.358277869898131
 30
0.0
 11
-11.92661598148297
 21
9.343149069898146
 31
0.0
  0
LINE
  5
10E
330
2
100
AcDbEntity
  8
GAIKEI
  6
Continuous
 62
     1
100
AcDbLine
 10
-11.91080158148298
 20
9.373552669898145
 30
0.0
 11
-11.91854678148297
 21
9.358277869898131
 31
0.0
  0
LINE
  5
10F
330
2
100
AcDbEntity
  8
GAIKEI
  6
Continuous
 62
     1
100
AcDbLine
 10
-11.90336478148296
 20
9.38897986989815
 30
0.0
 11
-11.91080158148298
 21
9.373552669898145
 31
0.0
  0
LINE
  5
110
330
2
100
AcDbEntity
  8
GAIKEI
  6
Continuous
 62
     1
100
AcDbLine
 10
-11.89623718148297
 20
9.404526669898132
 30
0.0
 11
-11.90336478148296
 21
9.38897986989815
 31
0.0
  0
LINE
  5
111
330
2
100
AcDbEntity
  8
GAIKEI
  6
Continuous
 62
     1
100
AcDbLine
 10
-11.88942478148297
 20
9.420213869898134
 30
0.0
 11
-11.89623718148297
 21
9.404526669898132
 31
0.0
  0
LINE
  5
112
330
2
100
AcDbEntity
  8
GAIKEI
  6
Continuous
 62
     1
100
AcDbLine
 10
-11.88295598148298
 20
9.43601446989814
 30
0.0
 11
-11.88942478148297
 21
9.420213869898134
 31
0.0
  0
LINE
  5
113
330
2
100
AcDbEntity
  8
GAIKEI
  6
Continuous
 62
     1
100
AcDbLine
 10
-11.876806781483
 20
9.451941869898121
 30
0.0
 11
-11.88295598148298
 21
9.43601446989814
 31
0.0
  0
LINE
  5
114
330
2
100
AcDbEntity
  8
GAIKEI
  6
Continuous
 62
     1
100
AcDbLine
 10
-11.87098138148297
 20
9.467959069898142
 30
0.0
 11
-11.876806781483
 21
9.451941869898121
 31
0.0
  0
LINE
  5
115
330
2
100
AcDbEntity
  8
GAIKEI
  6
Continuous
 62
     1
100
AcDbLine
 10
-11.86547878148298
 20
9.484089869898127
 30
0.0
 11
-11.87098138148297
 21
9.467959069898142
 31
0.0
  0
LINE
  5
116
330
2
100
AcDbEntity
  8
GAIKEI
  6
Continuous
 62
     1
100
AcDbLine
 10
-11.86033118148299
 20
9.500303469898142
 30
0.0
 11
-11.86547878148298
 21
9.484089869898127
 31
0.0
  0
LINE
  5
117
330
2
100
AcDbEntity
  8
GAIKEI
  6
Continuous
 62
     1
100
AcDbLine
 10
-11.85550678148297
 20
9.516615869898117
 30
0.0
 11
-11.86033118148299
 21
9.500303469898142
 31
0.0
  0
LINE
  5
118
330
2
100
AcDbEntity
  8
GAIKEI
  6
Continuous
 62
     1
100
AcDbLine
 10
-11.85101038148298
 20
9.532987069898126
 30
0.0
 11
-11.85550678148297
 21
9.516615869898117
 31
0.0
  0
LINE
  5
119
330
2
100
AcDbEntity
  8
GAIKEI
  6
Continuous
 62
     1
100
AcDbLine
 10
-11.84683878148297
 20
9.549443869898141
 30
0.0
 11
-11.85101038148298
 21
9.532987069898126
 31
0.0
  0
LINE
  5
11A
330
2
100
AcDbEntity
  8
GAIKEI
  6
Continuous
 62
     1
100
AcDbLine
 10
-11.84302058148296
 20
9.565947869898138
 30
0.0
 11
-11.84683878148297
 21
9.549443869898141
 31
0.0
  0
LINE
  5
11B
330
2
100
AcDbEntity
  8
GAIKEI
  6
Continuous
 62
     1
100
AcDbLine
 10
-11.83952878148298
 20
9.582523869898125
 30
0.0
 11
-11.84302058148296
 21
9.565947869898138
 31
0.0
  0
LINE
  5
11C
330
2
100
AcDbEntity
  8
GAIKEI
  6
Continuous
 62
     1
100
AcDbLine
 10
-11.836362581483
 20
9.599126269898135
 30
0.0
 11
-11.83952878148298
 21
9.582523869898125
 31
0.0
  0
LINE
  5
11D
330
2
100
AcDbEntity
  8
GAIKEI
  6
Continuous
 62
     1
100
AcDbLine
 10
-11.83352478148296
 20
9.615787869898127
 30
0.0
 11
-11.836362581483
 21
9.599126269898135
 31
0.0
  0
LINE
  5
11E
330
2
100
AcDbEntity
  8
GAIKEI
  6
Continuous
 62
     1
100
AcDbLine
 10
-11.83103978148295
 20
9.632461069898141
 30
0.0
 11
-11.83352478148296
 21
9.615787869898127
 31
0.0
  0
LINE
  5
11F
330
2
100
AcDbEntity
  8
GAIKEI
  6
Continuous
 62
     1
100
AcDbLine
 10
-11.82888478148297
 20
9.649179869898119
 30
0.0
 11
-11.83103978148295
 21
9.632461069898141
 31
0.0
  0
LINE
  5
120
330
2
100
AcDbEntity
  8
GAIKEI
  6
Continuous
 62
     1
100
AcDbLine
 10
-11.82705378148299
 20
9.665891469898127
 30
0.0
 11
-11.82888478148297
 21
9.649179869898119
 31
0.0
  0
LINE
  5
121
330
2
100
AcDbEntity
  8
GAIKEI
  6
Continuous
 62
     1
100
AcDbLine
 10
-11.82555478148296
 20
9.68263586989812
 30
0.0
 11
-11.82705378148299
 21
9.665891469898127
 31
0.0
  0
LINE
  5
122
330
2
100
AcDbEntity
  8
GAIKEI
  6
Continuous
 62
     1
100
AcDbLine
 10
-11.82440678148299
 20
9.699356069898129
 30
0.0
 11
-11.82555478148296
 21
9.68263586989812
 31
0.0
  0
LINE
  5
123
330
2
100
AcDbEntity
  8
GAIKEI
  6
Continuous
 62
     1
100
AcDbLine
 10
-11.823592781483
 20
9.716095869898111
 30
0.0
 11
-11.82440678148299
 21
9.699356069898129
 31
0.0
  0
LINE
  5
124
330
2
100
AcDbEntity
  8
GAIKEI
  6
Continuous
 62
     1
100
AcDbLine
 10
-11.82310298148297
 20
9.732795669898138
 30
0.0
 11
-11.823592781483
 21
9.716095869898111
 31
0.0
  0
LINE
  5
125
330
2
100
AcDbEntity
  8
GAIKEI
  6
Continuous
 62
     1
100
AcDbLine
 10
-11.82294678148298
 20
9.749501869898125
 30
0.0
 11
-11.82310298148297
 21
9.732795669898138
 31
0.0
  0
LINE
  5
126
330
2
100
AcDbEntity
  8
GAIKEI
  6
Continuous
 62
     1
100
AcDbLine
 10
-11.82314318148297
 20
9.76615046989815
 30
0.0
 11
-11.82294678148298
 21
9.749501869898125
 31
0.0
  0
LINE
  5
127
330
2
100
AcDbEntity
  8
GAIKEI
  6
Continuous
 62
     1
100
AcDbLine
 10
-11.82366878148298
 20
9.782791869898147
 30
0.0
 11
-11.82314318148297
 21
9.76615046989815
 31
0.0
  0
LINE
  5
128
330
2
100
AcDbEntity
  8
GAIKEI
  6
Continuous
 62
     1
100
AcDbLine
 10
-11.82451518148298
 20
9.799370869898126
 30
0.0
 11
-11.82366878148298
 21
9.782791869898147
 31
0.0
  0
LINE
  5
129
330
2
100
AcDbEntity
  8
GAIKEI
  6
Continuous
 62
     1
100
AcDbLine
 10
-11.82568678148297
 20
9.815929869898127
 30
0.0
 11
-11.82451518148298
 21
9.799370869898126
 31
0.0
  0
LINE
  5
12A
330
2
100
AcDbEntity
  8
GAIKEI
  6
Continuous
 62
     1
100
AcDbLine
 10
-11.82719878148299
 20
9.832415269898149
 30
0.0
 11
-11.82568678148297
 21
9.815929869898127
 31
0.0
  0
LINE
  5
12B
330
2
100
AcDbEntity
  8
GAIKEI
  6
Continuous
 62
     1
100
AcDbLine
 10
-11.829030781483
 20
9.848867869898128
 30
0.0
 11
-11.82719878148299
 21
9.832415269898149
 31
0.0
  0
LINE
  5
12C
330
2
100
AcDbEntity
  8
GAIKEI
  6
Continuous
 62
     1
100
AcDbLine
 10
-11.83117298148298
 20
9.865246069898148
 30
0.0
 11
-11.829030781483
 21
9.848867869898128
 31
0.0
  0
LINE
  5
12D
330
2
100
AcDbEntity
  8
GAIKEI
  6
Continuous
 62
     1
100
AcDbLine
 10
-11.83363078148298
 20
9.881579869898132
 30
0.0
 11
-11.83117298148298
 21
9.865246069898148
 31
0.0
  0
LINE
  5
12E
330
2
100
AcDbEntity
  8
GAIKEI
  6
Continuous
 62
     1
100
AcDbLine
 10
-11.83641658148298
 20
9.897825069898146
 30
0.0
 11
-11.83363078148298
 21
9.881579869898132
 31
0.0
  0
LINE
  5
12F
330
2
100
AcDbEntity
  8
GAIKEI
  6
Continuous
 62
     1
100
AcDbLine
 10
-11.83951278148296
 20
9.914013869898155
 30
0.0
 11
-11.83641658148298
 21
9.897825069898146
 31
0.0
  0
LINE
  5
130
330
2
100
AcDbEntity
  8
GAIKEI
  6
Continuous
 62
     1
100
AcDbLine
 10
-11.84290578148298
 20
9.930112669898136
 30
0.0
 11
-11.83951278148296
 21
9.914013869898155
 31
0.0
  0
LINE
  5
131
330
2
100
AcDbEntity
  8
GAIKEI
  6
Continuous
 62
     1
100
AcDbLine
 10
-11.84660478148297
 20
9.946143869898151
 30
0.0
 11
-11.84290578148298
 21
9.930112669898136
 31
0.0
  0
LINE
  5
132
330
2
100
AcDbEntity
  8
GAIKEI
  6
Continuous
 62
     1
100
AcDbLine
 10
-11.85062038148299
 20
9.962071269898132
 30
0.0
 11
-11.84660478148297
 21
9.946143869898151
 31
0.0
  0
LINE
  5
133
330
2
100
AcDbEntity
  8
GAIKEI
  6
Continuous
 62
     1
100
AcDbLine
 10
-11.85493678148299
 20
9.97791986989813
 30
0.0
 11
-11.85062038148299
 21
9.962071269898132
 31
0.0
  0
LINE
  5
134
330
2
100
AcDbEntity
  8
GAIKEI
  6
Continuous
 62
     1
100
AcDbLine
 10
-11.85953778148297
 20
9.993663669898126
 30
0.0
 11
-11.85493678148299
 21
9.97791986989813
 31
0.0
  0
LINE
  5
135
330
2
100
AcDbEntity
  8
GAIKEI
  6
Continuous
 62
     1
100
AcDbLine
 10
-11.86443478148297
 20
10.00931786989812
 30
0.0
 11
-11.85953778148297
 21
9.993663669898126
 31
0.0
  0
LINE
  5
136
330
2
100
AcDbEntity
  8
GAIKEI
  6
Continuous
 62
     1
100
AcDbLine
 10
-11.86963638148296
 20
10.02484906989815
 30
0.0
 11
-11.86443478148297
 21
10.00931786989812
 31
0.0
  0
LINE
  5
137
330
2
100
AcDbEntity
  8
GAIKEI
  6
Continuous
 62
     1
100
AcDbLine
 10
-11.87512878148297
 20
10.04027986989814
 30
0.0
 11
-11.86963638148296
 21
10.02484906989815
 31
0.0
  0
LINE
  5
138
330
2
100
AcDbEntity
  8
GAIKEI
  6
Continuous
 62
     1
100
AcDbLine
 10
-11.88089578148299
 20
10.05559026989812
 30
0.0
 11
-11.87512878148297
 21
10.04027986989814
 31
0.0
  0
LINE
  5
139
330
2
100
AcDbEntity
  8
GAIKEI
  6
Continuous
 62
     1
100
AcDbLine
 10
-11.88694878148297
 20
10.07078986989813
 30
0.0
 11
-11.88089578148299
 21
10.05559026989812
 31
0.0
  0
LINE
  5
13A
330
2
100
AcDbEntity
  8
GAIKEI
  6
Continuous
 62
     1
100
AcDbLine
 10
-11.89329338148297
 20
10.08584866989812
 30
0.0
 11
-11.88694878148297
 21
10.07078986989813
 31
0.0
  0
LINE
  5
13B
330
2
100
AcDbEntity
  8
GAIKEI
  6
Continuous
 62
     1
100
AcDbLine
 10
-11.89991878148299
 20
10.10078586989812
 30
0.0
 11
-11.89329338148297
 21
10.08584866989812
 31
0.0
  0
LINE
  5
13C
330
2
100
AcDbEntity
  8
GAIKEI
  6
Continuous
 62
     1
100
AcDbLine
 10
-11.906806781483
 20
10.11558466989814
 30
0.0
 11
-11.89991878148299
 21
10.10078586989812
 31
0.0
  0
LINE
  5
13D
330
2
100
AcDbEntity
  8
GAIKEI
  6
Continuous
 62
     1
100
AcDbLine
 10
-11.91397078148298
 20
10.13025186989813
 30
0.0
 11
-11.906806781483
 21
10.11558466989814
 31
0.0
  0
LINE
  5
13E
330
2
100
AcDbEntity
  8
GAIKEI
  6
Continuous
 62
     1
100
AcDbLine
 10
-11.92141438148297
 20
10.14476006989812
 30
0.0
 11
-11.91397078148298
 21
10.13025186989813
 31
0.0
  0
LINE
  5
13F
330
2
100
AcDbEntity
  8
GAIKEI
  6
Continuous
 62
     1
100
AcDbLine
 10
-11.92912878148297
 20
10.15912586989813
 30
0.0
 11
-11.92141438148297
 21
10.14476006989812
 31
0.0
  0
LINE
  5
140
330
2
100
AcDbEntity
  8
GAIKEI
  6
Continuous
 62
     1
100
AcDbLine
 10
-11.93709378148298
 20
10.17333806989813
 30
0.0
 11
-11.92912878148297
 21
10.15912586989813
 31
0.0
  0
LINE
  5
141
330
2
100
AcDbEntity
  8
GAIKEI
  6
Continuous
 62
     1
100
AcDbLine
 10
-11.94532478148295
 20
10.18739786989812
 30
0.0
 11
-11.93709378148298
 21
10.17333806989813
 31
0.0
  0
LINE
  5
142
330
2
100
AcDbEntity
  8
GAIKEI
  6
Continuous
 62
     1
100
AcDbLine
 10
-11.95382458148296
 20
10.20127946989814
 30
0.0
 11
-11.94532478148295
 21
10.18739786989812
 31
0.0
  0
LINE
  5
143
330
2
100
AcDbEntity
  8
GAIKEI
  6
Continuous
 62
     1
100
AcDbLine
 10
-11.96258478148297
 20
10.21499786989813
 30
0.0
 11
-11.95382458148296
 21
10.20127946989814
 31
0.0
  0
LINE
  5
144
330
2
100
AcDbEntity
  8
GAIKEI
  6
Continuous
 62
     1
100
AcDbLine
 10
-11.97158518148299
 20
10.22854446989814
 30
0.0
 11
-11.96258478148297
 21
10.21499786989813
 31
0.0
  0
LINE
  5
145
330
2
100
AcDbEntity
  8
GAIKEI
  6
Continuous
 62
     1
100
AcDbLine
 10
-11.98084078148298
 20
10.24191786989814
 30
0.0
 11
-11.97158518148299
 21
10.22854446989814
 31
0.0
  0
LINE
  5
146
330
2
100
AcDbEntity
  8
GAIKEI
  6
Continuous
 62
     1
100
AcDbLine
 10
-11.99035198148297
 20
10.25509486989813
 30
0.0
 11
-11.98084078148298
 21
10.24191786989814
 31
0.0
  0
LINE
  5
147
330
2
100
AcDbEntity
  8
GAIKEI
  6
Continuous
 62
     1
100
AcDbLine
 10
-12.00011278148298
 20
10.26808786989812
 30
0.0
 11
-11.99035198148297
 21
10.25509486989813
 31
0.0
  0
LINE
  5
148
330
2
100
AcDbEntity
  8
GAIKEI
  6
Continuous
 62
     1
100
AcDbLine
 10
-12.01010458148298
 20
10.28089326989814
 30
0.0
 11
-12.00011278148298
 21
10.26808786989812
 31
0.0
  0
LINE
  5
149
330
2
100
AcDbEntity
  8
GAIKEI
  6
Continuous
 62
     1
100
AcDbLine
 10
-12.02034078148298
 20
10.29350386989813
 30
0.0
 11
-12.01010458148298
 21
10.28089326989814
 31
0.0
  0
LINE
  5
14A
330
2
100
AcDbEntity
  8
GAIKEI
  6
Continuous
 62
     1
100
AcDbLine
 10
-12.03082138148298
 20
10.30590086989815
 30
0.0
 11
-12.02034078148298
 21
10.29350386989813
 31
0.0
  0
LINE
  5
14B
330
2
100
AcDbEntity
  8
GAIKEI
  6
Continuous
 62
     1
100
AcDbLine
 10
-12.04154078148298
 20
10.31809186989812
 30
0.0
 11
-12.03082138148298
 21
10.30590086989815
 31
0.0
  0
LINE
  5
14C
330
2
100
AcDbEntity
  8
GAIKEI
  6
Continuous
 62
     1
100
AcDbLine
 10
-12.05248078148298
 20
10.33007786989813
 30
0.0
 11
-12.04154078148298
 21
10.31809186989812
 31
0.0
  0
LINE
  5
14D
330
2
100
AcDbEntity
  8
GAIKEI
  6
Continuous
 62
     1
100
AcDbLine
 10
-12.06365278148297
 20
10.34184786989811
 30
0.0
 11
-12.05248078148298
 21
10.33007786989813
 31
0.0
  0
LINE
  5
14E
330
2
100
AcDbEntity
  8
GAIKEI
  6
Continuous
 62
     1
100
AcDbLine
 10
-12.07506098148298
 20
10.35338566989813
 30
0.0
 11
-12.06365278148297
 21
10.34184786989811
 31
0.0
  0
LINE
  5
14F
330
2
100
AcDbEntity
  8
GAIKEI
  6
Continuous
 62
     1
100
AcDbLine
 10
-12.08669278148298
 20
10.36469786989815
 30
0.0
 11
-12.07506098148298
 21
10.35338566989813
 31
0.0
  0
LINE
  5
150
330
2
100
AcDbEntity
  8
GAIKEI
  6
Continuous
 62
     1
100
AcDbLine
 10
-12.09853878148297
 20
10.37578846989814
 30
0.0
 11
-12.08669278148298
 21
10.36469786989815
 31
0.0
  0
LINE
  5
151
330
2
100
AcDbEntity
  8
GAIKEI
  6
Continuous
 62
     1
100
AcDbLine
 10
-12.11059878148299
 20
10.38664586989813
 30
0.0
 11
-12.09853878148297
 21
10.37578846989814
 31
0.0
  0
LINE
  5
152
330
2
100
AcDbEntity
  8
GAIKEI
  6
Continuous
 62
     1
100
AcDbLine
 10
-12.12288458148299
 20
10.39725446989814
 30
0.0
 11
-12.11059878148299
 21
10.38664586989813
 31
0.0
  0
LINE
  5
153
330
2
100
AcDbEntity
  8
GAIKEI
  6
Continuous
 62
     1
100
AcDbLine
 10
-12.135372781483
 20
10.40762386989814
 30
0.0
 11
-12.12288458148299
 21
10.39725446989814
 31
0.0
  0
LINE
  5
154
330
2
100
AcDbEntity
  8
GAIKEI
  6
Continuous
 62
     1
100
AcDbLine
 10
-12.14806278148299
 20
10.41775846989813
 30
0.0
 11
-12.135372781483
 21
10.40762386989814
 31
0.0
  0
LINE
  5
155
330
2
100
AcDbEntity
  8
GAIKEI
  6
Continuous
 62
     1
100
AcDbLine
 10
-12.16094478148298
 20
10.42764786989815
 30
0.0
 11
-12.14806278148299
 21
10.41775846989813
 31
0.0
  0
LINE
  5
156
330
2
100
AcDbEntity
  8
GAIKEI
  6
Continuous
 62
     1
100
AcDbLine
 10
-12.17403318148297
 20
10.43728066989814
 30
0.0
 11
-12.16094478148298
 21
10.42764786989815
 31
0.0
  0
LINE
  5
157
330
2
100
AcDbEntity
  8
GAIKEI
  6
Continuous
 62
     1
100
AcDbLine
 10
-12.18730278148297
 20
10.44666186989815
 30
0.0
 11
-12.17403318148297
 21
10.43728066989814
 31
0.0
  0
LINE
  5
158
330
2
100
AcDbEntity
  8
GAIKEI
  6
Continuous
 62
     1
100
AcDbLine
 10
-12.20075518148297
 20
10.45580146989815
 30
0.0
 11
-12.18730278148297
 21
10.44666186989815
 31
0.0
  0
LINE
  5
159
330
2
100
AcDbEntity
  8
GAIKEI
  6
Continuous
 62
     1
100
AcDbLine
 10
-12.21437878148296
 20
10.46468386989812
 30
0.0
 11
-12.20075518148297
 21
10.45580146989815
 31
0.0
  0
LINE
  5
15A
330
2
100
AcDbEntity
  8
GAIKEI
  6
Continuous
 62
     1
100
AcDbLine
 10
-12.22819058148298
 20
10.47329926989815
 30
0.0
 11
-12.21437878148296
 21
10.46468386989812
 31
0.0
  0
LINE
  5
15B
330
2
100
AcDbEntity
  8
GAIKEI
  6
Continuous
 62
     1
100
AcDbLine
 10
-12.24216278148299
 20
10.48165186989814
 30
0.0
 11
-12.22819058148298
 21
10.47329926989815
 31
0.0
  0
LINE
  5
15C
330
2
100
AcDbEntity
  8
GAIKEI
  6
Continuous
 62
     1
100
AcDbLine
 10
-12.25629958148298
 20
10.48975306989814
 30
0.0
 11
-12.24216278148299
 21
10.48165186989814
 31
0.0
  0
LINE
  5
15D
330
2
100
AcDbEntity
  8
GAIKEI
  6
Continuous
 62
     1
100
AcDbLine
 10
-12.27058678148299
 20
10.49758586989813
 30
0.0
 11
-12.25629958148298
 21
10.48975306989814
 31
0.0
  0
LINE
  5
15E
330
2
100
AcDbEntity
  8
GAIKEI
  6
Continuous
 62
     1
100
AcDbLine
 10
-12.28504278148298
 20
10.50514086989813
 30
0.0
 11
-12.27058678148299
 21
10.49758586989813
 31
0.0
  0
LINE
  5
15F
330
2
100
AcDbEntity
  8
GAIKEI
  6
Continuous
 62
     1
100
AcDbLine
 10
-12.29963878148299
 20
10.51242186989813
 30
0.0
 11
-12.28504278148298
 21
10.50514086989813
 31
0.0
  0
LINE
  5
160
330
2
100
AcDbEntity
  8
GAIKEI
  6
Continuous
 62
     1
100
AcDbLine
 10
-12.31438178148298
 20
10.51944366989815
 30
0.0
 11
-12.29963878148299
 21
10.51242186989813
 31
0.0
  0
LINE
  5
161
330
2
100
AcDbEntity
  8
GAIKEI
  6
Continuous
 62
     1
100
AcDbLine
 10
-12.32925478148297
 20
10.52618586989814
 30
0.0
 11
-12.31438178148298
 21
10.51944366989815
 31
0.0
  0
LINE
  5
162
330
2
100
AcDbEntity
  8
GAIKEI
  6
Continuous
 62
     1
100
AcDbLine
 10
-12.34427618148297
 20
10.53263946989813
 30
0.0
 11
-12.32925478148297
 21
10.52618586989814
 31
0.0
  0
LINE
  5
163
330
2
100
AcDbEntity
  8
GAIKEI
  6
Continuous
 62
     1
100
AcDbLine
 10
-12.35941678148299
 20
10.53880786989813
 30
0.0
 11
-12.34427618148297
 21
10.53263946989813
 31
0.0
  0
LINE
  5
164
330
2
100
AcDbEntity
  8
GAIKEI
  6
Continuous
 62
     1
100
AcDbLine
 10
-12.37468738148297
 20
10.54470606989815
 30
0.0
 11
-12.35941678148299
 21
10.53880786989813
 31
0.0
  0
LINE
  5
165
330
2
100
AcDbEntity
  8
GAIKEI
  6
Continuous
 62
     1
100
AcDbLine
 10
-12.39006678148297
 20
10.55031386989813
 30
0.0
 11
-12.37468738148297
 21
10.54470606989815
 31
0.0
  0
LINE
  5
166
330
2
100
AcDbEntity
  8
GAIKEI
  6
Continuous
 62
     1
100
AcDbLine
 10
-12.40557578148298
 20
10.55562386989814
 30
0.0
 11
-12.39006678148297
 21
10.55031386989813
 31
0.0
  0
LINE
  5
167
330
2
100
AcDbEntity
  8
GAIKEI
  6
Continuous
 62
     1
100
AcDbLine
 10
-12.42118278148297
 20
10.56063786989813
 30
0.0
 11
-12.40557578148298
 21
10.55562386989814
 31
0.0
  0
LINE
  5
168
330
2
100
AcDbEntity
  8
GAIKEI
  6
Continuous
 62
     1
100
AcDbLine
 10
-12.43690198148297
 20
10.56537146989814
 30
0.0
 11
-12.42118278148297
 21
10.56063786989813
 31
0.0
  0
LINE
  5
169
330
2
100
AcDbEntity
  8
GAIKEI
  6
Continuous
 62
     1
100
AcDbLine
 10
-12.45270878148295
 20
10.56980386989815
 30
0.0
 11
-12.43690198148297
 21
10.56537146989814
 31
0.0
  0
LINE
  5
16A
330
2
100
AcDbEntity
  8
GAIKEI
  6
Continuous
 62
     1
100
AcDbLine
 10
-12.46862558148297
 20
10.57392826989812
 30
0.0
 11
-12.45270878148295
 21
10.56980386989815
 31
0.0
  0
LINE
  5
16B
330
2
100
AcDbEntity
  8
GAIKEI
  6
Continuous
 62
     1
100
AcDbLine
 10
-12.48461878148299
 20
10.57774586989814
 30
0.0
 11
-12.46862558148297
 21
10.57392826989812
 31
0.0
  0
LINE
  5
16C
330
2
100
AcDbEntity
  8
GAIKEI
  6
Continuous
 62
     1
100
AcDbLine
 10
-12.50070818148296
 20
10.58127366989814
 30
0.0
 11
-12.48461878148299
 21
10.57774586989814
 31
0.0
  0
LINE
  5
16D
330
2
100
AcDbEntity
  8
GAIKEI
  6
Continuous
 62
     1
100
AcDbLine
 10
-12.51686278148298
 20
10.58448986989813
 30
0.0
 11
-12.50070818148296
 21
10.58127366989814
 31
0.0
  0
LINE
  5
16E
330
2
100
AcDbEntity
  8
GAIKEI
  6
Continuous
 62
     1
100
AcDbLine
 10
-12.53311118148298
 20
10.58738546989812
 30
0.0
 11
-12.51686278148298
 21
10.58448986989813
 31
0.0
  0
LINE
  5
16F
330
2
100
AcDbEntity
  8
GAIKEI
  6
Continuous
 62
     1
100
AcDbLine
 10
-12.549412781483
 20
10.58996386989813
 30
0.0
 11
-12.53311118148298
 21
10.58738546989812
 31
0.0
  0
LINE
  5
170
330
2
100
AcDbEntity
  8
GAIKEI
  6
Continuous
 62
     1
100
AcDbLine
 10
-12.56579498148298
 20
10.59224286989814
 30
0.0
 11
-12.549412781483
 21
10.58996386989813
 31
0.0
  0
LINE
  5
171
330
2
100
AcDbEntity
  8
GAIKEI
  6
Continuous
 62
     1
100
AcDbLine
 10
-12.58221878148296
 20
10.59419986989815
 30
0.0
 11
-12.56579498148298
 21
10.59224286989814
 31
0.0
  0
LINE
  5
172
330
2
100
AcDbEntity
  8
GAIKEI
  6
Continuous
 62
     1
100
AcDbLine
 10
-12.59871938148299
 20
10.59582646989813
 30
0.0
 11
-12.58221878148296
 21
10.59419986989815
 31
0.0
  0
LINE
  5
173
330
2
100
AcDbEntity
  8
GAIKEI
  6
Continuous
 62
     1
100
AcDbLine
 10
-12.61524878148299
 20
10.59712586989812
 30
0.0
 11
-12.59871938148299
 21
10.59582646989813
 31
0.0
  0
LINE
  5
174
330
2
100
AcDbEntity
  8
GAIKEI
  6
Continuous
 62
     1
100
AcDbLine
 10
-12.63184558148299
 20
10.59811226989814
 30
0.0
 11
-12.61524878148299
 21
10.59712586989812
 31
0.0
  0
LINE
  5
175
330
2
100
AcDbEntity
  8
GAIKEI
  6
Continuous
 62
     1
100
AcDbLine
 10
-12.64845878148296
 20
10.59876986989815
 30
0.0
 11
-12.63184558148299
 21
10.59811226989814
 31
0.0
  0
LINE
  5
176
330
2
100
AcDbEntity
  8
GAIKEI
  6
Continuous
 62
     1
100
AcDbLine
 10
-12.66513238148297
 20
10.59908206989812
 30
0.0
 11
-12.64845878148296
 21
10.59876986989815
 31
0.0
  0
LINE
  5
177
330
2
100
AcDbEntity
  8
GAIKEI
  6
Continuous
 62
     1
100
AcDbLine
 10
-12.68180878148297
 20
10.59906586989814
 30
0.0
 11
-12.66513238148297
 21
10.59908206989812
 31
0.0
  0
LINE
  5
178
330
2
100
AcDbEntity
  8
GAIKEI
  6
Continuous
 62
     1
100
AcDbLine
 10
-12.69853078148299
 20
10.59872686989814
 30
0.0
 11
-12.68180878148297
 21
10.59906586989814
 31
0.0
  0
LINE
  5
179
330
2
100
AcDbEntity
  8
GAIKEI
  6
Continuous
 62
     1
100
AcDbLine
 10
-12.71524278148297
 20
10.59805986989812
 30
0.0
 11
-12.69853078148299
 21
10.59872686989814
 31
0.0
  0
LINE
  5
17A
330
2
100
AcDbEntity
  8
GAIKEI
  6
Continuous
 62
     1
100
AcDbLine
 10
-12.73198538148295
 20
10.59704466989814
 30
0.0
 11
-12.71524278148297
 21
10.59805986989812
 31
0.0
  0
LINE
  5
17B
330
2
100
AcDbEntity
  8
GAIKEI
  6
Continuous
 62
     1
100
AcDbLine
 10
-12.74870478148298
 20
10.59570186989813
 30
0.0
 11
-12.73198538148295
 21
10.59704466989814
 31
0.0
  0
LINE
  5
17C
330
2
100
AcDbEntity
  8
GAIKEI
  6
Continuous
 62
     1
100
AcDbLine
 10
-12.76543858148298
 20
10.59403746989812
 30
0.0
 11
-12.74870478148298
 21
10.59570186989813
 31
0.0
  0
LINE
  5
17D
330
2
100
AcDbEntity
  8
GAIKEI
  6
Continuous
 62
     1
100
AcDbLine
 10
-12.78213678148296
 20
10.59204586989813
 30
0.0
 11
-12.76543858148298
 21
10.59403746989812
 31
0.0
  0
LINE
  5
17E
330
2
100
AcDbEntity
  8
GAIKEI
  6
Continuous
 62
     1
100
AcDbLine
 10
-12.79883238148298
 20
10.58970646989815
 30
0.0
 11
-12.78213678148296
 21
10.59204586989813
 31
0.0
  0
LINE
  5
17F
330
2
100
AcDbEntity
  8
GAIKEI
  6
Continuous
 62
     1
100
AcDbLine
 10
-12.81547878148296
 20
10.58703986989812
 30
0.0
 11
-12.79883238148298
 21
10.58970646989815
 31
0.0
  0
LINE
  5
180
330
2
100
AcDbEntity
  8
GAIKEI
  6
Continuous
 62
     1
100
AcDbLine
 10
-12.83210878148298
 20
10.58405126989814
 30
0.0
 11
-12.81547878148296
 21
10.58703986989812
 31
0.0
  0
LINE
  5
181
330
2
100
AcDbEntity
  8
GAIKEI
  6
Continuous
 62
     1
100
AcDbLine
 10
-12.84867678148299
 20
10.58073586989812
 30
0.0
 11
-12.83210878148298
 21
10.58405126989814
 31
0.0
  0
LINE
  5
182
330
2
100
AcDbEntity
  8
GAIKEI
  6
Continuous
 62
     1
100
AcDbLine
 10
-12.86521058148295
 20
10.57707226989814
 30
0.0
 11
-12.84867678148299
 21
10.58073586989812
 31
0.0
  0
LINE
  5
183
330
2
100
AcDbEntity
  8
GAIKEI
  6
Continuous
 62
     1
100
AcDbLine
 10
-12.88166878148297
 20
10.57308186989811
 30
0.0
 11
-12.86521058148295
 21
10.57707226989814
 31
0.0
  0
LINE
  5
184
330
2
100
AcDbEntity
  8
GAIKEI
  6
Continuous
 62
     1
100
AcDbLine
 10
-12.89808138148297
 20
10.56877126989815
 30
0.0
 11
-12.88166878148297
 21
10.57308186989811
 31
0.0
  0
LINE
  5
185
330
2
100
AcDbEntity
  8
GAIKEI
  6
Continuous
 62
     1
100
AcDbLine
 10
-12.91440478148297
 20
10.56413386989814
 30
0.0
 11
-12.89808138148297
 21
10.56877126989815
 31
0.0
  0
LINE
  5
186
330
2
100
AcDbEntity
  8
GAIKEI
  6
Continuous
 62
     1
100
AcDbLine
 10
-12.93066178148299
 20
10.55914966989812
 30
0.0
 11
-12.91440478148297
 21
10.56413386989814
 31
0.0
  0
LINE
  5
187
330
2
100
AcDbEntity
  8
GAIKEI
  6
Continuous
 62
     1
100
AcDbLine
 10
-12.94681478148297
 20
10.55383786989813
 30
0.0
 11
-12.93066178148299
 21
10.55914966989812
 31
0.0
  0
LINE
  5
188
330
2
100
AcDbEntity
  8
GAIKEI
  6
Continuous
 62
     1
100
AcDbLine
 10
-12.962893581483
 20
10.54820526989812
 30
0.0
 11
-12.94681478148297
 21
10.55383786989813
 31
0.0
  0
LINE
  5
189
330
2
100
AcDbEntity
  8
GAIKEI
  6
Continuous
 62
     1
100
AcDbLine
 10
-12.97885478148296
 20
10.54224786989812
 30
0.0
 11
-12.962893581483
 21
10.54820526989812
 31
0.0
  0
LINE
  5
18A
330
2
100
AcDbEntity
  8
GAIKEI
  6
Continuous
 62
     1
100
AcDbLine
 10
-12.99471918148299
 20
10.53593786989813
 30
0.0
 11
-12.97885478148296
 21
10.54224786989812
 31
0.0
  0
LINE
  5
18B
330
2
100
AcDbEntity
  8
GAIKEI
  6
Continuous
 62
     1
100
AcDbLine
 10
-13.01045278148297
 20
10.52930786989813
 30
0.0
 11
-12.99471918148299
 21
10.53593786989813
 31
0.0
  0
LINE
  5
18C
330
2
100
AcDbEntity
  8
GAIKEI
  6
Continuous
 62
     1
100
AcDbLine
 10
-13.02608238148298
 20
10.52235646989814
 30
0.0
 11
-13.01045278148297
 21
10.52930786989813
 31
0.0
  0
LINE
  5
18D
330
2
100
AcDbEntity
  8
GAIKEI
  6
Continuous
 62
     1
100
AcDbLine
 10
-13.04156878148296
 20
10.51509186989815
 30
0.0
 11
-13.02608238148298
 21
10.52235646989814
 31
0.0
  0
LINE
  5
18E
330
2
100
AcDbEntity
  8
GAIKEI
  6
Continuous
 62
     1
100
AcDbLine
 10
-13.05692618148299
 20
10.50748246989812
 30
0.0
 11
-13.04156878148296
 21
10.51509186989815
 31
0.0
  0
LINE
  5
18F
330
2
100
AcDbEntity
  8
GAIKEI
  6
Continuous
 62
     1
100
AcDbLine
 10
-13.07212878148297
 20
10.49956786989816
 30
0.0
 11
-13.05692618148299
 21
10.50748246989812
 31
0.0
  0
LINE
  5
190
330
2
100
AcDbEntity
  8
GAIKEI
  6
Continuous
 62
     1
100
AcDbLine
 10
-13.08719598148298
 20
10.49134566989815
 30
0.0
 11
-13.07212878148297
 21
10.49956786989816
 31
0.0
  0
LINE
  5
191
330
2
100
AcDbEntity
  8
GAIKEI
  6
Continuous
 62
     1
100
AcDbLine
 10
-13.102096781483
 20
10.48282586989813
 30
0.0
 11
-13.08719598148298
 21
10.49134566989815
 31
0.0
  0
LINE
  5
192
330
2
100
AcDbEntity
  8
GAIKEI
  6
Continuous
 62
     1
100
AcDbLine
 10
-13.11683398148298
 20
10.47398426989815
 30
0.0
 11
-13.102096781483
 21
10.48282586989813
 31
0.0
  0
LINE
  5
193
330
2
100
AcDbEntity
  8
GAIKEI
  6
Continuous
 62
     1
100
AcDbLine
 10
-13.13139278148298
 20
10.46485186989815
 30
0.0
 11
-13.11683398148298
 21
10.47398426989815
 31
0.0
  0
LINE
  5
194
330
2
100
AcDbEntity
  8
GAIKEI
  6
Continuous
 62
     1
100
AcDbLine
 10
-13.14578678148297
 20
10.45543286989814
 30
0.0
 11
-13.13139278148298
 21
10.46485186989815
 31
0.0
  0
LINE
  5
195
330
2
100
AcDbEntity
  8
GAIKEI
  6
Continuous
 62
     1
100
AcDbLine
 10
-13.15999078148297
 20
10.44572986989811
 30
0.0
 11
-13.14578678148297
 21
10.45543286989814
 31
0.0
  0
LINE
  5
196
330
2
100
AcDbEntity
  8
GAIKEI
  6
Continuous
 62
     1
100
AcDbLine
 10
-13.17399778148297
 20
10.43572746989812
 30
0.0
 11
-13.15999078148297
 21
10.44572986989811
 31
0.0
  0
LINE
  5
197
330
2
100
AcDbEntity
  8
GAIKEI
  6
Continuous
 62
     1
100
AcDbLine
 10
-13.18780278148296
 20
10.42544786989813
 30
0.0
 11
-13.17399778148297
 21
10.43572746989812
 31
0.0
  0
LINE
  5
198
330
2
100
AcDbEntity
  8
GAIKEI
  6
Continuous
 62
     1
100
AcDbLine
 10
-13.20141178148299
 20
10.41490126989814
 30
0.0
 11
-13.18780278148296
 21
10.42544786989813
 31
0.0
  0
LINE
  5
199
330
2
100
AcDbEntity
  8
GAIKEI
  6
Continuous
 62
     1
100
AcDbLine
 10
-13.21480678148299
 20
10.40408386989813
 30
0.0
 11
-13.20141178148299
 21
10.41490126989814
 31
0.0
  0
LINE
  5
19A
330
2
100
AcDbEntity
  8
GAIKEI
  6
Continuous
 62
     1
100
AcDbLine
 10
-13.22797358148298
 20
10.39299126989812
 30
0.0
 11
-13.21480678148299
 21
10.40408386989813
 31
0.0
  0
LINE
  5
19B
330
2
100
AcDbEntity
  8
GAIKEI
  6
Continuous
 62
     1
100
AcDbLine
 10
-13.24091278148299
 20
10.38163386989814
 30
0.0
 11
-13.22797358148298
 21
10.39299126989812
 31
0.0
  0
LINE
  5
19C
330
2
100
AcDbEntity
  8
GAIKEI
  6
Continuous
 62
     1
100
AcDbLine
 10
-13.25362738148297
 20
10.37003046989812
 30
0.0
 11
-13.24091278148299
 21
10.38163386989814
 31
0.0
  0
LINE
  5
19D
330
2
100
AcDbEntity
  8
GAIKEI
  6
Continuous
 62
     1
100
AcDbLine
 10
-13.26610278148297
 20
10.35816986989815
 30
0.0
 11
-13.25362738148297
 21
10.37003046989812
 31
0.0
  0
LINE
  5
19E
330
2
100
AcDbEntity
  8
GAIKEI
  6
Continuous
 62
     1
100
AcDbLine
 10
-13.27831498148299
 20
10.34605146989813
 30
0.0
 11
-13.26610278148297
 21
10.35816986989815
 31
0.0
  0
LINE
  5
19F
330
2
100
AcDbEntity
  8
GAIKEI
  6
Continuous
 62
     1
100
AcDbLine
 10
-13.29027678148299
 20
10.33368586989815
 30
0.0
 11
-13.27831498148299
 21
10.34605146989813
 31
0.0
  0
LINE
  5
1A0
330
2
100
AcDbEntity
  8
GAIKEI
  6
Continuous
 62
     1
100
AcDbLine
 10
-13.30198518148296
 20
10.32109486989813
 30
0.0
 11
-13.29027678148299
 21
10.33368586989815
 31
0.0
  0
LINE
  5
1A1
330
2
100
AcDbEntity
  8
GAIKEI
  6
Continuous
 62
     1
100
AcDbLine
 10
-13.31343478148295
 20
10.30826786989814
 30
0.0
 11
-13.30198518148296
 21
10.32109486989813
 31
0.0
  0
LINE
  5
1A2
330
2
100
AcDbEntity
  8
GAIKEI
  6
Continuous
 62
     1
100
AcDbLine
 10
-13.32459418148298
 20
10.29520486989813
 30
0.0
 11
-13.31343478148295
 21
10.30826786989814
 31
0.0
  0
LINE
  5
1A3
330
2
100
AcDbEntity
  8
GAIKEI
  6
Continuous
 62
     1
100
AcDbLine
 10
-13.33548878148298
 20
10.28191986989813
 30
0.0
 11
-13.32459418148298
 21
10.29520486989813
 31
0.0
  0
LINE
  5
1A4
330
2
100
AcDbEntity
  8
GAIKEI
  6
Continuous
 62
     1
100
AcDbLine
 10
-13.34611058148297
 20
10.26843266989811
 30
0.0
 11
-13.33548878148298
 21
10.28191986989813
 31
0.0
  0
LINE
  5
1A5
330
2
100
AcDbEntity
  8
GAIKEI
  6
Continuous
 62
     1
100
AcDbLine
 10
-13.35646078148301
 20
10.25473586989813
 30
0.0
 11
-13.34611058148297
 21
10.26843266989811
 31
0.0
  0
LINE
  5
1A6
330
2
100
AcDbEntity
  8
GAIKEI
  6
Continuous
 62
     1
100
AcDbLine
 10
-13.36650898148298
 20
10.24083646989814
 30
0.0
 11
-13.35646078148301
 21
10.25473586989813
 31
0.0
  0
LINE
  5
1A7
330
2
100
AcDbEntity
  8
GAIKEI
  6
Continuous
 62
     1
100
AcDbLine
 10
-13.37627878148299
 20
10.22673986989815
 30
0.0
 11
-13.36650898148298
 21
10.24083646989814
 31
0.0
  0
LINE
  5
1A8
330
2
100
AcDbEntity
  8
GAIKEI
  6
Continuous
 62
     1
100
AcDbLine
 10
-13.38576318148298
 20
10.21247266989812
 30
0.0
 11
-13.37627878148299
 21
10.22673986989815
 31
0.0
  0
LINE
  5
1A9
330
2
100
AcDbEntity
  8
GAIKEI
  6
Continuous
 62
     1
100
AcDbLine
 10
-13.39496278148297
 20
10.19801986989813
 30
0.0
 11
-13.38576318148298
 21
10.21247266989812
 31
0.0
  0
LINE
  5
1AA
330
2
100
AcDbEntity
  8
GAIKEI
  6
Continuous
 62
     1
100
AcDbLine
 10
-13.40384638148299
 20
10.18339846989812
 30
0.0
 11
-13.39496278148297
 21
10.19801986989813
 31
0.0
  0
LINE
  5
1AB
330
2
100
AcDbEntity
  8
GAIKEI
  6
Continuous
 62
     1
100
AcDbLine
 10
-13.41243878148299
 20
10.16860386989816
 30
0.0
 11
-13.40384638148299
 21
10.18339846989812
 31
0.0
  0
LINE
  5
1AC
330
2
100
AcDbEntity
  8
GAIKEI
  6
Continuous
 62
     1
100
AcDbLine
 10
-13.42073378148296
 20
10.15366886989812
 30
0.0
 11
-13.41243878148299
 21
10.16860386989816
 31
0.0
  0
LINE
  5
1AD
330
2
100
AcDbEntity
  8
GAIKEI
  6
Continuous
 62
     1
100
AcDbLine
 10
-13.42873078148298
 20
10.13857186989813
 30
0.0
 11
-13.42073378148296
 21
10.15366886989812
 31
0.0
  0
LINE
  5
1AE
330
2
100
AcDbEntity
  8
GAIKEI
  6
Continuous
 62
     1
100
AcDbLine
 10
-13.43639758148299
 20
10.12333986989813
 30
0.0
 11
-13.42873078148298
 21
10.13857186989813
 31
0.0
  0
LINE
  5
1AF
330
2
100
AcDbEntity
  8
GAIKEI
  6
Continuous
 62
     1
100
AcDbLine
 10
-13.44375878148298
 20
10.10795786989814
 30
0.0
 11
-13.43639758148299
 21
10.12333986989813
 31
0.0
  0
LINE
  5
1B0
330
2
100
AcDbEntity
  8
GAIKEI
  6
Continuous
 62
     1
100
AcDbLine
 10
-13.45080958148298
 20
10.09246906989813
 30
0.0
 11
-13.44375878148298
 21
10.10795786989814
 31
0.0
  0
LINE
  5
1B1
330
2
100
AcDbEntity
  8
GAIKEI
  6
Continuous
 62
     1
100
AcDbLine
 10
-13.45754878148298
 20
10.07684186989814
 30
0.0
 11
-13.45080958148298
 21
10.09246906989813
 31
0.0
  0
LINE
  5
1B2
330
2
100
AcDbEntity
  8
GAIKEI
  6
Continuous
 62
     1
100
AcDbLine
 10
-13.46394278148298
 20
10.06111226989816
 30
0.0
 11
-13.45754878148298
 21
10.07684186989814
 31
0.0
  0
LINE
  5
1B3
330
2
100
AcDbEntity
  8
GAIKEI
  6
Continuous
 62
     1
100
AcDbLine
 10
-13.47002078148298
 20
10.04525786989813
 30
0.0
 11
-13.46394278148298
 21
10.06111226989816
 31
0.0
  0
LINE
  5
1B4
330
2
100
AcDbEntity
  8
GAIKEI
  6
Continuous
 62
     1
100
AcDbLine
 10
-13.47577718148298
 20
10.02932466989813
 30
0.0
 11
-13.47002078148298
 21
10.04525786989813
 31
0.0
  0
LINE
  5
1B5
330
2
100
AcDbEntity
  8
GAIKEI
  6
Continuous
 62
     1
100
AcDbLine
 10
-13.48121478148297
 20
10.01327986989813
 30
0.0
 11
-13.47577718148298
 21
10.02932466989813
 31
0.0
  0
LINE
  5
1B6
330
2
100
AcDbEntity
  8
GAIKEI
  6
Continuous
 62
     1
100
AcDbLine
 10
-13.48629978148295
 20
9.997160669898136
 30
0.0
 11
-13.48121478148297
 21
10.01327986989813
 31
0.0
  0
LINE
  5
1B7
330
2
100
AcDbEntity
  8
GAIKEI
  6
Continuous
 62
     1
100
AcDbLine
 10
-13.49106478148297
 20
9.98094386989814
 30
0.0
 11
-13.48629978148295
 21
9.997160669898136
 31
0.0
  0
LINE
  5
1B8
330
2
100
AcDbEntity
  8
GAIKEI
  6
Continuous
 62
     1
100
AcDbLine
 10
-13.49550558148297
 20
9.964671069898116
 30
0.0
 11
-13.49106478148297
 21
9.98094386989814
 31
0.0
  0
LINE
  5
1B9
330
2
100
AcDbEntity
  8
GAIKEI
  6
Continuous
 62
     1
100
AcDbLine
 10
-13.49962478148296
 20
9.948313869898129
 30
0.0
 11
-13.49550558148297
 21
9.964671069898116
 31
0.0
  0
LINE
  5
1BA
330
2
100
AcDbEntity
  8
GAIKEI
  6
Continuous
 62
     1
100
AcDbLine
 10
-13.50339538148299
 20
9.931907469898135
 30
0.0
 11
-13.49962478148296
 21
9.948313869898129
 31
0.0
  0
LINE
  5
1BB
330
2
100
AcDbEntity
  8
GAIKEI
  6
Continuous
 62
     1
100
AcDbLine
 10
-13.50684278148299
 20
9.915429869898133
 30
0.0
 11
-13.50339538148299
 21
9.931907469898135
 31
0.0
  0
LINE
  5
1BC
330
2
100
AcDbEntity
  8
GAIKEI
  6
Continuous
 62
     1
100
AcDbLine
 10
-13.50996898148295
 20
9.898917069898118
 30
0.0
 11
-13.50684278148299
 21
9.915429869898133
 31
0.0
  0
LINE
  5
1BD
330
2
100
AcDbEntity
  8
GAIKEI
  6
Continuous
 62
     1
100
AcDbLine
 10
-13.51277078148297
 20
9.882345869898131
 30
0.0
 11
-13.50996898148295
 21
9.898917069898118
 31
0.0
  0
LINE
  5
1BE
330
2
100
AcDbEntity
  8
GAIKEI
  6
Continuous
 62
     1
100
AcDbLine
 10
-13.51522538148296
 20
9.865749469898133
 30
0.0
 11
-13.51277078148297
 21
9.882345869898131
 31
0.0
  0
LINE
  5
1BF
330
2
100
AcDbEntity
  8
GAIKEI
  6
Continuous
 62
     1
100
AcDbLine
 10
-13.51735478148299
 20
9.849107869898119
 30
0.0
 11
-13.51522538148296
 21
9.865749469898133
 31
0.0
  0
LINE
  5
1C0
330
2
100
AcDbEntity
  8
GAIKEI
  6
Continuous
 62
     1
100
AcDbLine
 10
-13.51916338148299
 20
9.832463069898125
 30
0.0
 11
-13.51735478148299
 21
9.849107869898119
 31
0.0
  0
LINE
  5
1C1
330
2
100
AcDbEntity
  8
GAIKEI
  6
Continuous
 62
     1
100
AcDbLine
 10
-13.52064478148298
 20
9.815785869898121
 30
0.0
 11
-13.51916338148299
 21
9.832463069898125
 31
0.0
  0
LINE
  5
1C2
330
2
100
AcDbEntity
  8
GAIKEI
  6
Continuous
 62
     1
100
AcDbLine
 10
-13.52178178148298
 20
9.799116469898137
 30
0.0
 11
-13.52064478148298
 21
9.815785869898121
 31
0.0
  0
LINE
  5
1C3
330
2
100
AcDbEntity
  8
GAIKEI
  6
Continuous
 62
     1
100
AcDbLine
 10
-13.52259078148299
 20
9.782427869898128
 30
0.0
 11
-13.52178178148298
 21
9.799116469898137
 31
0.0
  0
LINE
  5
1C4
330
2
100
AcDbEntity
  8
GAIKEI
  6
Continuous
 62
     1
100
AcDbLine
 10
-13.52324478148299
 20
9.749031869898146
 30
0.0
 11
-13.52259078148299
 21
9.782427869898128
 31
0.0
  0
LINE
  5
1C5
330
2
100
AcDbEntity
  8
GAIKEI
  6
Continuous
 62
     1
100
AcDbLine
 10
23.63640063464166
 20
17.68845606989811
 30
0.0
 11
23.63640063464166
 21
18.83858686989816
 31
0.0
  0
LINE
  5
1C6
330
2
100
AcDbEntity
  8
GAIKEI
  6
Continuous
 62
     1
100
AcDbLine
 10
23.63640063464166
 20
16.53947686989812
 30
0.0
 11
23.63640063464166
 21
17.68845606989811
 31
0.0
  0
LINE
  5
1C7
330
2
100
AcDbEntity
  8
GAIKEI
  6
Continuous
 62
     1
100
AcDbLine
 10
24.05640063464165
 20
17.44939219808873
 30
0.0
 11
24.05640063464165
 21
17.92752194170751
 31
0.0
  0
ARC
  5
1C8
330
2
100
AcDbEntity
  8
GAIKEI
  6
Continuous
 62
     1
100
AcDbCircle
 10
23.67114263464165
 20
17.09845606989813
 30
0.0
 40
0.06
100
AcDbArc
 50
270.0
 51
344.0546000000001
  0
ARC
  5
1C9
330
2
100
AcDbEntity
  8
GAIKEI
  6
Continuous
 62
     1
100
AcDbCircle
 10
23.67114263464165
 20
18.27845606989814
 30
0.0
 40
0.06
100
AcDbArc
 50
15.94539999999989
 51
90.0
  0
LINE
  5
1CA
330
2
100
AcDbEntity
  8
GAIKEI
  6
Continuous
 62
     1
100
AcDbLine
 10
23.76486663464167
 20
17.68845406989811
 30
0.0
 11
23.76486663464167
 21
18.16882606989813
 31
0.0
  0
LINE
  5
1CB
330
2
100
AcDbEntity
  8
GAIKEI
  6
Continuous
 62
     1
100
AcDbLine
 10
23.76486663464167
 20
17.20808806989811
 30
0.0
 11
23.76486663464167
 21
17.68845406989811
 31
0.0
  0
LINE
  5
1CC
330
2
100
AcDbEntity
  8
GAIKEI
  6
Continuous
 62
     1
100
AcDbLine
 10
23.76486663464167
 20
17.20808806989811
 30
0.0
 11
23.72883463464166
 21
17.08197406989814
 31
0.0
  0
LINE
  5
1CD
330
2
100
AcDbEntity
  8
GAIKEI
  6
Continuous
 62
     1
100
AcDbLine
 10
23.72883463464166
 20
18.29494006989813
 30
0.0
 11
23.76486663464167
 21
18.16882606989813
 31
0.0
  0
ARC
  5
1CE
330
2
100
AcDbEntity
  8
GAIKEI
  6
Continuous
 62
     1
100
AcDbCircle
 10
23.82255863464167
 20
17.19160406989812
 30
0.0
 40
0.06
100
AcDbArc
 50
82.52107289755839
 51
164.054603999999
  0
ARC
  5
1CF
330
2
100
AcDbEntity
  8
GAIKEI
  6
Continuous
 62
     1
100
AcDbCircle
 10
23.82255863464167
 20
18.18531006989812
 30
0.0
 40
0.06
100
AcDbArc
 50
195.9453999999999
 51
277.4789271024389
  0
LINE
  5
1D0
330
2
100
AcDbEntity
  8
GAIKEI
  6
Continuous
 62
     1
100
AcDbLine
 10
23.67114263464165
 20
17.03845606989813
 30
0.0
 11
23.63640063464166
 21
17.03845606989813
 31
0.0
  0
LINE
  5
1D1
330
2
100
AcDbEntity
  8
GAIKEI
  6
Continuous
 62
     1
100
AcDbLine
 10
23.63640063464166
 20
18.33845606989811
 30
0.0
 11
23.67114263464165
 21
18.33845606989811
 31
0.0
  0
LINE
  5
1D2
330
2
100
AcDbEntity
  8
GAIKEI
  6
Continuous
 62
     1
100
AcDbLine
 10
23.63640063464166
 20
18.83858686989816
 30
0.0
 11
23.57042923464164
 21
18.83858686989816
 31
0.0
  0
LINE
  5
1D3
330
2
100
AcDbEntity
  8
GAIKEI
  6
Continuous
 62
     1
100
AcDbLine
 10
23.63640063464166
 20
16.53947686989812
 30
0.0
 11
23.57042923464164
 21
16.53947686989812
 31
0.0
  0
LINE
  5
1D4
330
2
100
AcDbEntity
  8
GAIKEI
  6
Continuous
 62
     1
100
AcDbLine
 10
23.57042923464164
 20
16.53947686989812
 30
0.0
 11
23.57042923464164
 21
18.83858686989816
 31
0.0
  0
ARC
  5
1D5
330
2
100
AcDbEntity
  8
GAIKEI
  6
Continuous
 62
     1
100
AcDbCircle
 10
-19.673242781483
 20
22.34903206989813
 30
0.0
 40
4.4995392
100
AcDbArc
 50
77.92589600000029
 51
102.0741039999997
  0
LINE
  5
1D6
330
2
100
AcDbEntity
  8
GAIKEI
  6
Continuous
100
AcDbLine
 10
-17.31348418148298
 20
28.84836666989813
 30
0.0
 11
-17.31348418148298
 21
26.74903186989815
 31
0.0
  0
LINE
  5
1D7
330
2
100
AcDbEntity
  8
GAIKEI
  6
Continuous
100
AcDbLine
 10
-17.31348418148298
 20
28.84836666989813
 30
0.0
 11
-22.03300138148296
 21
28.84836666989813
 31
0.0
  0
LINE
  5
1D8
330
2
100
AcDbEntity
  8
GAIKEI
  6
Continuous
100
AcDbLine
 10
-22.03300138148296
 20
26.74903186989815
 30
0.0
 11
-22.03300138148296
 21
28.84836666989813
 31
0.0
  0
LINE
  5
1D9
330
2
100
AcDbEntity
  8
GAIKEI
  6
Continuous
100
AcDbLine
 10
26.33852923464164
 20
17.84949206989813
 30
0.0
 11
25.01042923464166
 21
17.84949206989813
 31
0.0
  0
LINE
  5
1DA
330
2
100
AcDbEntity
  8
GAIKEI
  6
Continuous
100
AcDbLine
 10
26.33852923464164
 20
26.84857126989815
 30
0.0
 11
25.01042923464166
 21
26.84857126989815
 31
0.0
  0
LINE
  5
1DB
330
2
100
AcDbEntity
  8
GAIKEI
  6
Continuous
100
AcDbLine
 10
28.31735363464168
 20
20.94917486989814
 30
0.0
 11
31.31026543464165
 21
20.94917486989814
 31
0.0
  0
LINE
  5
1DC
330
2
100
AcDbEntity
  8
GAIKEI
  6
Continuous
 62
     1
100
AcDbLine
 10
25.93860943464165
 20
23.14894986989813
 30
0.0
 11
25.93860943464165
 21
23.54890886989815
 31
0.0
  0
LINE
  5
1DD
330
2
100
AcDbEntity
  8
GAIKEI
  6
Continuous
 62
     1
100
AcDbLine
 10
25.93860943464165
 20
21.14915446989812
 30
0.0
 11
25.93860943464165
 21
21.54911346989814
 31
0.0
  0
LINE
  5
1DE
330
2
100
AcDbEntity
  8
GAIKEI
  6
Continuous
100
AcDbLine
 10
26.73852923464165
 20
26.44857126989814
 30
0.0
 11
26.73852923464165
 21
23.14894986989813
 31
0.0
  0
LINE
  5
1DF
330
2
100
AcDbEntity
  8
GAIKEI
  6
Continuous
 62
     1
100
AcDbLine
 10
25.93860943464165
 20
23.54890886989815
 30
0.0
 11
26.73852923464165
 21
23.54890886989815
 31
0.0
  0
LINE
  5
1E0
330
2
100
AcDbEntity
  8
GAIKEI
  6
Continuous
 62
     1
100
AcDbLine
 10
26.73852923464165
 20
23.14894986989813
 30
0.0
 11
25.53865203464165
 21
23.14894986989813
 31
0.0
  0
LINE
  5
1E1
330
2
100
AcDbEntity
  8
GAIKEI
  6
Continuous
 62
     1
100
AcDbLine
 10
25.53865203464165
 20
26.84857126989815
 30
0.0
 11
25.93860943464165
 21
23.54890886989815
 31
0.0
  0
LINE
  5
1E2
330
2
100
AcDbEntity
  8
GAIKEI
  6
Continuous
100
AcDbLine
 10
32.07018763464166
 20
28.84836666989813
 30
0.0
 11
32.07018763464166
 21
24.24883726989816
 31
0.0
  0
LINE
  5
1E3
330
2
100
AcDbEntity
  8
GAIKEI
  6
Continuous
100
AcDbLine
 10
27.35067063464166
 20
24.24883726989816
 30
0.0
 11
27.35067063464166
 21
28.84836666989813
 31
0.0
  0
LINE
  5
1E4
330
2
100
AcDbEntity
  8
GAIKEI
  6
Continuous
100
AcDbLine
 10
31.91020403464168
 20
24.24883726989816
 30
0.0
 11
31.91020403464168
 21
23.84887826989814
 31
0.0
  0
LINE
  5
1E5
330
2
100
AcDbEntity
  8
GAIKEI
  6
Continuous
100
AcDbLine
 10
27.51065423464166
 20
23.84887826989814
 30
0.0
 11
27.51065423464166
 21
24.24883726989816
 31
0.0
  0
LINE
  5
1E6
330
2
100
AcDbEntity
  8
GAIKEI
  6
Continuous
100
AcDbLine
 10
27.35067063464166
 20
24.24883726989816
 30
0.0
 11
32.07018763464166
 21
24.24883726989816
 31
0.0
  0
LINE
  5
1E7
330
2
100
AcDbEntity
  8
GAIKEI
  6
Continuous
100
AcDbLine
 10
27.51065423464166
 20
23.84887826989814
 30
0.0
 11
31.91020403464168
 21
23.84887826989814
 31
0.0
  0
LINE
  5
1E8
330
2
100
AcDbEntity
  8
GAIKEI
  6
Continuous
100
AcDbLine
 10
28.31735763464167
 20
20.94918526989812
 30
0.0
 11
28.31733563464167
 21
22.40571586989813
 31
0.0
  0
LWPOLYLINE
  5
1E9
330
2
100
AcDbEntity
  8
GAIKEI
  6
Continuous
100
AcDbPolyline
 90
       59
 70
     0
 43
0.0
 10
31.31026543464165
 20
20.94917486989814
 10
31.31023743464167
 20
20.94680726989813
 10
31.31015143464165
 20
20.94441946989815
 10
31.31000743464165
 20
20.94200966989814
 10
31.30980343464165
 20
20.93958386989815
 10
31.30953763464169
 20
20.93714026989815
 10
31.30920963464166
 20
20.93468446989815
 10
31.30881563464166
 20
20.93221866989813
 10
31.30835763464165
 20
20.92974286989812
 10
31.30783363464167
 20
20.92725926989814
 10
31.30724183464167
 20
20.92477346989813
 10
31.30657983464167
 20
20.92228566989815
 10
31.30585183464166
 20
20.91979786989814
 10
31.30505203464168
 20
20.91731426989813
 10
31.30418403464165
 20
20.91483846989814
 10
31.30324423464168
 20
20.91237066989814
 10
31.30223423464168
 20
20.90991506989812
 10
31.30115443464166
 20
20.90747526989813
 10
31.30000443464167
 20
20.90505346989815
 10
31.29878263464167
 20
20.90265366989815
 10
31.29749283464168
 20
20.90027586989814
 10
31.29613283464167
 20
20.89792826989816
 10
31.29470503464168
 20
20.89560846989815
 10
31.29320923464167
 20
20.89332266989814
 10
31.29164943464167
 20
20.89107086989813
 10
31.29002363464164
 20
20.88885906989813
 10
31.28833563464167
 20
20.88668726989812
 10
31.28658383464168
 20
20.88456146989816
 10
31.28477403464166
 20
20.88248186989813
 10
31.28290423464165
 20
20.88045206989812
 10
31.28097843464167
 20
20.87847226989814
 10
31.27899863464168
 20
20.87654846989813
 10
31.27696883464165
 20
20.87467866989815
 10
31.27488903464166
 20
20.87286866989814
 10
31.27276323464168
 20
20.87111686989814
 10
31.27059143464166
 20
20.86942706989811
 10
31.26837983464165
 20
20.86780126989814
 10
31.26613003464167
 20
20.86624146989814
 10
31.26384423464165
 20
20.86474566989813
 10
31.26152443464167
 20
20.86331966989815
 10
31.25917463464165
 20
20.86195786989813
 10
31.25679903464166
 20
20.86067006989813
 10
31.25439723464166
 20
20.85944806989815
 10
31.25197543464165
 20
20.85829826989814
 10
31.24953563464163
 20
20.85721626989812
 10
31.24708003464167
 20
20.85620646989815
 10
31.24461423464166
 20
20.85526646989814
 10
31.24213843464167
 20
20.85439866989813
 10
31.23965263464166
 20
20.85359866989813
 10
31.23716103464167
 20
20.85287086989814
 10
31.23467723464165
 20
20.85220886989814
 10
31.23221143464167
 20
20.85161886989812
 10
31.22970963464167
 20
20.85109306989813
 10
31.22715803464166
 20
20.85063306989815
 10
31.22476623464166
 20
20.85024106989812
 10
31.22260643464165
 20
20.84992106989813
 10
31.21986863464167
 20
20.84964706989814
 10
31.21570123464167
 20
20.84940306989816
 10
31.21027563464165
 20
20.84918726989812
  0
LINE
  5
1EA
330
2
100
AcDbEntity
  8
GAIKEI
  6
Continuous
100
AcDbLine
 10
31.31026543464165
 20
23.84887826989814
 30
0.0
 11
31.31026543464165
 21
20.94917486989814
 31
0.0
  0
LINE
  5
1EB
330
2
100
AcDbEntity
  8
GAIKEI
  6
Continuous
100
AcDbLine
 10
28.11059283464164
 20
23.14954427730612
 30
0.0
 11
28.11059283464164
 21
23.84887826989814
 31
0.0
  0
LINE
  5
1EC
330
2
100
AcDbEntity
  8
GAIKEI
  6
Continuous
100
AcDbLine
 10
28.41735763464166
 20
20.84918526989813
 30
0.0
 11
31.21027563464165
 21
20.84918526989813
 31
0.0
  0
LINE
  5
1ED
330
2
100
AcDbEntity
  8
GAIKEI
  6
Continuous
100
AcDbLine
 10
28.14805703464168
 20
23.04896006989813
 30
0.0
 11
26.73852923464165
 21
23.04896006989813
 31
0.0
  0
LINE
  5
1EE
330
2
100
AcDbEntity
  8
GAIKEI
  6
Continuous
100
AcDbLine
 10
28.31735363464168
 20
21.64910326989815
 30
0.0
 11
26.73852923464165
 21
21.64910326989815
 31
0.0
  0
LINE
  5
1EF
330
2
100
AcDbEntity
  8
GAIKEI
  6
Continuous
 62
     1
100
AcDbLine
 10
25.53865203464165
 20
17.84949206989813
 30
0.0
 11
25.53865203464165
 21
26.84857126989815
 31
0.0
  0
LINE
  5
1F0
330
2
100
AcDbEntity
  8
GAIKEI
  6
Continuous
 62
     1
100
AcDbLine
 10
25.93861583464167
 20
21.14915446989812
 30
0.0
 11
25.53865203464165
 21
17.84951066989814
 31
0.0
  0
LINE
  5
1F1
330
2
100
AcDbEntity
  8
GAIKEI
  6
Continuous
 62
     1
100
AcDbLine
 10
26.73852923464165
 20
21.14915446989812
 30
0.0
 11
25.93861583464167
 21
21.14915446989812
 31
0.0
  0
LINE
  5
1F2
330
2
100
AcDbEntity
  8
GAIKEI
  6
Continuous
 62
     1
100
AcDbLine
 10
26.73852923464165
 20
21.54911346989814
 30
0.0
 11
25.53865203464165
 21
21.54911346989814
 31
0.0
  0
LINE
  5
1F3
330
2
100
AcDbEntity
  8
GAIKEI
  6
Continuous
100
AcDbLine
 10
26.73852923464165
 20
22.34903166989813
 30
0.0
 11
26.73852923464165
 21
21.54911346989814
 31
0.0
  0
LINE
  5
1F4
330
2
100
AcDbEntity
  8
GAIKEI
  6
Continuous
100
AcDbLine
 10
26.73852923464165
 20
23.14894986989813
 30
0.0
 11
26.73852923464165
 21
22.34903166989813
 31
0.0
  0
LINE
  5
1F5
330
2
100
AcDbEntity
  8
GAIKEI
  6
Continuous
100
AcDbLine
 10
26.73852923464165
 20
21.54911346989814
 30
0.0
 11
26.73852923464165
 21
18.24949206989814
 31
0.0
  0
LINE
  5
1F6
330
2
100
AcDbEntity
  8
GAIKEI
  6
Continuous
100
AcDbLine
 10
32.07018763464166
 20
28.84836666989813
 30
0.0
 11
27.35067063464166
 21
28.84836666989813
 31
0.0
  0
LINE
  5
1F7
330
2
100
AcDbEntity
  8
GAIKEI
  6
Continuous
100
AcDbLine
 10
31.71042923464165
 20
31.14903166989814
 30
0.0
 11
31.71042923464165
 21
28.84836666989813
 31
0.0
  0
LINE
  5
1F8
330
2
100
AcDbEntity
  8
GAIKEI
  6
Continuous
100
AcDbLine
 10
27.71042923464165
 20
28.84836666989813
 30
0.0
 11
27.71042923464165
 21
31.14903166989814
 31
0.0
  0
LINE
  5
1F9
330
2
100
AcDbEntity
  8
GAIKEI
  6
Continuous
100
AcDbLine
 10
25.01042923464166
 20
17.84949206989813
 30
0.0
 11
25.01042923464166
 21
26.84857126989815
 31
0.0
  0
LINE
  5
1FA
330
2
100
AcDbEntity
  8
GAIKEI
  6
Continuous
 62
     1
100
AcDbLine
 10
13.07042923464164
 20
8.889031869898133
 30
0.0
 11
13.11042923464166
 21
8.849031869898141
 31
0.0
  0
LINE
  5
1FB
330
2
100
AcDbEntity
  8
GAIKEI
  6
Continuous
 62
     1
100
AcDbLine
 10
13.07042923464164
 20
24.60903186989813
 30
0.0
 11
13.11042923464166
 21
24.64903186989813
 31
0.0
  0
ARC
  5
1FC
330
2
100
AcDbEntity
  8
GAIKEI
  6
Continuous
100
AcDbCircle
 10
42.01042923464166
 20
16.74903186989815
 30
0.0
 40
30.0
100
AcDbArc
 50
161.4255178509896
 51
164.1798900000003
  0
LINE
  5
1FD
330
2
100
AcDbEntity
  8
GAIKEI
  6
Continuous
100
AcDbLine
 10
13.14675923464165
 20
24.92756786989813
 30
0.0
 11
13.14675923464165
 21
8.570463869898134
 31
0.0
  0
ARC
  5
1FE
330
2
100
AcDbEntity
  8
GAIKEI
  6
Continuous
100
AcDbCircle
 10
42.01042923464166
 20
16.74903186989815
 30
0.0
 40
30.0
100
AcDbArc
 50
195.8201299999999
 51
198.5744779917216
  0
LINE
  5
1FF
330
2
100
AcDbEntity
  8
GAIKEI
  6
Continuous
 62
     1
100
AcDbLine
 10
13.11042923464166
 20
24.64903186989813
 30
0.0
 11
13.14675723464165
 21
24.64903186989813
 31
0.0
  0
LINE
  5
200
330
2
100
AcDbEntity
  8
GAIKEI
  6
Continuous
 62
     1
100
AcDbLine
 10
13.11042923464166
 20
8.849031869898141
 30
0.0
 11
13.14675723464165
 21
8.849031869898141
 31
0.0
  0
LWPOLYLINE
  5
201
330
2
100
AcDbEntity
  8
GAIKEI
  6
Continuous
 62
     1
100
AcDbPolyline
 90
      315
 70
     1
 43
0.0
 10
13.49416523464165
 20
9.749031869898146
 10
13.48612723464166
 20
9.782427869898128
 10
13.48223483464167
 20
9.799098069898121
 10
13.47841923464165
 20
9.815785869898121
 10
13.47469663464167
 20
9.832439469898133
 10
13.47105123464166
 20
9.849109869898143
 10
13.46749843464167
 20
9.865720669898138
 10
13.46402323464167
 20
9.882347869898126
 10
13.46065523464168
 20
9.898881069898123
 10
13.45736523464166
 20
9.915429869898133
 10
13.45417963464166
 20
9.931864269898142
 10
13.45107323464168
 20
9.948313869898129
 10
13.44808323464167
 20
9.964622669898119
 10
13.44517323464166
 20
9.980945869898135
 10
13.44237743464165
 20
9.997106869898118
 10
13.43966323464164
 20
10.01328186989812
 10
13.43707563464167
 20
10.02926426989813
 10
13.43457123464162
 20
10.04525986989813
 10
13.43218763464165
 20
10.06104566989813
 10
13.42988923464165
 20
10.07684386989814
 10
13.42772483464165
 20
10.09239606989814
 10
13.42564723464164
 20
10.10795986989814
 10
13.42369523464165
 20
10.12326146989812
 10
13.42183123464164
 20
10.13857386989815
 10
13.42010343464167
 20
10.15358486989811
 10
13.41846523464164
 20
10.16860586989813
 10
13.41695843464168
 20
10.18330926989813
 10
13.41554323464166
 20
10.19802186989813
 10
13.41426843464165
 20
10.21237786989815
 10
13.41308723464166
 20
10.22674186989815
 10
13.41203803464168
 20
10.24073646989814
 10
13.41108523464166
 20
10.25473786989815
 10
13.41027563464166
 20
10.26832706989813
 10
13.40956523464166
 20
10.28192186989812
 10
13.40898863464164
 20
10.29509386989815
 10
13.40851523464167
 20
10.30826986989814
 10
13.40818443464167
 20
10.32097766989813
 10
13.40796123464164
 20
10.33368786989814
 10
13.40786723464165
 20
10.34592866989811
 10
13.40788523464167
 20
10.35816986989815
 10
13.40803943464166
 20
10.36990286989811
 10
13.40830923464165
 20
10.38163386989814
 10
13.40869623464164
 20
10.39286226989813
 10
13.40920323464166
 20
10.40408586989812
 10
13.40983163464165
 20
10.41477086989812
 10
13.41058323464167
 20
10.42544786989813
 10
13.41144123464164
 20
10.43559566989813
 10
13.41242723464165
 20
10.44573186989814
 10
13.41351983464167
 20
10.45530086989814
 10
13.41474523464166
 20
10.46485386989815
 10
13.41606143464167
 20
10.47385166989812
 10
13.41751723464168
 20
10.48282786989813
 10
13.41906443464165
 20
10.49121286989813
 10
13.42075723464168
 20
10.49956986989815
 10
13.42252023464167
 20
10.50734906989814
 10
13.42443723464166
 20
10.51509186989815
 10
13.42642623464167
 20
10.52222446989813
 10
13.42857723464166
 20
10.52930986989813
 10
13.43077643464167
 20
10.53580906989813
 10
13.43314723464169
 20
10.54224786989812
 10
13.43556303464166
 20
10.54808246989813
 10
13.43815723464166
 20
10.55383986989812
 10
13.44077343464164
 20
10.55903666989815
 10
13.44357523464163
 20
10.56413586989814
 10
13.44639563464165
 20
10.56867086989814
 10
13.44940323464166
 20
10.57308386989814
 10
13.45241423464168
 20
10.57698606989814
 10
13.45561323464167
 20
10.58073586989812
 10
13.45882023464165
 20
10.58398186989814
 10
13.46220723464165
 20
10.58703986989812
 10
13.46559843464166
 20
10.58965866989814
 10
13.46915523464164
 20
10.59204786989812
 10
13.47273903464165
 20
10.59401186989814
 10
13.47645923464165
 20
10.59570386989813
 10
13.48022623464166
 20
10.59703826989812
 10
13.48408923464166
 20
10.59806186989812
 10
13.48804783464166
 20
10.59873286989813
 10
13.49204923464168
 20
10.59906586989814
 10
13.49618543464166
 20
10.59909246989815
 10
13.50030923464163
 20
10.59877186989814
 10
13.50462163464166
 20
10.59811926989815
 10
13.50886923464165
 20
10.59712786989811
 10
13.51333683464165
 20
10.59582106989813
 10
13.51770123464166
 20
10.59420186989814
 10
13.52231803464167
 20
10.59222306989812
 10
13.52680523464164
 20
10.58996586989812
 10
13.53154923464166
 20
10.58735026989814
 10
13.53615123464164
 20
10.58449186989816
 10
13.54101943464167
 20
10.58122546989813
 10
13.54573923464164
 20
10.57774786989813
 10
13.55071423464164
 20
10.57386826989813
 10
13.55554123464168
 20
10.56980586989812
 10
13.56062023464164
 20
10.56530266989813
 10
13.56555323464167
 20
10.56063986989812
 10
13.57072363464164
 20
10.55554746989816
 10
13.57575323464166
 20
10.55031586989813
 10
13.58101143464165
 20
10.54462346989814
 10
13.58613323464163
 20
10.53880786989813
 10
13.59146743464165
 20
10.53255146989812
 10
13.59667123464163
 20
10.52618586989814
 10
13.60207803464169
 20
10.51935366989815
 10
13.60735923464168
 20
10.51242386989813
 10
13.61282843464164
 20
10.50504986989813
 10
13.61817723464168
 20
10.49758786989815
 10
13.62370443464164
 20
10.48966086989813
 10
13.62911523464166
 20
10.48165386989814
 10
13.63469003464166
 20
10.47320626989812
 10
13.64015323464167
 20
10.46468586989812
 10
13.64577143464166
 20
10.45570826989814
 10
13.65128123464166
 20
10.44666386989814
 10
13.65693343464164
 20
10.43718766989815
 10
13.66248123464166
 20
10.42764986989815
 10
13.66816203464162
 20
10.41766546989814
 10
13.67374123464165
 20
10.40762386989814
 10
13.67944263464164
 20
10.39716246989812
 10
13.68504523464167
 20
10.38664786989812
 10
13.69076083464165
 20
10.37569886989814
 10
13.69637923464165
 20
10.36469986989814
 10
13.70210143464166
 20
10.35329826989815
 10
13.70772923464165
 20
10.34184986989811
 10
13.71344903464165
 20
10.32999386989814
 10
13.71907723464167
 20
10.31809386989815
 10
13.72478763464164
 20
10.30582026989813
 10
13.73040923464165
 20
10.29350586989812
 10
13.73610323464169
 20
10.28081706989812
 10
13.74171123464165
 20
10.26808986989812
 10
13.74738083464166
 20
10.25502186989814
 10
13.75296723464166
 20
10.24191786989814
 10
13.75860583464165
 20
10.22847486989812
 10
13.76416323464167
 20
10.21499786989813
 10
13.76976283464165
 20
10.20121386989814
 10
13.77528323464167
 20
10.18739786989812
 10
13.78083623464164
 20
10.17327806989814
 10
13.78631123464166
 20
10.15912786989813
 10
13.79181143464166
 20
10.14470526989811
 10
13.79723523464164
 20
10.13025386989812
 10
13.80267303464165
 20
10.11553366989812
 10
13.80803523464164
 20
10.10078586989812
 10
13.81340543464165
 20
10.08580106989814
 10
13.81870123464165
 20
10.07078986989813
 10
13.82399323464165
 20
10.05554866989814
 10
13.82921123464166
 20
10.04028186989813
 10
13.83442183464166
 20
10.02481206989813
 10
13.83955923464165
 20
10.00931786989812
 10
13.84467783464166
 20
9.993631669898121
 10
13.84972323464166
 20
9.977921869898125
 10
13.85474463464166
 20
9.96204526989814
 10
13.85969323464167
 20
9.946145869898117
 10
13.86460683464165
 20
9.930092069898137
 10
13.86944723464165
 20
9.91401586989815
 10
13.87424883464169
 20
9.897808669898125
 10
13.87897723464166
 20
9.881579869898132
 10
13.88365623464165
 20
9.865235469898124
 10
13.88826123464165
 20
9.848869869898123
 10
13.89281443464165
 20
9.832410069898116
 10
13.89729323464166
 20
9.815929869898127
 10
13.90170683464166
 20
9.799371869898152
 10
13.90604523464168
 20
9.782793869898142
 10
13.91031923464166
 20
9.766158669898146
 10
13.91451723464166
 20
9.74950386989812
 10
13.91863783464163
 20
9.732810269898152
 10
13.92268123464163
 20
9.716097869898135
 10
13.92664503464166
 20
9.699377069898133
 10
13.93053123464165
 20
9.682637869898144
 10
13.93432623464164
 20
9.665918669898132
 10
13.93804323464167
 20
9.649181869898143
 10
13.94166843464165
 20
9.632494269898131
 10
13.94521523464166
 20
9.615789869898151
 10
13.94865483464167
 20
9.599166069898132
 10
13.95201523464166
 20
9.58252586989812
 10
13.95527123464165
 20
9.565993669898119
 10
13.95844723464165
 20
9.549445869898136
 10
13.96150303464168
 20
9.533039469898142
 10
13.96447723464166
 20
9.516617869898141
 10
13.96733483464169
 20
9.50036206989813
 10
13.97010923464165
 20
9.484091869898122
 10
13.97275083464166
 20
9.46802486989813
 10
13.97530723464166
 20
9.451943869898144
 10
13.97773783464166
 20
9.436085469898131
 10
13.98008123464166
 20
9.420213869898134
 10
13.98228463464164
 20
9.404604069898141
 10
13.98439923464167
 20
9.388981869898145
 10
13.98638343464168
 20
9.373635669898135
 10
13.98827723464165
 20
9.358277869898131
 10
13.99002803464168
 20
9.343236069898154
 10
13.99168723464169
 20
9.32818386989814
 10
13.99321283464164
 20
9.31346066989812
 10
13.99464523464166
 20
9.298727869898129
 10
13.99593283464165
 20
9.284365069898115
 10
13.99712523464166
 20
9.269993869898144
 10
13.99818223464166
 20
9.256003469898132
 10
13.99914123464163
 20
9.24200586989815
 10
13.99995463464165
 20
9.228431669898156
 10
14.00066723464164
 20
9.214851869898154
 10
14.00124263464164
 20
9.201706069898136
 10
14.00171323464164
 20
9.188555869898124
 10
14.00203963464167
 20
9.175882069898136
 10
14.00225723464169
 20
9.163205869898149
 10
14.00234483464166
 20
9.151009069898151
 10
14.00231923464167
 20
9.13881186989812
 10
14.00215663464166
 20
9.127129869898141
 10
14.00187723464165
 20
9.115449869898128
 10
14.00147783464166
 20
9.104279469898131
 10
14.00095723464167
 20
9.093113869898132
 10
14.00031343464167
 20
9.082489669898137
 10
13.99954523464166
 20
9.071873869898126
 10
13.99867103464166
 20
9.061790869898146
 10
13.99766723464168
 20
9.051719869898136
 10
13.99655543464163
 20
9.042216469898136
 10
13.99530923464167
 20
9.032729869898133
 10
13.99397163464167
 20
9.023798669898127
 10
13.99249323464167
 20
9.014889869898127
 10
13.99092283464165
 20
9.006569269898136
 10
13.98920523464167
 20
8.998277869898117
 10
13.98741583464166
 20
8.990559069898125
 10
13.98547123464163
 20
8.982877869898118
 10
13.98345583464166
 20
8.975803669898141
 10
13.98127723464168
 20
8.968777869898133
 10
13.97904843464167
 20
8.962328669898113
 10
13.97664723464169
 20
8.95594186989814
 10
13.97419983464164
 20
8.950151269898128
 10
13.97157323464165
 20
8.944439869898133
 10
13.96892323464166
 20
8.939278869898146
 10
13.96608723464166
 20
8.934217869898134
 10
13.96323163464166
 20
8.929710869898144
 10
13.96018923464166
 20
8.925327869898126
 10
13.95714063464166
 20
8.921442669898112
 10
13.95390523464167
 20
8.917711869898141
 10
13.95066023464164
 20
8.914474269898136
 10
13.94723723464167
 20
8.911425869898124
 10
13.94380603464165
 20
8.908805269898124
 10
13.94021123464165
 20
8.90641386989813
 10
13.93658743464166
 20
8.904436269898127
 10
13.93282923464167
 20
8.902727869898114
 10
13.92902103464166
 20
8.901368869898135
 10
13.92511723464167
 20
8.900315869898122
 10
13.92111963464168
 20
8.899606469898145
 10
13.91707723464168
 20
8.89922786989814
 10
13.91290243464166
 20
8.899149069898129
 10
13.90873523464165
 20
8.899409869898136
 10
13.90438523464166
 20
8.899995669898146
 10
13.90009323464167
 20
8.900913869898147
 10
13.89558723464165
 20
8.902140469898142
 10
13.89117723464167
 20
8.903675869898137
 10
13.88652243464167
 20
8.905566269898145
 10
13.88199123464164
 20
8.907735869898118
 10
13.87720703464166
 20
8.910259669898152
 10
13.87256123464164
 20
8.913029869898139
 10
13.86765343464168
 20
8.916204469898133
 10
13.86289323464166
 20
8.919595869898131
 10
13.85787763464165
 20
8.923390269898135
 10
13.85301123464165
 20
8.927373869898133
 10
13.84789063464168
 20
8.931803469898142
 10
13.84291923464167
 20
8.936399869898139
 10
13.83770823464164
 20
8.941433669898117
 10
13.83264323464166
 20
8.946613869898158
 10
13.82734463464166
 20
8.952267469898117
 10
13.82218923464165
 20
8.958051869898156
 10
13.81681523464166
 20
8.964291869898119
 10
13.81157923464167
 20
8.97064786989813
 10
13.80613463464166
 20
8.977485069898136
 10
13.80082323464165
 20
8.984425869898132
 10
13.79531783464165
 20
8.991822669898141
 10
13.78993923464165
 20
8.999311869898122
 10
13.78437983464167
 20
9.007273469898137
 10
13.77894123464165
 20
9.015317869898126
 10
13.77333563464168
 20
9.023807469898144
 10
13.76784523464167
 20
9.032371869898128
 10
13.76220003464166
 20
9.041394869898141
 10
13.75666523464164
 20
9.050485869898125
 10
13.75098843464167
 20
9.060005869898134
 10
13.74541723464168
 20
9.069587869898128
 10
13.73971523464166
 20
9.079610269898154
 10
13.73411523464165
 20
9.089689869898137
 10
13.72839603464166
 20
9.100178469898139
 10
13.72277523464166
 20
9.110719869898133
 10
13.71704563464169
 20
9.121679269898152
 10
13.71141123464164
 20
9.13268786989812
 10
13.70567903464166
 20
9.144084869898136
 10
13.70003923464165
 20
9.155527869898122
 10
13.69431123464164
 20
9.167365269898141
 10
13.68867323464164
 20
9.179245869898124
 10
13.68295743464165
 20
9.191489669898118
 10
13.67732923464166
 20
9.203773869898157
 10
13.67163323464166
 20
9.216425669898114
 10
13.66602323464167
 20
9.229115869898123
 10
13.66035303464167
 20
9.242146669898119
 10
13.65476723464167
 20
9.255213869898113
 10
13.64913163464166
 20
9.268625469898154
 10
13.64357923464166
 20
9.282071869898146
 10
13.63798623464166
 20
9.295826469898145
 10
13.63247523464165
 20
9.309613869898129
 10
13.62693303464167
 20
9.323709269898131
 10
13.62147123464166
 20
9.337835869898128
 10
13.61598083464167
 20
9.352267669898139
 10
13.61057123464167
 20
9.366729869898136
 10
13.60513723464166
 20
9.381503869898153
 10
13.59978523464164
 20
9.396307869898151
 10
13.59444083464166
 20
9.411301069898115
 10
13.58917523464166
 20
9.426321869898117
 10
13.58393983464165
 20
9.441495469898143
 10
13.57877723464168
 20
9.456693869898145
 10
13.57355403464166
 20
9.472375669898127
 10
13.56841123464164
 20
9.488083869898133
 10
13.56317803464168
 20
9.504381669898123
 10
13.55804123464165
 20
9.520709869898126
 10
13.55318943464164
 20
9.536158269898123
 10
13.54840523464165
 20
9.55162786989814
 10
13.54408283464164
 20
9.565717669898134
 10
13.53978123464168
 20
9.579813869898146
 10
13.53447363464164
 20
9.59817206989814
 10
13.52927723464168
 20
9.616561869898134
 10
13.52142963464166
 20
9.645121469898128
 10
13.51387523464166
 20
9.673759869898134
 10
13.50392703464166
 20
9.711371469898125
  0
LWPOLYLINE
  5
202
330
2
100
AcDbEntity
  8
GAIKEI
  6
Continuous
 62
     1
100
AcDbPolyline
 90
       39
 70
     0
 43
0.0
 10
13.78871923464166
 20
10.12379986989813
 10
13.78911523464166
 20
10.12344386989815
 10
13.78951123464168
 20
10.12308786989814
 10
13.78990923464167
 20
10.12272986989813
 10
13.79030723464166
 20
10.12237186989813
 10
13.79070523464165
 20
10.12201386989812
 10
13.79110323464164
 20
10.12165586989812
 10
13.79150323464165
 20
10.12129586989812
 10
13.79190323464166
 20
10.12093586989812
 10
13.79230523464167
 20
10.12057386989812
 10
13.79270723464168
 20
10.12021386989812
 10
13.79310923464166
 20
10.11985186989813
 10
13.79351123464167
 20
10.11948986989813
 10
13.79391523464164
 20
10.11912586989814
 10
13.79431923464167
 20
10.11876186989815
 10
13.79472323464165
 20
10.11839786989813
 10
13.79512923464168
 20
10.11803386989814
 10
13.79553323464165
 20
10.11766786989813
 10
13.79594123464167
 20
10.11730186989814
 10
13.79634723464167
 20
10.11693586989813
 10
13.79675523464166
 20
10.11656986989814
 10
13.79716323464168
 20
10.11620186989813
 10
13.79757123464165
 20
10.11583386989815
 10
13.79797923464167
 20
10.11546586989814
 10
13.79838923464166
 20
10.11509586989814
 10
13.79879923464165
 20
10.11472586989811
 10
13.79921123464163
 20
10.11435586989813
 10
13.79962123464165
 20
10.11398586989813
 10
13.80003323464166
 20
10.11361386989813
 10
13.80044723464166
 20
10.11324186989813
 10
13.80085923464168
 20
10.11286986989813
 10
13.80126923464166
 20
10.11249986989816
 10
13.80168723464166
 20
10.11212386989814
 10
13.80211523464166
 20
10.11173786989815
 10
13.80251523464167
 20
10.11137586989812
 10
13.80287923464166
 20
10.11104786989813
 10
13.80334723464165
 20
10.11062586989811
 10
13.80406923464164
 20
10.10997386989814
 10
13.80501723464166
 20
10.10911986989813
  0
LWPOLYLINE
  5
203
330
2
100
AcDbEntity
  8
GAIKEI
  6
Continuous
 62
     1
100
AcDbPolyline
 90
      156
 70
     0
 43
0.0
 10
13.78871923464166
 20
9.897525869898117
 10
13.78404123464165
 20
9.901829869898136
 10
13.78170883464167
 20
9.904045069898131
 10
13.77940123464162
 20
9.906285869898113
 10
13.77708963464164
 20
9.908582269898118
 10
13.77480323464164
 20
9.910903869898135
 10
13.77251263464166
 20
9.913273869898148
 10
13.77024723464166
 20
9.915667869898129
 10
13.76798283464166
 20
9.918109469898126
 10
13.76574323464166
 20
9.920573869898134
 10
13.76350583464165
 20
9.923082069898157
 10
13.76129323464164
 20
9.925611869898148
 10
13.75908483464167
 20
9.928184469898127
 10
13.75690123464164
 20
9.930777869898122
 10
13.75472303464167
 20
9.933410869898125
 10
13.75256923464167
 20
9.936063869898134
 10
13.75042603464166
 20
9.93875426989814
 10
13.74830723464166
 20
9.941463869898143
 10
13.74619803464165
 20
9.944206669898136
 10
13.74411323464167
 20
9.946967869898145
 10
13.74204203464165
 20
9.949762069898127
 10
13.73999523464164
 20
9.952573869898145
 10
13.73796303464166
 20
9.955413269898144
 10
13.73595523464163
 20
9.958269869898145
 10
13.73396603464167
 20
9.961152669898126
 10
13.73200123464167
 20
9.964051869898128
 10
13.73005403464168
 20
9.96697386989814
 10
13.72813123464166
 20
9.969911869898112
 10
13.72623103464167
 20
9.972871069898133
 10
13.72435523464165
 20
9.975845869898137
 10
13.72250183464166
 20
9.978836269898124
 10
13.72067323464165
 20
9.981841869898119
 10
13.71887183464165
 20
9.984861669898151
 10
13.71709523464164
 20
9.987895869898125
 10
13.71534363464167
 20
9.990940869898111
 10
13.71361723464164
 20
9.993999869898118
 10
13.71192163464167
 20
9.997068069898148
 10
13.71025123464164
 20
10.00014986989814
 10
13.70861043464165
 20
10.00323506989812
 10
13.70699523464165
 20
10.00633386989813
 10
13.70541423464163
 20
10.00943526989812
 10
13.70385923464167
 20
10.01254986989812
 10
13.70233803464165
 20
10.01566146989813
 10
13.70084323464167
 20
10.01878586989812
 10
13.69938483464165
 20
10.02190666989813
 10
13.69795323464166
 20
10.02503986989814
 10
13.69655843464164
 20
10.02816586989814
 10
13.69519123464164
 20
10.03130386989815
 10
13.69386423464166
 20
10.03443006989815
 10
13.69256523464165
 20
10.03756786989814
 10
13.69130583464167
 20
10.04069226989813
 10
13.69007523464165
 20
10.04382786989814
 10
13.68888843464165
 20
10.04694546989813
 10
13.68773123464166
 20
10.05007386989814
 10
13.68661603464164
 20
10.05318346989813
 10
13.68553123464167
 20
10.05630386989816
 10
13.68449163464166
 20
10.05939966989814
 10
13.68348323464164
 20
10.06250586989813
 10
13.68252023464165
 20
10.06558606989813
 10
13.68158923464165
 20
10.06867586989813
 10
13.68070663464166
 20
10.07173626989814
 10
13.67985723464167
 20
10.07480586989814
 10
13.67905303464167
 20
10.07784446989814
 10
13.67828323464167
 20
10.08089186989815
 10
13.67756563464167
 20
10.08390286989814
 10
13.67688323464168
 20
10.08692186989816
 10
13.67624883464168
 20
10.08990306989812
 10
13.67565123464163
 20
10.09289186989812
 10
13.67510723464164
 20
10.09583146989814
 10
13.67460123464167
 20
10.09877786989813
 10
13.67415183464166
 20
10.10163906989814
 10
13.67374123464165
 20
10.10450586989813
 10
13.67339623464164
 20
10.10724846989814
 10
13.67309123464164
 20
10.10999586989811
 10
13.67284523464167
 20
10.11262306989812
 10
13.67264123464164
 20
10.11525386989814
 10
13.67249483464167
 20
10.11776486989814
 10
13.67239123464165
 20
10.12027786989813
 10
13.67234023464166
 20
10.12267766989814
 10
13.67233323464165
 20
10.12507786989812
 10
13.67237963464168
 20
10.12735846989812
 10
13.67247123464165
 20
10.12963786989812
 10
13.67260883464166
 20
10.13180566989814
 10
13.67279323464169
 20
10.13396986989815
 10
13.67302523464167
 20
10.13601786989812
 10
13.67330523464164
 20
10.13805986989814
 10
13.67362543464165
 20
10.13999426989815
 10
13.67399523464164
 20
10.14191986989811
 10
13.67440603464166
 20
10.14373486989814
 10
13.67486723464168
 20
10.14553786989813
 10
13.67536343464166
 20
10.14723686989813
 10
13.67591123464166
 20
10.14891986989815
 10
13.67649603464164
 20
10.15050006989813
 10
13.67713323464167
 20
10.15205986989812
 10
13.67779983464166
 20
10.15352346989814
 10
13.67851923464167
 20
10.15496186989813
 10
13.67927203464165
 20
10.15630526989815
 10
13.68007723464166
 20
10.15761786989813
 10
13.68090923464166
 20
10.15884526989814
 10
13.68179323464167
 20
10.16003586989814
 10
13.68270843464165
 20
10.16114246989815
 10
13.68367323464167
 20
10.16220586989814
 10
13.68466683464166
 20
10.16319466989813
 10
13.68570723464168
 20
10.16413386989813
 10
13.68678083464164
 20
10.16500066989812
 10
13.68789723464164
 20
10.16581186989813
 10
13.68904743464165
 20
10.16655926989816
 10
13.69023523464165
 20
10.16724586989812
 10
13.69146363464165
 20
10.16786846989814
 10
13.69272323464165
 20
10.16842586989813
 10
13.69402603464166
 20
10.16892806989813
 10
13.69535323464166
 20
10.16936186989815
 10
13.69673163464168
 20
10.16973706989813
 10
13.69812723464164
 20
10.17004186989814
 10
13.69957403464167
 20
10.17029386989813
 10
13.70103123464164
 20
10.17047586989813
 10
13.70254423464166
 20
10.17059906989814
 10
13.70406123464164
 20
10.17065386989813
 10
13.70563383464167
 20
10.17065666989813
 10
13.70720523464166
 20
10.17059386989814
 10
13.70883503464165
 20
10.17047186989813
 10
13.71045923464166
 20
10.17028786989812
 10
13.71214383464166
 20
10.17004806989814
 10
13.71381923464167
 20
10.16974986989811
 10
13.71555823464166
 20
10.16938906989813
 10
13.71728523464168
 20
10.16897386989814
 10
13.71907323464165
 20
10.16849926989815
 10
13.72084723464167
 20
10.16797386989816
 10
13.72268723464168
 20
10.16738166989813
 10
13.72451123464165
 20
10.16674186989812
 10
13.72639563464167
 20
10.16603986989813
 10
13.72826323464167
 20
10.16529386989813
 10
13.73019403464167
 20
10.16448026989815
 10
13.73210723464166
 20
10.16362586989811
 10
13.73408223464167
 20
10.16270286989814
 10
13.73603923464165
 20
10.16174186989815
 10
13.73806063464167
 20
10.16070806989813
 10
13.74006323464167
 20
10.15963786989815
 10
13.74211443464165
 20
10.15850926989816
 10
13.74414723464164
 20
10.15734786989813
 10
13.74622183464166
 20
10.15612626989815
 10
13.74827923464164
 20
10.15487586989815
 10
13.75042883464167
 20
10.15352386989815
 10
13.75255923464164
 20
10.15214186989814
 10
13.75480183464165
 20
10.15064486989814
 10
13.75702123464165
 20
10.14911386989814
 10
13.75914423464164
 20
10.14764526989813
 10
13.76125123464166
 20
10.14615386989811
 10
13.76318383464166
 20
10.14477146989813
 10
13.76511123464166
 20
10.14338186989815
 10
13.76766583464166
 20
10.14141546989813
 10
13.77019323464165
 20
10.13941386989813
 10
13.77421783464166
 20
10.13614266989813
 10
13.77817323464165
 20
10.13278786989812
 10
13.78346723464167
 20
10.12831846989814
 10
13.78871923464166
 20
10.12379986989813
  0
LWPOLYLINE
  5
204
330
2
100
AcDbEntity
  8
GAIKEI
  6
Continuous
 62
     1
100
AcDbPolyline
 90
       76
 70
     0
 43
0.0
 10
13.90385123464165
 20
9.791229869898131
 10
13.90096523464166
 20
9.794003869898148
 10
13.89951663464165
 20
9.795393469898129
 10
13.89806723464167
 20
9.796781869898126
 10
13.89661063464166
 20
9.798174469898128
 10
13.89515323464167
 20
9.799565869898117
 10
13.89369163464167
 20
9.800959469898145
 10
13.89222923464166
 20
9.802351869898132
 10
13.89076063464168
 20
9.803748469898152
 10
13.88929123464166
 20
9.805143869898131
 10
13.88781863464163
 20
9.806539469898154
 10
13.88634523464165
 20
9.807933869898135
 10
13.88486863464166
 20
9.809331469898154
 10
13.88339123464166
 20
9.81072786989813
 10
13.88191063464165
 20
9.812124269898134
 10
13.88042923464167
 20
9.813519869898129
 10
13.87894463464167
 20
9.814916269898134
 10
13.87745923464166
 20
9.816311869898129
 10
13.87597363464164
 20
9.817708269898133
 10
13.87448723464166
 20
9.819103869898128
 10
13.87299863464164
 20
9.820497269898112
 10
13.87150923464165
 20
9.821889869898143
 10
13.87001863464166
 20
9.823282269898129
 10
13.86852723464167
 20
9.824673869898163
 10
13.86703663464166
 20
9.826064269898154
 10
13.86554523464164
 20
9.827453869898135
 10
13.86405463464166
 20
9.828841269898134
 10
13.86256323464167
 20
9.830227869898124
 10
13.86107243464167
 20
9.83161226989813
 10
13.85958123464166
 20
9.832995869898127
 10
13.85809143464166
 20
9.834377269898141
 10
13.85660123464166
 20
9.835757869898145
 10
13.85511243464165
 20
9.837134269898143
 10
13.85362323464167
 20
9.838509869898132
 10
13.85213743464166
 20
9.83988226989814
 10
13.85065123464164
 20
9.841253869898139
 10
13.84916743464166
 20
9.842621269898131
 10
13.84768323464166
 20
9.843987869898143
 10
13.84620343464166
 20
9.845350269898119
 10
13.84472323464166
 20
9.846711869898115
 10
13.84324643464166
 20
9.848067269898137
 10
13.84176923464164
 20
9.849421869898151
 10
13.84029743464165
 20
9.850772269898129
 10
13.83882523464166
 20
9.852121869898127
 10
13.83735943464165
 20
9.853465269898123
 10
13.83589323464167
 20
9.854807869898138
 10
13.83443143464166
 20
9.856143069898138
 10
13.83296923464166
 20
9.857477869898133
 10
13.83151443464166
 20
9.858806069898122
 10
13.83005923464165
 20
9.860133869898135
 10
13.82861143464166
 20
9.861454069898115
 10
13.82716323464166
 20
9.862773869898148
 10
13.82572343464167
 20
9.864085069898123
 10
13.82428323464165
 20
9.865395869898122
 10
13.82285043464165
 20
9.866699069898146
 10
13.82141723464167
 20
9.868001869898137
 10
13.81999143464168
 20
9.869297069898124
 10
13.81856523464165
 20
9.870591869898134
 10
13.81715243464165
 20
9.871872069898131
 10
13.81573923464165
 20
9.873151869898123
 10
13.81434543464166
 20
9.874416069898131
 10
13.81295123464164
 20
9.875679869898135
 10
13.81154643464165
 20
9.876951069898126
 10
13.81014123464166
 20
9.87822186989814
 10
13.80871743464166
 20
9.879509069898119
 10
13.80729323464166
 20
9.880795869898122
 10
13.80596123464164
 20
9.881998069898145
 10
13.80462923464165
 20
9.883199869898135
 10
13.80343123464166
 20
9.884281869898131
 10
13.80223323464164
 20
9.885363869898128
 10
13.80072543464166
 20
9.886723069898124
 10
13.79921723464167
 20
9.888081869898144
 10
13.79693463464167
 20
9.890137469898121
 10
13.79465123464166
 20
9.892191869898113
 10
13.79168543464166
 20
9.894859269898148
 10
13.78871923464166
 20
9.897525869898117
  0
LINE
  5
205
330
2
100
AcDbEntity
  8
GAIKEI
  6
Continuous
 62
     1
100
AcDbLine
 10
13.07042923464164
 20
24.60903186989813
 30
0.0
 11
13.07042923464164
 21
8.889031869898133
 31
0.0
  0
LINE
  5
206
330
2
100
AcDbEntity
  8
GAIKEI
  6
Continuous
100
AcDbLine
 10
17.21042923464165
 20
26.74903186989815
 30
0.0
 11
14.99985723464166
 21
26.63318186989812
 31
0.0
  0
LINE
  5
207
330
2
100
AcDbEntity
  8
GAIKEI
  6
Continuous
100
AcDbLine
 10
13.93134795624002
 20
26.57718390771532
 30
0.0
 11
14.99985723464166
 21
26.63318186989812
 31
0.0
  0
LINE
  5
208
330
2
100
AcDbEntity
  8
GAIKEI
  6
Continuous
100
AcDbLine
 10
14.99985723464166
 20
6.864883869898136
 30
0.0
 11
17.21042923464165
 21
6.749031869898146
 31
0.0
  0
LINE
  5
209
330
2
100
AcDbEntity
  8
GAIKEI
  6
Continuous
100
AcDbLine
 10
14.99985723464166
 20
6.864883869898136
 30
0.0
 11
13.93134727210889
 21
6.920881867934554
 31
0.0
  0
LINE
  5
20A
330
2
100
AcDbEntity
  8
GAIKEI
  6
Continuous
100
AcDbLine
 10
17.21042923464165
 20
9.149031869898124
 30
0.0
 11
17.21042923464165
 21
24.34903186989814
 31
0.0
  0
LINE
  5
20B
330
2
100
AcDbEntity
  8
GAIKEI
  6
Continuous
100
AcDbLine
 10
17.21042923464165
 20
24.34903186989814
 30
0.0
 11
17.21042923464165
 21
26.74903186989815
 31
0.0
  0
LINE
  5
20C
330
2
100
AcDbEntity
  8
GAIKEI
  6
Continuous
100
AcDbLine
 10
17.21042923464165
 20
6.749031869898146
 30
0.0
 11
17.21042923464165
 21
9.149031869898124
 31
0.0
  0
ARC
  5
20D
330
2
100
AcDbEntity
  8
GAIKEI
  6
Continuous
100
AcDbCircle
 10
14.81042923464164
 20
16.74903186989815
 30
0.0
 40
6.1
100
AcDbArc
 50
106.6042200000029
 51
253.395870000002
  0
LINE
  5
20E
330
2
100
AcDbEntity
  8
GAIKEI
  6
Continuous
100
AcDbLine
 10
24.81915323464165
 20
25.74752586989812
 30
0.0
 11
23.41042923464164
 21
25.80903186989812
 31
0.0
  0
LINE
  5
20F
330
2
100
AcDbEntity
  8
GAIKEI
  6
Continuous
 62
     1
100
AcDbLine
 10
23.57042923464164
 20
18.23903186989815
 30
0.0
 11
23.41042923464164
 21
18.24182586989815
 31
0.0
  0
LINE
  5
210
330
2
100
AcDbEntity
  8
GAIKEI
  6
Continuous
 62
     1
100
AcDbLine
 10
23.41042923464164
 20
17.13623986989813
 30
0.0
 11
23.57042923464164
 21
17.13903186989813
 31
0.0
  0
LINE
  5
211
330
2
100
AcDbEntity
  8
GAIKEI
  6
Continuous
100
AcDbLine
 10
23.41042923464164
 20
26.14989586989813
 30
0.0
 11
23.41042923464164
 21
6.949031869898135
 31
0.0
  0
ARC
  5
212
330
2
100
AcDbEntity
  8
GAIKEI
  6
Continuous
 62
     1
100
AcDbCircle
 10
19.21042923464165
 20
11.34903186989814
 30
0.0
 40
0.6000000000000001
100
AcDbArc
 50
180.0
 51
270.0
  0
ARC
  5
213
330
2
100
AcDbEntity
  8
GAIKEI
  6
Continuous
 62
     1
100
AcDbCircle
 10
19.21042923464165
 20
22.14903186989813
 30
0.0
 40
0.6000000000000001
100
AcDbArc
 50
90.0
 51
180.0
  0
LINE
  5
214
330
2
100
AcDbEntity
  8
GAIKEI
  6
Continuous
 62
     1
100
AcDbLine
 10
18.61042923464166
 20
11.34903186989814
 30
0.0
 11
18.61042923464166
 21
22.14903186989813
 31
0.0
  0
ARC
  5
215
330
2
100
AcDbEntity
  8
GAIKEI
  6
Continuous
 62
     1
100
AcDbCircle
 10
23.11042923464166
 20
7.348167869898134
 30
0.0
 40
0.3
100
AcDbArc
 50
272.9999999999991
 51
0.0
  0
LINE
  5
216
330
2
100
AcDbEntity
  8
GAIKEI
  6
Continuous
 62
     1
100
AcDbLine
 10
17.41042923464164
 20
6.749031869898146
 30
0.0
 11
23.12612923464167
 21
7.048579869898134
 31
0.0
  0
ARC
  5
217
330
2
100
AcDbEntity
  8
GAIKEI
  6
Continuous
100
AcDbCircle
 10
23.21042923464165
 20
6.949031869898135
 30
0.0
 40
0.2
100
AcDbArc
 50
270.0
 51
0.0
  0
LINE
  5
218
330
2
100
AcDbEntity
  8
GAIKEI
  6
Continuous
 62
     1
100
AcDbLine
 10
23.41042923464164
 20
10.74903186989814
 30
0.0
 11
19.21042923464165
 21
10.74903186989814
 31
0.0
  0
ARC
  5
219
330
2
100
AcDbEntity
  8
GAIKEI
  6
Continuous
100
AcDbCircle
 10
23.11042923464166
 20
26.14989586989813
 30
0.0
 40
0.3
100
AcDbArc
 50
0.0
 51
87.00000000000091
  0
LINE
  5
21A
330
2
100
AcDbEntity
  8
GAIKEI
  6
Continuous
100
AcDbLine
 10
24.81915336436839
 20
19.17053987556227
 30
0.0
 11
23.41042923464164
 21
19.10903186989813
 31
0.0
  0
LINE
  5
21B
330
2
100
AcDbEntity
  8
GAIKEI
  6
Continuous
 62
     1
100
AcDbLine
 10
19.21042923464165
 20
22.74903186989815
 30
0.0
 11
23.41042923464164
 21
22.74903186989815
 31
0.0
  0
LINE
  5
21C
330
2
100
AcDbEntity
  8
GAIKEI
  6
Continuous
100
AcDbLine
 10
23.12612923464167
 20
26.44948586989813
 30
0.0
 11
17.41042923464164
 21
26.74903186989815
 31
0.0
  0
ARC
  5
21D
330
2
100
AcDbEntity
  8
GAIKEI
  6
Continuous
 62
     1
100
AcDbCircle
 10
23.61042923464166
 20
8.609031869898132
 30
0.0
 40
0.1
100
AcDbArc
 50
270.0
 51
0.0
  0
ARC
  5
21E
330
2
100
AcDbEntity
  8
GAIKEI
  6
Continuous
 62
     1
100
AcDbCircle
 10
23.61042923464166
 20
13.98903186989815
 30
0.0
 40
0.1
100
AcDbArc
 50
0.0
 51
90.0
  0
ARC
  5
21F
330
2
100
AcDbEntity
  8
GAIKEI
  6
Continuous
 62
     1
100
AcDbCircle
 10
23.61042923464166
 20
15.18903186989814
 30
0.0
 40
0.1
100
AcDbArc
 50
0.0
 51
90.0
  0
LINE
  5
220
330
2
100
AcDbEntity
  8
GAIKEI
  6
Continuous
 62
     1
100
AcDbLine
 10
23.71042923464165
 20
9.509031869898137
 30
0.0
 11
23.71042923464165
 21
8.609031869898132
 31
0.0
  0
LINE
  5
221
330
2
100
AcDbEntity
  8
GAIKEI
  6
Continuous
 62
     1
100
AcDbLine
 10
23.71042923464165
 20
13.08903186989815
 30
0.0
 11
23.71042923464165
 21
9.509031869898137
 31
0.0
  0
LINE
  5
222
330
2
100
AcDbEntity
  8
GAIKEI
  6
Continuous
 62
     1
100
AcDbLine
 10
23.71042923464165
 20
13.98903186989815
 30
0.0
 11
23.71042923464165
 21
13.08903186989815
 31
0.0
  0
LINE
  5
223
330
2
100
AcDbEntity
  8
GAIKEI
  6
Continuous
 62
     1
100
AcDbLine
 10
23.71042923464165
 20
14.48903186989815
 30
0.0
 11
23.71042923464165
 21
13.98903186989815
 31
0.0
  0
LINE
  5
224
330
2
100
AcDbEntity
  8
GAIKEI
  6
Continuous
 62
     1
100
AcDbLine
 10
23.71042923464165
 20
14.58903186989815
 30
0.0
 11
23.71042923464165
 21
14.48903186989815
 31
0.0
  0
LINE
  5
225
330
2
100
AcDbEntity
  8
GAIKEI
  6
Continuous
 62
     1
100
AcDbLine
 10
23.71042923464165
 20
15.18903186989814
 30
0.0
 11
23.71042923464165
 21
14.58903186989815
 31
0.0
  0
LINE
  5
226
330
2
100
AcDbEntity
  8
GAIKEI
  6
Continuous
 62
     1
100
AcDbLine
 10
23.61042923464166
 20
14.08903186989815
 30
0.0
 11
23.41042923464164
 21
14.08903186989815
 31
0.0
  0
LINE
  5
227
330
2
100
AcDbEntity
  8
GAIKEI
  6
Continuous
 62
     1
100
AcDbLine
 10
23.41042923464164
 20
15.28903186989814
 30
0.0
 11
23.61042923464166
 21
15.28903186989814
 31
0.0
  0
LINE
  5
228
330
2
100
AcDbEntity
  8
GAIKEI
  6
Continuous
 62
     1
100
AcDbLine
 10
23.61042923464166
 20
8.509031869898137
 30
0.0
 11
23.41042923464164
 21
8.509031869898137
 31
0.0
  0
LINE
  5
229
330
2
100
AcDbEntity
  8
GAIKEI
  6
Continuous
 62
     1
100
AcDbLine
 10
17.21042923464165
 20
6.949031869898135
 30
0.0
 11
17.41042923464164
 21
6.949031869898135
 31
0.0
  0
LINE
  5
22A
330
2
100
AcDbEntity
  8
GAIKEI
  6
Continuous
 62
     1
100
AcDbLine
 10
17.41042923464164
 20
26.54903186989813
 30
0.0
 11
17.21042923464165
 21
26.54903186989813
 31
0.0
  0
LINE
  5
22B
330
2
100
AcDbEntity
  8
GAIKEI
  6
Continuous
100
AcDbLine
 10
17.41042923464164
 20
24.34903186989814
 30
0.0
 11
17.41042923464164
 21
9.149031869898124
 31
0.0
  0
LINE
  5
22C
330
2
100
AcDbEntity
  8
GAIKEI
  6
Continuous
100
AcDbLine
 10
17.41042923464164
 20
9.149031869898124
 30
0.0
 11
17.41042923464164
 21
6.749031869898146
 31
0.0
  0
LINE
  5
22D
330
2
100
AcDbEntity
  8
GAIKEI
  6
Continuous
100
AcDbLine
 10
17.41042923464164
 20
26.74903186989815
 30
0.0
 11
17.41042923464164
 21
24.34903186989814
 31
0.0
  0
LINE
  5
22E
330
2
100
AcDbEntity
  8
GAIKEI
  6
Continuous
100
AcDbLine
 10
23.21042923464165
 20
6.749031869898146
 30
0.0
 11
17.41042923464164
 21
6.749031869898146
 31
0.0
  0
LINE
  5
22F
330
2
100
AcDbEntity
  8
GAIKEI
  6
Continuous
 62
     1
100
AcDbLine
 10
19.25042923464167
 20
15.74903386989814
 30
0.0
 11
18.67042923464163
 21
15.74903386989814
 31
0.0
  0
LINE
  5
230
330
2
100
AcDbEntity
  8
GAIKEI
  6
Continuous
 62
     1
100
AcDbLine
 10
18.67042923464163
 20
17.74903386989814
 30
0.0
 11
19.25042923464167
 21
17.74903386989814
 31
0.0
  0
LINE
  5
231
330
2
100
AcDbEntity
  8
GAIKEI
  6
Continuous
 62
     1
100
AcDbLine
 10
19.25042923464167
 20
17.74903386989814
 30
0.0
 11
19.25042923464167
 21
15.74903386989814
 31
0.0
  0
LINE
  5
232
330
2
100
AcDbEntity
  8
GAIKEI
  6
Continuous
 62
     1
100
AcDbLine
 10
23.22089723464165
 20
22.02903386989814
 30
0.0
 11
18.67042923464163
 21
22.02928986989815
 31
0.0
  0
LINE
  5
233
330
2
100
AcDbEntity
  8
GAIKEI
  6
Continuous
 62
     1
100
AcDbLine
 10
18.68398923464164
 20
22.26928986989816
 30
0.0
 11
23.22089723464165
 21
22.26903386989812
 31
0.0
  0
LINE
  5
234
330
2
100
AcDbEntity
  8
GAIKEI
  6
Continuous
 62
     1
100
AcDbLine
 10
23.22089723464165
 20
21.42903386989815
 30
0.0
 11
18.67042923464163
 21
21.42928986989813
 31
0.0
  0
LINE
  5
235
330
2
100
AcDbEntity
  8
GAIKEI
  6
Continuous
 62
     1
100
AcDbLine
 10
18.67042923464163
 20
21.66928986989814
 30
0.0
 11
23.22089723464165
 21
21.66903386989813
 31
0.0
  0
LINE
  5
236
330
2
100
AcDbEntity
  8
GAIKEI
  6
Continuous
 62
     1
100
AcDbLine
 10
23.22089723464165
 20
20.82903386989816
 30
0.0
 11
18.67042923464163
 21
20.82928986989813
 31
0.0
  0
LINE
  5
237
330
2
100
AcDbEntity
  8
GAIKEI
  6
Continuous
 62
     1
100
AcDbLine
 10
18.67042923464163
 20
21.06928986989814
 30
0.0
 11
23.22089723464165
 21
21.06903386989813
 31
0.0
  0
LINE
  5
238
330
2
100
AcDbEntity
  8
GAIKEI
  6
Continuous
 62
     1
100
AcDbLine
 10
23.22089723464165
 20
20.22903386989816
 30
0.0
 11
18.67042923464163
 21
20.22928986989814
 31
0.0
  0
LINE
  5
239
330
2
100
AcDbEntity
  8
GAIKEI
  6
Continuous
 62
     1
100
AcDbLine
 10
18.67042923464163
 20
20.46928986989815
 30
0.0
 11
23.22089723464165
 21
20.46903386989814
 31
0.0
  0
LINE
  5
23A
330
2
100
AcDbEntity
  8
GAIKEI
  6
Continuous
 62
     1
100
AcDbLine
 10
23.22089723464165
 20
19.62903386989814
 30
0.0
 11
18.67042923464163
 21
19.62928986989814
 31
0.0
  0
LINE
  5
23B
330
2
100
AcDbEntity
  8
GAIKEI
  6
Continuous
 62
     1
100
AcDbLine
 10
18.67042923464163
 20
19.86928986989815
 30
0.0
 11
23.22089723464165
 21
19.86903386989814
 31
0.0
  0
LINE
  5
23C
330
2
100
AcDbEntity
  8
GAIKEI
  6
Continuous
 62
     1
100
AcDbLine
 10
23.22089723464165
 20
19.02903386989814
 30
0.0
 11
18.67042923464163
 21
19.02928986989815
 31
0.0
  0
LINE
  5
23D
330
2
100
AcDbEntity
  8
GAIKEI
  6
Continuous
 62
     1
100
AcDbLine
 10
18.67042923464163
 20
19.26928986989816
 30
0.0
 11
23.22089723464165
 21
19.26903386989812
 31
0.0
  0
LINE
  5
23E
330
2
100
AcDbEntity
  8
GAIKEI
  6
Continuous
 62
     1
100
AcDbLine
 10
23.22089723464165
 20
18.42903386989815
 30
0.0
 11
18.67042923464163
 21
18.42928986989813
 31
0.0
  0
LINE
  5
23F
330
2
100
AcDbEntity
  8
GAIKEI
  6
Continuous
 62
     1
100
AcDbLine
 10
18.67042923464163
 20
18.66928986989814
 30
0.0
 11
23.22089723464165
 21
18.66903386989813
 31
0.0
  0
LINE
  5
240
330
2
100
AcDbEntity
  8
GAIKEI
  6
Continuous
 62
     1
100
AcDbLine
 10
23.22089723464165
 20
17.82903386989815
 30
0.0
 11
18.67042923464163
 21
17.82928986989813
 31
0.0
  0
LINE
  5
241
330
2
100
AcDbEntity
  8
GAIKEI
  6
Continuous
 62
     1
100
AcDbLine
 10
18.67042923464163
 20
18.06928986989814
 30
0.0
 11
23.22089723464165
 21
18.06903386989813
 31
0.0
  0
LINE
  5
242
330
2
100
AcDbEntity
  8
GAIKEI
  6
Continuous
 62
     1
100
AcDbLine
 10
23.22089723464165
 20
15.42903386989815
 30
0.0
 11
18.67042923464163
 21
15.42928986989813
 31
0.0
  0
LINE
  5
243
330
2
100
AcDbEntity
  8
GAIKEI
  6
Continuous
 62
     1
100
AcDbLine
 10
18.67042923464163
 20
15.66928986989814
 30
0.0
 11
23.22089723464165
 21
15.66903386989813
 31
0.0
  0
LINE
  5
244
330
2
100
AcDbEntity
  8
GAIKEI
  6
Continuous
 62
     1
100
AcDbLine
 10
23.22089723464165
 20
14.82903386989815
 30
0.0
 11
18.67042923464163
 21
14.82928986989813
 31
0.0
  0
LINE
  5
245
330
2
100
AcDbEntity
  8
GAIKEI
  6
Continuous
 62
     1
100
AcDbLine
 10
18.67042923464163
 20
15.06928986989814
 30
0.0
 11
23.22089723464165
 21
15.06903386989813
 31
0.0
  0
LINE
  5
246
330
2
100
AcDbEntity
  8
GAIKEI
  6
Continuous
 62
     1
100
AcDbLine
 10
23.22089723464165
 20
14.22903386989816
 30
0.0
 11
18.67042923464163
 21
14.22928986989814
 31
0.0
  0
LINE
  5
247
330
2
100
AcDbEntity
  8
GAIKEI
  6
Continuous
 62
     1
100
AcDbLine
 10
18.67042923464163
 20
14.46928986989815
 30
0.0
 11
23.22089723464165
 21
14.46903386989814
 31
0.0
  0
LINE
  5
248
330
2
100
AcDbEntity
  8
GAIKEI
  6
Continuous
 62
     1
100
AcDbLine
 10
23.22089723464165
 20
13.62903386989813
 30
0.0
 11
18.67042923464163
 21
13.62928986989814
 31
0.0
  0
LINE
  5
249
330
2
100
AcDbEntity
  8
GAIKEI
  6
Continuous
 62
     1
100
AcDbLine
 10
18.67042923464163
 20
13.86928986989815
 30
0.0
 11
23.22089723464165
 21
13.86903386989814
 31
0.0
  0
LINE
  5
24A
330
2
100
AcDbEntity
  8
GAIKEI
  6
Continuous
 62
     1
100
AcDbLine
 10
23.22089723464165
 20
13.02903386989814
 30
0.0
 11
18.67042923464163
 21
13.02928986989815
 31
0.0
  0
LINE
  5
24B
330
2
100
AcDbEntity
  8
GAIKEI
  6
Continuous
 62
     1
100
AcDbLine
 10
18.67042923464163
 20
13.26928986989816
 30
0.0
 11
23.22089723464165
 21
13.26903386989812
 31
0.0
  0
LINE
  5
24C
330
2
100
AcDbEntity
  8
GAIKEI
  6
Continuous
 62
     1
100
AcDbLine
 10
23.22089723464165
 20
12.42903386989815
 30
0.0
 11
18.67042923464163
 21
12.42928986989813
 31
0.0
  0
LINE
  5
24D
330
2
100
AcDbEntity
  8
GAIKEI
  6
Continuous
 62
     1
100
AcDbLine
 10
18.67042923464163
 20
12.66928986989813
 30
0.0
 11
23.22089723464165
 21
12.66903386989813
 31
0.0
  0
LINE
  5
24E
330
2
100
AcDbEntity
  8
GAIKEI
  6
Continuous
 62
     1
100
AcDbLine
 10
23.22089723464165
 20
11.82903386989815
 30
0.0
 11
18.67042923464163
 21
11.82928986989813
 31
0.0
  0
LINE
  5
24F
330
2
100
AcDbEntity
  8
GAIKEI
  6
Continuous
 62
     1
100
AcDbLine
 10
18.67042923464163
 20
12.06928986989814
 30
0.0
 11
23.22089723464165
 21
12.06903386989813
 31
0.0
  0
LINE
  5
250
330
2
100
AcDbEntity
  8
GAIKEI
  6
Continuous
 62
     1
100
AcDbLine
 10
23.22089723464165
 20
11.22903386989816
 30
0.0
 11
18.68387123464168
 21
11.22928986989814
 31
0.0
  0
LINE
  5
251
330
2
100
AcDbEntity
  8
GAIKEI
  6
Continuous
 62
     1
100
AcDbLine
 10
18.67042923464163
 20
11.46928986989815
 30
0.0
 11
23.22089723464165
 21
11.46903386989814
 31
0.0
  0
LINE
  5
252
330
2
100
AcDbEntity
  8
GAIKEI
  6
Continuous
100
AcDbLine
 10
-22.32324478148297
 20
31.14903186989812
 30
0.0
 11
-17.02324278148299
 21
31.14903186989812
 31
0.0
  0
LINE
  5
253
330
2
100
AcDbEntity
  8
GAIKEI
  6
Continuous
100
AcDbLine
 10
-9.673242781482997
 20
36.34903186989814
 30
0.0
 11
-29.67324478148299
 21
36.34903186989814
 31
0.0
  0
LINE
  5
254
330
2
100
AcDbEntity
  8
GAIKEI
  6
Continuous
100
AcDbLine
 10
-15.12265678148299
 20
34.18736986989813
 30
0.0
 11
-10.16897678148297
 21
35.06154986989813
 31
0.0
  0
LINE
  5
255
330
2
100
AcDbEntity
  8
GAIKEI
  6
Continuous
100
AcDbLine
 10
-24.22383078148298
 20
34.18736986989813
 30
0.0
 11
-29.17751078148299
 21
35.06154986989813
 31
0.0
  0
LINE
  5
256
330
2
100
AcDbEntity
  8
GAIKEI
  6
Continuous
100
AcDbLine
 10
-17.673242781483
 20
28.84836666989813
 30
0.0
 11
-17.673242781483
 21
31.14903186989812
 31
0.0
  0
LINE
  5
257
330
2
100
AcDbEntity
  8
GAIKEI
  6
Continuous
100
AcDbLine
 10
-21.67324478148299
 20
28.84836666989813
 30
0.0
 11
-21.67324478148299
 21
31.14903186989812
 31
0.0
  0
LINE
  5
258
330
2
100
AcDbEntity
  8
GAIKEI
  6
Continuous
100
AcDbLine
 10
-17.02324278148299
 20
31.14903186989812
 30
0.0
 11
-16.73758478148298
 21
32.60329186989813
 31
0.0
  0
LINE
  5
259
330
2
100
AcDbEntity
  8
GAIKEI
  6
Continuous
100
AcDbLine
 10
-22.32324478148297
 20
31.14903186989812
 30
0.0
 11
-22.60890278148298
 21
32.60329186989813
 31
0.0
  0
LINE
  5
25A
330
2
100
AcDbEntity
  8
GAIKEI
  6
Continuous
100
AcDbLine
 10
-29.67324478148299
 20
36.34903186989814
 30
0.0
 11
-29.67324478148299
 21
35.65241986989813
 31
0.0
  0
LINE
  5
25B
330
2
100
AcDbEntity
  8
GAIKEI
  6
Continuous
100
AcDbLine
 10
-9.673242781482997
 20
35.65241986989813
 30
0.0
 11
-9.673242781482997
 21
36.34903186989814
 31
0.0
  0
ARC
  5
25C
330
2
100
AcDbEntity
  8
GAIKEI
  6
Continuous
100
AcDbCircle
 10
-24.57140078148297
 20
32.21780386989812
 30
0.0
 40
2.0
100
AcDbArc
 50
11.11304099999972
 51
79.99201999999666
  0
ARC
  5
25D
330
2
100
AcDbEntity
  8
GAIKEI
  6
Continuous
100
AcDbCircle
 10
-29.07324478148297
 20
35.65241986989813
 30
0.0
 40
0.6000000000000001
100
AcDbArc
 50
180.0
 51
259.9920199999967
  0
ARC
  5
25E
330
2
100
AcDbEntity
  8
GAIKEI
  6
Continuous
100
AcDbCircle
 10
-10.27324478148298
 20
35.65241986989813
 30
0.0
 40
0.6000000000000001
100
AcDbArc
 50
280.007979999997
 51
0.0
  0
ARC
  5
25F
330
2
100
AcDbEntity
  8
GAIKEI
  6
Continuous
 62
     1
100
AcDbCircle
 10
-12.41161478148297
 20
9.48740186989815
 30
0.0
 40
0.16
100
AcDbArc
 50
225.0
 51
45.0
  0
LINE
  5
260
330
2
100
AcDbEntity
  8
GAIKEI
  6
Continuous
 62
     1
100
AcDbLine
 10
-12.52475078148296
 20
9.374263869898129
 30
0.0
 11
-12.89951878148298
 21
9.749031869898146
 31
0.0
  0
LINE
  5
261
330
2
100
AcDbEntity
  8
GAIKEI
  6
Continuous
 62
     1
100
AcDbLine
 10
-12.89951878148298
 20
9.749031869898146
 30
0.0
 11
-13.04801078148299
 21
9.897523869898151
 31
0.0
  0
ARC
  5
262
330
2
100
AcDbEntity
  8
GAIKEI
  6
Continuous
 62
     1
100
AcDbCircle
 10
-12.93487278148296
 20
10.01066186989814
 30
0.0
 40
0.16
100
AcDbArc
 50
45.00000100000149
 51
225.0
  0
LINE
  5
263
330
2
100
AcDbEntity
  8
GAIKEI
  6
Continuous
 62
     1
100
AcDbLine
 10
-12.82173678148299
 20
10.12379786989814
 30
0.0
 11
-12.29847678148297
 21
9.600539869898142
 31
0.0
  0
CIRCLE
  5
264
330
2
100
AcDbEntity
  8
GAIKEI
  6
Continuous
 62
     1
100
AcDbCircle
 10
-19.673242781483
 20
16.74903186989815
 30
0.0
 40
7.9
  0
LINE
  5
265
330
2
100
AcDbEntity
  8
GAIKEI
  6
Continuous
 62
     1
100
AcDbLine
 10
-14.79567078148298
 20
9.841163869898139
 30
0.0
 11
-14.54111078148298
 21
9.586605869898136
 31
0.0
  0
LINE
  5
266
330
2
100
AcDbEntity
  8
GAIKEI
  6
Continuous
 62
     1
100
AcDbLine
 10
-14.71081678148297
 20
9.416899869898145
 30
0.0
 11
-14.96537678148297
 21
9.671457869898119
 31
0.0
  0
ARC
  5
267
330
2
100
AcDbEntity
  8
GAIKEI
  6
Continuous
 62
     1
100
AcDbCircle
 10
-14.62596478148299
 20
9.501751869898129
 30
0.0
 40
0.12
100
AcDbArc
 50
225.0
 51
45.0
  0
ARC
  5
268
330
2
100
AcDbEntity
  8
GAIKEI
  6
Continuous
 62
     1
100
AcDbCircle
 10
-14.88052278148296
 20
9.756309869898132
 30
0.0
 40
0.12
100
AcDbArc
 50
44.9999989999962
 51
225.0
  0
ARC
  5
269
330
2
100
AcDbEntity
  8
GAIKEI
  6
Continuous
 62
     1
100
AcDbCircle
 10
-14.01315478148297
 20
9.49055386989815
 30
0.0
 40
0.12
100
AcDbArc
 50
225.0
 51
45.0
  0
LINE
  5
26A
330
2
100
AcDbEntity
  8
GAIKEI
  6
Continuous
 62
     1
100
AcDbLine
 10
-14.09800678148298
 20
9.405701869898138
 30
0.0
 11
-14.35256478148295
 21
9.660259869898141
 31
0.0
  0
ARC
  5
26B
330
2
100
AcDbEntity
  8
GAIKEI
  6
Continuous
 62
     1
100
AcDbCircle
 10
-14.267712781483
 20
9.745111869898153
 30
0.0
 40
0.12
100
AcDbArc
 50
44.9999989999962
 51
225.0
  0
LINE
  5
26C
330
2
100
AcDbEntity
  8
GAIKEI
  6
Continuous
 62
     1
100
AcDbLine
 10
-14.18285878148296
 20
9.829965869898131
 30
0.0
 11
-13.92830078148299
 21
9.575407869898128
 31
0.0
  0
ARC
  5
26D
330
2
100
AcDbEntity
  8
GAIKEI
  6
Continuous
100
AcDbCircle
 10
-12.07324278148297
 20
9.149031869898124
 30
0.0
 40
2.4
100
AcDbArc
 50
270.0
 51
0.0
  0
LINE
  5
26E
330
2
100
AcDbEntity
  8
GAIKEI
  6
Continuous
100
AcDbLine
 10
-27.27324478148299
 20
6.749031869898146
 30
0.0
 11
-12.07324278148297
 21
6.749031869898146
 31
0.0
  0
ARC
  5
26F
330
2
100
AcDbEntity
  8
GAIKEI
  6
Continuous
100
AcDbCircle
 10
-27.27324478148299
 20
9.149031869898124
 30
0.0
 40
2.4
100
AcDbArc
 50
180.0
 51
270.0
  0
LINE
  5
270
330
2
100
AcDbEntity
  8
GAIKEI
  6
Continuous
100
AcDbLine
 10
-29.67324478148299
 20
24.34903186989814
 30
0.0
 11
-29.67324478148299
 21
9.149031869898124
 31
0.0
  0
ARC
  5
271
330
2
100
AcDbEntity
  8
GAIKEI
  6
Continuous
100
AcDbCircle
 10
-27.27324478148299
 20
24.34903186989814
 30
0.0
 40
2.4
100
AcDbArc
 50
90.0
 51
180.0
  0
LINE
  5
272
330
2
100
AcDbEntity
  8
GAIKEI
  6
Continuous
100
AcDbLine
 10
-12.07324278148297
 20
26.74903186989815
 30
0.0
 11
-27.27324478148299
 21
26.74903186989815
 31
0.0
  0
ARC
  5
273
330
2
100
AcDbEntity
  8
GAIKEI
  6
Continuous
100
AcDbCircle
 10
-12.07324278148297
 20
24.34903186989814
 30
0.0
 40
2.4
100
AcDbArc
 50
0.0
 51
90.0
  0
LINE
  5
274
330
2
100
AcDbEntity
  8
GAIKEI
  6
Continuous
100
AcDbLine
 10
-9.673242781482997
 20
9.149031869898124
 30
0.0
 11
-9.673242781482997
 21
24.34903186989814
 31
0.0
  0
TEXT
  5
275
330
2
100
AcDbEntity
  8
MOJI1
100
AcDbText
 10
-17.4939240689763
 20
-41.56290934697617
 30
0.0
 40
3.0
  1
３ルクス(カラーナイトビューモー時：０．２ルクス)
 41
0.9
100
AcDbText
  0
LINE
  5
276
330
2
100
AcDbEntity
  8
WAKU
 62
     4
100
AcDbLine
 10
-19.78834283845788
 20
-57.56290934697594
 30
0.0
 11
-19.78834283845788
 21
-17.56290934697594
 31
0.0
  0
LINE
  5
278
330
2
100
AcDbEntity
  8
WAKU
 62
     4
100
AcDbLine
 10
65.0060759310237
 20
-57.56290934697616
 30
0.0
 11
65.0060759310237
 21
-17.56290934697617
 31
0.0
  0
LINE
  5
279
330
2
100
AcDbEntity
  8
WAKU
 62
     4
100
AcDbLine
 10
-59.9939240689763
 20
-17.56290934697617
 30
0.0
 11
-59.9939240689763
 21
-57.56290934697616
 31
0.0
  0
LINE
  5
27A
330
2
100
AcDbEntity
  8
WAKU
 62
     1
100
AcDbLine
 10
65.0060759310237
 20
-22.56290934697617
 30
0.0
 11
-59.9939240689763
 21
-22.56290934697617
 31
0.0
  0
LINE
  5
27B
330
2
100
AcDbEntity
  8
WAKU
 62
     4
100
AcDbLine
 10
65.0060759310237
 20
-17.56290934697617
 30
0.0
 11
-59.9939240689763
 21
-17.56290934697617
 31
0.0
  0
LINE
  5
27C
330
2
100
AcDbEntity
  8
WAKU
 62
     1
100
AcDbLine
 10
65.0060759310237
 20
-27.56290934697617
 30
0.0
 11
-59.9939240689763
 21
-27.56290934697617
 31
0.0
  0
LINE
  5
27D
330
2
100
AcDbEntity
  8
WAKU
 62
     1
100
AcDbLine
 10
65.0060759310237
 20
-32.56290934697617
 30
0.0
 11
-59.9939240689763
 21
-32.56290934697617
 31
0.0
  0
LINE
  5
27E
330
2
100
AcDbEntity
  8
WAKU
 62
     1
100
AcDbLine
 10
65.0060759310237
 20
-37.56290934697617
 30
0.0
 11
-59.9939240689763
 21
-37.56290934697617
 31
0.0
  0
LINE
  5
27F
330
2
100
AcDbEntity
  8
WAKU
 62
     1
100
AcDbLine
 10
65.0060759310237
 20
-42.56290934697616
 30
0.0
 11
-59.9939240689763
 21
-42.56290934697616
 31
0.0
  0
LINE
  5
280
330
2
100
AcDbEntity
  8
WAKU
 62
     1
100
AcDbLine
 10
65.0060759310237
 20
-47.56290934697616
 30
0.0
 11
-59.9939240689763
 21
-47.56290934697616
 31
0.0
  0
LINE
  5
281
330
2
100
AcDbEntity
  8
WAKU
 62
     4
100
AcDbLine
 10
-59.9939240689763
 20
-57.56290934697616
 30
0.0
 11
65.0060759310237
 21
-57.56290934697616
 31
0.0
  0
TEXT
  5
282
330
2
100
AcDbEntity
  8
MOJI1
100
AcDbText
 10
-57.4939240689763
 20
-21.56290934697617
 30
0.0
 40
3.0
  1
電　源
100
AcDbText
  0
TEXT
  5
283
330
2
100
AcDbEntity
  8
MOJI1
100
AcDbText
 10
-17.4939240689763
 20
-36.56290934697617
 30
0.0
 40
3.0
  1
左右５３°　上下４０°
100
AcDbText
  0
TEXT
  5
284
330
2
100
AcDbEntity
  8
MOJI1
100
AcDbText
 10
-57.4939240689763
 20
-51.56290934697617
 30
0.0
 40
3.0
  1
チルト
100
AcDbText
  0
TEXT
  5
285
330
2
100
AcDbEntity
  8
MOJI1
100
AcDbText
 10
-57.4939240689763
 20
-41.56290934697617
 30
0.0
 40
3.0
  1
最低照度
100
AcDbText
  0
TEXT
  5
286
330
2
100
AcDbEntity
  8
MOJI1
100
AcDbText
 10
-57.4939240689763
 20
-26.56290934697617
 30
0.0
 40
3.0
  1
撮像素子
100
AcDbText
  0
TEXT
  5
287
330
2
100
AcDbEntity
  8
MOJI1
100
AcDbText
 10
-57.4939240689763
 20
-31.56290934697617
 30
0.0
 40
3.0
  1
解像度
100
AcDbText
  0
TEXT
  5
288
330
2
100
AcDbEntity
  8
MOJI1
100
AcDbText
 10
-57.4939240689763
 20
-36.56290934697617
 30
0.0
 40
3.0
  1
画　角
100
AcDbText
  0
TEXT
  5
289
330
2
100
AcDbEntity
  8
MOJI1
100
AcDbText
 10
-17.4939240689763
 20
-46.56290934697617
 30
0.0
 40
3.0
  1
±６０°
100
AcDbText
  0
TEXT
  5
28A
330
2
100
AcDbEntity
  8
MOJI1
100
AcDbText
 10
-17.4939240689763
 20
-26.56290934697617
 30
0.0
 40
3.0
  1
１／４型 ３２万画素ＣＣＤ
100
AcDbText
  0
TEXT
  5
28B
330
2
100
AcDbEntity
  8
MOJI1
100
AcDbText
 10
-16.4939240689763
 20
-21.56290934697617
 30
0.0
 40
3.0
  1
ＡＣ１００Ｖ　５０／６０Ｈｚ
100
AcDbText
  0
TEXT
  5
28C
330
2
100
AcDbEntity
  8
MOJI1
100
AcDbText
 10
-17.4939240689763
 20
-51.56290934697617
 30
0.0
 40
3.0
  1
＋２０°～ー４５°
100
AcDbText
  0
TEXT
  5
28D
330
2
100
AcDbEntity
  8
MOJI1
100
AcDbText
 10
-57.4939240689763
 20
-46.56290934697617
 30
0.0
 40
3.0
  1
パ　ン
100
AcDbText
  0
TEXT
  5
28E
330
2
100
AcDbEntity
  8
MOJI1
100
AcDbText
 10
-17.4939240689763
 20
-31.56290934697617
 30
0.0
 40
3.0
  1
６４０×４８０、３２０×２４０、１６０×１２０ドット
 41
0.8699999999999999
100
AcDbText
  0
TEXT
  5
28F
330
2
100
AcDbEntity
  8
MOJI1
100
AcDbText
 10
-57.4939240689763
 20
-56.56290934697617
 30
0.0
 40
3.0
  1
回転速度
100
AcDbText
  0
LINE
  5
290
330
2
100
AcDbEntity
  8
WAKU
 62
     1
100
AcDbLine
 10
65.0060759310237
 20
-52.56290934697616
 30
0.0
 11
-59.9939240689763
 21
-52.56290934697616
 31
0.0
  0
TEXT
  5
291
330
2
100
AcDbEntity
  8
MOJI1
100
AcDbText
 10
-17.4939240689763
 20
-56.56290934697617
 30
0.0
 40
3.0
  1
パン最大８０°/秒　チルト最大８０°/秒
100
AcDbText
  0
ENDSEC
  0
SECTION
  2
OBJECTS
  0
DICTIONARY
  5
9
330
0
100
AcDbDictionary
281
     1
  3
ACAD_COLOR
350
31
  3
ACAD_GROUP
350
2D
  3
ACAD_LAYOUT
350
D
  3
ACAD_MATERIAL
350
30
  3
ACAD_MLINESTYLE
350
2E
  3
ACAD_PLOTSETTINGS
350
2F
  3
ACAD_PLOTSTYLENAME
350
8
  3
ACDBHEADERROUNDTRIPXREC
350
2CE
  3
AcDbVariableDictionary
350
2C9
  0
DICTIONARY
  5
15
330
14
100
AcDbDictionary
280
     1
281
     1
  3
ACAD_LAYERFILTERS
360
16
  3
ACAD_LAYERSTATES
360
17
  0
DICTIONARY
  5
3
330
2
100
AcDbDictionary
280
     1
281
     1
  3
ACAD_LAYOUTSELFREF
360
4
  0
DICTIONARY
  5
F
330
E
100
AcDbDictionary
280
     1
281
     1
  3
ACAD_LAYOUTSELFREF
360
10
  0
DICTIONARY
  5
31
102
{ACAD_REACTORS
330
9
102
}
330
9
100
AcDbDictionary
281
     1
  0
DICTIONARY
  5
2D
102
{ACAD_REACTORS
330
9
102
}
330
9
100
AcDbDictionary
281
     1
  0
DICTIONARY
  5
D
102
{ACAD_REACTORS
330
9
102
}
330
9
100
AcDbDictionary
281
     1
  3
Model
350
C
  3
ﾚｲｱｳﾄ1
350
13
  0
DICTIONARY
  5
30
102
{ACAD_REACTORS
330
9
102
}
330
9
100
AcDbDictionary
281
     1
  0
DICTIONARY
  5
2E
102
{ACAD_REACTORS
330
9
102
}
330
9
100
AcDbDictionary
281
     1
  3
STANDARD
350
33
  0
DICTIONARY
  5
2F
102
{ACAD_REACTORS
330
9
102
}
330
9
100
AcDbDictionary
281
     1
  0
ACDBDICTIONARYWDFLT
  5
8
102
{ACAD_REACTORS
330
9
102
}
330
9
100
AcDbDictionary
281
     1
  3
Normal
350
7
100
AcDbDictionaryWithDefault
340
7
  0
DICTIONARY
  5
2CE
102
{ACAD_REACTORS
330
9
102
}
330
9
100
AcDbDictionary
281
     1
  3
COLORDICT
350
2D0
  3
MATERIALDICT
350
2CF
  0
DICTIONARY
  5
2C9
102
{ACAD_REACTORS
330
9
102
}
330
9
100
AcDbDictionary
281
     1
  3
DIMASSOC
350
2CB
  3
HIDETEXT
350
2CA
  3
PROJECTNAME
350
2CC
  0
DICTIONARY
  5
16
102
{ACAD_REACTORS
330
15
102
}
330
15
100
AcDbDictionary
280
     1
281
     1
  0
DICTIONARY
  5
17
102
{ACAD_REACTORS
330
15
102
}
330
15
100
AcDbDictionary
281
     1
  0
XRECORD
  5
4
102
{ACAD_REACTORS
330
3
102
}
330
3
100
AcDbXrecord
280
     1
340
2
  0
XRECORD
  5
10
102
{ACAD_REACTORS
330
F
102
}
330
F
100
AcDbXrecord
280
     1
340
E
  0
LAYOUT
  5
C
102
{ACAD_XDICTIONARY
360
2D1
102
}
102
{ACAD_REACTORS
330
D
102
}
330
D
100
AcDbPlotSettings
  1

  2
\\URANUS\8FPAM09
  4
A4
  6

 40
4.180416584014892
 41
4.349743366241455
 42
4.222747802734375
 43
4.349761962890625
 44
210.0156707763672
 45
297.0106506347656
 46
6.059999999999999
 47
0.0
 48
25.34539077427235
 49
57.21129063001763
140
107.5109045145468
141
104.2171889579802
142
1.0
143
1.367648095643874
 70
 11956
 72
     1
 73
     0
 74
     1
  7
tmsacad.ctb
 75
     0
147
0.7311822413858666
148
0.5944178568379357
149
0.0307472302411043
100
AcDbLayout
  1
Model
 70
     1
 71
     0
 10
0.0
 20
0.0
 11
12.0
 21
9.0
 12
0.0
 22
0.0
 32
0.0
 14
0.0
 24
0.0
 34
0.0
 15
0.0
 25
0.0
 35
0.0
146
0.0
 13
0.0
 23
0.0
 33
0.0
 16
1.0
 26
0.0
 36
0.0
 17
0.0
 27
1.0
 37
0.0
 76
     0
330
2
  0
LAYOUT
  5
13
102
{ACAD_XDICTIONARY
360
2D3
102
}
102
{ACAD_REACTORS
330
D
102
}
330
D
100
AcDbPlotSettings
  1

  2
C:\Program Files\ACAD2000\plotters\DWF ePlot.pc3
  4

  6

 40
0.0
 41
0.0
 42
0.0
 43
0.0
 44
0.0
 45
0.0
 46
0.0
 47
0.0
 48
0.0
 49
0.0
140
0.0
141
0.0
142
1.0
143
1.0
 70
   688
 72
     0
 73
     0
 74
     5
  7
tmsacad.ctb
 75
    16
147
1.0
148
0.0
149
0.0
100
AcDbLayout
  1
ﾚｲｱｳﾄ1
 70
     1
 71
     1
 10
0.0
 20
0.0
 11
12.0
 21
9.0
 12
0.0
 22
0.0
 32
0.0
 14
1.000000000000000E+20
 24
1.000000000000000E+20
 34
1.000000000000000E+20
 15
-1.000000000000000E+20
 25
-1.000000000000000E+20
 35
-1.000000000000000E+20
146
0.0
 13
0.0
 23
0.0
 33
0.0
 16
1.0
 26
0.0
 36
0.0
 17
0.0
 27
1.0
 37
0.0
 76
     0
330
E
  0
MLINESTYLE
  5
33
102
{ACAD_REACTORS
330
2E
102
}
330
2E
100
AcDbMlineStyle
  2
STANDARD
 70
     0
  3

 62
   256
 51
90.0
 52
90.0
 71
     2
 49
0.5
 62
   256
  6
BYLAYER
 49
-0.5
 62
   256
  6
BYLAYER
  0
ACDBPLACEHOLDER
  5
7
102
{ACAD_REACTORS
330
8
102
}
330
8
  0
XRECORD
  5
2D0
102
{ACAD_REACTORS
330
2CE
102
}
330
2CE
100
AcDbXrecord
280
     1
340
31
  0
XRECORD
  5
2CF
102
{ACAD_REACTORS
330
2CE
102
}
330
2CE
100
AcDbXrecord
280
     1
340
30
  0
DICTIONARYVAR
  5
2CB
102
{ACAD_REACTORS
330
2C9
102
}
330
2C9
100
DictionaryVariables
280
     0
  1
1
  0
DICTIONARYVAR
  5
2CA
102
{ACAD_REACTORS
330
2C9
102
}
330
2C9
100
DictionaryVariables
280
     0
  1
1
  0
DICTIONARYVAR
  5
2CC
102
{ACAD_REACTORS
330
2C9
102
}
330
2C9
100
DictionaryVariables
280
     0
  1

  0
DICTIONARY
  5
2D1
330
C
100
AcDbDictionary
280
     1
281
     1
  3
ACAD_XREC_ROUNDTRIP
360
2D2
  0
DICTIONARY
  5
2D3
330
13
100
AcDbDictionary
280
     1
281
     1
  3
ACAD_XREC_ROUNDTRIP
360
2D4
  0
XRECORD
  5
2D2
102
{ACAD_REACTORS
330
2D1
102
}
330
2D1
100
AcDbXrecord
280
     1
102
SHADEPLOT
 70
     0
102
SHADEPLOTRESLEVEL
 70
     2
102
SHADEPLOTCUSTOMDPI
 70
   300
  0
XRECORD
  5
2D4
102
{ACAD_REACTORS
330
2D3
102
}
330
2D3
100
AcDbXrecord
280
     1
102
SHADEPLOT
 70
     0
102
SHADEPLOTRESLEVEL
 70
     2
102
SHADEPLOTCUSTOMDPI
 70
   300
  0
ENDSEC
  0
EOF
