  0
SECTION
  2
HEADER
  9
$ACADVER
  1
AC1015
  9
$ACADMAINTVER
 70
    20
  9
$DWGCODEPAGE
  3
ANSI_932
  9
$INSBASE
 10
0.0
 20
372.4992141396417
 30
0.0
  9
$EXTMIN
 10
-62.84286541607525
 20
-54.64989820243864
 30
-0.0015258207003583
  9
$EXTMAX
 10
62.23764355388948
 20
59.20406603749416
 30
0.0000000349246037
  9
$LIMMIN
 10
-1101.784450318844
 20
-1579.160531687244
  9
$LIMMAX
 10
-508.2420711400536
 20
-1161.440814074914
  9
$ORTHOMODE
 70
     0
  9
$REGENMODE
 70
     1
  9
$FILLMODE
 70
     1
  9
$QTEXTMODE
 70
     0
  9
$MIRRTEXT
 70
     1
  9
$LTSCALE
 40
1.0
  9
$ATTMODE
 70
     1
  9
$TEXTSIZE
 40
3.0
  9
$TRACEWID
 40
0.5
  9
$TEXTSTYLE
  7
STANDARD
  9
$CLAYER
  8
MOJI1
  9
$CELTYPE
  6
BYLAYER
  9
$CECOLOR
 62
   256
  9
$CELTSCALE
 40
1.0
  9
$DISPSILH
 70
     0
  9
$DIMSCALE
 40
1.0
  9
$DIMASZ
 40
2.0
  9
$DIMEXO
 40
2.0
  9
$DIMDLI
 40
8.0
  9
$DIMRND
 40
0.0
  9
$DIMDLE
 40
0.0
  9
$DIMEXE
 40
2.0
  9
$DIMTP
 40
0.0
  9
$DIMTM
 40
0.0
  9
$DIMTXT
 40
2.5
  9
$DIMCEN
 40
0.0
  9
$DIMTSZ
 40
0.0
  9
$DIMTOL
 70
     0
  9
$DIMLIM
 70
     0
  9
$DIMTIH
 70
     0
  9
$DIMTOH
 70
     0
  9
$DIMSE1
 70
     0
  9
$DIMSE2
 70
     0
  9
$DIMTAD
 70
     3
  9
$DIMZIN
 70
     0
  9
$DIMBLK
  1

  9
$DIMASO
 70
     1
  9
$DIMSHO
 70
     1
  9
$DIMPOST
  1

  9
$DIMAPOST
  1

  9
$DIMALT
 70
     0
  9
$DIMALTD
 70
     2
  9
$DIMALTF
 40
25.4
  9
$DIMLFAC
 40
1.0
  9
$DIMTOFL
 70
     1
  9
$DIMTVP
 40
0.0
  9
$DIMTIX
 70
     0
  9
$DIMSOXD
 70
     0
  9
$DIMSAH
 70
     1
  9
$DIMBLK1
  1
OPEN30
  9
$DIMBLK2
  1
OPEN30
  9
$DIMSTYLE
  2
STANDARD
  9
$DIMCLRD
 70
     0
  9
$DIMCLRE
 70
     0
  9
$DIMCLRT
 70
     0
  9
$DIMTFAC
 40
1.0
  9
$DIMGAP
 40
0.5
  9
$DIMJUST
 70
     0
  9
$DIMSD1
 70
     0
  9
$DIMSD2
 70
     0
  9
$DIMTOLJ
 70
     1
  9
$DIMTZIN
 70
     0
  9
$DIMALTZ
 70
     0
  9
$DIMALTTZ
 70
     0
  9
$DIMUPT
 70
     0
  9
$DIMDEC
 70
     4
  9
$DIMTDEC
 70
     4
  9
$DIMALTU
 70
     2
  9
$DIMALTTD
 70
     2
  9
$DIMTXSTY
  7
STANDARD
  9
$DIMAUNIT
 70
     0
  9
$DIMADEC
 70
     0
  9
$DIMALTRND
 40
0.0
  9
$DIMAZIN
 70
     0
  9
$DIMDSEP
 70
    46
  9
$DIMATFIT
 70
     3
  9
$DIMFRAC
 70
     0
  9
$DIMLDRBLK
  1
OPEN30
  9
$DIMLUNIT
 70
     2
  9
$DIMLWD
 70
    -2
  9
$DIMLWE
 70
    -2
  9
$DIMTMOVE
 70
     0
  9
$LUNITS
 70
     2
  9
$LUPREC
 70
     4
  9
$SKETCHINC
 40
0.1
  9
$FILLETRAD
 40
1.0
  9
$AUNITS
 70
     0
  9
$AUPREC
 70
     0
  9
$MENU
  1
ACAD
  9
$ELEVATION
 40
0.0
  9
$PELEVATION
 40
0.0
  9
$THICKNESS
 40
0.0
  9
$LIMCHECK
 70
     0
  9
$CHAMFERA
 40
0.0
  9
$CHAMFERB
 40
0.0
  9
$CHAMFERC
 40
0.0
  9
$CHAMFERD
 40
0.0
  9
$SKPOLY
 70
     0
  9
$TDCREATE
 40
2451815.565532581
  9
$TDUCREATE
 40
2451815.190532581
  9
$TDUPDATE
 40
2453775.590137442
  9
$TDUUPDATE
 40
2453775.215137442
  9
$TDINDWG
 40
1.0744027894
  9
$TDUSRTIMER
 40
1.0744027894
  9
$USRTIMER
 70
     1
  9
$ANGBASE
 50
0.0
  9
$ANGDIR
 70
     0
  9
$PDMODE
 70
     0
  9
$PDSIZE
 40
0.0
  9
$PLINEWID
 40
0.0
  9
$SPLFRAME
 70
     0
  9
$SPLINETYPE
 70
     6
  9
$SPLINESEGS
 70
     8
  9
$HANDSEED
  5
60E
  9
$SURFTAB1
 70
     6
  9
$SURFTAB2
 70
     6
  9
$SURFTYPE
 70
     6
  9
$SURFU
 70
     6
  9
$SURFV
 70
     6
  9
$UCSBASE
  2

  9
$UCSNAME
  2

  9
$UCSORG
 10
0.0
 20
0.0
 30
0.0
  9
$UCSXDIR
 10
1.0
 20
0.0
 30
0.0
  9
$UCSYDIR
 10
0.0
 20
1.0
 30
0.0
  9
$UCSORTHOREF
  2

  9
$UCSORTHOVIEW
 70
     0
  9
$UCSORGTOP
 10
0.0
 20
0.0
 30
0.0
  9
$UCSORGBOTTOM
 10
0.0
 20
0.0
 30
0.0
  9
$UCSORGLEFT
 10
0.0
 20
0.0
 30
0.0
  9
$UCSORGRIGHT
 10
0.0
 20
0.0
 30
0.0
  9
$UCSORGFRONT
 10
0.0
 20
0.0
 30
0.0
  9
$UCSORGBACK
 10
0.0
 20
0.0
 30
0.0
  9
$PUCSBASE
  2

  9
$PUCSNAME
  2

  9
$PUCSORG
 10
0.0
 20
0.0
 30
0.0
  9
$PUCSXDIR
 10
1.0
 20
0.0
 30
0.0
  9
$PUCSYDIR
 10
0.0
 20
1.0
 30
0.0
  9
$PUCSORTHOREF
  2

  9
$PUCSORTHOVIEW
 70
     0
  9
$PUCSORGTOP
 10
0.0
 20
0.0
 30
0.0
  9
$PUCSORGBOTTOM
 10
0.0
 20
0.0
 30
0.0
  9
$PUCSORGLEFT
 10
0.0
 20
0.0
 30
0.0
  9
$PUCSORGRIGHT
 10
0.0
 20
0.0
 30
0.0
  9
$PUCSORGFRONT
 10
0.0
 20
0.0
 30
0.0
  9
$PUCSORGBACK
 10
0.0
 20
0.0
 30
0.0
  9
$USERI1
 70
     0
  9
$USERI2
 70
     0
  9
$USERI3
 70
     0
  9
$USERI4
 70
     0
  9
$USERI5
 70
     0
  9
$USERR1
 40
0.0
  9
$USERR2
 40
0.0
  9
$USERR3
 40
0.0
  9
$USERR4
 40
0.0
  9
$USERR5
 40
0.0
  9
$WORLDVIEW
 70
     1
  9
$SHADEDGE
 70
     3
  9
$SHADEDIF
 70
    70
  9
$TILEMODE
 70
     1
  9
$MAXACTVP
 70
    48
  9
$PINSBASE
 10
0.0
 20
0.0
 30
0.0
  9
$PLIMCHECK
 70
     0
  9
$PEXTMIN
 10
1.000000000000000E+20
 20
1.000000000000000E+20
 30
1.000000000000000E+20
  9
$PEXTMAX
 10
-1.000000000000000E+20
 20
-1.000000000000000E+20
 30
-1.000000000000000E+20
  9
$PLIMMIN
 10
0.0
 20
0.0
  9
$PLIMMAX
 10
12.0
 20
9.0
  9
$UNITMODE
 70
     0
  9
$VISRETAIN
 70
     1
  9
$PLINEGEN
 70
     0
  9
$PSLTSCALE
 70
     1
  9
$TREEDEPTH
 70
  3020
  9
$CMLSTYLE
  2
STANDARD
  9
$CMLJUST
 70
     0
  9
$CMLSCALE
 40
1.0
  9
$PROXYGRAPHICS
 70
     1
  9
$MEASUREMENT
 70
     0
  9
$CELWEIGHT
370
    -1
  9
$ENDCAPS
280
     0
  9
$JOINSTYLE
280
     0
  9
$LWDISPLAY
290
     0
  9
$INSUNITS
 70
     0
  9
$HYPERLINKBASE
  1

  9
$STYLESHEET
  1

  9
$XEDIT
290
     1
  9
$CEPSNTYPE
380
     0
  9
$PSTYLEMODE
290
     1
  9
$FINGERPRINTGUID
  2
{1754B7AB-9B3C-11D4-AD9E-00104B1004F2}
  9
$VERSIONGUID
  2
{EE19E4D7-FFFE-4E63-ADC3-9A9D7C4ABE50}
  9
$EXTNAMES
290
     1
  9
$PSVPSCALE
 40
0.0
  9
$OLESTARTUP
290
     0
  0
ENDSEC
  0
SECTION
  2
CLASSES
  0
CLASS
  1
ACDBDICTIONARYWDFLT
  2
AcDbDictionaryWithDefault
  3
ObjectDBX Classes
 90
        0
280
     0
281
     0
  0
CLASS
  1
ACDBPLACEHOLDER
  2
AcDbPlaceHolder
  3
ObjectDBX Classes
 90
        0
280
     0
281
     0
  0
CLASS
  1
LAYOUT
  2
AcDbLayout
  3
ObjectDBX Classes
 90
        0
280
     0
281
     0
  0
CLASS
  1
DICTIONARYVAR
  2
AcDbDictionaryVar
  3
ObjectDBX Classes
 90
        0
280
     0
281
     0
  0
ENDSEC
  0
SECTION
  2
TABLES
  0
TABLE
  2
VPORT
  5
20
330
0
100
AcDbSymbolTable
 70
     3
  0
VPORT
  5
606
330
20
100
AcDbSymbolTableRecord
100
AcDbViewportTableRecord
  2
*Active
 70
     0
 10
0.0
 20
0.0
 11
1.0
 21
1.0
 12
-0.302610931092893
 22
2.277083917527761
 13
0.0
 23
0.0
 14
1.0
 24
1.0
 15
0.0
 25
0.0
 16
0.0
 26
0.0
 36
1.0
 17
0.0
 27
0.0
 37
0.0
 40
114.7539955777979
 41
1.447229551451187
 42
50.0
 43
0.0
 44
0.0
 50
0.0
 51
0.0
 71
     0
 72
 10000
 73
     1
 74
     0
 75
     0
 76
     1
 77
     0
 78
     0
281
     0
 65
     1
110
0.0
120
0.0
130
0.0
111
1.0
121
0.0
131
0.0
112
0.0
122
1.0
132
0.0
 79
     0
146
0.0
  0
ENDTAB
  0
TABLE
  2
LTYPE
  5
1B
330
0
100
AcDbSymbolTable
 70
     1
  0
LTYPE
  5
1C
330
1B
100
AcDbSymbolTableRecord
100
AcDbLinetypeTableRecord
  2
BYBLOCK
 70
     0
  3

 72
    65
 73
     0
 40
0.0
  0
LTYPE
  5
1D
330
1B
100
AcDbSymbolTableRecord
100
AcDbLinetypeTableRecord
  2
BYLAYER
 70
     0
  3

 72
    65
 73
     0
 40
0.0
  0
LTYPE
  5
A
330
1B
100
AcDbSymbolTableRecord
100
AcDbLinetypeTableRecord
  2
CONTINUOUS
 70
     0
  3
Solid line
 72
    65
 73
     0
 40
0.0
  0
ENDTAB
  0
TABLE
  2
LAYER
  5
14
102
{ACAD_XDICTIONARY
360
15
102
}
330
0
100
AcDbSymbolTable
 70
     7
  0
LAYER
  5
6
330
14
100
AcDbSymbolTableRecord
100
AcDbLayerTableRecord
  2
0
 70
     0
 62
     7
  6
CONTINUOUS
370
    -3
390
7
  0
LAYER
  5
511
330
14
100
AcDbSymbolTableRecord
100
AcDbLayerTableRecord
  2
DEFPOINTS
 70
     0
 62
     7
  6
CONTINUOUS
290
     0
370
    -3
390
7
  0
LAYER
  5
5B0
330
14
100
AcDbSymbolTableRecord
100
AcDbLayerTableRecord
  2
WAKU
 70
     0
 62
     4
  6
CONTINUOUS
370
    -3
390
7
  0
LAYER
  5
32
330
14
100
AcDbSymbolTableRecord
100
AcDbLayerTableRecord
  2
MOJI1
 70
     0
 62
     2
  6
CONTINUOUS
370
    -3
390
7
  0
LAYER
  5
38
330
14
100
AcDbSymbolTableRecord
100
AcDbLayerTableRecord
  2
GAIKEI
 70
     0
 62
     7
  6
CONTINUOUS
370
    -3
390
7
  0
LAYER
  5
36
330
14
100
AcDbSymbolTableRecord
100
AcDbLayerTableRecord
  2
TOUROKU
 70
     0
 62
     1
  6
CONTINUOUS
370
    -3
390
7
  0
LAYER
  5
507
330
14
100
AcDbSymbolTableRecord
100
AcDbLayerTableRecord
  2
SUNPO
 70
     0
 62
     3
  6
CONTINUOUS
370
    -3
390
7
  0
ENDTAB
  0
TABLE
  2
STYLE
  5
18
330
0
100
AcDbSymbolTable
 70
     1
  0
STYLE
  5
19
330
18
100
AcDbSymbolTableRecord
100
AcDbTextStyleTableRecord
  2
STANDARD
 70
     0
 40
0.0
 41
1.0
 50
0.0
 71
     0
 42
3.0
  3
MONOTXT.shx
  4
BIGFONT.shx
  0
ENDTAB
  0
TABLE
  2
VIEW
  5
1E
330
0
100
AcDbSymbolTable
 70
     0
  0
ENDTAB
  0
TABLE
  2
UCS
  5
1F
330
0
100
AcDbSymbolTable
 70
     0
  0
ENDTAB
  0
TABLE
  2
APPID
  5
22
330
0
100
AcDbSymbolTable
 70
     1
  0
APPID
  5
23
330
22
100
AcDbSymbolTableRecord
100
AcDbRegAppTableRecord
  2
ACAD
 70
     0
  0
ENDTAB
  0
TABLE
  2
DIMSTYLE
  5
24
330
0
100
AcDbSymbolTable
 70
     1
100
AcDbDimStyleTable
 71
     1
340
25
  0
DIMSTYLE
105
25
102
{ACAD_REACTORS
330
506
330
5A1
330
579
102
}
330
24
100
AcDbSymbolTableRecord
100
AcDbDimStyleTableRecord
  2
STANDARD
 70
     0
 40
0.0
 41
2.0
 42
2.0
 43
8.0
 44
2.0
 73
     0
 74
     0
 77
     3
140
3.0
141
0.0
173
     1
279
     2
288
     1
340
19
341
26
343
26
344
26
  0
ENDTAB
  0
TABLE
  2
BLOCK_RECORD
  5
1
330
0
100
AcDbSymbolTable
 70
     7
  0
BLOCK_RECORD
  5
2
102
{ACAD_XDICTIONARY
360
3
102
}
330
1
100
AcDbSymbolTableRecord
100
AcDbBlockTableRecord
  2
*MODEL_SPACE
340
C
  0
BLOCK_RECORD
  5
E
102
{ACAD_XDICTIONARY
360
F
102
}
330
1
100
AcDbSymbolTableRecord
100
AcDbBlockTableRecord
  2
*PAPER_SPACE
340
13
  0
BLOCK_RECORD
  5
26
330
1
100
AcDbSymbolTableRecord
100
AcDbBlockTableRecord
  2
_OPEN30
340
0
102
{BLKREFS
331
50D
331
50E
331
57F
331
580
331
5A7
331
5A8
331
5E2
331
5E3
331
5EE
331
5EF
331
5FA
331
5FB
102
}
  0
BLOCK_RECORD
  5
508
330
1
100
AcDbSymbolTableRecord
100
AcDbBlockTableRecord
  2
*D1
340
0
  0
BLOCK_RECORD
  5
5A2
330
1
100
AcDbSymbolTableRecord
100
AcDbBlockTableRecord
  2
*D2
340
0
  0
BLOCK_RECORD
  5
57A
330
1
100
AcDbSymbolTableRecord
100
AcDbBlockTableRecord
  2
*D3
340
0
  0
BLOCK_RECORD
  5
5DE
330
1
100
AcDbSymbolTableRecord
100
AcDbBlockTableRecord
  2
*D4
340
0
  0
BLOCK_RECORD
  5
5EA
330
1
100
AcDbSymbolTableRecord
100
AcDbBlockTableRecord
  2
*D5
340
0
  0
BLOCK_RECORD
  5
5F6
330
1
100
AcDbSymbolTableRecord
100
AcDbBlockTableRecord
  2
*D6
340
0
  0
ENDTAB
  0
ENDSEC
  0
SECTION
  2
BLOCKS
  0
BLOCK
  5
5
330
2
100
AcDbEntity
  8
0
100
AcDbBlockBegin
  2
*MODEL_SPACE
 70
     0
 10
0.0
 20
0.0
 30
0.0
  3
*MODEL_SPACE
  1

  0
ENDBLK
  5
B
330
2
100
AcDbEntity
  8
0
100
AcDbBlockEnd
  0
BLOCK
  5
11
330
E
100
AcDbEntity
 67
     1
  8
0
100
AcDbBlockBegin
  2
*PAPER_SPACE
 70
     0
 10
0.0
 20
0.0
 30
0.0
  3
*PAPER_SPACE
  1

  0
ENDBLK
  5
12
330
E
100
AcDbEntity
 67
     1
  8
0
100
AcDbBlockEnd
  0
BLOCK
  5
27
330
26
100
AcDbEntity
  8
0
100
AcDbBlockBegin
  2
_OPEN30
 70
     0
 10
0.0
 20
0.0
 30
0.0
  3
_OPEN30
  1

  0
LINE
  5
28
330
26
100
AcDbEntity
  8
0
  6
ByBlock
 62
     0
100
AcDbLine
 10
-1.0
 20
0.26794919
 30
0.0
 11
0.0
 21
0.0
 31
0.0
  0
LINE
  5
29
330
26
100
AcDbEntity
  8
0
  6
ByBlock
 62
     0
100
AcDbLine
 10
0.0
 20
0.0
 30
0.0
 11
-1.0
 21
-0.26794919
 31
0.0
  0
LINE
  5
2A
330
26
100
AcDbEntity
  8
0
  6
ByBlock
 62
     0
100
AcDbLine
 10
0.0
 20
0.0
 30
0.0
 11
-1.0
 21
0.0
 31
0.0
  0
ENDBLK
  5
2B
330
26
100
AcDbEntity
  8
0
100
AcDbBlockEnd
  0
BLOCK
  5
509
330
508
100
AcDbEntity
  8
0
100
AcDbBlockBegin
  2
*D1
 70
     1
 10
0.0
 20
0.0
 30
0.0
  3
*D1
  1

  0
LINE
  5
50A
330
508
100
AcDbEntity
  8
SUNPO
 62
     0
370
    -2
100
AcDbLine
 10
78.29561675553151
 20
342.2733103751019
 30
0.0
 11
78.29561675553151
 21
350.2733103751019
 31
0.0
  0
LINE
  5
50B
330
508
100
AcDbEntity
  8
SUNPO
 62
     0
370
    -2
100
AcDbLine
 10
102.8156167555314
 20
342.2733103751019
 30
0.0
 11
102.8156167555314
 21
350.2733103751019
 31
0.0
  0
LINE
  5
50C
330
508
100
AcDbEntity
  8
SUNPO
 62
     0
370
    -2
100
AcDbLine
 10
80.29561675553152
 20
348.2733103751019
 30
0.0
 11
100.8156167555314
 21
348.2733103751019
 31
0.0
  0
INSERT
  5
50D
330
508
100
AcDbEntity
  8
SUNPO
 62
     0
370
    -2
100
AcDbBlockReference
  2
_OPEN30
 10
78.29561675553151
 20
348.2733103751019
 30
0.0
 41
2.0
 42
2.0
 43
2.0
 50
180.0
  0
INSERT
  5
50E
330
508
100
AcDbEntity
  8
SUNPO
 62
     0
370
    -2
100
AcDbBlockReference
  2
_OPEN30
 10
102.8156167555314
 20
348.2733103751019
 30
0.0
 41
2.0
 42
2.0
 43
2.0
  0
MTEXT
  5
50F
330
508
100
AcDbEntity
  8
SUNPO
 62
     0
100
AcDbMText
 10
90.55561675553148
 20
350.0233103751019
 30
0.0
 40
2.5
 41
0.0
 71
     5
 72
     1
  1
\A1;φ123
 73
     1
 44
1.0
1001
ACAD
1000
MTEXTBEGIN
1070
    73
1070
     1
1070
    44
1040
1.0
1070
    74
1070
     0
1000
MTEXTEND
  0
POINT
  5
510
330
508
100
AcDbEntity
  8
DEFPOINTS
 62
     0
100
AcDbPoint
 10
78.29561675553151
 20
340.2733103751019
 30
0.0
  0
POINT
  5
512
330
508
100
AcDbEntity
  8
DEFPOINTS
 62
     0
100
AcDbPoint
 10
102.8156167555314
 20
340.2733103751019
 30
0.0
  0
POINT
  5
513
330
508
100
AcDbEntity
  8
DEFPOINTS
 62
     0
100
AcDbPoint
 10
102.8156167555314
 20
348.2733103751019
 30
0.0
  0
ENDBLK
  5
514
330
508
100
AcDbEntity
  8
0
100
AcDbBlockEnd
  0
BLOCK
  5
5A3
330
5A2
100
AcDbEntity
  8
0
100
AcDbBlockBegin
  2
*D2
 70
     1
 10
0.0
 20
0.0
 30
0.0
  3
*D2
  1

  0
LINE
  5
5A4
330
5A2
100
AcDbEntity
  8
SUNPO
 62
     0
370
    -2
100
AcDbLine
 10
59.83327315096403
 20
312.367274590386
 30
0.0
 11
67.83327315096403
 21
312.367274590386
 31
0.0
  0
LINE
  5
5A5
330
5A2
100
AcDbEntity
  8
SUNPO
 62
     0
370
    -2
100
AcDbLine
 10
59.83327315096403
 20
340.265944790386
 30
0.0
 11
67.83327315096403
 21
340.265944790386
 31
0.0
  0
LINE
  5
5A6
330
5A2
100
AcDbEntity
  8
SUNPO
 62
     0
370
    -2
100
AcDbLine
 10
65.83327315096403
 20
314.367274590386
 30
0.0
 11
65.83327315096403
 21
338.265944790386
 31
0.0
  0
INSERT
  5
5A7
330
5A2
100
AcDbEntity
  8
SUNPO
 62
     0
370
    -2
100
AcDbBlockReference
  2
_OPEN30
 10
65.83327315096403
 20
312.367274590386
 30
0.0
 41
2.0
 42
2.0
 43
2.0
 50
270.0
  0
INSERT
  5
5A8
330
5A2
100
AcDbEntity
  8
SUNPO
 62
     0
370
    -2
100
AcDbBlockReference
  2
_OPEN30
 10
65.83327315096403
 20
340.265944790386
 30
0.0
 41
2.0
 42
2.0
 43
2.0
 50
90.0
  0
MTEXT
  5
5A9
330
5A2
100
AcDbEntity
  8
SUNPO
 62
     0
100
AcDbMText
 10
64.08327315096397
 20
326.316609690386
 30
0.0
 40
2.5
 41
0.0
 71
     5
 72
     1
  1
\A1;140
 11
0.0000000000000001
 21
1.0
 31
0.0
 73
     1
 44
1.0
1001
ACAD
1000
MTEXTBEGIN
1070
    73
1070
     1
1070
    44
1040
1.0
1070
    74
1070
     0
1000
MTEXTEND
  0
POINT
  5
5AA
330
5A2
100
AcDbEntity
  8
DEFPOINTS
 62
     0
100
AcDbPoint
 10
57.83327315096403
 20
312.367274590386
 30
0.0
  0
POINT
  5
5AB
330
5A2
100
AcDbEntity
  8
DEFPOINTS
 62
     0
100
AcDbPoint
 10
57.83327315096403
 20
340.265944790386
 30
0.0
  0
POINT
  5
5AC
330
5A2
100
AcDbEntity
  8
DEFPOINTS
 62
     0
100
AcDbPoint
 10
65.83327315096403
 20
340.265944790386
 30
0.0
  0
ENDBLK
  5
5AD
330
5A2
100
AcDbEntity
  8
0
100
AcDbBlockEnd
  0
BLOCK
  5
57B
330
57A
100
AcDbEntity
  8
0
100
AcDbBlockBegin
  2
*D3
 70
     1
 10
0.0
 20
0.0
 30
0.0
  3
*D3
  1

  0
LINE
  5
57C
330
57A
100
AcDbEntity
  8
SUNPO
 62
     0
370
    -2
100
AcDbLine
 10
33.92854696227948
 20
342.2733103751019
 30
0.0
 11
33.92854696227948
 21
350.2733103751019
 31
0.0
  0
LINE
  5
57D
330
57A
100
AcDbEntity
  8
SUNPO
 62
     0
370
    -2
100
AcDbLine
 10
58.44854696227947
 20
342.2733103751019
 30
0.0
 11
58.44854696227947
 21
350.2733103751019
 31
0.0
  0
LINE
  5
57E
330
57A
100
AcDbEntity
  8
SUNPO
 62
     0
370
    -2
100
AcDbLine
 10
35.92854696227949
 20
348.2733103751019
 30
0.0
 11
56.44854696227946
 21
348.2733103751019
 31
0.0
  0
INSERT
  5
57F
330
57A
100
AcDbEntity
  8
SUNPO
 62
     0
370
    -2
100
AcDbBlockReference
  2
_OPEN30
 10
33.92854696227948
 20
348.2733103751019
 30
0.0
 41
2.0
 42
2.0
 43
2.0
 50
180.0
  0
INSERT
  5
580
330
57A
100
AcDbEntity
  8
SUNPO
 62
     0
370
    -2
100
AcDbBlockReference
  2
_OPEN30
 10
58.44854696227947
 20
348.2733103751019
 30
0.0
 41
2.0
 42
2.0
 43
2.0
  0
MTEXT
  5
581
330
57A
100
AcDbEntity
  8
SUNPO
 62
     0
100
AcDbMText
 10
46.18854696227947
 20
350.0233103751019
 30
0.0
 40
2.5
 41
0.0
 71
     5
 72
     1
  1
\A1;φ123
 73
     1
 44
1.0
1001
ACAD
1000
MTEXTBEGIN
1070
    73
1070
     1
1070
    44
1040
1.0
1070
    74
1070
     0
1000
MTEXTEND
  0
POINT
  5
582
330
57A
100
AcDbEntity
  8
DEFPOINTS
 62
     0
100
AcDbPoint
 10
33.92854696227948
 20
340.2733103751019
 30
0.0
  0
POINT
  5
583
330
57A
100
AcDbEntity
  8
DEFPOINTS
 62
     0
100
AcDbPoint
 10
58.44854696227947
 20
340.2733103751019
 30
0.0
  0
POINT
  5
584
330
57A
100
AcDbEntity
  8
DEFPOINTS
 62
     0
100
AcDbPoint
 10
58.44854696227947
 20
348.2733103751019
 30
0.0
  0
ENDBLK
  5
585
330
57A
100
AcDbEntity
  8
0
100
AcDbBlockEnd
  0
BLOCK
  5
5E8
330
5DE
100
AcDbEntity
  8
0
100
AcDbBlockBegin
  2
*D4
 70
     1
 10
0.0
 20
0.0
 30
0.0
  3
*D4
  1

  0
LINE
  5
5DF
330
5DE
100
AcDbEntity
  8
SUNPO
 62
     0
370
    -2
100
AcDbLine
 10
-4.943488373030504
 20
1.011591877349018
 30
0.0
 11
3.056511626969488
 21
1.011591877349016
 31
0.0
  0
LINE
  5
5E0
330
5DE
100
AcDbEntity
  8
SUNPO
 62
     0
370
    -2
100
AcDbLine
 10
-4.943488373030504
 20
28.9102620773491
 30
0.0
 11
3.056511626969495
 21
28.9102620773491
 31
0.0
  0
LINE
  5
5E1
330
5DE
100
AcDbEntity
  8
SUNPO
 62
     0
370
    -2
100
AcDbLine
 10
1.056511626969489
 20
3.011591877349017
 30
0.0
 11
1.056511626969494
 21
26.9102620773491
 31
0.0
  0
INSERT
  5
5E2
330
5DE
100
AcDbEntity
  8
SUNPO
 62
     0
370
    -2
100
AcDbBlockReference
  2
_OPEN30
 10
1.056511626969489
 20
1.011591877349017
 30
0.0
 41
2.0
 42
2.0
 43
2.0
 50
270.0
  0
INSERT
  5
5E3
330
5DE
100
AcDbEntity
  8
SUNPO
 62
     0
370
    -2
100
AcDbBlockReference
  2
_OPEN30
 10
1.056511626969495
 20
28.9102620773491
 30
0.0
 41
2.0
 42
2.0
 43
2.0
 50
90.0
  0
MTEXT
  5
5E4
330
5DE
100
AcDbEntity
  8
SUNPO
 62
     0
100
AcDbMText
 10
-0.6934883730305104
 20
14.96092697734906
 30
0.0
 40
2.5
 41
0.0
 71
     5
 72
     1
  1
\A1;140
 11
0.0000000000000001
 21
1.0
 31
0.0
 73
     1
 44
1.0
1001
ACAD
1000
MTEXTBEGIN
1070
    73
1070
     1
1070
    44
1040
1.0
1070
    74
1070
     0
1000
MTEXTEND
  0
POINT
  5
5E5
330
5DE
100
AcDbEntity
  8
DEFPOINTS
 62
     0
100
AcDbPoint
 10
-6.943488373030504
 20
1.011591877349019
 30
0.0
  0
POINT
  5
5E6
330
5DE
100
AcDbEntity
  8
DEFPOINTS
 62
     0
100
AcDbPoint
 10
-6.943488373030504
 20
28.9102620773491
 30
0.0
  0
POINT
  5
5E7
330
5DE
100
AcDbEntity
  8
DEFPOINTS
 62
     0
100
AcDbPoint
 10
1.056511626969495
 20
28.9102620773491
 30
0.0
  0
ENDBLK
  5
5E9
330
5DE
100
AcDbEntity
  8
0
100
AcDbBlockEnd
  0
BLOCK
  5
5F4
330
5EA
100
AcDbEntity
  8
0
100
AcDbBlockBegin
  2
*D5
 70
     1
 10
0.0
 20
0.0
 30
0.0
  3
*D5
  1

  0
LINE
  5
5EB
330
5EA
100
AcDbEntity
  8
SUNPO
 62
     0
370
    -2
100
AcDbLine
 10
-30.84821456171506
 20
30.917627662065
 30
0.0
 11
-30.84821456171506
 21
38.917627662065
 31
0.0
  0
LINE
  5
5EC
330
5EA
100
AcDbEntity
  8
SUNPO
 62
     0
370
    -2
100
AcDbLine
 10
-6.328214561715071
 20
30.917627662065
 30
0.0
 11
-6.32821456171507
 21
38.917627662065
 31
0.0
  0
LINE
  5
5ED
330
5EA
100
AcDbEntity
  8
SUNPO
 62
     0
370
    -2
100
AcDbLine
 10
-28.84821456171506
 20
36.917627662065
 30
0.0
 11
-8.328214561715071
 21
36.917627662065
 31
0.0
  0
INSERT
  5
5EE
330
5EA
100
AcDbEntity
  8
SUNPO
 62
     0
370
    -2
100
AcDbBlockReference
  2
_OPEN30
 10
-30.84821456171506
 20
36.917627662065
 30
0.0
 41
2.0
 42
2.0
 43
2.0
 50
180.0
  0
INSERT
  5
5EF
330
5EA
100
AcDbEntity
  8
SUNPO
 62
     0
370
    -2
100
AcDbBlockReference
  2
_OPEN30
 10
-6.32821456171507
 20
36.917627662065
 30
0.0
 41
2.0
 42
2.0
 43
2.0
  0
MTEXT
  5
5F0
330
5EA
100
AcDbEntity
  8
SUNPO
 62
     0
100
AcDbMText
 10
-18.58821456171506
 20
38.667627662065
 30
0.0
 40
2.5
 41
0.0
 71
     5
 72
     1
  1
\A1;φ123
 73
     1
 44
1.0
1001
ACAD
1000
MTEXTBEGIN
1070
    73
1070
     1
1070
    44
1040
1.0
1070
    74
1070
     0
1000
MTEXTEND
  0
POINT
  5
5F1
330
5EA
100
AcDbEntity
  8
DEFPOINTS
 62
     0
100
AcDbPoint
 10
-30.84821456171506
 20
28.917627662065
 30
0.0
  0
POINT
  5
5F2
330
5EA
100
AcDbEntity
  8
DEFPOINTS
 62
     0
100
AcDbPoint
 10
-6.328214561715071
 20
28.917627662065
 30
0.0
  0
POINT
  5
5F3
330
5EA
100
AcDbEntity
  8
DEFPOINTS
 62
     0
100
AcDbPoint
 10
-6.32821456171507
 20
36.917627662065
 30
0.0
  0
ENDBLK
  5
5F5
330
5EA
100
AcDbEntity
  8
0
100
AcDbBlockEnd
  0
BLOCK
  5
600
330
5F6
100
AcDbEntity
  8
0
100
AcDbBlockBegin
  2
*D6
 70
     1
 10
0.0
 20
0.0
 30
0.0
  3
*D6
  1

  0
LINE
  5
5F7
330
5F6
100
AcDbEntity
  8
SUNPO
 62
     0
370
    -2
100
AcDbLine
 10
13.51885523153697
 20
30.917627662065
 30
0.0
 11
13.51885523153697
 21
38.917627662065
 31
0.0
  0
LINE
  5
5F8
330
5F6
100
AcDbEntity
  8
SUNPO
 62
     0
370
    -2
100
AcDbLine
 10
38.0388552315369
 20
30.917627662065
 30
0.0
 11
38.0388552315369
 21
38.917627662065
 31
0.0
  0
LINE
  5
5F9
330
5F6
100
AcDbEntity
  8
SUNPO
 62
     0
370
    -2
100
AcDbLine
 10
15.51885523153697
 20
36.917627662065
 30
0.0
 11
36.0388552315369
 21
36.917627662065
 31
0.0
  0
INSERT
  5
5FA
330
5F6
100
AcDbEntity
  8
SUNPO
 62
     0
370
    -2
100
AcDbBlockReference
  2
_OPEN30
 10
13.51885523153697
 20
36.917627662065
 30
0.0
 41
2.0
 42
2.0
 43
2.0
 50
180.0
  0
INSERT
  5
5FB
330
5F6
100
AcDbEntity
  8
SUNPO
 62
     0
370
    -2
100
AcDbBlockReference
  2
_OPEN30
 10
38.0388552315369
 20
36.917627662065
 30
0.0
 41
2.0
 42
2.0
 43
2.0
  0
MTEXT
  5
5FC
330
5F6
100
AcDbEntity
  8
SUNPO
 62
     0
100
AcDbMText
 10
25.77885523153694
 20
38.667627662065
 30
0.0
 40
2.5
 41
0.0
 71
     5
 72
     1
  1
\A1;φ123
 73
     1
 44
1.0
1001
ACAD
1000
MTEXTBEGIN
1070
    73
1070
     1
1070
    44
1040
1.0
1070
    74
1070
     0
1000
MTEXTEND
  0
POINT
  5
5FD
330
5F6
100
AcDbEntity
  8
DEFPOINTS
 62
     0
100
AcDbPoint
 10
13.51885523153697
 20
28.917627662065
 30
0.0
  0
POINT
  5
5FE
330
5F6
100
AcDbEntity
  8
DEFPOINTS
 62
     0
100
AcDbPoint
 10
38.0388552315369
 20
28.917627662065
 30
0.0
  0
POINT
  5
5FF
330
5F6
100
AcDbEntity
  8
DEFPOINTS
 62
     0
100
AcDbPoint
 10
38.0388552315369
 20
36.917627662065
 30
0.0
  0
ENDBLK
  5
601
330
5F6
100
AcDbEntity
  8
0
100
AcDbBlockEnd
  0
ENDSEC
  0
SECTION
  2
ENTITIES
  0
TEXT
  5
34
330
2
100
AcDbEntity
  8
MOJI1
100
AcDbText
 10
-35.77676152399454
 20
55.14353142660496
 30
0.0
 40
4.0
  1
屋内タイプ　ネットワークカメラ
100
AcDbText
  0
TEXT
  5
35
330
2
100
AcDbEntity
  8
TOUROKU
100
AcDbText
 10
44.35652184226607
 20
49.1435314266048
 30
0.0
 40
2.0
  1
ＢＢＨＣＭ３８１
 72
     2
 11
62.22318850893275
 21
49.1435314266048
 31
0.0
100
AcDbText
  0
LINE
  5
37
330
2
100
AcDbEntity
  8
GAIKEI
100
AcDbLine
 10
36.31949605571595
 20
4.611591877349042
 30
0.0
 11
36.31949605571595
 21
4.811591877348973
 31
0.0
  0
ARC
  5
39
330
2
100
AcDbEntity
  8
GAIKEI
100
AcDbCircle
 10
36.72584463003409
 20
4.924031771189788
 30
0.0
 40
0.3927445889419158
100
AcDbArc
 50
148.2375722846372
 51
196.6364372210296
  0
ARC
  5
3A
330
2
100
AcDbEntity
  8
GAIKEI
  6
Continuous
100
AcDbCircle
 10
37.89162069068146
 20
5.111591877349042
 30
0.0
 40
0.1
100
AcDbArc
 50
270.0
 51
11.0575494272412
  0
ARC
  5
3B
330
2
100
AcDbEntity
  8
GAIKEI
  6
Continuous
100
AcDbCircle
 10
32.16927605571601
 20
4.611591877349042
 30
0.0
 40
4.2
100
AcDbArc
 50
342.5423999999992
 51
0.000000000000007
  0
ARC
  5
3C
330
2
100
AcDbEntity
  8
GAIKEI
  6
Continuous
100
AcDbCircle
 10
35.98503205571598
 20
3.411591877348996
 30
0.0
 40
0.2
100
AcDbArc
 50
270.0
 51
342.5423999999992
  0
LINE
  5
3D
330
2
100
AcDbEntity
  8
GAIKEI
  6
Continuous
100
AcDbLine
 10
34.96955805571611
 20
3.211593877349059
 30
0.0
 11
34.61374605571609
 21
1.610431877349014
 31
0.0
  0
LINE
  5
3E
330
2
100
AcDbEntity
  8
GAIKEI
 62
     1
100
AcDbLine
 10
29.30192005571598
 20
15.03148387734905
 30
0.0
 11
29.29963405571607
 21
10.68535567734898
 31
0.0
  0
ARC
  5
3F
330
2
100
AcDbEntity
  8
GAIKEI
 62
     1
100
AcDbCircle
 10
25.77885605571601
 20
19.38970886120091
 30
0.0
 40
9.755738711881157
100
AcDbArc
 50
248.7586504291027
 51
291.2413495708976
  0
ARC
  5
40
330
2
100
AcDbEntity
  8
GAIKEI
 62
     1
100
AcDbCircle
 10
25.77771537964816
 20
20.0150318724784
 30
0.0
 40
10.28277388212237
100
AcDbArc
 50
250.4093409585899
 51
289.5966406806488
  0
ARC
  5
41
330
2
100
AcDbEntity
  8
GAIKEI
 62
     1
100
AcDbCircle
 10
25.77885605571601
 20
-20.91580817286376
 30
0.0
 40
31.56364945376173
100
AcDbArc
 50
83.86424404128582
 51
96.13575595871417
  0
ARC
  5
42
330
2
100
AcDbEntity
  8
GAIKEI
 62
     1
100
AcDbCircle
 10
25.77885605571601
 20
-22.7330474246296
 30
0.0
 40
33.49948418721517
100
AcDbArc
 50
84.1423811969002
 51
95.85761880309979
  0
ARC
  5
43
330
2
100
AcDbEntity
  8
GAIKEI
 62
     1
100
AcDbCircle
 10
28.98027110748945
 20
10.59998504828115
 30
0.0
 40
0.2175975924423692
100
AcDbArc
 50
322.33614566113
 51
357.7709941207782
  0
ARC
  5
44
330
2
100
AcDbEntity
  8
GAIKEI
 62
     1
100
AcDbCircle
 10
29.07486020354992
 20
10.73770288172613
 30
0.0
 40
0.282997270637521
100
AcDbArc
 50
285.6236024038046
 51
349.2946718912061
  0
ARC
  5
45
330
2
100
AcDbEntity
  8
GAIKEI
 62
     1
100
AcDbCircle
 10
29.18323166313786
 20
10.71080313373198
 30
0.0
 40
0.1201560163755166
100
AcDbArc
 50
276.9178821182044
 51
348.2551262600996
  0
LINE
  5
46
330
2
100
AcDbEntity
  8
GAIKEI
 62
     1
100
AcDbLine
 10
29.29963805571606
 20
10.68636587734897
 30
0.0
 11
29.352932055716
 21
10.685137877349
 31
0.0
  0
ARC
  5
47
330
2
100
AcDbEntity
  8
GAIKEI
 62
     1
100
AcDbCircle
 10
29.14043608858572
 20
10.57023111276532
 30
0.0
 40
0.2579656091057489
100
AcDbArc
 50
289.7932093958829
 51
0.304456843041564
  0
ARC
  5
48
330
2
100
AcDbEntity
  8
GAIKEI
 62
     1
100
AcDbCircle
 10
29.23367317715957
 20
10.50141417809527
 30
0.0
 40
0.2196208814578477
100
AcDbArc
 50
291.2673326786919
 51
0.009313397569246
  0
LINE
  5
49
330
2
100
AcDbEntity
  8
GAIKEI
 62
     1
100
AcDbLine
 10
29.352932055716
 20
10.685137877349
 30
0.0
 11
29.39839805571603
 21
10.57160387734905
 31
0.0
  0
LINE
  5
4A
330
2
100
AcDbEntity
  8
GAIKEI
 62
     1
100
AcDbLine
 10
29.15107605571598
 20
10.46516187734903
 30
0.0
 11
29.22779005571602
 21
10.32750587734904
 31
0.0
  0
LINE
  5
4B
330
2
100
AcDbEntity
  8
GAIKEI
 62
     1
100
AcDbLine
 10
22.40663605571604
 20
10.46516187734903
 30
0.0
 11
22.329922055716
 21
10.32750587734904
 31
0.0
  0
LINE
  5
4C
330
2
100
AcDbEntity
  8
GAIKEI
 62
     1
100
AcDbLine
 10
22.20478005571601
 20
10.685137877349
 30
0.0
 11
22.15931405571598
 21
10.57160387734905
 31
0.0
  0
ARC
  5
4D
330
2
100
AcDbEntity
  8
GAIKEI
 62
     1
100
AcDbCircle
 10
22.32403893427244
 20
10.50141417809527
 30
0.0
 40
0.2196208814578477
100
AcDbArc
 50
179.9906866024308
 51
248.7326673213081
  0
ARC
  5
4E
330
2
100
AcDbEntity
  8
GAIKEI
 62
     1
100
AcDbCircle
 10
22.4172760228463
 20
10.57023111276532
 30
0.0
 40
0.2579656091057489
100
AcDbArc
 50
179.6955431569584
 51
250.2067906041171
  0
LINE
  5
4F
330
2
100
AcDbEntity
  8
GAIKEI
 62
     1
100
AcDbLine
 10
22.25807405571595
 20
10.68636587734897
 30
0.0
 11
22.20478005571601
 21
10.685137877349
 31
0.0
  0
ARC
  5
50
330
2
100
AcDbEntity
  8
GAIKEI
 62
     1
100
AcDbCircle
 10
22.37448044829415
 20
10.71080313373198
 30
0.0
 40
0.1201560163755166
100
AcDbArc
 50
191.7448737399004
 51
263.0821178817956
  0
ARC
  5
51
330
2
100
AcDbEntity
  8
GAIKEI
 62
     1
100
AcDbCircle
 10
22.48285190788209
 20
10.73770288172613
 30
0.0
 40
0.282997270637521
100
AcDbArc
 50
190.7053281087939
 51
254.3763975961954
  0
ARC
  5
52
330
2
100
AcDbEntity
  8
GAIKEI
 62
     1
100
AcDbCircle
 10
22.57744100394257
 20
10.59998504828115
 30
0.0
 40
0.2175975924423692
100
AcDbArc
 50
182.2290058792217
 51
217.6638543388699
  0
LINE
  5
53
330
2
100
AcDbEntity
  8
GAIKEI
 62
     1
100
AcDbLine
 10
22.25579205571603
 20
15.03148387734905
 30
0.0
 11
22.25807805571594
 21
10.68535567734898
 31
0.0
  0
ARC
  5
54
330
2
100
AcDbEntity
  8
GAIKEI
 62
     1
100
AcDbCircle
 10
25.75794136573473
 20
15.15384726928869
 30
0.0
 40
3.695419706315173
100
AcDbArc
 50
359.654938318471
 51
89.66306132076182
  0
ARC
  5
55
330
2
100
AcDbEntity
  8
GAIKEI
 62
     1
100
AcDbCircle
 10
25.77853265286058
 20
15.13177265736328
 30
0.0
 40
3.620639415348867
100
AcDbArc
 50
359.9952402259864
 51
89.98117797516757
  0
ARC
  5
56
330
2
100
AcDbEntity
  8
GAIKEI
 62
     1
100
AcDbCircle
 10
25.79942148227434
 20
15.05016706361107
 30
0.0
 40
3.502548403435663
100
AcDbArc
 50
359.6943731609574
 51
90.32280725588162
  0
ARC
  5
57
330
2
100
AcDbEntity
  8
GAIKEI
 62
     1
100
AcDbCircle
 10
25.75829062915767
 20
15.05016706361107
 30
0.0
 40
3.502548403435663
100
AcDbArc
 50
89.67719274411839
 51
180.3056268390426
  0
ARC
  5
58
330
2
100
AcDbEntity
  8
GAIKEI
 62
     1
100
AcDbCircle
 10
25.77917945857143
 20
15.13177265736328
 30
0.0
 40
3.620639415348867
100
AcDbArc
 50
90.01882202483244
 51
180.0047597740136
  0
ARC
  5
59
330
2
100
AcDbEntity
  8
GAIKEI
 62
     1
100
AcDbCircle
 10
25.79977074569729
 20
15.15384726928869
 30
0.0
 40
3.695419706315173
100
AcDbArc
 50
90.33693867923819
 51
180.3450616815291
  0
LINE
  5
5A
330
2
100
AcDbEntity
  8
GAIKEI
  6
Continuous
100
AcDbLine
 10
33.10381605571604
 20
13.68466987734905
 30
0.0
 11
33.40450205571597
 21
13.51162325877055
 31
0.0
  0
LINE
  5
5B
330
2
100
AcDbEntity
  8
GAIKEI
  6
Continuous
100
AcDbLine
 10
32.98112005571602
 20
14.712833877349
 30
0.0
 11
32.92111805571608
 21
14.712833877349
 31
0.0
  0
ARC
  5
5C
330
2
100
AcDbEntity
  8
GAIKEI
100
AcDbCircle
 10
35.94394122543645
 20
14.54809478247546
 30
0.0
 40
2.968469899876355
100
AcDbArc
 50
176.8186618262104
 51
196.9097677142571
  0
ARC
  5
5D
330
2
100
AcDbEntity
  8
GAIKEI
100
AcDbCircle
 10
15.61377088599556
 20
14.54809478247546
 30
0.0
 40
2.968469899876355
100
AcDbArc
 50
343.0902322857429
 51
3.181338173789531
  0
ARC
  5
5E
330
2
100
AcDbEntity
  8
GAIKEI
100
AcDbCircle
 10
25.70220185573123
 20
20.85433660865579
 30
0.0
 40
8.416056110501891
100
AcDbArc
 50
205.6474685241035
 51
212.1625905602501
  0
ARC
  5
5F
330
2
100
AcDbEntity
  8
GAIKEI
100
AcDbCircle
 10
32.45700232483
 20
24.471591877349
 30
0.0
 40
0.06
100
AcDbArc
 50
89.99999999997831
 51
200.5799031149275
  0
ARC
  5
60
330
2
100
AcDbEntity
  8
GAIKEI
 62
     1
100
AcDbCircle
 10
47.91245212392368
 20
30.27472734064145
 30
0.0
 40
16.56900692645162
100
AcDbArc
 50
200.5799031149354
 51
203.8694238837288
  0
ARC
  5
61
330
2
100
AcDbEntity
  8
GAIKEI
 62
     1
100
AcDbCircle
 10
25.51786556347457
 20
20.70676381263587
 30
0.0
 40
7.788151989999076
100
AcDbArc
 50
343.3920351607001
 51
21.57028949309387
  0
ARC
  5
62
330
2
100
AcDbEntity
  8
GAIKEI
 62
     1
100
AcDbCircle
 10
25.53007266638628
 20
20.7071170596447
 30
0.0
 40
7.652230962429346
100
AcDbArc
 50
347.3924725370511
 51
88.05706442044089
  0
ARC
  5
63
330
2
100
AcDbEntity
  8
GAIKEI
 62
     1
100
AcDbCircle
 10
25.51887127958782
 20
20.74978731696802
 30
0.0
 40
7.60997550999555
100
AcDbArc
 50
87.96188497861319
 51
144.8302650157187
  0
ARC
  5
64
330
2
100
AcDbEntity
  8
GAIKEI
 62
     1
100
AcDbCircle
 10
25.59921406682679
 20
20.69857235785412
 30
0.0
 40
7.705152773026485
100
AcDbArc
 50
144.863071779654
 51
204.2978581408151
  0
ARC
  5
65
330
2
100
AcDbEntity
  8
GAIKEI
100
AcDbCircle
 10
25.6438885539535
 20
20.89356716321083
 30
0.0
 40
8.015120229125518
100
AcDbArc
 50
26.99387287976361
 51
88.82543762559942
  0
ARC
  5
66
330
2
100
AcDbEntity
  8
GAIKEI
100
AcDbCircle
 10
25.52362689850781
 20
20.72347876993501
 30
0.0
 40
8.188381264262119
100
AcDbArc
 50
88.21382004627684
 51
154.7870853912794
  0
LINE
  5
67
330
2
100
AcDbEntity
  8
GAIKEI
  6
Continuous
 62
     1
100
AcDbLine
 10
-14.38821256171513
 20
14.36911787734902
 30
0.0
 11
-14.38821456171513
 21
20.71159187734906
 31
0.0
  0
LINE
  5
68
330
2
100
AcDbEntity
  8
GAIKEI
  6
Continuous
 62
     1
100
AcDbLine
 10
-14.18866696171505
 20
14.69249147734899
 30
0.0
 11
-14.18821456171508
 21
20.71159187734906
 31
0.0
  0
ARC
  5
69
330
2
100
AcDbEntity
  8
GAIKEI
 62
     1
100
AcDbCircle
 10
-15.00209905647574
 20
14.80105954510236
 30
0.0
 40
0.7568530342355397
100
AcDbArc
 50
271.0511519966912
 51
321.1480056829316
  0
ARC
  5
6A
330
2
100
AcDbEntity
  8
GAIKEI
 62
     1
100
AcDbCircle
 10
-15.18483584703341
 20
14.95589077854129
 30
0.0
 40
0.9963078244275301
100
AcDbArc
 50
320.8061174259857
 51
359.5229128923305
  0
ARC
  5
6B
330
2
100
AcDbEntity
  8
GAIKEI
 62
     1
100
AcDbCircle
 10
-15.33262642889497
 20
14.71317905382159
 30
0.0
 40
1.144146510885265
100
AcDbArc
 50
329.0356914121436
 51
358.9639653626123
  0
LINE
  5
6C
330
2
100
AcDbEntity
  8
GAIKEI
  6
Continuous
 62
     1
100
AcDbLine
 10
-14.98821456171504
 20
13.68716987734899
 30
0.0
 11
-14.98821456171504
 21
14.044333877349
 31
0.0
  0
ARC
  5
6D
330
2
100
AcDbEntity
  8
GAIKEI
 62
     1
100
AcDbCircle
 10
-15.12178069495576
 20
14.56004216104884
 30
0.0
 40
0.8849740944737508
100
AcDbArc
 50
281.2363130302392
 51
330.8024828460058
  0
ARC
  5
6E
330
2
100
AcDbEntity
  8
GAIKEI
 62
     1
100
AcDbCircle
 10
-18.5474832738476
 20
53.07680897967419
 30
0.0
 40
39.54788018893344
100
AcDbArc
 50
270.0134311290669
 51
275.2388552761591
  0
ARC
  5
6F
330
2
100
AcDbEntity
  8
GAIKEI
 62
     1
100
AcDbCircle
 10
-18.62894584958252
 20
53.07680897967419
 30
0.0
 40
39.54788018893344
100
AcDbArc
 50
264.7611447238409
 51
269.9865688709331
  0
ARC
  5
70
330
2
100
AcDbEntity
  8
GAIKEI
 62
     1
100
AcDbCircle
 10
-21.8438026945351
 20
14.71317905382159
 30
0.0
 40
1.144146510885265
100
AcDbArc
 50
181.0360346373877
 51
210.9643085878564
  0
ARC
  5
71
330
2
100
AcDbEntity
  8
GAIKEI
 62
     1
100
AcDbCircle
 10
-22.05464842847437
 20
14.56004216104884
 30
0.0
 40
0.8849740944737508
100
AcDbArc
 50
209.1975171539942
 51
258.7636869697608
  0
ARC
  5
72
330
2
100
AcDbEntity
  8
GAIKEI
 62
     1
100
AcDbCircle
 10
-21.99159327639666
 20
14.95589077854129
 30
0.0
 40
0.9963078244275301
100
AcDbArc
 50
180.4770871076695
 51
219.1938825740144
  0
ARC
  5
73
330
2
100
AcDbEntity
  8
GAIKEI
 62
     1
100
AcDbCircle
 10
-22.17433006695438
 20
14.80105954510236
 30
0.0
 40
0.7568530342355397
100
AcDbArc
 50
218.8519943170685
 51
268.9488480033089
  0
LINE
  5
74
330
2
100
AcDbEntity
  8
GAIKEI
  6
Continuous
 62
     1
100
AcDbLine
 10
-13.78821456171511
 20
27.84742787734899
 30
0.0
 11
-13.78821456171511
 21
9.071591877349078
 31
0.0
  0
LINE
  5
75
330
2
100
AcDbEntity
  8
GAIKEI
  6
Continuous
 62
     1
100
AcDbLine
 10
-14.18821456171508
 20
27.09159187734906
 30
0.0
 11
-14.38821256171513
 21
27.291589877349
 31
0.0
  0
LINE
  5
76
330
2
100
AcDbEntity
  8
GAIKEI
100
AcDbLine
 10
-14.12045256171507
 20
27.913301877349
 30
0.0
 11
-13.78822856171507
 21
27.84742787734911
 31
0.0
  0
ARC
  5
77
330
2
100
AcDbEntity
  8
GAIKEI
100
AcDbCircle
 10
-14.12827535251301
 20
27.85387534039444
 30
0.0
 40
0.0599392137943332
100
AcDbArc
 50
82.5008161909451
 51
180.0224282806647
  0
ARC
  5
78
330
2
100
AcDbEntity
  8
GAIKEI
  6
Continuous
100
AcDbCircle
 10
-18.58821456171506
 20
20.71159187734906
 30
0.0
 40
8.599999999999999
100
AcDbArc
 50
0.000000000000007
 51
56.07290000000046
  0
LINE
  5
79
330
2
100
AcDbEntity
  8
GAIKEI
  6
Continuous
100
AcDbLine
 10
-9.988214561715039
 20
20.71159187734906
 30
0.0
 11
-9.988214561715039
 21
18.84884876509409
 31
0.0
  0
LINE
  5
7A
330
2
100
AcDbEntity
  8
GAIKEI
  6
Continuous
100
AcDbLine
 10
-9.990216561715101
 20
9.731107877349018
 30
0.0
 11
-10.09862256171504
 21
9.731105877349023
 31
0.0
  0
LINE
  5
7B
330
2
100
AcDbEntity
  8
GAIKEI
  6
Continuous
100
AcDbLine
 10
-9.988214561715039
 20
9.633941877349002
 30
0.0
 11
-9.988214561715039
 21
9.071591877349021
 31
0.0
  0
LINE
  5
7C
330
2
100
AcDbEntity
  8
GAIKEI
  6
Continuous
 62
     1
100
AcDbLine
 10
-10.61831856171511
 20
10.68528587734897
 30
0.0
 11
-10.78818456171507
 21
10.57062787734901
 31
0.0
  0
LINE
  5
7D
330
2
100
AcDbEntity
  8
GAIKEI
  6
Continuous
 62
     1
100
AcDbLine
 10
-10.77181056171514
 20
10.32572787734898
 30
0.0
 11
-10.7103165617151
 21
10.32572787734898
 31
0.0
  0
LINE
  5
7E
330
2
100
AcDbEntity
  8
GAIKEI
  6
Continuous
 62
     1
100
AcDbLine
 10
-10.81270656171511
 20
10.57062787734901
 30
0.0
 11
-10.78821456171511
 21
10.57062787734901
 31
0.0
  0
LINE
  5
7F
330
2
100
AcDbEntity
  8
GAIKEI
  6
Continuous
100
AcDbLine
 10
-10.81270656171511
 20
15.13159187734902
 30
0.0
 11
-10.81270656171511
 21
10.50144987734904
 31
0.0
  0
ARC
  5
80
330
2
100
AcDbEntity
  8
GAIKEI
100
AcDbCircle
 10
-1.278413019464153
 20
14.96693932415047
 30
0.0
 40
9.535715170509403
100
AcDbArc
 50
155.9777365618193
 51
179.0106284573514
  0
ARC
  5
81
330
2
100
AcDbEntity
  8
GAIKEI
 62
     1
100
AcDbCircle
 10
-0.6174340785690334
 20
14.74630732473326
 30
0.0
 40
10.00421344255214
100
AcDbArc
 50
157.3778990759456
 51
178.23563668526
  0
ARC
  5
82
330
2
100
AcDbEntity
  8
GAIKEI
100
AcDbCircle
 10
-16.62460308561884
 20
15.02832465833376
 30
0.0
 40
7.699167041023201
100
AcDbArc
 50
2.155107309636453
 51
16.45515541731406
  0
ARC
  5
83
330
2
100
AcDbEntity
  8
GAIKEI
100
AcDbCircle
 10
-16.47557063787701
 20
15.02220333724006
 30
0.0
 40
7.558125626986629
100
AcDbArc
 50
16.81968464944608
 51
28.22068967614592
  0
ARC
  5
84
330
2
100
AcDbEntity
  8
GAIKEI
100
AcDbCircle
 10
-9.833481235690896
 20
18.58674907850911
 30
0.0
 40
0.02
100
AcDbArc
 50
28.22068967613351
 51
157.3778990759574
  0
LINE
  5
85
330
2
100
AcDbEntity
  8
GAIKEI
100
AcDbLine
 10
-9.823587290828413
 20
18.60413038614285
 30
0.0
 11
-9.915351561715112
 21
18.68602087734899
 31
0.0
  0
LINE
  5
86
330
2
100
AcDbEntity
  8
GAIKEI
100
AcDbLine
 10
-9.915351561715112
 20
18.68602087734899
 30
0.0
 11
-10.01303045659261
 21
18.77253828753015
 31
0.0
  0
LINE
  5
87
330
2
100
AcDbEntity
  8
GAIKEI
100
AcDbLine
 10
-8.930881761715113
 20
15.31785067734904
 30
0.0
 11
-8.925023135192134
 21
10.77366708640994
 31
0.0
  0
LINE
  5
88
330
2
100
AcDbEntity
  8
GAIKEI
 62
     1
100
AcDbLine
 10
-10.61690456171499
 20
15.05432787734901
 30
0.0
 11
-10.61831856171511
 21
10.68528787734897
 31
0.0
  0
LINE
  5
89
330
2
100
AcDbEntity
  8
GAIKEI
100
AcDbLine
 10
-9.989028561714974
 20
9.730951877348957
 30
0.0
 11
-8.983541311920077
 21
10.64149772875953
 31
0.0
  0
LINE
  5
8A
330
2
100
AcDbEntity
  8
GAIKEI
 62
     1
100
AcDbLine
 10
-10.43992856171508
 20
10.46444387734903
 30
0.0
 11
-8.977646561715118
 21
10.64683587734896
 31
0.0
  0
ARC
  5
8B
330
2
100
AcDbEntity
  8
GAIKEI
100
AcDbCircle
 10
-9.103022987257702
 20
10.7734375986189
 30
0.0
 40
0.178
100
AcDbArc
 50
312.163255739298
 51
0.0738690197713543
  0
LINE
  5
8C
330
2
100
AcDbEntity
  8
GAIKEI
100
AcDbLine
 10
-9.988214561715039
 20
9.633941877349002
 30
0.0
 11
-10.75009856171499
 21
10.29862307734902
 31
0.0
  0
ARC
  5
8D
330
2
100
AcDbEntity
  8
GAIKEI
100
AcDbCircle
 10
-10.60948617190291
 20
10.43143162114756
 30
0.0
 40
0.1932595962684795
100
AcDbArc
 50
193.4177495675173
 51
224.1768039843752
  0
ARC
  5
8E
330
2
100
AcDbEntity
  8
GAIKEI
100
AcDbCircle
 10
-10.39163871749178
 20
10.49885944499965
 30
0.0
 40
0.4210758123884918
100
AcDbArc
 50
179.6475176854634
 51
195.4641300265767
  0
LINE
  5
8F
330
2
100
AcDbEntity
  8
GAIKEI
  6
Continuous
 62
     1
100
AcDbLine
 10
-10.71032056171509
 20
10.32572187734899
 30
0.0
 11
-10.70352856171502
 21
10.329143877349
 31
0.0
  0
LINE
  5
90
330
2
100
AcDbEntity
  8
GAIKEI
  6
Continuous
 62
     1
100
AcDbLine
 10
-10.70352856171502
 20
10.329143877349
 30
0.0
 11
-10.70013236171508
 21
10.33085447734902
 31
0.0
  0
LINE
  5
91
330
2
100
AcDbEntity
  8
GAIKEI
  6
Continuous
 62
     1
100
AcDbLine
 10
-10.70013236171508
 20
10.33085447734902
 30
0.0
 11
-10.69673656171505
 21
10.332565877349
 31
0.0
  0
LINE
  5
92
330
2
100
AcDbEntity
  8
GAIKEI
  6
Continuous
 62
     1
100
AcDbLine
 10
-10.69673656171505
 20
10.332565877349
 30
0.0
 11
-10.69334236171505
 21
10.33427747734902
 31
0.0
  0
LINE
  5
93
330
2
100
AcDbEntity
  8
GAIKEI
  6
Continuous
 62
     1
100
AcDbLine
 10
-10.69334236171505
 20
10.33427747734902
 30
0.0
 11
-10.68994856171503
 21
10.33598987734899
 31
0.0
  0
LINE
  5
94
330
2
100
AcDbEntity
  8
GAIKEI
  6
Continuous
 62
     1
100
AcDbLine
 10
-10.68994856171503
 20
10.33598987734899
 30
0.0
 11
-10.68655436171502
 21
10.33770347734901
 31
0.0
  0
LINE
  5
95
330
2
100
AcDbEntity
  8
GAIKEI
  6
Continuous
 62
     1
100
AcDbLine
 10
-10.68655436171502
 20
10.33770347734901
 30
0.0
 11
-10.68316056171505
 21
10.33941787734909
 31
0.0
  0
LINE
  5
96
330
2
100
AcDbEntity
  8
GAIKEI
  6
Continuous
 62
     1
100
AcDbLine
 10
-10.68316056171505
 20
10.33941787734909
 30
0.0
 11
-10.67976736171511
 21
10.34113247734899
 31
0.0
  0
LINE
  5
97
330
2
100
AcDbEntity
  8
GAIKEI
  6
Continuous
 62
     1
100
AcDbLine
 10
-10.67976736171511
 20
10.34113247734899
 30
0.0
 11
-10.67637456171508
 21
10.34284787734907
 31
0.0
  0
LINE
  5
98
330
2
100
AcDbEntity
  8
GAIKEI
  6
Continuous
 62
     1
100
AcDbLine
 10
-10.67637456171508
 20
10.34284787734907
 30
0.0
 11
-10.67298236171507
 21
10.34456347734897
 31
0.0
  0
LINE
  5
99
330
2
100
AcDbEntity
  8
GAIKEI
  6
Continuous
 62
     1
100
AcDbLine
 10
-10.67298236171507
 20
10.34456347734897
 30
0.0
 11
-10.66959056171498
 21
10.34627987734904
 31
0.0
  0
LINE
  5
9A
330
2
100
AcDbEntity
  8
GAIKEI
  6
Continuous
 62
     1
100
AcDbLine
 10
-10.66619936171508
 20
10.34799647734905
 30
0.0
 11
-10.66280856171505
 21
10.34971387734902
 31
0.0
  0
LINE
  5
9B
330
2
100
AcDbEntity
  8
GAIKEI
  6
Continuous
 62
     1
100
AcDbLine
 10
-10.66280856171505
 20
10.34971387734902
 30
0.0
 11
-10.6594173617151
 21
10.35143247734902
 31
0.0
  0
LINE
  5
9C
330
2
100
AcDbEntity
  8
GAIKEI
  6
Continuous
 62
     1
100
AcDbLine
 10
-10.6594173617151
 20
10.35143247734902
 30
0.0
 11
-10.65602656171506
 21
10.35315187734898
 31
0.0
  0
LINE
  5
9D
330
2
100
AcDbEntity
  8
GAIKEI
  6
Continuous
 62
     1
100
AcDbLine
 10
-10.65602656171506
 20
10.35315187734898
 30
0.0
 11
-10.65263736171499
 21
10.35487047734898
 31
0.0
  0
LINE
  5
9E
330
2
100
AcDbEntity
  8
GAIKEI
  6
Continuous
 62
     1
100
AcDbLine
 10
-10.65263736171499
 20
10.35487047734898
 30
0.0
 11
-10.64924856171512
 21
10.35658987734905
 31
0.0
  0
LINE
  5
9F
330
2
100
AcDbEntity
  8
GAIKEI
  6
Continuous
 62
     1
100
AcDbLine
 10
-10.64924856171512
 20
10.35658987734905
 30
0.0
 11
-10.64585936171505
 21
10.35831047734905
 31
0.0
  0
LINE
  5
A0
330
2
100
AcDbEntity
  8
GAIKEI
  6
Continuous
 62
     1
100
AcDbLine
 10
-10.64585936171505
 20
10.35831047734905
 30
0.0
 11
-10.64247056171507
 21
10.360031877349
 31
0.0
  0
LINE
  5
A1
330
2
100
AcDbEntity
  8
GAIKEI
  6
Continuous
 62
     1
100
AcDbLine
 10
-10.64247056171507
 20
10.360031877349
 30
0.0
 11
-10.63908236171499
 21
10.361753477349
 31
0.0
  0
LINE
  5
A2
330
2
100
AcDbEntity
  8
GAIKEI
  6
Continuous
 62
     1
100
AcDbLine
 10
-10.63908236171499
 20
10.361753477349
 30
0.0
 11
-10.63569456171507
 21
10.36347587734906
 31
0.0
  0
LINE
  5
A3
330
2
100
AcDbEntity
  8
GAIKEI
  6
Continuous
 62
     1
100
AcDbLine
 10
-10.63569456171507
 20
10.36347587734906
 30
0.0
 11
-10.6323073617151
 21
10.36519947734905
 31
0.0
  0
LINE
  5
A4
330
2
100
AcDbEntity
  8
GAIKEI
  6
Continuous
 62
     1
100
AcDbLine
 10
-10.6323073617151
 20
10.36519947734905
 30
0.0
 11
-10.62892056171506
 21
10.36692387734899
 31
0.0
  0
LINE
  5
A5
330
2
100
AcDbEntity
  8
GAIKEI
  6
Continuous
 62
     1
100
AcDbLine
 10
-10.62892056171506
 20
10.36692387734899
 30
0.0
 11
-10.62553336171504
 21
10.36864747734898
 31
0.0
  0
LINE
  5
A6
330
2
100
AcDbEntity
  8
GAIKEI
  6
Continuous
 62
     1
100
AcDbLine
 10
-10.62553336171504
 20
10.36864747734898
 30
0.0
 11
-10.62214656171511
 21
10.37037187734904
 31
0.0
  0
LINE
  5
A7
330
2
100
AcDbEntity
  8
GAIKEI
  6
Continuous
 62
     1
100
AcDbLine
 10
-10.62214656171511
 20
10.37037187734904
 30
0.0
 11
-10.61876136171503
 21
10.37209747734903
 31
0.0
  0
LINE
  5
A8
330
2
100
AcDbEntity
  8
GAIKEI
  6
Continuous
 62
     1
100
AcDbLine
 10
-10.61876136171503
 20
10.37209747734903
 30
0.0
 11
-10.61537656171504
 21
10.37382387734908
 31
0.0
  0
LINE
  5
A9
330
2
100
AcDbEntity
  8
GAIKEI
  6
Continuous
 62
     1
100
AcDbLine
 10
-10.61537656171504
 20
10.37382387734908
 30
0.0
 11
-10.61199136171507
 21
10.37555047734906
 31
0.0
  0
LINE
  5
AA
330
2
100
AcDbEntity
  8
GAIKEI
  6
Continuous
 62
     1
100
AcDbLine
 10
-10.61199136171507
 20
10.37555047734906
 30
0.0
 11
-10.60860656171508
 21
10.377277877349
 31
0.0
  0
LINE
  5
AB
330
2
100
AcDbEntity
  8
GAIKEI
  6
Continuous
 62
     1
100
AcDbLine
 10
-10.60860656171508
 20
10.377277877349
 30
0.0
 11
-10.60522236171499
 21
10.37900547734898
 31
0.0
  0
LINE
  5
AC
330
2
100
AcDbEntity
  8
GAIKEI
  6
Continuous
 62
     1
100
AcDbLine
 10
-10.60522236171499
 20
10.37900547734898
 30
0.0
 11
-10.60183856171505
 21
10.38073387734903
 31
0.0
  0
LINE
  5
AD
330
2
100
AcDbEntity
  8
GAIKEI
  6
Continuous
 62
     1
100
AcDbLine
 10
-10.60183856171505
 20
10.38073387734903
 30
0.0
 11
-10.59845536171508
 21
10.38246247734901
 31
0.0
  0
LINE
  5
AE
330
2
100
AcDbEntity
  8
GAIKEI
  6
Continuous
 62
     1
100
AcDbLine
 10
-10.59845536171508
 20
10.38246247734901
 30
0.0
 11
-10.59507256171508
 21
10.38419187734905
 31
0.0
  0
LINE
  5
AF
330
2
100
AcDbEntity
  8
GAIKEI
  6
Continuous
 62
     1
100
AcDbLine
 10
-10.59507256171508
 20
10.38419187734905
 30
0.0
 11
-10.59169036171505
 21
10.38592247734902
 31
0.0
  0
LINE
  5
B0
330
2
100
AcDbEntity
  8
GAIKEI
  6
Continuous
 62
     1
100
AcDbLine
 10
-10.59169036171505
 20
10.38592247734902
 30
0.0
 11
-10.58830856171505
 21
10.38765387734907
 31
0.0
  0
LINE
  5
B1
330
2
100
AcDbEntity
  8
GAIKEI
  6
Continuous
 62
     1
100
AcDbLine
 10
-10.58830856171505
 20
10.38765387734907
 30
0.0
 11
-10.58492736171501
 21
10.38938547734904
 31
0.0
  0
LINE
  5
B2
330
2
100
AcDbEntity
  8
GAIKEI
  6
Continuous
 62
     1
100
AcDbLine
 10
-10.58492736171501
 20
10.38938547734904
 30
0.0
 11
-10.58154656171507
 21
10.39111787734907
 31
0.0
  0
LINE
  5
B3
330
2
100
AcDbEntity
  8
GAIKEI
  6
Continuous
 62
     1
100
AcDbLine
 10
-10.58154656171507
 20
10.39111787734907
 30
0.0
 11
-10.57816536171503
 21
10.39285047734904
 31
0.0
  0
LINE
  5
B4
330
2
100
AcDbEntity
  8
GAIKEI
  6
Continuous
 62
     1
100
AcDbLine
 10
-10.57816536171503
 20
10.39285047734904
 30
0.0
 11
-10.57478456171509
 21
10.39458387734896
 31
0.0
  0
LINE
  5
B5
330
2
100
AcDbEntity
  8
GAIKEI
  6
Continuous
 62
     1
100
AcDbLine
 10
-10.57478456171509
 20
10.39458387734896
 30
0.0
 11
-10.57140536171499
 21
10.39631747734904
 31
0.0
  0
LINE
  5
B6
330
2
100
AcDbEntity
  8
GAIKEI
  6
Continuous
 62
     1
100
AcDbLine
 10
-10.57140536171499
 20
10.39631747734904
 30
0.0
 11
-10.5680265617151
 21
10.39805187734907
 31
0.0
  0
LINE
  5
B7
330
2
100
AcDbEntity
  8
GAIKEI
  6
Continuous
 62
     1
100
AcDbLine
 10
-10.5680265617151
 20
10.39805187734907
 30
0.0
 11
-10.564647361715
 21
10.39978747734903
 31
0.0
  0
LINE
  5
B8
330
2
100
AcDbEntity
  8
GAIKEI
  6
Continuous
 62
     1
100
AcDbLine
 10
-10.564647361715
 20
10.39978747734903
 30
0.0
 11
-10.56126856171511
 21
10.40152387734906
 31
0.0
  0
LINE
  5
B9
330
2
100
AcDbEntity
  8
GAIKEI
  6
Continuous
 62
     1
100
AcDbLine
 10
-10.56126856171511
 20
10.40152387734906
 30
0.0
 11
-10.55789036171506
 21
10.40326047734902
 31
0.0
  0
LINE
  5
BA
330
2
100
AcDbEntity
  8
GAIKEI
  6
Continuous
 62
     1
100
AcDbLine
 10
-10.55789036171506
 20
10.40326047734902
 30
0.0
 11
-10.55451256171511
 21
10.40499787734904
 31
0.0
  0
LINE
  5
BB
330
2
100
AcDbEntity
  8
GAIKEI
  6
Continuous
 62
     1
100
AcDbLine
 10
-10.55451256171511
 20
10.40499787734904
 30
0.0
 11
-10.55113536171501
 21
10.406735477349
 31
0.0
  0
LINE
  5
BC
330
2
100
AcDbEntity
  8
GAIKEI
  6
Continuous
 62
     1
100
AcDbLine
 10
-10.55113536171501
 20
10.406735477349
 30
0.0
 11
-10.54775856171511
 21
10.40847387734902
 31
0.0
  0
LINE
  5
BD
330
2
100
AcDbEntity
  8
GAIKEI
  6
Continuous
 62
     1
100
AcDbLine
 10
-10.54775856171511
 20
10.40847387734902
 30
0.0
 11
-10.54438136171501
 21
10.41021347734897
 31
0.0
  0
LINE
  5
BE
330
2
100
AcDbEntity
  8
GAIKEI
  6
Continuous
 62
     1
100
AcDbLine
 10
-10.54438136171501
 20
10.41021347734897
 30
0.0
 11
-10.54100456171511
 21
10.41195387734899
 31
0.0
  0
LINE
  5
BF
330
2
100
AcDbEntity
  8
GAIKEI
  6
Continuous
 62
     1
100
AcDbLine
 10
-10.54100456171511
 20
10.41195387734899
 30
0.0
 11
-10.53762936171506
 21
10.41369347734905
 31
0.0
  0
LINE
  5
C0
330
2
100
AcDbEntity
  8
GAIKEI
  6
Continuous
 62
     1
100
AcDbLine
 10
-10.53762936171506
 20
10.41369347734905
 30
0.0
 11
-10.5342545617151
 21
10.41543387734907
 31
0.0
  0
LINE
  5
C1
330
2
100
AcDbEntity
  8
GAIKEI
  6
Continuous
 62
     1
100
AcDbLine
 10
-10.5342545617151
 20
10.41543387734907
 30
0.0
 11
-10.53088136171499
 21
10.41717447734902
 31
0.0
  0
LINE
  5
C2
330
2
100
AcDbEntity
  8
GAIKEI
  6
Continuous
 62
     1
100
AcDbLine
 10
-10.53088136171499
 20
10.41717447734902
 30
0.0
 11
-10.52750856171508
 21
10.41891587734903
 31
0.0
  0
LINE
  5
C3
330
2
100
AcDbEntity
  8
GAIKEI
  6
Continuous
 62
     1
100
AcDbLine
 10
-10.52750856171508
 20
10.41891587734903
 30
0.0
 11
-10.52413336171503
 21
10.42065947734897
 31
0.0
  0
LINE
  5
C4
330
2
100
AcDbEntity
  8
GAIKEI
  6
Continuous
 62
     1
100
AcDbLine
 10
-10.52413336171503
 20
10.42065947734897
 30
0.0
 11
-10.52075856171507
 21
10.42240387734898
 31
0.0
  0
LINE
  5
C5
330
2
100
AcDbEntity
  8
GAIKEI
  6
Continuous
 62
     1
100
AcDbLine
 10
-10.52075856171507
 20
10.42240387734898
 30
0.0
 11
-10.51737936171503
 21
10.42415147734903
 31
0.0
  0
LINE
  5
C6
330
2
100
AcDbEntity
  8
GAIKEI
  6
Continuous
 62
     1
100
AcDbLine
 10
-10.51737936171503
 20
10.42415147734903
 30
0.0
 11
-10.51400056171508
 21
10.42589987734902
 31
0.0
  0
LINE
  5
C7
330
2
100
AcDbEntity
  8
GAIKEI
  6
Continuous
 62
     1
100
AcDbLine
 10
-10.51400056171508
 20
10.42589987734902
 30
0.0
 11
-10.51063436171506
 21
10.42764147734908
 31
0.0
  0
LINE
  5
C8
330
2
100
AcDbEntity
  8
GAIKEI
  6
Continuous
 62
     1
100
AcDbLine
 10
-10.51063436171506
 20
10.42764147734908
 30
0.0
 11
-10.50726856171513
 21
10.42938387734898
 31
0.0
  0
LINE
  5
C9
330
2
100
AcDbEntity
  8
GAIKEI
  6
Continuous
 62
     1
100
AcDbLine
 10
-10.50726856171513
 20
10.42938387734898
 30
0.0
 11
-10.50392436171512
 21
10.43111647734906
 31
0.0
  0
LINE
  5
CA
330
2
100
AcDbEntity
  8
GAIKEI
  6
Continuous
 62
     1
100
AcDbLine
 10
-10.50392436171512
 20
10.43111647734906
 30
0.0
 11
-10.50058056171508
 21
10.43284987734898
 31
0.0
  0
LINE
  5
CB
330
2
100
AcDbEntity
  8
GAIKEI
  6
Continuous
 62
     1
100
AcDbLine
 10
-10.50058056171508
 20
10.43284987734898
 30
0.0
 11
-10.49718336171509
 21
10.43461247734899
 31
0.0
  0
LINE
  5
CC
330
2
100
AcDbEntity
  8
GAIKEI
  6
Continuous
 62
     1
100
AcDbLine
 10
-10.49718336171509
 20
10.43461247734899
 30
0.0
 11
-10.49378656171501
 21
10.43637587734906
 31
0.0
  0
LINE
  5
CD
330
2
100
AcDbEntity
  8
GAIKEI
  6
Continuous
 62
     1
100
AcDbLine
 10
-10.49378656171501
 20
10.43637587734906
 30
0.0
 11
-10.49031136171504
 21
10.43818047734896
 31
0.0
  0
LINE
  5
CE
330
2
100
AcDbEntity
  8
GAIKEI
  6
Continuous
 62
     1
100
AcDbLine
 10
-10.49031136171504
 20
10.43818047734896
 30
0.0
 11
-10.48683656171505
 21
10.43998587734904
 31
0.0
  0
LINE
  5
CF
330
2
100
AcDbEntity
  8
GAIKEI
  6
Continuous
 62
     1
100
AcDbLine
 10
-10.48683656171505
 20
10.43998587734904
 30
0.0
 11
-10.48357436171511
 21
10.44168047734899
 31
0.0
  0
LINE
  5
D0
330
2
100
AcDbEntity
  8
GAIKEI
  6
Continuous
 62
     1
100
AcDbLine
 10
-10.48357436171511
 20
10.44168047734899
 30
0.0
 11
-10.48031256171509
 21
10.44337587734901
 31
0.0
  0
LINE
  5
D1
330
2
100
AcDbEntity
  8
GAIKEI
  6
Continuous
 62
     1
100
AcDbLine
 10
-10.48031256171509
 20
10.44337587734901
 30
0.0
 11
-10.47441456171509
 21
10.446443877349
 31
0.0
  0
LINE
  5
D2
330
2
100
AcDbEntity
  8
GAIKEI
  6
Continuous
 62
     1
100
AcDbLine
 10
-10.47441456171509
 20
10.446443877349
 30
0.0
 11
-10.47062836171505
 21
10.448415277349
 31
0.0
  0
LINE
  5
D3
330
2
100
AcDbEntity
  8
GAIKEI
  6
Continuous
 62
     1
100
AcDbLine
 10
-10.47062836171505
 20
10.448415277349
 30
0.0
 11
-10.46684256171511
 21
10.45038787734904
 31
0.0
  0
LINE
  5
D4
330
2
100
AcDbEntity
  8
GAIKEI
  6
Continuous
 62
     1
100
AcDbLine
 10
-10.46684256171511
 20
10.45038787734904
 30
0.0
 11
-10.46101496171513
 21
10.453428477349
 31
0.0
  0
LINE
  5
D5
330
2
100
AcDbEntity
  8
GAIKEI
  6
Continuous
 62
     1
100
AcDbLine
 10
-10.46101496171513
 20
10.453428477349
 30
0.0
 11
-10.45518856171509
 21
10.45647187734903
 31
0.0
  0
LINE
  5
D6
330
2
100
AcDbEntity
  8
GAIKEI
  6
Continuous
 62
     1
100
AcDbLine
 10
-10.45518856171509
 20
10.45647187734903
 30
0.0
 11
-10.44755816171499
 21
10.46045687734897
 31
0.0
  0
LINE
  5
D7
330
2
100
AcDbEntity
  8
GAIKEI
  6
Continuous
 62
     1
100
AcDbLine
 10
-10.44755816171499
 20
10.46045687734897
 30
0.0
 11
-10.43992856171508
 21
10.46444387734903
 31
0.0
  0
LINE
  5
D8
330
2
100
AcDbEntity
  8
GAIKEI
  6
Continuous
 62
     1
100
AcDbLine
 10
-10.43992856171508
 20
10.46444387734903
 30
0.0
 11
-10.44070456171505
 21
10.46624587734902
 31
0.0
  0
LINE
  5
D9
330
2
100
AcDbEntity
  8
GAIKEI
  6
Continuous
 62
     1
100
AcDbLine
 10
-10.44070456171505
 20
10.46624587734902
 30
0.0
 11
-10.44108136171508
 21
10.46699167734903
 31
0.0
  0
LINE
  5
DA
330
2
100
AcDbEntity
  8
GAIKEI
  6
Continuous
 62
     1
100
AcDbLine
 10
-10.44108136171508
 20
10.46699167734903
 30
0.0
 11
-10.44148056171497
 21
10.46772587734904
 31
0.0
  0
LINE
  5
DB
330
2
100
AcDbEntity
  8
GAIKEI
  6
Continuous
 62
     1
100
AcDbLine
 10
-10.44148056171497
 20
10.46772587734904
 30
0.0
 11
-10.4418535617151
 21
10.46829647734898
 31
0.0
  0
LINE
  5
DC
330
2
100
AcDbEntity
  8
GAIKEI
  6
Continuous
 62
     1
100
AcDbLine
 10
-10.4418535617151
 20
10.46829647734898
 30
0.0
 11
-10.44225456171506
 21
10.46884787734905
 31
0.0
  0
LINE
  5
DD
330
2
100
AcDbEntity
  8
GAIKEI
  6
Continuous
 62
     1
100
AcDbLine
 10
-10.44225456171506
 20
10.46884787734905
 30
0.0
 11
-10.44262736171504
 21
10.469315877349
 31
0.0
  0
LINE
  5
DE
330
2
100
AcDbEntity
  8
GAIKEI
  6
Continuous
 62
     1
100
AcDbLine
 10
-10.44262736171504
 20
10.469315877349
 30
0.0
 11
-10.44302856171509
 21
10.46975987734902
 31
0.0
  0
LINE
  5
DF
330
2
100
AcDbEntity
  8
GAIKEI
  6
Continuous
 62
     1
100
AcDbLine
 10
-10.44302856171509
 20
10.46975987734902
 30
0.0
 11
-10.4434057617151
 21
10.47018887734896
 31
0.0
  0
LINE
  5
E0
330
2
100
AcDbEntity
  8
GAIKEI
  6
Continuous
 62
     1
100
AcDbLine
 10
-10.4434057617151
 20
10.47018887734896
 30
0.0
 11
-10.44379656171503
 21
10.47060587734904
 31
0.0
  0
LINE
  5
E1
330
2
100
AcDbEntity
  8
GAIKEI
  6
Continuous
 62
     1
100
AcDbLine
 10
-10.44379656171503
 20
10.47060587734904
 30
0.0
 11
-10.44417656171498
 21
10.47101267734899
 31
0.0
  0
LINE
  5
E2
330
2
100
AcDbEntity
  8
GAIKEI
  6
Continuous
 62
     1
100
AcDbLine
 10
-10.44417656171498
 20
10.47101267734899
 30
0.0
 11
-10.44456056171509
 21
10.47141587734904
 31
0.0
  0
LINE
  5
E3
330
2
100
AcDbEntity
  8
GAIKEI
  6
Continuous
 62
     1
100
AcDbLine
 10
-10.44456056171509
 20
10.47141587734904
 30
0.0
 11
-10.44493996171513
 21
10.47180927734905
 31
0.0
  0
LINE
  5
E4
330
2
100
AcDbEntity
  8
GAIKEI
  6
Continuous
 62
     1
100
AcDbLine
 10
-10.44493996171513
 20
10.47180927734905
 30
0.0
 11
-10.44532256171504
 21
10.472199877349
 31
0.0
  0
LINE
  5
E5
330
2
100
AcDbEntity
  8
GAIKEI
  6
Continuous
 62
     1
100
AcDbLine
 10
-10.44532256171504
 20
10.472199877349
 30
0.0
 11
-10.44570096171509
 21
10.47257547734898
 31
0.0
  0
LINE
  5
E6
330
2
100
AcDbEntity
  8
GAIKEI
  6
Continuous
 62
     1
100
AcDbLine
 10
-10.44570096171509
 20
10.47257547734898
 30
0.0
 11
-10.44608256171511
 21
10.47294787734904
 31
0.0
  0
LINE
  5
E7
330
2
100
AcDbEntity
  8
GAIKEI
  6
Continuous
 62
     1
100
AcDbLine
 10
-10.44608256171511
 20
10.47294787734904
 30
0.0
 11
-10.44645836171503
 21
10.47330327734903
 31
0.0
  0
LINE
  5
E8
330
2
100
AcDbEntity
  8
GAIKEI
  6
Continuous
 62
     1
100
AcDbLine
 10
-10.44645836171503
 20
10.47330327734903
 30
0.0
 11
-10.44683856171514
 21
10.47365387734896
 31
0.0
  0
LINE
  5
E9
330
2
100
AcDbEntity
  8
GAIKEI
  6
Continuous
 62
     1
100
AcDbLine
 10
-10.44683856171514
 20
10.47365387734896
 30
0.0
 11
-10.44721436171505
 21
10.473992277349
 31
0.0
  0
LINE
  5
EA
330
2
100
AcDbEntity
  8
GAIKEI
  6
Continuous
 62
     1
100
AcDbLine
 10
-10.44721436171505
 20
10.473992277349
 30
0.0
 11
-10.44759456171505
 21
10.47432587734909
 31
0.0
  0
LINE
  5
EB
330
2
100
AcDbEntity
  8
GAIKEI
  6
Continuous
 62
     1
100
AcDbLine
 10
-10.44759456171505
 20
10.47432587734909
 30
0.0
 11
-10.4479689617151
 21
10.47465067734902
 31
0.0
  0
LINE
  5
EC
330
2
100
AcDbEntity
  8
GAIKEI
  6
Continuous
 62
     1
100
AcDbLine
 10
-10.4479689617151
 20
10.47465067734902
 30
0.0
 11
-10.44834656171508
 21
10.47497187734905
 31
0.0
  0
LINE
  5
ED
330
2
100
AcDbEntity
  8
GAIKEI
  6
Continuous
 62
     1
100
AcDbLine
 10
-10.44834656171508
 20
10.47497187734905
 30
0.0
 11
-10.44872136171506
 21
10.47528527734903
 31
0.0
  0
LINE
  5
EE
330
2
100
AcDbEntity
  8
GAIKEI
  6
Continuous
 62
     1
100
AcDbLine
 10
-10.44872136171506
 20
10.47528527734903
 30
0.0
 11
-10.44909856171506
 21
10.47559587734906
 31
0.0
  0
LINE
  5
EF
330
2
100
AcDbEntity
  8
GAIKEI
  6
Continuous
 62
     1
100
AcDbLine
 10
-10.44909856171506
 20
10.47559587734906
 30
0.0
 11
-10.44947156171508
 21
10.47590207734902
 31
0.0
  0
LINE
  5
F0
330
2
100
AcDbEntity
  8
GAIKEI
  6
Continuous
 62
     1
100
AcDbLine
 10
-10.44947156171508
 20
10.47590207734902
 30
0.0
 11
-10.44984656171499
 21
10.476205877349
 31
0.0
  0
LINE
  5
F1
330
2
100
AcDbEntity
  8
GAIKEI
  6
Continuous
 62
     1
100
AcDbLine
 10
-10.44984656171499
 20
10.476205877349
 30
0.0
 11
-10.45022076171506
 21
10.47650387734904
 31
0.0
  0
LINE
  5
F2
330
2
100
AcDbEntity
  8
GAIKEI
  6
Continuous
 62
     1
100
AcDbLine
 10
-10.45022076171506
 20
10.47650387734904
 30
0.0
 11
-10.45059656171509
 21
10.47679987734898
 31
0.0
  0
LINE
  5
F3
330
2
100
AcDbEntity
  8
GAIKEI
  6
Continuous
 62
     1
100
AcDbLine
 10
-10.45059656171509
 20
10.47679987734898
 30
0.0
 11
-10.4509687617151
 21
10.47708987734904
 31
0.0
  0
LINE
  5
F4
330
2
100
AcDbEntity
  8
GAIKEI
  6
Continuous
 62
     1
100
AcDbLine
 10
-10.4509687617151
 20
10.47708987734904
 30
0.0
 11
-10.45134256171514
 21
10.477377877349
 31
0.0
  0
LINE
  5
F5
330
2
100
AcDbEntity
  8
GAIKEI
  6
Continuous
 62
     1
100
AcDbLine
 10
-10.45134256171514
 20
10.477377877349
 30
0.0
 11
-10.45171376171504
 21
10.47766287734896
 31
0.0
  0
LINE
  5
F6
330
2
100
AcDbEntity
  8
GAIKEI
  6
Continuous
 62
     1
100
AcDbLine
 10
-10.45171376171504
 20
10.47766287734896
 30
0.0
 11
-10.45208656171507
 21
10.47794587734904
 31
0.0
  0
LINE
  5
F7
330
2
100
AcDbEntity
  8
GAIKEI
  6
Continuous
 62
     1
100
AcDbLine
 10
-10.45208656171507
 20
10.47794587734904
 30
0.0
 11
-10.45245796171502
 21
10.47822367734909
 31
0.0
  0
LINE
  5
F8
330
2
100
AcDbEntity
  8
GAIKEI
  6
Continuous
 62
     1
100
AcDbLine
 10
-10.45245796171502
 20
10.47822367734909
 30
0.0
 11
-10.45283056171502
 21
10.47849987734901
 31
0.0
  0
LINE
  5
F9
330
2
100
AcDbEntity
  8
GAIKEI
  6
Continuous
 62
     1
100
AcDbLine
 10
-10.45283056171502
 20
10.47849987734901
 30
0.0
 11
-10.45320196171508
 21
10.47877267734895
 31
0.0
  0
LINE
  5
FA
330
2
100
AcDbEntity
  8
GAIKEI
  6
Continuous
 62
     1
100
AcDbLine
 10
-10.45320196171508
 20
10.47877267734895
 30
0.0
 11
-10.45357456171507
 21
10.479043877349
 31
0.0
  0
LINE
  5
FB
330
2
100
AcDbEntity
  8
GAIKEI
  6
Continuous
 62
     1
100
AcDbLine
 10
-10.45357456171507
 20
10.479043877349
 30
0.0
 11
-10.45394396171514
 21
10.47931067734896
 31
0.0
  0
LINE
  5
FC
330
2
100
AcDbEntity
  8
GAIKEI
  6
Continuous
 62
     1
100
AcDbLine
 10
-10.45394396171514
 20
10.47931067734896
 30
0.0
 11
-10.45431456171508
 21
10.47957587734902
 31
0.0
  0
LINE
  5
FD
330
2
100
AcDbEntity
  8
GAIKEI
  6
Continuous
 62
     1
100
AcDbLine
 10
-10.45431456171508
 20
10.47957587734902
 30
0.0
 11
-10.45468396171509
 21
10.47983767734899
 31
0.0
  0
LINE
  5
FE
330
2
100
AcDbEntity
  8
GAIKEI
  6
Continuous
 62
     1
100
AcDbLine
 10
-10.45468396171509
 20
10.47983767734899
 30
0.0
 11
-10.45505456171503
 21
10.48009787734907
 31
0.0
  0
LINE
  5
FF
330
2
100
AcDbEntity
  8
GAIKEI
  6
Continuous
 62
     1
100
AcDbLine
 10
-10.45505456171503
 20
10.48009787734907
 30
0.0
 11
-10.45542416171509
 21
10.48035547734901
 31
0.0
  0
LINE
  5
100
330
2
100
AcDbEntity
  8
GAIKEI
  6
Continuous
 62
     1
100
AcDbLine
 10
-10.45542416171509
 20
10.48035547734901
 30
0.0
 11
-10.45579456171498
 21
10.48061187734902
 31
0.0
  0
LINE
  5
101
330
2
100
AcDbEntity
  8
GAIKEI
  6
Continuous
 62
     1
100
AcDbLine
 10
-10.45579456171498
 20
10.48061187734902
 30
0.0
 11
-10.45616216171504
 21
10.48086447734897
 31
0.0
  0
LINE
  5
102
330
2
100
AcDbEntity
  8
GAIKEI
  6
Continuous
 62
     1
100
AcDbLine
 10
-10.45616216171504
 20
10.48086447734897
 30
0.0
 11
-10.45653056171511
 21
10.481115877349
 31
0.0
  0
LINE
  5
103
330
2
100
AcDbEntity
  8
GAIKEI
  6
Continuous
 62
     1
100
AcDbLine
 10
-10.45653056171511
 20
10.481115877349
 30
0.0
 11
-10.45689916171511
 21
10.48136647734907
 31
0.0
  0
LINE
  5
104
330
2
100
AcDbEntity
  8
GAIKEI
  6
Continuous
 62
     1
100
AcDbLine
 10
-10.45689916171511
 20
10.48136647734907
 30
0.0
 11
-10.45726856171507
 21
10.48161587734898
 31
0.0
  0
LINE
  5
105
330
2
100
AcDbEntity
  8
GAIKEI
  6
Continuous
 62
     1
100
AcDbLine
 10
-10.45726856171507
 20
10.48161587734898
 30
0.0
 11
-10.45763516171507
 21
10.48186127734902
 31
0.0
  0
LINE
  5
106
330
2
100
AcDbEntity
  8
GAIKEI
  6
Continuous
 62
     1
100
AcDbLine
 10
-10.45763516171507
 20
10.48186127734902
 30
0.0
 11
-10.45800256171514
 21
10.482105877349
 31
0.0
  0
LINE
  5
107
330
2
100
AcDbEntity
  8
GAIKEI
  6
Continuous
 62
     1
100
AcDbLine
 10
-10.45800256171514
 20
10.482105877349
 30
0.0
 11
-10.45836936171508
 21
10.48234927734904
 31
0.0
  0
LINE
  5
108
330
2
100
AcDbEntity
  8
GAIKEI
  6
Continuous
 62
     1
100
AcDbLine
 10
-10.45836936171508
 20
10.48234927734904
 30
0.0
 11
-10.45873656171505
 21
10.48259187734902
 31
0.0
  0
LINE
  5
109
330
2
100
AcDbEntity
  8
GAIKEI
  6
Continuous
 62
     1
100
AcDbLine
 10
-10.45873656171505
 20
10.48259187734902
 30
0.0
 11
-10.45910336171499
 21
10.48283327734907
 31
0.0
  0
LINE
  5
10A
330
2
100
AcDbEntity
  8
GAIKEI
  6
Continuous
 62
     1
100
AcDbLine
 10
-10.45910336171499
 20
10.48283327734907
 30
0.0
 11
-10.45947056171508
 21
10.48307387734905
 31
0.0
  0
LINE
  5
10B
330
2
100
AcDbEntity
  8
GAIKEI
  6
Continuous
 62
     1
100
AcDbLine
 10
-10.45947056171508
 20
10.48307387734905
 30
0.0
 11
-10.45983636171513
 21
10.48331207734907
 31
0.0
  0
LINE
  5
10C
330
2
100
AcDbEntity
  8
GAIKEI
  6
Continuous
 62
     1
100
AcDbLine
 10
-10.45983636171513
 20
10.48331207734907
 30
0.0
 11
-10.46020256171505
 21
10.48354987734899
 31
0.0
  0
LINE
  5
10D
330
2
100
AcDbEntity
  8
GAIKEI
  6
Continuous
 62
     1
100
AcDbLine
 10
-10.46020256171505
 20
10.48354987734899
 30
0.0
 11
-10.4605683617151
 21
10.483787077349
 31
0.0
  0
LINE
  5
10E
330
2
100
AcDbEntity
  8
GAIKEI
  6
Continuous
 62
     1
100
AcDbLine
 10
-10.4605683617151
 20
10.483787077349
 30
0.0
 11
-10.46093456171502
 21
10.48402387734904
 31
0.0
  0
LINE
  5
10F
330
2
100
AcDbEntity
  8
GAIKEI
  6
Continuous
 62
     1
100
AcDbLine
 10
-10.46093456171502
 20
10.48402387734904
 30
0.0
 11
-10.46129936171507
 21
10.48425907734906
 31
0.0
  0
LINE
  5
110
330
2
100
AcDbEntity
  8
GAIKEI
  6
Continuous
 62
     1
100
AcDbLine
 10
-10.46129936171507
 20
10.48425907734906
 30
0.0
 11
-10.46166456171511
 21
10.48449387734899
 31
0.0
  0
LINE
  5
111
330
2
100
AcDbEntity
  8
GAIKEI
  6
Continuous
 62
     1
100
AcDbLine
 10
-10.46166456171511
 20
10.48449387734899
 30
0.0
 11
-10.46202836171505
 21
10.48472707734902
 31
0.0
  0
LINE
  5
112
330
2
100
AcDbEntity
  8
GAIKEI
  6
Continuous
 62
     1
100
AcDbLine
 10
-10.46202836171505
 20
10.48472707734902
 30
0.0
 11
-10.46239256171509
 21
10.48495987734907
 31
0.0
  0
LINE
  5
113
330
2
100
AcDbEntity
  8
GAIKEI
  6
Continuous
 62
     1
100
AcDbLine
 10
-10.46239256171509
 20
10.48495987734907
 30
0.0
 11
-10.46275636171503
 21
10.48519007734899
 31
0.0
  0
LINE
  5
114
330
2
100
AcDbEntity
  8
GAIKEI
  6
Continuous
 62
     1
100
AcDbLine
 10
-10.46275636171503
 20
10.48519007734899
 30
0.0
 11
-10.46312056171507
 21
10.48541987734904
 31
0.0
  0
LINE
  5
115
330
2
100
AcDbEntity
  8
GAIKEI
  6
Continuous
 62
     1
100
AcDbLine
 10
-10.46312056171507
 20
10.48541987734904
 30
0.0
 11
-10.46348436171502
 21
10.48564907734896
 31
0.0
  0
LINE
  5
116
330
2
100
AcDbEntity
  8
GAIKEI
  6
Continuous
 62
     1
100
AcDbLine
 10
-10.46348436171502
 20
10.48564907734896
 30
0.0
 11
-10.46384856171505
 21
10.48587787734902
 31
0.0
  0
LINE
  5
117
330
2
100
AcDbEntity
  8
GAIKEI
  6
Continuous
 62
     1
100
AcDbLine
 10
-10.46384856171505
 20
10.48587787734902
 30
0.0
 11
-10.46421036171512
 21
10.48610407734907
 31
0.0
  0
LINE
  5
118
330
2
100
AcDbEntity
  8
GAIKEI
  6
Continuous
 62
     1
100
AcDbLine
 10
-10.46421036171512
 20
10.48610407734907
 30
0.0
 11
-10.46457256171504
 21
10.48632987734902
 31
0.0
  0
LINE
  5
119
330
2
100
AcDbEntity
  8
GAIKEI
  6
Continuous
 62
     1
100
AcDbLine
 10
-10.46457256171504
 20
10.48632987734902
 30
0.0
 11
-10.4649353617151
 21
10.48655507734906
 31
0.0
  0
LINE
  5
11A
330
2
100
AcDbEntity
  8
GAIKEI
  6
Continuous
 62
     1
100
AcDbLine
 10
-10.4649353617151
 20
10.48655507734906
 30
0.0
 11
-10.46529856171509
 21
10.48677987734902
 31
0.0
  0
LINE
  5
11B
330
2
100
AcDbEntity
  8
GAIKEI
  6
Continuous
 62
     1
100
AcDbLine
 10
-10.46529856171509
 20
10.48677987734902
 30
0.0
 11
-10.46566036171509
 21
10.48700307734896
 31
0.0
  0
LINE
  5
11C
330
2
100
AcDbEntity
  8
GAIKEI
  6
Continuous
 62
     1
100
AcDbLine
 10
-10.46566036171509
 20
10.48700307734896
 30
0.0
 11
-10.46602256171508
 21
10.48722587734903
 31
0.0
  0
LINE
  5
11D
330
2
100
AcDbEntity
  8
GAIKEI
  6
Continuous
 62
     1
100
AcDbLine
 10
-10.46602256171508
 20
10.48722587734903
 30
0.0
 11
-10.46638336171509
 21
10.48744807734908
 31
0.0
  0
LINE
  5
11E
330
2
100
AcDbEntity
  8
GAIKEI
  6
Continuous
 62
     1
100
AcDbLine
 10
-10.46638336171509
 20
10.48744807734908
 30
0.0
 11
-10.46674456171513
 21
10.48766987734905
 31
0.0
  0
LINE
  5
11F
330
2
100
AcDbEntity
  8
GAIKEI
  6
Continuous
 62
     1
100
AcDbLine
 10
-10.46674456171513
 20
10.48766987734905
 30
0.0
 11
-10.46710556171501
 21
10.48789107734899
 31
0.0
  0
LINE
  5
120
330
2
100
AcDbEntity
  8
GAIKEI
  6
Continuous
 62
     1
100
AcDbLine
 10
-10.46710556171501
 20
10.48789107734899
 30
0.0
 11
-10.46746656171507
 21
10.48811187734907
 31
0.0
  0
LINE
  5
121
330
2
100
AcDbEntity
  8
GAIKEI
  6
Continuous
 62
     1
100
AcDbLine
 10
-10.46746656171507
 20
10.48811187734907
 30
0.0
 11
-10.46782756171512
 21
10.48833187734897
 31
0.0
  0
LINE
  5
122
330
2
100
AcDbEntity
  8
GAIKEI
  6
Continuous
 62
     1
100
AcDbLine
 10
-10.46782756171512
 20
10.48833187734897
 30
0.0
 11
-10.46818856171512
 21
10.48855187734898
 31
0.0
  0
LINE
  5
123
330
2
100
AcDbEntity
  8
GAIKEI
  6
Continuous
 62
     1
100
AcDbLine
 10
-10.46818856171512
 20
10.48855187734898
 30
0.0
 11
-10.46854856171512
 21
10.488770877349
 31
0.0
  0
LINE
  5
124
330
2
100
AcDbEntity
  8
GAIKEI
  6
Continuous
 62
     1
100
AcDbLine
 10
-10.46854856171512
 20
10.488770877349
 30
0.0
 11
-10.46890856171512
 21
10.48898987734901
 31
0.0
  0
LINE
  5
125
330
2
100
AcDbEntity
  8
GAIKEI
  6
Continuous
 62
     1
100
AcDbLine
 10
-10.46890856171512
 20
10.48898987734901
 30
0.0
 11
-10.46926856171512
 21
10.48920887734903
 31
0.0
  0
LINE
  5
126
330
2
100
AcDbEntity
  8
GAIKEI
  6
Continuous
 62
     1
100
AcDbLine
 10
-10.46926856171512
 20
10.48920887734903
 30
0.0
 11
-10.46962856171512
 21
10.48942787734904
 31
0.0
  0
LINE
  5
127
330
2
100
AcDbEntity
  8
GAIKEI
  6
Continuous
 62
     1
100
AcDbLine
 10
-10.46962856171512
 20
10.48942787734904
 30
0.0
 11
-10.46998856171512
 21
10.48964587734906
 31
0.0
  0
LINE
  5
128
330
2
100
AcDbEntity
  8
GAIKEI
  6
Continuous
 62
     1
100
AcDbLine
 10
-10.46998856171512
 20
10.48964587734906
 30
0.0
 11
-10.47034856171513
 21
10.48986387734896
 31
0.0
  0
LINE
  5
129
330
2
100
AcDbEntity
  8
GAIKEI
  6
Continuous
 62
     1
100
AcDbLine
 10
-10.47034856171513
 20
10.48986387734896
 30
0.0
 11
-10.47070856171512
 21
10.49008087734899
 31
0.0
  0
LINE
  5
12A
330
2
100
AcDbEntity
  8
GAIKEI
  6
Continuous
 62
     1
100
AcDbLine
 10
-10.47070856171512
 20
10.49008087734899
 30
0.0
 11
-10.47106856171513
 21
10.49029787734901
 31
0.0
  0
LINE
  5
12B
330
2
100
AcDbEntity
  8
GAIKEI
  6
Continuous
 62
     1
100
AcDbLine
 10
-10.47106856171513
 20
10.49029787734901
 30
0.0
 11
-10.47178656171507
 21
10.49073387734904
 31
0.0
  0
LINE
  5
12C
330
2
100
AcDbEntity
  8
GAIKEI
  6
Continuous
 62
     1
100
AcDbLine
 10
-10.47178656171507
 20
10.49073387734904
 30
0.0
 11
-10.47214556171502
 21
10.49095187734906
 31
0.0
  0
LINE
  5
12D
330
2
100
AcDbEntity
  8
GAIKEI
  6
Continuous
 62
     1
100
AcDbLine
 10
-10.47214556171502
 20
10.49095187734906
 30
0.0
 11
-10.47250456171514
 21
10.49116987734908
 31
0.0
  0
LINE
  5
12E
330
2
100
AcDbEntity
  8
GAIKEI
  6
Continuous
 62
     1
100
AcDbLine
 10
-10.47250456171514
 20
10.49116987734908
 30
0.0
 11
-10.47286256171509
 21
10.49138767734905
 31
0.0
  0
LINE
  5
12F
330
2
100
AcDbEntity
  8
GAIKEI
  6
Continuous
 62
     1
100
AcDbLine
 10
-10.47286256171509
 20
10.49138767734905
 30
0.0
 11
-10.47322056171504
 21
10.491605877349
 31
0.0
  0
LINE
  5
130
330
2
100
AcDbEntity
  8
GAIKEI
  6
Continuous
 62
     1
100
AcDbLine
 10
-10.47322056171504
 20
10.491605877349
 30
0.0
 11
-10.47357956171498
 21
10.49182367734909
 31
0.0
  0
LINE
  5
131
330
2
100
AcDbEntity
  8
GAIKEI
  6
Continuous
 62
     1
100
AcDbLine
 10
-10.47357956171498
 20
10.49182367734909
 30
0.0
 11
-10.47393856171504
 21
10.49204187734904
 31
0.0
  0
LINE
  5
132
330
2
100
AcDbEntity
  8
GAIKEI
  6
Continuous
 62
     1
100
AcDbLine
 10
-10.47393856171504
 20
10.49204187734904
 30
0.0
 11
-10.47429656171505
 21
10.49226067734901
 31
0.0
  0
LINE
  5
133
330
2
100
AcDbEntity
  8
GAIKEI
  6
Continuous
 62
     1
100
AcDbLine
 10
-10.47429656171505
 20
10.49226067734901
 30
0.0
 11
-10.47465456171505
 21
10.49247987734895
 31
0.0
  0
LINE
  5
134
330
2
100
AcDbEntity
  8
GAIKEI
  6
Continuous
 62
     1
100
AcDbLine
 10
-10.47465456171505
 20
10.49247987734895
 30
0.0
 11
-10.4750137617151
 21
10.49269967734903
 31
0.0
  0
LINE
  5
135
330
2
100
AcDbEntity
  8
GAIKEI
  6
Continuous
 62
     1
100
AcDbLine
 10
-10.4750137617151
 20
10.49269967734903
 30
0.0
 11
-10.47537256171506
 21
10.49291987734898
 31
0.0
  0
LINE
  5
136
330
2
100
AcDbEntity
  8
GAIKEI
  6
Continuous
 62
     1
100
AcDbLine
 10
-10.47537256171506
 20
10.49291987734898
 30
0.0
 11
-10.47573076171511
 21
10.49314067734906
 31
0.0
  0
LINE
  5
137
330
2
100
AcDbEntity
  8
GAIKEI
  6
Continuous
 62
     1
100
AcDbLine
 10
-10.47573076171511
 20
10.49314067734906
 30
0.0
 11
-10.47608856171507
 21
10.493361877349
 31
0.0
  0
LINE
  5
138
330
2
100
AcDbEntity
  8
GAIKEI
  6
Continuous
 62
     1
100
AcDbLine
 10
-10.47608856171507
 20
10.493361877349
 30
0.0
 11
-10.47644676171512
 21
10.49358267734908
 31
0.0
  0
LINE
  5
139
330
2
100
AcDbEntity
  8
GAIKEI
  6
Continuous
 62
     1
100
AcDbLine
 10
-10.47644676171512
 20
10.49358267734908
 30
0.0
 11
-10.47680456171508
 21
10.49380387734902
 31
0.0
  0
LINE
  5
13A
330
2
100
AcDbEntity
  8
GAIKEI
  6
Continuous
 62
     1
100
AcDbLine
 10
-10.47680456171508
 20
10.49380387734902
 30
0.0
 11
-10.47716276171513
 21
10.49402767734898
 31
0.0
  0
LINE
  5
13B
330
2
100
AcDbEntity
  8
GAIKEI
  6
Continuous
 62
     1
100
AcDbLine
 10
-10.47716276171513
 20
10.49402767734898
 30
0.0
 11
-10.47752056171509
 21
10.49425187734903
 31
0.0
  0
LINE
  5
13C
330
2
100
AcDbEntity
  8
GAIKEI
  6
Continuous
 62
     1
100
AcDbLine
 10
-10.47752056171509
 20
10.49425187734903
 30
0.0
 11
-10.47787876171514
 21
10.49447547734905
 31
0.0
  0
LINE
  5
13D
330
2
100
AcDbEntity
  8
GAIKEI
  6
Continuous
 62
     1
100
AcDbLine
 10
-10.47787876171514
 20
10.49447547734905
 30
0.0
 11
-10.47823656171511
 21
10.49469987734903
 31
0.0
  0
LINE
  5
13E
330
2
100
AcDbEntity
  8
GAIKEI
  6
Continuous
 62
     1
100
AcDbLine
 10
-10.47823656171511
 20
10.49469987734903
 30
0.0
 11
-10.47859476171504
 21
10.49492547734905
 31
0.0
  0
LINE
  5
13F
330
2
100
AcDbEntity
  8
GAIKEI
  6
Continuous
 62
     1
100
AcDbLine
 10
-10.47859476171504
 20
10.49492547734905
 30
0.0
 11
-10.47895256171512
 21
10.49515187734903
 31
0.0
  0
LINE
  5
140
330
2
100
AcDbEntity
  8
GAIKEI
  6
Continuous
 62
     1
100
AcDbLine
 10
-10.47895256171512
 20
10.49515187734903
 30
0.0
 11
-10.47931076171505
 21
10.49537947734904
 31
0.0
  0
LINE
  5
141
330
2
100
AcDbEntity
  8
GAIKEI
  6
Continuous
 62
     1
100
AcDbLine
 10
-10.47931076171505
 20
10.49537947734904
 30
0.0
 11
-10.47966856171496
 21
10.49560787734901
 31
0.0
  0
LINE
  5
142
330
2
100
AcDbEntity
  8
GAIKEI
  6
Continuous
 62
     1
100
AcDbLine
 10
-10.47966856171496
 20
10.49560787734901
 30
0.0
 11
-10.48002676171506
 21
10.49583847734902
 31
0.0
  0
LINE
  5
143
330
2
100
AcDbEntity
  8
GAIKEI
  6
Continuous
 62
     1
100
AcDbLine
 10
-10.48002676171506
 20
10.49583847734902
 30
0.0
 11
-10.48038456171497
 21
10.49606987734899
 31
0.0
  0
LINE
  5
144
330
2
100
AcDbEntity
  8
GAIKEI
  6
Continuous
 62
     1
100
AcDbLine
 10
-10.48038456171497
 20
10.49606987734899
 30
0.0
 11
-10.48074276171508
 21
10.49630147734899
 31
0.0
  0
LINE
  5
145
330
2
100
AcDbEntity
  8
GAIKEI
  6
Continuous
 62
     1
100
AcDbLine
 10
-10.48074276171508
 20
10.49630147734899
 30
0.0
 11
-10.48110056171498
 21
10.49653387734906
 31
0.0
  0
LINE
  5
146
330
2
100
AcDbEntity
  8
GAIKEI
  6
Continuous
 62
     1
100
AcDbLine
 10
-10.48110056171498
 20
10.49653387734906
 30
0.0
 11
-10.48145876171509
 21
10.49676747734906
 31
0.0
  0
LINE
  5
147
330
2
100
AcDbEntity
  8
GAIKEI
  6
Continuous
 62
     1
100
AcDbLine
 10
-10.48145876171509
 20
10.49676747734906
 30
0.0
 11
-10.48181656171499
 21
10.49700187734902
 31
0.0
  0
LINE
  5
148
330
2
100
AcDbEntity
  8
GAIKEI
  6
Continuous
 62
     1
100
AcDbLine
 10
-10.48181656171499
 20
10.49700187734902
 30
0.0
 11
-10.4821757617151
 21
10.49723847734901
 31
0.0
  0
LINE
  5
149
330
2
100
AcDbEntity
  8
GAIKEI
  6
Continuous
 62
     1
100
AcDbLine
 10
-10.4821757617151
 20
10.49723847734901
 30
0.0
 11
-10.48253456171505
 21
10.49747587734907
 31
0.0
  0
LINE
  5
14A
330
2
100
AcDbEntity
  8
GAIKEI
  6
Continuous
 62
     1
100
AcDbLine
 10
-10.48253456171505
 20
10.49747587734907
 30
0.0
 11
-10.48289296171504
 21
10.49771547734906
 31
0.0
  0
LINE
  5
14B
330
2
100
AcDbEntity
  8
GAIKEI
  6
Continuous
 62
     1
100
AcDbLine
 10
-10.48289296171504
 20
10.49771547734906
 30
0.0
 11
-10.48325056171506
 21
10.497955877349
 31
0.0
  0
LINE
  5
14C
330
2
100
AcDbEntity
  8
GAIKEI
  6
Continuous
 62
     1
100
AcDbLine
 10
-10.48325056171506
 20
10.497955877349
 30
0.0
 11
-10.48360996171505
 21
10.49819827734904
 31
0.0
  0
LINE
  5
14D
330
2
100
AcDbEntity
  8
GAIKEI
  6
Continuous
 62
     1
100
AcDbLine
 10
-10.48360996171505
 20
10.49819827734904
 30
0.0
 11
-10.48396856171502
 21
10.49844187734902
 31
0.0
  0
LINE
  5
14E
330
2
100
AcDbEntity
  8
GAIKEI
  6
Continuous
 62
     1
100
AcDbLine
 10
-10.48396856171502
 20
10.49844187734902
 30
0.0
 11
-10.48432796171499
 21
10.49868727734906
 31
0.0
  0
LINE
  5
14F
330
2
100
AcDbEntity
  8
GAIKEI
  6
Continuous
 62
     1
100
AcDbLine
 10
-10.48432796171499
 20
10.49868727734906
 30
0.0
 11
-10.48468656171508
 21
10.49893387734903
 31
0.0
  0
LINE
  5
150
330
2
100
AcDbEntity
  8
GAIKEI
  6
Continuous
 62
     1
100
AcDbLine
 10
-10.48468656171508
 20
10.49893387734903
 30
0.0
 11
-10.48504596171506
 21
10.49918127734907
 31
0.0
  0
LINE
  5
151
330
2
100
AcDbEntity
  8
GAIKEI
  6
Continuous
 62
     1
100
AcDbLine
 10
-10.48504596171506
 20
10.49918127734907
 30
0.0
 11
-10.48540456171503
 21
10.49942987734903
 31
0.0
  0
LINE
  5
152
330
2
100
AcDbEntity
  8
GAIKEI
  6
Continuous
 62
     1
100
AcDbLine
 10
-10.48540456171503
 20
10.49942987734903
 30
0.0
 11
-10.48576396171501
 21
10.49968127734905
 31
0.0
  0
LINE
  5
153
330
2
100
AcDbEntity
  8
GAIKEI
  6
Continuous
 62
     1
100
AcDbLine
 10
-10.48576396171501
 20
10.49968127734905
 30
0.0
 11
-10.48612256171509
 21
10.49993387734901
 31
0.0
  0
LINE
  5
154
330
2
100
AcDbEntity
  8
GAIKEI
  6
Continuous
 62
     1
100
AcDbLine
 10
-10.48612256171509
 20
10.49993387734901
 30
0.0
 11
-10.48648296171507
 21
10.50018747734907
 31
0.0
  0
LINE
  5
155
330
2
100
AcDbEntity
  8
GAIKEI
  6
Continuous
 62
     1
100
AcDbLine
 10
-10.48648296171507
 20
10.50018747734907
 30
0.0
 11
-10.48684256171509
 21
10.50044187734909
 31
0.0
  0
LINE
  5
156
330
2
100
AcDbEntity
  8
GAIKEI
  6
Continuous
 62
     1
100
AcDbLine
 10
-10.48684256171509
 20
10.50044187734909
 30
0.0
 11
-10.48720296171507
 21
10.50069847734903
 31
0.0
  0
LINE
  5
157
330
2
100
AcDbEntity
  8
GAIKEI
  6
Continuous
 62
     1
100
AcDbLine
 10
-10.48720296171507
 20
10.50069847734903
 30
0.0
 11
-10.48756256171509
 21
10.50095587734904
 31
0.0
  0
LINE
  5
158
330
2
100
AcDbEntity
  8
GAIKEI
  6
Continuous
 62
     1
100
AcDbLine
 10
-10.48756256171509
 20
10.50095587734904
 30
0.0
 11
-10.48792296171507
 21
10.50121547734909
 31
0.0
  0
LINE
  5
159
330
2
100
AcDbEntity
  8
GAIKEI
  6
Continuous
 62
     1
100
AcDbLine
 10
-10.48792296171507
 20
10.50121547734909
 30
0.0
 11
-10.48828256171509
 21
10.50147587734898
 31
0.0
  0
LINE
  5
15A
330
2
100
AcDbEntity
  8
GAIKEI
  6
Continuous
 62
     1
100
AcDbLine
 10
-10.48828256171509
 20
10.50147587734898
 30
0.0
 11
-10.48864396171501
 21
10.50173747734902
 31
0.0
  0
LINE
  5
15B
330
2
100
AcDbEntity
  8
GAIKEI
  6
Continuous
 62
     1
100
AcDbLine
 10
-10.48864396171501
 20
10.50173747734902
 30
0.0
 11
-10.48900456171503
 21
10.50199987734902
 31
0.0
  0
LINE
  5
15C
330
2
100
AcDbEntity
  8
GAIKEI
  6
Continuous
 62
     1
100
AcDbLine
 10
-10.48900456171503
 20
10.50199987734902
 30
0.0
 11
-10.48936496171507
 21
10.50226447734906
 31
0.0
  0
LINE
  5
15D
330
2
100
AcDbEntity
  8
GAIKEI
  6
Continuous
 62
     1
100
AcDbLine
 10
-10.48936496171507
 20
10.50226447734906
 30
0.0
 11
-10.48972456171503
 21
10.50252987734904
 31
0.0
  0
LINE
  5
15E
330
2
100
AcDbEntity
  8
GAIKEI
  6
Continuous
 62
     1
100
AcDbLine
 10
-10.48972456171503
 20
10.50252987734904
 30
0.0
 11
-10.49008596171506
 21
10.50279647734908
 31
0.0
  0
LINE
  5
15F
330
2
100
AcDbEntity
  8
GAIKEI
  6
Continuous
 62
     1
100
AcDbLine
 10
-10.49008596171506
 20
10.50279647734908
 30
0.0
 11
-10.49044656171509
 21
10.50306387734906
 31
0.0
  0
LINE
  5
160
330
2
100
AcDbEntity
  8
GAIKEI
  6
Continuous
 62
     1
100
AcDbLine
 10
-10.49044656171509
 20
10.50306387734906
 30
0.0
 11
-10.490807961715
 21
10.50333347734897
 31
0.0
  0
LINE
  5
161
330
2
100
AcDbEntity
  8
GAIKEI
  6
Continuous
 62
     1
100
AcDbLine
 10
-10.490807961715
 20
10.50333347734897
 30
0.0
 11
-10.49116856171503
 21
10.50360387734906
 31
0.0
  0
LINE
  5
162
330
2
100
AcDbEntity
  8
GAIKEI
  6
Continuous
 62
     1
100
AcDbLine
 10
-10.49116856171503
 20
10.50360387734906
 30
0.0
 11
-10.49152996171506
 21
10.50387647734908
 31
0.0
  0
LINE
  5
163
330
2
100
AcDbEntity
  8
GAIKEI
  6
Continuous
 62
     1
100
AcDbLine
 10
-10.49152996171506
 20
10.50387647734908
 30
0.0
 11
-10.49189056171508
 21
10.50414987734905
 31
0.0
  0
LINE
  5
164
330
2
100
AcDbEntity
  8
GAIKEI
  6
Continuous
 62
     1
100
AcDbLine
 10
-10.49189056171508
 20
10.50414987734905
 30
0.0
 11
-10.49225296171505
 21
10.50442547734906
 31
0.0
  0
LINE
  5
165
330
2
100
AcDbEntity
  8
GAIKEI
  6
Continuous
 62
     1
100
AcDbLine
 10
-10.49225296171505
 20
10.50442547734906
 30
0.0
 11
-10.49261456171507
 21
10.50470187734902
 31
0.0
  0
LINE
  5
166
330
2
100
AcDbEntity
  8
GAIKEI
  6
Continuous
 62
     1
100
AcDbLine
 10
-10.49261456171507
 20
10.50470187734902
 30
0.0
 11
-10.49297596171499
 21
10.50497947734902
 31
0.0
  0
LINE
  5
167
330
2
100
AcDbEntity
  8
GAIKEI
  6
Continuous
 62
     1
100
AcDbLine
 10
-10.49297596171499
 20
10.50497947734902
 30
0.0
 11
-10.49333656171501
 21
10.50525787734898
 31
0.0
  0
LINE
  5
168
330
2
100
AcDbEntity
  8
GAIKEI
  6
Continuous
 62
     1
100
AcDbLine
 10
-10.49333656171501
 20
10.50525787734898
 30
0.0
 11
-10.49369896171504
 21
10.50553847734898
 31
0.0
  0
LINE
  5
169
330
2
100
AcDbEntity
  8
GAIKEI
  6
Continuous
 62
     1
100
AcDbLine
 10
-10.49369896171504
 20
10.50553847734898
 30
0.0
 11
-10.494060561715
 21
10.50581987734904
 31
0.0
  0
LINE
  5
16A
330
2
100
AcDbEntity
  8
GAIKEI
  6
Continuous
 62
     1
100
AcDbLine
 10
-10.494060561715
 20
10.50581987734904
 30
0.0
 11
-10.49442296171509
 21
10.50610247734903
 31
0.0
  0
LINE
  5
16B
330
2
100
AcDbEntity
  8
GAIKEI
  6
Continuous
 62
     1
100
AcDbLine
 10
-10.49442296171509
 20
10.50610247734903
 30
0.0
 11
-10.49478456171499
 21
10.50638587734909
 31
0.0
  0
LINE
  5
16C
330
2
100
AcDbEntity
  8
GAIKEI
  6
Continuous
 62
     1
100
AcDbLine
 10
-10.49478456171499
 20
10.50638587734909
 30
0.0
 11
-10.49514796171496
 21
10.50667147734896
 31
0.0
  0
LINE
  5
16D
330
2
100
AcDbEntity
  8
GAIKEI
  6
Continuous
 62
     1
100
AcDbLine
 10
-10.49514796171496
 20
10.50667147734896
 30
0.0
 11
-10.49551056171504
 21
10.50695787734901
 31
0.0
  0
LINE
  5
16E
330
2
100
AcDbEntity
  8
GAIKEI
  6
Continuous
 62
     1
100
AcDbLine
 10
-10.49551056171504
 20
10.50695787734901
 30
0.0
 11
-10.49587296171512
 21
10.50724647734898
 31
0.0
  0
LINE
  5
16F
330
2
100
AcDbEntity
  8
GAIKEI
  6
Continuous
 62
     1
100
AcDbLine
 10
-10.49587296171512
 20
10.50724647734898
 30
0.0
 11
-10.49623456171502
 21
10.50753587734903
 31
0.0
  0
LINE
  5
170
330
2
100
AcDbEntity
  8
GAIKEI
  6
Continuous
 62
     1
100
AcDbLine
 10
-10.49623456171502
 20
10.50753587734903
 30
0.0
 11
-10.49659796171511
 21
10.50782747734899
 31
0.0
  0
LINE
  5
171
330
2
100
AcDbEntity
  8
GAIKEI
  6
Continuous
 62
     1
100
AcDbLine
 10
-10.49659796171511
 20
10.50782747734899
 30
0.0
 11
-10.49696056171512
 21
10.50811987734903
 31
0.0
  0
LINE
  5
172
330
2
100
AcDbEntity
  8
GAIKEI
  6
Continuous
 62
     1
100
AcDbLine
 10
-10.49696056171512
 20
10.50811987734903
 30
0.0
 11
-10.49732296171504
 21
10.50841347734899
 31
0.0
  0
LINE
  5
173
330
2
100
AcDbEntity
  8
GAIKEI
  6
Continuous
 62
     1
100
AcDbLine
 10
-10.49732296171504
 20
10.50841347734899
 30
0.0
 11
-10.49768456171512
 21
10.50870787734902
 31
0.0
  0
LINE
  5
174
330
2
100
AcDbEntity
  8
GAIKEI
  6
Continuous
 62
     1
100
AcDbLine
 10
-10.49768456171512
 20
10.50870787734902
 30
0.0
 11
-10.49804796171509
 21
10.50900347734898
 31
0.0
  0
LINE
  5
175
330
2
100
AcDbEntity
  8
GAIKEI
  6
Continuous
 62
     1
100
AcDbLine
 10
-10.49804796171509
 20
10.50900347734898
 30
0.0
 11
-10.4984105617151
 21
10.509299877349
 31
0.0
  0
LINE
  5
176
330
2
100
AcDbEntity
  8
GAIKEI
  6
Continuous
 62
     1
100
AcDbLine
 10
-10.4984105617151
 20
10.509299877349
 30
0.0
 11
-10.49877396171507
 21
10.50959847734896
 31
0.0
  0
LINE
  5
177
330
2
100
AcDbEntity
  8
GAIKEI
  6
Continuous
 62
     1
100
AcDbLine
 10
-10.49877396171507
 20
10.50959847734896
 30
0.0
 11
-10.49913656171509
 21
10.50989787734909
 31
0.0
  0
LINE
  5
178
330
2
100
AcDbEntity
  8
GAIKEI
  6
Continuous
 62
     1
100
AcDbLine
 10
-10.49913656171509
 20
10.50989787734909
 30
0.0
 11
-10.49949996171506
 21
10.51019947734903
 31
0.0
  0
LINE
  5
179
330
2
100
AcDbEntity
  8
GAIKEI
  6
Continuous
 62
     1
100
AcDbLine
 10
-10.49949996171506
 20
10.51019947734903
 30
0.0
 11
-10.49986256171507
 21
10.51050187734904
 31
0.0
  0
LINE
  5
17A
330
2
100
AcDbEntity
  8
GAIKEI
  6
Continuous
 62
     1
100
AcDbLine
 10
-10.49986256171507
 20
10.51050187734904
 30
0.0
 11
-10.50022696171498
 21
10.51080647734898
 31
0.0
  0
LINE
  5
17B
330
2
100
AcDbEntity
  8
GAIKEI
  6
Continuous
 62
     1
100
AcDbLine
 10
-10.50022696171498
 20
10.51080647734898
 30
0.0
 11
-10.50059056171505
 21
10.51111187734898
 31
0.0
  0
LINE
  5
17C
330
2
100
AcDbEntity
  8
GAIKEI
  6
Continuous
 62
     1
100
AcDbLine
 10
-10.50059056171505
 20
10.51111187734898
 30
0.0
 11
-10.50095396171508
 21
10.51141847734902
 31
0.0
  0
LINE
  5
17D
330
2
100
AcDbEntity
  8
GAIKEI
  6
Continuous
 62
     1
100
AcDbLine
 10
-10.50095396171508
 20
10.51141847734902
 30
0.0
 11
-10.50131656171504
 21
10.51172587734902
 31
0.0
  0
LINE
  5
17E
330
2
100
AcDbEntity
  8
GAIKEI
  6
Continuous
 62
     1
100
AcDbLine
 10
-10.50131656171504
 20
10.51172587734902
 30
0.0
 11
-10.50167996171512
 21
10.51203547734906
 31
0.0
  0
LINE
  5
17F
330
2
100
AcDbEntity
  8
GAIKEI
  6
Continuous
 62
     1
100
AcDbLine
 10
-10.50167996171512
 20
10.51203547734906
 30
0.0
 11
-10.50204256171508
 21
10.51234587734905
 31
0.0
  0
LINE
  5
180
330
2
100
AcDbEntity
  8
GAIKEI
  6
Continuous
 62
     1
100
AcDbLine
 10
-10.50204256171508
 20
10.51234587734905
 30
0.0
 11
-10.50240696171511
 21
10.51265747734908
 31
0.0
  0
LINE
  5
181
330
2
100
AcDbEntity
  8
GAIKEI
  6
Continuous
 62
     1
100
AcDbLine
 10
-10.50240696171511
 20
10.51265747734908
 30
0.0
 11
-10.50277056171506
 21
10.51296987734906
 31
0.0
  0
LINE
  5
182
330
2
100
AcDbEntity
  8
GAIKEI
  6
Continuous
 62
     1
100
AcDbLine
 10
-10.50277056171506
 20
10.51296987734906
 30
0.0
 11
-10.50313496171509
 21
10.51328447734897
 31
0.0
  0
LINE
  5
183
330
2
100
AcDbEntity
  8
GAIKEI
  6
Continuous
 62
     1
100
AcDbLine
 10
-10.50313496171509
 20
10.51328447734897
 30
0.0
 11
-10.50349856171505
 21
10.51359987734906
 31
0.0
  0
LINE
  5
184
330
2
100
AcDbEntity
  8
GAIKEI
  6
Continuous
 62
     1
100
AcDbLine
 10
-10.50349856171505
 20
10.51359987734906
 30
0.0
 11
-10.50386296171507
 21
10.51391647734897
 31
0.0
  0
LINE
  5
185
330
2
100
AcDbEntity
  8
GAIKEI
  6
Continuous
 62
     1
100
AcDbLine
 10
-10.50386296171507
 20
10.51391647734897
 30
0.0
 11
-10.50422656171503
 21
10.51423387734905
 31
0.0
  0
LINE
  5
186
330
2
100
AcDbEntity
  8
GAIKEI
  6
Continuous
 62
     1
100
AcDbLine
 10
-10.50422656171503
 20
10.51423387734905
 30
0.0
 11
-10.50459096171505
 21
10.51455447734906
 31
0.0
  0
LINE
  5
187
330
2
100
AcDbEntity
  8
GAIKEI
  6
Continuous
 62
     1
100
AcDbLine
 10
-10.50459096171505
 20
10.51455447734906
 30
0.0
 11
-10.50495456171501
 21
10.51487587734903
 31
0.0
  0
LINE
  5
188
330
2
100
AcDbEntity
  8
GAIKEI
  6
Continuous
 62
     1
100
AcDbLine
 10
-10.50495456171501
 20
10.51487587734903
 30
0.0
 11
-10.50531896171515
 21
10.51519747734903
 31
0.0
  0
LINE
  5
189
330
2
100
AcDbEntity
  8
GAIKEI
  6
Continuous
 62
     1
100
AcDbLine
 10
-10.50531896171515
 20
10.51519747734903
 30
0.0
 11
-10.50568256171499
 21
10.51551987734899
 31
0.0
  0
LINE
  5
18A
330
2
100
AcDbEntity
  8
GAIKEI
  6
Continuous
 62
     1
100
AcDbLine
 10
-10.50568256171499
 20
10.51551987734899
 30
0.0
 11
-10.50604696171513
 21
10.51584547734899
 31
0.0
  0
LINE
  5
18B
330
2
100
AcDbEntity
  8
GAIKEI
  6
Continuous
 62
     1
100
AcDbLine
 10
-10.50604696171513
 20
10.51584547734899
 30
0.0
 11
-10.50641056171497
 21
10.51617187734905
 31
0.0
  0
LINE
  5
18C
330
2
100
AcDbEntity
  8
GAIKEI
  6
Continuous
 62
     1
100
AcDbLine
 10
-10.50641056171497
 20
10.51617187734905
 30
0.0
 11
-10.50677496171511
 21
10.51649947734904
 31
0.0
  0
LINE
  5
18D
330
2
100
AcDbEntity
  8
GAIKEI
  6
Continuous
 62
     1
100
AcDbLine
 10
-10.50677496171511
 20
10.51649947734904
 30
0.0
 11
-10.50713856171512
 21
10.51682787734899
 31
0.0
  0
LINE
  5
18E
330
2
100
AcDbEntity
  8
GAIKEI
  6
Continuous
 62
     1
100
AcDbLine
 10
-10.50713856171512
 20
10.51682787734899
 30
0.0
 11
-10.50750296171509
 21
10.51715747734909
 31
0.0
  0
LINE
  5
18F
330
2
100
AcDbEntity
  8
GAIKEI
  6
Continuous
 62
     1
100
AcDbLine
 10
-10.50750296171509
 20
10.51715747734909
 30
0.0
 11
-10.5078665617151
 21
10.51748787734902
 31
0.0
  0
LINE
  5
190
330
2
100
AcDbEntity
  8
GAIKEI
  6
Continuous
 62
     1
100
AcDbLine
 10
-10.5078665617151
 20
10.51748787734902
 30
0.0
 11
-10.50823096171507
 21
10.517820477349
 31
0.0
  0
LINE
  5
191
330
2
100
AcDbEntity
  8
GAIKEI
  6
Continuous
 62
     1
100
AcDbLine
 10
-10.50823096171507
 20
10.517820477349
 30
0.0
 11
-10.50859456171508
 21
10.51815387734905
 31
0.0
  0
LINE
  5
192
330
2
100
AcDbEntity
  8
GAIKEI
  6
Continuous
 62
     1
100
AcDbLine
 10
-10.50859456171508
 20
10.51815387734905
 30
0.0
 11
-10.50895996171505
 21
10.51848947734902
 31
0.0
  0
LINE
  5
193
330
2
100
AcDbEntity
  8
GAIKEI
  6
Continuous
 62
     1
100
AcDbLine
 10
-10.50895996171505
 20
10.51848947734902
 30
0.0
 11
-10.50932456171506
 21
10.51882587734906
 31
0.0
  0
LINE
  5
194
330
2
100
AcDbEntity
  8
GAIKEI
  6
Continuous
 62
     1
100
AcDbLine
 10
-10.50932456171506
 20
10.51882587734906
 30
0.0
 11
-10.50968896171497
 21
10.51916347734902
 31
0.0
  0
LINE
  5
195
330
2
100
AcDbEntity
  8
GAIKEI
  6
Continuous
 62
     1
100
AcDbLine
 10
-10.50968896171497
 20
10.51916347734902
 30
0.0
 11
-10.51005256171504
 21
10.51950187734906
 31
0.0
  0
LINE
  5
196
330
2
100
AcDbEntity
  8
GAIKEI
  6
Continuous
 62
     1
100
AcDbLine
 10
-10.51005256171504
 20
10.51950187734906
 30
0.0
 11
-10.51041796171512
 21
10.51984247734901
 31
0.0
  0
LINE
  5
197
330
2
100
AcDbEntity
  8
GAIKEI
  6
Continuous
 62
     1
100
AcDbLine
 10
-10.51041796171512
 20
10.51984247734901
 30
0.0
 11
-10.51078256171513
 21
10.52018387734904
 31
0.0
  0
LINE
  5
198
330
2
100
AcDbEntity
  8
GAIKEI
  6
Continuous
 62
     1
100
AcDbLine
 10
-10.51078256171513
 20
10.52018387734904
 30
0.0
 11
-10.5111469617151
 21
10.52052647734899
 31
0.0
  0
LINE
  5
199
330
2
100
AcDbEntity
  8
GAIKEI
  6
Continuous
 62
     1
100
AcDbLine
 10
-10.5111469617151
 20
10.52052647734899
 30
0.0
 11
-10.51151056171511
 21
10.52086987734901
 31
0.0
  0
LINE
  5
19A
330
2
100
AcDbEntity
  8
GAIKEI
  6
Continuous
 62
     1
100
AcDbLine
 10
-10.51151056171511
 20
10.52086987734901
 30
0.0
 11
-10.51187596171502
 21
10.52121547734907
 31
0.0
  0
LINE
  5
19B
330
2
100
AcDbEntity
  8
GAIKEI
  6
Continuous
 62
     1
100
AcDbLine
 10
-10.51187596171502
 20
10.52121547734907
 30
0.0
 11
-10.51224056171503
 21
10.52156187734897
 31
0.0
  0
LINE
  5
19C
330
2
100
AcDbEntity
  8
GAIKEI
  6
Continuous
 62
     1
100
AcDbLine
 10
-10.51224056171503
 20
10.52156187734897
 30
0.0
 11
-10.51260496171505
 21
10.52191047734902
 31
0.0
  0
LINE
  5
19D
330
2
100
AcDbEntity
  8
GAIKEI
  6
Continuous
 62
     1
100
AcDbLine
 10
-10.51260496171505
 20
10.52191047734902
 30
0.0
 11
-10.51296856171501
 21
10.52225987734903
 31
0.0
  0
LINE
  5
19E
330
2
100
AcDbEntity
  8
GAIKEI
  6
Continuous
 62
     1
100
AcDbLine
 10
-10.51296856171501
 20
10.52225987734903
 30
0.0
 11
-10.51333396171503
 21
10.52261047734907
 31
0.0
  0
LINE
  5
19F
330
2
100
AcDbEntity
  8
GAIKEI
  6
Continuous
 62
     1
100
AcDbLine
 10
-10.51333396171503
 20
10.52261047734907
 30
0.0
 11
-10.51369856171504
 21
10.52296187734907
 31
0.0
  0
LINE
  5
1A0
330
2
100
AcDbEntity
  8
GAIKEI
  6
Continuous
 62
     1
100
AcDbLine
 10
-10.51369856171504
 20
10.52296187734907
 30
0.0
 11
-10.51406296171507
 21
10.523314477349
 31
0.0
  0
LINE
  5
1A1
330
2
100
AcDbEntity
  8
GAIKEI
  6
Continuous
 62
     1
100
AcDbLine
 10
-10.51406296171507
 20
10.523314477349
 30
0.0
 11
-10.51442656171502
 21
10.523667877349
 31
0.0
  0
LINE
  5
1A2
330
2
100
AcDbEntity
  8
GAIKEI
  6
Continuous
 62
     1
100
AcDbLine
 10
-10.51442656171502
 20
10.523667877349
 30
0.0
 11
-10.5147919617151
 21
10.52402347734903
 31
0.0
  0
LINE
  5
1A3
330
2
100
AcDbEntity
  8
GAIKEI
  6
Continuous
 62
     1
100
AcDbLine
 10
-10.5147919617151
 20
10.52402347734903
 30
0.0
 11
-10.51515656171511
 21
10.52437987734902
 31
0.0
  0
LINE
  5
1A4
330
2
100
AcDbEntity
  8
GAIKEI
  6
Continuous
 62
     1
100
AcDbLine
 10
-10.51515656171511
 20
10.52437987734902
 30
0.0
 11
-10.51552096171508
 21
10.52473847734904
 31
0.0
  0
LINE
  5
1A5
330
2
100
AcDbEntity
  8
GAIKEI
  6
Continuous
 62
     1
100
AcDbLine
 10
-10.51552096171508
 20
10.52473847734904
 30
0.0
 11
-10.5158845617151
 21
10.52509787734902
 31
0.0
  0
LINE
  5
1A6
330
2
100
AcDbEntity
  8
GAIKEI
  6
Continuous
 62
     1
100
AcDbLine
 10
-10.5158845617151
 20
10.52509787734902
 30
0.0
 11
-10.51624996171506
 21
10.52545847734905
 31
0.0
  0
LINE
  5
1A7
330
2
100
AcDbEntity
  8
GAIKEI
  6
Continuous
 62
     1
100
AcDbLine
 10
-10.51624996171506
 20
10.52545847734905
 30
0.0
 11
-10.51661456171507
 21
10.52581987734902
 31
0.0
  0
LINE
  5
1A8
330
2
100
AcDbEntity
  8
GAIKEI
  6
Continuous
 62
     1
100
AcDbLine
 10
-10.51661456171507
 20
10.52581987734902
 30
0.0
 11
-10.51697996171515
 21
10.52618347734903
 31
0.0
  0
LINE
  5
1A9
330
2
100
AcDbEntity
  8
GAIKEI
  6
Continuous
 62
     1
100
AcDbLine
 10
-10.51697996171515
 20
10.52618347734903
 30
0.0
 11
-10.51734456171505
 21
10.526547877349
 31
0.0
  0
LINE
  5
1AA
330
2
100
AcDbEntity
  8
GAIKEI
  6
Continuous
 62
     1
100
AcDbLine
 10
-10.51734456171505
 20
10.526547877349
 30
0.0
 11
-10.51770896171501
 21
10.52691447734901
 31
0.0
  0
LINE
  5
1AB
330
2
100
AcDbEntity
  8
GAIKEI
  6
Continuous
 62
     1
100
AcDbLine
 10
-10.51770896171501
 20
10.52691447734901
 30
0.0
 11
-10.51807256171514
 21
10.52728187734908
 31
0.0
  0
LINE
  5
1AC
330
2
100
AcDbEntity
  8
GAIKEI
  6
Continuous
 62
     1
100
AcDbLine
 10
-10.51807256171514
 20
10.52728187734908
 30
0.0
 11
-10.51843796171505
 21
10.52764947734897
 31
0.0
  0
LINE
  5
1AD
330
2
100
AcDbEntity
  8
GAIKEI
  6
Continuous
 62
     1
100
AcDbLine
 10
-10.51843796171505
 20
10.52764947734897
 30
0.0
 11
-10.51880256171506
 21
10.52801787734904
 31
0.0
  0
LINE
  5
1AE
330
2
100
AcDbEntity
  8
GAIKEI
  6
Continuous
 62
     1
100
AcDbLine
 10
-10.51880256171506
 20
10.52801787734904
 30
0.0
 11
-10.51916696171508
 21
10.52838947734904
 31
0.0
  0
LINE
  5
1AF
330
2
100
AcDbEntity
  8
GAIKEI
  6
Continuous
 62
     1
100
AcDbLine
 10
-10.51916696171508
 20
10.52838947734904
 30
0.0
 11
-10.51953056171504
 21
10.52876187734898
 31
0.0
  0
LINE
  5
1B0
330
2
100
AcDbEntity
  8
GAIKEI
  6
Continuous
 62
     1
100
AcDbLine
 10
-10.51953056171504
 20
10.52876187734898
 30
0.0
 11
-10.51989496171507
 21
10.52913547734908
 31
0.0
  0
LINE
  5
1B1
330
2
100
AcDbEntity
  8
GAIKEI
  6
Continuous
 62
     1
100
AcDbLine
 10
-10.51989496171507
 20
10.52913547734908
 30
0.0
 11
-10.52025856171502
 21
10.52950987734903
 31
0.0
  0
LINE
  5
1B2
330
2
100
AcDbEntity
  8
GAIKEI
  6
Continuous
 62
     1
100
AcDbLine
 10
-10.52025856171502
 20
10.52950987734903
 30
0.0
 11
-10.52062396171504
 21
10.52988547734901
 31
0.0
  0
LINE
  5
1B3
330
2
100
AcDbEntity
  8
GAIKEI
  6
Continuous
 62
     1
100
AcDbLine
 10
-10.52062396171504
 20
10.52988547734901
 30
0.0
 11
-10.52098856171506
 21
10.53026187734906
 31
0.0
  0
LINE
  5
1B4
330
2
100
AcDbEntity
  8
GAIKEI
  6
Continuous
 62
     1
100
AcDbLine
 10
-10.52098856171506
 20
10.53026187734906
 30
0.0
 11
-10.52135296171508
 21
10.53064047734904
 31
0.0
  0
LINE
  5
1B5
330
2
100
AcDbEntity
  8
GAIKEI
  6
Continuous
 62
     1
100
AcDbLine
 10
-10.52135296171508
 20
10.53064047734904
 30
0.0
 11
-10.52171656171504
 21
10.53101987734897
 31
0.0
  0
LINE
  5
1B6
330
2
100
AcDbEntity
  8
GAIKEI
  6
Continuous
 62
     1
100
AcDbLine
 10
-10.52171656171504
 20
10.53101987734897
 30
0.0
 11
-10.52208096171506
 21
10.53140147734905
 31
0.0
  0
LINE
  5
1B7
330
2
100
AcDbEntity
  8
GAIKEI
  6
Continuous
 62
     1
100
AcDbLine
 10
-10.52208096171506
 20
10.53140147734905
 30
0.0
 11
-10.52244456171502
 21
10.53178387734908
 31
0.0
  0
LINE
  5
1B8
330
2
100
AcDbEntity
  8
GAIKEI
  6
Continuous
 62
     1
100
AcDbLine
 10
-10.52244456171502
 20
10.53178387734908
 30
0.0
 11
-10.52280896171504
 21
10.53216747734905
 31
0.0
  0
LINE
  5
1B9
330
2
100
AcDbEntity
  8
GAIKEI
  6
Continuous
 62
     1
100
AcDbLine
 10
-10.52280896171504
 20
10.53216747734905
 30
0.0
 11
-10.52317256171511
 21
10.53255187734896
 31
0.0
  0
LINE
  5
1BA
330
2
100
AcDbEntity
  8
GAIKEI
  6
Continuous
 62
     1
100
AcDbLine
 10
-10.52317256171511
 20
10.53255187734896
 30
0.0
 11
-10.52353796171508
 21
10.53293747734904
 31
0.0
  0
LINE
  5
1BB
330
2
100
AcDbEntity
  8
GAIKEI
  6
Continuous
 62
     1
100
AcDbLine
 10
-10.52353796171508
 20
10.53293747734904
 30
0.0
 11
-10.52390256171509
 21
10.53332387734906
 31
0.0
  0
LINE
  5
1BC
330
2
100
AcDbEntity
  8
GAIKEI
  6
Continuous
 62
     1
100
AcDbLine
 10
-10.52390256171509
 20
10.53332387734906
 30
0.0
 11
-10.52426696171505
 21
10.53371347734901
 31
0.0
  0
LINE
  5
1BD
330
2
100
AcDbEntity
  8
GAIKEI
  6
Continuous
 62
     1
100
AcDbLine
 10
-10.52426696171505
 20
10.53371347734901
 30
0.0
 11
-10.52463056171507
 21
10.53410387734902
 31
0.0
  0
LINE
  5
1BE
330
2
100
AcDbEntity
  8
GAIKEI
  6
Continuous
 62
     1
100
AcDbLine
 10
-10.52463056171507
 20
10.53410387734902
 30
0.0
 11
-10.52499396171504
 21
10.53449447734908
 31
0.0
  0
LINE
  5
1BF
330
2
100
AcDbEntity
  8
GAIKEI
  6
Continuous
 62
     1
100
AcDbLine
 10
-10.52499396171504
 20
10.53449447734908
 30
0.0
 11
-10.52535656171506
 21
10.53488587734898
 31
0.0
  0
LINE
  5
1C0
330
2
100
AcDbEntity
  8
GAIKEI
  6
Continuous
 62
     1
100
AcDbLine
 10
-10.52535656171506
 20
10.53488587734898
 30
0.0
 11
-10.52572096171497
 21
10.53527947734903
 31
0.0
  0
LINE
  5
1C1
330
2
100
AcDbEntity
  8
GAIKEI
  6
Continuous
 62
     1
100
AcDbLine
 10
-10.52572096171497
 20
10.53527947734903
 30
0.0
 11
-10.52608456171504
 21
10.53567387734904
 31
0.0
  0
LINE
  5
1C2
330
2
100
AcDbEntity
  8
GAIKEI
  6
Continuous
 62
     1
100
AcDbLine
 10
-10.52608456171504
 20
10.53567387734904
 30
0.0
 11
-10.52644896171512
 21
10.53607047734897
 31
0.0
  0
LINE
  5
1C3
330
2
100
AcDbEntity
  8
GAIKEI
  6
Continuous
 62
     1
100
AcDbLine
 10
-10.52644896171512
 20
10.53607047734897
 30
0.0
 11
-10.52681256171507
 21
10.53646787734908
 31
0.0
  0
LINE
  5
1C4
330
2
100
AcDbEntity
  8
GAIKEI
  6
Continuous
 62
     1
100
AcDbLine
 10
-10.52681256171507
 20
10.53646787734908
 30
0.0
 11
-10.5271769617151
 21
10.53686647734901
 31
0.0
  0
LINE
  5
1C5
330
2
100
AcDbEntity
  8
GAIKEI
  6
Continuous
 62
     1
100
AcDbLine
 10
-10.5271769617151
 20
10.53686647734901
 30
0.0
 11
-10.52754056171505
 21
10.537265877349
 31
0.0
  0
LINE
  5
1C6
330
2
100
AcDbEntity
  8
GAIKEI
  6
Continuous
 62
     1
100
AcDbLine
 10
-10.52754056171505
 20
10.537265877349
 30
0.0
 11
-10.52790396171502
 21
10.53766747734903
 31
0.0
  0
LINE
  5
1C7
330
2
100
AcDbEntity
  8
GAIKEI
  6
Continuous
 62
     1
100
AcDbLine
 10
-10.52790396171502
 20
10.53766747734903
 30
0.0
 11
-10.5282665617151
 21
10.53806987734901
 31
0.0
  0
LINE
  5
1C8
330
2
100
AcDbEntity
  8
GAIKEI
  6
Continuous
 62
     1
100
AcDbLine
 10
-10.5282665617151
 20
10.53806987734901
 30
0.0
 11
-10.52862996171507
 21
10.53847347734904
 31
0.0
  0
LINE
  5
1C9
330
2
100
AcDbEntity
  8
GAIKEI
  6
Continuous
 62
     1
100
AcDbLine
 10
-10.52862996171507
 20
10.53847347734904
 30
0.0
 11
-10.52899256171503
 21
10.53887787734902
 31
0.0
  0
LINE
  5
1CA
330
2
100
AcDbEntity
  8
GAIKEI
  6
Continuous
 62
     1
100
AcDbLine
 10
-10.52899256171503
 20
10.53887787734902
 30
0.0
 11
-10.52935696171505
 21
10.53928347734904
 31
0.0
  0
LINE
  5
1CB
330
2
100
AcDbEntity
  8
GAIKEI
  6
Continuous
 62
     1
100
AcDbLine
 10
-10.52935696171505
 20
10.53928347734904
 30
0.0
 11
-10.52972056171501
 21
10.53968987734902
 31
0.0
  0
LINE
  5
1CC
330
2
100
AcDbEntity
  8
GAIKEI
  6
Continuous
 62
     1
100
AcDbLine
 10
-10.52972056171501
 20
10.53968987734902
 30
0.0
 11
-10.53008396171498
 21
10.54009847734903
 31
0.0
  0
LINE
  5
1CD
330
2
100
AcDbEntity
  8
GAIKEI
  6
Continuous
 62
     1
100
AcDbLine
 10
-10.53008396171498
 20
10.54009847734903
 30
0.0
 11
-10.53044656171505
 21
10.540507877349
 31
0.0
  0
LINE
  5
1CE
330
2
100
AcDbEntity
  8
GAIKEI
  6
Continuous
 62
     1
100
AcDbLine
 10
-10.53044656171505
 20
10.540507877349
 30
0.0
 11
-10.53080996171502
 21
10.540921477349
 31
0.0
  0
LINE
  5
1CF
330
2
100
AcDbEntity
  8
GAIKEI
  6
Continuous
 62
     1
100
AcDbLine
 10
-10.53080996171502
 20
10.540921477349
 30
0.0
 11
-10.53117256171498
 21
10.54133587734907
 31
0.0
  0
LINE
  5
1D0
330
2
100
AcDbEntity
  8
GAIKEI
  6
Continuous
 62
     1
100
AcDbLine
 10
-10.53117256171498
 20
10.54133587734907
 30
0.0
 11
-10.53153696171512
 21
10.54175247734906
 31
0.0
  0
LINE
  5
1D1
330
2
100
AcDbEntity
  8
GAIKEI
  6
Continuous
 62
     1
100
AcDbLine
 10
-10.53153696171512
 20
10.54175247734906
 30
0.0
 11
-10.53190056171496
 21
10.54216987734901
 31
0.0
  0
LINE
  5
1D2
330
2
100
AcDbEntity
  8
GAIKEI
  6
Continuous
 62
     1
100
AcDbLine
 10
-10.53190056171496
 20
10.54216987734901
 30
0.0
 11
-10.53226416171509
 21
10.54259047734899
 31
0.0
  0
LINE
  5
1D3
330
2
100
AcDbEntity
  8
GAIKEI
  6
Continuous
 62
     1
100
AcDbLine
 10
-10.53226416171509
 20
10.54259047734899
 30
0.0
 11
-10.53262656171512
 21
10.54301187734904
 31
0.0
  0
LINE
  5
1D4
330
2
100
AcDbEntity
  8
GAIKEI
  6
Continuous
 62
     1
100
AcDbLine
 10
-10.53262656171512
 20
10.54301187734904
 30
0.0
 11
-10.53299116171501
 21
10.54343747734901
 31
0.0
  0
LINE
  5
1D5
330
2
100
AcDbEntity
  8
GAIKEI
  6
Continuous
 62
     1
100
AcDbLine
 10
-10.53299116171501
 20
10.54343747734901
 30
0.0
 11
-10.5333545617151
 21
10.54386387734905
 31
0.0
  0
LINE
  5
1D6
330
2
100
AcDbEntity
  8
GAIKEI
  6
Continuous
 62
     1
100
AcDbLine
 10
-10.5333545617151
 20
10.54386387734905
 30
0.0
 11
-10.53372016171505
 21
10.54429247734901
 31
0.0
  0
LINE
  5
1D7
330
2
100
AcDbEntity
  8
GAIKEI
  6
Continuous
 62
     1
100
AcDbLine
 10
-10.53372016171505
 20
10.54429247734901
 30
0.0
 11
-10.53408456171507
 21
10.54472187734905
 31
0.0
  0
LINE
  5
1D8
330
2
100
AcDbEntity
  8
GAIKEI
  6
Continuous
 62
     1
100
AcDbLine
 10
-10.53408456171507
 20
10.54472187734905
 30
0.0
 11
-10.53444916171509
 21
10.545155477349
 31
0.0
  0
LINE
  5
1D9
330
2
100
AcDbEntity
  8
GAIKEI
  6
Continuous
 62
     1
100
AcDbLine
 10
-10.53444916171509
 20
10.545155477349
 30
0.0
 11
-10.53481256171505
 21
10.54558987734901
 31
0.0
  0
LINE
  5
1DA
330
2
100
AcDbEntity
  8
GAIKEI
  6
Continuous
 62
     1
100
AcDbLine
 10
-10.53481256171505
 20
10.54558987734901
 30
0.0
 11
-10.53517816171506
 21
10.54602747734907
 31
0.0
  0
LINE
  5
1DB
330
2
100
AcDbEntity
  8
GAIKEI
  6
Continuous
 62
     1
100
AcDbLine
 10
-10.53517816171506
 20
10.54602747734907
 30
0.0
 11
-10.53554256171509
 21
10.54646587734908
 31
0.0
  0
LINE
  5
1DC
330
2
100
AcDbEntity
  8
GAIKEI
  6
Continuous
 62
     1
100
AcDbLine
 10
-10.53554256171509
 20
10.54646587734908
 30
0.0
 11
-10.53590716171504
 21
10.54690747734901
 31
0.0
  0
LINE
  5
1DD
330
2
100
AcDbEntity
  8
GAIKEI
  6
Continuous
 62
     1
100
AcDbLine
 10
-10.53590716171504
 20
10.54690747734901
 30
0.0
 11
-10.53627056171507
 21
10.547349877349
 31
0.0
  0
LINE
  5
1DE
330
2
100
AcDbEntity
  8
GAIKEI
  6
Continuous
 62
     1
100
AcDbLine
 10
-10.53627056171507
 20
10.547349877349
 30
0.0
 11
-10.53663616171496
 21
10.54779547734904
 31
0.0
  0
LINE
  5
1DF
330
2
100
AcDbEntity
  8
GAIKEI
  6
Continuous
 62
     1
100
AcDbLine
 10
-10.53663616171496
 20
10.54779547734904
 30
0.0
 11
-10.5370005617151
 21
10.54824187734903
 31
0.0
  0
LINE
  5
1E0
330
2
100
AcDbEntity
  8
GAIKEI
  6
Continuous
 62
     1
100
AcDbLine
 10
-10.5370005617151
 20
10.54824187734903
 30
0.0
 11
-10.53736616171511
 21
10.54869147734905
 31
0.0
  0
LINE
  5
1E1
330
2
100
AcDbEntity
  8
GAIKEI
  6
Continuous
 62
     1
100
AcDbLine
 10
-10.53736616171511
 20
10.54869147734905
 30
0.0
 11
-10.53773056171502
 21
10.54914187734903
 31
0.0
  0
LINE
  5
1E2
330
2
100
AcDbEntity
  8
GAIKEI
  6
Continuous
 62
     1
100
AcDbLine
 10
-10.53773056171502
 20
10.54914187734903
 30
0.0
 11
-10.53809716171508
 21
10.54959547734904
 31
0.0
  0
LINE
  5
1E3
330
2
100
AcDbEntity
  8
GAIKEI
  6
Continuous
 62
     1
100
AcDbLine
 10
-10.53809716171508
 20
10.54959547734904
 30
0.0
 11
-10.53846256171499
 21
10.55004987734901
 31
0.0
  0
LINE
  5
1E4
330
2
100
AcDbEntity
  8
GAIKEI
  6
Continuous
 62
     1
100
AcDbLine
 10
-10.53846256171499
 20
10.55004987734901
 30
0.0
 11
-10.53882816171506
 21
10.55050847734901
 31
0.0
  0
LINE
  5
1E5
330
2
100
AcDbEntity
  8
GAIKEI
  6
Continuous
 62
     1
100
AcDbLine
 10
-10.53882816171506
 20
10.55050847734901
 30
0.0
 11
-10.53919256171502
 21
10.55096787734908
 31
0.0
  0
LINE
  5
1E6
330
2
100
AcDbEntity
  8
GAIKEI
  6
Continuous
 62
     1
100
AcDbLine
 10
-10.53919256171502
 20
10.55096787734908
 30
0.0
 11
-10.5395589617151
 21
10.55142947734907
 31
0.0
  0
LINE
  5
1E7
330
2
100
AcDbEntity
  8
GAIKEI
  6
Continuous
 62
     1
100
AcDbLine
 10
-10.5395589617151
 20
10.55142947734907
 30
0.0
 11
-10.53992456171511
 21
10.55189187734902
 31
0.0
  0
LINE
  5
1E8
330
2
100
AcDbEntity
  8
GAIKEI
  6
Continuous
 62
     1
100
AcDbLine
 10
-10.53992456171511
 20
10.55189187734902
 30
0.0
 11
-10.54029096171507
 21
10.552358477349
 31
0.0
  0
LINE
  5
1E9
330
2
100
AcDbEntity
  8
GAIKEI
  6
Continuous
 62
     1
100
AcDbLine
 10
-10.54029096171507
 20
10.552358477349
 30
0.0
 11
-10.54065656171508
 21
10.55282587734905
 31
0.0
  0
LINE
  5
1EA
330
2
100
AcDbEntity
  8
GAIKEI
  6
Continuous
 62
     1
100
AcDbLine
 10
-10.54065656171508
 20
10.55282587734905
 30
0.0
 11
-10.54102196171504
 21
10.55329647734902
 31
0.0
  0
LINE
  5
1EB
330
2
100
AcDbEntity
  8
GAIKEI
  6
Continuous
 62
     1
100
AcDbLine
 10
-10.54102196171504
 20
10.55329647734902
 30
0.0
 11
-10.54138656171506
 21
10.55376787734906
 31
0.0
  0
LINE
  5
1EC
330
2
100
AcDbEntity
  8
GAIKEI
  6
Continuous
 62
     1
100
AcDbLine
 10
-10.54138656171506
 20
10.55376787734906
 30
0.0
 11
-10.54175396171513
 21
10.55424147734902
 31
0.0
  0
LINE
  5
1ED
330
2
100
AcDbEntity
  8
GAIKEI
  6
Continuous
 62
     1
100
AcDbLine
 10
-10.54175396171513
 20
10.55424147734902
 30
0.0
 11
-10.54212056171508
 21
10.55471587734905
 31
0.0
  0
LINE
  5
1EE
330
2
100
AcDbEntity
  8
GAIKEI
  6
Continuous
 62
     1
100
AcDbLine
 10
-10.54212056171508
 20
10.55471587734905
 30
0.0
 11
-10.5424869617151
 21
10.555194477349
 31
0.0
  0
LINE
  5
1EF
330
2
100
AcDbEntity
  8
GAIKEI
  6
Continuous
 62
     1
100
AcDbLine
 10
-10.5424869617151
 20
10.555194477349
 30
0.0
 11
-10.54285256171505
 21
10.55567387734902
 31
0.0
  0
LINE
  5
1F0
330
2
100
AcDbEntity
  8
GAIKEI
  6
Continuous
 62
     1
100
AcDbLine
 10
-10.54285256171505
 20
10.55567387734902
 30
0.0
 11
-10.54321896171507
 21
10.55615647734896
 31
0.0
  0
LINE
  5
1F1
330
2
100
AcDbEntity
  8
GAIKEI
  6
Continuous
 62
     1
100
AcDbLine
 10
-10.54321896171507
 20
10.55615647734896
 30
0.0
 11
-10.54358456171502
 21
10.55663987734908
 31
0.0
  0
LINE
  5
1F2
330
2
100
AcDbEntity
  8
GAIKEI
  6
Continuous
 62
     1
100
AcDbLine
 10
-10.54358456171502
 20
10.55663987734908
 30
0.0
 11
-10.54395196171498
 21
10.55712647734901
 31
0.0
  0
LINE
  5
1F3
330
2
100
AcDbEntity
  8
GAIKEI
  6
Continuous
 62
     1
100
AcDbLine
 10
-10.54395196171498
 20
10.55712647734901
 30
0.0
 11
-10.54431856171504
 21
10.55761387734901
 31
0.0
  0
LINE
  5
1F4
330
2
100
AcDbEntity
  8
GAIKEI
  6
Continuous
 62
     1
100
AcDbLine
 10
-10.54431856171504
 20
10.55761387734901
 30
0.0
 11
-10.54468496171512
 21
10.55810447734905
 31
0.0
  0
LINE
  5
1F5
330
2
100
AcDbEntity
  8
GAIKEI
  6
Continuous
 62
     1
100
AcDbLine
 10
-10.54468496171512
 20
10.55810447734905
 30
0.0
 11
-10.54505056171513
 21
10.55859587734903
 31
0.0
  0
LINE
  5
1F6
330
2
100
AcDbEntity
  8
GAIKEI
  6
Continuous
 62
     1
100
AcDbLine
 10
-10.54505056171513
 20
10.55859587734903
 30
0.0
 11
-10.54541796171509
 21
10.55909047734906
 31
0.0
  0
LINE
  5
1F7
330
2
100
AcDbEntity
  8
GAIKEI
  6
Continuous
 62
     1
100
AcDbLine
 10
-10.54541796171509
 20
10.55909047734906
 30
0.0
 11
-10.54578456171509
 21
10.55958587734903
 31
0.0
  0
LINE
  5
1F8
330
2
100
AcDbEntity
  8
GAIKEI
  6
Continuous
 62
     1
100
AcDbLine
 10
-10.54578456171509
 20
10.55958587734903
 30
0.0
 11
-10.54615196171505
 21
10.56008447734905
 31
0.0
  0
LINE
  5
1F9
330
2
100
AcDbEntity
  8
GAIKEI
  6
Continuous
 62
     1
100
AcDbLine
 10
-10.54615196171505
 20
10.56008447734905
 30
0.0
 11
-10.54651856171506
 21
10.56058387734902
 31
0.0
  0
LINE
  5
1FA
330
2
100
AcDbEntity
  8
GAIKEI
  6
Continuous
 62
     1
100
AcDbLine
 10
-10.54651856171506
 20
10.56058387734902
 30
0.0
 11
-10.54688596171508
 21
10.56108647734902
 31
0.0
  0
LINE
  5
1FB
330
2
100
AcDbEntity
  8
GAIKEI
  6
Continuous
 62
     1
100
AcDbLine
 10
-10.54688596171508
 20
10.56108647734902
 30
0.0
 11
-10.54725256171514
 21
10.56158987734898
 31
0.0
  0
LINE
  5
1FC
330
2
100
AcDbEntity
  8
GAIKEI
  6
Continuous
 62
     1
100
AcDbLine
 10
-10.54725256171514
 20
10.56158987734898
 30
0.0
 11
-10.5476199617151
 21
10.56209647734897
 31
0.0
  0
LINE
  5
1FD
330
2
100
AcDbEntity
  8
GAIKEI
  6
Continuous
 62
     1
100
AcDbLine
 10
-10.5476199617151
 20
10.56209647734897
 30
0.0
 11
-10.54798656171505
 21
10.56260387734903
 31
0.0
  0
LINE
  5
1FE
330
2
100
AcDbEntity
  8
GAIKEI
  6
Continuous
 62
     1
100
AcDbLine
 10
-10.54798656171505
 20
10.56260387734903
 30
0.0
 11
-10.54835396171501
 21
10.56311447734902
 31
0.0
  0
LINE
  5
1FF
330
2
100
AcDbEntity
  8
GAIKEI
  6
Continuous
 62
     1
100
AcDbLine
 10
-10.54835396171501
 20
10.56311447734902
 30
0.0
 11
-10.54872056171507
 21
10.56362587734906
 31
0.0
  0
LINE
  5
200
330
2
100
AcDbEntity
  8
GAIKEI
  6
Continuous
 62
     1
100
AcDbLine
 10
-10.54872056171507
 20
10.56362587734906
 30
0.0
 11
-10.54908796171503
 21
10.56414047734904
 31
0.0
  0
LINE
  5
201
330
2
100
AcDbEntity
  8
GAIKEI
  6
Continuous
 62
     1
100
AcDbLine
 10
-10.54908796171503
 20
10.56414047734904
 30
0.0
 11
-10.54945456171498
 21
10.56465587734908
 31
0.0
  0
LINE
  5
202
330
2
100
AcDbEntity
  8
GAIKEI
  6
Continuous
 62
     1
100
AcDbLine
 10
-10.54945456171498
 20
10.56465587734908
 30
0.0
 11
-10.54982196171511
 21
10.56517447734904
 31
0.0
  0
LINE
  5
203
330
2
100
AcDbEntity
  8
GAIKEI
  6
Continuous
 62
     1
100
AcDbLine
 10
-10.54982196171511
 20
10.56517447734904
 30
0.0
 11
-10.55018856171511
 21
10.56569387734896
 31
0.0
  0
LINE
  5
204
330
2
100
AcDbEntity
  8
GAIKEI
  6
Continuous
 62
     1
100
AcDbLine
 10
-10.55018856171511
 20
10.56569387734896
 30
0.0
 11
-10.55055696171502
 21
10.56621647734903
 31
0.0
  0
LINE
  5
205
330
2
100
AcDbEntity
  8
GAIKEI
  6
Continuous
 62
     1
100
AcDbLine
 10
-10.55055696171502
 20
10.56621647734903
 30
0.0
 11
-10.55092456171508
 21
10.56673987734905
 31
0.0
  0
LINE
  5
206
330
2
100
AcDbEntity
  8
GAIKEI
  6
Continuous
 62
     1
100
AcDbLine
 10
-10.55092456171508
 20
10.56673987734905
 30
0.0
 11
-10.55129196171503
 21
10.56726647734899
 31
0.0
  0
LINE
  5
207
330
2
100
AcDbEntity
  8
GAIKEI
  6
Continuous
 62
     1
100
AcDbLine
 10
-10.55129196171503
 20
10.56726647734899
 30
0.0
 11
-10.55165856171504
 21
10.567793877349
 31
0.0
  0
LINE
  5
208
330
2
100
AcDbEntity
  8
GAIKEI
  6
Continuous
 62
     1
100
AcDbLine
 10
-10.55165856171504
 20
10.567793877349
 30
0.0
 11
-10.55202696171511
 21
10.56832447734905
 31
0.0
  0
LINE
  5
209
330
2
100
AcDbEntity
  8
GAIKEI
  6
Continuous
 62
     1
100
AcDbLine
 10
-10.55202696171511
 20
10.56832447734905
 30
0.0
 11
-10.55239456171512
 21
10.56885587734905
 31
0.0
  0
LINE
  5
20A
330
2
100
AcDbEntity
  8
GAIKEI
  6
Continuous
 62
     1
100
AcDbLine
 10
-10.55239456171512
 20
10.56885587734905
 30
0.0
 11
-10.55276196171508
 21
10.56939047734897
 31
0.0
  0
LINE
  5
20B
330
2
100
AcDbEntity
  8
GAIKEI
  6
Continuous
 62
     1
100
AcDbLine
 10
-10.55276196171508
 20
10.56939047734897
 30
0.0
 11
-10.55312856171503
 21
10.56992587734896
 31
0.0
  0
LINE
  5
20C
330
2
100
AcDbEntity
  8
GAIKEI
  6
Continuous
 62
     1
100
AcDbLine
 10
-10.55312856171503
 20
10.56992587734896
 30
0.0
 11
-10.55349696171504
 21
10.57046447734899
 31
0.0
  0
LINE
  5
20D
330
2
100
AcDbEntity
  8
GAIKEI
  6
Continuous
 62
     1
100
AcDbLine
 10
-10.55349696171504
 20
10.57046447734899
 30
0.0
 11
-10.55386456171499
 21
10.57100387734897
 31
0.0
  0
LINE
  5
20E
330
2
100
AcDbEntity
  8
GAIKEI
  6
Continuous
 62
     1
100
AcDbLine
 10
-10.55386456171499
 20
10.57100387734897
 30
0.0
 11
-10.55423296171511
 21
10.57154647734899
 31
0.0
  0
LINE
  5
20F
330
2
100
AcDbEntity
  8
GAIKEI
  6
Continuous
 62
     1
100
AcDbLine
 10
-10.55423296171511
 20
10.57154647734899
 30
0.0
 11
-10.55460056171512
 21
10.57208987734896
 31
0.0
  0
LINE
  5
210
330
2
100
AcDbEntity
  8
GAIKEI
  6
Continuous
 62
     1
100
AcDbLine
 10
-10.55460056171512
 20
10.57208987734896
 30
0.0
 11
-10.55496796171508
 21
10.57263647734896
 31
0.0
  0
LINE
  5
211
330
2
100
AcDbEntity
  8
GAIKEI
  6
Continuous
 62
     1
100
AcDbLine
 10
-10.55496796171508
 20
10.57263647734896
 30
0.0
 11
-10.55533456171508
 21
10.57318387734904
 31
0.0
  0
LINE
  5
212
330
2
100
AcDbEntity
  8
GAIKEI
  6
Continuous
 62
     1
100
AcDbLine
 10
-10.55533456171508
 20
10.57318387734904
 30
0.0
 11
-10.55570296171498
 21
10.57373447734903
 31
0.0
  0
LINE
  5
213
330
2
100
AcDbEntity
  8
GAIKEI
  6
Continuous
 62
     1
100
AcDbLine
 10
-10.55570296171498
 20
10.57373447734903
 30
0.0
 11
-10.55607056171504
 21
10.57428587734898
 31
0.0
  0
LINE
  5
214
330
2
100
AcDbEntity
  8
GAIKEI
  6
Continuous
 62
     1
100
AcDbLine
 10
-10.55607056171504
 20
10.57428587734898
 30
0.0
 11
-10.55643896171511
 21
10.57484047734908
 31
0.0
  0
LINE
  5
215
330
2
100
AcDbEntity
  8
GAIKEI
  6
Continuous
 62
     1
100
AcDbLine
 10
-10.55643896171511
 20
10.57484047734908
 30
0.0
 11
-10.55680656171506
 21
10.57539587734902
 31
0.0
  0
LINE
  5
216
330
2
100
AcDbEntity
  8
GAIKEI
  6
Continuous
 62
     1
100
AcDbLine
 10
-10.55680656171506
 20
10.57539587734902
 30
0.0
 11
-10.55717496171507
 21
10.575954477349
 31
0.0
  0
LINE
  5
217
330
2
100
AcDbEntity
  8
GAIKEI
  6
Continuous
 62
     1
100
AcDbLine
 10
-10.55717496171507
 20
10.575954477349
 30
0.0
 11
-10.55754256171502
 21
10.57651387734904
 31
0.0
  0
LINE
  5
218
330
2
100
AcDbEntity
  8
GAIKEI
  6
Continuous
 62
     1
100
AcDbLine
 10
-10.55754256171502
 20
10.57651387734904
 30
0.0
 11
-10.55791096171515
 21
10.57707647734901
 31
0.0
  0
LINE
  5
219
330
2
100
AcDbEntity
  8
GAIKEI
  6
Continuous
 62
     1
100
AcDbLine
 10
-10.55791096171515
 20
10.57707647734901
 30
0.0
 11
-10.55827856171498
 21
10.57763987734904
 31
0.0
  0
LINE
  5
21A
330
2
100
AcDbEntity
  8
GAIKEI
  6
Continuous
 62
     1
100
AcDbLine
 10
-10.55827856171498
 20
10.57763987734904
 30
0.0
 11
-10.55864696171511
 21
10.578206477349
 31
0.0
  0
LINE
  5
21B
330
2
100
AcDbEntity
  8
GAIKEI
  6
Continuous
 62
     1
100
AcDbLine
 10
-10.55864696171511
 20
10.578206477349
 30
0.0
 11
-10.55901456171511
 21
10.57877387734902
 31
0.0
  0
LINE
  5
21C
330
2
100
AcDbEntity
  8
GAIKEI
  6
Continuous
 62
     1
100
AcDbLine
 10
-10.55901456171511
 20
10.57877387734902
 30
0.0
 11
-10.55938196171507
 21
10.57934447734908
 31
0.0
  0
LINE
  5
21D
330
2
100
AcDbEntity
  8
GAIKEI
  6
Continuous
 62
     1
100
AcDbLine
 10
-10.55938196171507
 20
10.57934447734908
 30
0.0
 11
-10.55974856171508
 21
10.57991587734898
 31
0.0
  0
LINE
  5
21E
330
2
100
AcDbEntity
  8
GAIKEI
  6
Continuous
 62
     1
100
AcDbLine
 10
-10.55974856171508
 20
10.57991587734898
 30
0.0
 11
-10.56011696171498
 21
10.58048947734903
 31
0.0
  0
LINE
  5
21F
330
2
100
AcDbEntity
  8
GAIKEI
  6
Continuous
 62
     1
100
AcDbLine
 10
-10.56011696171498
 20
10.58048947734903
 30
0.0
 11
-10.56048456171504
 21
10.58106387734904
 31
0.0
  0
LINE
  5
220
330
2
100
AcDbEntity
  8
GAIKEI
  6
Continuous
 62
     1
100
AcDbLine
 10
-10.56048456171504
 20
10.58106387734904
 30
0.0
 11
-10.56085296171511
 21
10.58164247734896
 31
0.0
  0
LINE
  5
221
330
2
100
AcDbEntity
  8
GAIKEI
  6
Continuous
 62
     1
100
AcDbLine
 10
-10.56085296171511
 20
10.58164247734896
 30
0.0
 11
-10.56122056171506
 21
10.58222187734907
 31
0.0
  0
LINE
  5
222
330
2
100
AcDbEntity
  8
GAIKEI
  6
Continuous
 62
     1
100
AcDbLine
 10
-10.56122056171506
 20
10.58222187734907
 30
0.0
 11
-10.56158896171507
 21
10.58280347734899
 31
0.0
  0
LINE
  5
223
330
2
100
AcDbEntity
  8
GAIKEI
  6
Continuous
 62
     1
100
AcDbLine
 10
-10.56158896171507
 20
10.58280347734899
 30
0.0
 11
-10.56195656171502
 21
10.58338587734908
 31
0.0
  0
LINE
  5
224
330
2
100
AcDbEntity
  8
GAIKEI
  6
Continuous
 62
     1
100
AcDbLine
 10
-10.56195656171502
 20
10.58338587734908
 30
0.0
 11
-10.56232496171515
 21
10.58397247734899
 31
0.0
  0
LINE
  5
225
330
2
100
AcDbEntity
  8
GAIKEI
  6
Continuous
 62
     1
100
AcDbLine
 10
-10.56232496171515
 20
10.58397247734899
 30
0.0
 11
-10.56269256171498
 21
10.58455987734908
 31
0.0
  0
LINE
  5
226
330
2
100
AcDbEntity
  8
GAIKEI
  6
Continuous
 62
     1
100
AcDbLine
 10
-10.56269256171498
 20
10.58455987734908
 30
0.0
 11
-10.56306096171511
 21
10.58514947734909
 31
0.0
  0
LINE
  5
227
330
2
100
AcDbEntity
  8
GAIKEI
  6
Continuous
 62
     1
100
AcDbLine
 10
-10.56306096171511
 20
10.58514947734909
 30
0.0
 11
-10.56342856171511
 21
10.58573987734905
 31
0.0
  0
LINE
  5
228
330
2
100
AcDbEntity
  8
GAIKEI
  6
Continuous
 62
     1
100
AcDbLine
 10
-10.56342856171511
 20
10.58573987734905
 30
0.0
 11
-10.56379696171507
 21
10.58633347734906
 31
0.0
  0
LINE
  5
229
330
2
100
AcDbEntity
  8
GAIKEI
  6
Continuous
 62
     1
100
AcDbLine
 10
-10.56379696171507
 20
10.58633347734906
 30
0.0
 11
-10.56416456171507
 21
10.58692787734901
 31
0.0
  0
LINE
  5
22A
330
2
100
AcDbEntity
  8
GAIKEI
  6
Continuous
 62
     1
100
AcDbLine
 10
-10.56416456171507
 20
10.58692787734901
 30
0.0
 11
-10.56453296171503
 21
10.587525477349
 31
0.0
  0
LINE
  5
22B
330
2
100
AcDbEntity
  8
GAIKEI
  6
Continuous
 62
     1
100
AcDbLine
 10
-10.56453296171503
 20
10.587525477349
 30
0.0
 11
-10.56490056171515
 21
10.58812387734906
 31
0.0
  0
LINE
  5
22C
330
2
100
AcDbEntity
  8
GAIKEI
  6
Continuous
 62
     1
100
AcDbLine
 10
-10.56490056171515
 20
10.58812387734906
 30
0.0
 11
-10.56526796171511
 21
10.58872547734904
 31
0.0
  0
LINE
  5
22D
330
2
100
AcDbEntity
  8
GAIKEI
  6
Continuous
 62
     1
100
AcDbLine
 10
-10.56526796171511
 20
10.58872547734904
 30
0.0
 11
-10.56563456171506
 21
10.58932787734909
 31
0.0
  0
LINE
  5
22E
330
2
100
AcDbEntity
  8
GAIKEI
  6
Continuous
 62
     1
100
AcDbLine
 10
-10.56563456171506
 20
10.58932787734909
 30
0.0
 11
-10.56600296171507
 21
10.58993347734906
 31
0.0
  0
LINE
  5
22F
330
2
100
AcDbEntity
  8
GAIKEI
  6
Continuous
 62
     1
100
AcDbLine
 10
-10.56600296171507
 20
10.58993347734906
 30
0.0
 11
-10.56637056171502
 21
10.59053987734899
 31
0.0
  0
LINE
  5
230
330
2
100
AcDbEntity
  8
GAIKEI
  6
Continuous
 62
     1
100
AcDbLine
 10
-10.56637056171502
 20
10.59053987734899
 30
0.0
 11
-10.56673896171514
 21
10.59114947734906
 31
0.0
  0
LINE
  5
231
330
2
100
AcDbEntity
  8
GAIKEI
  6
Continuous
 62
     1
100
AcDbLine
 10
-10.56673896171514
 20
10.59114947734906
 30
0.0
 11
-10.56710656171498
 21
10.59175987734898
 31
0.0
  0
LINE
  5
232
330
2
100
AcDbEntity
  8
GAIKEI
  6
Continuous
 62
     1
100
AcDbLine
 10
-10.56710656171498
 20
10.59175987734898
 30
0.0
 11
-10.5674749617151
 21
10.59237347734904
 31
0.0
  0
LINE
  5
233
330
2
100
AcDbEntity
  8
GAIKEI
  6
Continuous
 62
     1
100
AcDbLine
 10
-10.5674749617151
 20
10.59237347734904
 30
0.0
 11
-10.56784256171511
 21
10.59298787734906
 31
0.0
  0
LINE
  5
234
330
2
100
AcDbEntity
  8
GAIKEI
  6
Continuous
 62
     1
100
AcDbLine
 10
-10.56784256171511
 20
10.59298787734906
 30
0.0
 11
-10.56820996171507
 21
10.593604477349
 31
0.0
  0
LINE
  5
235
330
2
100
AcDbEntity
  8
GAIKEI
  6
Continuous
 62
     1
100
AcDbLine
 10
-10.56820996171507
 20
10.593604477349
 30
0.0
 11
-10.56857656171507
 21
10.59422187734901
 31
0.0
  0
LINE
  5
236
330
2
100
AcDbEntity
  8
GAIKEI
  6
Continuous
 62
     1
100
AcDbLine
 10
-10.56857656171507
 20
10.59422187734901
 30
0.0
 11
-10.56894496171497
 21
10.59484347734906
 31
0.0
  0
LINE
  5
237
330
2
100
AcDbEntity
  8
GAIKEI
  6
Continuous
 62
     1
100
AcDbLine
 10
-10.56894496171497
 20
10.59484347734906
 30
0.0
 11
-10.56931256171504
 21
10.59546587734905
 31
0.0
  0
LINE
  5
238
330
2
100
AcDbEntity
  8
GAIKEI
  6
Continuous
 62
     1
100
AcDbLine
 10
-10.56931256171504
 20
10.59546587734905
 30
0.0
 11
-10.56967996171505
 21
10.59609047734909
 31
0.0
  0
LINE
  5
239
330
2
100
AcDbEntity
  8
GAIKEI
  6
Continuous
 62
     1
100
AcDbLine
 10
-10.56967996171505
 20
10.59609047734909
 30
0.0
 11
-10.57004656171511
 21
10.59671587734908
 31
0.0
  0
LINE
  5
23A
330
2
100
AcDbEntity
  8
GAIKEI
  6
Continuous
 62
     1
100
AcDbLine
 10
-10.57004656171511
 20
10.59671587734908
 30
0.0
 11
-10.57041496171507
 21
10.59734467734904
 31
0.0
  0
LINE
  5
23B
330
2
100
AcDbEntity
  8
GAIKEI
  6
Continuous
 62
     1
100
AcDbLine
 10
-10.57041496171507
 20
10.59734467734904
 30
0.0
 11
-10.57078256171507
 21
10.59797387734909
 31
0.0
  0
LINE
  5
23C
330
2
100
AcDbEntity
  8
GAIKEI
  6
Continuous
 62
     1
100
AcDbLine
 10
-10.57078256171507
 20
10.59797387734909
 30
0.0
 11
-10.57114996171503
 21
10.59860647734899
 31
0.0
  0
LINE
  5
23D
330
2
100
AcDbEntity
  8
GAIKEI
  6
Continuous
 62
     1
100
AcDbLine
 10
-10.57114996171503
 20
10.59860647734899
 30
0.0
 11
-10.57151656171498
 21
10.59923987734908
 31
0.0
  0
LINE
  5
23E
330
2
100
AcDbEntity
  8
GAIKEI
  6
Continuous
 62
     1
100
AcDbLine
 10
-10.57151656171498
 20
10.59923987734908
 30
0.0
 11
-10.57188296171506
 21
10.59987547734897
 31
0.0
  0
LINE
  5
23F
330
2
100
AcDbEntity
  8
GAIKEI
  6
Continuous
 62
     1
100
AcDbLine
 10
-10.57188296171506
 20
10.59987547734897
 30
0.0
 11
-10.57224856171496
 21
10.60051187734905
 31
0.0
  0
LINE
  5
240
330
2
100
AcDbEntity
  8
GAIKEI
  6
Continuous
 62
     1
100
AcDbLine
 10
-10.57224856171496
 20
10.60051187734905
 30
0.0
 11
-10.57261416171513
 21
10.60114947734905
 31
0.0
  0
LINE
  5
241
330
2
100
AcDbEntity
  8
GAIKEI
  6
Continuous
 62
     1
100
AcDbLine
 10
-10.57261416171513
 20
10.60114947734905
 30
0.0
 11
-10.5729785617151
 21
10.60178787734901
 31
0.0
  0
LINE
  5
242
330
2
100
AcDbEntity
  8
GAIKEI
  6
Continuous
 62
     1
100
AcDbLine
 10
-10.5729785617151
 20
10.60178787734901
 30
0.0
 11
-10.57334316171511
 21
10.60242847734901
 31
0.0
  0
LINE
  5
243
330
2
100
AcDbEntity
  8
GAIKEI
  6
Continuous
 62
     1
100
AcDbLine
 10
-10.57334316171511
 20
10.60242847734901
 30
0.0
 11
-10.57370656171508
 21
10.60306987734896
 31
0.0
  0
LINE
  5
244
330
2
100
AcDbEntity
  8
GAIKEI
  6
Continuous
 62
     1
100
AcDbLine
 10
-10.57370656171508
 20
10.60306987734896
 30
0.0
 11
-10.5740701617151
 21
10.60371447734905
 31
0.0
  0
LINE
  5
245
330
2
100
AcDbEntity
  8
GAIKEI
  6
Continuous
 62
     1
100
AcDbLine
 10
-10.5740701617151
 20
10.60371447734905
 30
0.0
 11
-10.57443256171507
 21
10.604359877349
 31
0.0
  0
LINE
  5
246
330
2
100
AcDbEntity
  8
GAIKEI
  6
Continuous
 62
     1
100
AcDbLine
 10
-10.57443256171507
 20
10.604359877349
 30
0.0
 11
-10.57479616171502
 21
10.60500947734897
 31
0.0
  0
LINE
  5
247
330
2
100
AcDbEntity
  8
GAIKEI
  6
Continuous
 62
     1
100
AcDbLine
 10
-10.57479616171502
 20
10.60500947734897
 30
0.0
 11
-10.57515856171505
 21
10.60565987734901
 31
0.0
  0
LINE
  5
248
330
2
100
AcDbEntity
  8
GAIKEI
  6
Continuous
 62
     1
100
AcDbLine
 10
-10.57515856171505
 20
10.60565987734901
 30
0.0
 11
-10.57552316171507
 21
10.60631647734897
 31
0.0
  0
LINE
  5
249
330
2
100
AcDbEntity
  8
GAIKEI
  6
Continuous
 62
     1
100
AcDbLine
 10
-10.57552316171507
 20
10.60631647734897
 30
0.0
 11
-10.57588656171509
 21
10.60697387734899
 31
0.0
  0
LINE
  5
24A
330
2
100
AcDbEntity
  8
GAIKEI
  6
Continuous
 62
     1
100
AcDbLine
 10
-10.57588656171509
 20
10.60697387734899
 30
0.0
 11
-10.57625216171499
 21
10.60763747734904
 31
0.0
  0
LINE
  5
24B
330
2
100
AcDbEntity
  8
GAIKEI
  6
Continuous
 62
     1
100
AcDbLine
 10
-10.57625216171499
 20
10.60763747734904
 30
0.0
 11
-10.57661656171513
 21
10.60830187734905
 31
0.0
  0
LINE
  5
24C
330
2
100
AcDbEntity
  8
GAIKEI
  6
Continuous
 62
     1
100
AcDbLine
 10
-10.57661656171513
 20
10.60830187734905
 30
0.0
 11
-10.57698516171513
 21
10.60897447734908
 31
0.0
  0
LINE
  5
24D
330
2
100
AcDbEntity
  8
GAIKEI
  6
Continuous
 62
     1
100
AcDbLine
 10
-10.57698516171513
 20
10.60897447734908
 30
0.0
 11
-10.57735256171508
 21
10.60964787734906
 31
0.0
  0
LINE
  5
24E
330
2
100
AcDbEntity
  8
GAIKEI
  6
Continuous
 62
     1
100
AcDbLine
 10
-10.57735256171508
 20
10.60964787734906
 30
0.0
 11
-10.57772216171509
 21
10.61033047734906
 31
0.0
  0
LINE
  5
24F
330
2
100
AcDbEntity
  8
GAIKEI
  6
Continuous
 62
     1
100
AcDbLine
 10
-10.57772216171509
 20
10.61033047734906
 30
0.0
 11
-10.57809056171499
 21
10.61101387734902
 31
0.0
  0
LINE
  5
250
330
2
100
AcDbEntity
  8
GAIKEI
  6
Continuous
 62
     1
100
AcDbLine
 10
-10.57809056171499
 20
10.61101387734902
 30
0.0
 11
-10.57846416171514
 21
10.611706477349
 31
0.0
  0
LINE
  5
251
330
2
100
AcDbEntity
  8
GAIKEI
  6
Continuous
 62
     1
100
AcDbLine
 10
-10.57846416171514
 20
10.611706477349
 30
0.0
 11
-10.57883656171509
 21
10.61239987734905
 31
0.0
  0
LINE
  5
252
330
2
100
AcDbEntity
  8
GAIKEI
  6
Continuous
 62
     1
100
AcDbLine
 10
-10.57883656171509
 20
10.61239987734905
 30
0.0
 11
-10.57921316171507
 21
10.61310547734899
 31
0.0
  0
LINE
  5
253
330
2
100
AcDbEntity
  8
GAIKEI
  6
Continuous
 62
     1
100
AcDbLine
 10
-10.57921316171507
 20
10.61310547734899
 30
0.0
 11
-10.57958856171507
 21
10.61381187734901
 31
0.0
  0
LINE
  5
254
330
2
100
AcDbEntity
  8
GAIKEI
  6
Continuous
 62
     1
100
AcDbLine
 10
-10.57958856171507
 20
10.61381187734901
 30
0.0
 11
-10.57997016171509
 21
10.61452947734903
 31
0.0
  0
LINE
  5
255
330
2
100
AcDbEntity
  8
GAIKEI
  6
Continuous
 62
     1
100
AcDbLine
 10
-10.57997016171509
 20
10.61452947734903
 30
0.0
 11
-10.58035056171502
 21
10.61524787734902
 31
0.0
  0
LINE
  5
256
330
2
100
AcDbEntity
  8
GAIKEI
  6
Continuous
 62
     1
100
AcDbLine
 10
-10.58035056171502
 20
10.61524787734902
 30
0.0
 11
-10.58073716171509
 21
10.61597947734901
 31
0.0
  0
LINE
  5
257
330
2
100
AcDbEntity
  8
GAIKEI
  6
Continuous
 62
     1
100
AcDbLine
 10
-10.58073716171509
 20
10.61597947734901
 30
0.0
 11
-10.58112256171506
 21
10.61671187734907
 31
0.0
  0
LINE
  5
258
330
2
100
AcDbEntity
  8
GAIKEI
  6
Continuous
 62
     1
100
AcDbLine
 10
-10.58112256171506
 20
10.61671187734907
 30
0.0
 11
-10.58151416171506
 21
10.61745947734903
 31
0.0
  0
LINE
  5
259
330
2
100
AcDbEntity
  8
GAIKEI
  6
Continuous
 62
     1
100
AcDbLine
 10
-10.58151416171506
 20
10.61745947734903
 30
0.0
 11
-10.58190456171508
 21
10.61820787734905
 31
0.0
  0
LINE
  5
25A
330
2
100
AcDbEntity
  8
GAIKEI
  6
Continuous
 62
     1
100
AcDbLine
 10
-10.58190456171508
 20
10.61820787734905
 30
0.0
 11
-10.58230296171507
 21
10.61897167734901
 31
0.0
  0
LINE
  5
25B
330
2
100
AcDbEntity
  8
GAIKEI
  6
Continuous
 62
     1
100
AcDbLine
 10
-10.58230296171507
 20
10.61897167734901
 30
0.0
 11
-10.58270056171511
 21
10.61973587734906
 31
0.0
  0
LINE
  5
25C
330
2
100
AcDbEntity
  8
GAIKEI
  6
Continuous
 62
     1
100
AcDbLine
 10
-10.58270056171511
 20
10.61973587734906
 30
0.0
 11
-10.58310496171509
 21
10.62051667734897
 31
0.0
  0
LINE
  5
25D
330
2
100
AcDbEntity
  8
GAIKEI
  6
Continuous
 62
     1
100
AcDbLine
 10
-10.58310496171509
 20
10.62051667734897
 30
0.0
 11
-10.58350856171512
 21
10.62129787734909
 31
0.0
  0
LINE
  5
25E
330
2
100
AcDbEntity
  8
GAIKEI
  6
Continuous
 62
     1
100
AcDbLine
 10
-10.58350856171512
 20
10.62129787734909
 30
0.0
 11
-10.58392096171508
 21
10.62209767734896
 31
0.0
  0
LINE
  5
25F
330
2
100
AcDbEntity
  8
GAIKEI
  6
Continuous
 62
     1
100
AcDbLine
 10
-10.58392096171508
 20
10.62209767734896
 30
0.0
 11
-10.58433256171508
 21
10.62289787734903
 31
0.0
  0
LINE
  5
260
330
2
100
AcDbEntity
  8
GAIKEI
  6
Continuous
 62
     1
100
AcDbLine
 10
-10.58433256171508
 20
10.62289787734903
 30
0.0
 11
-10.58475296171508
 21
10.62371667734908
 31
0.0
  0
LINE
  5
261
330
2
100
AcDbEntity
  8
GAIKEI
  6
Continuous
 62
     1
100
AcDbLine
 10
-10.58475296171508
 20
10.62371667734908
 30
0.0
 11
-10.58517256171507
 21
10.62453587734899
 31
0.0
  0
LINE
  5
262
330
2
100
AcDbEntity
  8
GAIKEI
  6
Continuous
 62
     1
100
AcDbLine
 10
-10.58517256171507
 20
10.62453587734899
 30
0.0
 11
-10.58560096171504
 21
10.62537667734898
 31
0.0
  0
LINE
  5
263
330
2
100
AcDbEntity
  8
GAIKEI
  6
Continuous
 62
     1
100
AcDbLine
 10
-10.58560096171504
 20
10.62537667734898
 30
0.0
 11
-10.58602856171512
 21
10.62621787734906
 31
0.0
  0
LINE
  5
264
330
2
100
AcDbEntity
  8
GAIKEI
  6
Continuous
 62
     1
100
AcDbLine
 10
-10.58602856171512
 20
10.62621787734906
 30
0.0
 11
-10.58646696171507
 21
10.627079677349
 31
0.0
  0
LINE
  5
265
330
2
100
AcDbEntity
  8
GAIKEI
  6
Continuous
 62
     1
100
AcDbLine
 10
-10.58646696171507
 20
10.627079677349
 30
0.0
 11
-10.58690456171507
 21
10.62794187734903
 31
0.0
  0
LINE
  5
266
330
2
100
AcDbEntity
  8
GAIKEI
  6
Continuous
 62
     1
100
AcDbLine
 10
-10.58690456171507
 20
10.62794187734903
 30
0.0
 11
-10.587351961715
 21
10.62882667734902
 31
0.0
  0
LINE
  5
267
330
2
100
AcDbEntity
  8
GAIKEI
  6
Continuous
 62
     1
100
AcDbLine
 10
-10.587351961715
 20
10.62882667734902
 30
0.0
 11
-10.58779856171503
 21
10.62971187734899
 31
0.0
  0
LINE
  5
268
330
2
100
AcDbEntity
  8
GAIKEI
  6
Continuous
 62
     1
100
AcDbLine
 10
-10.58779856171503
 20
10.62971187734899
 30
0.0
 11
-10.58825696171505
 21
10.63062067734904
 31
0.0
  0
LINE
  5
269
330
2
100
AcDbEntity
  8
GAIKEI
  6
Continuous
 62
     1
100
AcDbLine
 10
-10.58825696171505
 20
10.63062067734904
 30
0.0
 11
-10.58871456171499
 21
10.63152987734906
 31
0.0
  0
LINE
  5
26A
330
2
100
AcDbEntity
  8
GAIKEI
  6
Continuous
 62
     1
100
AcDbLine
 10
-10.58871456171499
 20
10.63152987734906
 30
0.0
 11
-10.58918396171509
 21
10.63246367734905
 31
0.0
  0
LINE
  5
26B
330
2
100
AcDbEntity
  8
GAIKEI
  6
Continuous
 62
     1
100
AcDbLine
 10
-10.58918396171509
 20
10.63246367734905
 30
0.0
 11
-10.58965256171507
 21
10.63339787734901
 31
0.0
  0
LINE
  5
26C
330
2
100
AcDbEntity
  8
GAIKEI
  6
Continuous
 62
     1
100
AcDbLine
 10
-10.58965256171507
 20
10.63339787734901
 30
0.0
 11
-10.59013396171502
 21
10.63435867734904
 31
0.0
  0
LINE
  5
26D
330
2
100
AcDbEntity
  8
GAIKEI
  6
Continuous
 62
     1
100
AcDbLine
 10
-10.59013396171502
 20
10.63435867734904
 30
0.0
 11
-10.59061456171503
 21
10.63531987734904
 31
0.0
  0
LINE
  5
26E
330
2
100
AcDbEntity
  8
GAIKEI
  6
Continuous
 62
     1
100
AcDbLine
 10
-10.59061456171503
 20
10.63531987734904
 30
0.0
 11
-10.59111176171507
 21
10.63631467734899
 31
0.0
  0
LINE
  5
26F
330
2
100
AcDbEntity
  8
GAIKEI
  6
Continuous
 62
     1
100
AcDbLine
 10
-10.59111176171507
 20
10.63631467734899
 30
0.0
 11
-10.59160856171502
 21
10.63730987734902
 31
0.0
  0
LINE
  5
270
330
2
100
AcDbEntity
  8
GAIKEI
  6
Continuous
 62
     1
100
AcDbLine
 10
-10.59160856171502
 20
10.63730987734902
 30
0.0
 11
-10.59265256171511
 21
10.63939587734899
 31
0.0
  0
LINE
  5
271
330
2
100
AcDbEntity
  8
GAIKEI
  6
Continuous
 62
     1
100
AcDbLine
 10
-10.59265256171511
 20
10.63939587734899
 30
0.0
 11
-10.59320716171504
 21
10.64050007734897
 31
0.0
  0
LINE
  5
272
330
2
100
AcDbEntity
  8
GAIKEI
  6
Continuous
 62
     1
100
AcDbLine
 10
-10.59320716171504
 20
10.64050007734897
 30
0.0
 11
-10.59376256171498
 21
10.64160387734898
 31
0.0
  0
LINE
  5
273
330
2
100
AcDbEntity
  8
GAIKEI
  6
Continuous
 62
     1
100
AcDbLine
 10
-10.59376256171498
 20
10.64160387734898
 30
0.0
 11
-10.59435196171506
 21
10.64277207734903
 31
0.0
  0
LINE
  5
274
330
2
100
AcDbEntity
  8
GAIKEI
  6
Continuous
 62
     1
100
AcDbLine
 10
-10.59435196171506
 20
10.64277207734903
 30
0.0
 11
-10.59494256171501
 21
10.643939877349
 31
0.0
  0
LINE
  5
275
330
2
100
AcDbEntity
  8
GAIKEI
  6
Continuous
 62
     1
100
AcDbLine
 10
-10.59494256171501
 20
10.643939877349
 30
0.0
 11
-10.59556776171501
 21
10.64517127734905
 31
0.0
  0
LINE
  5
276
330
2
100
AcDbEntity
  8
GAIKEI
  6
Continuous
 62
     1
100
AcDbLine
 10
-10.59556776171501
 20
10.64517127734905
 30
0.0
 11
-10.59619456171503
 21
10.64640187734903
 31
0.0
  0
LINE
  5
277
330
2
100
AcDbEntity
  8
GAIKEI
  6
Continuous
 62
     1
100
AcDbLine
 10
-10.59619456171503
 20
10.64640187734903
 30
0.0
 11
-10.59684396171508
 21
10.64767907734904
 31
0.0
  0
LINE
  5
278
330
2
100
AcDbEntity
  8
GAIKEI
  6
Continuous
 62
     1
100
AcDbLine
 10
-10.59684396171508
 20
10.64767907734904
 30
0.0
 11
-10.59749456171505
 21
10.64895587734906
 31
0.0
  0
LINE
  5
279
330
2
100
AcDbEntity
  8
GAIKEI
  6
Continuous
 62
     1
100
AcDbLine
 10
-10.59749456171505
 20
10.64895587734906
 30
0.0
 11
-10.5981677617151
 21
10.65027587734903
 31
0.0
  0
LINE
  5
27A
330
2
100
AcDbEntity
  8
GAIKEI
  6
Continuous
 62
     1
100
AcDbLine
 10
-10.5981677617151
 20
10.65027587734903
 30
0.0
 11
-10.59884056171506
 21
10.65159587734899
 31
0.0
  0
LINE
  5
27B
330
2
100
AcDbEntity
  8
GAIKEI
  6
Continuous
 62
     1
100
AcDbLine
 10
-10.59884056171506
 20
10.65159587734899
 30
0.0
 11
-10.59957456171514
 21
10.65301727734902
 31
0.0
  0
LINE
  5
27C
330
2
100
AcDbEntity
  8
GAIKEI
  6
Continuous
 62
     1
100
AcDbLine
 10
-10.59957456171514
 20
10.65301727734902
 30
0.0
 11
-10.6003105617151
 21
10.65443787734909
 31
0.0
  0
LINE
  5
27D
330
2
100
AcDbEntity
  8
GAIKEI
  6
Continuous
 62
     1
100
AcDbLine
 10
-10.6003105617151
 20
10.65443787734909
 30
0.0
 11
-10.60111976171504
 21
10.65598187734906
 31
0.0
  0
LINE
  5
27E
330
2
100
AcDbEntity
  8
GAIKEI
  6
Continuous
 62
     1
100
AcDbLine
 10
-10.60111976171504
 20
10.65598187734906
 30
0.0
 11
-10.60193656171503
 21
10.65752187734904
 31
0.0
  0
LINE
  5
27F
330
2
100
AcDbEntity
  8
GAIKEI
  6
Continuous
 62
     1
100
AcDbLine
 10
-10.60193656171503
 20
10.65752187734904
 30
0.0
 11
-10.60266556171507
 21
10.65894787734908
 31
0.0
  0
LINE
  5
280
330
2
100
AcDbEntity
  8
GAIKEI
  6
Continuous
 62
     1
100
AcDbLine
 10
-10.60266556171507
 20
10.65894787734908
 30
0.0
 11
-10.60339456171505
 21
10.660373877349
 31
0.0
  0
LINE
  5
281
330
2
100
AcDbEntity
  8
GAIKEI
  6
Continuous
 62
     1
100
AcDbLine
 10
-10.60339456171505
 20
10.660373877349
 30
0.0
 11
-10.60399956171511
 21
10.66161047734897
 31
0.0
  0
LINE
  5
282
330
2
100
AcDbEntity
  8
GAIKEI
  6
Continuous
 62
     1
100
AcDbLine
 10
-10.60399956171511
 20
10.66161047734897
 30
0.0
 11
-10.60458656171511
 21
10.66285587734899
 31
0.0
  0
LINE
  5
283
330
2
100
AcDbEntity
  8
GAIKEI
  6
Continuous
 62
     1
100
AcDbLine
 10
-10.60458656171511
 20
10.66285587734899
 30
0.0
 11
-10.60569716171505
 21
10.66487647734902
 31
0.0
  0
LINE
  5
284
330
2
100
AcDbEntity
  8
GAIKEI
  6
Continuous
 62
     1
100
AcDbLine
 10
-10.60569716171505
 20
10.66487647734902
 30
0.0
 11
-10.60682456171497
 21
10.66688787734904
 31
0.0
  0
LINE
  5
285
330
2
100
AcDbEntity
  8
GAIKEI
  6
Continuous
 62
     1
100
AcDbLine
 10
-10.60682456171497
 20
10.66688787734904
 30
0.0
 11
-10.60909416171506
 21
10.67073487734899
 31
0.0
  0
LINE
  5
286
330
2
100
AcDbEntity
  8
GAIKEI
  6
Continuous
 62
     1
100
AcDbLine
 10
-10.60909416171506
 20
10.67073487734899
 30
0.0
 11
-10.61149456171506
 21
10.67450187734903
 31
0.0
  0
LINE
  5
287
330
2
100
AcDbEntity
  8
GAIKEI
  6
Continuous
 62
     1
100
AcDbLine
 10
-10.61149456171506
 20
10.67450187734903
 30
0.0
 11
-10.61487556171505
 21
10.67991447734903
 31
0.0
  0
LINE
  5
288
330
2
100
AcDbEntity
  8
GAIKEI
  6
Continuous
 62
     1
100
AcDbLine
 10
-10.61487556171505
 20
10.67991447734903
 30
0.0
 11
-10.61831856171511
 21
10.68528787734897
 31
0.0
  0
ARC
  5
289
330
2
100
AcDbEntity
  8
GAIKEI
  6
Continuous
100
AcDbCircle
 10
-10.04821456171504
 20
9.071591877349021
 30
0.0
 40
0.06
100
AcDbArc
 50
270.0000000000002
 51
0.0000000000011775
  0
ARC
  5
28A
330
2
100
AcDbEntity
  8
GAIKEI
  6
Continuous
100
AcDbCircle
 10
-27.12821456171508
 20
9.071591877349021
 30
0.0
 40
0.06
100
AcDbArc
 50
179.9999999999988
 51
269.9999999999998
  0
LINE
  5
28B
330
2
100
AcDbEntity
  8
GAIKEI
  6
Continuous
 62
     1
100
AcDbLine
 10
-26.56155356171507
 20
10.67991447734903
 30
0.0
 11
-26.55811056171501
 21
10.68528787734897
 31
0.0
  0
LINE
  5
28C
330
2
100
AcDbEntity
  8
GAIKEI
  6
Continuous
 62
     1
100
AcDbLine
 10
-26.56493456171507
 20
10.67450187734903
 30
0.0
 11
-26.56155356171507
 21
10.67991447734903
 31
0.0
  0
LINE
  5
28D
330
2
100
AcDbEntity
  8
GAIKEI
  6
Continuous
 62
     1
100
AcDbLine
 10
-26.56733496171501
 20
10.67073487734899
 30
0.0
 11
-26.56493456171507
 21
10.67450187734903
 31
0.0
  0
LINE
  5
28E
330
2
100
AcDbEntity
  8
GAIKEI
  6
Continuous
 62
     1
100
AcDbLine
 10
-26.5696045617151
 20
10.66688787734904
 30
0.0
 11
-26.56733496171501
 21
10.67073487734899
 31
0.0
  0
LINE
  5
28F
330
2
100
AcDbEntity
  8
GAIKEI
  6
Continuous
 62
     1
100
AcDbLine
 10
-26.57073196171507
 20
10.66487647734902
 30
0.0
 11
-26.5696045617151
 21
10.66688787734904
 31
0.0
  0
LINE
  5
290
330
2
100
AcDbEntity
  8
GAIKEI
  6
Continuous
 62
     1
100
AcDbLine
 10
-26.57184256171502
 20
10.66285587734899
 30
0.0
 11
-26.57073196171507
 21
10.66487647734902
 31
0.0
  0
LINE
  5
291
330
2
100
AcDbEntity
  8
GAIKEI
  6
Continuous
 62
     1
100
AcDbLine
 10
-26.57242956171501
 20
10.66161047734897
 30
0.0
 11
-26.57184256171502
 21
10.66285587734899
 31
0.0
  0
LINE
  5
292
330
2
100
AcDbEntity
  8
GAIKEI
  6
Continuous
 62
     1
100
AcDbLine
 10
-26.57303456171508
 20
10.660373877349
 30
0.0
 11
-26.57242956171501
 21
10.66161047734897
 31
0.0
  0
LINE
  5
293
330
2
100
AcDbEntity
  8
GAIKEI
  6
Continuous
 62
     1
100
AcDbLine
 10
-26.57376356171506
 20
10.65894787734908
 30
0.0
 11
-26.57303456171508
 21
10.660373877349
 31
0.0
  0
LINE
  5
294
330
2
100
AcDbEntity
  8
GAIKEI
  6
Continuous
 62
     1
100
AcDbLine
 10
-26.57449256171503
 20
10.65752187734904
 30
0.0
 11
-26.57376356171506
 21
10.65894787734908
 31
0.0
  0
LINE
  5
295
330
2
100
AcDbEntity
  8
GAIKEI
  6
Continuous
 62
     1
100
AcDbLine
 10
-26.57530936171509
 20
10.65598187734906
 30
0.0
 11
-26.57449256171503
 21
10.65752187734904
 31
0.0
  0
LINE
  5
296
330
2
100
AcDbEntity
  8
GAIKEI
  6
Continuous
 62
     1
100
AcDbLine
 10
-26.57611856171502
 20
10.65443787734909
 30
0.0
 11
-26.57530936171509
 21
10.65598187734906
 31
0.0
  0
LINE
  5
297
330
2
100
AcDbEntity
  8
GAIKEI
  6
Continuous
 62
     1
100
AcDbLine
 10
-26.57685456171498
 20
10.65301727734902
 30
0.0
 11
-26.57611856171502
 21
10.65443787734909
 31
0.0
  0
LINE
  5
298
330
2
100
AcDbEntity
  8
GAIKEI
  6
Continuous
 62
     1
100
AcDbLine
 10
-26.57758856171506
 20
10.65159587734899
 30
0.0
 11
-26.57685456171498
 21
10.65301727734902
 31
0.0
  0
LINE
  5
299
330
2
100
AcDbEntity
  8
GAIKEI
  6
Continuous
 62
     1
100
AcDbLine
 10
-26.57826136171502
 20
10.65027587734903
 30
0.0
 11
-26.57758856171506
 21
10.65159587734899
 31
0.0
  0
LINE
  5
29A
330
2
100
AcDbEntity
  8
GAIKEI
  6
Continuous
 62
     1
100
AcDbLine
 10
-26.57893456171507
 20
10.64895587734906
 30
0.0
 11
-26.57826136171502
 21
10.65027587734903
 31
0.0
  0
LINE
  5
29B
330
2
100
AcDbEntity
  8
GAIKEI
  6
Continuous
 62
     1
100
AcDbLine
 10
-26.57958516171504
 20
10.64767907734904
 30
0.0
 11
-26.57893456171507
 21
10.64895587734906
 31
0.0
  0
LINE
  5
29C
330
2
100
AcDbEntity
  8
GAIKEI
  6
Continuous
 62
     1
100
AcDbLine
 10
-26.58023456171509
 20
10.64640187734903
 30
0.0
 11
-26.57958516171504
 21
10.64767907734904
 31
0.0
  0
LINE
  5
29D
330
2
100
AcDbEntity
  8
GAIKEI
  6
Continuous
 62
     1
100
AcDbLine
 10
-26.58086136171505
 20
10.64517127734905
 30
0.0
 11
-26.58023456171509
 21
10.64640187734903
 31
0.0
  0
LINE
  5
29E
330
2
100
AcDbEntity
  8
GAIKEI
  6
Continuous
 62
     1
100
AcDbLine
 10
-26.58148656171511
 20
10.643939877349
 30
0.0
 11
-26.58086136171505
 21
10.64517127734905
 31
0.0
  0
LINE
  5
29F
330
2
100
AcDbEntity
  8
GAIKEI
  6
Continuous
 62
     1
100
AcDbLine
 10
-26.58207716171501
 20
10.64277207734903
 30
0.0
 11
-26.58148656171511
 21
10.643939877349
 31
0.0
  0
LINE
  5
2A0
330
2
100
AcDbEntity
  8
GAIKEI
  6
Continuous
 62
     1
100
AcDbLine
 10
-26.58266656171509
 20
10.64160387734898
 30
0.0
 11
-26.58207716171501
 21
10.64277207734903
 31
0.0
  0
LINE
  5
2A1
330
2
100
AcDbEntity
  8
GAIKEI
  6
Continuous
 62
     1
100
AcDbLine
 10
-26.58322196171503
 20
10.64050007734897
 30
0.0
 11
-26.58266656171509
 21
10.64160387734898
 31
0.0
  0
LINE
  5
2A2
330
2
100
AcDbEntity
  8
GAIKEI
  6
Continuous
 62
     1
100
AcDbLine
 10
-26.58377656171501
 20
10.63939587734899
 30
0.0
 11
-26.58322196171503
 21
10.64050007734897
 31
0.0
  0
LINE
  5
2A3
330
2
100
AcDbEntity
  8
GAIKEI
  6
Continuous
 62
     1
100
AcDbLine
 10
-26.58482056171511
 20
10.63730987734902
 30
0.0
 11
-26.58377656171501
 21
10.63939587734899
 31
0.0
  0
LINE
  5
2A4
330
2
100
AcDbEntity
  8
GAIKEI
  6
Continuous
 62
     1
100
AcDbLine
 10
-26.58531736171506
 20
10.63631467734899
 30
0.0
 11
-26.58482056171511
 21
10.63730987734902
 31
0.0
  0
LINE
  5
2A5
330
2
100
AcDbEntity
  8
GAIKEI
  6
Continuous
 62
     1
100
AcDbLine
 10
-26.5858145617151
 20
10.63531987734904
 30
0.0
 11
-26.58531736171506
 21
10.63631467734899
 31
0.0
  0
LINE
  5
2A6
330
2
100
AcDbEntity
  8
GAIKEI
  6
Continuous
 62
     1
100
AcDbLine
 10
-26.58629516171505
 20
10.63435867734904
 30
0.0
 11
-26.5858145617151
 21
10.63531987734904
 31
0.0
  0
LINE
  5
2A7
330
2
100
AcDbEntity
  8
GAIKEI
  6
Continuous
 62
     1
100
AcDbLine
 10
-26.58677656171505
 20
10.63339787734901
 30
0.0
 11
-26.58629516171505
 21
10.63435867734904
 31
0.0
  0
LINE
  5
2A8
330
2
100
AcDbEntity
  8
GAIKEI
  6
Continuous
 62
     1
100
AcDbLine
 10
-26.58724516171503
 20
10.63246367734905
 30
0.0
 11
-26.58677656171505
 21
10.63339787734901
 31
0.0
  0
LINE
  5
2A9
330
2
100
AcDbEntity
  8
GAIKEI
  6
Continuous
 62
     1
100
AcDbLine
 10
-26.58771456171507
 20
10.63152987734906
 30
0.0
 11
-26.58724516171503
 21
10.63246367734905
 31
0.0
  0
LINE
  5
2AA
330
2
100
AcDbEntity
  8
GAIKEI
  6
Continuous
 62
     1
100
AcDbLine
 10
-26.58817216171508
 20
10.63062067734904
 30
0.0
 11
-26.58771456171507
 21
10.63152987734906
 31
0.0
  0
LINE
  5
2AB
330
2
100
AcDbEntity
  8
GAIKEI
  6
Continuous
 62
     1
100
AcDbLine
 10
-26.58863056171504
 20
10.62971187734899
 30
0.0
 11
-26.58817216171508
 21
10.63062067734904
 31
0.0
  0
LINE
  5
2AC
330
2
100
AcDbEntity
  8
GAIKEI
  6
Continuous
 62
     1
100
AcDbLine
 10
-26.58907716171507
 20
10.62882667734902
 30
0.0
 11
-26.58863056171504
 21
10.62971187734899
 31
0.0
  0
LINE
  5
2AD
330
2
100
AcDbEntity
  8
GAIKEI
  6
Continuous
 62
     1
100
AcDbLine
 10
-26.58952456171505
 20
10.62794187734903
 30
0.0
 11
-26.58907716171507
 21
10.62882667734902
 31
0.0
  0
LINE
  5
2AE
330
2
100
AcDbEntity
  8
GAIKEI
  6
Continuous
 62
     1
100
AcDbLine
 10
-26.58996216171499
 20
10.627079677349
 30
0.0
 11
-26.58952456171505
 21
10.62794187734903
 31
0.0
  0
LINE
  5
2AF
330
2
100
AcDbEntity
  8
GAIKEI
  6
Continuous
 62
     1
100
AcDbLine
 10
-26.590400561715
 20
10.62621787734906
 30
0.0
 11
-26.58996216171499
 21
10.627079677349
 31
0.0
  0
LINE
  5
2B0
330
2
100
AcDbEntity
  8
GAIKEI
  6
Continuous
 62
     1
100
AcDbLine
 10
-26.59082816171508
 20
10.62537667734898
 30
0.0
 11
-26.590400561715
 21
10.62621787734906
 31
0.0
  0
LINE
  5
2B1
330
2
100
AcDbEntity
  8
GAIKEI
  6
Continuous
 62
     1
100
AcDbLine
 10
-26.591256561715
 20
10.62453587734899
 30
0.0
 11
-26.59082816171508
 21
10.62537667734898
 31
0.0
  0
LINE
  5
2B2
330
2
100
AcDbEntity
  8
GAIKEI
  6
Continuous
 62
     1
100
AcDbLine
 10
-26.59167616171499
 20
10.62371667734908
 30
0.0
 11
-26.591256561715
 21
10.62453587734899
 31
0.0
  0
LINE
  5
2B3
330
2
100
AcDbEntity
  8
GAIKEI
  6
Continuous
 62
     1
100
AcDbLine
 10
-26.59209656171504
 20
10.62289787734903
 30
0.0
 11
-26.59167616171499
 21
10.62371667734908
 31
0.0
  0
LINE
  5
2B4
330
2
100
AcDbEntity
  8
GAIKEI
  6
Continuous
 62
     1
100
AcDbLine
 10
-26.59250816171505
 20
10.62209767734896
 30
0.0
 11
-26.59209656171504
 21
10.62289787734903
 31
0.0
  0
LINE
  5
2B5
330
2
100
AcDbEntity
  8
GAIKEI
  6
Continuous
 62
     1
100
AcDbLine
 10
-26.592920561715
 20
10.62129787734909
 30
0.0
 11
-26.59250816171505
 21
10.62209767734896
 31
0.0
  0
LINE
  5
2B6
330
2
100
AcDbEntity
  8
GAIKEI
  6
Continuous
 62
     1
100
AcDbLine
 10
-26.59332416171503
 20
10.62051667734897
 30
0.0
 11
-26.592920561715
 21
10.62129787734909
 31
0.0
  0
LINE
  5
2B7
330
2
100
AcDbEntity
  8
GAIKEI
  6
Continuous
 62
     1
100
AcDbLine
 10
-26.59372856171501
 20
10.61973587734906
 30
0.0
 11
-26.59332416171503
 21
10.62051667734897
 31
0.0
  0
LINE
  5
2B8
330
2
100
AcDbEntity
  8
GAIKEI
  6
Continuous
 62
     1
100
AcDbLine
 10
-26.59412616171505
 20
10.61897167734901
 30
0.0
 11
-26.59372856171501
 21
10.61973587734906
 31
0.0
  0
LINE
  5
2B9
330
2
100
AcDbEntity
  8
GAIKEI
  6
Continuous
 62
     1
100
AcDbLine
 10
-26.59452456171505
 20
10.61820787734905
 30
0.0
 11
-26.59412616171505
 21
10.61897167734901
 31
0.0
  0
LINE
  5
2BA
330
2
100
AcDbEntity
  8
GAIKEI
  6
Continuous
 62
     1
100
AcDbLine
 10
-26.59491496171507
 20
10.61745947734903
 30
0.0
 11
-26.59452456171505
 21
10.61820787734905
 31
0.0
  0
LINE
  5
2BB
330
2
100
AcDbEntity
  8
GAIKEI
  6
Continuous
 62
     1
100
AcDbLine
 10
-26.59530656171501
 20
10.61671187734907
 30
0.0
 11
-26.59491496171507
 21
10.61745947734903
 31
0.0
  0
LINE
  5
2BC
330
2
100
AcDbEntity
  8
GAIKEI
  6
Continuous
 62
     1
100
AcDbLine
 10
-26.59569196171503
 20
10.61597947734901
 30
0.0
 11
-26.59530656171501
 21
10.61671187734907
 31
0.0
  0
LINE
  5
2BD
330
2
100
AcDbEntity
  8
GAIKEI
  6
Continuous
 62
     1
100
AcDbLine
 10
-26.5960785617151
 20
10.61524787734902
 30
0.0
 11
-26.59569196171503
 21
10.61597947734901
 31
0.0
  0
LINE
  5
2BE
330
2
100
AcDbEntity
  8
GAIKEI
  6
Continuous
 62
     1
100
AcDbLine
 10
-26.59645896171503
 20
10.61452947734903
 30
0.0
 11
-26.5960785617151
 21
10.61524787734902
 31
0.0
  0
LINE
  5
2BF
330
2
100
AcDbEntity
  8
GAIKEI
  6
Continuous
 62
     1
100
AcDbLine
 10
-26.596840561715
 20
10.61381187734901
 30
0.0
 11
-26.59645896171503
 21
10.61452947734903
 31
0.0
  0
LINE
  5
2C0
330
2
100
AcDbEntity
  8
GAIKEI
  6
Continuous
 62
     1
100
AcDbLine
 10
-26.59721596171505
 20
10.61310547734899
 30
0.0
 11
-26.596840561715
 21
10.61381187734901
 31
0.0
  0
LINE
  5
2C1
330
2
100
AcDbEntity
  8
GAIKEI
  6
Continuous
 62
     1
100
AcDbLine
 10
-26.59759256171503
 20
10.61239987734905
 30
0.0
 11
-26.59721596171505
 21
10.61310547734899
 31
0.0
  0
LINE
  5
2C2
330
2
100
AcDbEntity
  8
GAIKEI
  6
Continuous
 62
     1
100
AcDbLine
 10
-26.59796496171498
 20
10.611706477349
 30
0.0
 11
-26.59759256171503
 21
10.61239987734905
 31
0.0
  0
LINE
  5
2C3
330
2
100
AcDbEntity
  8
GAIKEI
  6
Continuous
 62
     1
100
AcDbLine
 10
-26.59833856171508
 20
10.61101387734902
 30
0.0
 11
-26.59796496171498
 21
10.611706477349
 31
0.0
  0
LINE
  5
2C4
330
2
100
AcDbEntity
  8
GAIKEI
  6
Continuous
 62
     1
100
AcDbLine
 10
-26.59870696171504
 20
10.61033047734906
 30
0.0
 11
-26.59833856171508
 21
10.61101387734902
 31
0.0
  0
LINE
  5
2C5
330
2
100
AcDbEntity
  8
GAIKEI
  6
Continuous
 62
     1
100
AcDbLine
 10
-26.59907656171504
 20
10.60964787734906
 30
0.0
 11
-26.59870696171504
 21
10.61033047734906
 31
0.0
  0
LINE
  5
2C6
330
2
100
AcDbEntity
  8
GAIKEI
  6
Continuous
 62
     1
100
AcDbLine
 10
-26.599443961715
 20
10.60897447734908
 30
0.0
 11
-26.59907656171504
 21
10.60964787734906
 31
0.0
  0
LINE
  5
2C7
330
2
100
AcDbEntity
  8
GAIKEI
  6
Continuous
 62
     1
100
AcDbLine
 10
-26.599812561715
 20
10.60830187734905
 30
0.0
 11
-26.599443961715
 21
10.60897447734908
 31
0.0
  0
LINE
  5
2C8
330
2
100
AcDbEntity
  8
GAIKEI
  6
Continuous
 62
     1
100
AcDbLine
 10
-26.60017696171508
 20
10.60763747734904
 30
0.0
 11
-26.599812561715
 21
10.60830187734905
 31
0.0
  0
LINE
  5
2C9
330
2
100
AcDbEntity
  8
GAIKEI
  6
Continuous
 62
     1
100
AcDbLine
 10
-26.60054256171497
 20
10.60697387734899
 30
0.0
 11
-26.60017696171508
 21
10.60763747734904
 31
0.0
  0
LINE
  5
2CA
330
2
100
AcDbEntity
  8
GAIKEI
  6
Continuous
 62
     1
100
AcDbLine
 10
-26.60090596171506
 20
10.60631647734897
 30
0.0
 11
-26.60054256171497
 21
10.60697387734899
 31
0.0
  0
LINE
  5
2CB
330
2
100
AcDbEntity
  8
GAIKEI
  6
Continuous
 62
     1
100
AcDbLine
 10
-26.60127056171507
 20
10.60565987734901
 30
0.0
 11
-26.60090596171506
 21
10.60631647734897
 31
0.0
  0
LINE
  5
2CC
330
2
100
AcDbEntity
  8
GAIKEI
  6
Continuous
 62
     1
100
AcDbLine
 10
-26.60163296171504
 20
10.60500947734897
 30
0.0
 11
-26.60127056171507
 21
10.60565987734901
 31
0.0
  0
LINE
  5
2CD
330
2
100
AcDbEntity
  8
GAIKEI
  6
Continuous
 62
     1
100
AcDbLine
 10
-26.60199656171505
 20
10.604359877349
 30
0.0
 11
-26.60163296171504
 21
10.60500947734897
 31
0.0
  0
LINE
  5
2CE
330
2
100
AcDbEntity
  8
GAIKEI
  6
Continuous
 62
     1
100
AcDbLine
 10
-26.60235896171503
 20
10.60371447734905
 30
0.0
 11
-26.60199656171505
 21
10.604359877349
 31
0.0
  0
LINE
  5
2CF
330
2
100
AcDbEntity
  8
GAIKEI
  6
Continuous
 62
     1
100
AcDbLine
 10
-26.60272256171504
 20
10.60306987734896
 30
0.0
 11
-26.60235896171503
 21
10.60371447734905
 31
0.0
  0
LINE
  5
2D0
330
2
100
AcDbEntity
  8
GAIKEI
  6
Continuous
 62
     1
100
AcDbLine
 10
-26.60308596171501
 20
10.60242847734901
 30
0.0
 11
-26.60272256171504
 21
10.60306987734896
 31
0.0
  0
LINE
  5
2D1
330
2
100
AcDbEntity
  8
GAIKEI
  6
Continuous
 62
     1
100
AcDbLine
 10
-26.60345056171502
 20
10.60178787734901
 30
0.0
 11
-26.60308596171501
 21
10.60242847734901
 31
0.0
  0
LINE
  5
2D2
330
2
100
AcDbEntity
  8
GAIKEI
  6
Continuous
 62
     1
100
AcDbLine
 10
-26.60381496171499
 20
10.60114947734905
 30
0.0
 11
-26.60345056171502
 21
10.60178787734901
 31
0.0
  0
LINE
  5
2D3
330
2
100
AcDbEntity
  8
GAIKEI
  6
Continuous
 62
     1
100
AcDbLine
 10
-26.60418056171511
 20
10.60051187734905
 30
0.0
 11
-26.60381496171499
 21
10.60114947734905
 31
0.0
  0
LINE
  5
2D4
330
2
100
AcDbEntity
  8
GAIKEI
  6
Continuous
 62
     1
100
AcDbLine
 10
-26.60454616171501
 20
10.59987547734897
 30
0.0
 11
-26.60418056171511
 21
10.60051187734905
 31
0.0
  0
LINE
  5
2D5
330
2
100
AcDbEntity
  8
GAIKEI
  6
Continuous
 62
     1
100
AcDbLine
 10
-26.60491256171508
 20
10.59923987734908
 30
0.0
 11
-26.60454616171501
 21
10.59987547734897
 31
0.0
  0
LINE
  5
2D6
330
2
100
AcDbEntity
  8
GAIKEI
  6
Continuous
 62
     1
100
AcDbLine
 10
-26.60527916171509
 20
10.59860647734899
 30
0.0
 11
-26.60491256171508
 21
10.59923987734908
 31
0.0
  0
LINE
  5
2D7
330
2
100
AcDbEntity
  8
GAIKEI
  6
Continuous
 62
     1
100
AcDbLine
 10
-26.60564656171505
 20
10.59797387734909
 30
0.0
 11
-26.60527916171509
 21
10.59860647734899
 31
0.0
  0
LINE
  5
2D8
330
2
100
AcDbEntity
  8
GAIKEI
  6
Continuous
 62
     1
100
AcDbLine
 10
-26.60601416171505
 20
10.59734467734904
 30
0.0
 11
-26.60564656171505
 21
10.59797387734909
 31
0.0
  0
LINE
  5
2D9
330
2
100
AcDbEntity
  8
GAIKEI
  6
Continuous
 62
     1
100
AcDbLine
 10
-26.60638256171501
 20
10.59671587734908
 30
0.0
 11
-26.60601416171505
 21
10.59734467734904
 31
0.0
  0
LINE
  5
2DA
330
2
100
AcDbEntity
  8
GAIKEI
  6
Continuous
 62
     1
100
AcDbLine
 10
-26.60674916171501
 20
10.59609047734909
 30
0.0
 11
-26.60638256171501
 21
10.59671587734908
 31
0.0
  0
LINE
  5
2DB
330
2
100
AcDbEntity
  8
GAIKEI
  6
Continuous
 62
     1
100
AcDbLine
 10
-26.60711656171509
 20
10.59546587734905
 30
0.0
 11
-26.60674916171501
 21
10.59609047734909
 31
0.0
  0
LINE
  5
2DC
330
2
100
AcDbEntity
  8
GAIKEI
  6
Continuous
 62
     1
100
AcDbLine
 10
-26.6074841617151
 20
10.59484347734906
 30
0.0
 11
-26.60711656171509
 21
10.59546587734905
 31
0.0
  0
LINE
  5
2DD
330
2
100
AcDbEntity
  8
GAIKEI
  6
Continuous
 62
     1
100
AcDbLine
 10
-26.60785256171505
 20
10.59422187734901
 30
0.0
 11
-26.6074841617151
 21
10.59484347734906
 31
0.0
  0
LINE
  5
2DE
330
2
100
AcDbEntity
  8
GAIKEI
  6
Continuous
 62
     1
100
AcDbLine
 10
-26.60821916171506
 20
10.593604477349
 30
0.0
 11
-26.60785256171505
 21
10.59422187734901
 31
0.0
  0
LINE
  5
2DF
330
2
100
AcDbEntity
  8
GAIKEI
  6
Continuous
 62
     1
100
AcDbLine
 10
-26.60858656171502
 20
10.59298787734906
 30
0.0
 11
-26.60821916171506
 21
10.593604477349
 31
0.0
  0
LINE
  5
2E0
330
2
100
AcDbEntity
  8
GAIKEI
  6
Continuous
 62
     1
100
AcDbLine
 10
-26.60895416171502
 20
10.59237347734904
 30
0.0
 11
-26.60858656171502
 21
10.59298787734906
 31
0.0
  0
LINE
  5
2E1
330
2
100
AcDbEntity
  8
GAIKEI
  6
Continuous
 62
     1
100
AcDbLine
 10
-26.60932256171509
 20
10.59175987734898
 30
0.0
 11
-26.60895416171502
 21
10.59237347734904
 31
0.0
  0
LINE
  5
2E2
330
2
100
AcDbEntity
  8
GAIKEI
  6
Continuous
 62
     1
100
AcDbLine
 10
-26.60969016171498
 20
10.59114947734906
 30
0.0
 11
-26.60932256171509
 21
10.59175987734898
 31
0.0
  0
LINE
  5
2E3
330
2
100
AcDbEntity
  8
GAIKEI
  6
Continuous
 62
     1
100
AcDbLine
 10
-26.61005856171505
 20
10.59053987734899
 30
0.0
 11
-26.60969016171498
 21
10.59114947734906
 31
0.0
  0
LINE
  5
2E4
330
2
100
AcDbEntity
  8
GAIKEI
  6
Continuous
 62
     1
100
AcDbLine
 10
-26.61042616171505
 20
10.58993347734906
 30
0.0
 11
-26.61005856171505
 21
10.59053987734899
 31
0.0
  0
LINE
  5
2E5
330
2
100
AcDbEntity
  8
GAIKEI
  6
Continuous
 62
     1
100
AcDbLine
 10
-26.61079456171501
 20
10.58932787734909
 30
0.0
 11
-26.61042616171505
 21
10.58993347734906
 31
0.0
  0
LINE
  5
2E6
330
2
100
AcDbEntity
  8
GAIKEI
  6
Continuous
 62
     1
100
AcDbLine
 10
-26.61116116171502
 20
10.58872547734904
 30
0.0
 11
-26.61079456171501
 21
10.58932787734909
 31
0.0
  0
LINE
  5
2E7
330
2
100
AcDbEntity
  8
GAIKEI
  6
Continuous
 62
     1
100
AcDbLine
 10
-26.61152856171498
 20
10.58812387734906
 30
0.0
 11
-26.61116116171502
 21
10.58872547734904
 31
0.0
  0
LINE
  5
2E8
330
2
100
AcDbEntity
  8
GAIKEI
  6
Continuous
 62
     1
100
AcDbLine
 10
-26.6118961617151
 20
10.587525477349
 30
0.0
 11
-26.61152856171498
 21
10.58812387734906
 31
0.0
  0
LINE
  5
2E9
330
2
100
AcDbEntity
  8
GAIKEI
  6
Continuous
 62
     1
100
AcDbLine
 10
-26.61226456171505
 20
10.58692787734901
 30
0.0
 11
-26.6118961617151
 21
10.587525477349
 31
0.0
  0
LINE
  5
2EA
330
2
100
AcDbEntity
  8
GAIKEI
  6
Continuous
 62
     1
100
AcDbLine
 10
-26.61263216171505
 20
10.58633347734906
 30
0.0
 11
-26.61226456171505
 21
10.58692787734901
 31
0.0
  0
LINE
  5
2EB
330
2
100
AcDbEntity
  8
GAIKEI
  6
Continuous
 62
     1
100
AcDbLine
 10
-26.61300056171501
 20
10.58573987734905
 30
0.0
 11
-26.61263216171505
 21
10.58633347734906
 31
0.0
  0
LINE
  5
2EC
330
2
100
AcDbEntity
  8
GAIKEI
  6
Continuous
 62
     1
100
AcDbLine
 10
-26.61336816171502
 20
10.58514947734909
 30
0.0
 11
-26.61300056171501
 21
10.58573987734905
 31
0.0
  0
LINE
  5
2ED
330
2
100
AcDbEntity
  8
GAIKEI
  6
Continuous
 62
     1
100
AcDbLine
 10
-26.61373656171509
 20
10.58455987734908
 30
0.0
 11
-26.61336816171502
 21
10.58514947734909
 31
0.0
  0
LINE
  5
2EE
330
2
100
AcDbEntity
  8
GAIKEI
  6
Continuous
 62
     1
100
AcDbLine
 10
-26.61410416171498
 20
10.58397247734899
 30
0.0
 11
-26.61373656171509
 21
10.58455987734908
 31
0.0
  0
LINE
  5
2EF
330
2
100
AcDbEntity
  8
GAIKEI
  6
Continuous
 62
     1
100
AcDbLine
 10
-26.61447256171505
 20
10.58338587734908
 30
0.0
 11
-26.61410416171498
 21
10.58397247734899
 31
0.0
  0
LINE
  5
2F0
330
2
100
AcDbEntity
  8
GAIKEI
  6
Continuous
 62
     1
100
AcDbLine
 10
-26.61484016171505
 20
10.58280347734899
 30
0.0
 11
-26.61447256171505
 21
10.58338587734908
 31
0.0
  0
LINE
  5
2F1
330
2
100
AcDbEntity
  8
GAIKEI
  6
Continuous
 62
     1
100
AcDbLine
 10
-26.61520856171501
 20
10.58222187734907
 30
0.0
 11
-26.61484016171505
 21
10.58280347734899
 31
0.0
  0
LINE
  5
2F2
330
2
100
AcDbEntity
  8
GAIKEI
  6
Continuous
 62
     1
100
AcDbLine
 10
-26.61557616171501
 20
10.58164247734896
 30
0.0
 11
-26.61520856171501
 21
10.58222187734907
 31
0.0
  0
LINE
  5
2F3
330
2
100
AcDbEntity
  8
GAIKEI
  6
Continuous
 62
     1
100
AcDbLine
 10
-26.61594456171509
 20
10.58106387734904
 30
0.0
 11
-26.61557616171501
 21
10.58164247734896
 31
0.0
  0
LINE
  5
2F4
330
2
100
AcDbEntity
  8
GAIKEI
  6
Continuous
 62
     1
100
AcDbLine
 10
-26.61631216171509
 20
10.58048947734903
 30
0.0
 11
-26.61594456171509
 21
10.58106387734904
 31
0.0
  0
LINE
  5
2F5
330
2
100
AcDbEntity
  8
GAIKEI
  6
Continuous
 62
     1
100
AcDbLine
 10
-26.61668056171504
 20
10.57991587734898
 30
0.0
 11
-26.61631216171509
 21
10.58048947734903
 31
0.0
  0
LINE
  5
2F6
330
2
100
AcDbEntity
  8
GAIKEI
  6
Continuous
 62
     1
100
AcDbLine
 10
-26.61704716171505
 20
10.57934447734908
 30
0.0
 11
-26.61668056171504
 21
10.57991587734898
 31
0.0
  0
LINE
  5
2F7
330
2
100
AcDbEntity
  8
GAIKEI
  6
Continuous
 62
     1
100
AcDbLine
 10
-26.61741456171501
 20
10.57877387734902
 30
0.0
 11
-26.61704716171505
 21
10.57934447734908
 31
0.0
  0
LINE
  5
2F8
330
2
100
AcDbEntity
  8
GAIKEI
  6
Continuous
 62
     1
100
AcDbLine
 10
-26.61778216171502
 20
10.578206477349
 30
0.0
 11
-26.61741456171501
 21
10.57877387734902
 31
0.0
  0
LINE
  5
2F9
330
2
100
AcDbEntity
  8
GAIKEI
  6
Continuous
 62
     1
100
AcDbLine
 10
-26.61815056171509
 20
10.57763987734904
 30
0.0
 11
-26.61778216171502
 21
10.578206477349
 31
0.0
  0
LINE
  5
2FA
330
2
100
AcDbEntity
  8
GAIKEI
  6
Continuous
 62
     1
100
AcDbLine
 10
-26.61851816171497
 20
10.57707647734901
 30
0.0
 11
-26.61815056171509
 21
10.57763987734904
 31
0.0
  0
LINE
  5
2FB
330
2
100
AcDbEntity
  8
GAIKEI
  6
Continuous
 62
     1
100
AcDbLine
 10
-26.61888656171504
 20
10.57651387734904
 30
0.0
 11
-26.61851816171497
 21
10.57707647734901
 31
0.0
  0
LINE
  5
2FC
330
2
100
AcDbEntity
  8
GAIKEI
  6
Continuous
 62
     1
100
AcDbLine
 10
-26.61925416171505
 20
10.575954477349
 30
0.0
 11
-26.61888656171504
 21
10.57651387734904
 31
0.0
  0
LINE
  5
2FD
330
2
100
AcDbEntity
  8
GAIKEI
  6
Continuous
 62
     1
100
AcDbLine
 10
-26.61962256171501
 20
10.57539587734902
 30
0.0
 11
-26.61925416171505
 21
10.575954477349
 31
0.0
  0
LINE
  5
2FE
330
2
100
AcDbEntity
  8
GAIKEI
  6
Continuous
 62
     1
100
AcDbLine
 10
-26.61999016171501
 20
10.57484047734908
 30
0.0
 11
-26.61962256171501
 21
10.57539587734902
 31
0.0
  0
LINE
  5
2FF
330
2
100
AcDbEntity
  8
GAIKEI
  6
Continuous
 62
     1
100
AcDbLine
 10
-26.62035856171508
 20
10.57428587734898
 30
0.0
 11
-26.61999016171501
 21
10.57484047734908
 31
0.0
  0
LINE
  5
300
330
2
100
AcDbEntity
  8
GAIKEI
  6
Continuous
 62
     1
100
AcDbLine
 10
-26.62072616171509
 20
10.57373447734903
 30
0.0
 11
-26.62035856171508
 21
10.57428587734898
 31
0.0
  0
LINE
  5
301
330
2
100
AcDbEntity
  8
GAIKEI
  6
Continuous
 62
     1
100
AcDbLine
 10
-26.62109456171504
 20
10.57318387734904
 30
0.0
 11
-26.62072616171509
 21
10.57373447734903
 31
0.0
  0
LINE
  5
302
330
2
100
AcDbEntity
  8
GAIKEI
  6
Continuous
 62
     1
100
AcDbLine
 10
-26.62146116171505
 20
10.57263647734896
 30
0.0
 11
-26.62109456171504
 21
10.57318387734904
 31
0.0
  0
LINE
  5
303
330
2
100
AcDbEntity
  8
GAIKEI
  6
Continuous
 62
     1
100
AcDbLine
 10
-26.62182856171501
 20
10.57208987734896
 30
0.0
 11
-26.62146116171505
 21
10.57263647734896
 31
0.0
  0
LINE
  5
304
330
2
100
AcDbEntity
  8
GAIKEI
  6
Continuous
 62
     1
100
AcDbLine
 10
-26.62219616171501
 20
10.57154647734899
 30
0.0
 11
-26.62182856171501
 21
10.57208987734896
 31
0.0
  0
LINE
  5
305
330
2
100
AcDbEntity
  8
GAIKEI
  6
Continuous
 62
     1
100
AcDbLine
 10
-26.62256456171508
 20
10.57100387734897
 30
0.0
 11
-26.62219616171501
 21
10.57154647734899
 31
0.0
  0
LINE
  5
306
330
2
100
AcDbEntity
  8
GAIKEI
  6
Continuous
 62
     1
100
AcDbLine
 10
-26.62293216171509
 20
10.57046447734899
 30
0.0
 11
-26.62256456171508
 21
10.57100387734897
 31
0.0
  0
LINE
  5
307
330
2
100
AcDbEntity
  8
GAIKEI
  6
Continuous
 62
     1
100
AcDbLine
 10
-26.62330056171504
 20
10.56992587734896
 30
0.0
 11
-26.62293216171509
 21
10.57046447734899
 31
0.0
  0
LINE
  5
308
330
2
100
AcDbEntity
  8
GAIKEI
  6
Continuous
 62
     1
100
AcDbLine
 10
-26.62366716171505
 20
10.56939047734897
 30
0.0
 11
-26.62330056171504
 21
10.56992587734896
 31
0.0
  0
LINE
  5
309
330
2
100
AcDbEntity
  8
GAIKEI
  6
Continuous
 62
     1
100
AcDbLine
 10
-26.62403456171501
 20
10.56885587734905
 30
0.0
 11
-26.62366716171505
 21
10.56939047734897
 31
0.0
  0
LINE
  5
30A
330
2
100
AcDbEntity
  8
GAIKEI
  6
Continuous
 62
     1
100
AcDbLine
 10
-26.62440216171501
 20
10.56832447734905
 30
0.0
 11
-26.62403456171501
 21
10.56885587734905
 31
0.0
  0
LINE
  5
30B
330
2
100
AcDbEntity
  8
GAIKEI
  6
Continuous
 62
     1
100
AcDbLine
 10
-26.62477056171508
 20
10.567793877349
 30
0.0
 11
-26.62440216171501
 21
10.56832447734905
 31
0.0
  0
LINE
  5
30C
330
2
100
AcDbEntity
  8
GAIKEI
  6
Continuous
 62
     1
100
AcDbLine
 10
-26.62513716171509
 20
10.56726647734899
 30
0.0
 11
-26.62477056171508
 21
10.567793877349
 31
0.0
  0
LINE
  5
30D
330
2
100
AcDbEntity
  8
GAIKEI
  6
Continuous
 62
     1
100
AcDbLine
 10
-26.62550456171505
 20
10.56673987734905
 30
0.0
 11
-26.62513716171509
 21
10.56726647734899
 31
0.0
  0
LINE
  5
30E
330
2
100
AcDbEntity
  8
GAIKEI
  6
Continuous
 62
     1
100
AcDbLine
 10
-26.62587216171505
 20
10.56621647734903
 30
0.0
 11
-26.62550456171505
 21
10.56673987734905
 31
0.0
  0
LINE
  5
30F
330
2
100
AcDbEntity
  8
GAIKEI
  6
Continuous
 62
     1
100
AcDbLine
 10
-26.62624056171501
 20
10.56569387734896
 30
0.0
 11
-26.62587216171505
 21
10.56621647734903
 31
0.0
  0
LINE
  5
310
330
2
100
AcDbEntity
  8
GAIKEI
  6
Continuous
 62
     1
100
AcDbLine
 10
-26.62660716171501
 20
10.56517447734904
 30
0.0
 11
-26.62624056171501
 21
10.56569387734896
 31
0.0
  0
LINE
  5
311
330
2
100
AcDbEntity
  8
GAIKEI
  6
Continuous
 62
     1
100
AcDbLine
 10
-26.62697456171509
 20
10.56465587734908
 30
0.0
 11
-26.62660716171501
 21
10.56517447734904
 31
0.0
  0
LINE
  5
312
330
2
100
AcDbEntity
  8
GAIKEI
  6
Continuous
 62
     1
100
AcDbLine
 10
-26.6273411617151
 20
10.56414047734904
 30
0.0
 11
-26.62697456171509
 21
10.56465587734908
 31
0.0
  0
LINE
  5
313
330
2
100
AcDbEntity
  8
GAIKEI
  6
Continuous
 62
     1
100
AcDbLine
 10
-26.62770856171505
 20
10.56362587734906
 30
0.0
 11
-26.6273411617151
 21
10.56414047734904
 31
0.0
  0
LINE
  5
314
330
2
100
AcDbEntity
  8
GAIKEI
  6
Continuous
 62
     1
100
AcDbLine
 10
-26.62807516171506
 20
10.56311447734902
 30
0.0
 11
-26.62770856171505
 21
10.56362587734906
 31
0.0
  0
LINE
  5
315
330
2
100
AcDbEntity
  8
GAIKEI
  6
Continuous
 62
     1
100
AcDbLine
 10
-26.62844256171502
 20
10.56260387734903
 30
0.0
 11
-26.62807516171506
 21
10.56311447734902
 31
0.0
  0
LINE
  5
316
330
2
100
AcDbEntity
  8
GAIKEI
  6
Continuous
 62
     1
100
AcDbLine
 10
-26.62880916171503
 20
10.56209647734897
 30
0.0
 11
-26.62844256171502
 21
10.56260387734903
 31
0.0
  0
LINE
  5
317
330
2
100
AcDbEntity
  8
GAIKEI
  6
Continuous
 62
     1
100
AcDbLine
 10
-26.62917656171499
 20
10.56158987734898
 30
0.0
 11
-26.62880916171503
 21
10.56209647734897
 31
0.0
  0
LINE
  5
318
330
2
100
AcDbEntity
  8
GAIKEI
  6
Continuous
 62
     1
100
AcDbLine
 10
-26.62954316171499
 20
10.56108647734902
 30
0.0
 11
-26.62917656171499
 21
10.56158987734898
 31
0.0
  0
LINE
  5
319
330
2
100
AcDbEntity
  8
GAIKEI
  6
Continuous
 62
     1
100
AcDbLine
 10
-26.62991056171506
 20
10.56058387734902
 30
0.0
 11
-26.62954316171499
 21
10.56108647734902
 31
0.0
  0
LINE
  5
31A
330
2
100
AcDbEntity
  8
GAIKEI
  6
Continuous
 62
     1
100
AcDbLine
 10
-26.63027716171507
 20
10.56008447734905
 30
0.0
 11
-26.62991056171506
 21
10.56058387734902
 31
0.0
  0
LINE
  5
31B
330
2
100
AcDbEntity
  8
GAIKEI
  6
Continuous
 62
     1
100
AcDbLine
 10
-26.63064456171503
 20
10.55958587734903
 30
0.0
 11
-26.63027716171507
 21
10.56008447734905
 31
0.0
  0
LINE
  5
31C
330
2
100
AcDbEntity
  8
GAIKEI
  6
Continuous
 62
     1
100
AcDbLine
 10
-26.63101116171504
 20
10.55909047734906
 30
0.0
 11
-26.63064456171503
 21
10.55958587734903
 31
0.0
  0
LINE
  5
31D
330
2
100
AcDbEntity
  8
GAIKEI
  6
Continuous
 62
     1
100
AcDbLine
 10
-26.631378561715
 20
10.55859587734903
 30
0.0
 11
-26.63101116171504
 21
10.55909047734906
 31
0.0
  0
LINE
  5
31E
330
2
100
AcDbEntity
  8
GAIKEI
  6
Continuous
 62
     1
100
AcDbLine
 10
-26.631744161715
 20
10.55810447734905
 30
0.0
 11
-26.631378561715
 21
10.55859587734903
 31
0.0
  0
LINE
  5
31F
330
2
100
AcDbEntity
  8
GAIKEI
  6
Continuous
 62
     1
100
AcDbLine
 10
-26.63211056171508
 20
10.55761387734901
 30
0.0
 11
-26.631744161715
 21
10.55810447734905
 31
0.0
  0
LINE
  5
320
330
2
100
AcDbEntity
  8
GAIKEI
  6
Continuous
 62
     1
100
AcDbLine
 10
-26.63247716171509
 20
10.55712647734901
 30
0.0
 11
-26.63211056171508
 21
10.55761387734901
 31
0.0
  0
LINE
  5
321
330
2
100
AcDbEntity
  8
GAIKEI
  6
Continuous
 62
     1
100
AcDbLine
 10
-26.63284456171505
 20
10.55663987734908
 30
0.0
 11
-26.63247716171509
 21
10.55712647734901
 31
0.0
  0
LINE
  5
322
330
2
100
AcDbEntity
  8
GAIKEI
  6
Continuous
 62
     1
100
AcDbLine
 10
-26.63321016171506
 20
10.55615647734896
 30
0.0
 11
-26.63284456171505
 21
10.55663987734908
 31
0.0
  0
LINE
  5
323
330
2
100
AcDbEntity
  8
GAIKEI
  6
Continuous
 62
     1
100
AcDbLine
 10
-26.63357656171502
 20
10.55567387734902
 30
0.0
 11
-26.63321016171506
 21
10.55615647734896
 31
0.0
  0
LINE
  5
324
330
2
100
AcDbEntity
  8
GAIKEI
  6
Continuous
 62
     1
100
AcDbLine
 10
-26.63394216171503
 20
10.555194477349
 30
0.0
 11
-26.63357656171502
 21
10.55567387734902
 31
0.0
  0
LINE
  5
325
330
2
100
AcDbEntity
  8
GAIKEI
  6
Continuous
 62
     1
100
AcDbLine
 10
-26.63430856171499
 20
10.55471587734905
 30
0.0
 11
-26.63394216171503
 21
10.555194477349
 31
0.0
  0
LINE
  5
326
330
2
100
AcDbEntity
  8
GAIKEI
  6
Continuous
 62
     1
100
AcDbLine
 10
-26.634675161715
 20
10.55424147734902
 30
0.0
 11
-26.63430856171499
 21
10.55471587734905
 31
0.0
  0
LINE
  5
327
330
2
100
AcDbEntity
  8
GAIKEI
  6
Continuous
 62
     1
100
AcDbLine
 10
-26.63504256171507
 20
10.55376787734906
 30
0.0
 11
-26.634675161715
 21
10.55424147734902
 31
0.0
  0
LINE
  5
328
330
2
100
AcDbEntity
  8
GAIKEI
  6
Continuous
 62
     1
100
AcDbLine
 10
-26.63540716171508
 20
10.55329647734902
 30
0.0
 11
-26.63504256171507
 21
10.55376787734906
 31
0.0
  0
LINE
  5
329
330
2
100
AcDbEntity
  8
GAIKEI
  6
Continuous
 62
     1
100
AcDbLine
 10
-26.63577256171504
 20
10.55282587734905
 30
0.0
 11
-26.63540716171508
 21
10.55329647734902
 31
0.0
  0
LINE
  5
32A
330
2
100
AcDbEntity
  8
GAIKEI
  6
Continuous
 62
     1
100
AcDbLine
 10
-26.63613816171505
 20
10.552358477349
 30
0.0
 11
-26.63577256171504
 21
10.55282587734905
 31
0.0
  0
LINE
  5
32B
330
2
100
AcDbEntity
  8
GAIKEI
  6
Continuous
 62
     1
100
AcDbLine
 10
-26.63650456171501
 20
10.55189187734902
 30
0.0
 11
-26.63613816171505
 21
10.552358477349
 31
0.0
  0
LINE
  5
32C
330
2
100
AcDbEntity
  8
GAIKEI
  6
Continuous
 62
     1
100
AcDbLine
 10
-26.63687016171503
 20
10.55142947734907
 30
0.0
 11
-26.63650456171501
 21
10.55189187734902
 31
0.0
  0
LINE
  5
32D
330
2
100
AcDbEntity
  8
GAIKEI
  6
Continuous
 62
     1
100
AcDbLine
 10
-26.6372365617151
 20
10.55096787734908
 30
0.0
 11
-26.63687016171503
 21
10.55142947734907
 31
0.0
  0
LINE
  5
32E
330
2
100
AcDbEntity
  8
GAIKEI
  6
Continuous
 62
     1
100
AcDbLine
 10
-26.63760096171507
 20
10.55050847734901
 30
0.0
 11
-26.6372365617151
 21
10.55096787734908
 31
0.0
  0
LINE
  5
32F
330
2
100
AcDbEntity
  8
GAIKEI
  6
Continuous
 62
     1
100
AcDbLine
 10
-26.63796656171508
 20
10.55004987734901
 30
0.0
 11
-26.63760096171507
 21
10.55050847734901
 31
0.0
  0
LINE
  5
330
330
2
100
AcDbEntity
  8
GAIKEI
  6
Continuous
 62
     1
100
AcDbLine
 10
-26.63833196171504
 20
10.54959547734904
 30
0.0
 11
-26.63796656171508
 21
10.55004987734901
 31
0.0
  0
LINE
  5
331
330
2
100
AcDbEntity
  8
GAIKEI
  6
Continuous
 62
     1
100
AcDbLine
 10
-26.63869856171505
 20
10.54914187734903
 30
0.0
 11
-26.63833196171504
 21
10.54959547734904
 31
0.0
  0
LINE
  5
332
330
2
100
AcDbEntity
  8
GAIKEI
  6
Continuous
 62
     1
100
AcDbLine
 10
-26.63906296171501
 20
10.54869147734905
 30
0.0
 11
-26.63869856171505
 21
10.54914187734903
 31
0.0
  0
LINE
  5
333
330
2
100
AcDbEntity
  8
GAIKEI
  6
Continuous
 62
     1
100
AcDbLine
 10
-26.63942856171502
 20
10.54824187734903
 30
0.0
 11
-26.63906296171501
 21
10.54869147734905
 31
0.0
  0
LINE
  5
334
330
2
100
AcDbEntity
  8
GAIKEI
  6
Continuous
 62
     1
100
AcDbLine
 10
-26.6397929617151
 20
10.54779547734904
 30
0.0
 11
-26.63942856171502
 21
10.54824187734903
 31
0.0
  0
LINE
  5
335
330
2
100
AcDbEntity
  8
GAIKEI
  6
Continuous
 62
     1
100
AcDbLine
 10
-26.640158561715
 20
10.547349877349
 30
0.0
 11
-26.6397929617151
 21
10.54779547734904
 31
0.0
  0
LINE
  5
336
330
2
100
AcDbEntity
  8
GAIKEI
  6
Continuous
 62
     1
100
AcDbLine
 10
-26.64052196171508
 20
10.54690747734901
 30
0.0
 11
-26.640158561715
 21
10.547349877349
 31
0.0
  0
LINE
  5
337
330
2
100
AcDbEntity
  8
GAIKEI
  6
Continuous
 62
     1
100
AcDbLine
 10
-26.64088656171498
 20
10.54646587734908
 30
0.0
 11
-26.64052196171508
 21
10.54690747734901
 31
0.0
  0
LINE
  5
338
330
2
100
AcDbEntity
  8
GAIKEI
  6
Continuous
 62
     1
100
AcDbLine
 10
-26.64125096171506
 20
10.54602747734907
 30
0.0
 11
-26.64088656171498
 21
10.54646587734908
 31
0.0
  0
LINE
  5
339
330
2
100
AcDbEntity
  8
GAIKEI
  6
Continuous
 62
     1
100
AcDbLine
 10
-26.64161656171507
 20
10.54558987734901
 30
0.0
 11
-26.64125096171506
 21
10.54602747734907
 31
0.0
  0
LINE
  5
33A
330
2
100
AcDbEntity
  8
GAIKEI
  6
Continuous
 62
     1
100
AcDbLine
 10
-26.64197996171504
 20
10.545155477349
 30
0.0
 11
-26.64161656171507
 21
10.54558987734901
 31
0.0
  0
LINE
  5
33B
330
2
100
AcDbEntity
  8
GAIKEI
  6
Continuous
 62
     1
100
AcDbLine
 10
-26.64234456171505
 20
10.54472187734905
 30
0.0
 11
-26.64197996171504
 21
10.545155477349
 31
0.0
  0
LINE
  5
33C
330
2
100
AcDbEntity
  8
GAIKEI
  6
Continuous
 62
     1
100
AcDbLine
 10
-26.64270896171502
 20
10.54429247734901
 30
0.0
 11
-26.64234456171505
 21
10.54472187734905
 31
0.0
  0
LINE
  5
33D
330
2
100
AcDbEntity
  8
GAIKEI
  6
Continuous
 62
     1
100
AcDbLine
 10
-26.64307456171503
 20
10.54386387734905
 30
0.0
 11
-26.64270896171502
 21
10.54429247734901
 31
0.0
  0
LINE
  5
33E
330
2
100
AcDbEntity
  8
GAIKEI
  6
Continuous
 62
     1
100
AcDbLine
 10
-26.64343796171511
 20
10.54343747734901
 30
0.0
 11
-26.64307456171503
 21
10.54386387734905
 31
0.0
  0
LINE
  5
33F
330
2
100
AcDbEntity
  8
GAIKEI
  6
Continuous
 62
     1
100
AcDbLine
 10
-26.64380256171501
 20
10.54301187734904
 30
0.0
 11
-26.64343796171511
 21
10.54343747734901
 31
0.0
  0
LINE
  5
340
330
2
100
AcDbEntity
  8
GAIKEI
  6
Continuous
 62
     1
100
AcDbLine
 10
-26.64416496171498
 20
10.54259047734899
 30
0.0
 11
-26.64380256171501
 21
10.54301187734904
 31
0.0
  0
LINE
  5
341
330
2
100
AcDbEntity
  8
GAIKEI
  6
Continuous
 62
     1
100
AcDbLine
 10
-26.64452856171511
 20
10.54216987734901
 30
0.0
 11
-26.64416496171498
 21
10.54259047734899
 31
0.0
  0
LINE
  5
342
330
2
100
AcDbEntity
  8
GAIKEI
  6
Continuous
 62
     1
100
AcDbLine
 10
-26.64489216171501
 20
10.54175247734906
 30
0.0
 11
-26.64452856171511
 21
10.54216987734901
 31
0.0
  0
LINE
  5
343
330
2
100
AcDbEntity
  8
GAIKEI
  6
Continuous
 62
     1
100
AcDbLine
 10
-26.64525656171509
 20
10.54133587734907
 30
0.0
 11
-26.64489216171501
 21
10.54175247734906
 31
0.0
  0
LINE
  5
344
330
2
100
AcDbEntity
  8
GAIKEI
  6
Continuous
 62
     1
100
AcDbLine
 10
-26.64561916171511
 20
10.540921477349
 30
0.0
 11
-26.64525656171509
 21
10.54133587734907
 31
0.0
  0
LINE
  5
345
330
2
100
AcDbEntity
  8
GAIKEI
  6
Continuous
 62
     1
100
AcDbLine
 10
-26.64598256171507
 20
10.540507877349
 30
0.0
 11
-26.64561916171511
 21
10.540921477349
 31
0.0
  0
LINE
  5
346
330
2
100
AcDbEntity
  8
GAIKEI
  6
Continuous
 62
     1
100
AcDbLine
 10
-26.64634516171509
 20
10.54009847734903
 30
0.0
 11
-26.64598256171507
 21
10.540507877349
 31
0.0
  0
LINE
  5
347
330
2
100
AcDbEntity
  8
GAIKEI
  6
Continuous
 62
     1
100
AcDbLine
 10
-26.64670856171506
 20
10.53968987734902
 30
0.0
 11
-26.64634516171509
 21
10.54009847734903
 31
0.0
  0
LINE
  5
348
330
2
100
AcDbEntity
  8
GAIKEI
  6
Continuous
 62
     1
100
AcDbLine
 10
-26.64707216171507
 20
10.53928347734904
 30
0.0
 11
-26.64670856171506
 21
10.53968987734902
 31
0.0
  0
LINE
  5
349
330
2
100
AcDbEntity
  8
GAIKEI
  6
Continuous
 62
     1
100
AcDbLine
 10
-26.64743656171504
 20
10.53887787734902
 30
0.0
 11
-26.64707216171507
 21
10.53928347734904
 31
0.0
  0
LINE
  5
34A
330
2
100
AcDbEntity
  8
GAIKEI
  6
Continuous
 62
     1
100
AcDbLine
 10
-26.64779916171506
 20
10.53847347734904
 30
0.0
 11
-26.64743656171504
 21
10.53887787734902
 31
0.0
  0
LINE
  5
34B
330
2
100
AcDbEntity
  8
GAIKEI
  6
Continuous
 62
     1
100
AcDbLine
 10
-26.64816256171503
 20
10.53806987734901
 30
0.0
 11
-26.64779916171506
 21
10.53847347734904
 31
0.0
  0
LINE
  5
34C
330
2
100
AcDbEntity
  8
GAIKEI
  6
Continuous
 62
     1
100
AcDbLine
 10
-26.64852516171504
 20
10.53766747734903
 30
0.0
 11
-26.64816256171503
 21
10.53806987734901
 31
0.0
  0
LINE
  5
34D
330
2
100
AcDbEntity
  8
GAIKEI
  6
Continuous
 62
     1
100
AcDbLine
 10
-26.64888856171501
 20
10.537265877349
 30
0.0
 11
-26.64852516171504
 21
10.53766747734903
 31
0.0
  0
LINE
  5
34E
330
2
100
AcDbEntity
  8
GAIKEI
  6
Continuous
 62
     1
100
AcDbLine
 10
-26.64925216171503
 20
10.53686647734901
 30
0.0
 11
-26.64888856171501
 21
10.537265877349
 31
0.0
  0
LINE
  5
34F
330
2
100
AcDbEntity
  8
GAIKEI
  6
Continuous
 62
     1
100
AcDbLine
 10
-26.64961656171499
 20
10.53646787734908
 30
0.0
 11
-26.64925216171503
 21
10.53686647734901
 31
0.0
  0
LINE
  5
350
330
2
100
AcDbEntity
  8
GAIKEI
  6
Continuous
 62
     1
100
AcDbLine
 10
-26.64998016171501
 20
10.53607047734897
 30
0.0
 11
-26.64961656171499
 21
10.53646787734908
 31
0.0
  0
LINE
  5
351
330
2
100
AcDbEntity
  8
GAIKEI
  6
Continuous
 62
     1
100
AcDbLine
 10
-26.65034456171509
 20
10.53567387734904
 30
0.0
 11
-26.64998016171501
 21
10.53607047734897
 31
0.0
  0
LINE
  5
352
330
2
100
AcDbEntity
  8
GAIKEI
  6
Continuous
 62
     1
100
AcDbLine
 10
-26.6507081617151
 20
10.53527947734903
 30
0.0
 11
-26.65034456171509
 21
10.53567387734904
 31
0.0
  0
LINE
  5
353
330
2
100
AcDbEntity
  8
GAIKEI
  6
Continuous
 62
     1
100
AcDbLine
 10
-26.65107256171507
 20
10.53488587734898
 30
0.0
 11
-26.6507081617151
 21
10.53527947734903
 31
0.0
  0
LINE
  5
354
330
2
100
AcDbEntity
  8
GAIKEI
  6
Continuous
 62
     1
100
AcDbLine
 10
-26.65143516171509
 20
10.53449447734908
 30
0.0
 11
-26.65107256171507
 21
10.53488587734898
 31
0.0
  0
LINE
  5
355
330
2
100
AcDbEntity
  8
GAIKEI
  6
Continuous
 62
     1
100
AcDbLine
 10
-26.65179856171505
 20
10.53410387734902
 30
0.0
 11
-26.65143516171509
 21
10.53449447734908
 31
0.0
  0
LINE
  5
356
330
2
100
AcDbEntity
  8
GAIKEI
  6
Continuous
 62
     1
100
AcDbLine
 10
-26.65216216171507
 20
10.53371347734901
 30
0.0
 11
-26.65179856171505
 21
10.53410387734902
 31
0.0
  0
LINE
  5
357
330
2
100
AcDbEntity
  8
GAIKEI
  6
Continuous
 62
     1
100
AcDbLine
 10
-26.65252656171503
 20
10.53332387734906
 30
0.0
 11
-26.65216216171507
 21
10.53371347734901
 31
0.0
  0
LINE
  5
358
330
2
100
AcDbEntity
  8
GAIKEI
  6
Continuous
 62
     1
100
AcDbLine
 10
-26.65289116171505
 20
10.53293747734904
 30
0.0
 11
-26.65252656171503
 21
10.53332387734906
 31
0.0
  0
LINE
  5
359
330
2
100
AcDbEntity
  8
GAIKEI
  6
Continuous
 62
     1
100
AcDbLine
 10
-26.65325656171501
 20
10.53255187734896
 30
0.0
 11
-26.65289116171505
 21
10.53293747734904
 31
0.0
  0
LINE
  5
35A
330
2
100
AcDbEntity
  8
GAIKEI
  6
Continuous
 62
     1
100
AcDbLine
 10
-26.65362016171503
 20
10.53216747734905
 30
0.0
 11
-26.65325656171501
 21
10.53255187734896
 31
0.0
  0
LINE
  5
35B
330
2
100
AcDbEntity
  8
GAIKEI
  6
Continuous
 62
     1
100
AcDbLine
 10
-26.65398456171511
 20
10.53178387734908
 30
0.0
 11
-26.65362016171503
 21
10.53216747734905
 31
0.0
  0
LINE
  5
35C
330
2
100
AcDbEntity
  8
GAIKEI
  6
Continuous
 62
     1
100
AcDbLine
 10
-26.65434816171501
 20
10.53140147734905
 30
0.0
 11
-26.65398456171511
 21
10.53178387734908
 31
0.0
  0
LINE
  5
35D
330
2
100
AcDbEntity
  8
GAIKEI
  6
Continuous
 62
     1
100
AcDbLine
 10
-26.65471256171509
 20
10.53101987734897
 30
0.0
 11
-26.65434816171501
 21
10.53140147734905
 31
0.0
  0
LINE
  5
35E
330
2
100
AcDbEntity
  8
GAIKEI
  6
Continuous
 62
     1
100
AcDbLine
 10
-26.65507616171499
 20
10.53064047734904
 30
0.0
 11
-26.65471256171509
 21
10.53101987734897
 31
0.0
  0
LINE
  5
35F
330
2
100
AcDbEntity
  8
GAIKEI
  6
Continuous
 62
     1
100
AcDbLine
 10
-26.65544056171507
 20
10.53026187734906
 30
0.0
 11
-26.65507616171499
 21
10.53064047734904
 31
0.0
  0
LINE
  5
360
330
2
100
AcDbEntity
  8
GAIKEI
  6
Continuous
 62
     1
100
AcDbLine
 10
-26.65580516171508
 20
10.52988547734901
 30
0.0
 11
-26.65544056171507
 21
10.53026187734906
 31
0.0
  0
LINE
  5
361
330
2
100
AcDbEntity
  8
GAIKEI
  6
Continuous
 62
     1
100
AcDbLine
 10
-26.65617056171504
 20
10.52950987734903
 30
0.0
 11
-26.65580516171508
 21
10.52988547734901
 31
0.0
  0
LINE
  5
362
330
2
100
AcDbEntity
  8
GAIKEI
  6
Continuous
 62
     1
100
AcDbLine
 10
-26.65653416171506
 20
10.52913547734908
 30
0.0
 11
-26.65617056171504
 21
10.52950987734903
 31
0.0
  0
LINE
  5
363
330
2
100
AcDbEntity
  8
GAIKEI
  6
Continuous
 62
     1
100
AcDbLine
 10
-26.65689856171503
 20
10.52876187734898
 30
0.0
 11
-26.65653416171506
 21
10.52913547734908
 31
0.0
  0
LINE
  5
364
330
2
100
AcDbEntity
  8
GAIKEI
  6
Continuous
 62
     1
100
AcDbLine
 10
-26.65726216171504
 20
10.52838947734904
 30
0.0
 11
-26.65689856171503
 21
10.52876187734898
 31
0.0
  0
LINE
  5
365
330
2
100
AcDbEntity
  8
GAIKEI
  6
Continuous
 62
     1
100
AcDbLine
 10
-26.65762656171501
 20
10.52801787734904
 30
0.0
 11
-26.65726216171504
 21
10.52838947734904
 31
0.0
  0
LINE
  5
366
330
2
100
AcDbEntity
  8
GAIKEI
  6
Continuous
 62
     1
100
AcDbLine
 10
-26.65799116171502
 20
10.52764947734897
 30
0.0
 11
-26.65762656171501
 21
10.52801787734904
 31
0.0
  0
LINE
  5
367
330
2
100
AcDbEntity
  8
GAIKEI
  6
Continuous
 62
     1
100
AcDbLine
 10
-26.65835656171498
 20
10.52728187734908
 30
0.0
 11
-26.65799116171502
 21
10.52764947734897
 31
0.0
  0
LINE
  5
368
330
2
100
AcDbEntity
  8
GAIKEI
  6
Continuous
 62
     1
100
AcDbLine
 10
-26.65872016171511
 20
10.52691447734901
 30
0.0
 11
-26.65835656171498
 21
10.52728187734908
 31
0.0
  0
LINE
  5
369
330
2
100
AcDbEntity
  8
GAIKEI
  6
Continuous
 62
     1
100
AcDbLine
 10
-26.65908456171508
 20
10.526547877349
 30
0.0
 11
-26.65872016171511
 21
10.52691447734901
 31
0.0
  0
LINE
  5
36A
330
2
100
AcDbEntity
  8
GAIKEI
  6
Continuous
 62
     1
100
AcDbLine
 10
-26.65944916171497
 20
10.52618347734903
 30
0.0
 11
-26.65908456171508
 21
10.526547877349
 31
0.0
  0
LINE
  5
36B
330
2
100
AcDbEntity
  8
GAIKEI
  6
Continuous
 62
     1
100
AcDbLine
 10
-26.65981456171505
 20
10.52581987734902
 30
0.0
 11
-26.65944916171497
 21
10.52618347734903
 31
0.0
  0
LINE
  5
36C
330
2
100
AcDbEntity
  8
GAIKEI
  6
Continuous
 62
     1
100
AcDbLine
 10
-26.66017916171507
 20
10.52545847734905
 30
0.0
 11
-26.65981456171505
 21
10.52581987734902
 31
0.0
  0
LINE
  5
36D
330
2
100
AcDbEntity
  8
GAIKEI
  6
Continuous
 62
     1
100
AcDbLine
 10
-26.66054456171503
 20
10.52509787734902
 30
0.0
 11
-26.66017916171507
 21
10.52545847734905
 31
0.0
  0
LINE
  5
36E
330
2
100
AcDbEntity
  8
GAIKEI
  6
Continuous
 62
     1
100
AcDbLine
 10
-26.66090816171504
 20
10.52473847734904
 30
0.0
 11
-26.66054456171503
 21
10.52509787734902
 31
0.0
  0
LINE
  5
36F
330
2
100
AcDbEntity
  8
GAIKEI
  6
Continuous
 62
     1
100
AcDbLine
 10
-26.66127256171501
 20
10.52437987734902
 30
0.0
 11
-26.66090816171504
 21
10.52473847734904
 31
0.0
  0
LINE
  5
370
330
2
100
AcDbEntity
  8
GAIKEI
  6
Continuous
 62
     1
100
AcDbLine
 10
-26.66163716171502
 20
10.52402347734903
 30
0.0
 11
-26.66127256171501
 21
10.52437987734902
 31
0.0
  0
LINE
  5
371
330
2
100
AcDbEntity
  8
GAIKEI
  6
Continuous
 62
     1
100
AcDbLine
 10
-26.6620025617151
 20
10.523667877349
 30
0.0
 11
-26.66163716171502
 21
10.52402347734903
 31
0.0
  0
LINE
  5
372
330
2
100
AcDbEntity
  8
GAIKEI
  6
Continuous
 62
     1
100
AcDbLine
 10
-26.662366161715
 20
10.523314477349
 30
0.0
 11
-26.6620025617151
 21
10.523667877349
 31
0.0
  0
LINE
  5
373
330
2
100
AcDbEntity
  8
GAIKEI
  6
Continuous
 62
     1
100
AcDbLine
 10
-26.66273056171508
 20
10.52296187734907
 30
0.0
 11
-26.662366161715
 21
10.523314477349
 31
0.0
  0
LINE
  5
374
330
2
100
AcDbEntity
  8
GAIKEI
  6
Continuous
 62
     1
100
AcDbLine
 10
-26.66309516171509
 20
10.52261047734907
 30
0.0
 11
-26.66273056171508
 21
10.52296187734907
 31
0.0
  0
LINE
  5
375
330
2
100
AcDbEntity
  8
GAIKEI
  6
Continuous
 62
     1
100
AcDbLine
 10
-26.66346056171505
 20
10.52225987734903
 30
0.0
 11
-26.66309516171509
 21
10.52261047734907
 31
0.0
  0
LINE
  5
376
330
2
100
AcDbEntity
  8
GAIKEI
  6
Continuous
 62
     1
100
AcDbLine
 10
-26.66382416171507
 20
10.52191047734902
 30
0.0
 11
-26.66346056171505
 21
10.52225987734903
 31
0.0
  0
LINE
  5
377
330
2
100
AcDbEntity
  8
GAIKEI
  6
Continuous
 62
     1
100
AcDbLine
 10
-26.66418856171504
 20
10.52156187734897
 30
0.0
 11
-26.66382416171507
 21
10.52191047734902
 31
0.0
  0
LINE
  5
378
330
2
100
AcDbEntity
  8
GAIKEI
  6
Continuous
 62
     1
100
AcDbLine
 10
-26.66455316171505
 20
10.52121547734907
 30
0.0
 11
-26.66418856171504
 21
10.52156187734897
 31
0.0
  0
LINE
  5
379
330
2
100
AcDbEntity
  8
GAIKEI
  6
Continuous
 62
     1
100
AcDbLine
 10
-26.66491856171501
 20
10.52086987734901
 30
0.0
 11
-26.66455316171505
 21
10.52121547734907
 31
0.0
  0
LINE
  5
37A
330
2
100
AcDbEntity
  8
GAIKEI
  6
Continuous
 62
     1
100
AcDbLine
 10
-26.66528216171503
 20
10.52052647734899
 30
0.0
 11
-26.66491856171501
 21
10.52086987734901
 31
0.0
  0
LINE
  5
37B
330
2
100
AcDbEntity
  8
GAIKEI
  6
Continuous
 62
     1
100
AcDbLine
 10
-26.66564656171499
 20
10.52018387734904
 30
0.0
 11
-26.66528216171503
 21
10.52052647734899
 31
0.0
  0
LINE
  5
37C
330
2
100
AcDbEntity
  8
GAIKEI
  6
Continuous
 62
     1
100
AcDbLine
 10
-26.66601116171501
 20
10.51984247734901
 30
0.0
 11
-26.66564656171499
 21
10.52018387734904
 31
0.0
  0
LINE
  5
37D
330
2
100
AcDbEntity
  8
GAIKEI
  6
Continuous
 62
     1
100
AcDbLine
 10
-26.66637656171508
 20
10.51950187734906
 30
0.0
 11
-26.66601116171501
 21
10.51984247734901
 31
0.0
  0
LINE
  5
37E
330
2
100
AcDbEntity
  8
GAIKEI
  6
Continuous
 62
     1
100
AcDbLine
 10
-26.6667401617151
 20
10.51916347734902
 30
0.0
 11
-26.66637656171508
 21
10.51950187734906
 31
0.0
  0
LINE
  5
37F
330
2
100
AcDbEntity
  8
GAIKEI
  6
Continuous
 62
     1
100
AcDbLine
 10
-26.66710456171506
 20
10.51882587734906
 30
0.0
 11
-26.6667401617151
 21
10.51916347734902
 31
0.0
  0
LINE
  5
380
330
2
100
AcDbEntity
  8
GAIKEI
  6
Continuous
 62
     1
100
AcDbLine
 10
-26.66746916171508
 20
10.51848947734902
 30
0.0
 11
-26.66710456171506
 21
10.51882587734906
 31
0.0
  0
LINE
  5
381
330
2
100
AcDbEntity
  8
GAIKEI
  6
Continuous
 62
     1
100
AcDbLine
 10
-26.66783456171504
 20
10.51815387734905
 30
0.0
 11
-26.66746916171508
 21
10.51848947734902
 31
0.0
  0
LINE
  5
382
330
2
100
AcDbEntity
  8
GAIKEI
  6
Continuous
 62
     1
100
AcDbLine
 10
-26.66819816171506
 20
10.517820477349
 30
0.0
 11
-26.66783456171504
 21
10.51815387734905
 31
0.0
  0
LINE
  5
383
330
2
100
AcDbEntity
  8
GAIKEI
  6
Continuous
 62
     1
100
AcDbLine
 10
-26.66856256171502
 20
10.51748787734902
 30
0.0
 11
-26.66819816171506
 21
10.517820477349
 31
0.0
  0
LINE
  5
384
330
2
100
AcDbEntity
  8
GAIKEI
  6
Continuous
 62
     1
100
AcDbLine
 10
-26.66892616171504
 20
10.51715747734909
 30
0.0
 11
-26.66856256171502
 21
10.51748787734902
 31
0.0
  0
LINE
  5
385
330
2
100
AcDbEntity
  8
GAIKEI
  6
Continuous
 62
     1
100
AcDbLine
 10
-26.669290561715
 20
10.51682787734899
 30
0.0
 11
-26.66892616171504
 21
10.51715747734909
 31
0.0
  0
LINE
  5
386
330
2
100
AcDbEntity
  8
GAIKEI
  6
Continuous
 62
     1
100
AcDbLine
 10
-26.66965416171502
 20
10.51649947734904
 30
0.0
 11
-26.669290561715
 21
10.51682787734899
 31
0.0
  0
LINE
  5
387
330
2
100
AcDbEntity
  8
GAIKEI
  6
Continuous
 62
     1
100
AcDbLine
 10
-26.6700185617151
 20
10.51617187734905
 30
0.0
 11
-26.66965416171502
 21
10.51649947734904
 31
0.0
  0
LINE
  5
388
330
2
100
AcDbEntity
  8
GAIKEI
  6
Continuous
 62
     1
100
AcDbLine
 10
-26.670382161715
 20
10.51584547734899
 30
0.0
 11
-26.6700185617151
 21
10.51617187734905
 31
0.0
  0
LINE
  5
389
330
2
100
AcDbEntity
  8
GAIKEI
  6
Continuous
 62
     1
100
AcDbLine
 10
-26.67074656171508
 20
10.51551987734899
 30
0.0
 11
-26.670382161715
 21
10.51584547734899
 31
0.0
  0
LINE
  5
38A
330
2
100
AcDbEntity
  8
GAIKEI
  6
Continuous
 62
     1
100
AcDbLine
 10
-26.67111016171498
 20
10.51519747734903
 30
0.0
 11
-26.67074656171508
 21
10.51551987734899
 31
0.0
  0
LINE
  5
38B
330
2
100
AcDbEntity
  8
GAIKEI
  6
Continuous
 62
     1
100
AcDbLine
 10
-26.67147456171506
 20
10.51487587734903
 30
0.0
 11
-26.67111016171498
 21
10.51519747734903
 31
0.0
  0
LINE
  5
38C
330
2
100
AcDbEntity
  8
GAIKEI
  6
Continuous
 62
     1
100
AcDbLine
 10
-26.67183816171507
 20
10.51455447734906
 30
0.0
 11
-26.67147456171506
 21
10.51487587734903
 31
0.0
  0
LINE
  5
38D
330
2
100
AcDbEntity
  8
GAIKEI
  6
Continuous
 62
     1
100
AcDbLine
 10
-26.67220256171504
 20
10.51423387734905
 30
0.0
 11
-26.67183816171507
 21
10.51455447734906
 31
0.0
  0
LINE
  5
38E
330
2
100
AcDbEntity
  8
GAIKEI
  6
Continuous
 62
     1
100
AcDbLine
 10
-26.67256616171505
 20
10.51391647734897
 30
0.0
 11
-26.67220256171504
 21
10.51423387734905
 31
0.0
  0
LINE
  5
38F
330
2
100
AcDbEntity
  8
GAIKEI
  6
Continuous
 62
     1
100
AcDbLine
 10
-26.67293056171502
 20
10.51359987734906
 30
0.0
 11
-26.67256616171505
 21
10.51391647734897
 31
0.0
  0
LINE
  5
390
330
2
100
AcDbEntity
  8
GAIKEI
  6
Continuous
 62
     1
100
AcDbLine
 10
-26.67329416171503
 20
10.51328447734897
 30
0.0
 11
-26.67293056171502
 21
10.51359987734906
 31
0.0
  0
LINE
  5
391
330
2
100
AcDbEntity
  8
GAIKEI
  6
Continuous
 62
     1
100
AcDbLine
 10
-26.673658561715
 20
10.51296987734906
 30
0.0
 11
-26.67329416171503
 21
10.51328447734897
 31
0.0
  0
LINE
  5
392
330
2
100
AcDbEntity
  8
GAIKEI
  6
Continuous
 62
     1
100
AcDbLine
 10
-26.67402216171502
 20
10.51265747734908
 30
0.0
 11
-26.673658561715
 21
10.51296987734906
 31
0.0
  0
LINE
  5
393
330
2
100
AcDbEntity
  8
GAIKEI
  6
Continuous
 62
     1
100
AcDbLine
 10
-26.67438656171498
 20
10.51234587734905
 30
0.0
 11
-26.67402216171502
 21
10.51265747734908
 31
0.0
  0
LINE
  5
394
330
2
100
AcDbEntity
  8
GAIKEI
  6
Continuous
 62
     1
100
AcDbLine
 10
-26.674749161715
 20
10.51203547734906
 30
0.0
 11
-26.67438656171498
 21
10.51234587734905
 31
0.0
  0
LINE
  5
395
330
2
100
AcDbEntity
  8
GAIKEI
  6
Continuous
 62
     1
100
AcDbLine
 10
-26.67511256171508
 20
10.51172587734902
 30
0.0
 11
-26.674749161715
 21
10.51203547734906
 31
0.0
  0
LINE
  5
396
330
2
100
AcDbEntity
  8
GAIKEI
  6
Continuous
 62
     1
100
AcDbLine
 10
-26.67547516171499
 20
10.51141847734902
 30
0.0
 11
-26.67511256171508
 21
10.51172587734902
 31
0.0
  0
LINE
  5
397
330
2
100
AcDbEntity
  8
GAIKEI
  6
Continuous
 62
     1
100
AcDbLine
 10
-26.67583856171507
 20
10.51111187734898
 30
0.0
 11
-26.67547516171499
 21
10.51141847734902
 31
0.0
  0
LINE
  5
398
330
2
100
AcDbEntity
  8
GAIKEI
  6
Continuous
 62
     1
100
AcDbLine
 10
-26.67620216171509
 20
10.51080647734898
 30
0.0
 11
-26.67583856171507
 21
10.51111187734898
 31
0.0
  0
LINE
  5
399
330
2
100
AcDbEntity
  8
GAIKEI
  6
Continuous
 62
     1
100
AcDbLine
 10
-26.67656656171505
 20
10.51050187734904
 30
0.0
 11
-26.67620216171509
 21
10.51080647734898
 31
0.0
  0
LINE
  5
39A
330
2
100
AcDbEntity
  8
GAIKEI
  6
Continuous
 62
     1
100
AcDbLine
 10
-26.67692916171507
 20
10.51019947734903
 30
0.0
 11
-26.67656656171505
 21
10.51050187734904
 31
0.0
  0
LINE
  5
39B
330
2
100
AcDbEntity
  8
GAIKEI
  6
Continuous
 62
     1
100
AcDbLine
 10
-26.67729256171504
 20
10.50989787734909
 30
0.0
 11
-26.67692916171507
 21
10.51019947734903
 31
0.0
  0
LINE
  5
39C
330
2
100
AcDbEntity
  8
GAIKEI
  6
Continuous
 62
     1
100
AcDbLine
 10
-26.67765516171505
 20
10.50959847734896
 30
0.0
 11
-26.67729256171504
 21
10.50989787734909
 31
0.0
  0
LINE
  5
39D
330
2
100
AcDbEntity
  8
GAIKEI
  6
Continuous
 62
     1
100
AcDbLine
 10
-26.67801856171502
 20
10.509299877349
 30
0.0
 11
-26.67765516171505
 21
10.50959847734896
 31
0.0
  0
LINE
  5
39E
330
2
100
AcDbEntity
  8
GAIKEI
  6
Continuous
 62
     1
100
AcDbLine
 10
-26.67838116171504
 20
10.50900347734898
 30
0.0
 11
-26.67801856171502
 21
10.509299877349
 31
0.0
  0
LINE
  5
39F
330
2
100
AcDbEntity
  8
GAIKEI
  6
Continuous
 62
     1
100
AcDbLine
 10
-26.67874456171501
 20
10.50870787734902
 30
0.0
 11
-26.67838116171504
 21
10.50900347734898
 31
0.0
  0
LINE
  5
3A0
330
2
100
AcDbEntity
  8
GAIKEI
  6
Continuous
 62
     1
100
AcDbLine
 10
-26.67910616171503
 20
10.50841347734899
 30
0.0
 11
-26.67874456171501
 21
10.50870787734902
 31
0.0
  0
LINE
  5
3A1
330
2
100
AcDbEntity
  8
GAIKEI
  6
Continuous
 62
     1
100
AcDbLine
 10
-26.679468561715
 20
10.50811987734903
 30
0.0
 11
-26.67910616171503
 21
10.50841347734899
 31
0.0
  0
LINE
  5
3A2
330
2
100
AcDbEntity
  8
GAIKEI
  6
Continuous
 62
     1
100
AcDbLine
 10
-26.67983116171502
 20
10.50782747734899
 30
0.0
 11
-26.679468561715
 21
10.50811987734903
 31
0.0
  0
LINE
  5
3A3
330
2
100
AcDbEntity
  8
GAIKEI
  6
Continuous
 62
     1
100
AcDbLine
 10
-26.6801945617151
 20
10.50753587734903
 30
0.0
 11
-26.67983116171502
 21
10.50782747734899
 31
0.0
  0
LINE
  5
3A4
330
2
100
AcDbEntity
  8
GAIKEI
  6
Continuous
 62
     1
100
AcDbLine
 10
-26.680556161715
 20
10.50724647734898
 30
0.0
 11
-26.6801945617151
 21
10.50753587734903
 31
0.0
  0
LINE
  5
3A5
330
2
100
AcDbEntity
  8
GAIKEI
  6
Continuous
 62
     1
100
AcDbLine
 10
-26.68091856171509
 20
10.50695787734901
 30
0.0
 11
-26.680556161715
 21
10.50724647734898
 31
0.0
  0
LINE
  5
3A6
330
2
100
AcDbEntity
  8
GAIKEI
  6
Continuous
 62
     1
100
AcDbLine
 10
-26.68128116171511
 20
10.50667147734896
 30
0.0
 11
-26.68091856171509
 21
10.50695787734901
 31
0.0
  0
LINE
  5
3A7
330
2
100
AcDbEntity
  8
GAIKEI
  6
Continuous
 62
     1
100
AcDbLine
 10
-26.68164456171508
 20
10.50638587734909
 30
0.0
 11
-26.68128116171511
 21
10.50667147734896
 31
0.0
  0
LINE
  5
3A8
330
2
100
AcDbEntity
  8
GAIKEI
  6
Continuous
 62
     1
100
AcDbLine
 10
-26.68200616171498
 20
10.50610247734903
 30
0.0
 11
-26.68164456171508
 21
10.50638587734909
 31
0.0
  0
LINE
  5
3A9
330
2
100
AcDbEntity
  8
GAIKEI
  6
Continuous
 62
     1
100
AcDbLine
 10
-26.68236856171507
 20
10.50581987734904
 30
0.0
 11
-26.68200616171498
 21
10.50610247734903
 31
0.0
  0
LINE
  5
3AA
330
2
100
AcDbEntity
  8
GAIKEI
  6
Continuous
 62
     1
100
AcDbLine
 10
-26.68273016171509
 20
10.50553847734898
 30
0.0
 11
-26.68236856171507
 21
10.50581987734904
 31
0.0
  0
LINE
  5
3AB
330
2
100
AcDbEntity
  8
GAIKEI
  6
Continuous
 62
     1
100
AcDbLine
 10
-26.68309256171506
 20
10.50525787734898
 30
0.0
 11
-26.68273016171509
 21
10.50553847734898
 31
0.0
  0
LINE
  5
3AC
330
2
100
AcDbEntity
  8
GAIKEI
  6
Continuous
 62
     1
100
AcDbLine
 10
-26.68345316171508
 20
10.50497947734902
 30
0.0
 11
-26.68309256171506
 21
10.50525787734898
 31
0.0
  0
LINE
  5
3AD
330
2
100
AcDbEntity
  8
GAIKEI
  6
Continuous
 62
     1
100
AcDbLine
 10
-26.68381456171506
 20
10.50470187734902
 30
0.0
 11
-26.68345316171508
 21
10.50497947734902
 31
0.0
  0
LINE
  5
3AE
330
2
100
AcDbEntity
  8
GAIKEI
  6
Continuous
 62
     1
100
AcDbLine
 10
-26.68417616171507
 20
10.50442547734906
 30
0.0
 11
-26.68381456171506
 21
10.50470187734902
 31
0.0
  0
LINE
  5
3AF
330
2
100
AcDbEntity
  8
GAIKEI
  6
Continuous
 62
     1
100
AcDbLine
 10
-26.68453856171505
 20
10.50414987734905
 30
0.0
 11
-26.68417616171507
 21
10.50442547734906
 31
0.0
  0
LINE
  5
3B0
330
2
100
AcDbEntity
  8
GAIKEI
  6
Continuous
 62
     1
100
AcDbLine
 10
-26.68489916171507
 20
10.50387647734908
 30
0.0
 11
-26.68453856171505
 21
10.50414987734905
 31
0.0
  0
LINE
  5
3B1
330
2
100
AcDbEntity
  8
GAIKEI
  6
Continuous
 62
     1
100
AcDbLine
 10
-26.68526056171504
 20
10.50360387734906
 30
0.0
 11
-26.68489916171507
 21
10.50387647734908
 31
0.0
  0
LINE
  5
3B2
330
2
100
AcDbEntity
  8
GAIKEI
  6
Continuous
 62
     1
100
AcDbLine
 10
-26.68562116171506
 20
10.50333347734897
 30
0.0
 11
-26.68526056171504
 21
10.50360387734906
 31
0.0
  0
LINE
  5
3B3
330
2
100
AcDbEntity
  8
GAIKEI
  6
Continuous
 62
     1
100
AcDbLine
 10
-26.68598256171504
 20
10.50306387734906
 30
0.0
 11
-26.68562116171506
 21
10.50333347734897
 31
0.0
  0
LINE
  5
3B4
330
2
100
AcDbEntity
  8
GAIKEI
  6
Continuous
 62
     1
100
AcDbLine
 10
-26.68634316171506
 20
10.50279647734908
 30
0.0
 11
-26.68598256171504
 21
10.50306387734906
 31
0.0
  0
LINE
  5
3B5
330
2
100
AcDbEntity
  8
GAIKEI
  6
Continuous
 62
     1
100
AcDbLine
 10
-26.68670456171503
 20
10.50252987734904
 30
0.0
 11
-26.68634316171506
 21
10.50279647734908
 31
0.0
  0
LINE
  5
3B6
330
2
100
AcDbEntity
  8
GAIKEI
  6
Continuous
 62
     1
100
AcDbLine
 10
-26.68706416171506
 20
10.50226447734906
 30
0.0
 11
-26.68670456171503
 21
10.50252987734904
 31
0.0
  0
LINE
  5
3B7
330
2
100
AcDbEntity
  8
GAIKEI
  6
Continuous
 62
     1
100
AcDbLine
 10
-26.68742456171504
 20
10.50199987734902
 30
0.0
 11
-26.68706416171506
 21
10.50226447734906
 31
0.0
  0
LINE
  5
3B8
330
2
100
AcDbEntity
  8
GAIKEI
  6
Continuous
 62
     1
100
AcDbLine
 10
-26.68778516171506
 20
10.50173747734902
 30
0.0
 11
-26.68742456171504
 21
10.50199987734902
 31
0.0
  0
LINE
  5
3B9
330
2
100
AcDbEntity
  8
GAIKEI
  6
Continuous
 62
     1
100
AcDbLine
 10
-26.68814656171503
 20
10.50147587734898
 30
0.0
 11
-26.68778516171506
 21
10.50173747734902
 31
0.0
  0
LINE
  5
3BA
330
2
100
AcDbEntity
  8
GAIKEI
  6
Continuous
 62
     1
100
AcDbLine
 10
-26.68850616171506
 20
10.50121547734909
 30
0.0
 11
-26.68814656171503
 21
10.50147587734898
 31
0.0
  0
LINE
  5
3BB
330
2
100
AcDbEntity
  8
GAIKEI
  6
Continuous
 62
     1
100
AcDbLine
 10
-26.68886656171503
 20
10.50095587734904
 30
0.0
 11
-26.68850616171506
 21
10.50121547734909
 31
0.0
  0
LINE
  5
3BC
330
2
100
AcDbEntity
  8
GAIKEI
  6
Continuous
 62
     1
100
AcDbLine
 10
-26.68922616171506
 20
10.50069847734903
 30
0.0
 11
-26.68886656171503
 21
10.50095587734904
 31
0.0
  0
LINE
  5
3BD
330
2
100
AcDbEntity
  8
GAIKEI
  6
Continuous
 62
     1
100
AcDbLine
 10
-26.68958656171503
 20
10.50044187734909
 30
0.0
 11
-26.68922616171506
 21
10.50069847734903
 31
0.0
  0
LINE
  5
3BE
330
2
100
AcDbEntity
  8
GAIKEI
  6
Continuous
 62
     1
100
AcDbLine
 10
-26.68994616171506
 20
10.50018747734907
 30
0.0
 11
-26.68958656171503
 21
10.50044187734909
 31
0.0
  0
LINE
  5
3BF
330
2
100
AcDbEntity
  8
GAIKEI
  6
Continuous
 62
     1
100
AcDbLine
 10
-26.69030656171504
 20
10.49993387734901
 30
0.0
 11
-26.68994616171506
 21
10.50018747734907
 31
0.0
  0
LINE
  5
3C0
330
2
100
AcDbEntity
  8
GAIKEI
  6
Continuous
 62
     1
100
AcDbLine
 10
-26.69066516171506
 20
10.49968127734905
 30
0.0
 11
-26.69030656171504
 21
10.49993387734901
 31
0.0
  0
LINE
  5
3C1
330
2
100
AcDbEntity
  8
GAIKEI
  6
Continuous
 62
     1
100
AcDbLine
 10
-26.69102456171504
 20
10.49942987734903
 30
0.0
 11
-26.69066516171506
 21
10.49968127734905
 31
0.0
  0
LINE
  5
3C2
330
2
100
AcDbEntity
  8
GAIKEI
  6
Continuous
 62
     1
100
AcDbLine
 10
-26.69138316171507
 20
10.49918127734907
 30
0.0
 11
-26.69102456171504
 21
10.49942987734903
 31
0.0
  0
LINE
  5
3C3
330
2
100
AcDbEntity
  8
GAIKEI
  6
Continuous
 62
     1
100
AcDbLine
 10
-26.69174256171505
 20
10.49893387734903
 30
0.0
 11
-26.69138316171507
 21
10.49918127734907
 31
0.0
  0
LINE
  5
3C4
330
2
100
AcDbEntity
  8
GAIKEI
  6
Continuous
 62
     1
100
AcDbLine
 10
-26.69210116171508
 20
10.49868727734906
 30
0.0
 11
-26.69174256171505
 21
10.49893387734903
 31
0.0
  0
LINE
  5
3C5
330
2
100
AcDbEntity
  8
GAIKEI
  6
Continuous
 62
     1
100
AcDbLine
 10
-26.69246056171505
 20
10.49844187734902
 30
0.0
 11
-26.69210116171508
 21
10.49868727734906
 31
0.0
  0
LINE
  5
3C6
330
2
100
AcDbEntity
  8
GAIKEI
  6
Continuous
 62
     1
100
AcDbLine
 10
-26.69281916171508
 20
10.49819827734904
 30
0.0
 11
-26.69246056171505
 21
10.49844187734902
 31
0.0
  0
LINE
  5
3C7
330
2
100
AcDbEntity
  8
GAIKEI
  6
Continuous
 62
     1
100
AcDbLine
 10
-26.69317856171506
 20
10.497955877349
 30
0.0
 11
-26.69281916171508
 21
10.49819827734904
 31
0.0
  0
LINE
  5
3C8
330
2
100
AcDbEntity
  8
GAIKEI
  6
Continuous
 62
     1
100
AcDbLine
 10
-26.69353616171509
 20
10.49771547734906
 30
0.0
 11
-26.69317856171506
 21
10.497955877349
 31
0.0
  0
LINE
  5
3C9
330
2
100
AcDbEntity
  8
GAIKEI
  6
Continuous
 62
     1
100
AcDbLine
 10
-26.69389456171507
 20
10.49747587734907
 30
0.0
 11
-26.69353616171509
 21
10.49771547734906
 31
0.0
  0
LINE
  5
3CA
330
2
100
AcDbEntity
  8
GAIKEI
  6
Continuous
 62
     1
100
AcDbLine
 10
-26.69425336171503
 20
10.49723847734901
 30
0.0
 11
-26.69389456171507
 21
10.49747587734907
 31
0.0
  0
LINE
  5
3CB
330
2
100
AcDbEntity
  8
GAIKEI
  6
Continuous
 62
     1
100
AcDbLine
 10
-26.69461256171508
 20
10.49700187734902
 30
0.0
 11
-26.69425336171503
 21
10.49723847734901
 31
0.0
  0
LINE
  5
3CC
330
2
100
AcDbEntity
  8
GAIKEI
  6
Continuous
 62
     1
100
AcDbLine
 10
-26.69497036171504
 20
10.49676747734906
 30
0.0
 11
-26.69461256171508
 21
10.49700187734902
 31
0.0
  0
LINE
  5
3CD
330
2
100
AcDbEntity
  8
GAIKEI
  6
Continuous
 62
     1
100
AcDbLine
 10
-26.69532856171509
 20
10.49653387734906
 30
0.0
 11
-26.69497036171504
 21
10.49676747734906
 31
0.0
  0
LINE
  5
3CE
330
2
100
AcDbEntity
  8
GAIKEI
  6
Continuous
 62
     1
100
AcDbLine
 10
-26.69568636171505
 20
10.49630147734899
 30
0.0
 11
-26.69532856171509
 21
10.49653387734906
 31
0.0
  0
LINE
  5
3CF
330
2
100
AcDbEntity
  8
GAIKEI
  6
Continuous
 62
     1
100
AcDbLine
 10
-26.6960445617151
 20
10.49606987734899
 30
0.0
 11
-26.69568636171505
 21
10.49630147734899
 31
0.0
  0
LINE
  5
3D0
330
2
100
AcDbEntity
  8
GAIKEI
  6
Continuous
 62
     1
100
AcDbLine
 10
-26.69640236171506
 20
10.49583847734902
 30
0.0
 11
-26.6960445617151
 21
10.49606987734899
 31
0.0
  0
LINE
  5
3D1
330
2
100
AcDbEntity
  8
GAIKEI
  6
Continuous
 62
     1
100
AcDbLine
 10
-26.69676056171511
 20
10.49560787734901
 30
0.0
 11
-26.69640236171506
 21
10.49583847734902
 31
0.0
  0
LINE
  5
3D2
330
2
100
AcDbEntity
  8
GAIKEI
  6
Continuous
 62
     1
100
AcDbLine
 10
-26.69711836171507
 20
10.49537947734904
 30
0.0
 11
-26.69676056171511
 21
10.49560787734901
 31
0.0
  0
LINE
  5
3D3
330
2
100
AcDbEntity
  8
GAIKEI
  6
Continuous
 62
     1
100
AcDbLine
 10
-26.69747656171501
 20
10.49515187734903
 30
0.0
 11
-26.69711836171507
 21
10.49537947734904
 31
0.0
  0
LINE
  5
3D4
330
2
100
AcDbEntity
  8
GAIKEI
  6
Continuous
 62
     1
100
AcDbLine
 10
-26.69783436171508
 20
10.49492547734905
 30
0.0
 11
-26.69747656171501
 21
10.49515187734903
 31
0.0
  0
LINE
  5
3D5
330
2
100
AcDbEntity
  8
GAIKEI
  6
Continuous
 62
     1
100
AcDbLine
 10
-26.69819256171502
 20
10.49469987734903
 30
0.0
 11
-26.69783436171508
 21
10.49492547734905
 31
0.0
  0
LINE
  5
3D6
330
2
100
AcDbEntity
  8
GAIKEI
  6
Continuous
 62
     1
100
AcDbLine
 10
-26.69855036171498
 20
10.49447547734905
 30
0.0
 11
-26.69819256171502
 21
10.49469987734903
 31
0.0
  0
LINE
  5
3D7
330
2
100
AcDbEntity
  8
GAIKEI
  6
Continuous
 62
     1
100
AcDbLine
 10
-26.69890856171503
 20
10.49425187734903
 30
0.0
 11
-26.69855036171498
 21
10.49447547734905
 31
0.0
  0
LINE
  5
3D8
330
2
100
AcDbEntity
  8
GAIKEI
  6
Continuous
 62
     1
100
AcDbLine
 10
-26.69926636171499
 20
10.49402767734898
 30
0.0
 11
-26.69890856171503
 21
10.49425187734903
 31
0.0
  0
LINE
  5
3D9
330
2
100
AcDbEntity
  8
GAIKEI
  6
Continuous
 62
     1
100
AcDbLine
 10
-26.69962456171504
 20
10.49380387734902
 30
0.0
 11
-26.69926636171499
 21
10.49402767734898
 31
0.0
  0
LINE
  5
3DA
330
2
100
AcDbEntity
  8
GAIKEI
  6
Continuous
 62
     1
100
AcDbLine
 10
-26.699982361715
 20
10.49358267734908
 30
0.0
 11
-26.69962456171504
 21
10.49380387734902
 31
0.0
  0
LINE
  5
3DB
330
2
100
AcDbEntity
  8
GAIKEI
  6
Continuous
 62
     1
100
AcDbLine
 10
-26.70034056171505
 20
10.493361877349
 30
0.0
 11
-26.699982361715
 21
10.49358267734908
 31
0.0
  0
LINE
  5
3DC
330
2
100
AcDbEntity
  8
GAIKEI
  6
Continuous
 62
     1
100
AcDbLine
 10
-26.70069836171502
 20
10.49314067734906
 30
0.0
 11
-26.70034056171505
 21
10.493361877349
 31
0.0
  0
LINE
  5
3DD
330
2
100
AcDbEntity
  8
GAIKEI
  6
Continuous
 62
     1
100
AcDbLine
 10
-26.70105656171506
 20
10.49291987734898
 30
0.0
 11
-26.70069836171502
 21
10.49314067734906
 31
0.0
  0
LINE
  5
3DE
330
2
100
AcDbEntity
  8
GAIKEI
  6
Continuous
 62
     1
100
AcDbLine
 10
-26.70141536171502
 20
10.49269967734903
 30
0.0
 11
-26.70105656171506
 21
10.49291987734898
 31
0.0
  0
LINE
  5
3DF
330
2
100
AcDbEntity
  8
GAIKEI
  6
Continuous
 62
     1
100
AcDbLine
 10
-26.70177456171507
 20
10.49247987734895
 30
0.0
 11
-26.70141536171502
 21
10.49269967734903
 31
0.0
  0
LINE
  5
3E0
330
2
100
AcDbEntity
  8
GAIKEI
  6
Continuous
 62
     1
100
AcDbLine
 10
-26.70213256171507
 20
10.49226067734901
 30
0.0
 11
-26.70177456171507
 21
10.49247987734895
 31
0.0
  0
LINE
  5
3E1
330
2
100
AcDbEntity
  8
GAIKEI
  6
Continuous
 62
     1
100
AcDbLine
 10
-26.70249056171508
 20
10.49204187734904
 30
0.0
 11
-26.70213256171507
 21
10.49226067734901
 31
0.0
  0
LINE
  5
3E2
330
2
100
AcDbEntity
  8
GAIKEI
  6
Continuous
 62
     1
100
AcDbLine
 10
-26.70284956171509
 20
10.49182367734909
 30
0.0
 11
-26.70249056171508
 21
10.49204187734904
 31
0.0
  0
LINE
  5
3E3
330
2
100
AcDbEntity
  8
GAIKEI
  6
Continuous
 62
     1
100
AcDbLine
 10
-26.70320856171509
 20
10.491605877349
 30
0.0
 11
-26.70284956171509
 21
10.49182367734909
 31
0.0
  0
LINE
  5
3E4
330
2
100
AcDbEntity
  8
GAIKEI
  6
Continuous
 62
     1
100
AcDbLine
 10
-26.70356656171498
 20
10.49138767734905
 30
0.0
 11
-26.70320856171509
 21
10.491605877349
 31
0.0
  0
LINE
  5
3E5
330
2
100
AcDbEntity
  8
GAIKEI
  6
Continuous
 62
     1
100
AcDbLine
 10
-26.70392456171498
 20
10.49116987734908
 30
0.0
 11
-26.70356656171498
 21
10.49138767734905
 31
0.0
  0
LINE
  5
3E6
330
2
100
AcDbEntity
  8
GAIKEI
  6
Continuous
 62
     1
100
AcDbLine
 10
-26.7042835617151
 20
10.49095187734906
 30
0.0
 11
-26.70392456171498
 21
10.49116987734908
 31
0.0
  0
LINE
  5
3E7
330
2
100
AcDbEntity
  8
GAIKEI
  6
Continuous
 62
     1
100
AcDbLine
 10
-26.70464256171499
 20
10.49073387734904
 30
0.0
 11
-26.7042835617151
 21
10.49095187734906
 31
0.0
  0
LINE
  5
3E8
330
2
100
AcDbEntity
  8
GAIKEI
  6
Continuous
 62
     1
100
AcDbLine
 10
-26.705360561715
 20
10.49029787734901
 30
0.0
 11
-26.70464256171499
 21
10.49073387734904
 31
0.0
  0
LINE
  5
3E9
330
2
100
AcDbEntity
  8
GAIKEI
  6
Continuous
 62
     1
100
AcDbLine
 10
-26.705720561715
 20
10.49008087734899
 30
0.0
 11
-26.705360561715
 21
10.49029787734901
 31
0.0
  0
LINE
  5
3EA
330
2
100
AcDbEntity
  8
GAIKEI
  6
Continuous
 62
     1
100
AcDbLine
 10
-26.706080561715
 20
10.48986387734896
 30
0.0
 11
-26.705720561715
 21
10.49008087734899
 31
0.0
  0
LINE
  5
3EB
330
2
100
AcDbEntity
  8
GAIKEI
  6
Continuous
 62
     1
100
AcDbLine
 10
-26.706440561715
 20
10.48964587734906
 30
0.0
 11
-26.706080561715
 21
10.48986387734896
 31
0.0
  0
LINE
  5
3EC
330
2
100
AcDbEntity
  8
GAIKEI
  6
Continuous
 62
     1
100
AcDbLine
 10
-26.706800561715
 20
10.48942787734904
 30
0.0
 11
-26.706440561715
 21
10.48964587734906
 31
0.0
  0
LINE
  5
3ED
330
2
100
AcDbEntity
  8
GAIKEI
  6
Continuous
 62
     1
100
AcDbLine
 10
-26.707160561715
 20
10.48920887734903
 30
0.0
 11
-26.706800561715
 21
10.48942787734904
 31
0.0
  0
LINE
  5
3EE
330
2
100
AcDbEntity
  8
GAIKEI
  6
Continuous
 62
     1
100
AcDbLine
 10
-26.707520561715
 20
10.48898987734901
 30
0.0
 11
-26.707160561715
 21
10.48920887734903
 31
0.0
  0
LINE
  5
3EF
330
2
100
AcDbEntity
  8
GAIKEI
  6
Continuous
 62
     1
100
AcDbLine
 10
-26.707880561715
 20
10.488770877349
 30
0.0
 11
-26.707520561715
 21
10.48898987734901
 31
0.0
  0
LINE
  5
3F0
330
2
100
AcDbEntity
  8
GAIKEI
  6
Continuous
 62
     1
100
AcDbLine
 10
-26.708240561715
 20
10.48855187734898
 30
0.0
 11
-26.707880561715
 21
10.488770877349
 31
0.0
  0
LINE
  5
3F1
330
2
100
AcDbEntity
  8
GAIKEI
  6
Continuous
 62
     1
100
AcDbLine
 10
-26.708601561715
 20
10.48833187734897
 30
0.0
 11
-26.708240561715
 21
10.48855187734898
 31
0.0
  0
LINE
  5
3F2
330
2
100
AcDbEntity
  8
GAIKEI
  6
Continuous
 62
     1
100
AcDbLine
 10
-26.708962561715
 20
10.48811187734907
 30
0.0
 11
-26.708601561715
 21
10.48833187734897
 31
0.0
  0
LINE
  5
3F3
330
2
100
AcDbEntity
  8
GAIKEI
  6
Continuous
 62
     1
100
AcDbLine
 10
-26.70932356171511
 20
10.48789107734899
 30
0.0
 11
-26.708962561715
 21
10.48811187734907
 31
0.0
  0
LINE
  5
3F4
330
2
100
AcDbEntity
  8
GAIKEI
  6
Continuous
 62
     1
100
AcDbLine
 10
-26.70968456171499
 20
10.48766987734905
 30
0.0
 11
-26.70932356171511
 21
10.48789107734899
 31
0.0
  0
LINE
  5
3F5
330
2
100
AcDbEntity
  8
GAIKEI
  6
Continuous
 62
     1
100
AcDbLine
 10
-26.71004576171504
 20
10.48744807734908
 30
0.0
 11
-26.70968456171499
 21
10.48766987734905
 31
0.0
  0
LINE
  5
3F6
330
2
100
AcDbEntity
  8
GAIKEI
  6
Continuous
 62
     1
100
AcDbLine
 10
-26.71040656171499
 20
10.48722587734903
 30
0.0
 11
-26.71004576171504
 21
10.48744807734908
 31
0.0
  0
LINE
  5
3F7
330
2
100
AcDbEntity
  8
GAIKEI
  6
Continuous
 62
     1
100
AcDbLine
 10
-26.71076876171503
 20
10.48700307734896
 30
0.0
 11
-26.71040656171499
 21
10.48722587734903
 31
0.0
  0
LINE
  5
3F8
330
2
100
AcDbEntity
  8
GAIKEI
  6
Continuous
 62
     1
100
AcDbLine
 10
-26.71113056171498
 20
10.48677987734902
 30
0.0
 11
-26.71076876171503
 21
10.48700307734896
 31
0.0
  0
LINE
  5
3F9
330
2
100
AcDbEntity
  8
GAIKEI
  6
Continuous
 62
     1
100
AcDbLine
 10
-26.71149376171502
 20
10.48655507734906
 30
0.0
 11
-26.71113056171498
 21
10.48677987734902
 31
0.0
  0
LINE
  5
3FA
330
2
100
AcDbEntity
  8
GAIKEI
  6
Continuous
 62
     1
100
AcDbLine
 10
-26.71185656171508
 20
10.48632987734902
 30
0.0
 11
-26.71149376171502
 21
10.48655507734906
 31
0.0
  0
LINE
  5
3FB
330
2
100
AcDbEntity
  8
GAIKEI
  6
Continuous
 62
     1
100
AcDbLine
 10
-26.71221876171501
 20
10.48610407734907
 30
0.0
 11
-26.71185656171508
 21
10.48632987734902
 31
0.0
  0
LINE
  5
3FC
330
2
100
AcDbEntity
  8
GAIKEI
  6
Continuous
 62
     1
100
AcDbLine
 10
-26.71258056171507
 20
10.48587787734902
 30
0.0
 11
-26.71221876171501
 21
10.48610407734907
 31
0.0
  0
LINE
  5
3FD
330
2
100
AcDbEntity
  8
GAIKEI
  6
Continuous
 62
     1
100
AcDbLine
 10
-26.71294476171511
 20
10.48564907734896
 30
0.0
 11
-26.71258056171507
 21
10.48587787734902
 31
0.0
  0
LINE
  5
3FE
330
2
100
AcDbEntity
  8
GAIKEI
  6
Continuous
 62
     1
100
AcDbLine
 10
-26.71330856171505
 20
10.48541987734904
 30
0.0
 11
-26.71294476171511
 21
10.48564907734896
 31
0.0
  0
LINE
  5
3FF
330
2
100
AcDbEntity
  8
GAIKEI
  6
Continuous
 62
     1
100
AcDbLine
 10
-26.71367276171509
 20
10.48519007734899
 30
0.0
 11
-26.71330856171505
 21
10.48541987734904
 31
0.0
  0
LINE
  5
400
330
2
100
AcDbEntity
  8
GAIKEI
  6
Continuous
 62
     1
100
AcDbLine
 10
-26.71403656171503
 20
10.48495987734907
 30
0.0
 11
-26.71367276171509
 21
10.48519007734899
 31
0.0
  0
LINE
  5
401
330
2
100
AcDbEntity
  8
GAIKEI
  6
Continuous
 62
     1
100
AcDbLine
 10
-26.71440076171507
 20
10.48472707734902
 30
0.0
 11
-26.71403656171503
 21
10.48495987734907
 31
0.0
  0
LINE
  5
402
330
2
100
AcDbEntity
  8
GAIKEI
  6
Continuous
 62
     1
100
AcDbLine
 10
-26.71476456171502
 20
10.48449387734899
 30
0.0
 11
-26.71440076171507
 21
10.48472707734902
 31
0.0
  0
LINE
  5
403
330
2
100
AcDbEntity
  8
GAIKEI
  6
Continuous
 62
     1
100
AcDbLine
 10
-26.71512976171505
 20
10.48425907734906
 30
0.0
 11
-26.71476456171502
 21
10.48449387734899
 31
0.0
  0
LINE
  5
404
330
2
100
AcDbEntity
  8
GAIKEI
  6
Continuous
 62
     1
100
AcDbLine
 10
-26.7154945617151
 20
10.48402387734904
 30
0.0
 11
-26.71512976171505
 21
10.48425907734906
 31
0.0
  0
LINE
  5
405
330
2
100
AcDbEntity
  8
GAIKEI
  6
Continuous
 62
     1
100
AcDbLine
 10
-26.71586076171502
 20
10.483787077349
 30
0.0
 11
-26.7154945617151
 21
10.48402387734904
 31
0.0
  0
LINE
  5
406
330
2
100
AcDbEntity
  8
GAIKEI
  6
Continuous
 62
     1
100
AcDbLine
 10
-26.71622656171507
 20
10.48354987734899
 30
0.0
 11
-26.71586076171502
 21
10.483787077349
 31
0.0
  0
LINE
  5
407
330
2
100
AcDbEntity
  8
GAIKEI
  6
Continuous
 62
     1
100
AcDbLine
 10
-26.71659276171499
 20
10.48331207734907
 30
0.0
 11
-26.71622656171507
 21
10.48354987734899
 31
0.0
  0
LINE
  5
408
330
2
100
AcDbEntity
  8
GAIKEI
  6
Continuous
 62
     1
100
AcDbLine
 10
-26.71695856171505
 20
10.48307387734905
 30
0.0
 11
-26.71659276171499
 21
10.48331207734907
 31
0.0
  0
LINE
  5
409
330
2
100
AcDbEntity
  8
GAIKEI
  6
Continuous
 62
     1
100
AcDbLine
 10
-26.71732576171507
 20
10.48283327734907
 30
0.0
 11
-26.71695856171505
 21
10.48307387734905
 31
0.0
  0
LINE
  5
40A
330
2
100
AcDbEntity
  8
GAIKEI
  6
Continuous
 62
     1
100
AcDbLine
 10
-26.71769256171501
 20
10.48259187734902
 30
0.0
 11
-26.71732576171507
 21
10.48283327734907
 31
0.0
  0
LINE
  5
40B
330
2
100
AcDbEntity
  8
GAIKEI
  6
Continuous
 62
     1
100
AcDbLine
 10
-26.71805976171504
 20
10.48234927734904
 30
0.0
 11
-26.71769256171501
 21
10.48259187734902
 31
0.0
  0
LINE
  5
40C
330
2
100
AcDbEntity
  8
GAIKEI
  6
Continuous
 62
     1
100
AcDbLine
 10
-26.71842656171498
 20
10.482105877349
 30
0.0
 11
-26.71805976171504
 21
10.48234927734904
 31
0.0
  0
LINE
  5
40D
330
2
100
AcDbEntity
  8
GAIKEI
  6
Continuous
 62
     1
100
AcDbLine
 10
-26.71879396171505
 20
10.48186127734902
 30
0.0
 11
-26.71842656171498
 21
10.482105877349
 31
0.0
  0
LINE
  5
40E
330
2
100
AcDbEntity
  8
GAIKEI
  6
Continuous
 62
     1
100
AcDbLine
 10
-26.71916056171506
 20
10.48161587734898
 30
0.0
 11
-26.71879396171505
 21
10.48186127734902
 31
0.0
  0
LINE
  5
40F
330
2
100
AcDbEntity
  8
GAIKEI
  6
Continuous
 62
     1
100
AcDbLine
 10
-26.71952996171501
 20
10.48136647734907
 30
0.0
 11
-26.71916056171506
 21
10.48161587734898
 31
0.0
  0
LINE
  5
410
330
2
100
AcDbEntity
  8
GAIKEI
  6
Continuous
 62
     1
100
AcDbLine
 10
-26.71989856171502
 20
10.481115877349
 30
0.0
 11
-26.71952996171501
 21
10.48136647734907
 31
0.0
  0
LINE
  5
411
330
2
100
AcDbEntity
  8
GAIKEI
  6
Continuous
 62
     1
100
AcDbLine
 10
-26.72026696171509
 20
10.48086447734897
 30
0.0
 11
-26.71989856171502
 21
10.481115877349
 31
0.0
  0
LINE
  5
412
330
2
100
AcDbEntity
  8
GAIKEI
  6
Continuous
 62
     1
100
AcDbLine
 10
-26.72063456171509
 20
10.48061187734902
 30
0.0
 11
-26.72026696171509
 21
10.48086447734897
 31
0.0
  0
LINE
  5
413
330
2
100
AcDbEntity
  8
GAIKEI
  6
Continuous
 62
     1
100
AcDbLine
 10
-26.72100496171504
 20
10.48035547734901
 30
0.0
 11
-26.72063456171509
 21
10.48061187734902
 31
0.0
  0
LINE
  5
414
330
2
100
AcDbEntity
  8
GAIKEI
  6
Continuous
 62
     1
100
AcDbLine
 10
-26.72137456171504
 20
10.48009787734907
 30
0.0
 11
-26.72100496171504
 21
10.48035547734901
 31
0.0
  0
LINE
  5
415
330
2
100
AcDbEntity
  8
GAIKEI
  6
Continuous
 62
     1
100
AcDbLine
 10
-26.72174516171504
 20
10.47983767734899
 30
0.0
 11
-26.72137456171504
 21
10.48009787734907
 31
0.0
  0
LINE
  5
416
330
2
100
AcDbEntity
  8
GAIKEI
  6
Continuous
 62
     1
100
AcDbLine
 10
-26.72211456171499
 20
10.47957587734902
 30
0.0
 11
-26.72174516171504
 21
10.47983767734899
 31
0.0
  0
LINE
  5
417
330
2
100
AcDbEntity
  8
GAIKEI
  6
Continuous
 62
     1
100
AcDbLine
 10
-26.72248516171499
 20
10.47931067734896
 30
0.0
 11
-26.72211456171499
 21
10.47957587734902
 31
0.0
  0
LINE
  5
418
330
2
100
AcDbEntity
  8
GAIKEI
  6
Continuous
 62
     1
100
AcDbLine
 10
-26.72285456171505
 20
10.479043877349
 30
0.0
 11
-26.72248516171499
 21
10.47931067734896
 31
0.0
  0
LINE
  5
419
330
2
100
AcDbEntity
  8
GAIKEI
  6
Continuous
 62
     1
100
AcDbLine
 10
-26.72322716171505
 20
10.47877267734895
 30
0.0
 11
-26.72285456171505
 21
10.479043877349
 31
0.0
  0
LINE
  5
41A
330
2
100
AcDbEntity
  8
GAIKEI
  6
Continuous
 62
     1
100
AcDbLine
 10
-26.72359856171511
 20
10.47849987734901
 30
0.0
 11
-26.72322716171505
 21
10.47877267734895
 31
0.0
  0
LINE
  5
41B
330
2
100
AcDbEntity
  8
GAIKEI
  6
Continuous
 62
     1
100
AcDbLine
 10
-26.7239711617151
 20
10.47822367734909
 30
0.0
 11
-26.72359856171511
 21
10.47849987734901
 31
0.0
  0
LINE
  5
41C
330
2
100
AcDbEntity
  8
GAIKEI
  6
Continuous
 62
     1
100
AcDbLine
 10
-26.72434256171505
 20
10.47794587734904
 30
0.0
 11
-26.7239711617151
 21
10.47822367734909
 31
0.0
  0
LINE
  5
41D
330
2
100
AcDbEntity
  8
GAIKEI
  6
Continuous
 62
     1
100
AcDbLine
 10
-26.72471536171509
 20
10.47766287734896
 30
0.0
 11
-26.72434256171505
 21
10.47794587734904
 31
0.0
  0
LINE
  5
41E
330
2
100
AcDbEntity
  8
GAIKEI
  6
Continuous
 62
     1
100
AcDbLine
 10
-26.72508656171499
 20
10.477377877349
 30
0.0
 11
-26.72471536171509
 21
10.47766287734896
 31
0.0
  0
LINE
  5
41F
330
2
100
AcDbEntity
  8
GAIKEI
  6
Continuous
 62
     1
100
AcDbLine
 10
-26.72546036171502
 20
10.47708987734904
 30
0.0
 11
-26.72508656171499
 21
10.477377877349
 31
0.0
  0
LINE
  5
420
330
2
100
AcDbEntity
  8
GAIKEI
  6
Continuous
 62
     1
100
AcDbLine
 10
-26.72583256171504
 20
10.47679987734898
 30
0.0
 11
-26.72546036171502
 21
10.47708987734904
 31
0.0
  0
LINE
  5
421
330
2
100
AcDbEntity
  8
GAIKEI
  6
Continuous
 62
     1
100
AcDbLine
 10
-26.72620836171507
 20
10.47650387734904
 30
0.0
 11
-26.72583256171504
 21
10.47679987734898
 31
0.0
  0
LINE
  5
422
330
2
100
AcDbEntity
  8
GAIKEI
  6
Continuous
 62
     1
100
AcDbLine
 10
-26.72658256171508
 20
10.476205877349
 30
0.0
 11
-26.72620836171507
 21
10.47650387734904
 31
0.0
  0
LINE
  5
423
330
2
100
AcDbEntity
  8
GAIKEI
  6
Continuous
 62
     1
100
AcDbLine
 10
-26.72695756171504
 20
10.47590207734902
 30
0.0
 11
-26.72658256171508
 21
10.476205877349
 31
0.0
  0
LINE
  5
424
330
2
100
AcDbEntity
  8
GAIKEI
  6
Continuous
 62
     1
100
AcDbLine
 10
-26.72733056171501
 20
10.47559587734906
 30
0.0
 11
-26.72695756171504
 21
10.47590207734902
 31
0.0
  0
LINE
  5
425
330
2
100
AcDbEntity
  8
GAIKEI
  6
Continuous
 62
     1
100
AcDbLine
 10
-26.72770776171501
 20
10.47528527734903
 30
0.0
 11
-26.72733056171501
 21
10.47559587734906
 31
0.0
  0
LINE
  5
426
330
2
100
AcDbEntity
  8
GAIKEI
  6
Continuous
 62
     1
100
AcDbLine
 10
-26.72808256171504
 20
10.47497187734905
 30
0.0
 11
-26.72770776171501
 21
10.47528527734903
 31
0.0
  0
LINE
  5
427
330
2
100
AcDbEntity
  8
GAIKEI
  6
Continuous
 62
     1
100
AcDbLine
 10
-26.72846016171502
 20
10.47465067734902
 30
0.0
 11
-26.72808256171504
 21
10.47497187734905
 31
0.0
  0
LINE
  5
428
330
2
100
AcDbEntity
  8
GAIKEI
  6
Continuous
 62
     1
100
AcDbLine
 10
-26.72883456171508
 20
10.47432587734909
 30
0.0
 11
-26.72846016171502
 21
10.47465067734902
 31
0.0
  0
LINE
  5
429
330
2
100
AcDbEntity
  8
GAIKEI
  6
Continuous
 62
     1
100
AcDbLine
 10
-26.72921476171507
 20
10.473992277349
 30
0.0
 11
-26.72883456171508
 21
10.47432587734909
 31
0.0
  0
LINE
  5
42A
330
2
100
AcDbEntity
  8
GAIKEI
  6
Continuous
 62
     1
100
AcDbLine
 10
-26.72959056171499
 20
10.47365387734896
 30
0.0
 11
-26.72921476171507
 21
10.473992277349
 31
0.0
  0
LINE
  5
42B
330
2
100
AcDbEntity
  8
GAIKEI
  6
Continuous
 62
     1
100
AcDbLine
 10
-26.7299707617151
 20
10.47330327734903
 30
0.0
 11
-26.72959056171499
 21
10.47365387734896
 31
0.0
  0
LINE
  5
42C
330
2
100
AcDbEntity
  8
GAIKEI
  6
Continuous
 62
     1
100
AcDbLine
 10
-26.73034656171501
 20
10.47294787734904
 30
0.0
 11
-26.7299707617151
 21
10.47330327734903
 31
0.0
  0
LINE
  5
42D
330
2
100
AcDbEntity
  8
GAIKEI
  6
Continuous
 62
     1
100
AcDbLine
 10
-26.73072816171498
 20
10.47257547734898
 30
0.0
 11
-26.73034656171501
 21
10.47294787734904
 31
0.0
  0
LINE
  5
42E
330
2
100
AcDbEntity
  8
GAIKEI
  6
Continuous
 62
     1
100
AcDbLine
 10
-26.73110656171502
 20
10.472199877349
 30
0.0
 11
-26.73072816171498
 21
10.47257547734898
 31
0.0
  0
LINE
  5
42F
330
2
100
AcDbEntity
  8
GAIKEI
  6
Continuous
 62
     1
100
AcDbLine
 10
-26.73148916171499
 20
10.47180927734905
 30
0.0
 11
-26.73110656171502
 21
10.472199877349
 31
0.0
  0
LINE
  5
430
330
2
100
AcDbEntity
  8
GAIKEI
  6
Continuous
 62
     1
100
AcDbLine
 10
-26.73186856171503
 20
10.47141587734904
 30
0.0
 11
-26.73148916171499
 21
10.47180927734905
 31
0.0
  0
LINE
  5
431
330
2
100
AcDbEntity
  8
GAIKEI
  6
Continuous
 62
     1
100
AcDbLine
 10
-26.73225256171509
 20
10.47101267734899
 30
0.0
 11
-26.73186856171503
 21
10.47141587734904
 31
0.0
  0
LINE
  5
432
330
2
100
AcDbEntity
  8
GAIKEI
  6
Continuous
 62
     1
100
AcDbLine
 10
-26.73263256171504
 20
10.47060587734904
 30
0.0
 11
-26.73225256171509
 21
10.47101267734899
 31
0.0
  0
LINE
  5
433
330
2
100
AcDbEntity
  8
GAIKEI
  6
Continuous
 62
     1
100
AcDbLine
 10
-26.73302336171503
 20
10.47018887734896
 30
0.0
 11
-26.73263256171504
 21
10.47060587734904
 31
0.0
  0
LINE
  5
434
330
2
100
AcDbEntity
  8
GAIKEI
  6
Continuous
 62
     1
100
AcDbLine
 10
-26.73340056171503
 20
10.46975987734902
 30
0.0
 11
-26.73302336171503
 21
10.47018887734896
 31
0.0
  0
LINE
  5
435
330
2
100
AcDbEntity
  8
GAIKEI
  6
Continuous
 62
     1
100
AcDbLine
 10
-26.73380176171509
 20
10.469315877349
 30
0.0
 11
-26.73340056171503
 21
10.46975987734902
 31
0.0
  0
LINE
  5
436
330
2
100
AcDbEntity
  8
GAIKEI
  6
Continuous
 62
     1
100
AcDbLine
 10
-26.73417456171501
 20
10.46884787734905
 30
0.0
 11
-26.73380176171509
 21
10.469315877349
 31
0.0
  0
LINE
  5
437
330
2
100
AcDbEntity
  8
GAIKEI
  6
Continuous
 62
     1
100
AcDbLine
 10
-26.73457556171502
 20
10.46829647734898
 30
0.0
 11
-26.73417456171501
 21
10.46884787734905
 31
0.0
  0
LINE
  5
438
330
2
100
AcDbEntity
  8
GAIKEI
  6
Continuous
 62
     1
100
AcDbLine
 10
-26.7349485617151
 20
10.46772587734904
 30
0.0
 11
-26.73457556171502
 21
10.46829647734898
 31
0.0
  0
LINE
  5
439
330
2
100
AcDbEntity
  8
GAIKEI
  6
Continuous
 62
     1
100
AcDbLine
 10
-26.73534776171505
 20
10.46699167734903
 30
0.0
 11
-26.7349485617151
 21
10.46772587734904
 31
0.0
  0
LINE
  5
43A
330
2
100
AcDbEntity
  8
GAIKEI
  6
Continuous
 62
     1
100
AcDbLine
 10
-26.73572456171508
 20
10.46624587734902
 30
0.0
 11
-26.73534776171505
 21
10.46699167734903
 31
0.0
  0
LINE
  5
43B
330
2
100
AcDbEntity
  8
GAIKEI
  6
Continuous
 62
     1
100
AcDbLine
 10
-26.73650056171505
 20
10.46444387734903
 30
0.0
 11
-26.73572456171508
 21
10.46624587734902
 31
0.0
  0
LINE
  5
43C
330
2
100
AcDbEntity
  8
GAIKEI
  6
Continuous
 62
     1
100
AcDbLine
 10
-26.72887096171507
 20
10.46045687734897
 30
0.0
 11
-26.73650056171505
 21
10.46444387734903
 31
0.0
  0
LINE
  5
43D
330
2
100
AcDbEntity
  8
GAIKEI
  6
Continuous
 62
     1
100
AcDbLine
 10
-26.72124056171504
 20
10.45647187734903
 30
0.0
 11
-26.72887096171507
 21
10.46045687734897
 31
0.0
  0
LINE
  5
43E
330
2
100
AcDbEntity
  8
GAIKEI
  6
Continuous
 62
     1
100
AcDbLine
 10
-26.71541416171499
 20
10.453428477349
 30
0.0
 11
-26.72124056171504
 21
10.45647187734903
 31
0.0
  0
LINE
  5
43F
330
2
100
AcDbEntity
  8
GAIKEI
  6
Continuous
 62
     1
100
AcDbLine
 10
-26.70958656171502
 20
10.45038787734904
 30
0.0
 11
-26.71541416171499
 21
10.453428477349
 31
0.0
  0
LINE
  5
440
330
2
100
AcDbEntity
  8
GAIKEI
  6
Continuous
 62
     1
100
AcDbLine
 10
-26.70580076171507
 20
10.448415277349
 30
0.0
 11
-26.70958656171502
 21
10.45038787734904
 31
0.0
  0
LINE
  5
441
330
2
100
AcDbEntity
  8
GAIKEI
  6
Continuous
 62
     1
100
AcDbLine
 10
-26.70201456171503
 20
10.446443877349
 30
0.0
 11
-26.70580076171507
 21
10.448415277349
 31
0.0
  0
LINE
  5
442
330
2
100
AcDbEntity
  8
GAIKEI
  6
Continuous
 62
     1
100
AcDbLine
 10
-26.69611656171503
 20
10.44337587734901
 30
0.0
 11
-26.70201456171503
 21
10.446443877349
 31
0.0
  0
LINE
  5
443
330
2
100
AcDbEntity
  8
GAIKEI
  6
Continuous
 62
     1
100
AcDbLine
 10
-26.69285476171501
 20
10.44168047734899
 30
0.0
 11
-26.69611656171503
 21
10.44337587734901
 31
0.0
  0
LINE
  5
444
330
2
100
AcDbEntity
  8
GAIKEI
  6
Continuous
 62
     1
100
AcDbLine
 10
-26.68959256171502
 20
10.43998587734904
 30
0.0
 11
-26.69285476171501
 21
10.44168047734899
 31
0.0
  0
LINE
  5
445
330
2
100
AcDbEntity
  8
GAIKEI
  6
Continuous
 62
     1
100
AcDbLine
 10
-26.68611776171508
 20
10.43818047734896
 30
0.0
 11
-26.68959256171502
 21
10.43998587734904
 31
0.0
  0
LINE
  5
446
330
2
100
AcDbEntity
  8
GAIKEI
  6
Continuous
 62
     1
100
AcDbLine
 10
-26.68264256171506
 20
10.43637587734906
 30
0.0
 11
-26.68611776171508
 21
10.43818047734896
 31
0.0
  0
LINE
  5
447
330
2
100
AcDbEntity
  8
GAIKEI
  6
Continuous
 62
     1
100
AcDbLine
 10
-26.67924576171504
 20
10.43461247734899
 30
0.0
 11
-26.68264256171506
 21
10.43637587734906
 31
0.0
  0
LINE
  5
448
330
2
100
AcDbEntity
  8
GAIKEI
  6
Continuous
 62
     1
100
AcDbLine
 10
-26.67584856171504
 20
10.43284987734898
 30
0.0
 11
-26.67924576171504
 21
10.43461247734899
 31
0.0
  0
LINE
  5
449
330
2
100
AcDbEntity
  8
GAIKEI
  6
Continuous
 62
     1
100
AcDbLine
 10
-26.67250476171501
 20
10.43111647734906
 30
0.0
 11
-26.67584856171504
 21
10.43284987734898
 31
0.0
  0
LINE
  5
44A
330
2
100
AcDbEntity
  8
GAIKEI
  6
Continuous
 62
     1
100
AcDbLine
 10
-26.66916056171499
 20
10.42938387734898
 30
0.0
 11
-26.67250476171501
 21
10.43111647734906
 31
0.0
  0
LINE
  5
44B
330
2
100
AcDbEntity
  8
GAIKEI
  6
Continuous
 62
     1
100
AcDbLine
 10
-26.66579476171501
 20
10.42764147734908
 30
0.0
 11
-26.66916056171499
 21
10.42938387734898
 31
0.0
  0
LINE
  5
44C
330
2
100
AcDbEntity
  8
GAIKEI
  6
Continuous
 62
     1
100
AcDbLine
 10
-26.66242856171505
 20
10.42589987734902
 30
0.0
 11
-26.66579476171501
 21
10.42764147734908
 31
0.0
  0
LINE
  5
44D
330
2
100
AcDbEntity
  8
GAIKEI
  6
Continuous
 62
     1
100
AcDbLine
 10
-26.6590497617151
 20
10.42415147734903
 30
0.0
 11
-26.66242856171505
 21
10.42589987734902
 31
0.0
  0
LINE
  5
44E
330
2
100
AcDbEntity
  8
GAIKEI
  6
Continuous
 62
     1
100
AcDbLine
 10
-26.65567056171506
 20
10.42240387734898
 30
0.0
 11
-26.6590497617151
 21
10.42415147734903
 31
0.0
  0
LINE
  5
44F
330
2
100
AcDbEntity
  8
GAIKEI
  6
Continuous
 62
     1
100
AcDbLine
 10
-26.6522957617151
 20
10.42065947734897
 30
0.0
 11
-26.65567056171506
 21
10.42240387734898
 31
0.0
  0
LINE
  5
450
330
2
100
AcDbEntity
  8
GAIKEI
  6
Continuous
 62
     1
100
AcDbLine
 10
-26.64892056171505
 20
10.41891587734903
 30
0.0
 11
-26.6522957617151
 21
10.42065947734897
 31
0.0
  0
LINE
  5
451
330
2
100
AcDbEntity
  8
GAIKEI
  6
Continuous
 62
     1
100
AcDbLine
 10
-26.64554776171508
 20
10.41717447734902
 30
0.0
 11
-26.64892056171505
 21
10.41891587734903
 31
0.0
  0
LINE
  5
452
330
2
100
AcDbEntity
  8
GAIKEI
  6
Continuous
 62
     1
100
AcDbLine
 10
-26.64217456171503
 20
10.41543387734907
 30
0.0
 11
-26.64554776171508
 21
10.41717447734902
 31
0.0
  0
LINE
  5
453
330
2
100
AcDbEntity
  8
GAIKEI
  6
Continuous
 62
     1
100
AcDbLine
 10
-26.63879976171506
 20
10.41369347734905
 30
0.0
 11
-26.64217456171503
 21
10.41543387734907
 31
0.0
  0
LINE
  5
454
330
2
100
AcDbEntity
  8
GAIKEI
  6
Continuous
 62
     1
100
AcDbLine
 10
-26.63542456171501
 20
10.41195387734899
 30
0.0
 11
-26.63879976171506
 21
10.41369347734905
 31
0.0
  0
LINE
  5
455
330
2
100
AcDbEntity
  8
GAIKEI
  6
Continuous
 62
     1
100
AcDbLine
 10
-26.63204776171506
 20
10.41021347734897
 30
0.0
 11
-26.63542456171501
 21
10.41195387734899
 31
0.0
  0
LINE
  5
456
330
2
100
AcDbEntity
  8
GAIKEI
  6
Continuous
 62
     1
100
AcDbLine
 10
-26.62867056171501
 20
10.40847387734902
 30
0.0
 11
-26.63204776171506
 21
10.41021347734897
 31
0.0
  0
LINE
  5
457
330
2
100
AcDbEntity
  8
GAIKEI
  6
Continuous
 62
     1
100
AcDbLine
 10
-26.62529376171506
 20
10.406735477349
 30
0.0
 11
-26.62867056171501
 21
10.40847387734902
 31
0.0
  0
LINE
  5
458
330
2
100
AcDbEntity
  8
GAIKEI
  6
Continuous
 62
     1
100
AcDbLine
 10
-26.62191656171501
 20
10.40499787734904
 30
0.0
 11
-26.62529376171506
 21
10.406735477349
 31
0.0
  0
LINE
  5
459
330
2
100
AcDbEntity
  8
GAIKEI
  6
Continuous
 62
     1
100
AcDbLine
 10
-26.61853876171506
 20
10.40326047734902
 30
0.0
 11
-26.62191656171501
 21
10.40499787734904
 31
0.0
  0
LINE
  5
45A
330
2
100
AcDbEntity
  8
GAIKEI
  6
Continuous
 62
     1
100
AcDbLine
 10
-26.61516056171502
 20
10.40152387734906
 30
0.0
 11
-26.61853876171506
 21
10.40326047734902
 31
0.0
  0
LINE
  5
45B
330
2
100
AcDbEntity
  8
GAIKEI
  6
Continuous
 62
     1
100
AcDbLine
 10
-26.61178176171507
 20
10.39978747734903
 30
0.0
 11
-26.61516056171502
 21
10.40152387734906
 31
0.0
  0
LINE
  5
45C
330
2
100
AcDbEntity
  8
GAIKEI
  6
Continuous
 62
     1
100
AcDbLine
 10
-26.60840256171502
 20
10.39805187734907
 30
0.0
 11
-26.61178176171507
 21
10.39978747734903
 31
0.0
  0
LINE
  5
45D
330
2
100
AcDbEntity
  8
GAIKEI
  6
Continuous
 62
     1
100
AcDbLine
 10
-26.60502376171507
 20
10.39631747734904
 30
0.0
 11
-26.60840256171502
 21
10.39805187734907
 31
0.0
  0
LINE
  5
45E
330
2
100
AcDbEntity
  8
GAIKEI
  6
Continuous
 62
     1
100
AcDbLine
 10
-26.60164456171504
 20
10.39458387734896
 30
0.0
 11
-26.60502376171507
 21
10.39631747734904
 31
0.0
  0
LINE
  5
45F
330
2
100
AcDbEntity
  8
GAIKEI
  6
Continuous
 62
     1
100
AcDbLine
 10
-26.59826376171509
 20
10.39285047734904
 30
0.0
 11
-26.60164456171504
 21
10.39458387734896
 31
0.0
  0
LINE
  5
460
330
2
100
AcDbEntity
  8
GAIKEI
  6
Continuous
 62
     1
100
AcDbLine
 10
-26.59488256171505
 20
10.39111787734907
 30
0.0
 11
-26.59826376171509
 21
10.39285047734904
 31
0.0
  0
LINE
  5
461
330
2
100
AcDbEntity
  8
GAIKEI
  6
Continuous
 62
     1
100
AcDbLine
 10
-26.59150176171511
 20
10.38938547734904
 30
0.0
 11
-26.59488256171505
 21
10.39111787734907
 31
0.0
  0
LINE
  5
462
330
2
100
AcDbEntity
  8
GAIKEI
  6
Continuous
 62
     1
100
AcDbLine
 10
-26.58812056171508
 20
10.38765387734907
 30
0.0
 11
-26.59150176171511
 21
10.38938547734904
 31
0.0
  0
LINE
  5
463
330
2
100
AcDbEntity
  8
GAIKEI
  6
Continuous
 62
     1
100
AcDbLine
 10
-26.58473876171502
 20
10.38592247734902
 30
0.0
 11
-26.58812056171508
 21
10.38765387734907
 31
0.0
  0
LINE
  5
464
330
2
100
AcDbEntity
  8
GAIKEI
  6
Continuous
 62
     1
100
AcDbLine
 10
-26.58135656171499
 20
10.38419187734905
 30
0.0
 11
-26.58473876171502
 21
10.38592247734902
 31
0.0
  0
LINE
  5
465
330
2
100
AcDbEntity
  8
GAIKEI
  6
Continuous
 62
     1
100
AcDbLine
 10
-26.57797376171505
 20
10.38246247734901
 30
0.0
 11
-26.58135656171499
 21
10.38419187734905
 31
0.0
  0
LINE
  5
466
330
2
100
AcDbEntity
  8
GAIKEI
  6
Continuous
 62
     1
100
AcDbLine
 10
-26.57459056171501
 20
10.38073387734903
 30
0.0
 11
-26.57797376171505
 21
10.38246247734901
 31
0.0
  0
LINE
  5
467
330
2
100
AcDbEntity
  8
GAIKEI
  6
Continuous
 62
     1
100
AcDbLine
 10
-26.57120676171508
 20
10.37900547734898
 30
0.0
 11
-26.57459056171501
 21
10.38073387734903
 31
0.0
  0
LINE
  5
468
330
2
100
AcDbEntity
  8
GAIKEI
  6
Continuous
 62
     1
100
AcDbLine
 10
-26.56782256171505
 20
10.377277877349
 30
0.0
 11
-26.57120676171508
 21
10.37900547734898
 31
0.0
  0
LINE
  5
469
330
2
100
AcDbEntity
  8
GAIKEI
  6
Continuous
 62
     1
100
AcDbLine
 10
-26.564437761715
 20
10.37555047734906
 30
0.0
 11
-26.56782256171505
 21
10.377277877349
 31
0.0
  0
LINE
  5
46A
330
2
100
AcDbEntity
  8
GAIKEI
  6
Continuous
 62
     1
100
AcDbLine
 10
-26.56105256171509
 20
10.37382387734908
 30
0.0
 11
-26.564437761715
 21
10.37555047734906
 31
0.0
  0
LINE
  5
46B
330
2
100
AcDbEntity
  8
GAIKEI
  6
Continuous
 62
     1
100
AcDbLine
 10
-26.55766776171504
 20
10.37209747734903
 30
0.0
 11
-26.56105256171509
 21
10.37382387734908
 31
0.0
  0
LINE
  5
46C
330
2
100
AcDbEntity
  8
GAIKEI
  6
Continuous
 62
     1
100
AcDbLine
 10
-26.55428256171501
 20
10.37037187734904
 30
0.0
 11
-26.55766776171504
 21
10.37209747734903
 31
0.0
  0
LINE
  5
46D
330
2
100
AcDbEntity
  8
GAIKEI
  6
Continuous
 62
     1
100
AcDbLine
 10
-26.55089576171508
 20
10.36864747734898
 30
0.0
 11
-26.55428256171501
 21
10.37037187734904
 31
0.0
  0
LINE
  5
46E
330
2
100
AcDbEntity
  8
GAIKEI
  6
Continuous
 62
     1
100
AcDbLine
 10
-26.54750856171506
 20
10.36692387734899
 30
0.0
 11
-26.55089576171508
 21
10.36864747734898
 31
0.0
  0
LINE
  5
46F
330
2
100
AcDbEntity
  8
GAIKEI
  6
Continuous
 62
     1
100
AcDbLine
 10
-26.54412176171502
 20
10.36519947734905
 30
0.0
 11
-26.54750856171506
 21
10.36692387734899
 31
0.0
  0
LINE
  5
470
330
2
100
AcDbEntity
  8
GAIKEI
  6
Continuous
 62
     1
100
AcDbLine
 10
-26.540734561715
 20
10.36347587734906
 30
0.0
 11
-26.54412176171502
 21
10.36519947734905
 31
0.0
  0
LINE
  5
471
330
2
100
AcDbEntity
  8
GAIKEI
  6
Continuous
 62
     1
100
AcDbLine
 10
-26.53734676171507
 20
10.361753477349
 30
0.0
 11
-26.540734561715
 21
10.36347587734906
 31
0.0
  0
LINE
  5
472
330
2
100
AcDbEntity
  8
GAIKEI
  6
Continuous
 62
     1
100
AcDbLine
 10
-26.53395856171505
 20
10.360031877349
 30
0.0
 11
-26.53734676171507
 21
10.361753477349
 31
0.0
  0
LINE
  5
473
330
2
100
AcDbEntity
  8
GAIKEI
  6
Continuous
 62
     1
100
AcDbLine
 10
-26.53056976171502
 20
10.35831047734905
 30
0.0
 11
-26.53395856171505
 21
10.360031877349
 31
0.0
  0
LINE
  5
474
330
2
100
AcDbEntity
  8
GAIKEI
  6
Continuous
 62
     1
100
AcDbLine
 10
-26.527180561715
 20
10.35658987734905
 30
0.0
 11
-26.53056976171502
 21
10.35831047734905
 31
0.0
  0
LINE
  5
475
330
2
100
AcDbEntity
  8
GAIKEI
  6
Continuous
 62
     1
100
AcDbLine
 10
-26.52379176171507
 20
10.35487047734898
 30
0.0
 11
-26.527180561715
 21
10.35658987734905
 31
0.0
  0
LINE
  5
476
330
2
100
AcDbEntity
  8
GAIKEI
  6
Continuous
 62
     1
100
AcDbLine
 10
-26.52040256171506
 20
10.35315187734898
 30
0.0
 11
-26.52379176171507
 21
10.35487047734898
 31
0.0
  0
LINE
  5
477
330
2
100
AcDbEntity
  8
GAIKEI
  6
Continuous
 62
     1
100
AcDbLine
 10
-26.51701176171503
 20
10.35143247734902
 30
0.0
 11
-26.52040256171506
 21
10.35315187734898
 31
0.0
  0
LINE
  5
478
330
2
100
AcDbEntity
  8
GAIKEI
  6
Continuous
 62
     1
100
AcDbLine
 10
-26.51362056171502
 20
10.34971387734902
 30
0.0
 11
-26.51701176171503
 21
10.35143247734902
 31
0.0
  0
LINE
  5
479
330
2
100
AcDbEntity
  8
GAIKEI
  6
Continuous
 62
     1
100
AcDbLine
 10
-26.51022976171498
 20
10.34799647734905
 30
0.0
 11
-26.51362056171502
 21
10.34971387734902
 31
0.0
  0
LINE
  5
47A
330
2
100
AcDbEntity
  8
GAIKEI
  6
Continuous
 62
     1
100
AcDbLine
 10
-26.50683856171509
 20
10.34627987734904
 30
0.0
 11
-26.51022976171498
 21
10.34799647734905
 31
0.0
  0
LINE
  5
47B
330
2
100
AcDbEntity
  8
GAIKEI
  6
Continuous
 62
     1
100
AcDbLine
 10
-26.50344676171505
 20
10.34456347734897
 30
0.0
 11
-26.50683856171509
 21
10.34627987734904
 31
0.0
  0
LINE
  5
47C
330
2
100
AcDbEntity
  8
GAIKEI
  6
Continuous
 62
     1
100
AcDbLine
 10
-26.50005456171505
 20
10.34284787734907
 30
0.0
 11
-26.50344676171505
 21
10.34456347734897
 31
0.0
  0
LINE
  5
47D
330
2
100
AcDbEntity
  8
GAIKEI
  6
Continuous
 62
     1
100
AcDbLine
 10
-26.49666176171502
 20
10.34113247734899
 30
0.0
 11
-26.50005456171505
 21
10.34284787734907
 31
0.0
  0
LINE
  5
47E
330
2
100
AcDbEntity
  8
GAIKEI
  6
Continuous
 62
     1
100
AcDbLine
 10
-26.49326856171501
 20
10.33941787734909
 30
0.0
 11
-26.49666176171502
 21
10.34113247734899
 31
0.0
  0
LINE
  5
47F
330
2
100
AcDbEntity
  8
GAIKEI
  6
Continuous
 62
     1
100
AcDbLine
 10
-26.4898747617151
 20
10.33770347734901
 30
0.0
 11
-26.49326856171501
 21
10.33941787734909
 31
0.0
  0
LINE
  5
480
330
2
100
AcDbEntity
  8
GAIKEI
  6
Continuous
 62
     1
100
AcDbLine
 10
-26.4864805617151
 20
10.33598987734899
 30
0.0
 11
-26.4898747617151
 21
10.33770347734901
 31
0.0
  0
LINE
  5
481
330
2
100
AcDbEntity
  8
GAIKEI
  6
Continuous
 62
     1
100
AcDbLine
 10
-26.48308676171507
 20
10.33427747734902
 30
0.0
 11
-26.4864805617151
 21
10.33598987734899
 31
0.0
  0
LINE
  5
482
330
2
100
AcDbEntity
  8
GAIKEI
  6
Continuous
 62
     1
100
AcDbLine
 10
-26.47969256171507
 20
10.332565877349
 30
0.0
 11
-26.48308676171507
 21
10.33427747734902
 31
0.0
  0
LINE
  5
483
330
2
100
AcDbEntity
  8
GAIKEI
  6
Continuous
 62
     1
100
AcDbLine
 10
-26.47629676171505
 20
10.33085447734902
 30
0.0
 11
-26.47969256171507
 21
10.332565877349
 31
0.0
  0
LINE
  5
484
330
2
100
AcDbEntity
  8
GAIKEI
  6
Continuous
 62
     1
100
AcDbLine
 10
-26.47290056171505
 20
10.329143877349
 30
0.0
 11
-26.47629676171505
 21
10.33085447734902
 31
0.0
  0
LINE
  5
485
330
2
100
AcDbEntity
  8
GAIKEI
  6
Continuous
 62
     1
100
AcDbLine
 10
-26.46610856171503
 20
10.32572187734899
 30
0.0
 11
-26.47290056171505
 21
10.329143877349
 31
0.0
  0
ARC
  5
486
330
2
100
AcDbEntity
  8
GAIKEI
100
AcDbCircle
 10
-26.78479040593834
 20
10.49885944499965
 30
0.0
 40
0.4210758123884918
100
AcDbArc
 50
344.5358699734233
 51
0.352482314536562
  0
ARC
  5
487
330
2
100
AcDbEntity
  8
GAIKEI
100
AcDbCircle
 10
-26.56694295152715
 20
10.43143162114756
 30
0.0
 40
0.1932595962684795
100
AcDbArc
 50
315.8231960156248
 51
346.5822504324827
  0
LINE
  5
488
330
2
100
AcDbEntity
  8
GAIKEI
100
AcDbLine
 10
-27.18821456171509
 20
9.633941877349002
 30
0.0
 11
-26.42633056171508
 21
10.29862307734902
 31
0.0
  0
ARC
  5
489
330
2
100
AcDbEntity
  8
GAIKEI
100
AcDbCircle
 10
-28.07340613617242
 20
10.7734375986189
 30
0.0
 40
0.178
100
AcDbArc
 50
179.9261309802286
 51
227.836744260702
  0
LINE
  5
48A
330
2
100
AcDbEntity
  8
GAIKEI
 62
     1
100
AcDbLine
 10
-26.73650056171505
 20
10.46444387734903
 30
0.0
 11
-28.19878256171501
 21
10.64683587734896
 31
0.0
  0
LINE
  5
48B
330
2
100
AcDbEntity
  8
GAIKEI
100
AcDbLine
 10
-27.1874005617151
 20
9.730951877348957
 30
0.0
 11
-28.19288781151005
 21
10.64149772875953
 31
0.0
  0
LINE
  5
48C
330
2
100
AcDbEntity
  8
GAIKEI
 62
     1
100
AcDbLine
 10
-26.55952456171508
 20
15.05432787734901
 30
0.0
 11
-26.55811056171501
 21
10.68528787734897
 31
0.0
  0
LINE
  5
48D
330
2
100
AcDbEntity
  8
GAIKEI
100
AcDbLine
 10
-28.24554736171501
 20
15.31785067734904
 30
0.0
 11
-28.25140598823793
 21
10.77366708640994
 31
0.0
  0
LINE
  5
48E
330
2
100
AcDbEntity
  8
GAIKEI
100
AcDbLine
 10
-27.26107756171501
 20
18.68602087734899
 30
0.0
 11
-27.16339866683751
 21
18.77253828753015
 31
0.0
  0
LINE
  5
48F
330
2
100
AcDbEntity
  8
GAIKEI
100
AcDbLine
 10
-27.35284183260171
 20
18.60413038614285
 30
0.0
 11
-27.26107756171501
 21
18.68602087734899
 31
0.0
  0
ARC
  5
490
330
2
100
AcDbEntity
  8
GAIKEI
100
AcDbCircle
 10
-27.34294788773923
 20
18.58674907850911
 30
0.0
 40
0.02
100
AcDbArc
 50
22.6221009240426
 51
151.7793103238665
  0
ARC
  5
491
330
2
100
AcDbEntity
  8
GAIKEI
100
AcDbCircle
 10
-20.70085848555311
 20
15.02220333724006
 30
0.0
 40
7.558125626986629
100
AcDbArc
 50
151.779310323854
 51
163.1803153505539
  0
ARC
  5
492
330
2
100
AcDbEntity
  8
GAIKEI
100
AcDbCircle
 10
-20.55182603781128
 20
15.02832465833376
 30
0.0
 40
7.699167041023201
100
AcDbArc
 50
163.5448445826859
 51
177.8448926903635
  0
ARC
  5
493
330
2
100
AcDbEntity
  8
GAIKEI
 62
     1
100
AcDbCircle
 10
-36.55899504486104
 20
14.74630732473326
 30
0.0
 40
10.00421344255214
100
AcDbArc
 50
1.764363314740018
 51
22.62210092405434
  0
ARC
  5
494
330
2
100
AcDbEntity
  8
GAIKEI
100
AcDbCircle
 10
-35.89801610396597
 20
14.96693932415047
 30
0.0
 40
9.535715170509403
100
AcDbArc
 50
0.9893715426485714
 51
24.02226343818073
  0
ARC
  5
495
330
2
100
AcDbEntity
  8
GAIKEI
100
AcDbCircle
 10
-23.04815377091705
 20
27.85387534039444
 30
0.0
 40
0.0599392137943332
100
AcDbArc
 50
359.9775717193352
 51
97.49918380905491
  0
LINE
  5
496
330
2
100
AcDbEntity
  8
GAIKEI
100
AcDbLine
 10
-23.05597656171506
 20
27.913301877349
 30
0.0
 11
-23.38820056171505
 21
27.84742787734911
 31
0.0
  0
ARC
  5
497
330
2
100
AcDbEntity
  8
GAIKEI
100
AcDbCircle
 10
-18.588215561715
 20
12.6578998116197
 30
0.0
 40
16.25296006576703
100
AcDbArc
 50
75.02399339225227
 51
104.9760066077477
  0
ARC
  5
498
330
2
100
AcDbEntity
  8
GAIKEI
  6
Continuous
100
AcDbCircle
 10
34.06402405571589
 20
4.363591877348994
 30
0.0
 40
4.0
100
AcDbArc
 50
11.05754942724038
 51
22.45762200000005
  0
LINE
  5
499
330
2
100
AcDbEntity
  8
GAIKEI
  6
Continuous
100
AcDbLine
 10
36.39191822998635
 20
5.130771877349047
 30
0.0
 11
37.98976605571602
 21
5.130771877349047
 31
0.0
  0
LINE
  5
49A
330
2
100
AcDbEntity
  8
GAIKEI
  6
Continuous
100
AcDbLine
 10
36.34724205571592
 20
5.011591877349019
 30
0.0
 11
37.89162069068146
 21
5.011591877349019
 31
0.0
  0
LINE
  5
49B
330
2
100
AcDbEntity
  8
GAIKEI
  6
Continuous
100
AcDbLine
 10
36.57885605571596
 20
5.011591877349019
 30
0.0
 11
36.57885605571596
 21
4.911591877348996
 31
0.0
  0
ARC
  5
49C
330
2
100
AcDbEntity
  8
GAIKEI
  6
Continuous
100
AcDbCircle
 10
36.47885605571605
 20
4.911591877348996
 30
0.0
 40
0.1
100
AcDbArc
 50
270.0
 51
0.0
  0
LINE
  5
49D
330
2
100
AcDbEntity
  8
GAIKEI
  6
Continuous
100
AcDbLine
 10
36.37885605571592
 20
4.811591877348973
 30
0.0
 11
36.36341005571603
 21
4.811591877348973
 31
0.0
  0
LINE
  5
49E
330
2
100
AcDbEntity
  8
GAIKEI
  6
Continuous
100
AcDbLine
 10
36.47885605571605
 20
4.811591877348973
 30
0.0
 11
36.37885605571592
 21
4.811591877348973
 31
0.0
  0
LINE
  5
49F
330
2
100
AcDbEntity
  8
GAIKEI
  6
Continuous
100
AcDbLine
 10
36.31949605571595
 20
4.611591877349042
 30
0.0
 11
36.369276055716
 21
4.611591877349042
 31
0.0
  0
LINE
  5
4A0
330
2
100
AcDbEntity
  8
GAIKEI
  6
Continuous
100
AcDbLine
 10
36.36341005571603
 20
4.811591877348973
 30
0.0
 11
36.34953805571604
 21
4.811591877348973
 31
0.0
  0
ARC
  5
4A1
330
2
100
AcDbEntity
  8
GAIKEI
  6
Continuous
100
AcDbCircle
 10
37.45398805571608
 20
6.080607877349052
 30
0.0
 40
0.2
100
AcDbArc
 50
26.86220600000153
 51
52.28340799999845
  0
LINE
  5
4A2
330
2
100
AcDbEntity
  8
GAIKEI
  6
Continuous
100
AcDbLine
 10
37.57633605571596
 20
6.238819877348987
 30
0.0
 11
34.37885805571591
 21
8.711593877349059
 31
0.0
  0
LINE
  5
4A3
330
2
100
AcDbEntity
  8
GAIKEI
  6
Continuous
100
AcDbLine
 10
34.13285605571605
 20
20.71159187734906
 30
0.0
 11
34.13285605571605
 21
23.56559187734899
 31
0.0
  0
LINE
  5
4A4
330
2
100
AcDbEntity
  8
GAIKEI
  6
Continuous
100
AcDbLine
 10
33.98812205571608
 20
17.49159187734903
 30
0.0
 11
33.75085605571598
 21
16.89159187734901
 31
0.0
  0
LINE
  5
4A5
330
2
100
AcDbEntity
  8
GAIKEI
  6
Continuous
100
AcDbLine
 10
34.13285605571605
 20
17.85759187734902
 30
0.0
 11
33.98812205571608
 21
17.49159187734903
 31
0.0
  0
LINE
  5
4A6
330
2
100
AcDbEntity
  8
GAIKEI
  6
Continuous
100
AcDbLine
 10
34.13285605571605
 20
20.71159187734906
 30
0.0
 11
34.13285605571605
 21
17.85759187734902
 31
0.0
  0
LINE
  5
4A7
330
2
100
AcDbEntity
  8
GAIKEI
  6
Continuous
100
AcDbLine
 10
33.98812205571608
 20
23.93159187734898
 30
0.0
 11
33.75085605571598
 21
24.531591877349
 31
0.0
  0
LINE
  5
4A8
330
2
100
AcDbEntity
  8
GAIKEI
  6
Continuous
100
AcDbLine
 10
34.13285605571605
 20
23.56559187734899
 30
0.0
 11
33.98812405571607
 21
23.93158987734898
 31
0.0
  0
ARC
  5
4A9
330
2
100
AcDbEntity
  8
GAIKEI
  6
Continuous
100
AcDbCircle
 10
34.06402405571589
 20
4.363591877348994
 30
0.0
 40
4.0
100
AcDbArc
 50
22.45762200000005
 51
26.86220600000153
  0
LINE
  5
4AA
330
2
100
AcDbEntity
  8
GAIKEI
  6
Continuous
 62
     1
100
AcDbLine
 10
32.91465605571602
 20
9.011591877349019
 30
0.0
 11
32.91465605571602
 21
20.71159187734906
 31
0.0
  0
LINE
  5
4AB
330
2
100
AcDbEntity
  8
GAIKEI
  6
Continuous
100
AcDbLine
 10
32.98004605571601
 20
14.712833877349
 30
0.0
 11
32.98004605571601
 21
20.71159187734906
 31
0.0
  0
LINE
  5
4AC
330
2
100
AcDbEntity
  8
GAIKEI
  6
Continuous
 62
     1
100
AcDbLine
 10
29.45329405571602
 20
15.13159187734902
 30
0.0
 11
29.45329405571602
 21
10.50144987734904
 31
0.0
  0
LINE
  5
4AD
330
2
100
AcDbEntity
  8
GAIKEI
  6
Continuous
 62
     1
100
AcDbLine
 10
29.3993060557159
 20
10.57281987734905
 30
0.0
 11
29.39853805571602
 21
15.13268987734898
 31
0.0
  0
LINE
  5
4AE
330
2
100
AcDbEntity
  8
GAIKEI
  6
Continuous
 62
     1
100
AcDbLine
 10
22.10441805571599
 20
10.50144987734904
 30
0.0
 11
22.10441805571599
 21
15.13159187734902
 31
0.0
  0
LINE
  5
4AF
330
2
100
AcDbEntity
  8
GAIKEI
  6
Continuous
 62
     1
100
AcDbLine
 10
22.158540055716
 20
15.13147187734898
 30
0.0
 11
22.159306055716
 21
10.57160387734905
 31
0.0
  0
LINE
  5
4B0
330
2
100
AcDbEntity
  8
GAIKEI
  6
Continuous
100
AcDbLine
 10
33.40450205571597
 20
9.011591877349019
 30
0.0
 11
33.40450205571597
 21
13.51162325877055
 31
0.0
  0
LINE
  5
4B1
330
2
100
AcDbEntity
  8
GAIKEI
  6
Continuous
100
AcDbLine
 10
32.60504005571602
 20
8.711593877349059
 30
0.0
 11
32.59980205571606
 21
9.011591877349019
 31
0.0
  0
LINE
  5
4B2
330
2
100
AcDbEntity
  8
GAIKEI
  6
Continuous
 62
     1
100
AcDbLine
 10
32.98111605571603
 20
20.71159187734906
 30
0.0
 11
32.92111805571608
 21
20.71159187734906
 31
0.0
  0
LINE
  5
4B3
330
2
100
AcDbEntity
  8
GAIKEI
  6
Continuous
 62
     1
100
AcDbLine
 10
32.98004605571601
 20
20.71159187734906
 30
0.0
 11
32.91465605571602
 21
20.71159187734906
 31
0.0
  0
LINE
  5
4B4
330
2
100
AcDbEntity
  8
GAIKEI
  6
Continuous
 62
     1
100
AcDbLine
 10
33.30602005571609
 20
20.71159187734906
 30
0.0
 11
33.18070605571597
 21
20.71159187734906
 31
0.0
  0
LINE
  5
4B5
330
2
100
AcDbEntity
  8
GAIKEI
  6
Continuous
 62
     1
100
AcDbLine
 10
33.18070605571597
 20
20.71159187734906
 30
0.0
 11
32.98111605571603
 21
20.71159187734906
 31
0.0
  0
LWPOLYLINE
  5
4B6
330
2
100
AcDbEntity
  8
GAIKEI
  6
Continuous
100
AcDbPolyline
 90
       40
 70
     0
 43
0.0
 10
25.77885405571607
 20
27.91278587734905
 10
25.77885405571607
 20
27.91285387734899
 10
25.77885405571607
 20
27.91291787734906
 10
25.77885405571607
 20
27.91298187734901
 10
25.77885405571607
 20
27.91304387734908
 10
25.77885405571607
 20
27.91310187734905
 10
25.77885405571607
 20
27.91315987734902
 10
25.77885405571607
 20
27.913213877349
 10
25.77885405571607
 20
27.91326787734909
 10
25.77885605571601
 20
27.91331787734907
 10
25.77885605571601
 20
27.91336587734907
 10
25.77885605571601
 20
27.91341387734906
 10
25.77885605571601
 20
27.91345787734906
 10
25.77885605571601
 20
27.91349987734907
 10
25.77885605571601
 20
27.91353987734908
 10
25.77885605571601
 20
27.91357587734899
 10
25.77885605571601
 20
27.91361187734902
 10
25.77885605571601
 20
27.91364587734904
 10
25.77885605571601
 20
27.913660877349
 10
25.77885605571601
 20
27.91367587734908
 10
25.77885605571601
 20
27.91368987734904
 10
25.77885605571601
 20
27.91370387734901
 10
25.77885605571601
 20
27.91371687734898
 10
25.77885605571601
 20
27.91372987734906
 10
25.77885605571601
 20
27.91374187734902
 10
25.77885605571601
 20
27.913753877349
 10
25.77885605571601
 20
27.91376487734908
 10
25.77885605571601
 20
27.91377587734905
 10
25.77885505571595
 20
27.91378487734903
 10
25.77885405571607
 20
27.91379387734901
 10
25.77885405571607
 20
27.9138018773491
 10
25.77885405571607
 20
27.91380987734908
 10
25.77885405571607
 20
27.91381687734907
 10
25.77885405571607
 20
27.91382387734905
 10
25.77885405571607
 20
27.91382987734903
 10
25.77885405571607
 20
27.91383587734902
 10
25.77885405571607
 20
27.913840877349
 10
25.77885405571607
 20
27.91384587734899
 10
25.77885405571607
 20
27.91385087734909
 10
25.77885405571607
 20
27.91385587734908
  0
LINE
  5
4B7
330
2
100
AcDbEntity
  8
GAIKEI
  6
Continuous
100
AcDbLine
 10
35.98503205571598
 20
3.211591877349064
 30
0.0
 11
25.77885605571601
 21
3.211591877349064
 31
0.0
  0
LINE
  5
4B8
330
2
100
AcDbEntity
  8
GAIKEI
  6
Continuous
 62
     1
100
AcDbLine
 10
33.30602005571609
 20
20.71159187734906
 30
0.0
 11
34.13285605571605
 21
20.71159187734906
 31
0.0
  0
LINE
  5
4B9
330
2
100
AcDbEntity
  8
GAIKEI
  6
Continuous
 62
     1
100
AcDbLine
 10
33.98812205571608
 20
17.49159187734903
 30
0.0
 11
32.98111605571603
 21
17.49159187734903
 31
0.0
  0
LINE
  5
4BA
330
2
100
AcDbEntity
  8
GAIKEI
  6
Continuous
100
AcDbLine
 10
32.98111805571603
 20
16.89159187734901
 30
0.0
 11
33.75085605571598
 21
16.89159187734901
 31
0.0
  0
LINE
  5
4BB
330
2
100
AcDbEntity
  8
GAIKEI
  6
Continuous
 62
     1
100
AcDbLine
 10
33.98812205571608
 20
23.93159187734898
 30
0.0
 11
32.60570405571594
 21
23.93159187734898
 31
0.0
  0
LINE
  5
4BC
330
2
100
AcDbEntity
  8
GAIKEI
  6
Continuous
100
AcDbLine
 10
32.45700232483
 20
24.531591877349
 30
0.0
 11
33.75085605571598
 21
24.531591877349
 31
0.0
  0
LINE
  5
4BD
330
2
100
AcDbEntity
  8
GAIKEI
  6
Continuous
100
AcDbLine
 10
34.97885605571605
 20
1.911591877348996
 30
0.0
 11
34.97885605571605
 21
1.251591877349028
 31
0.0
  0
LINE
  5
4BE
330
2
100
AcDbEntity
  8
GAIKEI
  6
Continuous
100
AcDbLine
 10
34.97885605571605
 20
1.251591877349028
 30
0.0
 11
34.97885605571605
 21
1.051591877348982
 31
0.0
  0
LINE
  5
4BF
330
2
100
AcDbEntity
  8
GAIKEI
  6
Continuous
100
AcDbLine
 10
35.07885605571596
 20
2.211591877349064
 30
0.0
 11
35.1788560557161
 21
2.211591877349064
 31
0.0
  0
LINE
  5
4C0
330
2
100
AcDbEntity
  8
GAIKEI
  6
Continuous
100
AcDbLine
 10
35.37885605571592
 20
1.251591877349028
 30
0.0
 11
35.37885605571592
 21
1.111591877349042
 31
0.0
  0
LINE
  5
4C1
330
2
100
AcDbEntity
  8
GAIKEI
  6
Continuous
100
AcDbLine
 10
35.37885605571592
 20
2.011591877349019
 30
0.0
 11
35.37885605571592
 21
1.251591877349028
 31
0.0
  0
LINE
  5
4C2
330
2
100
AcDbEntity
  8
GAIKEI
  6
Continuous
100
AcDbLine
 10
35.31885605571597
 20
1.051591877348982
 30
0.0
 11
35.21885605571606
 21
1.051591877348982
 31
0.0
  0
ARC
  5
4C3
330
2
100
AcDbEntity
  8
GAIKEI
  6
Continuous
100
AcDbCircle
 10
35.1788560557161
 20
2.011591877349019
 30
0.0
 40
0.2
100
AcDbArc
 50
0.0
 51
90.0
  0
ARC
  5
4C4
330
2
100
AcDbEntity
  8
GAIKEI
  6
Continuous
100
AcDbCircle
 10
35.31885605571597
 20
1.111591877349042
 30
0.0
 40
0.06
100
AcDbArc
 50
270.0
 51
0.0
  0
LINE
  5
4C5
330
2
100
AcDbEntity
  8
GAIKEI
  6
Continuous
100
AcDbLine
 10
35.21885605571606
 20
1.051591877348982
 30
0.0
 11
34.97885605571605
 21
1.051591877348982
 31
0.0
  0
ARC
  5
4C6
330
2
100
AcDbEntity
  8
GAIKEI
  6
Continuous
100
AcDbCircle
 10
35.05885605571598
 20
1.099257877349032
 30
0.0
 40
0.06
100
AcDbArc
 50
270.0
 51
301.9966399999999
  0
ARC
  5
4C7
330
2
100
AcDbEntity
  8
GAIKEI
  6
Continuous
100
AcDbCircle
 10
34.51885605571602
 20
1.111591877349042
 30
0.0
 40
0.1
100
AcDbArc
 50
270.0
 51
0.0
  0
LINE
  5
4C8
330
2
100
AcDbEntity
  8
GAIKEI
  6
Continuous
100
AcDbLine
 10
34.61885605571592
 20
1.011591877349019
 30
0.0
 11
34.61885605571592
 21
1.039257877348973
 31
0.0
  0
LINE
  5
4C9
330
2
100
AcDbEntity
  8
GAIKEI
  6
Continuous
100
AcDbLine
 10
34.91885605571588
 20
1.039257877348973
 30
0.0
 11
34.58829005571601
 21
1.039257877348973
 31
0.0
  0
LINE
  5
4CA
330
2
100
AcDbEntity
  8
GAIKEI
  6
Continuous
100
AcDbLine
 10
34.61885605571592
 20
1.330375877349069
 30
0.0
 11
34.61885605571592
 21
1.619799877349009
 31
0.0
  0
LINE
  5
4CB
330
2
100
AcDbEntity
  8
GAIKEI
  6
Continuous
100
AcDbLine
 10
34.61885605571592
 20
1.111591877349042
 30
0.0
 11
34.61885605571592
 21
1.330375877349069
 31
0.0
  0
LINE
  5
4CC
330
2
100
AcDbEntity
  8
GAIKEI
  6
Continuous
100
AcDbLine
 10
34.61885605571592
 20
1.011591877349019
 30
0.0
 11
34.51885605571602
 21
1.011591877349019
 31
0.0
  0
LINE
  5
4CD
330
2
100
AcDbEntity
  8
GAIKEI
  6
Continuous
100
AcDbLine
 10
34.68067016578118
 20
1.911591877348996
 30
0.0
 11
34.97885605571605
 21
1.911591877348996
 31
0.0
  0
LINE
  5
4CE
330
2
100
AcDbEntity
  8
GAIKEI
  6
Continuous
100
AcDbLine
 10
34.74733649935638
 20
2.211591877349064
 30
0.0
 11
35.07885605571596
 21
2.211591877349064
 31
0.0
  0
LINE
  5
4CF
330
2
100
AcDbEntity
  8
GAIKEI
  6
Continuous
100
AcDbLine
 10
35.05885605571598
 20
1.039257877348973
 30
0.0
 11
34.91885605571588
 21
1.039257877348973
 31
0.0
  0
ARC
  5
4D0
330
2
100
AcDbEntity
  8
GAIKEI
  6
Continuous
100
AcDbCircle
 10
17.49368805571601
 20
4.363591877348994
 30
0.0
 40
4.0
100
AcDbArc
 50
157.5423779999999
 51
173.5693800000005
  0
LINE
  5
4D1
330
2
100
AcDbEntity
  8
GAIKEI
  6
Continuous
100
AcDbLine
 10
13.61885605571592
 20
4.811591877348973
 30
0.0
 11
13.61885605571592
 21
4.611591877349042
 31
0.0
  0
ARC
  5
4D2
330
2
100
AcDbEntity
  8
GAIKEI
  6
Continuous
100
AcDbCircle
 10
13.90310005571598
 20
3.411591877348996
 30
0.0
 40
0.2
100
AcDbArc
 50
197.4576000000008
 51
270.0
  0
ARC
  5
4D3
330
2
100
AcDbEntity
  8
GAIKEI
  6
Continuous
100
AcDbCircle
 10
17.71885605571594
 20
4.611591877349042
 30
0.0
 40
4.2
100
AcDbArc
 50
180.0
 51
197.4576000000008
  0
LINE
  5
4D4
330
2
100
AcDbEntity
  8
GAIKEI
  6
Continuous
 62
     1
100
AcDbLine
 10
18.57766605571601
 20
20.71159187734906
 30
0.0
 11
18.57766605571601
 21
14.712833877349
 31
0.0
  0
LINE
  5
4D5
330
2
100
AcDbEntity
  8
GAIKEI
  6
Continuous
 62
     1
100
AcDbLine
 10
18.64305605571599
 20
20.71159187734906
 30
0.0
 11
18.64305605571599
 21
9.011591877349019
 31
0.0
  0
LINE
  5
4D6
330
2
100
AcDbEntity
  8
GAIKEI
  6
Continuous
100
AcDbLine
 10
18.15321005571593
 20
13.51162325877055
 30
0.0
 11
18.15321005571593
 21
9.011591877349019
 31
0.0
  0
ARC
  5
4D7
330
2
100
AcDbEntity
  8
GAIKEI
  6
Continuous
100
AcDbCircle
 10
14.10372405571593
 20
6.080607877349052
 30
0.0
 40
0.2
100
AcDbArc
 50
127.7165899999995
 51
153.1377900000019
  0
ARC
  5
4D8
330
2
100
AcDbEntity
  8
GAIKEI
  6
Continuous
100
AcDbCircle
 10
17.49368805571601
 20
4.363591877348994
 30
0.0
 40
4.0
100
AcDbArc
 50
153.1377900000019
 51
157.5423779999999
  0
LINE
  5
4D9
330
2
100
AcDbEntity
  8
GAIKEI
  6
Continuous
100
AcDbLine
 10
17.17885805571597
 20
8.711593877349059
 30
0.0
 11
13.98137205571595
 21
6.238819877348987
 31
0.0
  0
LINE
  5
4DA
330
2
100
AcDbEntity
  8
GAIKEI
  6
Continuous
100
AcDbLine
 10
18.95791005571595
 20
9.011591877349019
 30
0.0
 11
18.95267605571598
 21
8.711593877349059
 31
0.0
  0
LINE
  5
4DB
330
2
100
AcDbEntity
  8
GAIKEI
  6
Continuous
100
AcDbLine
 10
18.57659205571599
 20
14.712833877349
 30
0.0
 11
18.63659405571593
 21
14.712833877349
 31
0.0
  0
LINE
  5
4DC
330
2
100
AcDbEntity
  8
GAIKEI
  6
Continuous
100
AcDbLine
 10
18.45389605571597
 20
13.68466987734905
 30
0.0
 11
18.15321005571593
 21
13.51162325877055
 31
0.0
  0
LINE
  5
4DD
330
2
100
AcDbEntity
  8
GAIKEI
  6
Continuous
100
AcDbLine
 10
17.51885605571601
 20
24.21159187734907
 30
0.0
 11
17.51885605571601
 21
17.21159187734906
 31
0.0
  0
LINE
  5
4DE
330
2
100
AcDbEntity
  8
GAIKEI
  6
Continuous
 62
     1
100
AcDbLine
 10
17.41285605571602
 20
20.71159187734906
 30
0.0
 11
17.41285605571602
 21
22.26988187734901
 31
0.0
  0
LINE
  5
4DF
330
2
100
AcDbEntity
  8
GAIKEI
  6
Continuous
 62
     1
100
AcDbLine
 10
17.41285605571602
 20
20.71159187734906
 30
0.0
 11
17.41285605571602
 21
24.03083587734898
 31
0.0
  0
LINE
  5
4E0
330
2
100
AcDbEntity
  8
GAIKEI
  6
Continuous
100
AcDbLine
 10
17.31285605571599
 20
20.71159187734906
 30
0.0
 11
17.31285605571599
 21
23.93083387734896
 31
0.0
  0
LINE
  5
4E1
330
2
100
AcDbEntity
  8
GAIKEI
  6
Continuous
100
AcDbLine
 10
17.31285605571599
 20
20.71159187734906
 30
0.0
 11
17.31285605571599
 21
22.22293387734908
 31
0.0
  0
LINE
  5
4E2
330
2
100
AcDbEntity
  8
GAIKEI
  6
Continuous
 62
     1
100
AcDbLine
 10
18.57659205571599
 20
20.71159187734906
 30
0.0
 11
18.63659405571593
 21
20.71159187734906
 31
0.0
  0
LINE
  5
4E3
330
2
100
AcDbEntity
  8
GAIKEI
  6
Continuous
 62
     1
100
AcDbLine
 10
18.64305605571599
 20
20.71159187734906
 30
0.0
 11
18.57766605571601
 21
20.71159187734906
 31
0.0
  0
LINE
  5
4E4
330
2
100
AcDbEntity
  8
GAIKEI
  6
Continuous
 62
     1
100
AcDbLine
 10
17.88500605571596
 20
20.71159187734906
 30
0.0
 11
17.67837405571595
 21
20.71159187734906
 31
0.0
  0
LINE
  5
4E5
330
2
100
AcDbEntity
  8
GAIKEI
  6
Continuous
 62
     1
100
AcDbLine
 10
17.41285605571602
 20
20.71159187734906
 30
0.0
 11
17.51885405571602
 21
20.71159187734906
 31
0.0
  0
LINE
  5
4E6
330
2
100
AcDbEntity
  8
GAIKEI
  6
Continuous
 62
     1
100
AcDbLine
 10
17.31285605571599
 20
20.71159187734906
 30
0.0
 11
17.41285605571602
 21
20.71159187734906
 31
0.0
  0
LINE
  5
4E7
330
2
100
AcDbEntity
  8
GAIKEI
  6
Continuous
100
AcDbLine
 10
17.51885605571601
 20
17.21159187734906
 30
0.0
 11
18.11534405571592
 21
17.21159187734906
 31
0.0
  0
LINE
  5
4E8
330
2
100
AcDbEntity
  8
GAIKEI
  6
Continuous
100
AcDbLine
 10
17.51885605571601
 20
17.38679587734907
 30
0.0
 11
17.41285605571602
 21
17.39235187734903
 31
0.0
  0
LINE
  5
4E9
330
2
100
AcDbEntity
  8
GAIKEI
  6
Continuous
100
AcDbLine
 10
17.41285605571602
 20
17.39235187734903
 30
0.0
 11
17.31285805571599
 21
17.49235187734905
 31
0.0
  0
LINE
  5
4EA
330
2
100
AcDbEntity
  8
GAIKEI
  6
Continuous
 62
     1
100
AcDbLine
 10
17.41285605571602
 20
20.71159187734906
 30
0.0
 11
17.41285605571602
 21
17.39235187734903
 31
0.0
  0
LINE
  5
4EB
330
2
100
AcDbEntity
  8
GAIKEI
  6
Continuous
100
AcDbLine
 10
17.31285605571599
 20
20.71159187734906
 30
0.0
 11
17.31285605571599
 21
17.49235187734905
 31
0.0
  0
LINE
  5
4EC
330
2
100
AcDbEntity
  8
GAIKEI
  6
Continuous
 62
     1
100
AcDbLine
 10
18.57659205571599
 20
20.71159187734906
 30
0.0
 11
17.88500605571596
 21
20.71159187734906
 31
0.0
  0
LINE
  5
4ED
330
2
100
AcDbEntity
  8
GAIKEI
  6
Continuous
100
AcDbLine
 10
18.11534405571592
 20
24.21159187734907
 30
0.0
 11
17.51885605571601
 21
24.21159187734907
 31
0.0
  0
LINE
  5
4EE
330
2
100
AcDbEntity
  8
GAIKEI
  6
Continuous
100
AcDbLine
 10
17.51885605571601
 20
24.03638787734906
 30
0.0
 11
17.41285605571602
 21
24.03083587734898
 31
0.0
  0
LINE
  5
4EF
330
2
100
AcDbEntity
  8
GAIKEI
  6
Continuous
100
AcDbLine
 10
17.41285605571602
 20
24.03083587734898
 30
0.0
 11
17.31285805571599
 21
23.93082987734897
 31
0.0
  0
LINE
  5
4F0
330
2
100
AcDbEntity
  8
GAIKEI
  6
Continuous
 62
     1
100
AcDbLine
 10
17.41285605571602
 20
23.32718987734904
 30
0.0
 11
17.51885605571601
 21
23.33156787734901
 31
0.0
  0
LINE
  5
4F1
330
2
100
AcDbEntity
  8
GAIKEI
  6
Continuous
 62
     1
100
AcDbLine
 10
17.31285605571599
 20
23.24838987734904
 30
0.0
 11
17.41285605571602
 21
23.32718987734904
 31
0.0
  0
LINE
  5
4F2
330
2
100
AcDbEntity
  8
GAIKEI
  6
Continuous
 62
     1
100
AcDbLine
 10
17.41285605571602
 20
22.26988187734901
 30
0.0
 11
17.31285605571599
 21
22.22293387734908
 31
0.0
  0
LINE
  5
4F3
330
2
100
AcDbEntity
  8
GAIKEI
  6
Continuous
 62
     1
100
AcDbLine
 10
17.51885605571601
 20
22.27248987734902
 30
0.0
 11
17.41285605571602
 21
22.26988187734901
 31
0.0
  0
LINE
  5
4F4
330
2
100
AcDbEntity
  8
GAIKEI
  6
Continuous
 62
     1
100
AcDbLine
 10
17.31285605571599
 20
23.12290587734901
 30
0.0
 11
17.51885605571601
 21
23.12087987734901
 31
0.0
  0
LINE
  5
4F5
330
2
100
AcDbEntity
  8
GAIKEI
  6
Continuous
100
AcDbLine
 10
17.31285605571599
 20
22.22293187734897
 30
0.0
 11
17.31285605571599
 21
23.12290587734901
 31
0.0
  0
LINE
  5
4F6
330
2
100
AcDbEntity
  8
GAIKEI
  6
Continuous
 62
     1
100
AcDbLine
 10
17.31285605571599
 20
23.12290587734901
 30
0.0
 11
17.31285605571599
 21
23.24838987734904
 31
0.0
  0
LINE
  5
4F7
330
2
100
AcDbEntity
  8
GAIKEI
  6
Continuous
100
AcDbLine
 10
15.26565205571603
 20
1.330373877348961
 30
0.0
 11
15.99885605571603
 21
1.011591877349019
 31
0.0
  0
LINE
  5
4F8
330
2
100
AcDbEntity
  8
GAIKEI
  6
Continuous
100
AcDbLine
 10
16.02067805571596
 20
1.011591877349019
 30
0.0
 11
15.99885605571603
 21
1.011591877349019
 31
0.0
  0
LINE
  5
4F9
330
2
100
AcDbEntity
  8
GAIKEI
  6
Continuous
100
AcDbLine
 10
16.19519205571601
 20
1.011591877349019
 30
0.0
 11
16.01011805571602
 21
1.011591877349019
 31
0.0
  0
LINE
  5
4FA
330
2
100
AcDbEntity
  8
GAIKEI
  6
Continuous
100
AcDbLine
 10
16.28231405571603
 20
1.011591877349019
 30
0.0
 11
16.195194055716
 21
1.011591877349019
 31
0.0
  0
LINE
  5
4FB
330
2
100
AcDbEntity
  8
GAIKEI
  6
Continuous
100
AcDbLine
 10
16.38583805571602
 20
1.011591877349019
 30
0.0
 11
16.28231405571603
 21
1.011591877349019
 31
0.0
  0
ARC
  5
4FC
330
2
100
AcDbEntity
  8
GAIKEI
  6
Continuous
100
AcDbCircle
 10
15.42514405571603
 20
1.697203877349011
 30
0.0
 40
0.4
100
AcDbArc
 50
192.5288099999995
 51
246.50143
  0
LINE
  5
4FD
330
2
100
AcDbEntity
  8
GAIKEI
  6
Continuous
100
AcDbLine
 10
14.67885605571598
 20
3.211589877349069
 30
0.0
 11
15.034668055716
 21
1.610427877349025
 31
0.0
  0
LINE
  5
4FE
330
2
100
AcDbEntity
  8
GAIKEI
  6
Continuous
100
AcDbLine
 10
18.77885645571598
 20
1.011591877349019
 30
0.0
 11
34.51885605571602
 21
1.011591877349019
 31
0.0
  0
LINE
  5
4FF
330
2
100
AcDbEntity
  8
GAIKEI
  6
Continuous
 62
     1
100
AcDbLine
 10
15.03466925571592
 20
1.610431877349014
 30
0.0
 11
34.61374605571609
 21
1.610431877349014
 31
0.0
  0
LINE
  5
500
330
2
100
AcDbEntity
  8
GAIKEI
  6
Continuous
 62
     1
100
AcDbLine
 10
34.61885605571592
 20
1.330375877349069
 30
0.0
 11
15.26564745571602
 21
1.330375877349069
 31
0.0
  0
LINE
  5
501
330
2
100
AcDbEntity
  8
GAIKEI
  6
Continuous
100
AcDbLine
 10
25.77885605571601
 20
3.211591877349064
 30
0.0
 11
13.90310005571598
 21
3.211591877349064
 31
0.0
  0
LINE
  5
502
330
2
100
AcDbEntity
  8
GAIKEI
  6
Continuous
 62
     1
100
AcDbLine
 10
13.51885605571601
 20
4.611591877349042
 30
0.0
 11
36.35555005571587
 21
4.611591877349042
 31
0.0
  0
LINE
  5
503
330
2
100
AcDbEntity
  8
GAIKEI
  6
Continuous
100
AcDbLine
 10
25.77885605571601
 20
1.011591877349019
 30
0.0
 11
16.38584005571601
 21
1.011591877349019
 31
0.0
  0
LINE
  5
504
330
2
100
AcDbEntity
  8
GAIKEI
  6
Continuous
 62
     1
100
AcDbLine
 10
13.51885605571601
 20
4.811591877348973
 30
0.0
 11
36.34953805571604
 21
4.811591877348973
 31
0.0
  0
LINE
  5
505
330
2
100
AcDbEntity
  8
GAIKEI
  6
Continuous
 62
     1
100
AcDbLine
 10
13.71231405571598
 20
3.351591877349051
 30
0.0
 11
36.17581989599938
 21
3.351591877349051
 31
0.0
  0
DIMENSION
  5
506
330
2
100
AcDbEntity
  8
SUNPO
100
AcDbDimension
  2
*D6
 10
38.0388552315369
 20
36.917627662065
 30
0.0
 11
25.77885523153694
 21
38.667627662065
 31
0.0
 70
    33
  1
φ123
 71
     5
 42
24.51999999999993
  3
STANDARD
100
AcDbAlignedDimension
 13
13.51885523153697
 23
28.917627662065
 33
0.0
 14
38.0388552315369
 24
28.917627662065
 34
0.0
1001
ACAD
1000
DSTYLE
1002
{
1070
   287
1070
     3
1070
   287
1070
     3
1070
   287
1070
     3
1070
   287
1070
     3
1070
   287
1070
     3
1070
    40
1040
1.0
1070
   140
1040
2.5
1070
   147
1040
0.5
1070
   172
1070
     1
1070
   279
1070
     0
1002
}
  0
LINE
  5
515
330
2
100
AcDbEntity
  8
GAIKEI
  6
Continuous
 62
     1
100
AcDbLine
 10
37.63240605571605
 20
6.170977877349059
 30
0.0
 11
13.92530605571596
 21
6.170977877349059
 31
0.0
  0
LINE
  5
516
330
2
100
AcDbEntity
  8
GAIKEI
  6
Continuous
 62
     1
100
AcDbLine
 10
37.63240605571605
 20
6.170977877349059
 30
0.0
 11
13.92530405571597
 21
6.170977877349059
 31
0.0
  0
ARC
  5
517
330
2
100
AcDbEntity
  8
GAIKEI
  6
Continuous
 62
     1
100
AcDbCircle
 10
25.77885605571601
 20
20.71159187734906
 30
0.0
 40
7.2011904
100
AcDbArc
 50
0.0
 51
180.0
  0
ARC
  5
518
330
2
100
AcDbEntity
  8
GAIKEI
  6
Continuous
 62
     1
100
AcDbCircle
 10
25.77885605571601
 20
20.71159187734906
 30
0.0
 40
7.1358
100
AcDbArc
 50
0.0
 51
180.0
  0
LINE
  5
519
330
2
100
AcDbEntity
  8
GAIKEI
  6
Continuous
100
AcDbLine
 10
34.37885605571592
 20
8.711591877349064
 30
0.0
 11
17.17885605571598
 21
8.711591877349064
 31
0.0
  0
LINE
  5
51A
330
2
100
AcDbEntity
  8
GAIKEI
  6
Continuous
100
AcDbLine
 10
34.37885605571592
 20
8.711591877349064
 30
0.0
 11
17.17885605571598
 21
8.711591877349064
 31
0.0
  0
LINE
  5
51B
330
2
100
AcDbEntity
  8
GAIKEI
  6
Continuous
100
AcDbLine
 10
33.40450205571597
 20
9.011591877349019
 30
0.0
 11
18.15321005571593
 21
9.011591877349019
 31
0.0
  0
LINE
  5
51C
330
2
100
AcDbEntity
  8
GAIKEI
  6
Continuous
 62
     1
100
AcDbLine
 10
13.98137405571594
 20
6.238817877348992
 30
0.0
 11
37.57633605571596
 21
6.238817877348992
 31
0.0
  0
ARC
  5
51D
330
2
100
AcDbEntity
  8
GAIKEI
  6
Continuous
100
AcDbCircle
 10
-10.30304856171506
 20
4.363591877348994
 30
0.0
 40
4.0
100
AcDbArc
 50
6.430619999999513
 51
22.45762200000005
  0
LINE
  5
51E
330
2
100
AcDbEntity
  8
GAIKEI
  6
Continuous
100
AcDbLine
 10
-6.42821456171498
 20
4.811591877348973
 30
0.0
 11
-6.42821456171498
 21
4.611591877349042
 31
0.0
  0
ARC
  5
51F
330
2
100
AcDbEntity
  8
GAIKEI
  6
Continuous
100
AcDbCircle
 10
-10.528214561715
 20
4.611591877349042
 30
0.0
 40
4.2
100
AcDbArc
 50
342.5423999999992
 51
0.0
  0
ARC
  5
520
330
2
100
AcDbEntity
  8
GAIKEI
  6
Continuous
100
AcDbCircle
 10
-6.712458561715038
 20
3.411591877348996
 30
0.0
 40
0.2
100
AcDbArc
 50
270.0
 51
342.5423999999992
  0
LINE
  5
521
330
2
100
AcDbEntity
  8
GAIKEI
  6
Continuous
 62
     1
100
AcDbLine
 10
-14.18821456171508
 20
27.85385587734902
 30
0.0
 11
-14.18821456171508
 21
20.71159187734906
 31
0.0
  0
LINE
  5
522
330
2
100
AcDbEntity
  8
GAIKEI
  6
Continuous
 62
     1
100
AcDbLine
 10
-14.38821456171502
 20
28.358815877349
 30
0.0
 11
-14.38821456171502
 21
20.71159187734906
 31
0.0
  0
LINE
  5
523
330
2
100
AcDbEntity
  8
GAIKEI
  6
Continuous
100
AcDbLine
 10
-10.04821456171498
 20
9.011591877349019
 30
0.0
 11
-13.81186456171508
 21
9.011591877349019
 31
0.0
  0
LINE
  5
524
330
2
100
AcDbEntity
  8
GAIKEI
  6
Continuous
 62
     1
100
AcDbLine
 10
-18.53821456171499
 20
13.476925877349
 30
0.0
 11
-18.53821456171499
 21
9.071591877349078
 31
0.0
  0
LINE
  5
525
330
2
100
AcDbEntity
  8
GAIKEI
  6
Continuous
 62
     1
100
AcDbLine
 10
-18.63821456171502
 20
9.071591877349078
 30
0.0
 11
-18.63821456171502
 21
13.476925877349
 31
0.0
  0
LINE
  5
526
330
2
100
AcDbEntity
  8
GAIKEI
  6
Continuous
100
AcDbLine
 10
-13.81186456171508
 20
9.011591877349019
 30
0.0
 11
-18.53834256171501
 21
9.011591877349019
 31
0.0
  0
LINE
  5
527
330
2
100
AcDbEntity
  8
GAIKEI
  6
Continuous
 62
     1
100
AcDbLine
 10
-18.53821456171499
 20
9.071591877349078
 30
0.0
 11
-18.53834256171501
 21
9.011591877349019
 31
0.0
  0
LINE
  5
528
330
2
100
AcDbEntity
  8
GAIKEI
  6
Continuous
 62
     1
100
AcDbLine
 10
-18.63821456171502
 20
9.171591877348987
 30
0.0
 11
-18.53821456171499
 21
9.171591877348987
 31
0.0
  0
LINE
  5
529
330
2
100
AcDbEntity
  8
GAIKEI
  6
Continuous
 62
     1
100
AcDbLine
 10
-18.53821456171499
 20
9.111591877349042
 30
0.0
 11
-18.63821456171502
 21
9.111591877349042
 31
0.0
  0
LINE
  5
52A
330
2
100
AcDbEntity
  8
GAIKEI
  6
Continuous
 62
     1
100
AcDbLine
 10
-18.63808856171499
 20
9.011591877349019
 30
0.0
 11
-18.63821456171502
 21
9.071591877349078
 31
0.0
  0
LINE
  5
52B
330
2
100
AcDbEntity
  8
GAIKEI
  6
Continuous
 62
     1
100
AcDbLine
 10
-11.76203456171504
 20
8.711593877349059
 30
0.0
 11
-11.76726856171501
 21
9.011591877349019
 31
0.0
  0
LWPOLYLINE
  5
52C
330
2
100
AcDbEntity
  8
GAIKEI
  6
Continuous
100
AcDbPolyline
 90
       76
 70
     0
 43
0.0
 10
-13.78821856171498
 20
9.071595877349068
 10
-13.78849856171507
 20
9.069163877349069
 10
-13.78864676171508
 20
9.067956477348957
 10
-13.7888005617151
 20
9.066749877349025
 10
-13.78895976171498
 20
9.065552477349001
 10
-13.78912456171508
 20
9.064355877349044
 10
-13.78929376171498
 20
9.063169477348992
 10
-13.78946856171495
 20
9.061983877349007
 10
-13.78964776171506
 20
9.060810477349036
 10
-13.78983256171494
 20
9.059637877349018
 10
-13.79002176171497
 20
9.05847727734897
 10
-13.79021656171505
 20
9.057317877348964
 10
-13.79041556171495
 20
9.056172277348991
 10
-13.79062056171506
 20
9.055027877349061
 10
-13.79082856171499
 20
9.053898277349048
 10
-13.79104256171501
 20
9.052769877349078
 10
-13.79125956171504
 20
9.051657277349022
 10
-13.79148256171504
 20
9.050545877349009
 10
-13.79170856171504
 20
9.049451277349021
 10
-13.79194056171502
 20
9.048357877349076
 10
-13.792175561715
 20
9.047283077348993
 10
-13.79241656171507
 20
9.046209877349042
 10
-13.79266056171502
 20
9.04515607734902
 10
-13.79291056171507
 20
9.044103877349016
 10
-13.79316136171508
 20
9.043072077349052
 10
-13.79341856171504
 20
9.042041877348992
 10
-13.79367836171502
 20
9.041032077349086
 10
-13.79394456171502
 20
9.040023877348971
 10
-13.79421236171504
 20
9.039038877349071
 10
-13.79448656171507
 20
9.038055877349052
 10
-13.79476116171509
 20
9.037095877349088
 10
-13.79504256171503
 20
9.036137877349005
 10
-13.79532516171503
 20
9.035205877349085
 10
-13.79561456171507
 20
9.034275877349045
 10
-13.79590416171504
 20
9.033369677349014
 10
-13.79620056171507
 20
9.032465877349068
 10
-13.79649796171497
 20
9.031589677348961
 10
-13.79680256171502
 20
9.030715877349052
 10
-13.79710496171503
 20
9.029869477349052
 10
-13.79741456171507
 20
9.029025877348999
 10
-13.79772476171502
 20
9.028211277348987
 10
-13.79804256171508
 20
9.027399877349012
 10
-13.79835856171502
 20
9.026617277349032
 10
-13.79868256171505
 20
9.02583787734909
 10
-13.79900356171504
 20
9.02508907734898
 10
-13.799332561715
 20
9.024343877348997
 10
-13.79966036171498
 20
9.02362987734898
 10
-13.79999656171503
 20
9.022919877348954
 10
-13.80033016171501
 20
9.022242677349026
 10
-13.80067256171503
 20
9.021569877349065
 10
-13.801010961715
 20
9.020928477349002
 10
-13.801358561715
 20
9.020291877348995
 10
-13.80170196171502
 20
9.019689077348971
 10
-13.80205456171507
 20
9.019091877349069
 10
-13.80240276171497
 20
9.018528677349081
 10
-13.80276056171505
 20
9.017971877349054
 10
-13.80311436171507
 20
9.017449277348987
 10
-13.80347856171499
 20
9.01693387734906
 10
-13.80383536171502
 20
9.016452877349024
 10
-13.8042025617151
 20
9.015979877348968
 10
-13.80456076171504
 20
9.015541677349006
 10
-13.80492856171503
 20
9.015111877348999
 10
-13.80529816171508
 20
9.014717477348995
 10
-13.80567856171501
 20
9.014333877349031
 10
-13.806058761715
 20
9.013982277348986
 10
-13.8064525617151
 20
9.013645877349063
 10
-13.80681356171499
 20
9.013342677348987
 10
-13.80718456171507
 20
9.013051877349084
 10
-13.80751716171505
 20
9.012804077349073
 10
-13.80785256171492
 20
9.012559877348962
 10
-13.80828076171508
 20
9.012346477349069
 10
-13.808720561715
 20
9.012157877349068
 10
-13.80938856171508
 20
9.011954477349036
 10
-13.81007656171505
 20
9.011835877348971
 10
-13.81096536171497
 20
9.011685077349056
 10
-13.81186256171503
 20
9.011595877349009
  0
LINE
  5
52D
330
2
100
AcDbEntity
  8
GAIKEI
  6
Continuous
 62
     1
100
AcDbLine
 10
-18.53821456171499
 20
14.044333877349
 30
0.0
 11
-14.98821456171504
 21
14.044333877349
 31
0.0
  0
LINE
  5
52E
330
2
100
AcDbEntity
  8
GAIKEI
  6
Continuous
 62
     1
100
AcDbLine
 10
-18.53834256171501
 20
13.52892987734901
 30
0.0
 11
-18.53821456171499
 21
13.476925877349
 31
0.0
  0
LINE
  5
52F
330
2
100
AcDbEntity
  8
GAIKEI
  6
Continuous
 62
     1
100
AcDbLine
 10
-18.53821456171499
 20
13.52892987734901
 30
0.0
 11
-18.53821456171499
 21
14.044333877349
 31
0.0
  0
LINE
  5
530
330
2
100
AcDbEntity
  8
GAIKEI
  6
Continuous
 62
     1
100
AcDbLine
 10
-18.53821456171499
 20
13.44222987734906
 30
0.0
 11
-18.63821456171502
 21
13.44222987734906
 31
0.0
  0
LINE
  5
531
330
2
100
AcDbEntity
  8
GAIKEI
  6
Continuous
 62
     1
100
AcDbLine
 10
-18.63821456171502
 20
13.97510787734904
 30
0.0
 11
-18.53821456171499
 21
13.97510787734904
 31
0.0
  0
LINE
  5
532
330
2
100
AcDbEntity
  8
GAIKEI
  6
Continuous
 62
     1
100
AcDbLine
 10
-18.63818856171508
 20
13.49423387734907
 30
0.0
 11
-18.53824256171504
 21
13.49423387734907
 31
0.0
  0
LINE
  5
533
330
2
100
AcDbEntity
  8
GAIKEI
  6
Continuous
 62
     1
100
AcDbLine
 10
-18.63821456171502
 20
14.044333877349
 30
0.0
 11
-18.63821456171502
 21
13.52892987734901
 31
0.0
  0
LINE
  5
534
330
2
100
AcDbEntity
  8
GAIKEI
  6
Continuous
 62
     1
100
AcDbLine
 10
-18.63821456171502
 20
13.476925877349
 30
0.0
 11
-18.63808856171499
 21
13.52892987734901
 31
0.0
  0
LINE
  5
535
330
2
100
AcDbEntity
  8
GAIKEI
  6
Continuous
 62
     1
100
AcDbLine
 10
-18.53821456171499
 20
13.98492987734903
 30
0.0
 11
-18.63821456171502
 21
13.98492987734903
 31
0.0
  0
ARC
  5
536
330
2
100
AcDbEntity
  8
GAIKEI
  6
Continuous
 62
     1
100
AcDbCircle
 10
-18.58821456171506
 20
20.71159187734906
 30
0.0
 40
3.3192408
100
AcDbArc
 50
0.0
 51
27.99999999999859
  0
ARC
  5
537
330
2
100
AcDbEntity
  8
GAIKEI
  6
Continuous
 62
     1
100
AcDbCircle
 10
-18.58821456171506
 20
20.71159187734906
 30
0.0
 40
3.06
100
AcDbArc
 50
0.0
 51
27.99999999999859
  0
LINE
  5
538
330
2
100
AcDbEntity
  8
GAIKEI
  6
Continuous
 62
     1
100
AcDbLine
 10
-15.36897456171505
 20
20.71159187734906
 30
0.0
 11
-15.26897456171503
 21
20.71159187734906
 31
0.0
  0
LINE
  5
539
330
2
100
AcDbEntity
  8
GAIKEI
  6
Continuous
 62
     1
100
AcDbLine
 10
-15.528214561715
 20
20.71159187734906
 30
0.0
 11
-15.36897456171505
 21
20.71159187734906
 31
0.0
  0
LINE
  5
53A
330
2
100
AcDbEntity
  8
GAIKEI
  6
Continuous
 62
     1
100
AcDbLine
 10
-18.68821456171508
 20
17.01159187734902
 30
0.0
 11
-18.48821456171504
 21
17.01159187734902
 31
0.0
  0
LINE
  5
53B
330
2
100
AcDbEntity
  8
GAIKEI
  6
Continuous
 62
     1
100
AcDbLine
 10
-18.68821456171508
 20
16.21159187734906
 30
0.0
 11
-18.48821456171504
 21
16.21159187734906
 31
0.0
  0
LINE
  5
53C
330
2
100
AcDbEntity
  8
GAIKEI
  6
Continuous
 62
     1
100
AcDbLine
 10
-18.48821456171504
 20
16.21159187734906
 30
0.0
 11
-18.48821456171504
 21
17.01159187734902
 31
0.0
  0
LINE
  5
53D
330
2
100
AcDbEntity
  8
GAIKEI
  6
Continuous
 62
     1
100
AcDbLine
 10
-18.68821456171508
 20
16.21159187734906
 30
0.0
 11
-18.68821456171508
 21
17.01159187734902
 31
0.0
  0
LINE
  5
53E
330
2
100
AcDbEntity
  8
GAIKEI
  6
Continuous
 62
     1
100
AcDbLine
 10
-14.18821456171508
 20
20.71159187734906
 30
0.0
 11
-15.08821856171505
 21
20.71159187734906
 31
0.0
  0
LINE
  5
53F
330
2
100
AcDbEntity
  8
GAIKEI
  6
Continuous
 62
     1
100
AcDbLine
 10
-15.26897456171503
 20
20.71159187734906
 30
0.0
 11
-15.25505856171503
 21
20.71159187734906
 31
0.0
  0
LINE
  5
540
330
2
100
AcDbEntity
  8
GAIKEI
  6
Continuous
 62
     1
100
AcDbLine
 10
-15.642138561715
 20
22.27804987734907
 30
0.0
 11
-15.56853456171507
 21
22.31718587734906
 31
0.0
  0
LINE
  5
541
330
2
100
AcDbEntity
  8
GAIKEI
  6
Continuous
 62
     1
100
AcDbLine
 10
-16.48265256171498
 20
23.40658987734901
 30
0.0
 11
-16.52903656171509
 21
23.34722187734906
 31
0.0
  0
LINE
  5
542
330
2
100
AcDbEntity
  8
GAIKEI
  6
Continuous
 62
     1
100
AcDbLine
 10
-16.54468656171502
 20
23.32718987734904
 30
0.0
 11
-16.52903656171509
 21
23.34722187734906
 31
0.0
  0
LINE
  5
543
330
2
100
AcDbEntity
  8
GAIKEI
  6
Continuous
 62
     1
100
AcDbLine
 10
-16.60625256171499
 20
23.24838987734904
 30
0.0
 11
-16.54468656171502
 21
23.32718987734904
 31
0.0
  0
LINE
  5
544
330
2
100
AcDbEntity
  8
GAIKEI
  6
Continuous
 62
     1
100
AcDbLine
 10
-16.70429056171508
 20
23.12290587734901
 30
0.0
 11
-16.60625256171499
 21
23.24838987734904
 31
0.0
  0
LINE
  5
545
330
2
100
AcDbEntity
  8
GAIKEI
  6
Continuous
 62
     1
100
AcDbLine
 10
-16.70429056171508
 20
23.12290587734901
 30
0.0
 11
-16.709546561715
 21
23.11617987734905
 31
0.0
  0
LINE
  5
546
330
2
100
AcDbEntity
  8
GAIKEI
  6
Continuous
 62
     1
100
AcDbLine
 10
-15.745794561715
 20
22.22293387734908
 30
0.0
 11
-15.88639656171506
 21
22.14817587734899
 31
0.0
  0
LINE
  5
547
330
2
100
AcDbEntity
  8
GAIKEI
  6
Continuous
 62
     1
100
AcDbLine
 10
-15.65750056171498
 20
22.26988187734901
 30
0.0
 11
-15.745794561715
 21
22.22293387734908
 31
0.0
  0
ARC
  5
548
330
2
100
AcDbEntity
  8
GAIKEI
  6
Continuous
 62
     1
100
AcDbCircle
 10
-18.58821456171506
 20
20.71159187734906
 30
0.0
 40
3.3
100
AcDbArc
 50
28.00001100000094
 51
52.00002500000036
  0
ARC
  5
549
330
2
100
AcDbEntity
  8
GAIKEI
  6
Continuous
 62
     1
100
AcDbCircle
 10
-18.58821456171506
 20
20.71159187734906
 30
0.0
 40
3.42
100
AcDbArc
 50
27.99999999999859
 51
52.00000000000161
  0
LINE
  5
54A
330
2
100
AcDbEntity
  8
GAIKEI
  6
Continuous
 62
     1
100
AcDbLine
 10
-15.642138561715
 20
22.27804987734907
 30
0.0
 11
-15.65750056171498
 21
22.26988187734901
 31
0.0
  0
LINE
  5
54B
330
2
100
AcDbEntity
  8
GAIKEI
  6
Continuous
100
AcDbLine
 10
-6.790734561714998
 20
6.238817877348992
 30
0.0
 11
-9.988214561715039
 21
8.711593877349059
 31
0.0
  0
ARC
  5
54C
330
2
100
AcDbEntity
  8
GAIKEI
  6
Continuous
100
AcDbCircle
 10
-10.30304856171506
 20
4.363591877348994
 30
0.0
 40
4.0
100
AcDbArc
 50
22.45762200000005
 51
26.86220600000153
  0
ARC
  5
54D
330
2
100
AcDbEntity
  8
GAIKEI
  6
Continuous
100
AcDbCircle
 10
-6.913084561714981
 20
6.080607877349052
 30
0.0
 40
0.2
100
AcDbArc
 50
26.86220600000153
 51
52.28340799999845
  0
ARC
  5
54E
330
2
100
AcDbEntity
  8
GAIKEI
  6
Continuous
100
AcDbCircle
 10
-26.87338256171506
 20
4.363591877348994
 30
0.0
 40
4.0
100
AcDbArc
 50
157.5423779999999
 51
173.5693800000005
  0
LINE
  5
54F
330
2
100
AcDbEntity
  8
GAIKEI
  6
Continuous
100
AcDbLine
 10
-30.74821456171503
 20
4.811591877348973
 30
0.0
 11
-30.74821456171503
 21
4.611591877349042
 31
0.0
  0
ARC
  5
550
330
2
100
AcDbEntity
  8
GAIKEI
  6
Continuous
100
AcDbCircle
 10
-26.64821456171501
 20
4.611591877349042
 30
0.0
 40
4.2
100
AcDbArc
 50
180.0
 51
197.4576000000008
  0
ARC
  5
551
330
2
100
AcDbEntity
  8
GAIKEI
  6
Continuous
100
AcDbCircle
 10
-30.46397256171508
 20
3.411591877348996
 30
0.0
 40
0.2
100
AcDbArc
 50
197.4576000000008
 51
270.0
  0
ARC
  5
552
330
2
100
AcDbEntity
  8
GAIKEI
  6
Continuous
100
AcDbCircle
 10
-18.58821456171506
 20
20.71159187734906
 30
0.0
 40
8.599999999999999
100
AcDbArc
 50
123.9270999999995
 51
180.0
  0
LINE
  5
553
330
2
100
AcDbEntity
  8
GAIKEI
  6
Continuous
100
AcDbLine
 10
-27.18821656171508
 20
8.711593877349059
 30
0.0
 11
-30.38569656171501
 21
6.238817877348992
 31
0.0
  0
ARC
  5
554
330
2
100
AcDbEntity
  8
GAIKEI
  6
Continuous
100
AcDbCircle
 10
-26.87338256171506
 20
4.363591877348994
 30
0.0
 40
4.0
100
AcDbArc
 50
153.1377900000019
 51
157.5423779999999
  0
ARC
  5
555
330
2
100
AcDbEntity
  8
GAIKEI
  6
Continuous
100
AcDbCircle
 10
-30.26334656171503
 20
6.080607877349052
 30
0.0
 40
0.2
100
AcDbArc
 50
127.7165899999995
 51
153.1377900000019
  0
LINE
  5
556
330
2
100
AcDbEntity
  8
GAIKEI
  6
Continuous
 62
     1
100
AcDbLine
 10
-23.38821456171502
 20
27.84742787734899
 30
0.0
 11
-23.38821456171502
 21
9.071591877349078
 31
0.0
  0
LINE
  5
557
330
2
100
AcDbEntity
  8
GAIKEI
  6
Continuous
 62
     1
100
AcDbLine
 10
-22.98821456171504
 20
20.71159187734906
 30
0.0
 11
-22.98821456171504
 21
27.85385187734903
 31
0.0
  0
LINE
  5
558
330
2
100
AcDbEntity
  8
GAIKEI
  6
Continuous
 62
     1
100
AcDbLine
 10
-22.78821456171499
 20
28.358815877349
 30
0.0
 11
-22.78821456171499
 21
20.71159187734906
 31
0.0
  0
LINE
  5
559
330
2
100
AcDbEntity
  8
GAIKEI
  6
Continuous
 62
     1
100
AcDbLine
 10
-22.98776216171507
 20
14.69249147734899
 30
0.0
 11
-22.98821456171504
 21
20.71159187734906
 31
0.0
  0
LINE
  5
55A
330
2
100
AcDbEntity
  8
GAIKEI
  6
Continuous
 62
     1
100
AcDbLine
 10
-22.78821656171499
 20
14.36911787734902
 30
0.0
 11
-22.78821456171499
 21
20.71159187734906
 31
0.0
  0
LINE
  5
55B
330
2
100
AcDbEntity
  8
GAIKEI
  6
Continuous
100
AcDbLine
 10
-26.36372256171501
 20
15.13159187734902
 30
0.0
 11
-26.36372256171501
 21
10.50144987734904
 31
0.0
  0
LINE
  5
55C
330
2
100
AcDbEntity
  8
GAIKEI
  6
Continuous
100
AcDbLine
 10
-23.36456656171504
 20
9.011591877349019
 30
0.0
 11
-27.12821456171508
 21
9.011591877349019
 31
0.0
  0
LINE
  5
55D
330
2
100
AcDbEntity
  8
GAIKEI
  6
Continuous
 62
     1
100
AcDbLine
 10
-26.36372256171501
 20
10.57062787734901
 30
0.0
 11
-26.38821456171502
 21
10.57062787734901
 31
0.0
  0
LINE
  5
55E
330
2
100
AcDbEntity
  8
GAIKEI
  6
Continuous
 62
     1
100
AcDbLine
 10
-26.40461856171498
 20
10.32572787734898
 30
0.0
 11
-26.46611256171502
 21
10.32572787734898
 31
0.0
  0
LINE
  5
55F
330
2
100
AcDbEntity
  8
GAIKEI
  6
Continuous
 62
     1
100
AcDbLine
 10
-26.55811056171501
 20
10.68528587734897
 30
0.0
 11
-26.38824456171505
 21
10.57062787734901
 31
0.0
  0
LINE
  5
560
330
2
100
AcDbEntity
  8
GAIKEI
  6
Continuous
 62
     1
100
AcDbLine
 10
-25.409160561715
 20
9.011591877349019
 30
0.0
 11
-25.41439656171508
 21
8.711593877349059
 31
0.0
  0
LINE
  5
561
330
2
100
AcDbEntity
  8
GAIKEI
  6
Continuous
100
AcDbLine
 10
-27.18821456171509
 20
9.633941877349002
 30
0.0
 11
-27.18821456171509
 21
9.071591877349021
 31
0.0
  0
LINE
  5
562
330
2
100
AcDbEntity
  8
GAIKEI
  6
Continuous
100
AcDbLine
 10
-27.18621256171502
 20
9.731107877349018
 30
0.0
 11
-27.07780656171508
 21
9.731105877349023
 31
0.0
  0
LWPOLYLINE
  5
563
330
2
100
AcDbEntity
  8
GAIKEI
  6
Continuous
100
AcDbPolyline
 90
       76
 70
     0
 43
0.0
 10
-23.38821456171502
 20
9.071595877349068
 10
-23.38793256171505
 20
9.069163877349069
 10
-23.38778436171503
 20
9.067956477348957
 10
-23.38763056171501
 20
9.066749877349025
 10
-23.38747136171503
 20
9.065552477349001
 10
-23.38730656171504
 20
9.064355877349044
 10
-23.38713736171502
 20
9.063169477348992
 10
-23.38696256171505
 20
9.061983877349007
 10
-23.38678336171506
 20
9.060810477349036
 10
-23.38659856171501
 20
9.059637877349018
 10
-23.38640936171504
 20
9.05847727734897
 10
-23.38621456171507
 20
9.057317877348964
 10
-23.38601536171507
 20
9.056172277348991
 10
-23.38581056171506
 20
9.055027877349061
 10
-23.38560236171509
 20
9.053898277349048
 10
-23.38538856171499
 20
9.052769877349078
 10
-23.38517156171509
 20
9.051657277349022
 10
-23.38494856171508
 20
9.050545877349009
 10
-23.38472256171508
 20
9.049451277349021
 10
-23.38449056171493
 20
9.048357877349076
 10
-23.38425556171495
 20
9.047283077348993
 10
-23.38401456171505
 20
9.046209877349042
 10
-23.38377056171493
 20
9.04515607734902
 10
-23.38352056171505
 20
9.044103877349016
 10
-23.383268561715
 20
9.043072077349052
 10
-23.38301056171502
 20
9.042041877348992
 10
-23.3827517617151
 20
9.041032077349086
 10
-23.38248656171499
 20
9.040023877348971
 10
-23.38221876171508
 20
9.039038877349071
 10
-23.38194456171505
 20
9.038055877349052
 10
-23.38166876171499
 20
9.037095877349088
 10
-23.38138656171503
 20
9.036137877349005
 10
-23.38110396171504
 20
9.035205877349085
 10
-23.38081456171506
 20
9.034275877349045
 10
-23.38052496171503
 20
9.033369677349014
 10
-23.380228561715
 20
9.032465877349068
 10
-23.37993216171498
 20
9.031589677348961
 10
-23.37962856171498
 20
9.030715877349052
 10
-23.37932516171503
 20
9.029869477349052
 10
-23.37901456171505
 20
9.029025877348999
 10
-23.37870536171493
 20
9.028211277348987
 10
-23.37838856171504
 20
9.027399877349012
 10
-23.37807236171511
 20
9.026617277349032
 10
-23.37774856171507
 20
9.02583787734909
 10
-23.37742656171503
 20
9.02508907734898
 10
-23.37709656171501
 20
9.024343877348997
 10
-23.37676876171508
 20
9.02362987734898
 10
-23.37643256171503
 20
9.022919877348954
 10
-23.376098961715
 20
9.022242677349026
 10
-23.37575656171492
 20
9.021569877349065
 10
-23.37541796171501
 20
9.020928477349002
 10
-23.37507056171501
 20
9.020291877348995
 10
-23.37472716171504
 20
9.019689077348971
 10
-23.374374561715
 20
9.019091877349069
 10
-23.3740263617151
 20
9.018528677349081
 10
-23.37366856171502
 20
9.017971877349054
 10
-23.37331476171505
 20
9.017449277348987
 10
-23.37295056171496
 20
9.01693387734906
 10
-23.37259376171505
 20
9.016452877349024
 10
-23.37222656171497
 20
9.015979877348968
 10
-23.37186736171509
 20
9.015541677349006
 10
-23.37149856171499
 20
9.015111877348999
 10
-23.37112996171498
 20
9.014717477348995
 10
-23.370750561715
 20
9.014333877349031
 10
-23.37036936171501
 20
9.013982277348986
 10
-23.36997456171503
 20
9.013645877349063
 10
-23.36961256171497
 20
9.013342677348987
 10
-23.36924056171501
 20
9.013051877349084
 10
-23.36890896171508
 20
9.012804077349073
 10
-23.36857456171504
 20
9.012559877348962
 10
-23.36814516171501
 20
9.012346477349069
 10
-23.36770456171507
 20
9.012157877349068
 10
-23.36703656171505
 20
9.011954477349036
 10
-23.36634856171503
 20
9.011835877348971
 10
-23.3654597617151
 20
9.011685077349056
 10
-23.36456256171505
 20
9.011595877349009
  0
LINE
  5
564
330
2
100
AcDbEntity
  8
GAIKEI
  6
Continuous
 62
     1
100
AcDbLine
 10
-22.18821456171509
 20
13.68716987734899
 30
0.0
 11
-22.18821456171509
 21
14.044333877349
 31
0.0
  0
LINE
  5
565
330
2
100
AcDbEntity
  8
GAIKEI
  6
Continuous
100
AcDbLine
 10
-27.18821456171509
 20
20.71159187734906
 30
0.0
 11
-27.18821456171509
 21
18.84884876509409
 31
0.0
  0
LINE
  5
566
330
2
100
AcDbEntity
  8
GAIKEI
  6
Continuous
 62
     1
100
AcDbLine
 10
-20.69377879641604
 20
18.01659665406032
 30
0.0
 11
-20.47213904467878
 21
18.30027925919091
 31
0.0
  0
LINE
  5
567
330
2
100
AcDbEntity
  8
GAIKEI
  6
Continuous
 62
     1
100
AcDbLine
 10
-20.46908056171503
 20
18.30419387734901
 30
0.0
 11
-20.47213856171504
 21
18.300279877349
 31
0.0
  0
LINE
  5
568
330
2
100
AcDbEntity
  8
GAIKEI
  6
Continuous
 62
     1
100
AcDbLine
 10
-21.80745656171507
 20
20.71159187734906
 30
0.0
 11
-21.64821456171501
 21
20.71159187734906
 31
0.0
  0
ARC
  5
569
330
2
100
AcDbEntity
  8
GAIKEI
  6
Continuous
 62
     1
100
AcDbCircle
 10
-18.58821456171506
 20
20.71159187734906
 30
0.0
 40
3.06
100
AcDbArc
 50
180.0
 51
208.0000101218173
  0
LINE
  5
56A
330
2
100
AcDbEntity
  8
GAIKEI
  6
Continuous
 62
     1
100
AcDbLine
 10
-21.92137056171509
 20
20.71159187734906
 30
0.0
 11
-21.90745656171498
 21
20.71159187734906
 31
0.0
  0
ARC
  5
56B
330
2
100
AcDbEntity
  8
GAIKEI
  6
Continuous
 62
     1
100
AcDbCircle
 10
-18.58821456171506
 20
20.71159187734906
 30
0.0
 40
3.2192408
100
AcDbArc
 50
180.0
 51
207.9999999999986
  0
LINE
  5
56C
330
2
100
AcDbEntity
  8
GAIKEI
  6
Continuous
 62
     1
100
AcDbLine
 10
-21.90745656171498
 20
20.71159187734906
 30
0.0
 11
-21.80745656171507
 21
20.71159187734906
 31
0.0
  0
ARC
  5
56D
330
2
100
AcDbEntity
  8
GAIKEI
  6
Continuous
 62
     1
100
AcDbCircle
 10
-18.58821456171506
 20
20.71159187734906
 30
0.0
 40
3.3192408
100
AcDbArc
 50
180.0
 51
207.9999999999986
  0
LINE
  5
56E
330
2
100
AcDbEntity
  8
GAIKEI
  6
Continuous
 62
     1
100
AcDbLine
 10
-21.2900339420778
 20
19.27500841792357
 30
0.0
 11
-21.51893056171502
 21
19.153303877349
 31
0.0
  0
LINE
  5
56F
330
2
100
AcDbEntity
  8
GAIKEI
  6
Continuous
 62
     1
100
AcDbLine
 10
-21.51893056171502
 20
19.153303877349
 30
0.0
 11
-21.60789805233549
 21
19.10600425393034
 31
0.0
  0
LINE
  5
570
330
2
100
AcDbEntity
  8
GAIKEI
  6
Continuous
 62
     1
100
AcDbLine
 10
-22.08821256171507
 20
20.71159187734906
 30
0.0
 11
-22.98821456171504
 21
20.71159187734906
 31
0.0
  0
ARC
  5
571
330
2
100
AcDbEntity
  8
GAIKEI
  6
Continuous
 62
     1
100
AcDbCircle
 10
-18.58821456171506
 20
20.71159187734906
 30
0.0
 40
3.3
100
AcDbArc
 50
207.9999900000006
 51
232.0000399999994
  0
ARC
  5
572
330
2
100
AcDbEntity
  8
GAIKEI
  6
Continuous
 62
     1
100
AcDbCircle
 10
-18.58821456171506
 20
20.71159187734906
 30
0.0
 40
3.42
100
AcDbArc
 50
207.9999028277182
 51
231.9999577118864
  0
LWPOLYLINE
  5
573
330
2
100
AcDbEntity
  8
GAIKEI
  6
Continuous
 62
     1
100
AcDbPolyline
 90
        5
 70
     0
 43
0.0
 10
-19.60326056171505
 20
23.59819587734898
 10
-19.60326056171505
 20
23.5981948773491
 10
-19.60326056171505
 20
23.59819387734899
 10
-19.60325956171499
 20
23.59819387734899
 10
-19.60325856171505
 20
23.59819387734899
  0
LINE
  5
574
330
2
100
AcDbEntity
  8
GAIKEI
  6
Continuous
 62
     1
100
AcDbLine
 10
-22.98821456171504
 20
27.09159187734906
 30
0.0
 11
-22.78821656171499
 21
27.291589877349
 31
0.0
  0
LINE
  5
575
330
2
100
AcDbEntity
  8
GAIKEI
  6
Continuous
 62
     1
100
AcDbLine
 10
-30.65476056171508
 20
3.351591877349051
 30
0.0
 11
-6.521672561715035
 21
3.351591877349051
 31
0.0
  0
LINE
  5
576
330
2
100
AcDbEntity
  8
GAIKEI
  6
Continuous
 62
     7
100
AcDbLine
 10
-6.712458561715038
 20
3.211591877349064
 30
0.0
 11
-30.46397256171508
 21
3.211591877349064
 31
0.0
  0
LINE
  5
577
330
2
100
AcDbEntity
  8
GAIKEI
  6
Continuous
 62
     1
100
AcDbLine
 10
-6.328214561715071
 20
4.611591877349042
 30
0.0
 11
-30.84821456171506
 21
4.611591877349042
 31
0.0
  0
LINE
  5
578
330
2
100
AcDbEntity
  8
GAIKEI
  6
Continuous
 62
     1
100
AcDbLine
 10
-30.84821456171506
 20
4.811591877348973
 30
0.0
 11
-6.328214561715071
 21
4.811591877348973
 31
0.0
  0
DIMENSION
  5
579
330
2
100
AcDbEntity
  8
SUNPO
100
AcDbDimension
  2
*D5
 10
-6.32821456171507
 20
36.917627662065
 30
0.0
 11
-18.58821456171506
 21
38.667627662065
 31
0.0
 70
    33
  1
φ123
 71
     5
 42
24.51999999999998
  3
STANDARD
100
AcDbAlignedDimension
 13
-30.84821456171506
 23
28.917627662065
 33
0.0
 14
-6.328214561715071
 24
28.917627662065
 34
0.0
1001
ACAD
1000
DSTYLE
1002
{
1070
   287
1070
     3
1070
   287
1070
     3
1070
   287
1070
     3
1070
   287
1070
     3
1070
   287
1070
     3
1070
    40
1040
1.0
1070
   140
1040
2.5
1070
   147
1040
0.5
1070
   172
1070
     1
1070
   279
1070
     0
1002
}
  0
LINE
  5
586
330
2
100
AcDbEntity
  8
GAIKEI
  6
Continuous
 62
     1
100
AcDbLine
 10
-6.734664561715021
 20
6.170977877349059
 30
0.0
 11
-30.44176456171499
 21
6.170977877349059
 31
0.0
  0
LINE
  5
587
330
2
100
AcDbEntity
  8
GAIKEI
  6
Continuous
100
AcDbLine
 10
-9.988214561715039
 20
8.711591877349064
 30
0.0
 11
-27.18821456171509
 21
8.711591877349064
 31
0.0
  0
LINE
  5
588
330
2
100
AcDbEntity
  8
GAIKEI
  6
Continuous
 62
     1
100
AcDbLine
 10
-22.18821456171509
 20
14.044333877349
 30
0.0
 11
-18.63821456171502
 21
14.044333877349
 31
0.0
  0
LINE
  5
589
330
2
100
AcDbEntity
  8
GAIKEI
  6
Continuous
100
AcDbLine
 10
-18.63808856171499
 20
9.011591877349019
 30
0.0
 11
-23.36456656171504
 21
9.011591877349019
 31
0.0
  0
CIRCLE
  5
58A
330
2
100
AcDbEntity
  8
GAIKEI
  6
Continuous
 62
     1
100
AcDbCircle
 10
-18.58821456171506
 20
20.71159187734906
 30
0.0
 40
3.5
  0
ARC
  5
58B
330
2
100
AcDbEntity
  8
GAIKEI
  6
Continuous
 62
     1
100
AcDbCircle
 10
-18.58821456171506
 20
20.71159187734906
 30
0.0
 40
3.3192408
100
AcDbArc
 50
52.00000000000161
 51
180.0
  0
ARC
  5
58C
330
2
100
AcDbEntity
  8
GAIKEI
  6
Continuous
 62
     1
100
AcDbCircle
 10
-18.58821456171506
 20
20.71159187734906
 30
0.0
 40
3.06
100
AcDbArc
 50
52.00000000000161
 51
180.0
  0
CIRCLE
  5
58D
330
2
100
AcDbEntity
  8
GAIKEI
  6
Continuous
 62
     1
100
AcDbCircle
 10
-18.58821456171506
 20
20.71159187734906
 30
0.0
 40
2.9
  0
ARC
  5
58E
330
2
100
AcDbEntity
  8
GAIKEI
  6
Continuous
 62
     1
100
AcDbCircle
 10
-18.58821456171506
 20
20.71159187734906
 30
0.0
 40
3.06
100
AcDbArc
 50
231.9999912447604
 51
0.0
  0
ARC
  5
58F
330
2
100
AcDbEntity
  8
GAIKEI
  6
Continuous
 62
     1
100
AcDbCircle
 10
-18.58821456171506
 20
20.71159187734906
 30
0.0
 40
3.3192408
100
AcDbArc
 50
232.0000000000016
 51
0.0
  0
ARC
  5
590
330
2
100
AcDbEntity
  8
GAIKEI
  6
Continuous
100
AcDbCircle
 10
-8.234504561715084
 20
1.697203877349011
 30
0.0
 40
0.4
100
AcDbArc
 50
293.49857
 51
347.4711900000005
  0
LINE
  5
591
330
2
100
AcDbEntity
  8
GAIKEI
  6
Continuous
100
AcDbLine
 10
-8.075012561715084
 20
1.330371877348966
 30
0.0
 11
-8.808214561714976
 21
1.011595877349009
 31
0.0
  0
LINE
  5
592
330
2
100
AcDbEntity
  8
GAIKEI
  6
Continuous
 62
     1
100
AcDbLine
 10
-9.518866561715071
 20
1.151591877349005
 30
0.0
 11
-9.518866561715071
 21
1.011591877349019
 31
0.0
  0
LINE
  5
593
330
2
100
AcDbEntity
  8
GAIKEI
  6
Continuous
 62
     1
100
AcDbLine
 10
-10.718866561715
 20
1.011591877349019
 30
0.0
 11
-10.718866561715
 21
1.151591877349005
 31
0.0
  0
LINE
  5
594
330
2
100
AcDbEntity
  8
GAIKEI
  6
Continuous
 62
     1
100
AcDbLine
 10
-10.718866561715
 20
1.151591877349005
 30
0.0
 11
-9.518866561715071
 21
1.151591877349005
 31
0.0
  0
LINE
  5
595
330
2
100
AcDbEntity
  8
GAIKEI
  6
Continuous
 62
     1
100
AcDbLine
 10
-10.718866561715
 20
1.151591877349005
 30
0.0
 11
-9.518866561715071
 21
1.151591877349005
 31
0.0
  0
LINE
  5
596
330
2
100
AcDbEntity
  8
GAIKEI
  6
Continuous
 62
     1
100
AcDbLine
 10
-27.65756056171506
 20
1.151591877349005
 30
0.0
 11
-26.45756056171502
 21
1.151591877349005
 31
0.0
  0
LINE
  5
597
330
2
100
AcDbEntity
  8
GAIKEI
  6
Continuous
 62
     1
100
AcDbLine
 10
-27.65756056171506
 20
1.151591877349005
 30
0.0
 11
-26.45756056171502
 21
1.151591877349005
 31
0.0
  0
LINE
  5
598
330
2
100
AcDbEntity
  8
GAIKEI
  6
Continuous
 62
     1
100
AcDbLine
 10
-27.65756056171506
 20
1.011591877349019
 30
0.0
 11
-27.65756056171506
 21
1.151591877349005
 31
0.0
  0
ARC
  5
599
330
2
100
AcDbEntity
  8
GAIKEI
  6
Continuous
100
AcDbCircle
 10
-28.94192656171504
 20
1.697203877349011
 30
0.0
 40
0.4
100
AcDbArc
 50
192.5288099999995
 51
246.50143
  0
LINE
  5
59A
330
2
100
AcDbEntity
  8
GAIKEI
  6
Continuous
100
AcDbLine
 10
-29.10141856171504
 20
1.330371877348966
 30
0.0
 11
-28.36821656171503
 21
1.011595877349009
 31
0.0
  0
LINE
  5
59B
330
2
100
AcDbEntity
  8
GAIKEI
  6
Continuous
 62
     1
100
AcDbLine
 10
-26.45756056171502
 20
1.151591877349005
 30
0.0
 11
-26.45756056171502
 21
1.011591877349019
 31
0.0
  0
LINE
  5
59C
330
2
100
AcDbEntity
  8
GAIKEI
  6
Continuous
 62
     1
100
AcDbLine
 10
-29.33240296171505
 20
1.610431877349014
 30
0.0
 11
-7.844030561715044
 21
1.610431877349014
 31
0.0
  0
LINE
  5
59D
330
2
100
AcDbEntity
  8
GAIKEI
  6
Continuous
 62
     1
100
AcDbLine
 10
-8.075012561715084
 20
1.330375877349069
 30
0.0
 11
-29.10141696171502
 21
1.330375877349069
 31
0.0
  0
LINE
  5
59E
330
2
100
AcDbEntity
  8
GAIKEI
  6
Continuous
100
AcDbLine
 10
-8.808214561714976
 20
1.011591877349019
 30
0.0
 11
-28.36821656171503
 21
1.011591877349019
 31
0.0
  0
LINE
  5
59F
330
2
100
AcDbEntity
  8
GAIKEI
  6
Continuous
100
AcDbLine
 10
-29.68821856171508
 20
3.211593877349059
 30
0.0
 11
-29.33240256171507
 21
1.610429877349019
 31
0.0
  0
LINE
  5
5A0
330
2
100
AcDbEntity
  8
GAIKEI
  6
Continuous
100
AcDbLine
 10
-7.488212561715045
 20
3.211593877349059
 30
0.0
 11
-7.844030561715044
 21
1.610429877349019
 31
0.0
  0
DIMENSION
  5
5A1
330
2
100
AcDbEntity
  8
SUNPO
100
AcDbDimension
  2
*D4
 10
1.056511626969495
 20
28.9102620773491
 30
0.0
 11
-0.6934883730305104
 21
14.96092697734906
 31
0.0
 70
    33
  1
140
 71
     5
 42
27.89867020000008
  3
STANDARD
100
AcDbAlignedDimension
 13
-6.943488373030504
 23
1.011591877349019
 33
0.0
 14
-6.943488373030504
 24
28.9102620773491
 34
0.0
1001
ACAD
1000
DSTYLE
1002
{
1070
   287
1070
     3
1070
   287
1070
     3
1070
   287
1070
     3
1070
   287
1070
     3
1070
   287
1070
     3
1070
    40
1040
1.0
1070
   140
1040
2.5
1070
   147
1040
0.5
1070
   172
1070
     1
1070
   279
1070
     0
1002
}
  0
TEXT
  5
5AE
330
2
100
AcDbEntity
  8
MOJI1
100
AcDbText
 10
-20.27676152399454
 20
-53.57243408019911
 30
0.0
 40
3.0
  1
パン３００°/秒　チルト２００°/秒
100
AcDbText
  0
LINE
  5
5AF
330
2
100
AcDbEntity
  8
WAKU
 62
     1
100
AcDbLine
 10
62.22323847600546
 20
-49.57243408019912
 30
0.0
 11
-62.77676152399454
 21
-49.57243408019912
 31
0.0
  0
TEXT
  5
5B1
330
2
100
AcDbEntity
  8
MOJI1
100
AcDbText
 10
-60.27676152399454
 20
-53.57243408019911
 30
0.0
 40
3.0
  1
回転速度
100
AcDbText
  0
TEXT
  5
5B2
330
2
100
AcDbEntity
  8
MOJI1
100
AcDbText
 10
-20.27676152399454
 20
-28.57243408019911
 30
0.0
 40
3.0
  1
６４０×４８０、３２０×２４０、１６０×１２０ドット
 41
0.8699999999999999
100
AcDbText
  0
TEXT
  5
5B3
330
2
100
AcDbEntity
  8
MOJI1
100
AcDbText
 10
-60.27676152399454
 20
-43.57243408019911
 30
0.0
 40
3.0
  1
パ　ン
100
AcDbText
  0
TEXT
  5
5B4
330
2
100
AcDbEntity
  8
MOJI1
100
AcDbText
 10
-20.27676152399454
 20
-48.57243408019911
 30
0.0
 40
3.0
  1
－１２０°～０°（卓上）   0°～９０°（天井）
100
AcDbText
  0
TEXT
  5
5B5
330
2
100
AcDbEntity
  8
MOJI1
100
AcDbText
 10
-19.27676152399454
 20
-18.57243408019911
 30
0.0
 40
3.0
  1
ＡＣ１００Ｖ　５０／６０Ｈｚ
100
AcDbText
  0
TEXT
  5
5B6
330
2
100
AcDbEntity
  8
MOJI1
100
AcDbText
 10
-20.27676152399454
 20
-23.57243408019912
 30
0.0
 40
3.0
  1
１／４型 ３８万画素 インターレース方式ＣＣＤ
100
AcDbText
  0
TEXT
  5
5B7
330
2
100
AcDbEntity
  8
MOJI1
100
AcDbText
 10
-20.27676152399454
 20
-43.57243408019911
 30
0.0
 40
3.0
  1
±１７５°
100
AcDbText
  0
TEXT
  5
5B8
330
2
100
AcDbEntity
  8
MOJI1
100
AcDbText
 10
-60.27676152399454
 20
-33.57243408019912
 30
0.0
 40
3.0
  1
画　角
100
AcDbText
  0
TEXT
  5
5B9
330
2
100
AcDbEntity
  8
MOJI1
100
AcDbText
 10
-60.27676152399454
 20
-28.57243408019911
 30
0.0
 40
3.0
  1
解像度
100
AcDbText
  0
TEXT
  5
5BA
330
2
100
AcDbEntity
  8
MOJI1
100
AcDbText
 10
-60.27676152399454
 20
-23.57243408019912
 30
0.0
 40
3.0
  1
撮像素子
100
AcDbText
  0
TEXT
  5
5BB
330
2
100
AcDbEntity
  8
MOJI1
100
AcDbText
 10
-60.27676152399454
 20
-38.57243408019911
 30
0.0
 40
3.0
  1
最低照度
100
AcDbText
  0
TEXT
  5
5BC
330
2
100
AcDbEntity
  8
MOJI1
100
AcDbText
 10
-60.27676152399454
 20
-48.57243408019911
 30
0.0
 40
3.0
  1
チルト
100
AcDbText
  0
TEXT
  5
5BD
330
2
100
AcDbEntity
  8
MOJI1
100
AcDbText
 10
-20.27676152399454
 20
-38.57243408019911
 30
0.0
 40
3.0
  1
３ルクス(カラーナイトビューモー時：０．０９ルクス)
 41
0.9
100
AcDbText
  0
TEXT
  5
5BE
330
2
100
AcDbEntity
  8
MOJI1
100
AcDbText
 10
-20.27676152399454
 20
-33.57243408019912
 30
0.0
 40
3.0
  1
水平直角/テレ２．６°（光学）１．３°（デジタル）～ワイド５１°
 41
0.72
100
AcDbText
  0
TEXT
  5
5BF
330
2
100
AcDbEntity
  8
MOJI1
100
AcDbText
 10
-60.27676152399454
 20
-18.57243408019911
 30
0.0
 40
3.0
  1
電　源
100
AcDbText
  0
LINE
  5
5C0
330
2
100
AcDbEntity
  8
WAKU
 62
     4
100
AcDbLine
 10
-62.77676152399454
 20
-54.57243408019912
 30
0.0
 11
62.22323847600546
 21
-54.57243408019912
 31
0.0
  0
LINE
  5
5C1
330
2
100
AcDbEntity
  8
WAKU
 62
     1
100
AcDbLine
 10
62.22323847600546
 20
-44.57243408019912
 30
0.0
 11
-62.77676152399454
 21
-44.57243408019912
 31
0.0
  0
LINE
  5
5C2
330
2
100
AcDbEntity
  8
WAKU
 62
     1
100
AcDbLine
 10
62.22323847600546
 20
-39.57243408019912
 30
0.0
 11
-62.77676152399454
 21
-39.57243408019912
 31
0.0
  0
LINE
  5
5C3
330
2
100
AcDbEntity
  8
WAKU
 62
     1
100
AcDbLine
 10
62.22323847600546
 20
-34.57243408019912
 30
0.0
 11
-62.77676152399454
 21
-34.57243408019912
 31
0.0
  0
LINE
  5
5C4
330
2
100
AcDbEntity
  8
WAKU
 62
     1
100
AcDbLine
 10
62.22323847600546
 20
-29.57243408019912
 30
0.0
 11
-62.77676152399454
 21
-29.57243408019912
 31
0.0
  0
LINE
  5
5C5
330
2
100
AcDbEntity
  8
WAKU
 62
     1
100
AcDbLine
 10
62.22323847600546
 20
-24.57243408019912
 30
0.0
 11
-62.77676152399454
 21
-24.57243408019912
 31
0.0
  0
LINE
  5
5C6
330
2
100
AcDbEntity
  8
WAKU
 62
     4
100
AcDbLine
 10
62.22323847600546
 20
-14.57243408019911
 30
0.0
 11
-62.77676152399454
 21
-14.57243408019911
 31
0.0
  0
LINE
  5
5C7
330
2
100
AcDbEntity
  8
WAKU
 62
     1
100
AcDbLine
 10
62.22323847600546
 20
-19.57243408019911
 30
0.0
 11
-62.77676152399454
 21
-19.57243408019911
 31
0.0
  0
LINE
  5
5C8
330
2
100
AcDbEntity
  8
WAKU
 62
     4
100
AcDbLine
 10
-62.77676152399454
 20
-14.57243408019911
 30
0.0
 11
-62.77676152399454
 21
-54.57243408019912
 31
0.0
  0
LINE
  5
5C9
330
2
100
AcDbEntity
  8
WAKU
 62
     4
100
AcDbLine
 10
62.22323847600546
 20
-54.57243408019912
 30
0.0
 11
62.22323847600546
 21
-14.57243408019911
 31
0.0
  0
LINE
  5
5CA
330
2
100
AcDbEntity
  8
WAKU
 62
     4
100
AcDbLine
 10
-22.57118029347612
 20
-54.57243408019889
 30
0.0
 11
-22.57118029347612
 21
-14.57243408019889
 31
0.0
  0
ENDSEC
  0
SECTION
  2
OBJECTS
  0
DICTIONARY
  5
9
330
0
100
AcDbDictionary
281
     1
  3
ACAD_COLOR
350
31
  3
ACAD_GROUP
350
2D
  3
ACAD_LAYOUT
350
D
  3
ACAD_MATERIAL
350
30
  3
ACAD_MLINESTYLE
350
2E
  3
ACAD_PLOTSETTINGS
350
2F
  3
ACAD_PLOTSTYLENAME
350
8
  3
ACDBHEADERROUNDTRIPXREC
350
607
  3
AcDbVariableDictionary
350
602
  0
DICTIONARY
  5
15
330
14
100
AcDbDictionary
280
     1
281
     1
  3
ACAD_LAYERFILTERS
360
16
  3
ACAD_LAYERSTATES
360
17
  0
DICTIONARY
  5
3
330
2
100
AcDbDictionary
280
     1
281
     1
  3
ACAD_LAYOUTSELFREF
360
4
  0
DICTIONARY
  5
F
330
E
100
AcDbDictionary
280
     1
281
     1
  3
ACAD_LAYOUTSELFREF
360
10
  0
DICTIONARY
  5
31
102
{ACAD_REACTORS
330
9
102
}
330
9
100
AcDbDictionary
281
     1
  0
DICTIONARY
  5
2D
102
{ACAD_REACTORS
330
9
102
}
330
9
100
AcDbDictionary
281
     1
  0
DICTIONARY
  5
D
102
{ACAD_REACTORS
330
9
102
}
330
9
100
AcDbDictionary
281
     1
  3
Model
350
C
  3
ﾚｲｱｳﾄ1
350
13
  0
DICTIONARY
  5
30
102
{ACAD_REACTORS
330
9
102
}
330
9
100
AcDbDictionary
281
     1
  0
DICTIONARY
  5
2E
102
{ACAD_REACTORS
330
9
102
}
330
9
100
AcDbDictionary
281
     1
  3
STANDARD
350
33
  0
DICTIONARY
  5
2F
102
{ACAD_REACTORS
330
9
102
}
330
9
100
AcDbDictionary
281
     1
  0
ACDBDICTIONARYWDFLT
  5
8
102
{ACAD_REACTORS
330
9
102
}
330
9
100
AcDbDictionary
281
     1
  3
Normal
350
7
100
AcDbDictionaryWithDefault
340
7
  0
DICTIONARY
  5
607
102
{ACAD_REACTORS
330
9
102
}
330
9
100
AcDbDictionary
281
     1
  3
COLORDICT
350
609
  3
MATERIALDICT
350
608
  0
DICTIONARY
  5
602
102
{ACAD_REACTORS
330
9
102
}
330
9
100
AcDbDictionary
281
     1
  3
DIMASSOC
350
604
  3
HIDETEXT
350
603
  3
PROJECTNAME
350
605
  0
DICTIONARY
  5
16
102
{ACAD_REACTORS
330
15
102
}
330
15
100
AcDbDictionary
280
     1
281
     1
  0
DICTIONARY
  5
17
102
{ACAD_REACTORS
330
15
102
}
330
15
100
AcDbDictionary
281
     1
  0
XRECORD
  5
4
102
{ACAD_REACTORS
330
3
102
}
330
3
100
AcDbXrecord
280
     1
340
2
  0
XRECORD
  5
10
102
{ACAD_REACTORS
330
F
102
}
330
F
100
AcDbXrecord
280
     1
340
E
  0
LAYOUT
  5
C
102
{ACAD_XDICTIONARY
360
60A
102
}
102
{ACAD_REACTORS
330
D
102
}
330
D
100
AcDbPlotSettings
  1

  2
\\URANUS\8FPAM09
  4
A4
  6

 40
4.180416584014892
 41
4.349743366241455
 42
4.222747802734375
 43
4.349761962890625
 44
210.0156707763672
 45
297.0106506347656
 46
6.059999999999999
 47
0.0
 48
25.34539077427235
 49
57.21129063001763
140
107.5109045145468
141
104.2171889579802
142
1.0
143
1.367648095643874
 70
 11956
 72
     1
 73
     0
 74
     1
  7
tmsacad.ctb
 75
     0
147
0.7311822413858666
148
0.5944178568379357
149
0.0307472302411043
100
AcDbLayout
  1
Model
 70
     1
 71
     0
 10
0.0
 20
0.0
 11
12.0
 21
9.0
 12
0.0
 22
0.0
 32
0.0
 14
0.0
 24
0.0
 34
0.0
 15
0.0
 25
0.0
 35
0.0
146
0.0
 13
0.0
 23
0.0
 33
0.0
 16
1.0
 26
0.0
 36
0.0
 17
0.0
 27
1.0
 37
0.0
 76
     0
330
2
  0
LAYOUT
  5
13
102
{ACAD_XDICTIONARY
360
60C
102
}
102
{ACAD_REACTORS
330
D
102
}
330
D
100
AcDbPlotSettings
  1

  2
C:\Program Files\ACAD2000\plotters\DWF ePlot.pc3
  4

  6

 40
0.0
 41
0.0
 42
0.0
 43
0.0
 44
0.0
 45
0.0
 46
0.0
 47
0.0
 48
0.0
 49
0.0
140
0.0
141
0.0
142
1.0
143
1.0
 70
   688
 72
     0
 73
     0
 74
     5
  7
tmsacad.ctb
 75
    16
147
1.0
148
0.0
149
0.0
100
AcDbLayout
  1
ﾚｲｱｳﾄ1
 70
     1
 71
     1
 10
0.0
 20
0.0
 11
12.0
 21
9.0
 12
0.0
 22
0.0
 32
0.0
 14
1.000000000000000E+20
 24
1.000000000000000E+20
 34
1.000000000000000E+20
 15
-1.000000000000000E+20
 25
-1.000000000000000E+20
 35
-1.000000000000000E+20
146
0.0
 13
0.0
 23
0.0
 33
0.0
 16
1.0
 26
0.0
 36
0.0
 17
0.0
 27
1.0
 37
0.0
 76
     0
330
E
  0
MLINESTYLE
  5
33
102
{ACAD_REACTORS
330
2E
102
}
330
2E
100
AcDbMlineStyle
  2
STANDARD
 70
     0
  3

 62
   256
 51
90.0
 52
90.0
 71
     2
 49
0.5
 62
   256
  6
BYLAYER
 49
-0.5
 62
   256
  6
BYLAYER
  0
ACDBPLACEHOLDER
  5
7
102
{ACAD_REACTORS
330
8
102
}
330
8
  0
XRECORD
  5
609
102
{ACAD_REACTORS
330
607
102
}
330
607
100
AcDbXrecord
280
     1
340
31
  0
XRECORD
  5
608
102
{ACAD_REACTORS
330
607
102
}
330
607
100
AcDbXrecord
280
     1
340
30
  0
DICTIONARYVAR
  5
604
102
{ACAD_REACTORS
330
602
102
}
330
602
100
DictionaryVariables
280
     0
  1
1
  0
DICTIONARYVAR
  5
603
102
{ACAD_REACTORS
330
602
102
}
330
602
100
DictionaryVariables
280
     0
  1
1
  0
DICTIONARYVAR
  5
605
102
{ACAD_REACTORS
330
602
102
}
330
602
100
DictionaryVariables
280
     0
  1

  0
DICTIONARY
  5
60A
330
C
100
AcDbDictionary
280
     1
281
     1
  3
ACAD_XREC_ROUNDTRIP
360
60B
  0
DICTIONARY
  5
60C
330
13
100
AcDbDictionary
280
     1
281
     1
  3
ACAD_XREC_ROUNDTRIP
360
60D
  0
XRECORD
  5
60B
102
{ACAD_REACTORS
330
60A
102
}
330
60A
100
AcDbXrecord
280
     1
102
SHADEPLOT
 70
     0
102
SHADEPLOTRESLEVEL
 70
     2
102
SHADEPLOTCUSTOMDPI
 70
   300
  0
XRECORD
  5
60D
102
{ACAD_REACTORS
330
60C
102
}
330
60C
100
AcDbXrecord
280
     1
102
SHADEPLOT
 70
     0
102
SHADEPLOTRESLEVEL
 70
     2
102
SHADEPLOTCUSTOMDPI
 70
   300
  0
ENDSEC
  0
EOF
