  0
SECTION
  2
HEADER
  9
$ACADVER
  1
AC1015
  9
$ACADMAINTVER
 70
    20
  9
$DWGCODEPAGE
  3
ANSI_932
  9
$INSBASE
 10
129.499999944041
 20
372.5008351249344
 30
0.0
  9
$EXTMIN
 10
-59.48547272417397
 20
-54.57266172553954
 30
-0.0015258207003583
  9
$EXTMAX
 10
65.54809626837744
 20
58.90512126393741
 30
0.0000000349246037
  9
$LIMMIN
 10
0.0
 20
0.0
  9
$LIMMAX
 10
420.0
 20
297.0
  9
$ORTHOMODE
 70
     1
  9
$REGENMODE
 70
     0
  9
$FILLMODE
 70
     1
  9
$QTEXTMODE
 70
     0
  9
$MIRRTEXT
 70
     0
  9
$LTSCALE
 40
1.0
  9
$ATTMODE
 70
     1
  9
$TEXTSIZE
 40
2.5
  9
$TRACEWID
 40
1.0
  9
$TEXTSTYLE
  7
Standard
  9
$CLAYER
  8
SUNPO
  9
$CELTYPE
  6
ByLayer
  9
$CECOLOR
 62
   256
  9
$CELTSCALE
 40
1.0
  9
$DISPSILH
 70
     0
  9
$DIMSCALE
 40
1.0
  9
$DIMASZ
 40
2.0
  9
$DIMEXO
 40
2.0
  9
$DIMDLI
 40
8.0
  9
$DIMRND
 40
0.0
  9
$DIMDLE
 40
0.0
  9
$DIMEXE
 40
2.0
  9
$DIMTP
 40
0.0
  9
$DIMTM
 40
0.0
  9
$DIMTXT
 40
2.5
  9
$DIMCEN
 40
0.0
  9
$DIMTSZ
 40
0.0
  9
$DIMTOL
 70
     0
  9
$DIMLIM
 70
     0
  9
$DIMTIH
 70
     0
  9
$DIMTOH
 70
     0
  9
$DIMSE1
 70
     0
  9
$DIMSE2
 70
     0
  9
$DIMTAD
 70
     3
  9
$DIMZIN
 70
     0
  9
$DIMBLK
  1

  9
$DIMASO
 70
     1
  9
$DIMSHO
 70
     1
  9
$DIMPOST
  1

  9
$DIMAPOST
  1

  9
$DIMALT
 70
     0
  9
$DIMALTD
 70
     2
  9
$DIMALTF
 40
25.4
  9
$DIMLFAC
 40
1.0
  9
$DIMTOFL
 70
     1
  9
$DIMTVP
 40
0.0
  9
$DIMTIX
 70
     0
  9
$DIMSOXD
 70
     0
  9
$DIMSAH
 70
     1
  9
$DIMBLK1
  1
OPEN30
  9
$DIMBLK2
  1
OPEN30
  9
$DIMSTYLE
  2
STANDARD
  9
$DIMCLRD
 70
     0
  9
$DIMCLRE
 70
     0
  9
$DIMCLRT
 70
     0
  9
$DIMTFAC
 40
1.0
  9
$DIMGAP
 40
0.5
  9
$DIMJUST
 70
     0
  9
$DIMSD1
 70
     0
  9
$DIMSD2
 70
     0
  9
$DIMTOLJ
 70
     1
  9
$DIMTZIN
 70
     0
  9
$DIMALTZ
 70
     0
  9
$DIMALTTZ
 70
     0
  9
$DIMUPT
 70
     0
  9
$DIMDEC
 70
     4
  9
$DIMTDEC
 70
     4
  9
$DIMALTU
 70
     2
  9
$DIMALTTD
 70
     2
  9
$DIMTXSTY
  7
Standard
  9
$DIMAUNIT
 70
     0
  9
$DIMADEC
 70
     0
  9
$DIMALTRND
 40
0.0
  9
$DIMAZIN
 70
     0
  9
$DIMDSEP
 70
    46
  9
$DIMATFIT
 70
     3
  9
$DIMFRAC
 70
     0
  9
$DIMLDRBLK
  1
OPEN30
  9
$DIMLUNIT
 70
     2
  9
$DIMLWD
 70
    -2
  9
$DIMLWE
 70
    -2
  9
$DIMTMOVE
 70
     0
  9
$LUNITS
 70
     2
  9
$LUPREC
 70
     4
  9
$SKETCHINC
 40
1.0
  9
$FILLETRAD
 40
0.0
  9
$AUNITS
 70
     0
  9
$AUPREC
 70
     0
  9
$MENU
  1
.
  9
$ELEVATION
 40
0.0
  9
$PELEVATION
 40
0.0
  9
$THICKNESS
 40
0.0
  9
$LIMCHECK
 70
     0
  9
$CHAMFERA
 40
0.0
  9
$CHAMFERB
 40
0.0
  9
$CHAMFERC
 40
0.0
  9
$CHAMFERD
 40
0.0
  9
$SKPOLY
 70
     0
  9
$TDCREATE
 40
2454349.434269746
  9
$TDUCREATE
 40
2454349.059269746
  9
$TDUPDATE
 40
2454659.564195127
  9
$TDUUPDATE
 40
2454659.189195127
  9
$TDINDWG
 40
0.2047843403
  9
$TDUSRTIMER
 40
0.2047843403
  9
$USRTIMER
 70
     1
  9
$ANGBASE
 50
0.0
  9
$ANGDIR
 70
     0
  9
$PDMODE
 70
     0
  9
$PDSIZE
 40
0.0
  9
$PLINEWID
 40
0.0
  9
$SPLFRAME
 70
     0
  9
$SPLINETYPE
 70
     6
  9
$SPLINESEGS
 70
     8
  9
$HANDSEED
  5
345
  9
$SURFTAB1
 70
     6
  9
$SURFTAB2
 70
     6
  9
$SURFTYPE
 70
     6
  9
$SURFU
 70
     6
  9
$SURFV
 70
     6
  9
$UCSBASE
  2

  9
$UCSNAME
  2

  9
$UCSORG
 10
0.0
 20
0.0
 30
0.0
  9
$UCSXDIR
 10
1.0
 20
0.0
 30
0.0
  9
$UCSYDIR
 10
0.0
 20
1.0
 30
0.0
  9
$UCSORTHOREF
  2

  9
$UCSORTHOVIEW
 70
     0
  9
$UCSORGTOP
 10
0.0
 20
0.0
 30
0.0
  9
$UCSORGBOTTOM
 10
0.0
 20
0.0
 30
0.0
  9
$UCSORGLEFT
 10
0.0
 20
0.0
 30
0.0
  9
$UCSORGRIGHT
 10
0.0
 20
0.0
 30
0.0
  9
$UCSORGFRONT
 10
0.0
 20
0.0
 30
0.0
  9
$UCSORGBACK
 10
0.0
 20
0.0
 30
0.0
  9
$PUCSBASE
  2

  9
$PUCSNAME
  2

  9
$PUCSORG
 10
0.0
 20
0.0
 30
0.0
  9
$PUCSXDIR
 10
1.0
 20
0.0
 30
0.0
  9
$PUCSYDIR
 10
0.0
 20
1.0
 30
0.0
  9
$PUCSORTHOREF
  2

  9
$PUCSORTHOVIEW
 70
     0
  9
$PUCSORGTOP
 10
0.0
 20
0.0
 30
0.0
  9
$PUCSORGBOTTOM
 10
0.0
 20
0.0
 30
0.0
  9
$PUCSORGLEFT
 10
0.0
 20
0.0
 30
0.0
  9
$PUCSORGRIGHT
 10
0.0
 20
0.0
 30
0.0
  9
$PUCSORGFRONT
 10
0.0
 20
0.0
 30
0.0
  9
$PUCSORGBACK
 10
0.0
 20
0.0
 30
0.0
  9
$USERI1
 70
     0
  9
$USERI2
 70
     0
  9
$USERI3
 70
     0
  9
$USERI4
 70
     0
  9
$USERI5
 70
     0
  9
$USERR1
 40
0.0
  9
$USERR2
 40
0.0
  9
$USERR3
 40
0.0
  9
$USERR4
 40
0.0
  9
$USERR5
 40
0.0
  9
$WORLDVIEW
 70
     1
  9
$SHADEDGE
 70
     3
  9
$SHADEDIF
 70
    70
  9
$TILEMODE
 70
     1
  9
$MAXACTVP
 70
    64
  9
$PINSBASE
 10
0.0
 20
0.0
 30
0.0
  9
$PLIMCHECK
 70
     0
  9
$PEXTMIN
 10
0.0
 20
0.0
 30
0.0
  9
$PEXTMAX
 10
0.0
 20
0.0
 30
0.0
  9
$PLIMMIN
 10
0.0
 20
0.0
  9
$PLIMMAX
 10
12.0
 20
9.0
  9
$UNITMODE
 70
     0
  9
$VISRETAIN
 70
     1
  9
$PLINEGEN
 70
     0
  9
$PSLTSCALE
 70
     1
  9
$TREEDEPTH
 70
  3020
  9
$CMLSTYLE
  2
Standard
  9
$CMLJUST
 70
     0
  9
$CMLSCALE
 40
20.0
  9
$PROXYGRAPHICS
 70
     1
  9
$MEASUREMENT
 70
     1
  9
$CELWEIGHT
370
    -1
  9
$ENDCAPS
280
     0
  9
$JOINSTYLE
280
     0
  9
$LWDISPLAY
290
     0
  9
$INSUNITS
 70
     4
  9
$HYPERLINKBASE
  1

  9
$STYLESHEET
  1

  9
$XEDIT
290
     1
  9
$CEPSNTYPE
380
     0
  9
$PSTYLEMODE
290
     1
  9
$FINGERPRINTGUID
  2
{FDEAD578-A652-11D2-9A35-0060089B3A3F}
  9
$VERSIONGUID
  2
{622DB4BC-57BD-4F92-9125-B658F7502790}
  9
$EXTNAMES
290
     1
  9
$PSVPSCALE
 40
0.0
  9
$OLESTARTUP
290
     0
  0
ENDSEC
  0
SECTION
  2
CLASSES
  0
CLASS
  1
ACDBDICTIONARYWDFLT
  2
AcDbDictionaryWithDefault
  3
ObjectDBX Classes
 90
        0
280
     0
281
     0
  0
CLASS
  1
ACDBPLACEHOLDER
  2
AcDbPlaceHolder
  3
ObjectDBX Classes
 90
        0
280
     0
281
     0
  0
CLASS
  1
LAYOUT
  2
AcDbLayout
  3
ObjectDBX Classes
 90
        0
280
     0
281
     0
  0
CLASS
  1
DICTIONARYVAR
  2
AcDbDictionaryVar
  3
ObjectDBX Classes
 90
        0
280
     0
281
     0
  0
CLASS
  1
DIMASSOC
  2
AcDbDimAssoc
  3
"AcDbDimAssoc|Product Desc:     AcDim ARX App For Dimension|Company:          Autodesk, Inc.|WEB Address:      www.autodesk.com"
 90
    32768
280
     0
281
     0
  0
ENDSEC
  0
SECTION
  2
TABLES
  0
TABLE
  2
VPORT
  5
1B
330
0
100
AcDbSymbolTable
 70
     3
  0
VPORT
  5
33D
330
1B
100
AcDbSymbolTableRecord
100
AcDbViewportTableRecord
  2
*Active
 70
     0
 10
0.0
 20
0.0
 11
1.0
 21
1.0
 12
3.03131177210173
 22
2.166229769198935
 13
0.0
 23
0.0
 14
10.0
 24
10.0
 15
10.0
 25
10.0
 16
0.0
 26
0.0
 36
1.0
 17
0.0
 27
0.0
 37
0.0
 40
114.3724829867658
 41
1.536842105263157
 42
50.0
 43
0.0
 44
0.0
 50
0.0
 51
0.0
 71
     0
 72
  1000
 73
     1
 74
     2
 75
     0
 76
     0
 77
     0
 78
     0
281
     0
 65
     1
110
0.0
120
0.0
130
0.0
111
1.0
121
0.0
131
0.0
112
0.0
122
1.0
132
0.0
 79
     0
146
0.0
  0
ENDTAB
  0
TABLE
  2
LTYPE
  5
16
330
0
100
AcDbSymbolTable
 70
     1
  0
LTYPE
  5
17
330
16
100
AcDbSymbolTableRecord
100
AcDbLinetypeTableRecord
  2
ByBlock
 70
     0
  3

 72
    65
 73
     0
 40
0.0
  0
LTYPE
  5
18
330
16
100
AcDbSymbolTableRecord
100
AcDbLinetypeTableRecord
  2
ByLayer
 70
     0
  3

 72
    65
 73
     0
 40
0.0
  0
LTYPE
  5
8
330
16
100
AcDbSymbolTableRecord
100
AcDbLinetypeTableRecord
  2
Continuous
 70
     0
  3
Solid line
 72
    65
 73
     0
 40
0.0
  0
ENDTAB
  0
TABLE
  2
LAYER
  5
10
102
{ACAD_XDICTIONARY
360
11
102
}
330
0
100
AcDbSymbolTable
 70
     7
  0
LAYER
  5
4
330
10
100
AcDbSymbolTableRecord
100
AcDbLayerTableRecord
  2
0
 70
     0
 62
     7
  6
Continuous
370
    -3
390
5
  0
LAYER
  5
2E0
330
10
100
AcDbSymbolTableRecord
100
AcDbLayerTableRecord
  2
WAKU
 70
     0
 62
     4
  6
Continuous
370
    -3
390
5
  0
LAYER
  5
2DB
330
10
100
AcDbSymbolTableRecord
100
AcDbLayerTableRecord
  2
MOJI1
 70
     0
 62
     2
  6
Continuous
370
    -3
390
5
  0
LAYER
  5
2CC
330
10
100
AcDbSymbolTableRecord
100
AcDbLayerTableRecord
  2
TOUROKU
 70
     0
 62
     1
  6
Continuous
370
    -3
390
5
  0
LAYER
  5
197
330
10
100
AcDbSymbolTableRecord
100
AcDbLayerTableRecord
  2
DEFPOINTS
 70
     0
 62
     7
  6
Continuous
290
     0
370
    -3
390
5
  0
LAYER
  5
30
330
10
100
AcDbSymbolTableRecord
100
AcDbLayerTableRecord
  2
GAIKEI
 70
     0
 62
     7
  6
Continuous
370
    -3
390
5
  0
LAYER
  5
2D
330
10
100
AcDbSymbolTableRecord
100
AcDbLayerTableRecord
  2
SUNPO
 70
     0
 62
     3
  6
Continuous
370
    -3
390
5
  0
ENDTAB
  0
TABLE
  2
STYLE
  5
13
330
0
100
AcDbSymbolTable
 70
     1
  0
STYLE
  5
14
330
13
100
AcDbSymbolTableRecord
100
AcDbTextStyleTableRecord
  2
Standard
 70
     0
 40
0.0
 41
1.0
 50
0.0
 71
     0
 42
2.5
  3
MONOTXT.shx
  4
BIGFONT.shx
  0
ENDTAB
  0
TABLE
  2
VIEW
  5
19
330
0
100
AcDbSymbolTable
 70
     0
  0
ENDTAB
  0
TABLE
  2
UCS
  5
1A
330
0
100
AcDbSymbolTable
 70
     0
  0
ENDTAB
  0
TABLE
  2
APPID
  5
1D
330
0
100
AcDbSymbolTable
 70
     2
  0
APPID
  5
1E
330
1D
100
AcDbSymbolTableRecord
100
AcDbRegAppTableRecord
  2
ACAD
 70
     0
  0
APPID
  5
307
330
1D
100
AcDbSymbolTableRecord
100
AcDbRegAppTableRecord
  2
DCO15
 70
     0
  0
ENDTAB
  0
TABLE
  2
DIMSTYLE
  5
1F
330
0
100
AcDbSymbolTable
 70
     1
100
AcDbDimStyleTable
 71
     1
340
20
  0
DIMSTYLE
105
20
102
{ACAD_REACTORS
330
2CD
330
18D
330
19B
102
}
330
1F
100
AcDbSymbolTableRecord
100
AcDbDimStyleTableRecord
  2
STANDARD
 70
     0
 40
0.0
 41
2.0
 42
2.0
 43
8.0
 44
2.0
 73
     0
 74
     0
 77
     3
140
3.0
141
0.0
173
     1
279
     2
288
     1
340
14
341
21
343
21
344
21
  0
ENDTAB
  0
TABLE
  2
BLOCK_RECORD
  5
1
330
0
100
AcDbSymbolTable
 70
     7
  0
BLOCK_RECORD
  5
2
330
1
100
AcDbSymbolTableRecord
100
AcDbBlockTableRecord
  2
*Model_Space
340
A
  0
BLOCK_RECORD
  5
C
330
1
100
AcDbSymbolTableRecord
100
AcDbBlockTableRecord
  2
*Paper_Space
340
F
  0
BLOCK_RECORD
  5
21
330
1
100
AcDbSymbolTableRecord
100
AcDbBlockTableRecord
  2
_OPEN30
340
0
102
{BLKREFS
331
193
331
194
331
1A1
331
1A2
331
2D3
331
2D4
331
319
331
31A
331
325
331
326
331
331
331
332
102
}
  0
BLOCK_RECORD
  5
2CE
330
1
100
AcDbSymbolTableRecord
100
AcDbBlockTableRecord
  2
*D1
340
0
  0
BLOCK_RECORD
  5
18E
330
1
100
AcDbSymbolTableRecord
100
AcDbBlockTableRecord
  2
*D2
340
0
  0
BLOCK_RECORD
  5
19C
330
1
100
AcDbSymbolTableRecord
100
AcDbBlockTableRecord
  2
*D3
340
0
  0
BLOCK_RECORD
  5
315
330
1
100
AcDbSymbolTableRecord
100
AcDbBlockTableRecord
  2
*D4
340
0
  0
BLOCK_RECORD
  5
321
330
1
100
AcDbSymbolTableRecord
100
AcDbBlockTableRecord
  2
*D5
340
0
  0
BLOCK_RECORD
  5
32D
330
1
100
AcDbSymbolTableRecord
100
AcDbBlockTableRecord
  2
*D6
340
0
  0
ENDTAB
  0
ENDSEC
  0
SECTION
  2
BLOCKS
  0
BLOCK
  5
3
330
2
100
AcDbEntity
  8
0
100
AcDbBlockBegin
  2
*Model_Space
 70
     0
 10
0.0
 20
0.0
 30
0.0
  3
*Model_Space
  1

  0
ENDBLK
  5
9
330
2
100
AcDbEntity
  8
0
100
AcDbBlockEnd
  0
BLOCK
  5
D
330
C
100
AcDbEntity
 67
     1
  8
0
100
AcDbBlockBegin
  2
*Paper_Space
 70
     0
 10
0.0
 20
0.0
 30
0.0
  3
*Paper_Space
  1

  0
ENDBLK
  5
E
330
C
100
AcDbEntity
 67
     1
  8
0
100
AcDbBlockEnd
  0
BLOCK
  5
22
330
21
100
AcDbEntity
  8
0
100
AcDbBlockBegin
  2
_OPEN30
 70
     0
 10
0.0
 20
0.0
 30
0.0
  3
_OPEN30
  1

  0
LINE
  5
23
330
21
100
AcDbEntity
  8
0
  6
ByBlock
 62
     0
100
AcDbLine
 10
-1.0
 20
0.26794919
 30
0.0
 11
0.0
 21
0.0
 31
0.0
  0
LINE
  5
24
330
21
100
AcDbEntity
  8
0
  6
ByBlock
 62
     0
100
AcDbLine
 10
0.0
 20
0.0
 30
0.0
 11
-1.0
 21
-0.26794919
 31
0.0
  0
LINE
  5
25
330
21
100
AcDbEntity
  8
0
  6
ByBlock
 62
     0
100
AcDbLine
 10
0.0
 20
0.0
 30
0.0
 11
-1.0
 21
0.0
 31
0.0
  0
ENDBLK
  5
26
330
21
100
AcDbEntity
  8
0
100
AcDbBlockEnd
  0
BLOCK
  5
2CF
330
2CE
100
AcDbEntity
  8
0
100
AcDbBlockBegin
  2
*D1
 70
     1
 10
0.0
 20
0.0
 30
0.0
  3
*D1
  1

  0
LINE
  5
2D0
330
2CE
100
AcDbEntity
  8
SUNPO
 62
     0
370
    -2
100
AcDbLine
 10
166.0384898404158
 20
319.2395828450202
 30
0.0
 11
166.0384898404158
 21
311.2395828450202
 31
0.0
  0
LINE
  5
2D1
330
2CE
100
AcDbEntity
  8
SUNPO
 62
     0
370
    -2
100
AcDbLine
 10
186.0384898204158
 20
319.2395828450202
 30
0.0
 11
186.0384898204158
 21
311.2395828450202
 31
0.0
  0
LINE
  5
2D2
330
2CE
100
AcDbEntity
  8
SUNPO
 62
     0
370
    -2
100
AcDbLine
 10
168.0384898404158
 20
313.2395828450202
 30
0.0
 11
184.0384898204158
 21
313.2395828450202
 31
0.0
  0
INSERT
  5
2D3
330
2CE
100
AcDbEntity
  8
SUNPO
 62
     0
370
    -2
100
AcDbBlockReference
  2
_OPEN30
 10
166.0384898404158
 20
313.2395828450202
 30
0.0
 41
2.0
 42
2.0
 43
2.0
 50
180.0
  0
INSERT
  5
2D4
330
2CE
100
AcDbEntity
  8
SUNPO
 62
     0
370
    -2
100
AcDbBlockReference
  2
_OPEN30
 10
186.0384898204158
 20
313.2395828450202
 30
0.0
 41
2.0
 42
2.0
 43
2.0
  0
MTEXT
  5
2D5
330
2CE
100
AcDbEntity
  8
SUNPO
 62
     0
100
AcDbMText
 10
176.0384898304158
 20
314.9895828450202
 30
0.0
 40
2.5
 41
0.0
 71
     5
 72
     1
  1
\A1;100
 73
     1
 44
1.0
1001
ACAD
1000
MTEXTBEGIN
1070
    73
1070
     1
1070
    44
1040
1.0
1070
    74
1070
     0
1000
MTEXTEND
  0
POINT
  5
2D6
330
2CE
100
AcDbEntity
  8
DEFPOINTS
 62
     0
100
AcDbPoint
 10
166.0384898404158
 20
321.2395828450202
 30
0.0
  0
POINT
  5
2D7
330
2CE
100
AcDbEntity
  8
DEFPOINTS
 62
     0
100
AcDbPoint
 10
186.0384898204158
 20
321.2395828450202
 30
0.0
  0
POINT
  5
2D8
330
2CE
100
AcDbEntity
  8
DEFPOINTS
 62
     0
100
AcDbPoint
 10
186.0384898204158
 20
313.2395828450202
 30
0.0
  0
ENDBLK
  5
2D9
330
2CE
100
AcDbEntity
  8
0
100
AcDbBlockEnd
  0
BLOCK
  5
18F
330
18E
100
AcDbEntity
  8
0
100
AcDbBlockBegin
  2
*D2
 70
     1
 10
0.0
 20
0.0
 30
0.0
  3
*D2
  1

  0
LINE
  5
190
330
18E
100
AcDbEntity
  8
SUNPO
 62
     0
370
    -2
100
AcDbLine
 10
189.1191113140557
 20
321.7788063123821
 30
0.0
 11
197.1191113140557
 21
321.7788063123821
 31
0.0
  0
LINE
  5
191
330
18E
100
AcDbEntity
  8
SUNPO
 62
     0
370
    -2
100
AcDbLine
 10
189.1191113140557
 20
341.7788062923821
 30
0.0
 11
197.1191113140557
 21
341.7788062923821
 31
0.0
  0
LINE
  5
192
330
18E
100
AcDbEntity
  8
SUNPO
 62
     0
370
    -2
100
AcDbLine
 10
195.1191113140557
 20
323.7788063123821
 30
0.0
 11
195.1191113140557
 21
339.7788062923821
 31
0.0
  0
INSERT
  5
193
330
18E
100
AcDbEntity
  8
SUNPO
 62
     0
370
    -2
100
AcDbBlockReference
  2
_OPEN30
 10
195.1191113140557
 20
321.7788063123821
 30
0.0
 41
2.0
 42
2.0
 43
2.0
 50
270.0
  0
INSERT
  5
194
330
18E
100
AcDbEntity
  8
SUNPO
 62
     0
370
    -2
100
AcDbBlockReference
  2
_OPEN30
 10
195.1191113140557
 20
341.7788062923821
 30
0.0
 41
2.0
 42
2.0
 43
2.0
 50
90.0
  0
MTEXT
  5
195
330
18E
100
AcDbEntity
  8
SUNPO
 62
     0
100
AcDbMText
 10
193.3691113140557
 20
331.7788063023821
 30
0.0
 40
2.5
 41
0.0
 71
     5
 72
     1
  1
\A1;100
 11
0.0000000000000001
 21
1.0
 31
0.0
 73
     1
 44
1.0
1001
ACAD
1000
MTEXTBEGIN
1070
    73
1070
     1
1070
    44
1040
1.0
1070
    74
1070
     0
1000
MTEXTEND
  0
POINT
  5
196
330
18E
100
AcDbEntity
  8
DEFPOINTS
 62
     0
100
AcDbPoint
 10
187.1191113140558
 20
321.7788063123821
 30
0.0
  0
POINT
  5
198
330
18E
100
AcDbEntity
  8
DEFPOINTS
 62
     0
100
AcDbPoint
 10
187.1191113140558
 20
341.7788062923821
 30
0.0
  0
POINT
  5
199
330
18E
100
AcDbEntity
  8
DEFPOINTS
 62
     0
100
AcDbPoint
 10
195.1191113140557
 20
341.7788062923821
 30
0.0
  0
ENDBLK
  5
19A
330
18E
100
AcDbEntity
  8
0
100
AcDbBlockEnd
  0
BLOCK
  5
19D
330
19C
100
AcDbEntity
  8
0
100
AcDbBlockBegin
  2
*D3
 70
     1
 10
0.0
 20
0.0
 30
0.0
  3
*D3
  1

  0
LINE
  5
19E
330
19C
100
AcDbEntity
  8
SUNPO
 62
     0
370
    -2
100
AcDbLine
 10
163.0339478963828
 20
321.7788063123821
 30
0.0
 11
155.0339478963828
 21
321.7788063123821
 31
0.0
  0
LINE
  5
19F
330
19C
100
AcDbEntity
  8
SUNPO
 62
     0
370
    -2
100
AcDbLine
 10
163.0339478963828
 20
357.9321673873398
 30
0.0
 11
155.0339478963828
 21
357.9321673873398
 31
0.0
  0
LINE
  5
1A0
330
19C
100
AcDbEntity
  8
SUNPO
 62
     0
370
    -2
100
AcDbLine
 10
157.0339478963829
 20
323.7788063123821
 30
0.0
 11
157.0339478963829
 21
355.9321673873398
 31
0.0
  0
INSERT
  5
1A1
330
19C
100
AcDbEntity
  8
SUNPO
 62
     0
370
    -2
100
AcDbBlockReference
  2
_OPEN30
 10
157.0339478963829
 20
321.7788063123821
 30
0.0
 41
2.0
 42
2.0
 43
2.0
 50
270.0
  0
INSERT
  5
1A2
330
19C
100
AcDbEntity
  8
SUNPO
 62
     0
370
    -2
100
AcDbBlockReference
  2
_OPEN30
 10
157.0339478963829
 20
357.9321673873398
 30
0.0
 41
2.0
 42
2.0
 43
2.0
 50
90.0
  0
MTEXT
  5
1A3
330
19C
100
AcDbEntity
  8
SUNPO
 62
     0
100
AcDbMText
 10
155.2839478963828
 20
339.855486849861
 30
0.0
 40
2.5
 41
0.0
 71
     5
 72
     1
  1
\A1;180.8
 11
0.0000000000000001
 21
1.0
 31
0.0
 73
     1
 44
1.0
1001
ACAD
1000
MTEXTBEGIN
1070
    73
1070
     1
1070
    44
1040
1.0
1070
    74
1070
     0
1000
MTEXTEND
  0
POINT
  5
1A4
330
19C
100
AcDbEntity
  8
DEFPOINTS
 62
     0
100
AcDbPoint
 10
165.0339478963829
 20
321.7788063123821
 30
0.0
  0
POINT
  5
1A5
330
19C
100
AcDbEntity
  8
DEFPOINTS
 62
     0
100
AcDbPoint
 10
165.0339478963829
 20
357.9321673873398
 30
0.0
  0
POINT
  5
1A6
330
19C
100
AcDbEntity
  8
DEFPOINTS
 62
     0
100
AcDbPoint
 10
157.0339478963829
 20
357.9321673873398
 30
0.0
  0
ENDBLK
  5
1A7
330
19C
100
AcDbEntity
  8
0
100
AcDbBlockEnd
  0
BLOCK
  5
31F
330
315
100
AcDbEntity
  8
0
100
AcDbBlockBegin
  2
*D4
 70
     1
 10
0.0
 20
0.0
 30
0.0
  3
*D4
  1

  0
LINE
  5
316
330
315
100
AcDbEntity
  8
SUNPO
 62
     0
370
    -2
100
AcDbLine
 10
-24.93714469262574
 20
7.891427752166748
 30
0.0
 11
-24.93714469262574
 21
-0.1085722478332514
 31
0.0
  0
LINE
  5
317
330
315
100
AcDbEntity
  8
SUNPO
 62
     0
370
    -2
100
AcDbLine
 10
-4.937144712625752
 20
7.891427752166748
 30
0.0
 11
-4.937144712625753
 21
-0.1085722478332514
 31
0.0
  0
LINE
  5
318
330
315
100
AcDbEntity
  8
SUNPO
 62
     0
370
    -2
100
AcDbLine
 10
-22.93714469262574
 20
1.891427752166748
 30
0.0
 11
-6.937144712625753
 21
1.891427752166748
 31
0.0
  0
INSERT
  5
319
330
315
100
AcDbEntity
  8
SUNPO
 62
     0
370
    -2
100
AcDbBlockReference
  2
_OPEN30
 10
-24.93714469262574
 20
1.891427752166748
 30
0.0
 41
2.0
 42
2.0
 43
2.0
 50
180.0
  0
INSERT
  5
31A
330
315
100
AcDbEntity
  8
SUNPO
 62
     0
370
    -2
100
AcDbBlockReference
  2
_OPEN30
 10
-4.937144712625753
 20
1.891427752166748
 30
0.0
 41
2.0
 42
2.0
 43
2.0
  0
MTEXT
  5
31B
330
315
100
AcDbEntity
  8
SUNPO
 62
     0
100
AcDbMText
 10
-14.93714470262574
 20
3.641427752166748
 30
0.0
 40
2.5
 41
0.0
 71
     5
 72
     1
  1
\A1;100
 73
     1
 44
1.0
1001
ACAD
1000
MTEXTBEGIN
1070
    73
1070
     1
1070
    44
1040
1.0
1070
    74
1070
     0
1000
MTEXTEND
  0
POINT
  5
31C
330
315
100
AcDbEntity
  8
DEFPOINTS
 62
     0
100
AcDbPoint
 10
-24.93714469262574
 20
9.891427752166748
 30
0.0
  0
POINT
  5
31D
330
315
100
AcDbEntity
  8
DEFPOINTS
 62
     0
100
AcDbPoint
 10
-4.937144712625752
 20
9.891427752166748
 30
0.0
  0
POINT
  5
31E
330
315
100
AcDbEntity
  8
DEFPOINTS
 62
     0
100
AcDbPoint
 10
-4.937144712625753
 20
1.891427752166748
 30
0.0
  0
ENDBLK
  5
320
330
315
100
AcDbEntity
  8
0
100
AcDbBlockEnd
  0
BLOCK
  5
32B
330
321
100
AcDbEntity
  8
0
100
AcDbBlockBegin
  2
*D5
 70
     1
 10
0.0
 20
0.0
 30
0.0
  3
*D5
  1

  0
LINE
  5
322
330
321
100
AcDbEntity
  8
SUNPO
 62
     0
370
    -2
100
AcDbLine
 10
-27.94168663665869
 20
10.43065121952867
 30
0.0
 11
-35.9416866366587
 21
10.43065121952867
 31
0.0
  0
LINE
  5
323
330
321
100
AcDbEntity
  8
SUNPO
 62
     0
370
    -2
100
AcDbLine
 10
-27.94168663665869
 20
46.5840122944864
 30
0.0
 11
-35.94168663665869
 21
46.5840122944864
 31
0.0
  0
LINE
  5
324
330
321
100
AcDbEntity
  8
SUNPO
 62
     0
370
    -2
100
AcDbLine
 10
-33.94168663665869
 20
12.43065121952867
 30
0.0
 11
-33.94168663665869
 21
44.58401229448639
 31
0.0
  0
INSERT
  5
325
330
321
100
AcDbEntity
  8
SUNPO
 62
     0
370
    -2
100
AcDbBlockReference
  2
_OPEN30
 10
-33.94168663665869
 20
10.43065121952867
 30
0.0
 41
2.0
 42
2.0
 43
2.0
 50
270.0
  0
INSERT
  5
326
330
321
100
AcDbEntity
  8
SUNPO
 62
     0
370
    -2
100
AcDbBlockReference
  2
_OPEN30
 10
-33.94168663665869
 20
46.5840122944864
 30
0.0
 41
2.0
 42
2.0
 43
2.0
 50
90.0
  0
MTEXT
  5
327
330
321
100
AcDbEntity
  8
SUNPO
 62
     0
100
AcDbMText
 10
-35.6916866366587
 20
28.50733175700753
 30
0.0
 40
2.5
 41
0.0
 71
     5
 72
     1
  1
\A1;180.8
 11
0.0000000000000001
 21
1.0
 31
0.0
 73
     1
 44
1.0
1001
ACAD
1000
MTEXTBEGIN
1070
    73
1070
     1
1070
    44
1040
1.0
1070
    74
1070
     0
1000
MTEXTEND
  0
POINT
  5
328
330
321
100
AcDbEntity
  8
DEFPOINTS
 62
     0
100
AcDbPoint
 10
-25.94168663665869
 20
10.43065121952867
 30
0.0
  0
POINT
  5
329
330
321
100
AcDbEntity
  8
DEFPOINTS
 62
     0
100
AcDbPoint
 10
-25.94168663665869
 20
46.5840122944864
 30
0.0
  0
POINT
  5
32A
330
321
100
AcDbEntity
  8
DEFPOINTS
 62
     0
100
AcDbPoint
 10
-33.94168663665869
 20
46.5840122944864
 30
0.0
  0
ENDBLK
  5
32C
330
321
100
AcDbEntity
  8
0
100
AcDbBlockEnd
  0
BLOCK
  5
337
330
32D
100
AcDbEntity
  8
0
100
AcDbBlockBegin
  2
*D6
 70
     1
 10
0.0
 20
0.0
 30
0.0
  3
*D6
  1

  0
LINE
  5
32E
330
32D
100
AcDbEntity
  8
SUNPO
 62
     0
370
    -2
100
AcDbLine
 10
-1.856523218985785
 20
10.43065121952867
 30
0.0
 11
6.14347678101421
 21
10.43065121952867
 31
0.0
  0
LINE
  5
32F
330
32D
100
AcDbEntity
  8
SUNPO
 62
     0
370
    -2
100
AcDbLine
 10
-1.856523218985785
 20
30.43065119952866
 30
0.0
 11
6.143476781014214
 21
30.43065119952866
 31
0.0
  0
LINE
  5
330
330
32D
100
AcDbEntity
  8
SUNPO
 62
     0
370
    -2
100
AcDbLine
 10
4.14347678101421
 20
12.43065121952867
 30
0.0
 11
4.143476781014213
 21
28.43065119952866
 31
0.0
  0
INSERT
  5
331
330
32D
100
AcDbEntity
  8
SUNPO
 62
     0
370
    -2
100
AcDbBlockReference
  2
_OPEN30
 10
4.14347678101421
 20
10.43065121952867
 30
0.0
 41
2.0
 42
2.0
 43
2.0
 50
270.0
  0
INSERT
  5
332
330
32D
100
AcDbEntity
  8
SUNPO
 62
     0
370
    -2
100
AcDbBlockReference
  2
_OPEN30
 10
4.143476781014214
 20
30.43065119952866
 30
0.0
 41
2.0
 42
2.0
 43
2.0
 50
90.0
  0
MTEXT
  5
333
330
32D
100
AcDbEntity
  8
SUNPO
 62
     0
100
AcDbMText
 10
2.393476781014209
 20
20.43065120952866
 30
0.0
 40
2.5
 41
0.0
 71
     5
 72
     1
  1
\A1;100
 11
0.0000000000000001
 21
1.0
 31
0.0
 73
     1
 44
1.0
1001
ACAD
1000
MTEXTBEGIN
1070
    73
1070
     1
1070
    44
1040
1.0
1070
    74
1070
     0
1000
MTEXTEND
  0
POINT
  5
334
330
32D
100
AcDbEntity
  8
DEFPOINTS
 62
     0
100
AcDbPoint
 10
-3.856523218985785
 20
10.43065121952867
 30
0.0
  0
POINT
  5
335
330
32D
100
AcDbEntity
  8
DEFPOINTS
 62
     0
100
AcDbPoint
 10
-3.856523218985785
 20
30.43065119952866
 30
0.0
  0
POINT
  5
336
330
32D
100
AcDbEntity
  8
DEFPOINTS
 62
     0
100
AcDbPoint
 10
4.143476781014214
 20
30.43065119952866
 30
0.0
  0
ENDBLK
  5
338
330
32D
100
AcDbEntity
  8
0
100
AcDbBlockEnd
  0
ENDSEC
  0
SECTION
  2
ENTITIES
  0
LINE
  5
2F
330
2
100
AcDbEntity
  8
GAIKEI
 62
     1
100
AcDbLine
 10
30.11464645269999
 20
20.88065120952871
 30
0.0
 11
30.11464645270002
 21
16.42705020952871
 31
0.0
  0
ARC
  5
31
330
2
100
AcDbEntity
  8
GAIKEI
 62
     7
100
AcDbCircle
 10
33.90464200756554
 20
32.75400875276086
 30
0.0
 40
0.03999999996
100
AcDbArc
 50
180.0000050000005
 51
270.0000009999981
  0
ARC
  5
32
330
2
100
AcDbEntity
  8
GAIKEI
 62
     7
100
AcDbCircle
 10
38.32464533647885
 20
32.75400875276086
 30
0.0
 40
0.03999999996
100
AcDbArc
 50
270.0000009999981
 51
0.0
  0
LINE
  5
33
330
2
100
AcDbEntity
  8
GAIKEI
 62
     7
 48
0.003375
100
AcDbLine
 10
38.3646435586611
 20
32.78401075273086
 30
0.0
 11
38.3646435586611
 21
32.75400875276086
 31
0.0
  0
LINE
  5
34
330
2
100
AcDbEntity
  8
GAIKEI
 62
     7
 48
0.003375
100
AcDbLine
 10
33.86464356316106
 20
32.78401075273086
 30
0.0
 11
33.86464356316106
 21
32.75400875276086
 31
0.0
  0
LINE
  5
35
330
2
100
AcDbEntity
  8
GAIKEI
 62
     1
 48
0.10749
100
AcDbLine
 10
30.46373756656198
 20
41.93265852136
 30
0.0
 11
29.54450067859233
 21
42.19326518776603
 31
0.0
  0
ARC
  5
36
330
2
100
AcDbEntity
  8
GAIKEI
 62
     1
100
AcDbCircle
 10
30.4746357887733
 20
41.97115829909927
 30
0.0
 40
0.040007999959992
100
AcDbArc
 50
254.1918270000001
 51
359.9799569999997
  0
ARC
  5
37
330
2
100
AcDbEntity
  8
GAIKEI
 62
     1
100
AcDbCircle
 10
29.55541245635919
 20
42.23175118772758
 30
0.0
 40
0.03999999996
100
AcDbArc
 50
180.0000050000005
 51
254.1717190000003
  0
LWPOLYLINE
  5
38
330
2
100
AcDbEntity
  8
GAIKEI
 62
     7
100
AcDbPolyline
 90
       33
 70
     0
 43
0.0
 10
29.02275179022519
 20
42.40354474311135
 10
29.01316934579035
 20
42.40652185421942
 10
29.01091779023705
 20
42.40727474310761
 10
29.00718779024078
 20
42.4085225208841
 10
29.00196601246819
 20
42.41026540977128
 10
28.99516401247502
 20
42.41253052088012
 10
28.98678179026115
 20
42.41531785421062
 10
28.97676534582672
 20
42.41864763198509
 10
28.96506001250509
 20
42.42253340975901
 10
28.95161201251858
 20
42.42698229864345
 10
28.93633956808935
 20
42.4320278541939
 10
28.91914134588433
 20
42.43769052085497
 10
28.89992201257025
 20
42.44399763195974
 10
28.87857334592491
 20
42.45098274306388
 10
28.85492556817076
 20
42.45869340972279
 10
28.8288229015302
 20
42.46717740971433
 10
28.80005490155901
 20
42.47647496526059
 10
28.7684184571462
 20
42.48665429858379
 10
28.7336417905143
 20
42.49778985412814
 10
28.69540667944148
 20
42.50996296522714
 10
28.65336023503903
 20
42.5232687429916
 10
28.6071295684186
 20
42.53780185408817
 10
28.55626690180282
 20
42.55367763185006
 10
28.50032490185873
 20
42.57099807627719
 10
28.43882845747578
 20
42.58988518736941
 10
28.37130334643223
 20
42.61042674290445
 10
28.29743712428382
 20
42.63268429843771
 10
28.21733867991952
 20
42.65656940952493
 10
28.13157068000527
 20
42.68186518727742
 10
28.04127268009557
 20
42.70819163169557
 10
27.94813979129981
 20
42.73503340944649
 10
27.85400312472729
 20
42.76185496497521
 10
27.76070090259839
 20
42.78813407606008
  0
ARC
  5
39
330
2
100
AcDbEntity
  8
GAIKEI
 62
     7
100
AcDbCircle
 10
16.67228113590897
 20
2.989862115858329
 30
0.0
 40
41.3142475142413
100
AcDbArc
 50
74.43133700000064
 51
76.21502100000217
  0
LINE
  5
3A
330
2
100
AcDbEntity
  8
GAIKEI
 62
     7
 48
0.000784
100
AcDbLine
 10
26.50986668162693
 20
43.11596074239889
 30
0.0
 11
26.51660757050911
 21
43.11417718684509
 31
0.0
  0
LINE
  5
3B
330
2
100
AcDbEntity
  8
GAIKEI
 62
     1
 48
0.003614
100
AcDbLine
 10
29.5154140119547
 20
42.23175118772758
 30
0.0
 11
29.5154140119547
 21
42.26387607658432
 31
0.0
  0
ARC
  5
3C
330
2
100
AcDbEntity
  8
GAIKEI
 62
     7
100
AcDbCircle
 10
26.10413201536602
 20
43.85463518610464
 30
0.0
 40
0.5999999994000001
100
AcDbArc
 50
188.0000000000009
 51
254.171775
  0
ARC
  5
3D
330
2
100
AcDbEntity
  8
GAIKEI
 62
     7
100
AcDbCircle
 10
46.99961266113724
 20
46.48400940569752
 30
0.0
 40
0.0999999999
100
AcDbArc
 50
352.0000009999993
 51
90.00000299999769
  0
ARC
  5
3E
330
2
100
AcDbEntity
  8
GAIKEI
 62
     7
100
AcDbCircle
 10
46.12515532867837
 20
43.85463518610464
 30
0.0
 40
0.5999999994000001
100
AcDbArc
 50
285.8282269999987
 51
352.0000009999993
  0
LINE
  5
3F
330
2
100
AcDbEntity
  8
GAIKEI
 62
     7
 48
0.306617
100
AcDbLine
 10
25.50996846040465
 20
43.77113251952152
 30
0.0
 11
25.13065512745061
 21
46.47009340571145
 31
0.0
  0
LINE
  5
40
330
2
100
AcDbEntity
  8
GAIKEI
 62
     7
 48
0.066581
100
AcDbLine
 10
26.50986668162693
 20
43.11596074239889
 30
0.0
 11
25.94047645997415
 21
43.2773851866819
 31
0.0
  0
LINE
  5
41
330
2
100
AcDbEntity
  8
GAIKEI
 62
     7
 48
0.057609
100
AcDbLine
 10
29.5154140119547
 20
42.26387607658432
 30
0.0
 11
29.02275179022519
 21
42.40354474311135
 31
0.0
  0
LINE
  5
42
330
2
100
AcDbEntity
  8
GAIKEI
 62
     7
 48
0.248057
100
AcDbLine
 10
32.63599245327862
 20
41.3791782996912
 30
0.0
 11
30.51464778873333
 21
41.98059141020093
 31
0.0
  0
LINE
  5
43
330
2
100
AcDbEntity
  8
GAIKEI
 62
     7
100
AcDbLine
 10
39.59329489076578
 20
41.3791782996912
 30
0.0
 11
46.28881088407024
 21
43.2773851866819
 31
0.0
  0
ARC
  5
44
330
2
100
AcDbEntity
  8
GAIKEI
 62
     7
100
AcDbCircle
 10
25.22968134957381
 20
46.48400940569752
 30
0.0
 40
0.0999999999
100
AcDbArc
 50
89.99999599999764
 51
188.0000000000009
  0
LINE
  5
45
330
2
100
AcDbEntity
  8
GAIKEI
 62
     7
 48
0.306617
100
AcDbLine
 10
46.71932577252863
 20
43.77113251952152
 30
0.0
 11
47.09863888326037
 21
46.47009340571145
 31
0.0
  0
LINE
  5
46
330
2
100
AcDbEntity
  8
GAIKEI
 62
     7
 48
0.01679
100
AcDbLine
 10
33.86464356316106
 20
32.78401075273086
 30
0.0
 11
33.75911378548881
 21
32.88954053040311
 31
0.0
  0
ARC
  5
47
330
2
100
AcDbEntity
  8
GAIKEI
 62
     7
100
AcDbCircle
 10
32.36323978688472
 20
40.41709452287557
 30
0.0
 40
0.9999999989999999
100
AcDbArc
 50
3.000000000000716
 51
74.17177699999871
  0
LINE
  5
48
330
2
100
AcDbEntity
  8
GAIKEI
 62
     7
 48
0.01679
100
AcDbLine
 10
38.3646435586611
 20
32.78401075273086
 30
0.0
 11
38.47017333633335
 21
32.88954053040311
 31
0.0
  0
ARC
  5
49
330
2
100
AcDbEntity
  8
GAIKEI
 62
     7
100
AcDbCircle
 10
39.86604755715968
 20
40.41709452287557
 30
0.0
 40
0.9999999989999999
100
AcDbArc
 50
105.8282209999994
 51
176.9999939999998
  0
LINE
  5
4A
330
2
100
AcDbEntity
  8
GAIKEI
 62
     7
100
AcDbLine
 10
33.75911378548881
 20
32.88954053040311
 30
0.0
 11
33.36187000810833
 21
40.46943563393432
 31
0.0
  0
LINE
  5
4B
330
2
100
AcDbEntity
  8
GAIKEI
 62
     7
 48
0.044009
100
AcDbLine
 10
38.84695022484545
 20
40.07877674543607
 30
0.0
 11
38.86741733593613
 21
40.46943563393432
 31
0.0
  0
LINE
  5
4C
330
2
100
AcDbEntity
  8
GAIKEI
 62
     7
 48
0.06638
100
AcDbLine
 10
38.47017333633335
 20
32.88954053040311
 30
0.0
 11
38.50105733630244
 21
33.47877408536942
 31
0.0
  0
ARC
  5
4D
330
2
100
AcDbEntity
  8
GAIKEI
 62
     7
100
AcDbCircle
 10
-669.0922241783266
 20
88.08897625298147
 30
0.0
 40
708.9433399577233
100
AcDbArc
 50
355.7197219999998
 51
355.9790500000001
  0
ARC
  5
4E
330
2
100
AcDbEntity
  8
GAIKEI
 62
     7
100
AcDbCircle
 10
43.35453888700453
 20
36.93446252635818
 30
0.0
 40
5.936523994063476
100
AcDbArc
 50
210.2547660000015
 51
214.7614200000006
  0
ARC
  5
4F
330
2
100
AcDbEntity
  8
GAIKEI
 62
     7
100
AcDbCircle
 10
38.39929133640419
 20
33.48342630758697
 30
0.0
 40
0.101903111009208
100
AcDbArc
 50
357.385059
 51
34.26997799999977
  0
LWPOLYLINE
  5
50
330
2
100
AcDbEntity
  8
GAIKEI
 62
     7
100
AcDbPolyline
 90
       30
 70
     0
 43
0.0
 10
38.48349955854224
 20
33.5408060853074
 10
38.48261111409869
 20
33.54209452975056
 10
38.47949155854621
 20
33.54661808530159
 10
38.47405933632945
 20
33.55449830751593
 10
38.46633511411494
 20
33.5657491963936
 10
38.45631844745833
 20
33.58040430749003
 10
38.44407066969279
 20
33.59843008524979
 10
38.42956466970725
 20
33.61993475189496
 10
38.41282755861289
 20
33.64495919631435
 10
38.39386600307631
 20
33.67359830739685
 10
38.37274089198627
 20
33.70590608514232
 10
38.34945266978741
 20
33.74203897399508
 10
38.32405533647943
 20
33.78210519617721
 10
38.29658266984029
 20
33.82630141835523
 10
38.26708244764751
 20
33.87485830719555
 10
38.23560844767894
 20
33.92808764047567
 10
38.20222911437907
 20
33.98636275152848
 10
38.16701866996982
 20
34.05023252924241
 10
38.1300786700067
 20
34.12041630695
 10
38.09153844782304
 20
34.19796475131688
 10
38.05155355897415
 20
34.28442452900822
 10
38.01038200345977
 20
34.38229097335483
 10
37.96843733683511
 20
34.49596563990775
 10
37.92655355909915
 20
34.63459008421359
 10
37.90445889245461
 20
34.72633252856628
 10
37.88791844802665
 20
34.81907208402913
 10
37.88726733691624
 20
34.82371763958003
 10
37.8753586702615
 20
34.96145363944231
 10
37.87341244804122
 20
35.13958141704194
 10
37.8737853369297
 20
35.17652786144942
  0
ARC
  5
51
330
2
100
AcDbEntity
  8
GAIKEI
 62
     7
100
AcDbCircle
 10
-668.9325561784862
 20
88.07649803077168
 30
0.0
 40
708.7832324023278
100
AcDbArc
 50
355.719749
 51
355.9791600000001
  0
LWPOLYLINE
  5
52
330
2
100
AcDbEntity
  8
GAIKEI
 62
     7
100
AcDbPolyline
 90
       30
 70
     0
 43
0.0
 10
38.82912800264103
 20
40.02684252326576
 10
38.82775800264244
 20
40.02486918993446
 10
38.82362133597985
 20
40.01893518994035
 10
38.81672422487566
 20
40.0090271899503
 10
38.80708066932971
 20
39.99511785663088
 10
38.79698289156209
 20
39.98048296775659
 10
38.78498600268518
 20
39.96302696777405
 10
38.77111755825456
 20
39.94271585668327
 10
38.75537711382595
 20
39.91952919003978
 10
38.73782622495458
 20
39.89345363451031
 10
38.71844422497395
 20
39.86440763453936
 10
38.69727844721735
 20
39.83233719012697
 10
38.67432244724034
 20
39.79716052349551
 10
38.64963711393159
 20
39.75880341242271
 10
38.62322933618026
 20
39.71712319024215
 10
38.59513955843056
 20
39.67202496806505
 10
38.56539511401587
 20
39.62328496811381
 10
38.5340433362694
 20
39.57070652372193
 10
38.5011115585246
 20
39.51399141266751
 10
38.46664689189243
 20
39.45278652383985
 10
38.43069733637276
 20
39.38657696835054
 10
38.39288933641063
 20
39.31387052397878
 10
38.35367089200543
 20
39.23439607961382
 10
38.31311644760149
 20
39.14670207970147
 10
38.27131422542107
 20
39.04854407979968
 10
38.22934222546303
 20
38.93869430213175
 10
38.18652266995031
 20
38.80811296892898
 10
38.14358778110437
 20
38.64004919131924
 10
38.11909244779554
 20
38.48730541369423
 10
38.10611911447518
 20
38.37698096936009
  0
ARC
  5
53
330
2
100
AcDbEntity
  8
GAIKEI
 62
     7
100
AcDbCircle
 10
38.74454689161451
 20
40.08487341209667
 30
0.0
 40
0.102575111008536
100
AcDbArc
 50
325.5443009999996
 51
356.5919369999998
  0
ARC
  5
54
330
2
100
AcDbEntity
  8
GAIKEI
 62
     7
100
AcDbCircle
 10
44.39951510818178
 20
36.08867808275955
 30
0.0
 40
6.821352882067535
100
AcDbArc
 50
146.0437210000001
 51
148.7204420000002
  0
LINE
  5
55
330
2
100
AcDbEntity
  8
GAIKEI
 62
     7
 48
0.001693
100
AcDbLine
 10
38.82052889153852
 20
40.0144931899448
 30
0.0
 11
38.82912800264103
 21
40.02684252326576
 31
0.0
  0
LINE
  5
56
330
2
100
AcDbEntity
  8
GAIKEI
 62
     1
 48
0.016128
100
AcDbLine
 10
38.0146477812333
 20
32.57065230849975
 30
0.0
 11
38.0146477812333
 21
32.71401030835642
 31
0.0
  0
LINE
  5
57
330
2
100
AcDbEntity
  8
GAIKEI
 62
     1
 48
0.016128
100
AcDbLine
 10
34.21464645169999
 20
32.57065230849975
 30
0.0
 11
34.21464645169999
 21
32.71401030835642
 31
0.0
  0
LINE
  5
58
330
2
100
AcDbEntity
  8
GAIKEI
 62
     1
 48
0.248625
100
AcDbLine
 10
33.90464200756554
 20
32.71401030835642
 30
0.0
 11
36.11464356091108
 21
32.71401030835642
 31
0.0
  0
LINE
  5
59
330
2
100
AcDbEntity
  8
GAIKEI
 62
     1
 48
0.248625
100
AcDbLine
 10
36.11464356091108
 20
32.71401030835642
 30
0.0
 11
38.32464533647885
 21
32.71401030835642
 31
0.0
  0
LINE
  5
5A
330
2
100
AcDbEntity
  8
GAIKEI
 62
     7
 48
0.008681
100
AcDbLine
 10
46.87227977237563
 20
46.5840122944864
 30
0.0
 11
46.79511777245283
 21
46.5840122944864
 31
0.0
  0
LINE
  5
5B
330
2
100
AcDbEntity
  8
GAIKEI
 62
     1
 48
0.000794
100
AcDbLine
 10
30.51464778873333
 20
41.97114452132149
 30
0.0
 11
30.51464778873333
 21
41.97820429909222
 31
0.0
  0
LINE
  5
5C
330
2
100
AcDbEntity
  8
GAIKEI
 62
     1
 48
0.001069
100
AcDbLine
 10
30.51464778873333
 20
41.97820429909222
 30
0.0
 11
30.51464778873333
 21
41.98770541019382
 31
0.0
  0
LINE
  5
5D
330
2
100
AcDbEntity
  8
GAIKEI
 62
     7
 48
0.014325
100
AcDbLine
 10
46.99961266113724
 20
46.5840122944864
 30
0.0
 11
46.87227977237563
 21
46.5840122944864
 31
0.0
  0
LINE
  5
5E
330
2
100
AcDbEntity
  8
GAIKEI
 62
     1
 48
0.146047
100
AcDbLine
 10
25.50996846040465
 20
43.77113251952152
 30
0.0
 11
26.80816579243981
 21
43.77113251952152
 31
0.0
  0
ARC
  5
5F
330
2
100
AcDbEntity
  8
GAIKEI
 62
     7
100
AcDbCircle
 10
16.68026335812323
 20
3.01701589360897
 30
0.0
 40
41.28609818093613
100
AcDbArc
 50
74.43194599999994
 51
76.22646799999988
  0
ARC
  5
60
330
2
100
AcDbEntity
  8
GAIKEI
 62
     7
100
AcDbCircle
 10
30.27543067786138
 20
41.28228141089926
 30
0.0
 40
0.7450397770327381
100
AcDbArc
 50
71.26754499999943
 51
76.0837379999992
  0
ARC
  5
61
330
2
100
AcDbEntity
  8
GAIKEI
 62
     7
100
AcDbCircle
 10
46.21254399525764
 20
101.1229933510585
 30
0.0
 40
61.18155349437401
100
AcDbArc
 50
254.1819109999999
 51
255.0746990000022
  0
LINE
  5
62
330
2
100
AcDbEntity
  8
GAIKEI
 62
     1
 48
0.002338
100
AcDbLine
 10
29.5154140119547
 20
42.26387607658432
 30
0.0
 11
29.53541334526813
 21
42.2582336321455
 31
0.0
  0
LINE
  5
63
330
2
100
AcDbEntity
  8
GAIKEI
 62
     1
 48
0.140118
100
AcDbLine
 10
25.94047645997415
 20
43.2773851866819
 30
0.0
 11
27.18597334761751
 21
43.2773851866819
 31
0.0
  0
LWPOLYLINE
  5
64
330
2
100
AcDbEntity
  8
GAIKEI
 62
     1
100
AcDbPolyline
 90
       56
 70
     0
 43
0.0
 10
39.93440689042467
 20
43.01910474249575
 10
40.00031800146985
 20
43.03124385359473
 10
40.06591733473761
 20
43.04246074247243
 10
40.13113000133905
 20
43.05279607579541
 10
40.19586111238538
 20
43.06227696467482
 10
40.2600226678768
 20
43.07092363133285
 10
40.32353311225773
 20
43.07876318688056
 10
40.3863246677505
 20
43.08581607576235
 10
40.44831600102185
 20
43.09209585353386
 10
40.50943933429403
 20
43.09762296463946
 10
40.56962688978944
 20
43.10239740907912
 10
40.62881733417469
 20
43.1064527424084
 10
40.68693644522773
 20
43.10977585351622
 10
40.74392288961513
 20
43.11238007573581
 10
40.79970911178157
 20
43.11427874240059
 10
40.85422688950484
 20
43.11546563128826
 10
40.90739533389615
 20
43.11594718684335
 10
40.95914644495542
 20
43.11572340906582
 10
41.0094055560163
 20
43.1147942979556
 10
41.0580911115232
 20
43.1131598535128
 10
41.10512888925393
 20
43.11082029795961
 10
41.15043733365308
 20
43.10775496462935
 10
41.1939351113873
 20
43.10397740907757
 10
41.23553400023462
 20
43.09946763130426
 10
41.27514577797279
 20
43.09421185353175
 10
41.3126620001575
 20
43.08821007576
 10
41.3479877778999
 20
43.08144874243339
 10
41.38100777786696
 20
43.07389385355207
 10
41.41158644450302
 20
43.06554563133824
 10
41.43960155558613
 20
43.0563767424585
 10
41.46491088889416
 20
43.04636029802407
 10
41.48735155553834
 20
43.03547563136828
 10
41.50674022218561
 20
43.02367563138005
 10
41.52289422216949
 20
43.01093274250393
 10
41.53558288882345
 20
42.99720674251767
 10
41.54455488881455
 20
42.98243607586579
 10
41.54951244436512
 20
42.96656029810384
 10
41.55012955547556
 20
42.94951096478757
 10
41.54599955547974
 20
42.93121407591701
 10
41.5366746666001
 20
42.91162185371433
 10
41.52168022217074
 20
42.89067318706867
 10
41.50048755552524
 20
42.86833429820211
 10
41.47256066666426
 20
42.84457807600364
 10
41.43734333336612
 20
42.81940452047325
 10
41.394388222298
 20
42.79289474272196
 10
41.34357288901549
 20
42.76529340941624
 10
41.28527755574043
 20
42.73701385388898
 10
41.2205395558052
 20
42.70864607613958
 10
41.15102733365245
 20
42.68086829838956
 10
41.07855155594717
 20
42.65424340952728
 10
41.00482777824311
 20
42.62919185399681
 10
40.93127377831666
 20
42.60593052068673
 10
40.85877066727806
 20
42.58451407626369
 10
40.78794288957112
 20
42.56490829850548
 10
40.71917644519544
 20
42.54703163185673
 10
40.65260755637313
 20
42.53074874298414
  0
LWPOLYLINE
  5
65
330
2
100
AcDbEntity
  8
GAIKEI
 62
     1
100
AcDbPolyline
 90
       55
 70
     0
 43
0.0
 10
40.65260755637313
 20
42.53074874298414
 10
40.57879577866913
 20
42.51382852077881
 10
40.50764222318474
 20
42.49861052079404
 10
40.43900488992005
 20
42.48493185414105
 10
40.37272733443081
 20
42.47265007637554
 10
40.30863377893934
 20
42.46163674305324
 10
40.24655422344586
 20
42.45179652084084
 10
40.18636666795043
 20
42.44302785418295
 10
40.12794244578663
 20
42.43527629863513
 10
40.07119333473229
 20
42.42846740975307
 10
40.01601089034307
 20
42.42256074309233
 10
39.96230666817451
 20
42.41750829865293
 10
39.90997911267129
 20
42.41326963199049
 10
39.85896066827786
 20
42.40982474310505
 10
39.80918311277207
 20
42.40714585421881
 10
39.76059222393178
 20
42.40521318755412
 10
39.71314089064595
 20
42.4040194097775
 10
39.66680844624779
 20
42.40355163200018
 10
39.62157444629304
 20
42.40382274311104
 10
39.57741889078164
 20
42.40481296533227
 10
39.53432822415806
 20
42.40654229866385
 10
39.49230200197781
 20
42.40901763199474
 10
39.45133400201882
 20
42.41225252088037
 10
39.41143733539206
 20
42.41627407643193
 10
39.37263933543085
 20
42.42110252087155
 10
39.33497377991296
 20
42.42677874308805
 10
39.29850866883834
 20
42.43333674308155
 10
39.26332533554023
 20
42.44082363196293
 10
39.2295322244629
 20
42.44930763195447
 10
39.19725133560627
 20
42.45884940972269
 10
39.16664555785906
 20
42.46953052082306
 10
39.13791844677667
 20
42.48145963192229
 10
39.11134778013661
 20
42.49474496524231
 10
39.08727955793847
 20
42.50952896522756
 10
39.06617489129292
 20
42.52598140965557
 10
39.0486306690882
 20
42.54428518741502
 10
39.03542000243476
 20
42.56463696517243
 10
39.02755333577596
 20
42.58721318737213
 10
39.02621733577729
 20
42.612190076236
 10
39.03282933577066
 20
42.63963563176412
 10
39.04879355797692
 20
42.66938007617881
 10
39.07513355795061
 20
42.7009080761473
 10
39.1120395579137
 20
42.73337207611485
 10
39.15868400231147
 20
42.76579518719353
 10
39.21359511336766
 20
42.79736407605082
 10
39.27496266886186
 20
42.82745429824297
 10
39.34115866879569
 20
42.8557678537702
 10
39.41082022428157
 20
42.88217563152159
 10
39.48282800198735
 20
42.90666429816377
 10
39.55643644635819
 20
42.92932874258553
 10
39.6311842240612
 20
42.95028407589791
 10
39.70665066843015
 20
42.96965274254517
 10
39.78251066835435
 20
42.98752229808286
 10
39.85849955716719
 20
43.00398163139976
 10
39.93440689042467
 20
43.01910474249575
  0
LINE
  5
66
330
2
100
AcDbEntity
  8
GAIKEI
 62
     1
100
AcDbLine
 10
46.28881088407024
 20
43.2773851866819
 30
0.0
 11
27.18597334761751
 21
43.2773851866819
 31
0.0
  0
LINE
  5
67
330
2
100
AcDbEntity
  8
GAIKEI
 62
     7
100
AcDbLine
 10
46.79511777245283
 20
46.5840122944864
 30
0.0
 11
26.56219423713015
 21
46.5840122944864
 31
0.0
  0
LINE
  5
68
330
2
100
AcDbEntity
  8
GAIKEI
 62
     7
 48
0.149908
100
AcDbLine
 10
26.56219423713015
 20
46.5840122944864
 30
0.0
 11
25.22968134957381
 21
46.5840122944864
 31
0.0
  0
LINE
  5
69
330
2
100
AcDbEntity
  8
GAIKEI
 62
     1
100
AcDbLine
 10
46.71932577252863
 20
43.77113251952152
 30
0.0
 11
26.80816579243981
 21
43.77113251952152
 31
0.0
  0
LINE
  5
6A
330
2
100
AcDbEntity
  8
GAIKEI
 62
     1
 48
0.047908
100
AcDbLine
 10
32.63599245327862
 20
41.3791782996912
 30
0.0
 11
33.06184156396387
 21
41.3791782996912
 31
0.0
  0
LINE
  5
6B
330
2
100
AcDbEntity
  8
GAIKEI
 62
     1
100
AcDbLine
 10
39.59329489076578
 20
41.3791782996912
 30
0.0
 11
33.06184156396387
 21
41.3791782996912
 31
0.0
  0
LINE
  5
6C
330
2
100
AcDbEntity
  8
GAIKEI
 62
     1
 48
0.03244
100
AcDbLine
 10
34.04747111853385
 20
32.88954053040311
 30
0.0
 11
33.75911378548881
 21
32.88954053040311
 31
0.0
  0
LINE
  5
6D
330
2
100
AcDbEntity
  8
GAIKEI
 62
     1
 48
0.037911
100
AcDbLine
 10
33.36187000810833
 20
40.46943563393432
 30
0.0
 11
33.69885867443793
 21
40.46943563393432
 31
0.0
  0
LINE
  5
6E
330
2
100
AcDbEntity
  8
GAIKEI
 62
     1
 48
0.497554
100
AcDbLine
 10
38.47017333633335
 20
32.88954053040311
 30
0.0
 11
34.04747111853385
 21
32.88954053040311
 31
0.0
  0
LINE
  5
6F
330
2
100
AcDbEntity
  8
GAIKEI
 62
     1
100
AcDbLine
 10
38.86741733593613
 20
40.46943563393432
 30
0.0
 11
33.69885867443793
 21
40.46943563393432
 31
0.0
  0
LINE
  5
70
330
2
100
AcDbEntity
  8
GAIKEI
 62
     7
 48
0.01591
100
AcDbLine
 10
33.71464645219999
 20
32.47064964193311
 30
0.0
 11
33.81464222987779
 21
32.57065230849975
 31
0.0
  0
LINE
  5
71
330
2
100
AcDbEntity
  8
GAIKEI
 62
     7
 48
0.015986
100
AcDbLine
 10
38.21464644769992
 20
27.57065231349981
 30
0.0
 11
38.31559844759897
 21
27.67064831339979
 31
0.0
  0
LINE
  5
72
330
2
100
AcDbEntity
  8
GAIKEI
 62
     7
 48
0.015986
100
AcDbLine
 10
33.91369556311202
 20
27.67064831339979
 30
0.0
 11
34.01464778523325
 21
27.57065231349981
 31
0.0
  0
LINE
  5
73
330
2
100
AcDbEntity
  8
GAIKEI
 62
     7
 48
0.461308
100
AcDbLine
 10
38.46784733633564
 20
28.07034720188898
 30
0.0
 11
38.50785933629561
 21
32.17066853112198
 31
0.0
  0
LINE
  5
74
330
2
100
AcDbEntity
  8
GAIKEI
 62
     7
 48
0.4613090000000001
100
AcDbLine
 10
38.46784733633564
 20
28.07034720188898
 30
0.0
 11
38.50785933629561
 21
32.17067542001087
 31
0.0
  0
LINE
  5
75
330
2
100
AcDbEntity
  8
GAIKEI
 62
     7
 48
0.461308
100
AcDbLine
 10
33.76144000770876
 20
28.07034720188898
 30
0.0
 11
33.72142800774873
 21
32.17066853112198
 31
0.0
  0
LINE
  5
76
330
2
100
AcDbEntity
  8
GAIKEI
 62
     7
 48
0.4613090000000001
100
AcDbLine
 10
33.76144000770876
 20
28.07034720188898
 30
0.0
 11
33.72142800774873
 21
32.17067542001087
 31
0.0
  0
LINE
  5
77
330
2
100
AcDbEntity
  8
GAIKEI
 62
     7
 48
0.01591
100
AcDbLine
 10
38.5146477807333
 20
32.47064964193311
 30
0.0
 11
38.41464511416666
 21
32.57065230849975
 31
0.0
  0
LINE
  5
78
330
2
100
AcDbEntity
  8
GAIKEI
 62
     7
 48
0.03375
100
AcDbLine
 10
33.71464645219999
 20
32.17064830889979
 30
0.0
 11
33.71464645219999
 21
32.47064964193311
 31
0.0
  0
LINE
  5
79
330
2
100
AcDbEntity
  8
GAIKEI
 62
     7
 48
0.033752
100
AcDbLine
 10
38.31559844759897
 20
27.67064831339979
 30
0.0
 11
38.31845355870724
 21
27.97064964643312
 31
0.0
  0
LINE
  5
7A
330
2
100
AcDbEntity
  8
GAIKEI
 62
     7
 48
0.033752
100
AcDbLine
 10
33.91369556311202
 20
27.67064831339979
 30
0.0
 11
33.91083378533711
 21
27.97064964643312
 31
0.0
  0
LINE
  5
7B
330
2
100
AcDbEntity
  8
GAIKEI
 62
     7
 48
0.03375
100
AcDbLine
 10
38.5146477807333
 20
32.17064830889979
 30
0.0
 11
38.5146477807333
 21
32.47064964193311
 31
0.0
  0
LINE
  5
7C
330
2
100
AcDbEntity
  8
GAIKEI
 62
     7
 48
0.034666
100
AcDbLine
 10
33.81464222987779
 20
32.57065230849975
 30
0.0
 11
34.12278845179185
 21
32.57065230849975
 31
0.0
  0
LINE
  5
7D
330
2
100
AcDbEntity
  8
GAIKEI
 62
     7
 48
0.448168
100
AcDbLine
 10
34.12278845179185
 20
32.57065230849975
 30
0.0
 11
38.1065055589192
 21
32.57065230849975
 31
0.0
  0
LINE
  5
7E
330
2
100
AcDbEntity
  8
GAIKEI
 62
     7
 48
0.031651
100
AcDbLine
 10
37.93330133687021
 20
27.57065231349981
 30
0.0
 11
38.21464644769992
 21
27.57065231349981
 31
0.0
  0
LINE
  5
7F
330
2
100
AcDbEntity
  8
GAIKEI
 62
     7
 48
0.409197
100
AcDbLine
 10
37.93330133687021
 20
27.57065231349981
 30
0.0
 11
34.01464778523325
 21
27.57065231349981
 31
0.0
  0
LINE
  5
80
330
2
100
AcDbEntity
  8
GAIKEI
 62
     7
 48
0.4612720000000001
100
AcDbLine
 10
33.76166850535935
 20
28.06806858501381
 30
0.0
 11
33.72160445219299
 21
32.17064830889979
 31
0.0
  0
LINE
  5
81
330
2
100
AcDbEntity
  8
GAIKEI
 62
     7
 48
0.034666
100
AcDbLine
 10
38.1065055589192
 20
32.57065230849975
 30
0.0
 11
38.41464511416666
 21
32.57065230849975
 31
0.0
  0
LINE
  5
82
330
2
100
AcDbEntity
  8
GAIKEI
 62
     1
 48
0.036173
100
AcDbLine
 10
33.71464645219999
 20
32.47064964193311
 30
0.0
 11
34.03618645187839
 21
32.47064964193311
 31
0.0
  0
LINE
  5
83
330
2
100
AcDbEntity
  8
GAIKEI
 62
     7
 48
0.4612720000000001
100
AcDbLine
 10
38.46765066966919
 20
28.07064542411087
 30
0.0
 11
38.50768289185135
 21
32.17064830889979
 31
0.0
  0
LINE
  5
84
330
2
100
AcDbEntity
  8
GAIKEI
 62
     1
 48
0.4676540000000001
100
AcDbLine
 10
34.03618645187839
 20
32.47064964193311
 30
0.0
 11
38.5146477807333
 21
32.47064964193311
 31
0.0
  0
LINE
  5
85
330
2
100
AcDbEntity
  8
GAIKEI
 62
     1
 48
0.010951
100
AcDbLine
 10
38.09576355893
 20
32.17064830889979
 30
0.0
 11
38.19310778105484
 21
32.17064830889979
 31
0.0
  0
LINE
  5
86
330
2
100
AcDbEntity
  8
GAIKEI
 62
     1
 48
0.003437
100
AcDbLine
 10
38.06521200340495
 20
32.17064830889979
 30
0.0
 11
38.50768289185135
 21
32.17064830889979
 31
0.0
  0
LINE
  5
87
330
2
100
AcDbEntity
  8
GAIKEI
 62
     1
 48
0.026413
100
AcDbLine
 10
37.83043000363972
 20
32.17064830889979
 30
0.0
 11
38.06521200340495
 21
32.17064830889979
 31
0.0
  0
LINE
  5
88
330
2
100
AcDbEntity
  8
GAIKEI
 62
     1
 48
0.004237
100
AcDbLine
 10
37.79276467034407
 20
32.17064830889979
 30
0.0
 11
37.83043000363972
 21
32.17064830889979
 31
0.0
  0
LINE
  5
89
330
2
100
AcDbEntity
  8
GAIKEI
 62
     1
 48
0.031478
100
AcDbLine
 10
37.51295911506827
 20
32.17064830889979
 30
0.0
 11
37.79276467034407
 21
32.17064830889979
 31
0.0
  0
LINE
  5
8A
330
2
100
AcDbEntity
  8
GAIKEI
 62
     1
 48
0.004909
100
AcDbLine
 10
37.46932578177859
 20
32.17064830889979
 30
0.0
 11
37.51295911506827
 21
32.17064830889979
 31
0.0
  0
LINE
  5
8B
330
2
100
AcDbEntity
  8
GAIKEI
 62
     1
 48
0.035587
100
AcDbLine
 10
37.15300089320607
 20
32.17064830889979
 30
0.0
 11
37.46932578177859
 21
32.17064830889979
 31
0.0
  0
LINE
  5
8C
330
2
100
AcDbEntity
  8
GAIKEI
 62
     1
 48
0.005431
100
AcDbLine
 10
37.10472889325433
 20
32.17064830889979
 30
0.0
 11
37.15300089320607
 21
32.17064830889979
 31
0.0
  0
LINE
  5
8D
330
2
100
AcDbEntity
  8
GAIKEI
 62
     1
 48
0.038614
100
AcDbLine
 10
36.76149422693089
 20
32.17064830889979
 30
0.0
 11
37.10472889325433
 21
32.17064830889979
 31
0.0
  0
LINE
  5
8E
330
2
100
AcDbEntity
  8
GAIKEI
 62
     1
 48
0.005788
100
AcDbLine
 10
36.71004844920458
 20
32.17064830889979
 30
0.0
 11
36.76149422693089
 21
32.17064830889979
 31
0.0
  0
LINE
  5
8F
330
2
100
AcDbEntity
  8
GAIKEI
 62
     1
 48
0.040468
100
AcDbLine
 10
36.35033422734205
 20
32.17064830889979
 30
0.0
 11
36.71004844920458
 21
32.17064830889979
 31
0.0
  0
LINE
  5
90
330
2
100
AcDbEntity
  8
GAIKEI
 62
     1
 48
0.005969
100
AcDbLine
 10
36.29727444961736
 20
32.17064830889979
 30
0.0
 11
36.35033422734205
 21
32.17064830889979
 31
0.0
  0
LINE
  5
91
330
2
100
AcDbEntity
  8
GAIKEI
 62
     1
 48
0.041092
100
AcDbLine
 10
35.93201289442703
 20
32.17064830889979
 30
0.0
 11
36.29727444961736
 21
32.17064830889979
 31
0.0
  0
LINE
  5
92
330
2
100
AcDbEntity
  8
GAIKEI
 62
     1
 48
0.005969
100
AcDbLine
 10
35.87895311670235
 20
32.17064830889979
 30
0.0
 11
35.93201289442703
 21
32.17064830889979
 31
0.0
  0
LINE
  5
93
330
2
100
AcDbEntity
  8
GAIKEI
 62
     1
 48
0.040468
100
AcDbLine
 10
35.51923889483976
 20
32.17064830889979
 30
0.0
 11
35.87895311670235
 21
32.17064830889979
 31
0.0
  0
LINE
  5
94
330
2
100
AcDbEntity
  8
GAIKEI
 62
     1
 48
0.005788
100
AcDbLine
 10
35.4677931171135
 20
32.17064830889979
 30
0.0
 11
35.51923889483976
 21
32.17064830889979
 31
0.0
  0
LINE
  5
95
330
2
100
AcDbEntity
  8
GAIKEI
 62
     1
 48
0.038614
100
AcDbLine
 10
35.12455845079006
 20
32.17064830889979
 30
0.0
 11
35.4677931171135
 21
32.17064830889979
 31
0.0
  0
LINE
  5
96
330
2
100
AcDbEntity
  8
GAIKEI
 62
     1
 48
0.005431
100
AcDbLine
 10
35.07628645083832
 20
32.17064830889979
 30
0.0
 11
35.12455845079006
 21
32.17064830889979
 31
0.0
  0
LINE
  5
97
330
2
100
AcDbEntity
  8
GAIKEI
 62
     1
 48
0.035587
100
AcDbLine
 10
34.75996156226575
 20
32.17064830889979
 30
0.0
 11
35.07628645083832
 21
32.17064830889979
 31
0.0
  0
LINE
  5
98
330
2
100
AcDbEntity
  8
GAIKEI
 62
     1
 48
0.004908
100
AcDbLine
 10
34.7163351178649
 20
32.17064830889979
 30
0.0
 11
34.75996156226575
 21
32.17064830889979
 31
0.0
  0
LINE
  5
99
330
2
100
AcDbEntity
  8
GAIKEI
 62
     1
 48
0.031479
100
AcDbLine
 10
34.43652267370032
 20
32.17064830889979
 30
0.0
 11
34.7163351178649
 21
32.17064830889979
 31
0.0
  0
LINE
  5
9A
330
2
100
AcDbEntity
  8
GAIKEI
 62
     1
 48
0.004237
100
AcDbLine
 10
34.39886400707133
 20
32.17064830889979
 30
0.0
 11
34.43652267370032
 21
32.17064830889979
 31
0.0
  0
LINE
  5
9B
330
2
100
AcDbEntity
  8
GAIKEI
 62
     1
 48
0.026414
100
AcDbLine
 10
34.16407534063945
 20
32.17064830889979
 30
0.0
 11
34.39886400707133
 21
32.17064830889979
 31
0.0
  0
LINE
  5
9C
330
2
100
AcDbEntity
  8
GAIKEI
 62
     1
 48
0.003437
100
AcDbLine
 10
34.13352378511445
 20
32.17064830889979
 30
0.0
 11
34.16407534063945
 21
32.17064830889979
 31
0.0
  0
LINE
  5
9D
330
2
100
AcDbEntity
  8
GAIKEI
 62
     1
 48
0.01095
100
AcDbLine
 10
33.72160445219305
 20
32.17064830889979
 30
0.0
 11
34.13352378511445
 21
32.17064830889979
 31
0.0
  0
LINE
  5
9E
330
2
100
AcDbEntity
  8
GAIKEI
 62
     1
 48
0.033173
100
AcDbLine
 10
38.02072422567164
 20
27.67064831339979
 30
0.0
 11
38.31559844759897
 21
27.67064831339979
 31
0.0
  0
LINE
  5
9F
330
2
100
AcDbEntity
  8
GAIKEI
 62
     1
 48
0.4288680000000001
100
AcDbLine
 10
34.20856311837269
 20
27.67064831339979
 30
0.0
 11
38.02072422567164
 21
27.67064831339979
 31
0.0
  0
LINE
  5
A0
330
2
100
AcDbEntity
  8
GAIKEI
 62
     1
 48
0.033173
100
AcDbLine
 10
33.91369556311202
 20
27.67064831339979
 30
0.0
 11
34.20856311837269
 21
27.67064831339979
 31
0.0
  0
LWPOLYLINE
  5
A1
330
2
100
AcDbEntity
  8
GAIKEI
 62
     7
100
AcDbPolyline
 90
       18
 70
     0
 43
0.0
 10
38.45007244746455
 20
28.04990031302049
 10
38.4518357807961
 20
28.05171786857426
 10
38.45353800301666
 20
28.05341320190592
 10
38.45514533634832
 20
28.05497986857103
 10
38.45666422523573
 20
28.05643120190286
 10
38.45809533634542
 20
28.05778742412377
 10
38.45945155856623
 20
28.05907586856694
 10
38.46073333634274
 20
28.06032386856566
 10
38.46194733634155
 20
28.06155120189777
 10
38.46307978078483
 20
28.06277186856318
 10
38.46413089189491
 20
28.06399275745088
 10
38.46508044744951
 20
28.0651998685608
 10
38.46590089189317
 20
28.0663527574485
 10
38.46658600300361
 20
28.06742431300302
 10
38.46712844744747
 20
28.06838053522426
 10
38.46752178078043
 20
28.06920786855676
 10
38.46776600300245
 20
28.06987231300053
 10
38.46784733633564
 20
28.07034720188898
  0
LINE
  5
A2
330
2
100
AcDbEntity
  8
GAIKEI
 62
     7
 48
0.012395
100
AcDbLine
 10
38.37353444754109
 20
27.97064964643312
 30
0.0
 11
38.45007244746455
 21
28.04990031302049
 31
0.0
  0
LWPOLYLINE
  5
A3
330
2
100
AcDbEntity
  8
GAIKEI
 62
     7
100
AcDbPolyline
 90
       18
 70
     0
 43
0.0
 10
38.46784733633564
 20
28.07029275744458
 10
38.46773889189132
 20
28.06979097966729
 10
38.46748111411375
 20
28.06911275744574
 10
38.46706733633642
 20
28.06827875744659
 10
38.46651822522586
 20
28.06730897966981
 10
38.46582644744882
 20
28.06623742411529
 10
38.46499911411627
 20
28.06508453522753
 10
38.46404955856167
 20
28.06389097967321
 10
38.46299844745164
 20
28.06268386856329
 10
38.46186578078607
 20
28.06146986856453
 10
38.46065866967615
 20
28.06024920189907
 10
38.45938378078859
 20
28.05901497967807
 10
38.45804111412326
 20
28.05773320190161
 10
38.45661689190246
 20
28.05638364634734
 10
38.45510444745946
 20
28.05493920190435
 10
38.45350400301663
 20
28.05337942412814
 10
38.45182222524056
 20
28.05170431301872
 10
38.45007244746455
 20
28.04990031302049
  0
LINE
  5
A4
330
2
100
AcDbEntity
  8
GAIKEI
 62
     7
 48
0.012395
100
AcDbLine
 10
38.37353444754109
 20
27.97064964643312
 30
0.0
 11
38.45007244746455
 21
28.04990031302049
 31
0.0
  0
LINE
  5
A5
330
2
100
AcDbEntity
  8
GAIKEI
 62
     7
 48
0.012395
100
AcDbLine
 10
33.85575289650331
 20
27.97064964643306
 30
0.0
 11
33.76166850535935
 21
28.06806858501381
 31
0.0
  0
LINE
  5
A6
330
2
100
AcDbEntity
  8
GAIKEI
 62
     7
 48
0.000623
100
AcDbLine
 10
38.32682222536556
 20
27.97064964643312
 30
0.0
 11
38.33235600313782
 21
27.97064964643312
 31
0.0
  0
LINE
  5
A7
330
2
100
AcDbEntity
  8
GAIKEI
 62
     7
 48
0.002154
100
AcDbLine
 10
38.35150066978531
 20
27.97064964643312
 30
0.0
 11
38.33235600313782
 21
27.97064964643312
 31
0.0
  0
LINE
  5
A8
330
2
100
AcDbEntity
  8
GAIKEI
 62
     7
 48
0.002479
100
AcDbLine
 10
38.35150066978531
 20
27.97064964643312
 30
0.0
 11
38.37353444754109
 21
27.97064964643312
 31
0.0
  0
LINE
  5
A9
330
2
100
AcDbEntity
  8
GAIKEI
 62
     1
 48
0.007362
100
AcDbLine
 10
33.90234978534556
 20
27.97064964643312
 30
0.0
 11
33.9677862297246
 21
27.97064964643312
 31
0.0
  0
LINE
  5
AA
330
2
100
AcDbEntity
  8
GAIKEI
 62
     1
 48
0.002383
100
AcDbLine
 10
33.98897222970339
 20
27.97064964643312
 30
0.0
 11
33.9677862297246
 21
27.97064964643312
 31
0.0
  0
LINE
  5
AB
330
2
100
AcDbEntity
  8
GAIKEI
 62
     1
 48
0.00306
100
AcDbLine
 10
33.85575289650331
 20
27.97064964643306
 30
0.0
 11
34.01617356300955
 21
27.97064964643312
 31
0.0
  0
LINE
  5
AC
330
2
100
AcDbEntity
  8
GAIKEI
 62
     1
 48
0.012021
100
AcDbLine
 10
34.0161668963429
 20
27.97064964643312
 30
0.0
 11
34.12301911845827
 21
27.97064964643312
 31
0.0
  0
LINE
  5
AD
330
2
100
AcDbEntity
  8
GAIKEI
 62
     1
 48
0.00254
100
AcDbLine
 10
34.14559534065791
 20
27.97064964643312
 30
0.0
 11
34.12301911845827
 21
27.97064964643312
 31
0.0
  0
LINE
  5
AE
330
2
100
AcDbEntity
  8
GAIKEI
 62
     1
 48
0.005418
100
AcDbLine
 10
34.14559534065791
 20
27.97064964643312
 30
0.0
 11
34.19375200727643
 21
27.97064964643312
 31
0.0
  0
LINE
  5
AF
330
2
100
AcDbEntity
  8
GAIKEI
 62
     1
 48
0.016315
100
AcDbLine
 10
34.19375200727643
 20
27.97064964643312
 30
0.0
 11
34.33877156268693
 21
27.97064964643312
 31
0.0
  0
LINE
  5
B0
330
2
100
AcDbEntity
  8
GAIKEI
 62
     1
 48
0.002619
100
AcDbLine
 10
34.3620531182192
 20
27.97064964643312
 30
0.0
 11
34.33877156268693
 21
27.97064964643312
 31
0.0
  0
LINE
  5
B1
330
2
100
AcDbEntity
  8
GAIKEI
 62
     1
 48
0.00731
100
AcDbLine
 10
34.3620531182192
 20
27.97064964643312
 30
0.0
 11
34.42703511815427
 21
27.97064964643312
 31
0.0
  0
LINE
  5
B2
330
2
100
AcDbEntity
  8
GAIKEI
 62
     1
 48
0.020113
100
AcDbLine
 10
34.42969356259601
 20
27.97064964643312
 30
0.0
 11
34.60847222908387
 21
27.97064964643312
 31
0.0
  0
LINE
  5
B3
330
2
100
AcDbEntity
  8
GAIKEI
 62
     1
 48
0.00262
100
AcDbLine
 10
34.63176067350508
 20
27.97064964643312
 30
0.0
 11
34.60847222908387
 21
27.97064964643312
 31
0.0
  0
LINE
  5
B4
330
2
100
AcDbEntity
  8
GAIKEI
 62
     1
 48
0.009342
100
AcDbLine
 10
34.63176067350508
 20
27.97064964643312
 30
0.0
 11
34.71480245119983
 21
27.97064964643312
 31
0.0
  0
LINE
  5
B5
330
2
100
AcDbEntity
  8
GAIKEI
 62
     1
 48
0.000229
100
AcDbLine
 10
34.71683689564225
 20
27.97064964643312
 30
0.0
 11
34.71480245119983
 21
27.97064964643312
 31
0.0
  0
LINE
  5
B6
330
2
100
AcDbEntity
  8
GAIKEI
 62
     1
 48
0.0233
100
AcDbLine
 10
34.71683689564225
 20
27.97064964643312
 30
0.0
 11
34.92394956210177
 21
27.97064964643312
 31
0.0
  0
LINE
  5
B7
330
2
100
AcDbEntity
  8
GAIKEI
 62
     1
 48
0.002539
100
AcDbLine
 10
34.94651889541251
 20
27.97064964643312
 30
0.0
 11
34.92394956210177
 21
27.97064964643312
 31
0.0
  0
LINE
  5
B8
330
2
100
AcDbEntity
  8
GAIKEI
 62
     1
 48
0.010562
100
AcDbLine
 10
34.94651889541251
 20
27.97064964643312
 30
0.0
 11
35.04040467309642
 21
27.97064964643312
 31
0.0
  0
LINE
  5
B9
330
2
100
AcDbEntity
  8
GAIKEI
 62
     1
 48
0.00068
100
AcDbLine
 10
35.04644711753485
 20
27.97064964643312
 30
0.0
 11
35.04040467309642
 21
27.97064964643312
 31
0.0
  0
LINE
  5
BA
330
2
100
AcDbEntity
  8
GAIKEI
 62
     1
 48
0.025779
100
AcDbLine
 10
35.04644711753485
 20
27.97064964643312
 30
0.0
 11
35.27559333952792
 21
27.97064964643312
 31
0.0
  0
LINE
  5
BB
330
2
100
AcDbEntity
  8
GAIKEI
 62
     1
 48
0.002383
100
AcDbLine
 10
35.29677933950677
 20
27.97064964643312
 30
0.0
 11
35.27559333952792
 21
27.97064964643312
 31
0.0
  0
LINE
  5
BC
330
2
100
AcDbEntity
  8
GAIKEI
 62
     1
 48
0.011459
100
AcDbLine
 10
35.29677933950677
 20
27.97064964643312
 30
0.0
 11
35.39864022829374
 21
27.97064964643312
 31
0.0
  0
LINE
  5
BD
330
2
100
AcDbEntity
  8
GAIKEI
 62
     1
 48
0.001112
100
AcDbLine
 10
35.40852111717277
 20
27.97064964643312
 30
0.0
 11
35.39864022829374
 21
27.97064964643312
 31
0.0
  0
LINE
  5
BE
330
2
100
AcDbEntity
  8
GAIKEI
 62
     1
 48
0.027474
100
AcDbLine
 10
35.40852111717277
 20
27.97064964643312
 30
0.0
 11
35.6527364502619
 21
27.97064964643312
 31
0.0
  0
LINE
  5
BF
330
2
100
AcDbEntity
  8
GAIKEI
 62
     1
 48
0.002154
100
AcDbLine
 10
35.67188111690939
 20
27.97064964643312
 30
0.0
 11
35.6527364502619
 21
27.97064964643312
 31
0.0
  0
LINE
  5
C0
330
2
100
AcDbEntity
  8
GAIKEI
 62
     1
 48
0.01201
100
AcDbLine
 10
35.67188111690939
 20
27.97064964643312
 30
0.0
 11
35.77863845013599
 21
27.97064964643312
 31
0.0
  0
LINE
  5
C1
330
2
100
AcDbEntity
  8
GAIKEI
 62
     1
 48
0.001508
100
AcDbLine
 10
35.79204578345593
 20
27.97064964643312
 30
0.0
 11
35.77863845013599
 21
27.97064964643312
 31
0.0
  0
LINE
  5
C2
330
2
100
AcDbEntity
  8
GAIKEI
 62
     1
 48
0.028336
100
AcDbLine
 10
35.79204578345593
 20
27.97064964643312
 30
0.0
 11
36.04391756098181
 21
27.97064964643312
 31
0.0
  0
LINE
  5
C3
330
2
100
AcDbEntity
  8
GAIKEI
 62
     1
 48
0.001859
100
AcDbLine
 10
36.06044444985418
 20
27.97064964643312
 30
0.0
 11
36.04391756098181
 21
27.97064964643312
 31
0.0
  0
LINE
  5
C4
330
2
100
AcDbEntity
  8
GAIKEI
 62
     1
 48
0.012196
100
AcDbLine
 10
36.06044444985418
 20
27.97064964643312
 30
0.0
 11
36.16884956085687
 21
27.97064964643312
 31
0.0
  0
LINE
  5
C5
330
2
100
AcDbEntity
  8
GAIKEI
 62
     1
 48
0.001859
100
AcDbLine
 10
36.18536978306258
 20
27.97064964643312
 30
0.0
 11
36.16884956085687
 21
27.97064964643312
 31
0.0
  0
LINE
  5
C6
330
2
100
AcDbEntity
  8
GAIKEI
 62
     1
 48
0.028336
100
AcDbLine
 10
36.18536978306258
 20
27.97064964643312
 30
0.0
 11
36.43724156058846
 21
27.97064964643312
 31
0.0
  0
LINE
  5
C7
330
2
100
AcDbEntity
  8
GAIKEI
 62
     1
 48
0.001508
100
AcDbLine
 10
36.45064889390841
 20
27.97064964643312
 30
0.0
 11
36.43724156058846
 21
27.97064964643312
 31
0.0
  0
LINE
  5
C8
330
2
100
AcDbEntity
  8
GAIKEI
 62
     1
 48
0.01201
100
AcDbLine
 10
36.45064889390841
 20
27.97064964643312
 30
0.0
 11
36.55740622713495
 21
27.97064964643312
 31
0.0
  0
LINE
  5
C9
330
2
100
AcDbEntity
  8
GAIKEI
 62
     1
 48
0.002154
100
AcDbLine
 10
36.5765508937825
 20
27.97064964643312
 30
0.0
 11
36.55740622713495
 21
27.97064964643312
 31
0.0
  0
LINE
  5
CA
330
2
100
AcDbEntity
  8
GAIKEI
 62
     1
 48
0.027474
100
AcDbLine
 10
36.5765508937825
 20
27.97064964643312
 30
0.0
 11
36.82076622687163
 21
27.97064964643312
 31
0.0
  0
LINE
  5
CB
330
2
100
AcDbEntity
  8
GAIKEI
 62
     1
 48
0.001112
100
AcDbLine
 10
36.8306471157506
 20
27.97064964643312
 30
0.0
 11
36.82076622687163
 21
27.97064964643312
 31
0.0
  0
LINE
  5
CC
330
2
100
AcDbEntity
  8
GAIKEI
 62
     1
 48
0.01146
100
AcDbLine
 10
36.8306471157506
 20
27.97064964643312
 30
0.0
 11
36.93251467120433
 21
27.97064964643312
 31
0.0
  0
LINE
  5
CD
330
2
100
AcDbEntity
  8
GAIKEI
 62
     1
 48
0.002383
100
AcDbLine
 10
36.95369400451648
 20
27.97064964643312
 30
0.0
 11
36.93251467120433
 21
27.97064964643312
 31
0.0
  0
LINE
  5
CE
330
2
100
AcDbEntity
  8
GAIKEI
 62
     1
 48
0.025779
100
AcDbLine
 10
36.95369400451648
 20
27.97064964643312
 30
0.0
 11
37.18284022650954
 21
27.97064964643312
 31
0.0
  0
LINE
  5
CF
330
2
100
AcDbEntity
  8
GAIKEI
 62
     1
 48
0.000681
100
AcDbLine
 10
37.18888955983681
 20
27.97064964643312
 30
0.0
 11
37.18284022650954
 21
27.97064964643312
 31
0.0
  0
LINE
  5
D0
330
2
100
AcDbEntity
  8
GAIKEI
 62
     1
 48
0.010561
100
AcDbLine
 10
37.18888955983681
 20
27.97064964643312
 30
0.0
 11
37.28276844863183
 21
27.97064964643312
 31
0.0
  0
LINE
  5
D1
330
2
100
AcDbEntity
  8
GAIKEI
 62
     1
 48
0.00254
100
AcDbLine
 10
37.30534467083152
 20
27.97064964643312
 30
0.0
 11
37.28276844863183
 21
27.97064964643312
 31
0.0
  0
LINE
  5
D2
330
2
100
AcDbEntity
  8
GAIKEI
 62
     1
 48
0.023299
100
AcDbLine
 10
37.30534467083152
 20
27.97064964643312
 30
0.0
 11
37.51245044840215
 21
27.97064964643312
 31
0.0
  0
LINE
  5
D3
330
2
100
AcDbEntity
  8
GAIKEI
 62
     1
 48
0.00023
100
AcDbLine
 10
37.51449178173345
 20
27.97064964643312
 30
0.0
 11
37.51245044840215
 21
27.97064964643312
 31
0.0
  0
LINE
  5
D4
330
2
100
AcDbEntity
  8
GAIKEI
 62
     1
 48
0.009342
100
AcDbLine
 10
37.51449178173345
 20
27.97064964643312
 30
0.0
 11
37.5975335594282
 21
27.97064964643312
 31
0.0
  0
LINE
  5
D5
330
2
100
AcDbEntity
  8
GAIKEI
 62
     1
 48
0.002619
100
AcDbLine
 10
37.62081489273823
 20
27.97064964643312
 30
0.0
 11
37.5975335594282
 21
27.97064964643312
 31
0.0
  0
LINE
  5
D6
330
2
100
AcDbEntity
  8
GAIKEI
 62
     1
 48
0.020113
100
AcDbLine
 10
37.62081489273823
 20
27.97064964643312
 30
0.0
 11
37.79959378144838
 21
27.97064964643312
 31
0.0
  0
LINE
  5
D7
330
2
100
AcDbEntity
  8
GAIKEI
 62
     1
 48
0.007627
100
AcDbLine
 10
37.79943778144849
 20
27.97064964643312
 30
0.0
 11
37.86723422582515
 21
27.97064964643312
 31
0.0
  0
LINE
  5
D8
330
2
100
AcDbEntity
  8
GAIKEI
 62
     1
 48
0.00262
100
AcDbLine
 10
37.89052267024636
 20
27.97064964643312
 30
0.0
 11
37.86723422582515
 21
27.97064964643312
 31
0.0
  0
LINE
  5
D9
330
2
100
AcDbEntity
  8
GAIKEI
 62
     1
 48
0.016315
100
AcDbLine
 10
37.89052267024636
 20
27.97064964643312
 30
0.0
 11
38.03554200343461
 21
27.97064964643312
 31
0.0
  0
LINE
  5
DA
330
2
100
AcDbEntity
  8
GAIKEI
 62
     1
 48
0.005428
100
AcDbLine
 10
38.03544711454583
 20
27.97064964643312
 30
0.0
 11
38.08369200338649
 21
27.97064964643312
 31
0.0
  0
LINE
  5
DB
330
2
100
AcDbEntity
  8
GAIKEI
 62
     1
 48
0.00254
100
AcDbLine
 10
38.10626822558612
 20
27.97064964643312
 30
0.0
 11
38.08369200338649
 21
27.97064964643312
 31
0.0
  0
LINE
  5
DC
330
2
100
AcDbEntity
  8
GAIKEI
 62
     1
 48
0.012021
100
AcDbLine
 10
38.10626822558612
 20
27.97064964643312
 30
0.0
 11
38.2131204477015
 21
27.97064964643312
 31
0.0
  0
LINE
  5
DD
330
2
100
AcDbEntity
  8
GAIKEI
 62
     1
 48
0.003065
100
AcDbLine
 10
38.21307311436817
 20
27.97064964643312
 30
0.0
 11
38.240315114341
 21
27.97064964643312
 31
0.0
  0
LINE
  5
DE
330
2
100
AcDbEntity
  8
GAIKEI
 62
     1
 48
0.007362
100
AcDbLine
 10
38.2615011143198
 20
27.97064964643312
 30
0.0
 11
38.32693755869878
 21
27.97064964643312
 31
0.0
  0
LINE
  5
DF
330
2
100
AcDbEntity
  8
GAIKEI
 62
     1
 48
0.002383
100
AcDbLine
 10
38.2615011143198
 20
27.97064964643312
 30
0.0
 11
38.240315114341
 21
27.97064964643312
 31
0.0
  0
LINE
  5
E0
330
2
100
AcDbEntity
  8
GAIKEI
 62
     7
 48
0.072206
100
AcDbLine
 10
34.53282934027067
 20
26.92891520303039
 30
0.0
 11
34.52162600694851
 21
27.57065231349981
 31
0.0
  0
LWPOLYLINE
  5
E1
330
2
100
AcDbEntity
  8
GAIKEI
 62
     7
100
AcDbPolyline
 90
       63
 70
     0
 43
0.0
 10
34.54481934025864
 20
26.8831183141873
 10
34.54549089581354
 20
26.88189764752184
 10
34.54615534025732
 20
26.88064986974536
 10
34.5470573402564
 20
26.87897475863588
 10
34.54821711803305
 20
26.87678431419363
 10
34.54961400692054
 20
26.87414631419625
 10
34.55124178469669
 20
26.87104698086609
 10
34.55309978469484
 20
26.86749342531403
 10
34.55520889580384
 20
26.86344475865138
 10
34.55752822913485
 20
26.85896209198921
 10
34.5600577846879
 20
26.85404520310527
 10
34.56279778468513
 20
26.84869453644393
 10
34.56574089579329
 20
26.84290298089417
 10
34.56888089579019
 20
26.83669098090041
 10
34.57221734023131
 20
26.83005853646256
 10
34.57573045133887
 20
26.82301920313631
 10
34.57942645133517
 20
26.81557275869926
 10
34.58328511799801
 20
26.807719647596
 10
34.5873135624384
 20
26.79947298093765
 10
34.59149089576755
 20
26.79083320316846
 10
34.59582445131878
 20
26.78180675873307
 10
34.60028000686987
 20
26.77241409207579
 10
34.60485778464306
 20
26.76266209208552
 10
34.60954378463839
 20
26.75256409209561
 10
34.61432489574475
 20
26.74213386988384
 10
34.61918067351763
 20
26.73139186989459
 10
34.62409734017939
 20
26.72033764768338
 10
34.62906822906337
 20
26.70899186991699
 10
34.6340731179472
 20
26.69736120326195
 10
34.63910511794217
 20
26.68545253660722
 10
34.64415756238157
 20
26.67327275884162
 10
34.64921667348761
 20
26.66082164774292
 10
34.65427578459367
 20
26.64810586997788
 10
34.65932822903307
 20
26.63511209221309
 10
34.66436022902803
 20
26.62186075889298
 10
34.66937178457857
 20
26.60834498112871
 10
34.67435645124027
 20
26.5945645366981
 10
34.6792935623464
 20
26.58053320337876
 10
34.68417622900825
 20
26.56624409228192
 10
34.68900489567005
 20
26.55171098118541
 10
34.69375889566527
 20
26.53693364786682
 10
34.69843134010506
 20
26.52192587010404
 10
34.70301578454491
 20
26.50668075900819
 10
34.70749845120713
 20
26.49122520346811
 10
34.71186578453603
 20
26.47554587015043
 10
34.71610445119848
 20
26.45966320349965
 10
34.72021422897217
 20
26.44358387018241
 10
34.72417467341268
 20
26.42730787019866
 10
34.7279791178533
 20
26.4108623146596
 10
34.73161422896078
 20
26.39424031467621
 10
34.73506600673511
 20
26.37746253691517
 10
34.73832800673188
 20
26.36053542582101
 10
34.74137978450654
 20
26.34347942583804
 10
34.74422134005931
 20
26.32629475918856
 10
34.74683222894555
 20
26.30900142587251
 10
34.74919911783207
 20
26.29161987033439
 10
34.75131489560772
 20
26.27415031479626
 10
34.75316645116141
 20
26.25661964814714
 10
34.75473978449321
 20
26.23904142594251
 10
34.75602822893637
 20
26.22142942596008
 10
34.75701822893535
 20
26.20381075931101
 10
34.75768978449025
 20
26.18619853710646
 10
34.75804911782325
 20
26.16861364823518
  0
LWPOLYLINE
  5
E2
330
2
100
AcDbEntity
  8
GAIKEI
 62
     7
100
AcDbPolyline
 90
       14
 70
     0
 43
0.0
 10
34.55748089580158
 20
26.85907053643359
 10
34.55512089580395
 20
26.86362786976236
 10
34.55297778469498
 20
26.86773075864716
 10
34.55109934025245
 20
26.87131831419907
 10
34.54946489580959
 20
26.87441075864041
 10
34.54806778469987
 20
26.87704875863784
 10
34.54691489581211
 20
26.87921209196901
 10
34.545985784702
 20
26.88094142530059
 10
34.54532134025817
 20
26.88218253641043
 10
34.54476511803648
 20
26.88322009196497
 10
34.54197800692822
 20
26.88881498084828
 10
34.53706111804422
 20
26.90176120305756
 10
34.53394156249181
 20
26.91551453637714
 10
34.53280222915964
 20
26.92891520303039
  0
LINE
  5
E3
330
2
100
AcDbEntity
  8
GAIKEI
 62
     7
 48
0.16901
100
AcDbLine
 10
34.78877689557027
 20
24.66661987195937
 30
0.0
 11
34.75804911782319
 21
26.16861364823518
 31
0.0
  0
ARC
  5
E4
330
2
100
AcDbEntity
  8
GAIKEI
 62
     7
100
AcDbCircle
 10
41.73094266640589
 20
32.9033616415004
 30
0.0
 40
10.77264287811624
100
AcDbArc
 50
229.8747989999993
 51
230.6698030000006
  0
LINE
  5
E5
330
2
100
AcDbEntity
  8
GAIKEI
 62
     7
 48
0.275233
100
AcDbLine
 10
34.91577067322106
 20
24.57065231649977
 30
0.0
 11
37.55529453686055
 21
24.57065231649977
 31
0.0
  0
LWPOLYLINE
  5
E6
330
2
100
AcDbEntity
  8
GAIKEI
 62
     7
100
AcDbPolyline
 90
       12
 70
     0
 43
0.0
 10
34.91577067322106
 20
24.57065231649977
 10
34.91389911766737
 20
24.5706116498331
 10
34.91221045100247
 20
24.57050987205543
 10
34.91069133989276
 20
24.57036742761119
 10
34.90934178433861
 20
24.57020476094465
 10
34.90813467322869
 20
24.57004876094482
 10
34.90707667322977
 20
24.56992676094496
 10
34.9061475621196
 20
24.5698656498339
 10
34.90533378434259
 20
24.56987920538944
 10
34.90460822878777
 20
24.57000120538931
 10
34.903963784344
 20
24.57025209427792
 10
34.90336022878898
 20
24.57065231649977
  0
ARC
  5
E7
330
2
100
AcDbEntity
  8
GAIKEI
 62
     1
100
AcDbCircle
 10
-14.93714470262574
 20
61.90892272360594
 30
0.0
 40
19.97777509113334
100
AcDbArc
 50
268.4746829999996
 51
271.5253179999978
  0
ARC
  5
E8
330
2
100
AcDbEntity
  8
GAIKEI
 62
     1
100
AcDbCircle
 10
-14.40642381426755
 20
41.97820429909222
 30
0.0
 40
0.03999999996
100
AcDbArc
 50
271.5214119999976
 51
0.0
  0
ARC
  5
E9
330
2
100
AcDbEntity
  8
GAIKEI
 62
     1
100
AcDbCircle
 10
-15.46786581320612
 20
41.97820429909222
 30
0.0
 40
0.03999999996
100
AcDbArc
 50
179.9999910000004
 51
268.4785900000003
  0
LINE
  5
EA
330
2
100
AcDbEntity
  8
GAIKEI
 62
     1
 48
0.002463
100
AcDbLine
 10
-14.36642536986312
 20
41.97820429909222
 30
0.0
 11
-14.36642536986312
 21
42.00009563240366
 31
0.0
  0
LINE
  5
EB
330
2
100
AcDbEntity
  8
GAIKEI
 62
     1
 48
0.002463
100
AcDbLine
 10
-15.50786425761055
 20
41.97820429909222
 30
0.0
 11
-15.50786425761055
 21
42.00009563240366
 31
0.0
  0
ARC
  5
EC
330
2
100
AcDbEntity
  8
GAIKEI
 62
     7
100
AcDbCircle
 10
-24.94765980372631
 20
43.85463518610464
 30
0.0
 40
0.5999999994000001
100
AcDbArc
 50
188.0000000000009
 51
254.171775
  0
ARC
  5
ED
330
2
100
AcDbEntity
  8
GAIKEI
 62
     7
100
AcDbCircle
 10
-4.926633157080686
 20
43.85463518610464
 30
0.0
 40
0.5999999994000001
100
AcDbArc
 50
285.8282269999987
 51
352.0000009999993
  0
LINE
  5
EE
330
2
100
AcDbEntity
  8
GAIKEI
 62
     7
 48
0.306617
100
AcDbLine
 10
-25.54182002535436
 20
43.77113251952152
 30
0.0
 11
-25.92113313608621
 21
46.47009340571145
 31
0.0
  0
LINE
  5
EF
330
2
100
AcDbEntity
  8
GAIKEI
 62
     7
100
AcDbLine
 10
-18.41579603248044
 20
41.3791782996912
 30
0.0
 11
-25.11131202578491
 21
43.2773851866819
 31
0.0
  0
LINE
  5
F0
330
2
100
AcDbEntity
  8
GAIKEI
 62
     7
100
AcDbLine
 10
-11.45849359499328
 20
41.3791782996912
 30
0.0
 11
-4.762977601688817
 21
43.2773851866819
 31
0.0
  0
ARC
  5
F1
330
2
100
AcDbEntity
  8
GAIKEI
 62
     7
100
AcDbCircle
 10
-4.052182491288476
 20
46.48400940569752
 30
0.0
 40
0.0999999999
100
AcDbArc
 50
352.0000009999993
 51
89.43691499999824
  0
ARC
  5
F2
330
2
100
AcDbEntity
  8
GAIKEI
 62
     7
100
AcDbCircle
 10
-25.8221071361852
 20
46.48400940569752
 30
0.0
 40
0.0999999999
100
AcDbArc
 50
90.56308999999947
 51
188.0000000000009
  0
LINE
  5
F3
330
2
100
AcDbEntity
  8
GAIKEI
 62
     7
 48
0.306617
100
AcDbLine
 10
-4.332469602119317
 20
43.77113251952152
 30
0.0
 11
-3.953156269165276
 21
46.47009340571145
 31
0.0
  0
LINE
  5
F4
330
2
100
AcDbEntity
  8
GAIKEI
 62
     7
 48
0.01679
100
AcDbLine
 10
-17.18714470037571
 20
32.78401075273086
 30
0.0
 11
-17.29267447804796
 21
32.88954053040311
 31
0.0
  0
ARC
  5
F5
330
2
100
AcDbEntity
  8
GAIKEI
 62
     7
100
AcDbCircle
 10
-18.68854869887434
 20
40.41709452287557
 30
0.0
 40
0.9999999989999999
100
AcDbArc
 50
3.000000000000716
 51
74.17177699999871
  0
LINE
  5
F6
330
2
100
AcDbEntity
  8
GAIKEI
 62
     7
 48
0.01679
100
AcDbLine
 10
-12.68714470487578
 20
32.78401075273086
 30
0.0
 11
-12.58161492720347
 21
32.88954053040311
 31
0.0
  0
ARC
  5
F7
330
2
100
AcDbEntity
  8
GAIKEI
 62
     7
100
AcDbCircle
 10
-11.18574092859933
 20
40.41709452287557
 30
0.0
 40
0.9999999989999999
100
AcDbArc
 50
105.8282209999994
 51
176.9999939999998
  0
LINE
  5
F8
330
2
100
AcDbEntity
  8
GAIKEI
 62
     7
100
AcDbLine
 10
-17.29267447804796
 20
32.88954053040311
 30
0.0
 11
-17.68991847765073
 21
40.46943563393432
 31
0.0
  0
LINE
  5
F9
330
2
100
AcDbEntity
  8
GAIKEI
 62
     7
100
AcDbLine
 10
-12.58161492720347
 20
32.88954053040311
 30
0.0
 11
-12.18437114982293
 21
40.46943563393432
 31
0.0
  0
LINE
  5
FA
330
2
100
AcDbEntity
  8
GAIKEI
 62
     1
 48
0.016128
100
AcDbLine
 10
-13.0371475934146
 20
32.57065230849975
 30
0.0
 11
-13.0371475934146
 21
32.71401030835642
 31
0.0
  0
LINE
  5
FB
330
2
100
AcDbEntity
  8
GAIKEI
 62
     1
 48
0.016128
100
AcDbLine
 10
-16.83714203405907
 20
32.57065230849975
 30
0.0
 11
-16.83714203405907
 21
32.71401030835642
 31
0.0
  0
ARC
  5
FC
330
2
100
AcDbEntity
  8
GAIKEI
 62
     7
100
AcDbCircle
 10
-12.72714314928021
 20
32.75400875276086
 30
0.0
 40
0.03999999996
100
AcDbArc
 50
270.0000009999981
 51
0.0
  0
ARC
  5
FD
330
2
100
AcDbEntity
  8
GAIKEI
 62
     7
100
AcDbCircle
 10
-17.14714647819352
 20
32.75400875276086
 30
0.0
 40
0.03999999996
100
AcDbArc
 50
180.0000050000005
 51
270.0000009999981
  0
LINE
  5
FE
330
2
100
AcDbEntity
  8
GAIKEI
 62
     7
 48
0.4972500000000001
100
AcDbLine
 10
-17.14714647819352
 20
32.71401030835642
 30
0.0
 11
-12.72714314928021
 21
32.71401030835642
 31
0.0
  0
LINE
  5
FF
330
2
100
AcDbEntity
  8
GAIKEI
 62
     7
 48
0.003375
100
AcDbLine
 10
-17.18714470037571
 20
32.78401075273086
 30
0.0
 11
-17.18714470037571
 21
32.75400875276086
 31
0.0
  0
LINE
  5
100
330
2
100
AcDbEntity
  8
GAIKEI
 62
     7
 48
0.003375
100
AcDbLine
 10
-12.68714470487578
 20
32.78401075273086
 30
0.0
 11
-12.68714470487578
 21
32.75400875276086
 31
0.0
  0
ARC
  5
101
330
2
100
AcDbEntity
  8
GAIKEI
 62
     1
100
AcDbCircle
 10
-9.150862708411978
 20
46.48400940569752
 30
0.0
 40
0.0999999999
100
AcDbArc
 50
90.00000299999769
 51
90.80295900000166
  0
ARC
  5
102
330
2
100
AcDbEntity
  8
GAIKEI
 62
     1
100
AcDbCircle
 10
-20.7234269190617
 20
46.48400940569752
 30
0.0
 40
0.0999999999
100
AcDbArc
 50
89.19867100000088
 51
90.00000299999769
  0
LINE
  5
103
330
2
100
AcDbEntity
  8
GAIKEI
 62
     1
 48
0.31539
100
AcDbLine
 10
-13.53541137069413
 20
46.5840122944864
 30
0.0
 11
-16.33887825677959
 21
46.5840122944864
 31
0.0
  0
LINE
  5
104
330
2
100
AcDbEntity
  8
GAIKEI
 62
     1
100
AcDbLine
 10
-25.54182002535436
 20
43.77113251952152
 30
0.0
 11
-9.852990929932104
 21
43.77113251952152
 31
0.0
  0
LWPOLYLINE
  5
105
330
2
100
AcDbEntity
  8
GAIKEI
 62
     7
100
AcDbPolyline
 90
        3
 70
     0
 43
0.0
 10
-25.64339958080836
 20
46.58400540559751
 10
-25.64359958080814
 20
46.58400540559751
 10
-25.64363358080811
 20
46.58400540559751
  0
LINE
  5
106
330
2
100
AcDbEntity
  8
GAIKEI
 62
     7
 48
0.000027
100
AcDbLine
 10
-4.230893379998633
 20
46.58400540559756
 30
0.0
 11
-4.230656046665558
 21
46.58400540559756
 31
0.0
  0
LWPOLYLINE
  5
107
330
2
100
AcDbEntity
  8
GAIKEI
 62
     1
100
AcDbPolyline
 90
       52
 70
     0
 43
0.0
 10
-16.20125070136163
 20
42.78830363161546
 10
-16.19636114581095
 20
42.75501918720431
 10
-16.18003759027169
 20
42.7210565205716
 10
-16.15273447918793
 20
42.68753452060508
 10
-16.11596425700247
 20
42.65546407619274
 10
-16.0718493681577
 20
42.62559740955595
 10
-16.02255336820701
 20
42.59831474291655
 10
-15.96981225714865
 20
42.57365652071899
 10
-15.91502981275897
 20
42.55154829851886
 10
-15.85912825725927
 20
42.53177296520533
 10
-15.80259625731583
 20
42.51407274300078
 10
-15.74576559070601
 20
42.49822385412772
 10
-15.68887403520733
 20
42.4840434096975
 10
-15.63205714637524
 20
42.47136852082127
 10
-15.57538936865416
 20
42.46005652083255
 10
-15.51891159093287
 20
42.44999940973156
 10
-15.46265070210023
 20
42.44110185418486
 10
-15.40662714660072
 20
42.43328252085933
 10
-15.35083425776759
 20
42.42648052086616
 10
-15.29525848004539
 20
42.42063474309424
 10
-15.23987248010076
 20
42.41569763198805
 10
-15.18463559126712
 20
42.41163540976987
 10
-15.1295140357667
 20
42.40842074310643
 10
-15.07448736915506
 20
42.40602696533108
 10
-15.01951514698783
 20
42.40444007644379
 10
-14.96459714704275
 20
42.40364652088902
 10
-14.90969936931987
 20
42.40364652088902
 10
-14.85480159159698
 20
42.40444007644379
 10
-14.79986314720747
 20
42.40602007644219
 10
-14.74485692504027
 20
42.40841407643978
 10
-14.68973536953979
 20
42.41162852088104
 10
-14.63447825848396
 20
42.41569074309916
 10
-14.57904470298388
 20
42.42062785420535
 10
-14.523428258595
 20
42.42648052086616
 10
-14.4676080364286
 20
42.43328918752604
 10
-14.41159136981798
 20
42.44110852085151
 10
-14.35535759209642
 20
42.44999940973156
 10
-14.29890692548622
 20
42.46005652083255
 10
-14.24225270332061
 20
42.47136163193238
 10
-14.18542914782188
 20
42.48403652080861
 10
-14.12852403676765
 20
42.49822385412772
 10
-14.07166625904676
 20
42.51407940966743
 10
-14.01507981465892
 20
42.53180007631641
 10
-13.95914448138148
 20
42.55158896518548
 10
-13.90445714810289
 20
42.57367007627453
 10
-13.85185825926658
 20
42.5982536318055
 10
-13.80256225931589
 20
42.62552296511154
 10
-13.75839314824895
 20
42.65540985397052
 10
-13.72156181495245
 20
42.68752785393843
 10
-13.69423848164638
 20
42.72108363168269
 10
-13.67792848166277
 20
42.75501918720431
 10
-13.6730389261121
 20
42.78830363161546
  0
LWPOLYLINE
  5
108
330
2
100
AcDbEntity
  8
GAIKEI
 62
     1
100
AcDbPolyline
 90
       52
 70
     0
 43
0.0
 10
-13.6730389261121
 20
42.78830363161546
 10
-13.67809114832926
 20
42.81756652047505
 10
-13.69131559276047
 20
42.8452494093363
 10
-13.71168781496232
 20
42.8712231870881
 10
-13.73821759271357
 20
42.89545429817496
 10
-13.77000337045956
 20
42.91796940926355
 10
-13.80631248153435
 20
42.93887052035375
 10
-13.84657537038299
 20
42.95826629811216
 10
-13.89029025922815
 20
42.97623096476087
 10
-13.93703625918141
 20
42.99285274252201
 10
-13.9864544813542
 20
43.00821340917332
 10
-14.03825981463575
 20
43.02237340915917
 10
-14.09217403680407
 20
43.03538740914615
 10
-14.14797381452604
 20
43.04730296468977
 10
-14.20545537002408
 20
43.05817407579001
 10
-14.2644220366318
 20
43.06802096466907
 10
-14.32470448101594
 20
43.07689140910463
 10
-14.38616003651009
 20
43.08479896465229
 10
-14.44863292533648
 20
43.09178407575643
 10
-14.51200092527313
 20
43.09785363130589
 10
-14.5761353696534
 20
43.10302807574515
 10
-14.6409073695886
 20
43.10732074240758
 10
-14.70620803618999
 20
43.11073874240412
 10
-14.77189559167988
 20
43.11330229795709
 10
-14.83786781383611
 20
43.11500452017765
 10
-14.90400270265888
 20
43.11585229795457
 10
-14.97018514703711
 20
43.11585229795457
 10
-15.03631336919324
 20
43.11500452017765
 10
-15.10227870246058
 20
43.11330229795709
 10
-15.16795936906158
 20
43.11074563129301
 10
-15.23324670232966
 20
43.10732763129641
 10
-15.29802536893152
 20
43.1030347424118
 10
-15.36218003553404
 20
43.09786029797254
 10
-15.42557514658176
 20
43.09179074242308
 10
-15.48807514651923
 20
43.08481252020783
 10
-15.54955114645776
 20
43.07689829799352
 10
-15.60985403528639
 20
43.06802785355796
 10
-15.66883425744959
 20
43.05817407579001
 10
-15.72631581294769
 20
43.04730296468977
 10
-15.78211559066966
 20
43.03538740914615
 10
-15.83603670172681
 20
43.02237340915917
 10
-15.88783514611953
 20
43.00821340917332
 10
-15.93725336829232
 20
42.99285274252201
 10
-15.98399936824558
 20
42.97623096476087
 10
-16.02771425709073
 20
42.95826629811216
 10
-16.06797714593938
 20
42.93887052035375
 10
-16.10428625701411
 20
42.91796940926355
 10
-16.13607203476016
 20
42.89545429817496
 10
-16.16260181251141
 20
42.8712231870881
 10
-16.18297403471325
 20
42.8452494093363
 10
-16.19619825692223
 20
42.81756652047505
 10
-16.20125070136163
 20
42.78830363161546
  0
ARC
  5
109
330
2
100
AcDbEntity
  8
GAIKEI
 62
     1
100
AcDbCircle
 10
-14.37359359207818
 20
41.99820363240553
 30
0.0
 40
0.00749555554806
100
AcDbArc
 50
14.8041990000004
 51
76.23786900000196
  0
ARC
  5
10A
330
2
100
AcDbEntity
  8
GAIKEI
 62
     1
100
AcDbCircle
 10
-3.959843158047476
 20
64.55512894318196
 30
0.0
 40
24.83730864182936
100
AcDbArc
 50
243.8595560000015
 51
245.2155109999983
  0
LWPOLYLINE
  5
10B
330
2
100
AcDbEntity
  8
GAIKEI
 62
     1
100
AcDbPolyline
 90
       36
 70
     0
 43
0.0
 10
-14.97178559148
 20
42.2582336321455
 10
-14.97011048037052
 20
42.25898652103365
 10
-14.96834048037232
 20
42.2596578543663
 10
-14.96649603592971
 20
42.26026140992127
 10
-14.9646038137094
 20
42.26079718769852
 10
-14.96267114704466
 20
42.26127852103139
 10
-14.96071114704659
 20
42.26171274325316
 10
-14.95873092482634
 20
42.26209252103052
 10
-14.95672359149506
 20
42.26243140991909
 10
-14.95470248038595
 20
42.26272985436327
 10
-14.95266803594353
 20
42.26299429880742
 10
-14.95062003594557
 20
42.2632182988072
 10
-14.94856514705879
 20
42.26340807658476
 10
-14.94650359150529
 20
42.26356407658466
 10
-14.94442825817401
 20
42.26368607658452
 10
-14.94235314706498
 20
42.2637809654733
 10
-14.94027114706705
 20
42.26384207658435
 10
-14.93818248040247
 20
42.26387607658432
 10
-14.93609359151571
 20
42.26387607658432
 10
-14.93401159151779
 20
42.26384207658435
 10
-14.93192959151986
 20
42.2637809654733
 10
-14.92984781374412
 20
42.26368607658452
 10
-14.9277724804129
 20
42.26356407658466
 10
-14.92570403597051
 20
42.26340807658476
 10
-14.92364248041701
 20
42.2632182988072
 10
-14.92158759153017
 20
42.26298763214077
 10
-14.91955314708775
 20
42.26272985436327
 10
-14.91752536931204
 20
42.26243140991909
 10
-14.91552470264736
 20
42.26208563214169
 10
-14.9135444804271
 20
42.26170585436427
 10
-14.91159136931799
 20
42.26127185436467
 10
-14.90966536931989
 20
42.26079718769852
 10
-14.90778003598848
 20
42.26025452103238
 10
-14.90594914710141
 20
42.2596578543663
 10
-14.90417914710315
 20
42.25898652103365
 10
-14.90250403599373
 20
42.2582336321455
  0
ARC
  5
10C
330
2
100
AcDbEntity
  8
GAIKEI
 62
     1
100
AcDbCircle
 10
-25.9144464694262
 20
64.55512894318196
 30
0.0
 40
24.83730864182936
100
AcDbArc
 50
294.784491
 51
296.1404459999993
  0
ARC
  5
10D
330
2
100
AcDbEntity
  8
GAIKEI
 62
     1
100
AcDbCircle
 10
-15.50069603539555
 20
41.99820363240553
 30
0.0
 40
0.007495777770282
100
AcDbArc
 50
103.7629840000022
 51
165.1931110000004
  0
LINE
  5
10E
330
2
100
AcDbEntity
  8
GAIKEI
 62
     1
100
AcDbLine
 10
-25.11131202578491
 20
43.2773851866819
 30
0.0
 11
-10.05939137417016
 21
43.2773851866819
 31
0.0
  0
LINE
  5
10F
330
2
100
AcDbEntity
  8
GAIKEI
 62
     1
100
AcDbLine
 10
-4.762977601688817
 20
43.2773851866819
 30
0.0
 11
-10.05939137417016
 21
43.2773851866819
 31
0.0
  0
LINE
  5
110
330
2
100
AcDbEntity
  8
GAIKEI
 62
     7
 48
0.000622
100
AcDbLine
 10
-4.236183157771165
 20
46.5840122944864
 30
0.0
 11
-4.230656046665558
 21
46.58400540559756
 31
0.0
  0
LINE
  5
111
330
2
100
AcDbEntity
  8
GAIKEI
 62
     7
 48
0.020133
100
AcDbLine
 10
-4.230656046665558
 20
46.58400540559756
 30
0.0
 11
-4.051694269066729
 21
46.58400540559756
 31
0.0
  0
LINE
  5
112
330
2
100
AcDbEntity
  8
GAIKEI
 62
     7
 48
0.000622
100
AcDbLine
 10
-4.236183157771165
 20
46.5840122944864
 30
0.0
 11
-4.230656046665558
 21
46.58400540559756
 31
0.0
  0
LINE
  5
113
330
2
100
AcDbEntity
  8
GAIKEI
 62
     7
 48
0.000622
100
AcDbLine
 10
-25.64363358080811
 20
46.58400540559756
 30
0.0
 11
-25.63810646970251
 21
46.5840122944864
 31
0.0
  0
LINE
  5
114
330
2
100
AcDbEntity
  8
GAIKEI
 62
     7
 48
0.020133
100
AcDbLine
 10
-25.82259202507362
 20
46.58400540559756
 30
0.0
 11
-25.64363358080811
 21
46.58400540559756
 31
0.0
  0
LINE
  5
115
330
2
100
AcDbEntity
  8
GAIKEI
 62
     7
 48
0.000622
100
AcDbLine
 10
-25.64363358080811
 20
46.58400540559756
 30
0.0
 11
-25.63810646970251
 21
46.5840122944864
 31
0.0
  0
LINE
  5
116
330
2
100
AcDbEntity
  8
GAIKEI
 62
     7
100
AcDbLine
 10
-25.63810646970251
 20
46.5840122944864
 30
0.0
 11
-4.236183157771165
 21
46.5840122944864
 31
0.0
  0
LINE
  5
117
330
2
100
AcDbEntity
  8
GAIKEI
 62
     1
100
AcDbLine
 10
-4.332469602119317
 20
43.77113251952152
 30
0.0
 11
-9.852990929932104
 21
43.77113251952152
 31
0.0
  0
LINE
  5
118
330
2
100
AcDbEntity
  8
GAIKEI
 62
     1
100
AcDbLine
 10
-18.41579603248044
 20
41.3791782996912
 30
0.0
 11
-13.26939314873795
 21
41.3791782996912
 31
0.0
  0
LINE
  5
119
330
2
100
AcDbEntity
  8
GAIKEI
 62
     1
 48
0.203726
100
AcDbLine
 10
-11.45849359499328
 20
41.3791782996912
 30
0.0
 11
-13.26939314873795
 21
41.3791782996912
 31
0.0
  0
LINE
  5
11A
330
2
100
AcDbEntity
  8
GAIKEI
 62
     1
 48
0.4581590000000001
100
AcDbLine
 10
-17.68991847765073
 20
40.46943563393432
 30
0.0
 11
-13.61739514838996
 21
40.46943563393432
 31
0.0
  0
LINE
  5
11B
330
2
100
AcDbEntity
  8
GAIKEI
 62
     1
 48
0.137951
100
AcDbLine
 10
-12.58161492720347
 20
32.88954053040311
 30
0.0
 11
-17.29267447804796
 21
32.88954053040311
 31
0.0
  0
LINE
  5
11C
330
2
100
AcDbEntity
  8
GAIKEI
 62
     1
 48
0.161215
100
AcDbLine
 10
-12.18437114982293
 20
40.46943563393432
 30
0.0
 11
-13.61739514838996
 21
40.46943563393432
 31
0.0
  0
LINE
  5
11D
330
2
100
AcDbEntity
  8
GAIKEI
 62
     7
 48
0.01591
100
AcDbLine
 10
-12.53714759391459
 20
32.47064964193311
 30
0.0
 11
-12.6371433715924
 21
32.57065230849975
 31
0.0
  0
LINE
  5
11E
330
2
100
AcDbEntity
  8
GAIKEI
 62
     7
 48
0.070809
100
AcDbLine
 10
-17.3133922903375
 20
30.43065119952866
 30
0.0
 11
-17.33036047801033
 21
32.17066853112198
 31
0.0
  0
LINE
  5
11F
330
2
100
AcDbEntity
  8
GAIKEI
 62
     7
 48
0.070809
100
AcDbLine
 10
-17.32422292246087
 20
31.54128764286247
 30
0.0
 11
-17.33036047801033
 21
32.17067542001087
 31
0.0
  0
LINE
  5
120
330
2
100
AcDbEntity
  8
GAIKEI
 62
     7
 48
0.070809
100
AcDbLine
 10
-12.56089733713605
 20
30.43065119952866
 30
0.0
 11
-12.54392914946339
 21
32.17066853112198
 31
0.0
  0
LINE
  5
121
330
2
100
AcDbEntity
  8
GAIKEI
 62
     7
 48
0.070809
100
AcDbLine
 10
-12.55006670501279
 20
31.54128764286247
 30
0.0
 11
-12.54392914946339
 21
32.17067542001087
 31
0.0
  0
LINE
  5
122
330
2
100
AcDbEntity
  8
GAIKEI
 62
     7
 48
0.03375
100
AcDbLine
 10
-12.53714759391459
 20
32.17064830889979
 30
0.0
 11
-12.53714759391459
 21
32.47064964193311
 31
0.0
  0
LINE
  5
123
330
2
100
AcDbEntity
  8
GAIKEI
 62
     7
 48
0.388125
100
AcDbLine
 10
-17.23714625588127
 20
32.57065230849975
 30
0.0
 11
-12.6371433715924
 21
32.57065230849975
 31
0.0
  0
LINE
  5
124
330
2
100
AcDbEntity
  8
GAIKEI
 62
     7
 48
0.01591
100
AcDbLine
 10
-17.33714203355907
 20
32.47064964193311
 30
0.0
 11
-17.23714625588127
 21
32.57065230849975
 31
0.0
  0
LINE
  5
125
330
2
100
AcDbEntity
  8
GAIKEI
 62
     1
 48
0.018185
100
AcDbLine
 10
-13.89878759255299
 20
32.17064830889979
 30
0.0
 11
-13.73714625938129
 21
32.17064830889979
 31
0.0
  0
LINE
  5
126
330
2
100
AcDbEntity
  8
GAIKEI
 62
     1
 48
0.005431
100
AcDbLine
 10
-13.94705959250473
 20
32.17064830889979
 30
0.0
 11
-13.89878759255299
 21
32.17064830889979
 31
0.0
  0
LINE
  5
127
330
2
100
AcDbEntity
  8
GAIKEI
 62
     1
 48
0.038614
100
AcDbLine
 10
-14.29029425882811
 20
32.17064830889979
 30
0.0
 11
-13.94705959250473
 21
32.17064830889979
 31
0.0
  0
LINE
  5
128
330
2
100
AcDbEntity
  8
GAIKEI
 62
     1
 48
0.005788
100
AcDbLine
 10
-14.34174003655448
 20
32.17064830889979
 30
0.0
 11
-14.29029425882811
 21
32.17064830889979
 31
0.0
  0
LINE
  5
129
330
2
100
AcDbEntity
  8
GAIKEI
 62
     1
 48
0.040468
100
AcDbLine
 10
-14.70145425841701
 20
32.17064830889979
 30
0.0
 11
-14.34174003655448
 21
32.17064830889979
 31
0.0
  0
LINE
  5
12A
330
2
100
AcDbEntity
  8
GAIKEI
 62
     1
 48
0.005969
100
AcDbLine
 10
-14.7545140361417
 20
32.17064830889979
 30
0.0
 11
-14.70145425841701
 21
32.17064830889979
 31
0.0
  0
LINE
  5
12B
330
2
100
AcDbEntity
  8
GAIKEI
 62
     1
 48
0.041092
100
AcDbLine
 10
-15.11977559133197
 20
32.17064830889979
 30
0.0
 11
-14.7545140361417
 21
32.17064830889979
 31
0.0
  0
LINE
  5
12C
330
2
100
AcDbEntity
  8
GAIKEI
 62
     1
 48
0.005969
100
AcDbLine
 10
-15.17283536905671
 20
32.17064830889979
 30
0.0
 11
-15.11977559133197
 21
32.17064830889979
 31
0.0
  0
LINE
  5
12D
330
2
100
AcDbEntity
  8
GAIKEI
 62
     1
 48
0.040468
100
AcDbLine
 10
-15.53254959091919
 20
32.17064830889979
 30
0.0
 11
-15.17283536905671
 21
32.17064830889979
 31
0.0
  0
LINE
  5
12E
330
2
100
AcDbEntity
  8
GAIKEI
 62
     1
 48
0.005788
100
AcDbLine
 10
-15.58399536864556
 20
32.17064830889979
 30
0.0
 11
-15.53254959091919
 21
32.17064830889979
 31
0.0
  0
LINE
  5
12F
330
2
100
AcDbEntity
  8
GAIKEI
 62
     1
 48
0.038614
100
AcDbLine
 10
-15.92723003496894
 20
32.17064830889979
 30
0.0
 11
-15.58399536864556
 21
32.17064830889979
 31
0.0
  0
LINE
  5
130
330
2
100
AcDbEntity
  8
GAIKEI
 62
     1
 48
0.005431
100
AcDbLine
 10
-15.97550203492074
 20
32.17064830889979
 30
0.0
 11
-15.92723003496894
 21
32.17064830889979
 31
0.0
  0
LINE
  5
131
330
2
100
AcDbEntity
  8
GAIKEI
 62
     1
 48
0.035587
100
AcDbLine
 10
-17.33036028080858
 20
32.17064830889979
 30
0.0
 11
-15.97550203492074
 21
32.17064830889979
 31
0.0
  0
LINE
  5
132
330
2
100
AcDbEntity
  8
GAIKEI
 62
     1
 48
0.002532
100
AcDbLine
 10
-12.77339426034507
 20
32.17064830889979
 30
0.0
 11
-12.75088581592308
 21
32.17064830889979
 31
0.0
  0
LINE
  5
133
330
2
100
AcDbEntity
  8
GAIKEI
 62
     1
 48
0.020546
100
AcDbLine
 10
-12.95602492682906
 20
32.17064830889979
 30
0.0
 11
-12.54392934666515
 21
32.17064830889979
 31
0.0
  0
LINE
  5
134
330
2
100
AcDbEntity
  8
GAIKEI
 62
     1
 48
0.003437
100
AcDbLine
 10
-12.98657648235405
 20
32.17064830889979
 30
0.0
 11
-12.95602492682906
 21
32.17064830889979
 31
0.0
  0
LINE
  5
135
330
2
100
AcDbEntity
  8
GAIKEI
 62
     1
 48
0.026414
100
AcDbLine
 10
-13.22136514878593
 20
32.17064830889979
 30
0.0
 11
-12.98657648235405
 21
32.17064830889979
 31
0.0
  0
LINE
  5
136
330
2
100
AcDbEntity
  8
GAIKEI
 62
     1
 48
0.004237
100
AcDbLine
 10
-13.25902381541493
 20
32.17064830889979
 30
0.0
 11
-13.22136514878593
 21
32.17064830889979
 31
0.0
  0
LINE
  5
137
330
2
100
AcDbEntity
  8
GAIKEI
 62
     1
 48
0.031478
100
AcDbLine
 10
-13.53882937069068
 20
32.17064830889979
 30
0.0
 11
-13.25902381541493
 21
32.17064830889979
 31
0.0
  0
LINE
  5
138
330
2
100
AcDbEntity
  8
GAIKEI
 62
     1
 48
0.004909
100
AcDbLine
 10
-13.58246270398041
 20
32.17064830889979
 30
0.0
 11
-13.53882937069068
 21
32.17064830889979
 31
0.0
  0
LINE
  5
139
330
2
100
AcDbEntity
  8
GAIKEI
 62
     1
 48
0.017402
100
AcDbLine
 10
-13.73714625938129
 20
32.17064830889979
 30
0.0
 11
-13.58246270398041
 21
32.17064830889979
 31
0.0
  0
LINE
  5
13A
330
2
100
AcDbEntity
  8
GAIKEI
 62
     7
 48
0.03375
100
AcDbLine
 10
-17.33714203355907
 20
32.17064830889979
 30
0.0
 11
-17.33714203355907
 21
32.47064964193311
 31
0.0
  0
ARC
  5
13B
330
2
100
AcDbEntity
  8
GAIKEI
 62
     1
100
AcDbCircle
 10
-11.93714470562577
 20
11.1306498854953
 30
0.0
 40
0.933628443510816
100
AcDbArc
 50
228.5697228529847
 51
311.4296019999997
  0
ARC
  5
13C
330
2
100
AcDbEntity
  8
GAIKEI
 62
     1
100
AcDbCircle
 10
-17.93714469962572
 20
11.1306498854953
 30
0.0
 40
0.933628443510816
100
AcDbArc
 50
228.5703819999997
 51
311.4296019999997
  0
CIRCLE
  5
13D
330
2
100
AcDbEntity
  8
GAIKEI
 62
     1
100
AcDbCircle
 10
-14.93714470262574
 20
20.43065120952866
 30
0.0
 40
0.55999999944
  0
CIRCLE
  5
13E
330
2
100
AcDbEntity
  8
GAIKEI
 62
     1
100
AcDbCircle
 10
-14.93714470262574
 20
20.43065120952866
 30
0.0
 40
1.424965776352812
  0
CIRCLE
  5
13F
330
2
100
AcDbEntity
  8
GAIKEI
 62
     1
100
AcDbCircle
 10
-14.93714470262574
 20
20.43065120952866
 30
0.0
 40
0.6599999993400001
  0
CIRCLE
  5
140
330
2
100
AcDbEntity
  8
GAIKEI
 62
     1
100
AcDbCircle
 10
-14.93714470262574
 20
20.43065120952866
 30
0.0
 40
1.305103554250452
  0
LWPOLYLINE
  5
141
330
2
100
AcDbEntity
  8
GAIKEI
 62
     1
100
AcDbPolyline
 90
        8
 70
     0
 43
0.0
 10
-13.14442025997403
 20
22.2780023187924
 10
-13.22576648211486
 20
22.28029454101232
 10
-13.26562248207506
 20
22.2756829854614
 10
-13.30079225981762
 20
22.26751098546959
 10
-13.326454259792
 20
22.25756231881286
 10
-13.34360514866375
 20
22.2468405410458
 10
-13.35324870420965
 20
22.23629498550082
 10
-13.3571413708724
 20
22.22367431884675
  0
LWPOLYLINE
  5
142
330
2
100
AcDbEntity
  8
GAIKEI
 62
     1
100
AcDbPolyline
 90
        8
 70
     0
 43
0.0
 10
-16.51714158993462
 20
22.22367431884675
 10
-16.51769758993407
 20
22.22844165217532
 10
-16.52212603437408
 20
22.23792254105473
 10
-16.53155270103133
 20
22.24753898548954
 10
-16.56761758988415
 20
22.26561898547146
 10
-16.63151470093135
 20
22.2788296521249
 10
-16.71358647862706
 20
22.27970454101296
 10
-16.72986936749964
 20
22.2780023187924
  0
LWPOLYLINE
  5
143
330
2
100
AcDbEntity
  8
GAIKEI
 62
     1
100
AcDbPolyline
 90
       18
 70
     0
 43
0.0
 10
-16.72986936749964
 20
16.66941387995655
 10
-16.72786892305726
 20
16.61169499112537
 10
-16.72186025639655
 20
16.55410499118301
 10
-16.69781247864284
 20
16.43953521351977
 10
-16.65758336757199
 20
16.32620654696643
 10
-16.60092247873973
 20
16.21472921374459
 10
-16.52749714547985
 20
16.10589676940896
 10
-16.43704314557027
 20
16.00067899173638
 10
-16.32943136790015
 20
15.90028965850348
 10
-16.20480425691363
 20
15.80610565859763
 10
-16.06364359038809
 20
15.71965276979523
 10
-15.90686447943381
 20
15.64254499209454
 10
-15.73587803516034
 20
15.57638965882739
 10
-15.55258936867699
 20
15.5227194366588
 10
-15.3593655910924
 20
15.48286343669866
 10
-15.15902803573721
 20
15.45790677005692
 10
-14.95470936927484
 20
15.4485818811774
 10
-14.93714470262574
 20
15.44852099228859
  0
LWPOLYLINE
  5
144
330
2
100
AcDbEntity
  8
GAIKEI
 62
     1
100
AcDbPolyline
 90
       30
 70
     0
 43
0.0
 10
-14.93714470262574
 20
15.44852099228859
 10
-14.83454470272835
 20
15.45052165895322
 10
-14.73227692505281
 20
15.45652343672503
 10
-14.63086359182091
 20
15.4664721033817
 10
-14.53044714747688
 20
15.48035410336786
 10
-14.43187536979769
 20
15.49801365890573
 10
-14.3349313698946
 20
15.51946410332874
 10
-14.24074714776657
 20
15.54440032552605
 10
-14.14876714785856
 20
15.57291054771974
 10
-14.0603273701692
 20
15.60450654768812
 10
-13.97460692581046
 20
15.63941854765323
 10
-13.89305025922539
 20
15.67694165872677
 10
-13.814640481526
 20
15.71746210313074
 10
-13.74084892604424
 20
15.76010543642144
 10
-13.67054314833678
 20
15.80538676970951
 10
-13.60513381506882
 20
15.8522821029959
 10
-13.54346137068609
 20
15.90146965850232
 10
-13.48680714852054
 20
15.95176943622977
 10
-13.43405914857328
 20
16.00401543617755
 10
-13.38630248195437
 20
16.05694654723567
 10
-13.34256070422032
 20
16.11147121384783
 10
-13.30368137092586
 20
16.16633499157075
 10
-13.26886403762734
 20
16.22244676929239
 10
-13.23871270432414
 20
16.27865343590286
 10
-13.21264403768356
 20
16.33579588029016
 10
-13.19101025992745
 20
16.39285699134422
 10
-13.17345248216725
 20
16.45056232461985
 10
-13.16013337106943
 20
16.50811165789565
 10
-13.15085603774537
 20
16.56603388005993
 10
-13.14442025997403
 20
16.66941387995655
  0
LINE
  5
145
330
2
100
AcDbEntity
  8
GAIKEI
 62
     1
100
AcDbLine
 10
-13.14442025997403
 20
16.66941387995655
 30
0.0
 11
-13.14442025997403
 21
22.2780023187924
 31
0.0
  0
LWPOLYLINE
  5
146
330
2
100
AcDbEntity
  8
GAIKEI
 62
     1
100
AcDbPolyline
 90
       19
 70
     0
 43
0.0
 10
-13.14442025997403
 20
22.2780023187924
 10
-13.14642070441647
 20
22.35704965204667
 10
-13.15242248218823
 20
22.43592054085673
 10
-13.17637559327539
 20
22.59246898514459
 10
-13.21610270434678
 20
22.74636565165741
 10
-13.27134625984706
 20
22.89628831817413
 10
-13.34170625977674
 20
23.04096876247388
 10
-13.42669425969177
 20
23.17910498455802
 10
-13.525686481815
 20
23.30944209553877
 10
-13.63792337059164
 20
23.43073942875077
 10
-13.7625095926893
 20
23.54180987308416
 10
-13.89841470366446
 20
23.64150742854002
 10
-14.04444470351848
 20
23.72878076178608
 10
-14.19929759225249
 20
23.80268076171217
 10
-14.36152892542361
 20
23.86235965054141
 10
-14.52957248081111
 20
23.9071323171633
 10
-14.70177959174998
 20
23.93646320602284
 10
-14.87642848046425
 20
23.94997898378711
 10
-14.93714470262574
 20
23.95094209489724
  0
LWPOLYLINE
  5
147
330
2
100
AcDbEntity
  8
GAIKEI
 62
     1
100
AcDbPolyline
 90
       34
 70
     0
 43
0.0
 10
-14.93714470262574
 20
23.95094209489724
 10
-15.02481848031584
 20
23.94894142823261
 10
-15.11228181356171
 20
23.9429396504608
 10
-15.1992975912525
 20
23.93295698380411
 10
-15.28568936894385
 20
23.91902053937361
 10
-15.37117247996946
 20
23.90117120605811
 10
-15.45561136877393
 20
23.87945631719095
 10
-15.53869381313529
 20
23.85395031721646
 10
-15.62034514638696
 20
23.82469409502352
 10
-15.70020625741824
 20
23.79183009505636
 10
-15.77826359067353
 20
23.75537853953728
 10
-15.85414381281987
 20
23.71552253957714
 10
-15.92785381274615
 20
23.67228253962037
 10
-15.99903447934162
 20
23.6258892063334
 10
-16.06771936816182
 20
23.57632853971631
 10
-16.13354914587375
 20
23.52389253976872
 10
-16.19659847914408
 20
23.4685540953796
 10
-16.2565147013064
 20
23.41063853988197
 10
-16.31337914569394
 20
23.35009831772032
 10
-16.3668798123071
 20
23.28728631778313
 10
-16.41709136781242
 20
23.22214831784828
 10
-16.46375603443243
 20
23.15506387347091
 10
-16.50693514550039
 20
23.0859720957622
 10
-16.54640447879427
 20
23.01525276249964
 10
-16.58222536764731
 20
22.94285831812755
 10
-16.6142213676153
 20
22.86915498486792
 10
-16.64242647869821
 20
22.79411565160962
 10
-16.66673203422948
 20
22.71807942946344
 10
-16.68715158976465
 20
22.6410596517627
 10
-16.70360403419261
 20
22.56335520739594
 10
-16.71609581195787
 20
22.48501320747431
 10
-16.72459336750495
 20
22.40630498533079
 10
-16.72909625638931
 20
22.32729831874315
 10
-16.72986936749964
 20
22.2780023187924
  0
LINE
  5
148
330
2
100
AcDbEntity
  8
GAIKEI
 62
     1
100
AcDbLine
 10
-16.72986936749964
 20
16.66941387995655
 30
0.0
 11
-16.72986936749964
 21
22.2780023187924
 31
0.0
  0
LWPOLYLINE
  5
149
330
2
100
AcDbEntity
  8
GAIKEI
 62
     1
100
AcDbPolyline
 90
       17
 70
     0
 43
0.0
 10
-16.51714158993462
 20
16.78003676873482
 10
-16.51514092326999
 20
16.72574943545578
 10
-16.50913247883153
 20
16.67159765773215
 10
-16.48507781218893
 20
16.56395210228424
 10
-16.44482847889583
 20
16.45764899127942
 10
-16.38809959006369
 20
16.35336032471707
 10
-16.31457270124832
 20
16.25196743592954
 10
-16.2239895902278
 20
16.15459588047139
 10
-16.11632359033547
 20
16.06256854723006
 10
-15.99185270157102
 20
15.9774312139819
 10
-15.85132270171152
 20
15.90085921405847
 10
-15.69596781297804
 20
15.83456143634697
 10
-15.52761247981306
 20
15.78021321417913
 10
-15.34860981332542
 20
15.7393061031089
 10
-15.16182203573442
 20
15.7130676586907
 10
-14.97051736925903
 20
15.70235943647918
 10
-14.93714470262574
 20
15.70211521425716
  0
LWPOLYLINE
  5
14A
330
2
100
AcDbEntity
  8
GAIKEI
 62
     1
100
AcDbPolyline
 90
       28
 70
     0
 43
0.0
 10
-14.93714470262574
 20
15.70211521425716
 10
-14.84091270272199
 20
15.70411588092184
 10
-14.74503336948453
 20
15.71011076980477
 10
-14.65005581402397
 20
15.72005965868368
 10
-14.55614292522898
 20
15.73392143644759
 10
-14.4641767030987
 20
15.75154010309666
 10
-14.37393959207781
 20
15.77292276974191
 10
-14.28659825883187
 20
15.79772343638382
 10
-14.20159648113906
 20
15.8260436585777
 10
-14.12028425899814
 20
15.85734810299084
 10
-14.04182692574329
 20
15.89187365851188
 10
-13.96768270359519
 20
15.92886765847487
 10
-13.89681403699944
 20
15.9687438806572
 10
-13.83067914817661
 20
16.01054632505986
 10
-13.76815203712806
 20
16.05485099168226
 10
-13.71058225940783
 20
16.10054588052543
 10
-13.65685092612824
 20
16.14836365825539
 10
-13.60812470395478
 20
16.19708321376225
 10
-13.56338581511062
 20
16.24754565815618
 10
-13.52356381515045
 20
16.29848965810527
 10
-13.48779714851957
 20
16.35082410249737
 10
-13.45677092632832
 20
16.40332099133377
 10
-13.42982737079973
 20
16.4568556579469
 10
-13.4073867041555
 20
16.51035632456006
 10
-13.38902870417382
 20
16.56456921339475
 10
-13.37495670418792
 20
16.6186394355629
 10
-13.3649333708646
 20
16.67312365773063
 10
-13.3571480375391
 20
16.78003676873482
  0
LINE
  5
14B
330
2
100
AcDbEntity
  8
GAIKEI
 62
     1
100
AcDbLine
 10
-13.3571480375391
 20
16.78003676873482
 30
0.0
 11
-13.3571480375391
 21
22.22367431884675
 31
0.0
  0
LINE
  5
14C
330
2
100
AcDbEntity
  8
GAIKEI
 62
     1
100
AcDbLine
 10
-16.51714158993462
 20
16.78003676873482
 30
0.0
 11
-16.51714158993462
 21
22.22367431884675
 31
0.0
  0
LINE
  5
14D
330
2
100
AcDbEntity
  8
GAIKEI
 62
     1
 48
0.00045
100
AcDbLine
 10
-14.93914536929037
 20
15.24971588137629
 30
0.0
 11
-14.9351442581833
 21
15.24971588137629
 31
0.0
  0
LINE
  5
14E
330
2
100
AcDbEntity
  8
GAIKEI
 62
     1
 48
0.00045
100
AcDbLine
 10
-14.93914536929037
 20
25.61158653768103
 30
0.0
 11
-14.9351442581833
 21
25.61158653768103
 31
0.0
  0
LINE
  5
14F
330
2
100
AcDbEntity
  8
GAIKEI
 62
     1
100
AcDbLine
 10
-17.23714625588127
 20
17.03354299070355
 30
0.0
 11
-17.23714625588127
 21
23.82775942835377
 31
0.0
  0
LWPOLYLINE
  5
150
330
2
100
AcDbEntity
  8
GAIKEI
 62
     1
100
AcDbPolyline
 90
       32
 70
     0
 43
0.0
 10
-14.93714470262574
 20
23.6081889841289
 10
-15.01944048032124
 20
23.60618142857533
 10
-15.10151248023914
 20
23.60018653969246
 10
-15.18310981349088
 20
23.59020387303576
 10
-15.26403559118773
 20
23.57627431749415
 10
-15.34399847999668
 20
23.55845209528974
 10
-15.42285581325115
 20
23.53676431753365
 10
-15.5002755909515
 20
23.51133298422576
 10
-15.57616936865338
 20
23.48217853981049
 10
-15.65017781302379
 20
23.44945676206538
 10
-15.72226714628505
 20
23.41320876210165
 10
-15.79206425732639
 20
23.37363076214121
 10
-15.85957581281445
 20
23.33074342885078
 10
-15.92442225719401
 20
23.28480431778559
 10
-15.98664425713184
 20
23.23580654005684
 10
-16.04588914596144
 20
23.18406231788634
 10
-16.10221092368289
 20
23.12954454016307
 10
-16.15527759029652
 20
23.07261209577558
 10
-16.20515692357992
 20
23.01321831805723
 10
-16.25155714575578
 20
22.95173542922981
 10
-16.29454625682388
 20
22.88812320707115
 10
-16.33387336789565
 20
22.82276809602541
 10
-16.36959914563772
 20
22.75563631831477
 10
-16.40152736782806
 20
22.68710054060552
 10
-16.42970536779984
 20
22.61714076289769
 10
-16.45399047888668
 20
22.54612298519095
 10
-16.47439670108849
 20
22.47404720748528
 10
-16.49084892329426
 20
22.40125254089139
 10
-16.50334758994842
 20
22.32776631874265
 10
-16.51185181216215
 20
22.25389342992764
 10
-16.5163615899354
 20
22.17970187444627
 10
-16.51714158993462
 20
22.13328120782603
  0
LWPOLYLINE
  5
151
330
2
100
AcDbEntity
  8
GAIKEI
 62
     1
100
AcDbPolyline
 90
       18
 70
     0
 43
0.0
 10
-13.3571480375391
 20
22.13328120782603
 10
-13.35914870420373
 20
22.20751342997403
 10
-13.36515048197554
 20
22.2815627632333
 10
-13.38909648195158
 20
22.42839298530868
 10
-13.42878981524518
 20
22.57238165183139
 10
-13.4839249263012
 20
22.71215898502493
 10
-13.55406114845323
 20
22.84633454044632
 10
-13.63862870392427
 20
22.97355209587465
 10
-13.73690870382597
 20
23.09248254020014
 10
-13.84804714815925
 20
23.20181676231306
 10
-13.97099892581411
 20
23.30031409554789
 10
-14.10458448123609
 20
23.38681431768362
 10
-14.24746114775985
 20
23.46025320649903
 10
-14.39812292538698
 20
23.51970831755074
 10
-14.55495625856349
 20
23.5643860952838
 10
-14.71620425840223
 20
23.59369653969896
 10
-14.88004981379396
 20
23.60722587301876
 10
-14.93714470262574
 20
23.6081889841289
  0
LWPOLYLINE
  5
152
330
2
100
AcDbEntity
  8
GAIKEI
 62
     1
100
AcDbPolyline
 90
       28
 70
     0
 43
0.0
 10
-14.93714470262574
 20
15.88237921407693
 10
-14.84086514716648
 20
15.88437988074162
 10
-14.7449451472624
 20
15.89037476962448
 10
-14.64993381402405
 20
15.90032343628121
 10
-14.55598025856244
 20
15.91418521404512
 10
-14.46398003643224
 20
15.93180410291637
 10
-14.37370892541139
 20
15.95317988067279
 10
-14.28634048105431
 20
15.97798054731464
 10
-14.20131181447266
 20
16.00630099173082
 10
-14.11997892566512
 20
16.03759832503283
 10
-14.04150137018803
 20
16.07212388055387
 10
-13.96735048137327
 20
16.10911121385021
 10
-13.89647514811088
 20
16.14898076936589
 10
-13.83034003706586
 20
16.19076943599077
 10
-13.76781981490615
 20
16.23506076927981
 10
-13.71025670385262
 20
16.28073521367855
 10
-13.65653225946187
 20
16.32853943585297
 10
-13.6078262595106
 20
16.37723188024876
 10
-13.56310092622198
 20
16.4276672135316
 10
-13.52330603737289
 20
16.47858410236961
 10
-13.48755981518644
 20
16.53088454676179
 10
-13.45656070410632
 20
16.58334765782041
 10
-13.42964425968881
 20
16.63684832443357
 10
-13.40723759304455
 20
16.69030832438011
 10
-13.38890670417396
 20
16.74448032432593
 10
-13.37486870418797
 20
16.79850321316081
 10
-13.36487248197579
 20
16.85293987977303
 10
-13.3571480375391
 20
16.95935810188888
  0
LWPOLYLINE
  5
153
330
2
100
AcDbEntity
  8
GAIKEI
 62
     1
100
AcDbPolyline
 90
       17
 70
     0
 43
0.0
 10
-16.51714158993462
 20
16.95935810188888
 10
-16.51514092326999
 20
16.90511143527641
 10
-16.50913247883153
 20
16.85101387977494
 10
-16.48507781218893
 20
16.74346321321587
 10
-16.44482847889583
 20
16.63724165776654
 10
-16.38809292339704
 20
16.53304099120402
 10
-16.31455225680389
 20
16.43172276908314
 10
-16.22394892356112
 20
16.33441921362492
 10
-16.11624225700223
 20
16.24245943593911
 10
-15.99173047934892
 20
16.15737654713524
 10
-15.85113270171177
 20
16.08085876943397
 10
-15.69571003520048
 20
16.01461521394469
 10
-15.5272667020356
 20
15.96031432511012
 10
-15.34816914665919
 20
15.91946143626205
 10
-15.16128625795716
 20
15.89327054739937
 10
-14.96989359148187
 20
15.88260965852117
 10
-14.93714470262574
 20
15.88237921407693
  0
LINE
  5
154
330
2
100
AcDbEntity
  8
GAIKEI
 62
     1
 48
0.004745
100
AcDbLine
 10
-14.93714470262574
 20
15.24971588137629
 30
0.0
 11
-14.93714470262574
 21
15.20753388141844
 31
0.0
  0
LINE
  5
155
330
2
100
AcDbEntity
  8
GAIKEI
 62
     1
 48
0.004743
100
AcDbLine
 10
-14.93674470262613
 20
15.24971588137629
 30
0.0
 11
-14.93674470262613
 21
15.20755410364069
 31
0.0
  0
ARC
  5
156
330
2
100
AcDbEntity
  8
GAIKEI
 62
     1
100
AcDbCircle
 10
-15.33748114666986
 20
23.20560098453149
 30
0.0
 40
8.00807554754748
100
AcDbArc
 50
272.8683519999988
 51
275.0171300000008
  0
LWPOLYLINE
  5
157
330
2
100
AcDbEntity
  8
GAIKEI
 62
     1
100
AcDbPolyline
 90
       36
 70
     0
 43
0.0
 10
-12.6371433715924
 20
16.90267676861219
 10
-12.63875759381301
 20
16.83487343534665
 10
-12.6436200382526
 20
16.76742276874745
 10
-12.65174448268891
 20
16.7003656577034
 10
-12.6631715937886
 20
16.63374899110334
 10
-12.67792181599606
 20
16.567634546725
 10
-12.69602870486687
 20
16.50208276901281
 10
-12.71752003817869
 20
16.43714810241107
 10
-12.74242226037603
 20
16.37289832469753
 10
-12.77076981590324
 20
16.30939476920548
 10
-12.80258937142696
 20
16.24671832482369
 10
-12.83790159361388
 20
16.18493721377439
 10
-12.87672670468618
 20
16.12413943605742
 10
-12.91908514908823
 20
16.06440632500602
 10
-12.9649769268201
 20
16.00583299173127
 10
-13.01440181565959
 20
15.948507436233
 10
-13.06735314894001
 20
15.89254499184454
 10
-13.12381070443905
 20
15.83804054745462
 10
-13.1837404821569
 20
15.78510276972975
 10
-13.24710159320466
 20
15.73384676978099
 10
-13.31383337091574
 20
15.68438121427493
 10
-13.38386781529016
 20
15.63682121432248
 10
-13.45710337077241
 20
15.5912821032569
 10
-13.53345159291831
 20
15.54787254774476
 10
-13.61279714839452
 20
15.50670788111927
 10
-13.69500470386788
 20
15.46788277004697
 10
-13.77993848156075
 20
15.43150565897224
 10
-13.86743581480653
 20
15.39767188122829
 10
-13.95733381471666
 20
15.36646943681506
 10
-14.04944270351348
 20
15.33799299239911
 10
-14.14357248119711
 20
15.31232432575808
 10
-14.23951981443451
 20
15.28952432578092
 10
-14.3370742587814
 20
15.26966077024519
 10
-14.43601225868241
 20
15.25279477026208
 10
-14.53610981413788
 20
15.23896010360926
 10
-14.63714336959242
 20
15.22821121473106
  0
LINE
  5
158
330
2
100
AcDbEntity
  8
GAIKEI
 62
     1
 48
0.004745
100
AcDbLine
 10
-14.93714470262574
 20
25.61158653768103
 30
0.0
 11
-14.93714470262574
 21
25.65376853763889
 31
0.0
  0
LINE
  5
159
330
2
100
AcDbEntity
  8
GAIKEI
 62
     1
 48
0.000045
100
AcDbLine
 10
-14.93674470262613
 20
25.6537483154167
 30
0.0
 11
-14.93714470262574
 21
25.65376853763889
 31
0.0
  0
LINE
  5
15A
330
2
100
AcDbEntity
  8
GAIKEI
 62
     1
100
AcDbLine
 10
-12.6371433715924
 20
16.90267676861219
 30
0.0
 11
-12.6371433715924
 21
22.79415631827629
 31
0.0
  0
LINE
  5
15B
330
2
100
AcDbEntity
  8
GAIKEI
 62
     1
 48
0.131003
100
AcDbLine
 10
-12.6371433715924
 20
22.79415631827629
 30
0.0
 11
-12.6371433715924
 21
23.95862565044513
 31
0.0
  0
LWPOLYLINE
  5
15C
330
2
100
AcDbEntity
  8
GAIKEI
 62
     1
100
AcDbPolyline
 90
       36
 70
     0
 43
0.0
 10
-12.6371433715924
 20
23.95862565044513
 10
-12.63875759381301
 20
24.02642898371067
 10
-12.6436200382526
 20
24.09387965030987
 10
-12.65174448268891
 20
24.16093676135393
 10
-12.6631715937886
 20
24.22755342795398
 10
-12.67792181599606
 20
24.29366787233232
 10
-12.69602870486687
 20
24.35921965004451
 10
-12.71752003817869
 20
24.42415431664625
 10
-12.74242226037603
 20
24.48840409435979
 10
-12.77076981590324
 20
24.55190764985184
 10
-12.80258937142696
 20
24.61458409423364
 10
-12.83790159361388
 20
24.67636520528293
 10
-12.87672670468618
 20
24.7371629829999
 10
-12.91908514908823
 20
24.79689609405131
 10
-12.9649769268201
 20
24.85546942732606
 10
-13.01440181565959
 20
24.91279498282427
 10
-13.06735314894001
 20
24.96875742721278
 10
-13.12381070443905
 20
25.0232618716027
 10
-13.1837404821569
 20
25.07619964932752
 10
-13.24710159320466
 20
25.12745564927633
 10
-13.31383337091574
 20
25.17692120478239
 10
-13.38386781529016
 20
25.22448120473484
 10
-13.45710337077241
 20
25.27002031580042
 10
-13.53345159291831
 20
25.31342987131257
 10
-13.61279714839452
 20
25.35459453793805
 10
-13.69500470386788
 20
25.39341987123254
 10
-13.77993848156075
 20
25.42979676008509
 10
-13.86743581480653
 20
25.46363053782903
 10
-13.95733381471666
 20
25.49483298224226
 10
-14.04944270351348
 20
25.52330942665822
 10
-14.14357248119711
 20
25.54897809329924
 10
-14.23951981443451
 20
25.57177809327641
 10
-14.3370742587814
 20
25.59164164881213
 10
-14.43601225868241
 20
25.60850764879524
 10
-14.53610981413788
 20
25.62234231544807
 10
-14.63714336959242
 20
25.63309120432621
  0
ARC
  5
15D
330
2
100
AcDbEntity
  8
GAIKEI
 62
     1
100
AcDbCircle
 10
-15.33748114666986
 20
17.65570143452584
 30
0.0
 40
8.00807554754748
100
AcDbArc
 50
84.98288000000009
 51
87.13165800000142
  0
LINE
  5
15E
330
2
100
AcDbEntity
  8
GAIKEI
 62
     1
 48
0.004743
100
AcDbLine
 10
-14.93674470262613
 20
25.61158653768103
 30
0.0
 11
-14.93674470262613
 21
25.6537483154167
 31
0.0
  0
LINE
  5
15F
330
2
100
AcDbEntity
  8
GAIKEI
 62
     1
 48
0.004745
100
AcDbLine
 10
-14.93714470262574
 20
15.24971588137629
 30
0.0
 11
-14.93714470262574
 21
15.20753388141844
 31
0.0
  0
LINE
  5
160
330
2
100
AcDbEntity
  8
GAIKEI
 62
     1
 48
0.004743
100
AcDbLine
 10
-14.93754492484754
 20
15.24971588137629
 30
0.0
 11
-14.93754492484754
 21
15.20755410364069
 31
0.0
  0
ARC
  5
161
330
2
100
AcDbEntity
  8
GAIKEI
 62
     1
100
AcDbCircle
 10
-14.53680848080387
 20
23.20560098453149
 30
0.0
 40
8.00807554754748
100
AcDbArc
 50
264.9828709999986
 51
267.1316489999983
  0
LINE
  5
162
330
2
100
AcDbEntity
  8
GAIKEI
 62
     1
 48
0.131003
100
AcDbLine
 10
-17.23714625588127
 20
22.79415631827629
 30
0.0
 11
-17.23714625588127
 21
23.95862565044513
 31
0.0
  0
LINE
  5
163
330
2
100
AcDbEntity
  8
GAIKEI
 62
     1
100
AcDbLine
 10
-17.23714625588127
 20
16.90267676861219
 30
0.0
 11
-17.23714625588127
 21
22.79415631827629
 31
0.0
  0
LWPOLYLINE
  5
164
330
2
100
AcDbEntity
  8
GAIKEI
 62
     1
100
AcDbPolyline
 90
       36
 70
     0
 43
0.0
 10
-17.23714625588127
 20
16.90267676861219
 10
-17.23553203366066
 20
16.83487343534665
 10
-17.23066958922106
 20
16.76742276874745
 10
-17.22254514478481
 20
16.7003656577034
 10
-17.21111803368512
 20
16.63374899110334
 10
-17.19636781147761
 20
16.567634546725
 10
-17.17826070038461
 20
16.50208276901281
 10
-17.15676958929498
 20
16.43714810241107
 10
-17.1318673670977
 20
16.37289832469753
 10
-17.10351981157049
 20
16.30939476920548
 10
-17.07170025604671
 20
16.24671832482369
 10
-17.03638803385985
 20
16.18493721377439
 10
-16.99756292278755
 20
16.12413943605742
 10
-16.95520447838544
 20
16.06440632500602
 10
-16.90931270065357
 20
16.00583299173127
 10
-16.85988781181413
 20
15.948507436233
 10
-16.80693647853371
 20
15.89254499184454
 10
-16.75047892303462
 20
15.83804054745462
 10
-16.69054914531676
 20
15.78510276972975
 10
-16.62718803426901
 20
15.73384676978099
 10
-16.56045625655798
 20
15.68438121427493
 10
-16.49042181218357
 20
15.63682121432248
 10
-16.41718625670125
 20
15.5912821032569
 10
-16.34083803455542
 20
15.54787254774476
 10
-16.26149247907915
 20
15.50670788111927
 10
-16.17928492360579
 20
15.46788277004697
 10
-16.09435092369074
 20
15.43150565897224
 10
-16.00685381266714
 20
15.39767188122829
 10
-15.91695581275701
 20
15.36646943681506
 10
-15.82484692396025
 20
15.33799299239911
 10
-15.73071714627662
 20
15.31232432575808
 10
-15.63476981303927
 20
15.28952432578092
 10
-15.53721536869233
 20
15.26966077024519
 10
-15.43827736879126
 20
15.25279477026208
 10
-15.3381795911136
 20
15.23896010360926
 10
-15.2371462578813
 20
15.22821121473106
  0
LWPOLYLINE
  5
165
330
2
100
AcDbEntity
  8
GAIKEI
 62
     1
100
AcDbPolyline
 90
       36
 70
     0
 43
0.0
 10
-17.23714625588127
 20
23.95862565044513
 10
-17.23553203366066
 20
24.02642898371067
 10
-17.23066958922106
 20
24.09387965030987
 10
-17.22254514478481
 20
24.16093676135393
 10
-17.21111803368512
 20
24.22755342795398
 10
-17.19636781147761
 20
24.29366787233232
 10
-17.17826070038461
 20
24.35921965004451
 10
-17.15676958929498
 20
24.42415431664625
 10
-17.1318673670977
 20
24.48840409435979
 10
-17.10351981157049
 20
24.55190764985184
 10
-17.07170025604671
 20
24.61458409423364
 10
-17.03638803385985
 20
24.67636520528293
 10
-16.99756292278755
 20
24.7371629829999
 10
-16.95520447838544
 20
24.79689609405131
 10
-16.90931270065357
 20
24.85546942732606
 10
-16.85988781181413
 20
24.91279498282427
 10
-16.80693647853371
 20
24.96875742721278
 10
-16.75047892303462
 20
25.0232618716027
 10
-16.69054914531676
 20
25.07619964932752
 10
-16.62718803426901
 20
25.12745564927633
 10
-16.56045625655798
 20
25.17692120478239
 10
-16.49042181218357
 20
25.22448120473484
 10
-16.41718625670125
 20
25.27002031580042
 10
-16.34083803455542
 20
25.31342987131257
 10
-16.26149247907915
 20
25.35459453793805
 10
-16.17928492360579
 20
25.39341987123254
 10
-16.09435092369074
 20
25.42979676008509
 10
-16.00685381266714
 20
25.46363053782903
 10
-15.91695581275701
 20
25.49483298224226
 10
-15.82484692396025
 20
25.52330942665822
 10
-15.73071714627662
 20
25.54897809329924
 10
-15.63476981303927
 20
25.57177809327641
 10
-15.53721536869233
 20
25.59164164881213
 10
-15.43827736879126
 20
25.60850764879524
 10
-15.3381795911136
 20
25.62234231544807
 10
-15.2371462578813
 20
25.63309120432621
  0
LINE
  5
166
330
2
100
AcDbEntity
  8
GAIKEI
 62
     1
 48
0.004743
100
AcDbLine
 10
-14.93754492484754
 20
25.61158653768103
 30
0.0
 11
-14.93754492484754
 21
25.6537483154167
 31
0.0
  0
LINE
  5
167
330
2
100
AcDbEntity
  8
GAIKEI
 62
     1
 48
0.000045
100
AcDbLine
 10
-14.93714470262574
 20
25.65376853763889
 30
0.0
 11
-14.93754492484754
 21
25.6537483154167
 31
0.0
  0
ARC
  5
168
330
2
100
AcDbEntity
  8
GAIKEI
 62
     1
100
AcDbCircle
 10
-14.53680848080387
 20
17.65570143452584
 30
0.0
 40
8.00807554754748
100
AcDbArc
 50
92.86833999999785
 51
95.01711799999776
  0
LINE
  5
169
330
2
100
AcDbEntity
  8
GAIKEI
 62
     1
 48
0.004745
100
AcDbLine
 10
-14.93714470262574
 20
25.61158653768103
 30
0.0
 11
-14.93714470262574
 21
25.65376853763889
 31
0.0
  0
LINE
  5
16A
330
2
100
AcDbEntity
  8
GAIKEI
 62
     1
100
AcDbLine
 10
-22.939884694623
 20
30.43065119952866
 30
0.0
 11
-6.934404932850725
 21
30.43065119952866
 31
0.0
  0
LINE
  5
16B
330
2
100
AcDbEntity
  8
GAIKEI
 62
     1
100
AcDbLine
 10
-4.937144712625752
 20
28.43339097930368
 30
0.0
 11
-4.937144712625752
 21
12.42791143975364
 31
0.0
  0
CIRCLE
  5
16C
330
2
100
AcDbEntity
  8
GAIKEI
 62
     1
100
AcDbCircle
 10
-14.93714470262574
 20
20.43065120952866
 30
0.0
 40
7.872792658793873
  0
CIRCLE
  5
16D
330
2
100
AcDbEntity
  8
GAIKEI
 62
     1
100
AcDbCircle
 10
-14.93714470262574
 20
20.43065120952866
 30
0.0
 40
5.999999771777777
  0
CIRCLE
  5
16E
330
2
100
AcDbEntity
  8
GAIKEI
 62
     1
100
AcDbCircle
 10
-14.93714470262574
 20
20.43065120952866
 30
0.0
 40
7.769999547785556
  0
LINE
  5
16F
330
2
100
AcDbEntity
  8
GAIKEI
 62
     1
 48
0.004107
100
AcDbLine
 10
-10.38699426273143
 20
27.09556142508598
 30
0.0
 11
-10.35048848499013
 21
27.09556142508598
 31
0.0
  0
ARC
  5
170
330
2
100
AcDbEntity
  8
GAIKEI
 62
     1
100
AcDbCircle
 10
-13.09229626002616
 20
23.07724409577094
 30
0.0
 40
4.864503328468829
100
AcDbArc
 50
52.58282699999935
 51
55.69323399999895
  0
LINE
  5
171
330
2
100
AcDbEntity
  8
GAIKEI
 62
     1
 48
0.003523
100
AcDbLine
 10
-10.16798648517266
 20
26.94064053635202
 30
0.0
 11
-10.13666870742622
 21
26.94064053635202
 31
0.0
  0
LINE
  5
172
330
2
100
AcDbEntity
  8
GAIKEI
 62
     1
 48
0.000835
100
AcDbLine
 10
-10.13666870742622
 20
26.94064053635202
 30
0.0
 11
-10.13069404076555
 21
26.9362392030231
 31
0.0
  0
CIRCLE
  5
173
330
2
100
AcDbEntity
  8
GAIKEI
 62
     1
100
AcDbCircle
 10
-14.93714470262574
 20
20.43065120952866
 30
0.0
 40
8.099999103011112
  0
CIRCLE
  5
174
330
2
100
AcDbEntity
  8
GAIKEI
 62
     1
100
AcDbCircle
 10
-6.937144710625716
 20
12.43065121752869
 30
0.0
 40
0.399999777377778
  0
LINE
  5
175
330
2
100
AcDbEntity
  8
GAIKEI
 62
     1
 48
0.06525
100
AcDbLine
 10
-8.848894708713999
 20
12.1406527733742
 30
0.0
 11
-8.848894708713999
 21
12.72065299501645
 31
0.0
  0
ARC
  5
176
330
2
100
AcDbEntity
  8
GAIKEI
 62
     1
100
AcDbCircle
 10
-8.697147819976862
 20
12.1406527733742
 30
0.0
 40
0.151747333181586
100
AcDbArc
 50
180.0000599999995
 51
359.9999279999999
  0
LINE
  5
177
330
2
100
AcDbEntity
  8
GAIKEI
 62
     1
 48
0.06525
100
AcDbLine
 10
-8.545400931239669
 20
12.1406527733742
 30
0.0
 11
-8.545400931239669
 21
12.72065299501645
 31
0.0
  0
ARC
  5
178
330
2
100
AcDbEntity
  8
GAIKEI
 62
     1
100
AcDbCircle
 10
-8.697147819976862
 20
12.72065299501645
 30
0.0
 40
0.151747555403808
100
AcDbArc
 50
0.0000200000003844
 51
179.9999229999994
  0
LWPOLYLINE
  5
179
330
2
100
AcDbEntity
  8
GAIKEI
 62
     1
100
AcDbPolyline
 90
        4
 70
     0
 43
0.0
 10
-5.333961601117835
 20
28.33361897940347
 10
-5.342167378887381
 20
20.53412609831406
 10
-5.334375156672933
 20
12.73141899500564
 10
-5.333961601117835
 20
12.52768366187609
  0
LWPOLYLINE
  5
17A
330
2
100
AcDbEntity
  8
GAIKEI
 62
     1
100
AcDbPolyline
 90
        4
 70
     0
 43
0.0
 10
-7.034177154973122
 20
10.82746788579851
 10
-14.83366981384029
 20
10.83567033023473
 10
-22.63637713937095
 20
10.82788499690917
 10
-22.84011247250055
 20
10.82746788579851
  0
LINE
  5
17B
330
2
100
AcDbEntity
  8
GAIKEI
 62
     7
100
AcDbLine
 10
-4.937144712625752
 20
12.42791143975364
 30
0.0
 11
-4.937144712625752
 21
28.43339097930368
 31
0.0
  0
LWPOLYLINE
  5
17C
330
2
100
AcDbEntity
  8
GAIKEI
 62
     1
100
AcDbPolyline
 90
        4
 70
     0
 43
0.0
 10
-24.5403280263559
 20
12.52768366187609
 10
-24.53212558191967
 20
20.32717632074326
 10
-24.53991113746742
 20
28.12988342405163
 10
-24.5403280263559
 20
28.33361897940347
  0
ARC
  5
17D
330
2
100
AcDbEntity
  8
GAIKEI
 62
     1
100
AcDbCircle
 10
-7.02801248831264
 20
12.52152232854888
 30
0.0
 40
1.693879553861675
100
AcDbArc
 50
269.7915980000002
 51
0.2083779999994893
  0
LWPOLYLINE
  5
17E
330
2
100
AcDbEntity
  8
GAIKEI
 62
     1
100
AcDbPolyline
 90
        4
 70
     0
 43
0.0
 10
-22.84011247250055
 20
30.03383453325881
 10
-15.04061981363338
 20
30.02562875548921
 10
-7.237912488102779
 20
30.03342075548147
 10
-7.034177154973122
 20
30.03383453325881
  0
LINE
  5
17F
330
2
100
AcDbEntity
  8
GAIKEI
 62
     7
100
AcDbLine
 10
-22.939884694623
 20
30.43065119952866
 30
0.0
 11
-6.934404932850725
 21
30.43065119952866
 31
0.0
  0
LINE
  5
180
330
2
100
AcDbEntity
  8
GAIKEI
 62
     7
100
AcDbLine
 10
-24.93714469262574
 20
28.43339097930368
 30
0.0
 11
-24.93714469262574
 21
12.42791143975364
 31
0.0
  0
LINE
  5
181
330
2
100
AcDbEntity
  8
GAIKEI
 62
     7
100
AcDbLine
 10
-6.934404932850725
 20
10.43065121952867
 30
0.0
 11
-22.939884694623
 21
10.43065121952867
 31
0.0
  0
ARC
  5
182
330
2
100
AcDbEntity
  8
GAIKEI
 62
     7
100
AcDbCircle
 10
-6.933170710629724
 20
12.42667366197707
 30
0.0
 40
1.995934664670731
100
AcDbArc
 50
269.9645380000006
 51
0.0354730000006081
  0
ARC
  5
183
330
2
100
AcDbEntity
  8
GAIKEI
 62
     7
100
AcDbCircle
 10
-6.933170710629724
 20
28.43462520152468
 30
0.0
 40
1.995934664670731
100
AcDbArc
 50
359.9645199999996
 51
90.03547199999902
  0
ARC
  5
184
330
2
100
AcDbEntity
  8
GAIKEI
 62
     7
100
AcDbCircle
 10
-22.94111891684395
 20
28.43462520152468
 30
0.0
 40
1.995934664670731
100
AcDbArc
 50
89.9645269999994
 51
180.0354669999991
  0
ARC
  5
185
330
2
100
AcDbEntity
  8
GAIKEI
 62
     1
100
AcDbCircle
 10
-22.84627691693879
 20
28.33978342384177
 30
0.0
 40
1.693879553861675
100
AcDbArc
 50
89.79161300000001
 51
180.2083669999992
  0
ARC
  5
186
330
2
100
AcDbEntity
  8
GAIKEI
 62
     1
100
AcDbCircle
 10
-7.02801248831264
 20
28.33978342384177
 30
0.0
 40
1.693879553861675
100
AcDbArc
 50
359.7916070000007
 51
90.20837799999949
  0
ARC
  5
187
330
2
100
AcDbEntity
  8
GAIKEI
 62
     7
100
AcDbCircle
 10
-22.94111891684395
 20
12.42667366197707
 30
0.0
 40
1.995934664670731
100
AcDbArc
 50
179.9645289999993
 51
270.0354629999976
  0
ARC
  5
188
330
2
100
AcDbEntity
  8
GAIKEI
 62
     1
100
AcDbCircle
 10
-22.84627691693879
 20
12.52152232854888
 30
0.0
 40
1.693879553861675
100
AcDbArc
 50
179.7916159999996
 51
270.2083759999997
  0
ARC
  5
189
330
2
100
AcDbEntity
  8
GAIKEI
 62
     1
100
AcDbCircle
 10
-9.297143819376856
 20
12.72065299501645
 30
0.0
 40
0.151747555403808
100
AcDbArc
 50
0.0000200000003844
 51
179.9999229999994
  0
LINE
  5
18A
330
2
100
AcDbEntity
  8
GAIKEI
 62
     1
 48
0.06525
100
AcDbLine
 10
-9.145396930639719
 20
12.1406527733742
 30
0.0
 11
-9.145396930639719
 21
12.72065299501645
 31
0.0
  0
ARC
  5
18B
330
2
100
AcDbEntity
  8
GAIKEI
 62
     1
100
AcDbCircle
 10
-9.297143819376856
 20
12.1406527733742
 30
0.0
 40
0.151747333181586
100
AcDbArc
 50
180.0000599999995
 51
359.9999279999999
  0
LINE
  5
18C
330
2
100
AcDbEntity
  8
GAIKEI
 62
     1
 48
0.06525
100
AcDbLine
 10
-9.448890708114049
 20
12.1406527733742
 30
0.0
 11
-9.448890708114049
 21
12.72065299501645
 31
0.0
  0
DIMENSION
  5
18D
330
2
100
AcDbEntity
  8
SUNPO
100
AcDbDimension
  2
*D6
 10
4.143476781014214
 20
30.43065119952866
 30
0.0
 11
2.393476781014209
 21
20.43065120952866
 31
0.0
 70
    33
  1
100
 71
     5
 42
19.99999997999998
  3
STANDARD
100
AcDbAlignedDimension
 13
-3.856523218985785
 23
10.43065121952867
 33
0.0
 14
-3.856523218985785
 24
30.43065119952866
 34
0.0
1001
ACAD
1000
DSTYLE
1002
{
1070
    40
1040
1.0
1070
   140
1040
2.5
1070
   147
1040
0.5
1070
   172
1070
     1
1070
   279
1070
     0
1070
   288
1070
     0
1002
}
  0
DIMENSION
  5
19B
330
2
100
AcDbEntity
  8
SUNPO
100
AcDbDimension
  2
*D5
 10
-33.94168663665869
 20
46.5840122944864
 30
0.0
 11
-35.6916866366587
 21
28.50733175700753
 31
0.0
 70
    33
  1
180.8
 71
     5
 42
36.15336107495773
  3
STANDARD
100
AcDbAlignedDimension
 13
-25.94168663665869
 23
10.43065121952867
 33
0.0
 14
-25.94168663665869
 24
46.5840122944864
 34
0.0
1001
ACAD
1000
DSTYLE
1002
{
1070
    40
1040
1.0
1070
   140
1040
2.5
1070
   147
1040
0.5
1070
   172
1070
     1
1070
   279
1070
     0
1070
   288
1070
     0
1002
}
  0
LWPOLYLINE
  5
1A8
330
2
100
AcDbEntity
  8
GAIKEI
 62
     1
100
AcDbPolyline
 90
       39
 70
     0
 43
0.0
 10
19.98495285270002
 20
30.31903620952869
 10
19.98526405270002
 20
30.31901800952869
 10
19.98584385269998
 20
30.31877980952868
 10
19.9861002527
 20
30.31859680952869
 10
19.9872232527
 20
30.31715640952871
 10
19.98938405270002
 20
30.31126640952868
 10
19.99143485270002
 20
30.3013726095287
 10
19.99336965270004
 20
30.2875054095287
 10
19.99518225270003
 20
30.26967100952868
 10
19.99687305270004
 20
30.24791800952869
 10
19.99843545270005
 20
30.22227720952867
 10
19.99986365270001
 20
30.19280940952871
 10
20.00115765270004
 20
30.15955740952871
 10
20.00231725270004
 20
30.12259460952873
 10
20.0033366527
 20
30.08199400952867
 10
20.00421545270001
 20
30.03783500952869
 10
20.00494785270001
 20
29.99020320952872
 10
20.00554005270004
 20
29.93919000952871
 10
20.00598545270003
 20
29.8849054095287
 10
20.00627845270003
 20
29.8274590095287
 10
20.00642505270002
 20
29.76695500952871
 10
20.00642505270002
 20
29.70353340952869
 10
20.00627845270003
 20
29.6373162095287
 10
20.00598545270003
 20
29.56843800952868
 10
20.00554005270004
 20
29.49703920952868
 10
20.00495405270005
 20
29.42326600952867
 10
20.00421545270001
 20
29.3472710095287
 10
20.00334265269998
 20
29.26921320952869
 10
20.00232345270001
 20
29.18923880952872
 10
20.00116385270002
 20
29.10752500952873
 10
19.99986365270001
 20
29.02423040952868
 10
19.99843545270005
 20
28.93952580952873
 10
19.99687305270004
 20
28.8535760095287
 10
19.99518845270006
 20
28.7665704095287
 10
19.99336965270004
 20
28.6786676095287
 10
19.99144085270001
 20
28.59006280952872
 10
19.98938405270002
 20
28.50092100952873
 10
19.9872232527
 20
28.41143740952873
 10
19.98495285270002
 20
28.32178280952872
  0
LINE
  5
1A9
330
2
100
AcDbEntity
  8
GAIKEI
 62
     1
 48
0.266577
100
AcDbLine
 10
19.98495285270002
 20
28.32178280952866
 30
0.0
 11
22.11464645270002
 21
28.4333918095287
 31
0.0
  0
LINE
  5
1AA
330
2
100
AcDbEntity
  8
GAIKEI
 62
     1
 48
0.249657
100
AcDbLine
 10
22.11464645270002
 20
28.4333918095287
 30
0.0
 11
22.11464645270002
 21
30.43065120952866
 31
0.0
  0
LINE
  5
1AB
330
2
100
AcDbEntity
  8
GAIKEI
 62
     7
 48
0.266577
100
AcDbLine
 10
19.98495285270002
 20
30.31903620952869
 30
0.0
 11
22.11464645270002
 21
30.43065120952866
 31
0.0
  0
LINE
  5
1AC
330
2
100
AcDbEntity
  8
GAIKEI
 62
     7
 48
0.266577
100
AcDbLine
 10
19.98495285270002
 20
10.5422632095287
 30
0.0
 11
22.11464645270002
 21
10.43065120952866
 31
0.0
  0
LINE
  5
1AD
330
2
100
AcDbEntity
  8
GAIKEI
 62
     1
 48
0.249657
100
AcDbLine
 10
22.11464645270002
 20
10.43065120952866
 30
0.0
 11
22.11464645270002
 21
12.42791080952867
 31
0.0
  0
LINE
  5
1AE
330
2
100
AcDbEntity
  8
GAIKEI
 62
     1
 48
0.266577
100
AcDbLine
 10
19.98495285270002
 20
12.53952260952871
 30
0.0
 11
22.11464645270002
 21
12.42791080952867
 31
0.0
  0
LWPOLYLINE
  5
1AF
330
2
100
AcDbEntity
  8
GAIKEI
 62
     1
100
AcDbPolyline
 90
       38
 70
     0
 43
0.0
 10
19.98495285270002
 20
12.53952260952871
 10
19.9872232527
 20
12.44986500952871
 10
19.98938405270002
 20
12.36037840952872
 10
19.99144085270001
 20
12.27123960952872
 10
19.99336965270004
 20
12.18263180952869
 10
19.99518845270006
 20
12.09473500952867
 10
19.99687305270004
 20
12.00772340952869
 10
19.99843545270005
 20
11.92177980952868
 10
19.99986365270001
 20
11.83707220952868
 10
20.00116385270002
 20
11.75377740952871
 10
20.00232345270001
 20
11.67206060952867
 10
20.00334265269998
 20
11.59209220952869
 10
20.00421545270001
 20
11.51403140952868
 10
20.00495405270005
 20
11.4380364095287
 10
20.00554005270004
 20
11.36426640952868
 10
20.00598545270003
 20
11.29286740952869
 10
20.00627845270003
 20
11.22398620952867
 10
20.00642505270002
 20
11.15776920952874
 10
20.00642505270002
 20
11.09434440952873
 10
20.00627845270003
 20
11.03384640952868
 10
20.00598545270003
 20
10.97639700952868
 10
20.00554005270004
 20
10.92211240952872
 10
20.00494785270001
 20
10.87110220952871
 10
20.00421545270001
 20
10.82347040952868
 10
20.0033366527
 20
10.77930840952871
 10
20.00231725270004
 20
10.7387078095287
 10
20.00115765270004
 20
10.70174500952873
 10
19.99986365270001
 20
10.66849600952872
 10
19.99843545270005
 20
10.63902220952872
 10
19.99687305270004
 20
10.61338440952869
 10
19.99518225270003
 20
10.5916314095287
 10
19.99336965270004
 20
10.57380000952872
 10
19.99143485270002
 20
10.55992680952869
 10
19.98938405270002
 20
10.55003600952869
 10
19.9872232527
 20
10.54414600952873
 10
19.9861002527
 20
10.54270560952869
 10
19.98556325269999
 20
10.54237600952871
 10
19.98495285270002
 20
10.5422632095287
  0
LINE
  5
1B0
330
2
100
AcDbEntity
  8
GAIKEI
 62
     7
 48
0.01957
100
AcDbLine
 10
19.82860525270001
 20
10.5504572095287
 30
0.0
 11
19.98495285270002
 21
10.5422632095287
 31
0.0
  0
LINE
  5
1B1
330
2
100
AcDbEntity
  8
GAIKEI
 62
     7
 48
0.01957
100
AcDbLine
 10
19.98495285270002
 20
30.31903620952869
 30
0.0
 11
19.82860525270001
 21
30.31084540952867
 31
0.0
  0
LWPOLYLINE
  5
1B2
330
2
100
AcDbEntity
  8
GAIKEI
 62
     1
100
AcDbPolyline
 90
       10
 70
     0
 43
0.0
 10
19.98495285270002
 20
28.32178280952872
 10
19.92222705270001
 20
26.53752980952868
 10
19.87549845270001
 20
24.75278860952869
 10
19.84476125270004
 20
22.96769340952869
 10
19.83002125270002
 20
21.18240300952868
 10
19.83128465269999
 20
19.3970452095287
 10
19.84855145270001
 20
17.61177000952869
 10
19.88180945270005
 20
15.8267236095287
 10
19.93106485270004
 20
14.0420496095287
 10
19.98495285270002
 20
12.53952260952871
  0
LINE
  5
1B3
330
2
100
AcDbEntity
  8
GAIKEI
 62
     1
100
AcDbLine
 10
22.11464645270002
 20
12.42791080952867
 30
0.0
 11
22.11464645270002
 21
28.4333918095287
 31
0.0
  0
LINE
  5
1B4
330
2
100
AcDbEntity
  8
GAIKEI
 62
     7
100
AcDbLine
 10
19.47853185269997
 20
20.43065120952866
 30
0.0
 11
19.47853185269997
 21
28.53065120952869
 31
0.0
  0
LINE
  5
1B5
330
2
100
AcDbEntity
  8
GAIKEI
 62
     7
100
AcDbLine
 10
19.47853185269997
 20
12.3306512095287
 30
0.0
 11
19.47853185269997
 21
20.43065120952866
 31
0.0
  0
ARC
  5
1B6
330
2
100
AcDbEntity
  8
GAIKEI
 62
     7
100
AcDbCircle
 10
19.84430345269999
 20
30.01125420952872
 30
0.0
 40
0.3
100
AcDbArc
 50
92.99999899999834
 51
177.2536130000005
  0
ARC
  5
1B7
330
2
100
AcDbEntity
  8
GAIKEI
 62
     7
100
AcDbCircle
 10
19.84430345269999
 20
10.85004820952866
 30
0.0
 40
0.3
100
AcDbArc
 50
182.7463829999999
 51
266.9999900000002
  0
ARC
  5
1B8
330
2
100
AcDbEntity
  8
GAIKEI
 62
     7
100
AcDbCircle
 10
219.5644876527
 20
20.43065120952866
 30
0.0
 40
200.2498414000001
100
AcDbArc
 50
182.3182119999998
 51
182.7463829999999
  0
ARC
  5
1B9
330
2
100
AcDbEntity
  8
GAIKEI
 62
     7
100
AcDbCircle
 10
219.5644876527
 20
20.43065120952866
 30
0.0
 40
200.2498414000001
100
AcDbArc
 50
177.2536130000005
 51
177.6817840000005
  0
ARC
  5
1BA
330
2
100
AcDbEntity
  8
GAIKEI
 62
     1
100
AcDbCircle
 10
21.4146402527
 20
20.43065120952866
 30
0.0
 40
6.099994999999999
100
AcDbArc
 50
108.7428130000018
 51
251.2571969999984
  0
LINE
  5
1BB
330
2
100
AcDbEntity
  8
GAIKEI
 62
     1
 48
0.120428
100
AcDbLine
 10
19.45464885270002
 20
13.5240778095287
 30
0.0
 11
19.45464885270002
 21
12.56065000952867
 31
0.0
  0
LINE
  5
1BC
330
2
100
AcDbEntity
  8
GAIKEI
 62
     1
100
AcDbLine
 10
19.45464885270002
 20
28.30065240952871
 30
0.0
 11
19.45464885270002
 21
13.5240778095287
 31
0.0
  0
LINE
  5
1BD
330
2
100
AcDbEntity
  8
GAIKEI
 62
     1
 48
0.002986
100
AcDbLine
 10
19.45464885270002
 20
28.30065240952871
 30
0.0
 11
19.47853185269997
 21
28.30106740952869
 31
0.0
  0
LINE
  5
1BE
330
2
100
AcDbEntity
  8
GAIKEI
 62
     1
 48
0.001713
100
AcDbLine
 10
31.11464645270002
 20
18.34378900952868
 30
0.0
 11
31.11464645270002
 21
18.33008660952868
 31
0.0
  0
LINE
  5
1BF
330
2
100
AcDbEntity
  8
GAIKEI
 62
     1
 48
0.086316
100
AcDbLine
 10
31.07692665270003
 20
18.14880620952868
 30
0.0
 11
30.41464645270003
 21
17.95331060952867
 31
0.0
  0
LWPOLYLINE
  5
1C0
330
2
100
AcDbEntity
  8
GAIKEI
 62
     1
100
AcDbPolyline
 90
       20
 70
     0
 43
0.0
 10
31.11464645270002
 20
18.18866520952872
 10
31.11453045270002
 20
18.18601320952871
 10
31.11417645270001
 20
18.1833612095287
 10
31.11358445270003
 20
18.1807214095287
 10
31.11276665270003
 20
18.1781122095287
 10
31.11172285270004
 20
18.17554860952873
 10
31.11045945270002
 20
18.17303700952868
 10
31.10897025270003
 20
18.17058040952872
 10
31.10726125270003
 20
18.16818780952871
 10
31.10535085270004
 20
18.16586860952873
 10
31.10323905270002
 20
18.16364080952871
 10
31.10094405270002
 20
18.1615106095287
 10
31.0984720527
 20
18.15948720952872
 10
31.09582325270003
 20
18.15757380952868
 10
31.09300345270003
 20
18.15577320952872
 10
31.0900310527
 20
18.15409780952871
 10
31.08692425270004
 20
18.15255980952872
 10
31.08370165270003
 20
18.15116200952872
 10
31.08036905270001
 20
18.1499108095287
 10
31.07692665270003
 20
18.14880620952868
  0
LINE
  5
1C1
330
2
100
AcDbEntity
  8
GAIKEI
 62
     1
 48
0.01335
100
AcDbLine
 10
31.11464645270002
 20
18.34378900952868
 30
0.0
 11
31.11464645270002
 21
18.45058540952868
 31
0.0
  0
LINE
  5
1C2
330
2
100
AcDbEntity
  8
GAIKEI
 62
     1
 48
0.007071
100
AcDbLine
 10
31.11464645270002
 20
18.45058540952868
 30
0.0
 11
31.11464645270002
 21
18.50715580952868
 31
0.0
  0
LINE
  5
1C3
330
2
100
AcDbEntity
  8
GAIKEI
 62
     1
 48
0.159099
100
AcDbLine
 10
31.11464645270002
 20
19.77994940952868
 30
0.0
 11
31.11464645270002
 21
18.50715580952868
 31
0.0
  0
LINE
  5
1C4
330
2
100
AcDbEntity
  8
GAIKEI
 62
     1
 48
0.001464
100
AcDbLine
 10
31.11464645270002
 20
19.77994940952868
 30
0.0
 11
31.11464645270002
 21
19.79166200952869
 31
0.0
  0
LINE
  5
1C5
330
2
100
AcDbEntity
  8
GAIKEI
 62
     1
 48
0.001465
100
AcDbLine
 10
31.11464645270002
 20
18.08385260952866
 30
0.0
 11
31.11464645270002
 21
18.09557120952866
 31
0.0
  0
LINE
  5
1C6
330
2
100
AcDbEntity
  8
GAIKEI
 62
     1
 48
0.011637
100
AcDbLine
 10
31.11464645270002
 20
18.09557120952866
 30
0.0
 11
31.11464645270002
 21
18.18866520952866
 31
0.0
  0
LINE
  5
1C7
330
2
100
AcDbEntity
  8
GAIKEI
 62
     1
 48
0.017678
100
AcDbLine
 10
31.11464645270002
 20
18.33008660952868
 30
0.0
 11
31.11464645270002
 21
18.18866520952866
 31
0.0
  0
LINE
  5
1C8
330
2
100
AcDbEntity
  8
GAIKEI
 62
     7
 48
0.04875
100
AcDbLine
 10
30.41464645270003
 20
16.18065120952866
 30
0.0
 11
30.41464645270003
 21
16.57065060952868
 31
0.0
  0
LINE
  5
1C9
330
2
100
AcDbEntity
  8
GAIKEI
 62
     7
 48
0.31375
100
AcDbLine
 10
30.41464645270003
 20
16.57065060952868
 30
0.0
 11
30.41464645270003
 21
19.08065120952869
 31
0.0
  0
LINE
  5
1CA
330
2
100
AcDbEntity
  8
GAIKEI
 62
     7
 48
0.000128
100
AcDbLine
 10
30.4146402527
 20
12.01004580952866
 30
0.0
 11
30.41464645270003
 21
12.01107120952866
 31
0.0
  0
LINE
  5
1CB
330
2
100
AcDbEntity
  8
GAIKEI
 62
     7
 48
0.03125
100
AcDbLine
 10
30.41464645270003
 20
19.08065120952869
 30
0.0
 11
30.41464645270003
 21
19.33065120952869
 31
0.0
  0
LINE
  5
1CC
330
2
100
AcDbEntity
  8
GAIKEI
 62
     1
 48
0.0125
100
AcDbLine
 10
30.41464645270003
 20
19.08065120952869
 30
0.0
 11
30.31464645270001
 21
19.08065120952869
 31
0.0
  0
LINE
  5
1CD
330
2
100
AcDbEntity
  8
GAIKEI
 62
     7
 48
0.03125
100
AcDbLine
 10
30.41464645270003
 20
20.78065120952869
 30
0.0
 11
30.41464645270003
 21
19.33065120952869
 31
0.0
  0
ARC
  5
1CE
330
2
100
AcDbEntity
  8
GAIKEI
 62
     7
100
AcDbCircle
 10
30.31464645270001
 20
20.78065120952869
 30
0.0
 40
0.1
100
AcDbArc
 50
0.0
 51
90.00000299999769
  0
ARC
  5
1CF
330
2
100
AcDbEntity
  8
GAIKEI
 62
     1
100
AcDbCircle
 10
30.31464645270001
 20
16.18065120952866
 30
0.0
 40
0.1
100
AcDbArc
 50
0.0
 51
90.00000299999769
  0
LWPOLYLINE
  5
1D0
330
2
100
AcDbEntity
  8
GAIKEI
 62
     1
100
AcDbPolyline
 90
       21
 70
     0
 43
0.0
 10
30.11464645270002
 20
16.42705020952871
 10
30.11462805270003
 20
16.41330200952871
 10
30.11457325270004
 20
16.40003600952872
 10
30.11446325270004
 20
16.38729500952871
 10
30.11429245270006
 20
16.37511840952868
 10
30.11404825270006
 20
16.36354300952871
 10
30.11372485270005
 20
16.35260860952871
 10
30.11330985270002
 20
16.34234260952871
 10
30.11279105270001
 20
16.3327814095287
 10
30.11216845270002
 20
16.3239526095287
 10
30.11142985270004
 20
16.31588380952871
 10
30.11056325270005
 20
16.30859920952872
 10
30.1095682527
 20
16.30212340952869
 10
30.10843925270001
 20
16.29647160952868
 10
30.10716965270001
 20
16.29166200952869
 10
30.10575965270005
 20
16.28771000952872
 10
30.10420325270002
 20
16.28462760952868
 10
30.1025126527
 20
16.28242120952871
 10
30.10068165270002
 20
16.28109380952873
 10
30.09972325270002
 20
16.28076720952867
 10
30.09871625270006
 20
16.28065120952868
  0
LINE
  5
1D1
330
2
100
AcDbEntity
  8
GAIKEI
 62
     1
 48
0.025
100
AcDbLine
 10
30.11464645270002
 20
19.08065120952869
 30
0.0
 11
30.31464645270001
 21
19.08065120952869
 31
0.0
  0
LINE
  5
1D2
330
2
100
AcDbEntity
  8
GAIKEI
 62
     7
 48
0.025
100
AcDbLine
 10
30.11464645269999
 20
20.88065120952871
 30
0.0
 11
30.31464645270001
 21
20.88065120952871
 31
0.0
  0
LINE
  5
1D3
330
2
100
AcDbEntity
  8
GAIKEI
 62
     7
 48
0.375
100
AcDbLine
 10
30.41464645270003
 20
12.53065120952868
 30
0.0
 11
30.41464645270003
 21
16.18065120952866
 31
0.0
  0
LINE
  5
1D4
330
2
100
AcDbEntity
  8
GAIKEI
 62
     1
 48
0.033329
100
AcDbLine
 10
30.04801445269999
 20
16.28065120952868
 30
0.0
 11
30.31464645270001
 21
16.28065120952868
 31
0.0
  0
LINE
  5
1D5
330
2
100
AcDbEntity
  8
GAIKEI
 62
     1
 48
0.460952
100
AcDbLine
 10
30.01872365270003
 20
20.9224604095287
 30
0.0
 11
30.01872365270003
 21
17.23484120952867
 31
0.0
  0
LINE
  5
1D6
330
2
100
AcDbEntity
  8
GAIKEI
 62
     1
 48
0.011837
100
AcDbLine
 10
29.92411905270001
 20
17.23065120952867
 30
0.0
 11
30.01872365270003
 21
17.23484120952867
 31
0.0
  0
LWPOLYLINE
  5
1D7
330
2
100
AcDbEntity
  8
GAIKEI
 62
     1
100
AcDbPolyline
 90
       20
 70
     0
 43
0.0
 10
29.92411905270001
 20
17.23065120952867
 10
29.87287405270001
 20
17.2288842095287
 10
29.81597705270002
 20
17.22716920952871
 10
29.75359905270006
 20
17.22551520952868
 10
29.68593545270005
 20
17.22392520952871
 10
29.61321825270005
 20
17.22240240952868
 10
29.53567305270002
 20
17.22095580952873
 10
29.45355025270004
 20
17.21958860952873
 10
29.36711225270006
 20
17.21830380952872
 10
29.27664585270003
 20
17.21710760952874
 10
29.18243205270005
 20
17.21600280952873
 10
29.08477585270004
 20
17.21499260952873
 10
28.98400065270005
 20
17.21408320952872
 10
28.88041785270002
 20
17.21327140952871
 10
28.77437545270004
 20
17.21256660952872
 10
28.66620285270006
 20
17.21196540952871
 10
28.55626025269998
 20
17.21147400952873
 10
28.44488945270001
 20
17.21108940952871
 10
28.33245645270006
 20
17.21082100952867
 10
28.21932165270005
 20
17.21065920952873
  0
LINE
  5
1D8
330
2
100
AcDbEntity
  8
GAIKEI
 62
     1
100
AcDbLine
 10
28.21932165269999
 20
17.21065920952867
 30
0.0
 11
28.21932165269999
 21
12.74260200952869
 31
0.0
  0
LINE
  5
1D9
330
2
100
AcDbEntity
  8
GAIKEI
 62
     1
 48
0.180866
100
AcDbLine
 10
29.6662516527
 20
12.74260200952869
 30
0.0
 11
28.21932165269999
 21
12.74260200952869
 31
0.0
  0
LINE
  5
1DA
330
2
100
AcDbEntity
  8
GAIKEI
 62
     1
 48
0.348506
100
AcDbLine
 10
29.6662516527
 20
15.53065120952868
 30
0.0
 11
29.6662516527
 21
12.74260200952869
 31
0.0
  0
LWPOLYLINE
  5
1DB
330
2
100
AcDbEntity
  8
GAIKEI
 62
     1
100
AcDbPolyline
 90
       32
 70
     0
 43
0.0
 10
29.66625165270006
 20
15.53065120952868
 10
29.66714885270005
 20
15.57124260952872
 10
29.66981005270003
 20
15.61161740952872
 10
29.67418005270003
 20
15.6515740095287
 10
29.68018605270004
 20
15.69092960952872
 10
29.68771165270005
 20
15.72953120952871
 10
29.69662885270003
 20
15.76724480952873
 10
29.70680945270004
 20
15.80395740952872
 10
29.71811325270005
 20
15.83959280952871
 10
29.73039965270004
 20
15.87408380952871
 10
29.74354665270005
 20
15.90737860952868
 10
29.75741385270004
 20
15.9394402095287
 10
29.77188525270003
 20
15.97023860952868
 10
29.78686325270002
 20
15.99975820952869
 10
29.80223185270006
 20
16.02798400952872
 10
29.81790565270001
 20
16.05490040952872
 10
29.83378705270002
 20
16.0804864095287
 10
29.84980265270002
 20
16.1047144095287
 10
29.86586105269998
 20
16.12755980952869
 10
29.88189505270003
 20
16.14899220952873
 10
29.89781905270002
 20
16.16897820952869
 10
29.91357825270006
 20
16.18748420952869
 10
29.92909345270005
 20
16.20446720952873
 10
29.94430945270006
 20
16.21988760952871
 10
29.95915945270002
 20
16.23369380952869
 10
29.97358205270001
 20
16.24583680952872
 10
29.98752245270003
 20
16.25625860952868
 10
30.00091965270002
 20
16.2649072095287
 10
30.01371265270001
 20
16.27172180952868
 10
30.02585865269998
 20
16.2766534095287
 10
30.03730265270002
 20
16.27964420952872
 10
30.04801445270004
 20
16.28065120952868
  0
LINE
  5
1DC
330
2
100
AcDbEntity
  8
GAIKEI
 62
     7
100
AcDbLine
 10
30.11464645270002
 20
21.52087340952869
 30
0.0
 11
30.11464645270002
 21
20.88065120952876
 31
0.0
  0
LWPOLYLINE
  5
1DD
330
2
100
AcDbEntity
  8
GAIKEI
 62
     1
100
AcDbPolyline
 90
       36
 70
     0
 43
0.0
 10
30.01872365270003
 20
20.9224604095287
 10
30.01891885270004
 20
20.94951720952872
 10
30.01950485270004
 20
20.97651300952873
 10
30.02048145270004
 20
21.00338680952871
 10
30.02182425270002
 20
21.0300774095287
 10
30.0235392527
 20
21.05652400952869
 10
30.0255960527
 20
21.08268360952871
 10
30.0279886527
 20
21.10848320952869
 10
30.03068645270003
 20
21.13388600952868
 10
30.03367105270001
 20
21.15883120952867
 10
30.03691205270002
 20
21.18326960952868
 10
30.04039105269999
 20
21.20715260952869
 10
30.04406545270001
 20
21.23044380952871
 10
30.04791065270001
 20
21.25309380952871
 10
30.05190225270002
 20
21.27506660952872
 10
30.05600385270003
 20
21.2963190095287
 10
30.06017865270002
 20
21.31680840952868
 10
30.06440225270001
 20
21.33650440952869
 10
30.06863205270003
 20
21.35537040952869
 10
30.0728434527
 20
21.37337580952868
 10
30.07700005269999
 20
21.3904778095287
 10
30.08107705270004
 20
21.40665220952872
 10
30.08503825270003
 20
21.42186820952872
 10
30.08885305270002
 20
21.43610160952869
 10
30.09249685270004
 20
21.44930960952871
 10
30.09593925270002
 20
21.46148000952871
 10
30.09915565270001
 20
21.47257620952871
 10
30.10212805270004
 20
21.4825800095287
 10
30.10481985270002
 20
21.4914606095287
 10
30.10721845270001
 20
21.49920600952873
 10
30.10930585270001
 20
21.50579160952873
 10
30.11106985270004
 20
21.51120540952871
 10
30.11248585270005
 20
21.5154290095287
 10
30.1135600527
 20
21.51845640952871
 10
30.11426805270003
 20
21.52027520952868
 10
30.11448165270002
 20
21.52072700952869
  0
LINE
  5
1DE
330
2
100
AcDbEntity
  8
GAIKEI
 62
     7
 48
0.004974
100
AcDbLine
 10
30.11464645270002
 20
21.52087340952869
 30
0.0
 11
30.11464645270002
 21
21.56066840952866
 31
0.0
  0
LINE
  5
1DF
330
2
100
AcDbEntity
  8
GAIKEI
 62
     7
 48
0.004974
100
AcDbLine
 10
30.11464645270002
 20
24.5006342095287
 30
0.0
 11
30.11464645270002
 21
24.5404230095287
 31
0.0
  0
LINE
  5
1E0
330
2
100
AcDbEntity
  8
GAIKEI
 62
     7
 48
0.4472850000000001
100
AcDbLine
 10
30.11464645270002
 20
28.11870060952868
 30
0.0
 11
30.11464645270002
 21
24.5404230095287
 31
0.0
  0
LINE
  5
1E1
330
2
100
AcDbEntity
  8
GAIKEI
 62
     7
 48
0.11875
100
AcDbLine
 10
30.41464645270003
 20
11.58065120952869
 30
0.0
 11
30.41464645270003
 21
12.53065120952868
 31
0.0
  0
ARC
  5
1E2
330
2
100
AcDbEntity
  8
GAIKEI
 62
     7
100
AcDbCircle
 10
30.31464645270001
 20
11.58065120952869
 30
0.0
 40
0.1
100
AcDbArc
 50
270.0000009999981
 51
0.000009999999378
  0
LINE
  5
1E3
330
2
100
AcDbEntity
  8
GAIKEI
 62
     1
 48
0.303372
100
AcDbLine
 10
25.79234425269999
 20
17.20844060952868
 30
0.0
 11
28.21932165269999
 21
17.21065920952867
 31
0.0
  0
ARC
  5
1E4
330
2
100
AcDbEntity
  8
GAIKEI
 62
     1
100
AcDbCircle
 10
25.79131265270002
 20
17.80795220952871
 30
0.0
 40
0.5994574
100
AcDbArc
 50
180.0145119999996
 51
270.0985469999992
  0
LINE
  5
1E5
330
2
100
AcDbEntity
  8
GAIKEI
 62
     1
100
AcDbLine
 10
28.21932165269999
 20
12.74260200952869
 30
0.0
 11
22.21464645269998
 21
12.42791080952867
 31
0.0
  0
LINE
  5
1E6
330
2
100
AcDbEntity
  8
GAIKEI
 62
     1
100
AcDbLine
 10
22.21464645269998
 20
28.4333918095287
 30
0.0
 11
22.21464645269998
 21
12.42791080952867
 31
0.0
  0
LINE
  5
1E7
330
2
100
AcDbEntity
  8
GAIKEI
 62
     1
100
AcDbLine
 10
28.21932165269999
 20
28.11870060952868
 30
0.0
 11
22.21464645269998
 21
28.4333918095287
 31
0.0
  0
LINE
  5
1E8
330
2
100
AcDbEntity
  8
GAIKEI
 62
     1
 48
0.046008
100
AcDbLine
 10
28.21932165269999
 20
28.11870060952868
 30
0.0
 11
28.21932165269999
 21
27.75064020952868
 31
0.0
  0
LINE
  5
1E9
330
2
100
AcDbEntity
  8
GAIKEI
 62
     1
 48
0.303372
100
AcDbLine
 10
25.79234425269999
 20
27.75286200952866
 30
0.0
 11
28.21932165269999
 21
27.75064020952868
 31
0.0
  0
ARC
  5
1EA
330
2
100
AcDbEntity
  8
GAIKEI
 62
     1
100
AcDbCircle
 10
25.79131265270002
 20
27.1533502095287
 30
0.0
 40
0.5994574
100
AcDbArc
 50
89.90145699999933
 51
179.9854839999995
  0
LINE
  5
1EB
330
2
100
AcDbEntity
  8
GAIKEI
 62
     1
100
AcDbLine
 10
25.19188645270003
 20
27.15350280952868
 30
0.0
 11
25.19188645270003
 21
17.80779960952867
 31
0.0
  0
LINE
  5
1EC
330
2
100
AcDbEntity
  8
GAIKEI
 62
     7
 48
0.000232
100
AcDbLine
 10
30.11464645270002
 20
28.11870060952868
 30
0.0
 11
30.11279105270001
 21
28.11870060952868
 31
0.0
  0
ARC
  5
1ED
330
2
100
AcDbEntity
  8
GAIKEI
 62
     7
100
AcDbCircle
 10
29.57331345270001
 20
28.14977360952866
 30
0.0
 40
0.5403622000000001
100
AcDbArc
 50
352.2017650000007
 51
356.7038150000002
  0
LINE
  5
1EE
330
2
100
AcDbEntity
  8
GAIKEI
 62
     1
 48
0.207967
100
AcDbLine
 10
30.11280762607902
 20
28.11870060952868
 30
0.0
 11
28.21932165269999
 21
28.11870060952868
 31
0.0
  0
LWPOLYLINE
  5
1EF
330
2
100
AcDbEntity
  8
GAIKEI
 62
     1
100
AcDbPolyline
 90
       20
 70
     0
 43
0.0
 10
29.92411905270001
 20
27.73065120952868
 10
29.87287405270001
 20
27.7324212095287
 10
29.81597705270002
 20
27.73413640952867
 10
29.75359905270006
 20
27.73579040952871
 10
29.68593545270005
 20
27.73737720952869
 10
29.61321825270005
 20
27.73889700952873
 10
29.53567305270002
 20
27.74034360952868
 10
29.45355025270004
 20
27.74171680952873
 10
29.36711225270006
 20
27.74299860952869
 10
29.27664585270003
 20
27.74419500952871
 10
29.18243205270005
 20
27.74529960952873
 10
29.08477585270004
 20
27.74630680952873
 10
28.98400065270005
 20
27.74722220952867
 10
28.88041785270002
 20
27.7480280095287
 10
28.77437545270004
 20
27.74873600952867
 10
28.66620285270006
 20
27.7493340095287
 10
28.55626025269998
 20
27.74982840952873
 10
28.44488945270001
 20
27.75021300952869
 10
28.33245645270006
 20
27.75048160952872
 10
28.21932165270005
 20
27.75064020952868
  0
LINE
  5
1F0
330
2
100
AcDbEntity
  8
GAIKEI
 62
     1
 48
0.011837
100
AcDbLine
 10
29.92411905270001
 20
27.73065120952868
 30
0.0
 11
30.01872365270003
 21
27.72646420952867
 31
0.0
  0
LINE
  5
1F1
330
2
100
AcDbEntity
  8
GAIKEI
 62
     1
 48
0.323453
100
AcDbLine
 10
30.01872365270003
 20
27.72646420952867
 30
0.0
 11
30.01872365270003
 21
25.13884220952866
 31
0.0
  0
LWPOLYLINE
  5
1F2
330
2
100
AcDbEntity
  8
GAIKEI
 62
     1
100
AcDbPolyline
 90
       36
 70
     0
 43
0.0
 10
30.01872365270003
 20
25.13884220952872
 10
30.01891885270004
 20
25.11178520952871
 10
30.01950485270004
 20
25.0847894095287
 10
30.02048145270004
 20
25.05791560952872
 10
30.02182425270002
 20
25.03122500952873
 10
30.0235392527
 20
25.00477840952868
 10
30.0255960527
 20
24.97861880952871
 10
30.0279886527
 20
24.95281920952868
 10
30.03068645270003
 20
24.92741640952869
 10
30.03367105270001
 20
24.9024712095287
 10
30.03691205270002
 20
24.87803280952869
 10
30.04039105269999
 20
24.85414980952874
 10
30.04406545270001
 20
24.83085880952871
 10
30.04791065270001
 20
24.80820860952872
 10
30.05190225270002
 20
24.78623600952869
 10
30.05600385270003
 20
24.76498360952871
 10
30.06017865270002
 20
24.74449400952869
 10
30.06440225270001
 20
24.72479800952868
 10
30.06863205270003
 20
24.70593200952868
 10
30.0728434527
 20
24.68792660952869
 10
30.07700005269999
 20
24.67082460952872
 10
30.08107705270004
 20
24.65465020952871
 10
30.08503825270003
 20
24.6394342095287
 10
30.08885305270002
 20
24.62520080952868
 10
30.09249685270004
 20
24.61199280952872
 10
30.09593925270002
 20
24.59982240952871
 10
30.09915565270001
 20
24.58872620952872
 10
30.10212805270004
 20
24.57872260952871
 10
30.10481985270002
 20
24.56984180952872
 10
30.10721845270001
 20
24.56209660952868
 10
30.10930585270001
 20
24.5555108095287
 10
30.11106985270004
 20
24.55009700952871
 10
30.11248585270005
 20
24.54587340952873
 10
30.1135600527
 20
24.54284600952872
 10
30.11426805270003
 20
24.5410272095287
 10
30.11448165270002
 20
24.54057560952867
  0
ARC
  5
1F3
330
2
100
AcDbEntity
  8
GAIKEI
 62
     7
100
AcDbCircle
 10
28.11464645270002
 20
28.11870060952868
 30
0.0
 40
2.0
100
AcDbArc
 50
0.0
 51
2.006817000000046
  0
ARC
  5
1F4
330
2
100
AcDbEntity
  8
GAIKEI
 62
     7
100
AcDbCircle
 10
28.11464645270002
 20
28.11870060952868
 30
0.0
 40
2.0
100
AcDbArc
 50
2.00679700000021
 51
87.00000600000199
  0
LINE
  5
1F5
330
2
100
AcDbEntity
  8
GAIKEI
 62
     1
 48
0.172356
100
AcDbLine
 10
31.1181376527
 20
27.5952326095287
 30
0.0
 11
31.1181376527
 21
28.97408380952868
 31
0.0
  0
LINE
  5
1F6
330
2
100
AcDbEntity
  8
GAIKEI
 62
     1
 48
0.084659
100
AcDbLine
 10
31.1181376527
 20
24.5006524095287
 30
0.0
 11
31.1181376527
 21
25.17792300952868
 31
0.0
  0
LINE
  5
1F7
330
2
100
AcDbEntity
  8
GAIKEI
 62
     1
 48
0.049055
100
AcDbLine
 10
30.87464405270003
 20
27.6951898095287
 30
0.0
 11
30.87464405270003
 21
28.08763360952866
 31
0.0
  0
LINE
  5
1F8
330
2
100
AcDbEntity
  8
GAIKEI
 62
     1
 48
0.013649
100
AcDbLine
 10
30.87464405270003
 20
27.58599800952868
 30
0.0
 11
30.87464405270003
 21
27.6951898095287
 31
0.0
  0
LINE
  5
1F9
330
2
100
AcDbEntity
  8
GAIKEI
 62
     1
 48
0.050059
100
AcDbLine
 10
30.87464405270003
 20
27.58599800952868
 30
0.0
 11
31.27464405270001
 21
27.56649720952868
 31
0.0
  0
LINE
  5
1FA
330
2
100
AcDbEntity
  8
GAIKEI
 62
     1
 48
0.116981
100
AcDbLine
 10
31.27464405270001
 20
27.56649720952868
 30
0.0
 11
31.27464405270001
 21
26.63065120952871
 31
0.0
  0
LINE
  5
1FB
330
2
100
AcDbEntity
  8
GAIKEI
 62
     1
 48
0.18125
100
AcDbLine
 10
31.27464405270001
 20
26.63065120952871
 30
0.0
 11
31.27464405270001
 21
25.18065120952866
 31
0.0
  0
LINE
  5
1FC
330
2
100
AcDbEntity
  8
GAIKEI
 62
     7
 48
0.082867
100
AcDbLine
 10
29.65170705269997
 20
11.48065120952867
 30
0.0
 11
30.31464645270001
 21
11.48065120952867
 31
0.0
  0
LINE
  5
1FD
330
2
100
AcDbEntity
  8
GAIKEI
 62
     1
 48
0.249657
100
AcDbLine
 10
22.21464645269998
 20
10.43065120952866
 30
0.0
 11
22.21464645269998
 21
12.42791080952867
 31
0.0
  0
LINE
  5
1FE
330
2
100
AcDbEntity
  8
GAIKEI
 62
     7
100
AcDbLine
 10
28.21932165269999
 20
10.74534240952869
 30
0.0
 11
22.21464645269998
 21
10.43065120952866
 31
0.0
  0
LWPOLYLINE
  5
1FF
330
2
100
AcDbEntity
  8
GAIKEI
 62
     1
100
AcDbPolyline
 90
       11
 70
     0
 43
0.0
 10
28.21932165270005
 20
10.74534240952869
 10
28.22070725270004
 20
10.74559260952873
 10
28.22207445270004
 20
10.7462030095287
 10
28.22476605270003
 20
10.74851320952871
 10
28.23020425270005
 20
10.75815680952871
 10
28.24183145270001
 20
10.80842220952871
 10
28.25410565269999
 20
10.94301700952871
 10
28.26199745270003
 20
11.22334840952874
 10
28.25842085270006
 20
11.6998498095287
 10
28.23699745270005
 20
12.36897820952868
 10
28.21932165270005
 20
12.74260200952869
  0
ARC
  5
200
330
2
100
AcDbEntity
  8
GAIKEI
 62
     7
100
AcDbCircle
 10
29.38466605270003
 20
28.15991760952869
 30
0.0
 40
0.7293072000000001
100
AcDbArc
 50
356.7600409999995
 51
2.264524999999474
  0
LWPOLYLINE
  5
201
330
2
100
AcDbEntity
  8
GAIKEI
 62
     1
100
AcDbPolyline
 90
       12
 70
     0
 43
0.0
 10
28.21932165270005
 20
28.11870060952868
 10
28.23761405270005
 20
28.5069268095287
 10
28.25121865270001
 20
28.88034600952869
 10
28.25938525269999
 20
29.2120050095287
 10
28.26244925270004
 20
29.5051324095287
 10
28.26083165270006
 20
29.72347340952871
 10
28.25519825270004
 20
29.89776540952869
 10
28.2479594527
 20
30.00170220952873
 10
28.2383952527
 20
30.07292420952871
 10
28.23063765270001
 20
30.10206240952868
 10
28.22515665270003
 20
30.1123224095287
 10
28.21932165270005
 20
30.11596000952869
  0
LINE
  5
202
330
2
100
AcDbEntity
  8
GAIKEI
 62
     7
100
AcDbLine
 10
28.21932165269999
 20
30.11596000952869
 30
0.0
 11
22.21464645269998
 21
30.43065120952866
 31
0.0
  0
LWPOLYLINE
  5
203
330
2
100
AcDbEntity
  8
GAIKEI
 62
     1
100
AcDbPolyline
 90
       36
 70
     0
 43
0.0
 10
29.65170705270003
 20
11.48065120952867
 10
29.6454936527
 20
11.48165840952867
 10
29.63952445270002
 20
11.48469480952872
 10
29.6338114527
 20
11.48977900952871
 10
29.62838545270006
 20
11.49692020952869
 10
29.62325845270004
 20
11.5061272095287
 10
29.61844885270006
 20
11.5174004095287
 10
29.61396885270005
 20
11.53073060952869
 10
29.60984305270006
 20
11.5461084095287
 10
29.60608325270005
 20
11.56351260952868
 10
29.60270185270002
 20
11.58292480952872
 10
29.59971105270006
 20
11.6043054095287
 10
29.59712925270003
 20
11.6276238095287
 10
29.59495645270005
 20
11.65283440952873
 10
29.59321085270005
 20
11.67988220952873
 10
29.5918924527
 20
11.70871820952868
 10
29.59101365269999
 20
11.73927540952871
 10
29.59057425270004
 20
11.77148380952871
 10
29.59057425270004
 20
11.80526980952868
 10
29.59101365269999
 20
11.84055120952871
 10
29.5918924527
 20
11.87724540952871
 10
29.59321085270005
 20
11.91526120952869
 10
29.59495645270005
 20
11.95450380952872
 10
29.59712925270003
 20
11.9948816095287
 10
29.59971105270006
 20
12.03629080952868
 10
29.60270185270002
 20
12.07863700952873
 10
29.60608325270005
 20
12.12181340952872
 10
29.60984305270006
 20
12.16571600952869
 10
29.61396885270005
 20
12.21024720952869
 10
29.61844885270006
 20
12.2552942095287
 10
29.62325845270004
 20
12.30075620952868
 10
29.62838545270006
 20
12.34652640952868
 10
29.6338114527
 20
12.39250420952874
 10
29.63952445270002
 20
12.43858580952872
 10
29.6454936527
 20
12.4846674095287
 10
29.65170705270003
 20
12.53065120952868
  0
LINE
  5
204
330
2
100
AcDbEntity
  8
GAIKEI
 62
     1
 48
0.4154720000000001
100
AcDbLine
 10
29.3546488527
 20
10.63065120952865
 30
0.0
 11
26.03087565270005
 21
10.63065120952865
 31
0.0
  0
LINE
  5
205
330
2
100
AcDbEntity
  8
GAIKEI
 62
     1
 48
0.075218
100
AcDbLine
 10
31.27464405270001
 20
25.37890560952866
 30
0.0
 11
31.27464405270001
 21
25.98065120952867
 31
0.0
  0
ARC
  5
206
330
2
100
AcDbEntity
  8
GAIKEI
 62
     1
100
AcDbCircle
 10
29.3546488527
 20
10.49065180952868
 30
0.0
 40
0.06
100
AcDbArc
 50
270.0000009999981
 51
0.0
  0
LINE
  5
207
330
2
100
AcDbEntity
  8
GAIKEI
 62
     1
 48
0.0075
100
AcDbLine
 10
29.41464645270002
 20
10.63065120952865
 30
0.0
 11
29.3546488527
 21
10.63065120952865
 31
0.0
  0
LINE
  5
208
330
2
100
AcDbEntity
  8
GAIKEI
 62
     1
 48
0.0175
100
AcDbLine
 10
29.41464645270002
 20
10.49065180952868
 30
0.0
 11
29.41464645270002
 21
10.63065120952865
 31
0.0
  0
LINE
  5
209
330
2
100
AcDbEntity
  8
GAIKEI
 62
     1
 48
0.186712
100
AcDbLine
 10
31.3146464527
 20
27.28041920952871
 30
0.0
 11
31.3146464527
 21
28.77411440952869
 31
0.0
  0
LINE
  5
20A
330
2
100
AcDbEntity
  8
GAIKEI
 62
     1
 48
0.186712
100
AcDbLine
 10
31.3146464527
 20
24.48718800952867
 30
0.0
 11
31.3146464527
 21
25.98088320952866
 31
0.0
  0
LINE
  5
20B
330
2
100
AcDbEntity
  8
GAIKEI
 62
     1
 48
0.0125
100
AcDbLine
 10
22.11464645270002
 20
12.42791080952867
 30
0.0
 11
22.21464645269998
 21
12.42791080952867
 31
0.0
  0
LINE
  5
20C
330
2
100
AcDbEntity
  8
GAIKEI
 62
     1
 48
0.07401
100
AcDbLine
 10
29.41464645270002
 20
11.22273500952872
 30
0.0
 11
29.41464645270002
 21
10.63065120952865
 31
0.0
  0
LINE
  5
20D
330
2
100
AcDbEntity
  8
GAIKEI
 62
     1
 48
0.054332
100
AcDbLine
 10
22.64930225270001
 20
10.43065120952866
 30
0.0
 11
22.21464645269998
 21
10.43065120952866
 31
0.0
  0
LINE
  5
20E
330
2
100
AcDbEntity
  8
GAIKEI
 62
     1
100
AcDbLine
 10
29.3546488527
 20
10.43065120952866
 30
0.0
 11
23.75998945269998
 21
10.43065120952866
 31
0.0
  0
LINE
  5
20F
330
2
100
AcDbEntity
  8
GAIKEI
 62
     1
 48
0.002663
100
AcDbLine
 10
31.27464405270001
 20
27.56649720952868
 30
0.0
 11
31.27464405270001
 21
27.58779840952872
 31
0.0
  0
ARC
  5
210
330
2
100
AcDbEntity
  8
GAIKEI
 62
     1
100
AcDbCircle
 10
31.11464645270002
 20
24.48718800952867
 30
0.0
 40
0.2
100
AcDbArc
 50
343.6550669999999
 51
0.0
  0
LINE
  5
211
330
2
100
AcDbEntity
  8
GAIKEI
 62
     1
 48
0.249657
100
AcDbLine
 10
22.21464645269998
 20
28.4333918095287
 30
0.0
 11
22.21464645269998
 21
30.43065120952866
 31
0.0
  0
ARC
  5
212
330
2
100
AcDbEntity
  8
GAIKEI
 62
     1
100
AcDbCircle
 10
28.11464025269998
 20
12.74260200952869
 30
0.0
 40
1.5516098
100
AcDbArc
 50
352.1488169999996
 51
359.9999830000006
  0
ARC
  5
213
330
2
100
AcDbEntity
  8
GAIKEI
 62
     7
100
AcDbCircle
 10
28.11464645270002
 20
12.74260200952869
 30
0.0
 40
2.0
100
AcDbArc
 50
273.0000110000005
 51
320.8778889999991
  0
LINE
  5
214
330
2
100
AcDbEntity
  8
GAIKEI
 62
     1
 48
0.0125
100
AcDbLine
 10
22.11464645270002
 20
28.4333918095287
 30
0.0
 11
22.21464645269998
 21
28.4333918095287
 31
0.0
  0
ARC
  5
215
330
2
100
AcDbEntity
  8
GAIKEI
 62
     1
100
AcDbCircle
 10
31.0546122527
 20
19.79163140952869
 30
0.0
 40
0.0600274
100
AcDbArc
 50
1.815151000000363
 51
87.47770199999939
  0
ARC
  5
216
330
2
100
AcDbEntity
  8
GAIKEI
 62
     1
100
AcDbCircle
 10
31.0546122527
 20
18.08388300952868
 30
0.0
 40
0.0600274
100
AcDbArc
 50
272.5223080000007
 51
358.1848459999997
  0
LINE
  5
217
330
2
100
AcDbEntity
  8
GAIKEI
 62
     1
 48
0.150742
100
AcDbLine
 10
31.1181376527
 20
28.97408380952868
 30
0.0
 11
29.91238805270001
 21
28.99512880952869
 31
0.0
  0
LINE
  5
218
330
2
100
AcDbEntity
  8
GAIKEI
 62
     1
 48
0.095014
100
AcDbLine
 10
30.87464405270003
 20
28.08763360952866
 30
0.0
 11
30.11464645270002
 21
28.10089660952866
 31
0.0
  0
LINE
  5
219
330
2
100
AcDbEntity
  8
GAIKEI
 62
     1
 48
0.145022
100
AcDbLine
 10
31.27464405270001
 20
25.18065120952866
 30
0.0
 11
30.11464645270002
 21
25.1604058095287
 31
0.0
  0
LINE
  5
21A
330
2
100
AcDbEntity
  8
GAIKEI
 62
     1
 48
0.012502
100
AcDbLine
 10
22.11464645270002
 20
10.6723962095287
 30
0.0
 11
22.21464645269998
 21
10.6706506095287
 31
0.0
  0
LINE
  5
21B
330
2
100
AcDbEntity
  8
GAIKEI
 62
     1
 48
0.000226
100
AcDbLine
 10
31.2746500527
 20
27.58779840952872
 30
0.0
 11
31.27645665270001
 21
27.58771300952867
 31
0.0
  0
ARC
  5
21C
330
2
100
AcDbEntity
  8
GAIKEI
 62
     1
100
AcDbCircle
 10
31.11464645270002
 20
28.77411440952869
 30
0.0
 40
0.2
100
AcDbArc
 50
0.0
 51
89.00000100000212
  0
LINE
  5
21D
330
2
100
AcDbEntity
  8
GAIKEI
 62
     1
 48
0.055097
100
AcDbLine
 10
30.85538745270003
 20
19.8541254095287
 30
0.0
 11
30.41464645270003
 21
19.8595696095287
 31
0.0
  0
LINE
  5
21E
330
2
100
AcDbEntity
  8
GAIKEI
 62
     1
 48
0.060004
100
AcDbLine
 10
31.05538745270002
 20
19.85165960952867
 30
0.0
 11
30.57538865269999
 21
19.85758600952869
 31
0.0
  0
LINE
  5
21F
330
2
100
AcDbEntity
  8
GAIKEI
 62
     1
 48
0.052414
100
AcDbLine
 10
30.63610645270001
 20
18.01868220952866
 30
0.0
 11
31.05538745270002
 21
18.02385800952868
 31
0.0
  0
LINE
  5
220
330
2
100
AcDbEntity
  8
GAIKEI
 62
     1
 48
0.012502
100
AcDbLine
 10
22.11464645270002
 20
30.18890920952868
 30
0.0
 11
22.21464645269998
 21
30.19065480952867
 31
0.0
  0
LINE
  5
221
330
2
100
AcDbEntity
  8
GAIKEI
 62
     7
 48
0.000085
100
AcDbLine
 10
30.1139688527
 20
24.5006524095287
 30
0.0
 11
30.11464645270002
 21
24.5006524095287
 31
0.0
  0
LINE
  5
222
330
2
100
AcDbEntity
  8
GAIKEI
 62
     1
 48
0.13
100
AcDbLine
 10
30.11464645270002
 20
24.5006524095287
 30
0.0
 11
31.15464885270001
 21
24.5006524095287
 31
0.0
  0
LINE
  5
223
330
2
100
AcDbEntity
  8
GAIKEI
 62
     1
 48
0.13
100
AcDbLine
 10
30.11464645270002
 20
21.56065000952867
 30
0.0
 11
31.15464885270001
 21
21.56065000952867
 31
0.0
  0
LINE
  5
224
330
2
100
AcDbEntity
  8
GAIKEI
 62
     7
 48
0.000085
100
AcDbLine
 10
30.11464645270002
 20
21.56065000952867
 30
0.0
 11
30.1139688527
 21
21.56065000952867
 31
0.0
  0
LINE
  5
225
330
2
100
AcDbEntity
  8
GAIKEI
 62
     1
 48
0.139354
100
AcDbLine
 10
30.0398172527
 20
23.90065240952868
 30
0.0
 11
31.15464885270001
 21
23.90065240952868
 31
0.0
  0
LWPOLYLINE
  5
226
330
2
100
AcDbEntity
  8
GAIKEI
 62
     7
100
AcDbPolyline
 90
       24
 70
     0
 43
0.0
 10
30.0398172527
 20
23.90065240952868
 10
30.04017125270002
 20
23.93923880952872
 10
30.04120885270004
 20
23.97765440952867
 10
30.04291785270004
 20
24.0157220095287
 10
30.04526785270002
 20
24.05328920952872
 10
30.04820365270001
 20
24.09018500952868
 10
30.05167645270001
 20
24.1262566095287
 10
30.05561325270003
 20
24.16137020952869
 10
30.05994065270005
 20
24.19537300952868
 10
30.06458545270005
 20
24.22814260952873
 10
30.06944985270002
 20
24.25955740952872
 10
30.07446085270004
 20
24.28949520952869
 10
30.07952685270004
 20
24.31785220952872
 10
30.08454385270005
 20
24.34450620952873
 10
30.08943885270003
 20
24.36935980952871
 10
30.09411425270002
 20
24.39232120952869
 10
30.09848425270002
 20
24.41329280952869
 10
30.10247605270001
 20
24.43218320952872
 10
30.10601005270002
 20
24.44891900952871
 10
30.10901285270001
 20
24.4634210095287
 10
30.1114238527
 20
24.47561580952868
 10
30.11319385270002
 20
24.4854486095287
 10
30.11428025270004
 20
24.4928644095287
 10
30.11464645270002
 20
24.49783880952873
  0
LINE
  5
227
330
2
100
AcDbEntity
  8
GAIKEI
 62
     7
 48
0.000352
100
AcDbLine
 10
30.11464645270002
 20
24.5006524095287
 30
0.0
 11
30.11464645270002
 21
24.49783880952868
 31
0.0
  0
LINE
  5
228
330
2
100
AcDbEntity
  8
GAIKEI
 62
     7
 48
0.000352
100
AcDbLine
 10
30.11464645270002
 20
21.56346380952868
 30
0.0
 11
30.11464645270002
 21
21.56065000952867
 31
0.0
  0
LINE
  5
229
330
2
100
AcDbEntity
  8
GAIKEI
 62
     7
 48
0.2175
100
AcDbLine
 10
30.0398172527
 20
23.90065240952868
 30
0.0
 11
30.0398172527
 21
22.1606500095287
 31
0.0
  0
LINE
  5
22A
330
2
100
AcDbEntity
  8
GAIKEI
 62
     1
 48
0.139354
100
AcDbLine
 10
30.0398172527
 20
22.1606500095287
 30
0.0
 11
31.15464885270001
 21
22.1606500095287
 31
0.0
  0
LWPOLYLINE
  5
22B
330
2
100
AcDbEntity
  8
GAIKEI
 62
     7
100
AcDbPolyline
 90
       24
 70
     0
 43
0.0
 10
30.0398172527
 20
22.1606500095287
 10
30.04017125270002
 20
22.12206360952871
 10
30.04120885270004
 20
22.0836480095287
 10
30.04291785270004
 20
22.04558040952873
 10
30.04526785270002
 20
22.00801320952871
 10
30.04820365270001
 20
21.97111760952873
 10
30.05167645270001
 20
21.93504580952867
 10
30.05561325270003
 20
21.89993220952869
 10
30.05994065270005
 20
21.86592960952873
 10
30.06458545270005
 20
21.83315980952869
 10
30.06944985270002
 20
21.8017450095287
 10
30.07446085270004
 20
21.77180120952869
 10
30.07952685270004
 20
21.7434502095287
 10
30.08454385270005
 20
21.7167962095287
 10
30.08943885270003
 20
21.69194280952871
 10
30.09411425270002
 20
21.66898140952867
 10
30.09848425270002
 20
21.64800960952868
 10
30.10247605270001
 20
21.62911920952871
 10
30.10601005270002
 20
21.61238340952872
 10
30.10901285270001
 20
21.59788140952873
 10
30.1114238527
 20
21.5856866095287
 10
30.11319385270002
 20
21.57585380952872
 10
30.11428025270004
 20
21.56843800952868
 10
30.11464645270002
 20
21.56346380952868
  0
ARC
  5
22C
330
2
100
AcDbEntity
  8
GAIKEI
 62
     1
100
AcDbCircle
 10
31.15464885270001
 20
24.30065240952871
 30
0.0
 40
0.2
100
AcDbArc
 50
0.0
 51
90.00000299999769
  0
LINE
  5
22D
330
2
100
AcDbEntity
  8
GAIKEI
 62
     1
 48
0.025
100
AcDbLine
 10
31.15464885270001
 20
23.90065240952868
 30
0.0
 11
31.3546488527
 21
23.90065240952868
 31
0.0
  0
LINE
  5
22E
330
2
100
AcDbEntity
  8
GAIKEI
 62
     1
 48
0.05
100
AcDbLine
 10
31.3546488527
 20
24.30065240952871
 30
0.0
 11
31.3546488527
 21
23.90065240952868
 31
0.0
  0
LINE
  5
22F
330
2
100
AcDbEntity
  8
GAIKEI
 62
     1
 48
0.025
100
AcDbLine
 10
31.15464885270001
 20
22.1606500095287
 30
0.0
 11
31.3546488527
 21
22.1606500095287
 31
0.0
  0
LINE
  5
230
330
2
100
AcDbEntity
  8
GAIKEI
 62
     1
 48
0.10875
100
AcDbLine
 10
31.3546488527
 20
22.1606500095287
 30
0.0
 11
31.3546488527
 21
23.03065120952869
 31
0.0
  0
LINE
  5
231
330
2
100
AcDbEntity
  8
GAIKEI
 62
     1
 48
0.10875
100
AcDbLine
 10
31.3546488527
 20
23.03065120952869
 30
0.0
 11
31.3546488527
 21
23.90065240952868
 31
0.0
  0
ARC
  5
232
330
2
100
AcDbEntity
  8
GAIKEI
 62
     1
100
AcDbCircle
 10
31.15464885270001
 20
21.76065000952872
 30
0.0
 40
0.2
100
AcDbArc
 50
270.0000009999981
 51
0.0
  0
LINE
  5
233
330
2
100
AcDbEntity
  8
GAIKEI
 62
     1
 48
0.05
100
AcDbLine
 10
31.3546488527
 20
22.1606500095287
 30
0.0
 11
31.3546488527
 21
21.76065000952872
 31
0.0
  0
LINE
  5
234
330
2
100
AcDbEntity
  8
GAIKEI
 62
     1
 48
0.225
100
AcDbLine
 10
31.3546488527
 20
21.83065120952869
 30
0.0
 11
31.3546488527
 21
23.63065120952871
 31
0.0
  0
LINE
  5
235
330
2
100
AcDbEntity
  8
GAIKEI
 62
     1
 48
0.075
100
AcDbLine
 10
31.3546488527
 20
23.63065120952871
 30
0.0
 11
31.3546488527
 21
24.23065120952867
 31
0.0
  0
LINE
  5
236
330
2
100
AcDbEntity
  8
GAIKEI
 62
     1
 48
0.225
100
AcDbLine
 10
31.27464405270001
 20
26.03065120952869
 30
0.0
 11
31.27464405270001
 21
27.8306512095287
 31
0.0
  0
LINE
  5
237
330
2
100
AcDbEntity
  8
GAIKEI
 62
     1
 48
0.075
100
AcDbLine
 10
31.27464405270001
 20
25.43065120952866
 30
0.0
 11
31.27464405270001
 21
26.03065120952869
 31
0.0
  0
LINE
  5
238
330
2
100
AcDbEntity
  8
GAIKEI
 62
     1
 48
0.0125
100
AcDbLine
 10
31.17464405270005
 20
27.8306512095287
 30
0.0
 11
31.27464405270001
 21
27.8306512095287
 31
0.0
  0
LINE
  5
239
330
2
100
AcDbEntity
  8
GAIKEI
 62
     1
 48
0.029759
100
AcDbLine
 10
31.17464405270005
 20
27.5925774095287
 30
0.0
 11
31.17464405270005
 21
27.8306512095287
 31
0.0
  0
LINE
  5
23A
330
2
100
AcDbEntity
  8
GAIKEI
 62
     1
 48
0.042297
100
AcDbLine
 10
31.3546488527
 20
23.68065120952866
 30
0.0
 11
31.3546488527
 21
23.34227840952866
 31
0.0
  0
LINE
  5
23B
330
2
100
AcDbEntity
  8
GAIKEI
 62
     1
 48
0.120203
100
AcDbLine
 10
31.3546488527
 20
23.34227840952866
 30
0.0
 11
31.3546488527
 21
22.38065120952871
 31
0.0
  0
LINE
  5
23C
330
2
100
AcDbEntity
  8
GAIKEI
 62
     1
 48
0.028463
100
AcDbLine
 10
31.53265785270003
 20
23.46805960952867
 30
0.0
 11
31.53265785270003
 21
23.2403558095287
 31
0.0
  0
LINE
  5
23D
330
2
100
AcDbEntity
  8
GAIKEI
 62
     1
 48
0.080889
100
AcDbLine
 10
31.53265785270003
 20
23.2403558095287
 30
0.0
 11
31.53265785270003
 21
22.59324280952871
 31
0.0
  0
LINE
  5
23E
330
2
100
AcDbEntity
  8
GAIKEI
 62
     1
 48
0.01104
100
AcDbLine
 10
31.77464405270001
 20
22.97065360952871
 30
0.0
 11
31.77464405270001
 21
22.88232960952871
 31
0.0
  0
LINE
  5
23F
330
2
100
AcDbEntity
  8
GAIKEI
 62
     1
 48
0.008952
100
AcDbLine
 10
31.77464405270001
 20
23.17897280952866
 30
0.0
 11
31.77464405270001
 21
23.10736020952868
 31
0.0
  0
LINE
  5
240
330
2
100
AcDbEntity
  8
GAIKEI
 62
     1
 48
0.002089
100
AcDbLine
 10
31.77464405270001
 20
23.10736020952868
 30
0.0
 11
31.77464405270001
 21
23.09064880952872
 31
0.0
  0
LINE
  5
241
330
2
100
AcDbEntity
  8
GAIKEI
 62
     1
 48
0.000359
100
AcDbLine
 10
31.77177525269997
 20
22.97065360952871
 30
0.0
 11
31.77464405270001
 21
22.97065360952871
 31
0.0
  0
LINE
  5
242
330
2
100
AcDbEntity
  8
GAIKEI
 62
     1
 48
0.014999
100
AcDbLine
 10
31.77177525269997
 20
22.97065360952871
 30
0.0
 11
31.77177525269997
 21
23.09064880952872
 31
0.0
  0
LINE
  5
243
330
2
100
AcDbEntity
  8
GAIKEI
 62
     1
 48
0.000359
100
AcDbLine
 10
31.77177525269997
 20
23.09064880952872
 30
0.0
 11
31.77464405270001
 21
23.09064880952872
 31
0.0
  0
ARC
  5
244
330
2
100
AcDbEntity
  8
GAIKEI
 62
     1
100
AcDbCircle
 10
31.46374305270001
 20
22.88199400952868
 30
0.0
 40
0.3109036000000001
100
AcDbArc
 50
352.211737
 51
0.0613219999994661
  0
LINE
  5
245
330
2
100
AcDbEntity
  8
GAIKEI
 62
     1
 48
0.001151
100
AcDbLine
 10
31.77177525269997
 20
22.8306512095287
 30
0.0
 11
31.77177525269997
 21
22.83986140952868
 31
0.0
  0
ARC
  5
246
330
2
100
AcDbEntity
  8
GAIKEI
 62
     1
100
AcDbCircle
 10
31.46374305270001
 20
22.88199400952868
 30
0.0
 40
0.3109036000000001
100
AcDbArc
 50
352.211737
 51
0.0613219999994661
  0
LINE
  5
247
330
2
100
AcDbEntity
  8
GAIKEI
 62
     1
 48
0.014999
100
AcDbLine
 10
31.77177525269997
 20
22.97065360952871
 30
0.0
 11
31.77177525269997
 21
23.09064880952872
 31
0.0
  0
ARC
  5
248
330
2
100
AcDbEntity
  8
GAIKEI
 62
     1
100
AcDbCircle
 10
31.46374305270001
 20
23.17930840952869
 30
0.0
 40
0.3109036000000001
100
AcDbArc
 50
359.9386749999995
 51
7.788267999999926
  0
LINE
  5
249
330
2
100
AcDbEntity
  8
GAIKEI
 62
     1
 48
0.001151
100
AcDbLine
 10
31.77177525269997
 20
23.22144100952869
 30
0.0
 11
31.77177525269997
 21
23.23065120952867
 31
0.0
  0
ARC
  5
24A
330
2
100
AcDbEntity
  8
GAIKEI
 62
     1
100
AcDbCircle
 10
31.46374305270001
 20
23.17930840952869
 30
0.0
 40
0.3109036000000001
100
AcDbArc
 50
359.9386749999995
 51
7.788267999999926
  0
LINE
  5
24B
330
2
100
AcDbEntity
  8
GAIKEI
 62
     1
 48
0.004343
100
AcDbLine
 10
31.38939005269998
 20
23.68065120952866
 30
0.0
 11
31.3546488527
 21
23.68065120952866
 31
0.0
  0
LINE
  5
24C
330
2
100
AcDbEntity
  8
GAIKEI
 62
     1
 48
0.004343
100
AcDbLine
 10
31.38939005269998
 20
22.38065120952871
 30
0.0
 11
31.3546488527
 21
22.38065120952871
 31
0.0
  0
ARC
  5
24D
330
2
100
AcDbEntity
  8
GAIKEI
 62
     1
100
AcDbCircle
 10
31.38939005269998
 20
23.62065360952869
 30
0.0
 40
0.06
100
AcDbArc
 50
15.94539500000026
 51
90.00000299999769
  0
ARC
  5
24E
330
2
100
AcDbEntity
  8
GAIKEI
 62
     1
100
AcDbCircle
 10
31.38939005269998
 20
22.44064880952868
 30
0.0
 40
0.06
100
AcDbArc
 50
270.0000009999981
 51
344.0546049999998
  0
LINE
  5
24F
330
2
100
AcDbEntity
  8
GAIKEI
 62
     1
 48
0.016395
100
AcDbLine
 10
31.48311565270001
 20
23.51102240952867
 30
0.0
 11
31.44708045269999
 21
23.63713320952866
 31
0.0
  0
LINE
  5
250
330
2
100
AcDbEntity
  8
GAIKEI
 62
     1
 48
0.016395
100
AcDbLine
 10
31.48311565270001
 20
22.55028020952869
 30
0.0
 11
31.44708045269999
 21
22.42416920952871
 31
0.0
  0
ARC
  5
251
330
2
100
AcDbEntity
  8
GAIKEI
 62
     1
100
AcDbCircle
 10
31.54080605270002
 20
23.5275018095287
 30
0.0
 40
0.06
100
AcDbArc
 50
195.9453950000002
 51
262.1976020000017
  0
ARC
  5
252
330
2
100
AcDbEntity
  8
GAIKEI
 62
     1
100
AcDbCircle
 10
31.54080605270002
 20
22.53380060952867
 30
0.0
 40
0.06
100
AcDbArc
 50
97.80240100000142
 51
164.054602
  0
ARC
  5
253
330
2
100
AcDbEntity
  8
GAIKEI
 62
     1
100
AcDbCircle
 10
31.49464525270003
 20
22.87065360952869
 30
0.0
 40
0.28
100
AcDbArc
 50
277.8023989999982
 51
351.7867900000006
  0
ARC
  5
254
330
2
100
AcDbEntity
  8
GAIKEI
 62
     1
100
AcDbCircle
 10
31.49464525270003
 20
23.19064880952868
 30
0.0
 40
0.28
100
AcDbArc
 50
8.213209999999353
 51
82.19759700000201
  0
LINE
  5
255
330
2
100
AcDbEntity
  8
GAIKEI
 62
     1
 48
0.042297
100
AcDbLine
 10
31.27464405270001
 20
27.28065120952869
 30
0.0
 11
31.27464405270001
 21
26.94227840952868
 31
0.0
  0
LINE
  5
256
330
2
100
AcDbEntity
  8
GAIKEI
 62
     1
 48
0.042297
100
AcDbLine
 10
31.3093852527
 20
27.28065120952869
 30
0.0
 11
31.3093852527
 21
26.94227840952868
 31
0.0
  0
LINE
  5
257
330
2
100
AcDbEntity
  8
GAIKEI
 62
     1
 48
0.120203
100
AcDbLine
 10
31.27464405270001
 20
26.94227840952868
 30
0.0
 11
31.27464405270001
 21
25.98065120952867
 31
0.0
  0
LINE
  5
258
330
2
100
AcDbEntity
  8
GAIKEI
 62
     1
 48
0.120203
100
AcDbLine
 10
31.3093852527
 20
26.94227840952868
 30
0.0
 11
31.3093852527
 21
25.98065120952867
 31
0.0
  0
LINE
  5
259
330
2
100
AcDbEntity
  8
GAIKEI
 62
     1
 48
0.028463
100
AcDbLine
 10
31.45265905270003
 20
27.06805960952869
 30
0.0
 11
31.45265905270003
 21
26.84035580952866
 31
0.0
  0
LINE
  5
25A
330
2
100
AcDbEntity
  8
GAIKEI
 62
     1
 48
0.080889
100
AcDbLine
 10
31.45265905270003
 20
26.84035580952866
 30
0.0
 11
31.45265905270003
 21
26.19324280952867
 31
0.0
  0
LINE
  5
25B
330
2
100
AcDbEntity
  8
GAIKEI
 62
     1
 48
0.01104
100
AcDbLine
 10
31.69464525270001
 20
26.57065360952868
 30
0.0
 11
31.69464525270001
 21
26.48232960952868
 31
0.0
  0
LINE
  5
25C
330
2
100
AcDbEntity
  8
GAIKEI
 62
     1
 48
0.008952
100
AcDbLine
 10
31.69464525270001
 20
26.77897280952868
 30
0.0
 11
31.69464525270001
 21
26.7073602095287
 31
0.0
  0
LINE
  5
25D
330
2
100
AcDbEntity
  8
GAIKEI
 62
     1
 48
0.002089
100
AcDbLine
 10
31.69464525270001
 20
26.7073602095287
 30
0.0
 11
31.69464525270001
 21
26.69064880952868
 31
0.0
  0
LINE
  5
25E
330
2
100
AcDbEntity
  8
GAIKEI
 62
     1
 48
0.000359
100
AcDbLine
 10
31.69177665270002
 20
26.57065360952868
 30
0.0
 11
31.69464525270001
 21
26.57065360952868
 31
0.0
  0
LINE
  5
25F
330
2
100
AcDbEntity
  8
GAIKEI
 62
     1
 48
0.014999
100
AcDbLine
 10
31.69177665270002
 20
26.57065360952868
 30
0.0
 11
31.69177665270002
 21
26.69064880952868
 31
0.0
  0
LINE
  5
260
330
2
100
AcDbEntity
  8
GAIKEI
 62
     1
 48
0.000359
100
AcDbLine
 10
31.69177665270002
 20
26.69064880952868
 30
0.0
 11
31.69464525270001
 21
26.69064880952868
 31
0.0
  0
ARC
  5
261
330
2
100
AcDbEntity
  8
GAIKEI
 62
     1
100
AcDbCircle
 10
31.38373825270003
 20
26.48199400952871
 30
0.0
 40
0.3109036000000001
100
AcDbArc
 50
352.211737
 51
0.0613219999994661
  0
LINE
  5
262
330
2
100
AcDbEntity
  8
GAIKEI
 62
     1
 48
0.001151
100
AcDbLine
 10
31.69177665270002
 20
26.43065120952866
 30
0.0
 11
31.69177665270002
 21
26.43986140952871
 31
0.0
  0
ARC
  5
263
330
2
100
AcDbEntity
  8
GAIKEI
 62
     1
100
AcDbCircle
 10
31.38373825270003
 20
26.48199400952871
 30
0.0
 40
0.3109036000000001
100
AcDbArc
 50
352.211737
 51
0.0613219999994661
  0
LINE
  5
264
330
2
100
AcDbEntity
  8
GAIKEI
 62
     1
 48
0.014999
100
AcDbLine
 10
31.69177665270002
 20
26.57065360952868
 30
0.0
 11
31.69177665270002
 21
26.69064880952868
 31
0.0
  0
ARC
  5
265
330
2
100
AcDbEntity
  8
GAIKEI
 62
     1
100
AcDbCircle
 10
31.38373825270003
 20
26.77930840952871
 30
0.0
 40
0.3109036000000001
100
AcDbArc
 50
359.9386749999995
 51
7.788267999999926
  0
LINE
  5
266
330
2
100
AcDbEntity
  8
GAIKEI
 62
     1
 48
0.001151
100
AcDbLine
 10
31.69177665270002
 20
26.82144100952871
 30
0.0
 11
31.69177665270002
 21
26.8306512095287
 31
0.0
  0
ARC
  5
267
330
2
100
AcDbEntity
  8
GAIKEI
 62
     1
100
AcDbCircle
 10
31.38373825270003
 20
26.77930840952871
 30
0.0
 40
0.3109036000000001
100
AcDbArc
 50
359.9386749999995
 51
7.788267999999926
  0
LINE
  5
268
330
2
100
AcDbEntity
  8
GAIKEI
 62
     1
 48
0.004343
100
AcDbLine
 10
31.3093852527
 20
27.28065120952869
 30
0.0
 11
31.27464405270001
 21
27.28065120952869
 31
0.0
  0
LINE
  5
269
330
2
100
AcDbEntity
  8
GAIKEI
 62
     1
 48
0.004343
100
AcDbLine
 10
31.3093852527
 20
25.98065120952867
 30
0.0
 11
31.27464405270001
 21
25.98065120952867
 31
0.0
  0
ARC
  5
26A
330
2
100
AcDbEntity
  8
GAIKEI
 62
     1
100
AcDbCircle
 10
31.3093852527
 20
27.22065360952871
 30
0.0
 40
0.06
100
AcDbArc
 50
15.94539500000026
 51
90.00000299999769
  0
ARC
  5
26B
330
2
100
AcDbEntity
  8
GAIKEI
 62
     1
100
AcDbCircle
 10
31.3093852527
 20
26.04064880952871
 30
0.0
 40
0.06
100
AcDbArc
 50
270.0000009999981
 51
344.0546049999998
  0
LINE
  5
26C
330
2
100
AcDbEntity
  8
GAIKEI
 62
     1
 48
0.016395
100
AcDbLine
 10
31.40311085270003
 20
27.11102240952869
 30
0.0
 11
31.36708165269999
 21
27.23713320952868
 31
0.0
  0
LINE
  5
26D
330
2
100
AcDbEntity
  8
GAIKEI
 62
     1
 48
0.016395
100
AcDbLine
 10
31.40311085270003
 20
26.15028020952866
 30
0.0
 11
31.36708165269999
 21
26.02416920952868
 31
0.0
  0
ARC
  5
26E
330
2
100
AcDbEntity
  8
GAIKEI
 62
     1
100
AcDbCircle
 10
31.46080125269998
 20
27.12750180952867
 30
0.0
 40
0.06
100
AcDbArc
 50
195.9453950000002
 51
262.1976020000017
  0
ARC
  5
26F
330
2
100
AcDbEntity
  8
GAIKEI
 62
     1
100
AcDbCircle
 10
31.46080125269998
 20
26.13380060952869
 30
0.0
 40
0.06
100
AcDbArc
 50
97.80240100000142
 51
164.054602
  0
ARC
  5
270
330
2
100
AcDbEntity
  8
GAIKEI
 62
     1
100
AcDbCircle
 10
31.41464645270003
 20
26.47065360952871
 30
0.0
 40
0.28
100
AcDbArc
 50
277.8023989999982
 51
351.7867900000006
  0
ARC
  5
271
330
2
100
AcDbEntity
  8
GAIKEI
 62
     1
100
AcDbCircle
 10
31.41464645270003
 20
26.7906488095287
 30
0.0
 40
0.28
100
AcDbArc
 50
8.213209999999353
 51
82.19759700000201
  0
ARC
  5
272
330
2
100
AcDbEntity
  8
GAIKEI
 62
     1
100
AcDbCircle
 10
23.20466725270001
 20
12.97069640952867
 30
0.0
 40
2.6000496
100
AcDbArc
 50
245.2139549999982
 51
247.6185910000015
  0
ARC
  5
273
330
2
100
AcDbEntity
  8
GAIKEI
 62
     1
100
AcDbCircle
 10
23.20464885270002
 20
12.97065360952865
 30
0.0
 40
2.6000038
100
AcDbArc
 50
255.8735569999993
 51
270.0000009999981
  0
ARC
  5
274
330
2
100
AcDbEntity
  8
GAIKEI
 62
     1
100
AcDbCircle
 10
23.20464885270002
 20
12.97065360952865
 30
0.0
 40
2.600002
100
AcDbArc
 50
270.0000009999981
 51
290.1264370000017
  0
ARC
  5
275
330
2
100
AcDbEntity
  8
GAIKEI
 62
     1
100
AcDbCircle
 10
23.81964525270001
 20
12.97065360952865
 30
0.0
 40
2.6000018
100
AcDbArc
 50
263.2078970000007
 51
270.0000009999981
  0
ARC
  5
276
330
2
100
AcDbEntity
  8
GAIKEI
 62
     1
100
AcDbCircle
 10
23.81964525270001
 20
12.97065060952866
 30
0.0
 40
2.5999998
100
AcDbArc
 50
270.0000009999981
 51
282.3328089999986
  0
ARC
  5
277
330
2
100
AcDbEntity
  8
GAIKEI
 62
     1
100
AcDbCircle
 10
23.77464405270001
 20
12.97065980952868
 30
0.0
 40
2.600007399999999
100
AcDbArc
 50
263.7071289999981
 51
270.0000009999981
  0
LINE
  5
278
330
2
100
AcDbEntity
  8
GAIKEI
 62
     1
 48
0.002802
100
AcDbLine
 10
23.77464405270001
 20
10.37065060952869
 30
0.0
 11
23.79706225270002
 21
10.3707482095287
 31
0.0
  0
LINE
  5
279
330
2
100
AcDbEntity
  8
GAIKEI
 62
     7
 48
0.017831
100
AcDbLine
 10
37.55529453686055
 20
24.57065231649977
 30
0.0
 11
37.65704145270002
 21
24.6706354095287
 31
0.0
  0
LINE
  5
27A
330
2
100
AcDbEntity
  8
GAIKEI
 62
     7
 48
0.362557
100
AcDbLine
 10
37.65704145270002
 20
24.6706354095287
 30
0.0
 11
37.70766405270001
 21
27.57064760952869
 31
0.0
  0
LINE
  5
27B
330
2
100
AcDbEntity
  8
GAIKEI
 62
     1
 48
0.098458
100
AcDbLine
 10
31.3146464527
 20
24.42064760952872
 30
0.0
 11
31.3146464527
 21
25.20831240952868
 31
0.0
  0
LINE
  5
27C
330
2
100
AcDbEntity
  8
GAIKEI
 62
     1
 48
0.096571
100
AcDbLine
 10
31.3146464527
 20
25.98087700952869
 30
0.0
 11
31.3146464527
 21
25.20831240952868
 31
0.0
  0
LINE
  5
27D
330
2
100
AcDbEntity
  8
GAIKEI
 62
     1
 48
0.150029
100
AcDbLine
 10
31.3146464527
 20
27.28041920952871
 30
0.0
 11
31.3146464527
 21
28.48065120952867
 31
0.0
  0
LINE
  5
27E
330
2
100
AcDbEntity
  8
GAIKEI
 62
     1
 48
0.0075
100
AcDbLine
 10
31.35464285270001
 20
23.86065000952868
 30
0.0
 11
31.41464645270003
 21
23.86065000952868
 31
0.0
  0
LINE
  5
27F
330
2
100
AcDbEntity
  8
GAIKEI
 62
     1
 48
0.0125
100
AcDbLine
 10
31.41464645270003
 20
25.20831240952868
 30
0.0
 11
31.3146464527
 21
25.20831240952868
 31
0.0
  0
LINE
  5
280
330
2
100
AcDbEntity
  8
GAIKEI
 62
     1
 48
0.002227
100
AcDbLine
 10
31.41464645270003
 20
27.13298880952868
 30
0.0
 11
31.3968302527
 21
27.13298880952868
 31
0.0
  0
LINE
  5
281
330
2
100
AcDbEntity
  8
GAIKEI
 62
     1
 48
0.0125
100
AcDbLine
 10
31.3146464527
 20
28.48065120952867
 30
0.0
 11
31.41464645270003
 21
28.48065120952867
 31
0.0
  0
LINE
  5
282
330
2
100
AcDbEntity
  8
GAIKEI
 62
     1
 48
0.034421
100
AcDbLine
 10
31.41464645270003
 20
27.0891718095287
 30
0.0
 11
31.41464645270003
 21
27.3645380095287
 31
0.0
  0
LINE
  5
283
330
2
100
AcDbEntity
  8
GAIKEI
 62
     1
 48
0.298657
100
AcDbLine
 10
31.41464645270003
 20
23.78287300952871
 30
0.0
 11
31.41464645270003
 21
26.17213080952865
 31
0.0
  0
LINE
  5
284
330
2
100
AcDbEntity
  8
GAIKEI
 62
     1
 48
0.149236
100
AcDbLine
 10
31.41464645270003
 20
27.3645380095287
 30
0.0
 11
31.41464645270003
 21
28.55842840952869
 31
0.0
  0
LINE
  5
285
330
2
100
AcDbEntity
  8
GAIKEI
 62
     1
 48
0.149655
100
AcDbLine
 10
33.21464645269998
 20
27.36789480952871
 30
0.0
 11
33.21464645269998
 21
28.56513600952866
 31
0.0
  0
LINE
  5
286
330
2
100
AcDbEntity
  8
GAIKEI
 62
     1
 48
0.448966
100
AcDbLine
 10
33.21464645269998
 20
23.7761652095287
 30
0.0
 11
33.21464645269998
 21
27.36789480952871
 31
0.0
  0
ARC
  5
287
330
2
100
AcDbEntity
  8
GAIKEI
 62
     1
100
AcDbCircle
 10
31.51464645269999
 20
23.78287300952871
 30
0.0
 40
0.1
100
AcDbArc
 50
180.0000050000005
 51
269.5000040000003
  0
ARC
  5
288
330
2
100
AcDbEntity
  8
GAIKEI
 62
     1
100
AcDbCircle
 10
33.01464645269999
 20
23.7761652095287
 30
0.0
 40
0.2
100
AcDbArc
 50
273.0000110000005
 51
0.000009999999378
  0
LINE
  5
289
330
2
100
AcDbEntity
  8
GAIKEI
 62
     1
 48
0.162138
100
AcDbLine
 10
33.02511405270002
 20
27.46775440952871
 30
0.0
 11
33.02511405270002
 21
28.76486140952869
 31
0.0
  0
LINE
  5
28A
330
2
100
AcDbEntity
  8
GAIKEI
 62
     1
 48
0.486414
100
AcDbLine
 10
33.02511405270002
 20
23.57643980952866
 30
0.0
 11
33.02511405270002
 21
27.46775440952871
 31
0.0
  0
LINE
  5
28B
330
2
100
AcDbEntity
  8
GAIKEI
 62
     1
 48
0.01261
100
AcDbLine
 10
31.51377365270003
 20
23.68287900952868
 30
0.0
 11
31.61464645270001
 21
23.68199400952869
 31
0.0
  0
LINE
  5
28C
330
2
100
AcDbEntity
  8
GAIKEI
 62
     1
 48
0.013827
100
AcDbLine
 10
32.91464645270003
 20
23.57065360952868
 30
0.0
 11
33.02511405270002
 21
23.57643980952866
 31
0.0
  0
LINE
  5
28D
330
2
100
AcDbEntity
  8
GAIKEI
 62
     1
 48
0.000092
100
AcDbLine
 10
32.91464645270003
 20
28.76991520952868
 30
0.0
 11
32.91464645270003
 21
28.77064760952868
 31
0.0
  0
LINE
  5
28E
330
2
100
AcDbEntity
  8
GAIKEI
 62
     1
 48
0.000253
100
AcDbLine
 10
32.91464645270003
 20
28.76789480952869
 30
0.0
 11
32.91464645270003
 21
28.76991520952868
 31
0.0
  0
LINE
  5
28F
330
2
100
AcDbEntity
  8
GAIKEI
 62
     1
 48
0.016014
100
AcDbLine
 10
31.61464645270005
 20
23.67065360952882
 30
0.0
 11
31.61464645270001
 21
23.99156440952868
 31
0.0
  0
LINE
  5
290
330
2
100
AcDbEntity
  8
GAIKEI
 62
     1
 48
0.003541
100
AcDbLine
 10
31.61464645270001
 20
23.99156440952868
 30
0.0
 11
31.61464645270001
 21
24.01989080952871
 31
0.0
  0
LINE
  5
291
330
2
100
AcDbEntity
  8
GAIKEI
 62
     1
 48
0.020427
100
AcDbLine
 10
31.61464645270001
 20
24.01989080952871
 30
0.0
 11
31.61464645270001
 21
24.18330620952867
 31
0.0
  0
LINE
  5
292
330
2
100
AcDbEntity
  8
GAIKEI
 62
     1
 48
0.004361
100
AcDbLine
 10
31.61464645270001
 20
24.18330620952867
 30
0.0
 11
31.61464645270001
 21
24.2181940095287
 31
0.0
  0
LINE
  5
293
330
2
100
AcDbEntity
  8
GAIKEI
 62
     1
 48
0.024443
100
AcDbLine
 10
31.61464645270001
 20
24.2181940095287
 30
0.0
 11
31.61464645270001
 21
24.41373840952866
 31
0.0
  0
LINE
  5
294
330
2
100
AcDbEntity
  8
GAIKEI
 62
     1
 48
0.005095
100
AcDbLine
 10
31.61464645270001
 20
24.41373840952866
 30
0.0
 11
31.61464645270001
 21
24.45449760952869
 31
0.0
  0
LINE
  5
295
330
2
100
AcDbEntity
  8
GAIKEI
 62
     1
 48
0.027983
100
AcDbLine
 10
31.61464645270001
 20
24.45449760952869
 30
0.0
 11
31.61464645270001
 21
24.67836240952869
 31
0.0
  0
LINE
  5
296
330
2
100
AcDbEntity
  8
GAIKEI
 62
     1
 48
0.00573
100
AcDbLine
 10
31.61464645270001
 20
24.67836240952869
 30
0.0
 11
31.61464645270001
 21
24.72419980952867
 31
0.0
  0
LINE
  5
297
330
2
100
AcDbEntity
  8
GAIKEI
 62
     1
 48
0.030979
100
AcDbLine
 10
31.61464645270001
 20
24.72419980952867
 30
0.0
 11
31.61464645270001
 21
24.97203300952867
 31
0.0
  0
LINE
  5
298
330
2
100
AcDbEntity
  8
GAIKEI
 62
     1
 48
0.006254
100
AcDbLine
 10
31.61464645270001
 20
24.97203300952867
 30
0.0
 11
31.61464645270001
 21
25.02206360952869
 31
0.0
  0
LINE
  5
299
330
2
100
AcDbEntity
  8
GAIKEI
 62
     1
 48
0.033372
100
AcDbLine
 10
31.61464645270001
 20
25.02206360952869
 30
0.0
 11
31.61464645270001
 21
25.2890374095287
 31
0.0
  0
LINE
  5
29A
330
2
100
AcDbEntity
  8
GAIKEI
 62
     1
 48
0.006655
100
AcDbLine
 10
31.61464645270001
 20
25.2890374095287
 30
0.0
 11
31.61464645270001
 21
25.34227840952866
 31
0.0
  0
LINE
  5
29B
330
2
100
AcDbEntity
  8
GAIKEI
 62
     1
 48
0.035114
100
AcDbLine
 10
31.61464645270001
 20
25.34227840952866
 30
0.0
 11
31.61464645270001
 21
25.62319280952869
 31
0.0
  0
LINE
  5
29C
330
2
100
AcDbEntity
  8
GAIKEI
 62
     1
 48
0.006928
100
AcDbLine
 10
31.61464645270001
 20
25.62319280952869
 30
0.0
 11
31.61464645270001
 21
25.6786188095287
 31
0.0
  0
LINE
  5
29D
330
2
100
AcDbEntity
  8
GAIKEI
 62
     1
 48
0.036174
100
AcDbLine
 10
31.61464645270001
 20
25.6786188095287
 30
0.0
 11
31.61464645270001
 21
25.96801080952867
 31
0.0
  0
LINE
  5
29E
330
2
100
AcDbEntity
  8
GAIKEI
 62
     1
 48
0.007065
100
AcDbLine
 10
31.61464645270001
 20
25.96801080952867
 30
0.0
 11
31.61464645270001
 21
26.02452940952867
 31
0.0
  0
LINE
  5
29F
330
2
100
AcDbEntity
  8
GAIKEI
 62
     1
 48
0.031271
100
AcDbLine
 10
31.61464645270001
 20
26.02452940952867
 30
0.0
 11
31.61464645270001
 21
26.27469420952866
 31
0.0
  0
LINE
  5
2A0
330
2
100
AcDbEntity
  8
GAIKEI
 62
     1
 48
0.001553
100
AcDbLine
 10
31.61464645270001
 20
26.9866082095287
 30
0.0
 11
31.61464645270001
 21
26.99902900952867
 31
0.0
  0
LINE
  5
2A1
330
2
100
AcDbEntity
  8
GAIKEI
 62
     1
 48
0.006655
100
AcDbLine
 10
31.61464645270001
 20
26.99902900952867
 30
0.0
 11
31.61464645270001
 21
27.0522698095287
 31
0.0
  0
LINE
  5
2A2
330
2
100
AcDbEntity
  8
GAIKEI
 62
     1
 48
0.033372
100
AcDbLine
 10
31.61464645270001
 20
27.0522698095287
 30
0.0
 11
31.61464645270001
 21
27.3192438095287
 31
0.0
  0
LINE
  5
2A3
330
2
100
AcDbEntity
  8
GAIKEI
 62
     1
 48
0.006253
100
AcDbLine
 10
31.61464645270001
 20
27.3192438095287
 30
0.0
 11
31.61464645270001
 21
27.36926820952869
 31
0.0
  0
LINE
  5
2A4
330
2
100
AcDbEntity
  8
GAIKEI
 62
     1
 48
0.006423
100
AcDbLine
 10
31.61464645270001
 20
27.36926820952869
 30
0.0
 11
31.61464645270001
 21
27.4206536095287
 31
0.0
  0
LINE
  5
2A5
330
2
100
AcDbEntity
  8
GAIKEI
 62
     1
 48
0.024556
100
AcDbLine
 10
31.61464645270001
 20
27.4206536095287
 30
0.0
 11
31.61464645270001
 21
27.61710140952869
 31
0.0
  0
LINE
  5
2A6
330
2
100
AcDbEntity
  8
GAIKEI
 62
     1
 48
0.00573
100
AcDbLine
 10
31.61464645270001
 20
27.61710140952869
 30
0.0
 11
31.61464645270001
 21
27.66293880952867
 31
0.0
  0
LINE
  5
2A7
330
2
100
AcDbEntity
  8
GAIKEI
 62
     1
 48
0.027984
100
AcDbLine
 10
31.61464645270001
 20
27.66293880952867
 30
0.0
 11
31.61464645270001
 21
27.88680960952871
 31
0.0
  0
LINE
  5
2A8
330
2
100
AcDbEntity
  8
GAIKEI
 62
     1
 48
0.005094
100
AcDbLine
 10
31.61464645270001
 20
27.88680960952871
 30
0.0
 11
31.61464645270001
 21
27.9275628095287
 31
0.0
  0
LINE
  5
2A9
330
2
100
AcDbEntity
  8
GAIKEI
 62
     1
 48
0.024444
100
AcDbLine
 10
31.61464645270001
 20
27.9275628095287
 30
0.0
 11
31.61464645269996
 21
28.6593072095286
 31
0.0
  0
LINE
  5
2AA
330
2
100
AcDbEntity
  8
GAIKEI
 62
     1
 48
0.00074
100
AcDbLine
 10
31.61464645270001
 20
28.6538384095287
 30
0.0
 11
31.61464645270001
 21
28.65975880952868
 31
0.0
  0
LINE
  5
2AB
330
2
100
AcDbEntity
  8
GAIKEI
 62
     1
 48
0.001362
100
AcDbLine
 10
31.61464645270001
 20
28.65975880952868
 30
0.0
 11
31.61464645270001
 21
28.6706536095287
 31
0.0
  0
LINE
  5
2AC
330
2
100
AcDbEntity
  8
GAIKEI
 62
     1
 48
0.147929
100
AcDbLine
 10
31.73121745269998
 20
28.76991520952868
 30
0.0
 11
32.91464645270003
 21
28.76991520952868
 31
0.0
  0
LINE
  5
2AD
330
2
100
AcDbEntity
  8
GAIKEI
 62
     1
 48
0.147929
100
AcDbLine
 10
31.73121745269998
 20
23.57138600952868
 30
0.0
 11
32.91464645270003
 21
23.57138600952868
 31
0.0
  0
LINE
  5
2AE
330
2
100
AcDbEntity
  8
GAIKEI
 62
     1
 48
0.000532
100
AcDbLine
 10
31.69157505269999
 20
26.6049920095287
 30
0.0
 11
31.69499925270003
 21
26.60245900952868
 31
0.0
  0
LINE
  5
2AF
330
2
100
AcDbEntity
  8
GAIKEI
 62
     1
 48
0.0003
100
AcDbLine
 10
31.69338785269997
 20
26.45505300952868
 30
0.0
 11
31.69506025269999
 21
26.4567742095287
 31
0.0
  0
LINE
  5
2B0
330
2
100
AcDbEntity
  8
GAIKEI
 62
     1
 48
0.001422
100
AcDbLine
 10
31.6949930527
 20
26.4567560095287
 30
0.0
 11
31.70259205269997
 21
26.46522160952867
 31
0.0
  0
LINE
  5
2B1
330
2
100
AcDbEntity
  8
GAIKEI
 62
     1
 48
0.016479
100
AcDbLine
 10
31.70284825269999
 20
26.46483700952871
 30
0.0
 11
31.70284825269999
 21
26.59667300952867
 31
0.0
  0
LINE
  5
2B2
330
2
100
AcDbEntity
  8
GAIKEI
 62
     1
 48
0.001228
100
AcDbLine
 10
31.69501145269999
 20
26.60248960952868
 30
0.0
 11
31.70257985270001
 21
26.59622740952869
 31
0.0
  0
LINE
  5
2B3
330
2
100
AcDbEntity
  8
GAIKEI
 62
     1
 48
0.011611
100
AcDbLine
 10
31.61464645270001
 20
26.99902900952867
 30
0.0
 11
31.69491985270003
 21
26.95228820952866
 31
0.0
  0
LINE
  5
2B4
330
2
100
AcDbEntity
  8
GAIKEI
 62
     1
 48
0.000355
100
AcDbLine
 10
31.69314985270001
 20
26.80873960952869
 30
0.0
 11
31.6950236527
 21
26.81087580952868
 31
0.0
  0
LINE
  5
2B5
330
2
100
AcDbEntity
  8
GAIKEI
 62
     1
 48
0.00151
100
AcDbLine
 10
31.69496865269997
 20
26.81087580952868
 30
0.0
 11
31.70260425269999
 21
26.8202386095287
 31
0.0
  0
LINE
  5
2B6
330
2
100
AcDbEntity
  8
GAIKEI
 62
     1
 48
0.015975
100
AcDbLine
 10
31.70286665269998
 20
26.81989080952866
 30
0.0
 11
31.70286665269998
 21
26.94769220952867
 31
0.0
  0
ARC
  5
2B7
330
2
100
AcDbEntity
  8
GAIKEI
 62
     1
100
AcDbCircle
 10
31.6762552527
 20
26.91495300952869
 30
0.0
 40
0.0416684
100
AcDbArc
 50
50.71305200000077
 51
63.43364000000023
  0
LINE
  5
2B8
330
2
100
AcDbEntity
  8
GAIKEI
 62
     1
 48
0.003077
100
AcDbLine
 10
31.67746985270003
 20
28.7334772095287
 30
0.0
 11
31.69490165269997
 21
28.75085380952868
 31
0.0
  0
LINE
  5
2B9
330
2
100
AcDbEntity
  8
GAIKEI
 62
     1
 48
0.001363
100
AcDbLine
 10
31.69490165269997
 20
28.75085380952868
 30
0.0
 11
31.70264685270002
 21
28.75853200952867
 31
0.0
  0
LINE
  5
2BA
330
2
100
AcDbEntity
  8
GAIKEI
 62
     1
 48
0.011049
100
AcDbLine
 10
31.67714645270002
 20
23.60814760952871
 30
0.0
 11
31.61464645270005
 21
23.67065360952882
 31
0.0
  0
LINE
  5
2BB
330
2
100
AcDbEntity
  8
GAIKEI
 62
     1
 48
0.003134
100
AcDbLine
 10
31.67714645270002
 20
23.60814760952871
 30
0.0
 11
31.69490165269997
 21
23.59044740952868
 31
0.0
  0
LINE
  5
2BC
330
2
100
AcDbEntity
  8
GAIKEI
 62
     1
 48
0.001329
100
AcDbLine
 10
31.69491985270003
 20
23.59044740952868
 30
0.0
 11
31.70267125270004
 21
23.58316580952868
 31
0.0
  0
ARC
  5
2BD
330
2
100
AcDbEntity
  8
GAIKEI
 62
     1
100
AcDbCircle
 10
31.73004565270003
 20
23.60975880952867
 30
0.0
 40
0.0384816
100
AcDbArc
 50
225.2102839999996
 51
271.7436929999989
  0
ARC
  5
2BE
330
2
100
AcDbEntity
  8
GAIKEI
 62
     1
100
AcDbCircle
 10
31.73118705269997
 20
28.72974800952869
 30
0.0
 40
0.0402186
100
AcDbArc
 50
89.96488899999963
 51
134.5824299999991
  0
ARC
  5
2BF
330
2
100
AcDbEntity
  8
GAIKEI
 62
     1
100
AcDbCircle
 10
31.51464645269999
 20
28.55842840952869
 30
0.0
 40
0.1
100
AcDbArc
 50
90.50000000000132
 51
180.0000050000005
  0
ARC
  5
2C0
330
2
100
AcDbEntity
  8
GAIKEI
 62
     1
100
AcDbCircle
 10
33.01464645269999
 20
28.56513600952866
 30
0.0
 40
0.2
100
AcDbArc
 50
0.000009999999378
 51
86.99999900000017
  0
LINE
  5
2C1
330
2
100
AcDbEntity
  8
GAIKEI
 62
     1
 48
0.01261
100
AcDbLine
 10
31.51377365270003
 20
28.65842840952871
 30
0.0
 11
31.61464645270001
 21
28.65930720952866
 31
0.0
  0
LINE
  5
2C2
330
2
100
AcDbEntity
  8
GAIKEI
 62
     1
 48
0.013827
100
AcDbLine
 10
32.91464645270003
 20
28.77065360952867
 30
0.0
 11
33.02511405270002
 21
28.76486140952869
 31
0.0
  0
LINE
  5
2C3
330
2
100
AcDbEntity
  8
GAIKEI
 62
     1
 48
0.011106
100
AcDbLine
 10
31.61464645270001
 20
28.6706536095287
 30
0.0
 11
31.67746985270003
 21
28.7334772095287
 31
0.0
  0
LINE
  5
2C4
330
2
100
AcDbEntity
  8
GAIKEI
 62
     1
 48
0.148057
100
AcDbLine
 10
31.73019205269998
 20
23.57136780952868
 30
0.0
 11
32.91464645270003
 21
23.57136780952868
 31
0.0
  0
LINE
  5
2C5
330
2
100
AcDbEntity
  8
GAIKEI
 62
     1
 48
0.148057
100
AcDbLine
 10
31.73019205269998
 20
28.76993340952868
 30
0.0
 11
32.91464645270003
 21
28.76993340952868
 31
0.0
  0
LINE
  5
2C6
330
2
100
AcDbEntity
  8
GAIKEI
 62
     1
 48
0.010048
100
AcDbLine
 10
33.21464645269998
 20
25.57065360952868
 30
0.0
 11
33.21464645269998
 21
25.6510370095287
 31
0.0
  0
LINE
  5
2C7
330
2
100
AcDbEntity
  8
GAIKEI
 62
     1
 48
0.129903
100
AcDbLine
 10
33.21464645269998
 20
25.6510370095287
 30
0.0
 11
33.21464645269998
 21
26.69026420952866
 31
0.0
  0
LINE
  5
2C8
330
2
100
AcDbEntity
  8
GAIKEI
 62
     1
 48
0.010049
100
AcDbLine
 10
33.21464645269998
 20
26.69026420952866
 30
0.0
 11
33.21464645269998
 21
26.77065360952866
 31
0.0
  0
LINE
  5
2C9
330
2
100
AcDbEntity
  8
GAIKEI
 62
     1
 48
0.194455
100
AcDbLine
 10
33.21464645269998
 20
25.57065360952868
 30
0.0
 11
34.77028605269999
 21
25.57065360952868
 31
0.0
  0
LINE
  5
2CA
330
2
100
AcDbEntity
  8
GAIKEI
 62
     1
 48
0.173309
100
AcDbLine
 10
33.21464645269998
 20
26.77065360952866
 30
0.0
 11
34.6011148527
 21
26.77065360952866
 31
0.0
  0
TEXT
  5
2CB
330
2
100
AcDbEntity
  8
TOUROKU
100
AcDbText
 10
47.12431544392675
 20
49.15268003208097
 30
0.0
 40
2.0
  1
ＢＢＨＣＭ５１５
 72
     2
 11
65.52431544392675
 21
49.15268003208097
 31
0.0
100
AcDbText
  0
DIMENSION
  5
2CD
330
2
100
AcDbEntity
  8
SUNPO
100
AcDbDimension
  2
*D4
 10
-4.937144712625753
 20
1.891427752166748
 30
0.0
 11
-14.93714470262574
 21
3.641427752166748
 31
0.0
 70
    33
  1
100
 71
     5
 42
19.99999997999998
  3
STANDARD
100
AcDbAlignedDimension
 13
-24.93714469262574
 23
9.891427752166748
 33
0.0
 14
-4.937144712625752
 24
9.891427752166748
 34
0.0
1001
ACAD
1000
DSTYLE
1002
{
1070
    40
1040
1.0
1070
   140
1040
2.5
1070
   147
1040
0.5
1070
   172
1070
     1
1070
   279
1070
     0
1070
   288
1070
     0
1002
}
  0
TEXT
  5
2DA
330
2
100
AcDbEntity
  8
MOJI1
100
AcDbText
 10
-32.47563458900049
 20
55.15268003208115
 30
0.0
 40
4.0
  1
ネットワークカメラ
100
AcDbText
  0
TEXT
  5
2DC
330
2
100
AcDbEntity
  8
MOJI1
100
AcDbText
 10
-16.9756345890006
 20
-53.5632854747231
 30
0.0
 40
3.0
  1
ＭＰＥＧ－４／ＪＰＥＧ　デュアル通信
100
AcDbText
  0
TEXT
  5
2DD
330
2
100
AcDbEntity
  8
MOJI1
100
AcDbText
 10
-15.9756345890006
 20
-13.5632854747231
 30
0.0
 40
3.0
  1
ＰｏＥ給電（ＩＥＥＥ８０２．３ａｆ－２００３準拠）
 41
0.9
100
AcDbText
  0
TEXT
  5
2DE
330
2
100
AcDbEntity
  8
MOJI1
100
AcDbText
 10
-56.9756345890006
 20
-53.5632854747231
 30
0.0
 40
3.0
  1
画像圧縮方式
100
AcDbText
  0
LINE
  5
2DF
330
2
100
AcDbEntity
  8
WAKU
 62
     1
100
AcDbLine
 10
65.5243654109994
 20
-49.5632854747231
 30
0.0
 11
-59.4756345890006
 21
-49.5632854747231
 31
0.0
  0
LINE
  5
2E1
330
2
100
AcDbEntity
  8
WAKU
 62
     1
100
AcDbLine
 10
65.5243654109994
 20
-44.5632854747231
 30
0.0
 11
-59.4756345890006
 21
-44.5632854747231
 31
0.0
  0
LINE
  5
2E2
330
2
100
AcDbEntity
  8
WAKU
 62
     4
100
AcDbLine
 10
-19.27005335848219
 20
-54.56328547472288
 30
0.0
 11
-19.27005335848219
 21
-4.563285474722874
 31
0.0
  0
LINE
  5
2E3
330
2
100
AcDbEntity
  8
WAKU
 62
     4
100
AcDbLine
 10
65.5243654109994
 20
-54.5632854747231
 30
0.0
 11
65.5243654109994
 21
-4.563285474723102
 31
0.0
  0
LINE
  5
2E4
330
2
100
AcDbEntity
  8
WAKU
 62
     4
100
AcDbLine
 10
-59.4756345890006
 20
-4.563285474723102
 30
0.0
 11
-59.4756345890006
 21
-54.5632854747231
 31
0.0
  0
LINE
  5
2E5
330
2
100
AcDbEntity
  8
WAKU
 62
     1
100
AcDbLine
 10
65.5243654109994
 20
-9.563285474723102
 30
0.0
 11
-59.4756345890006
 21
-9.563285474723102
 31
0.0
  0
LINE
  5
2E6
330
2
100
AcDbEntity
  8
WAKU
 62
     4
100
AcDbLine
 10
65.5243654109994
 20
-4.563285474723102
 30
0.0
 11
-59.4756345890006
 21
-4.563285474723102
 31
0.0
  0
LINE
  5
2E7
330
2
100
AcDbEntity
  8
WAKU
 62
     1
100
AcDbLine
 10
65.5243654109994
 20
-14.5632854747231
 30
0.0
 11
-59.4756345890006
 21
-14.5632854747231
 31
0.0
  0
LINE
  5
2E8
330
2
100
AcDbEntity
  8
WAKU
 62
     1
100
AcDbLine
 10
65.5243654109994
 20
-19.5632854747231
 30
0.0
 11
-59.4756345890006
 21
-19.5632854747231
 31
0.0
  0
LINE
  5
2E9
330
2
100
AcDbEntity
  8
WAKU
 62
     1
100
AcDbLine
 10
65.5243654109994
 20
-24.5632854747231
 30
0.0
 11
-59.4756345890006
 21
-24.5632854747231
 31
0.0
  0
LINE
  5
2EA
330
2
100
AcDbEntity
  8
WAKU
 62
     1
100
AcDbLine
 10
65.5243654109994
 20
-29.5632854747231
 30
0.0
 11
-59.4756345890006
 21
-29.5632854747231
 31
0.0
  0
LINE
  5
2EB
330
2
100
AcDbEntity
  8
WAKU
 62
     1
100
AcDbLine
 10
65.5243654109994
 20
-34.5632854747231
 30
0.0
 11
-59.4756345890006
 21
-34.5632854747231
 31
0.0
  0
LINE
  5
2EC
330
2
100
AcDbEntity
  8
WAKU
 62
     4
100
AcDbLine
 10
-59.4756345890006
 20
-54.5632854747231
 30
0.0
 11
65.5243654109994
 21
-54.5632854747231
 31
0.0
  0
TEXT
  5
2ED
330
2
100
AcDbEntity
  8
MOJI1
100
AcDbText
 10
-56.9756345890006
 20
-8.563285474723102
 30
0.0
 40
3.0
  1
電　源
100
AcDbText
  0
TEXT
  5
2EE
330
2
100
AcDbEntity
  8
MOJI1
100
AcDbText
 10
-16.9756345890006
 20
-28.5632854747231
 30
0.0
 40
3.0
  1
デジタル １０倍（面積比）
100
AcDbText
  0
TEXT
  5
2EF
330
2
100
AcDbEntity
  8
MOJI1
100
AcDbText
 10
-16.9756345890006
 20
-33.56328547472311
 30
0.0
 40
3.0
  1
１２８０×１０２４表示時：７ルクス(カラーナイトビューモー時：３ルクス)
 41
0.6400000000000001
100
AcDbText
  0
TEXT
  5
2F0
330
2
100
AcDbEntity
  8
MOJI1
100
AcDbText
 10
-56.9756345890006
 20
-43.5632854747231
 30
0.0
 40
3.0
  1
チルト
100
AcDbText
  0
TEXT
  5
2F1
330
2
100
AcDbEntity
  8
MOJI1
100
AcDbText
 10
-56.9756345890006
 20
-33.56328547472311
 30
0.0
 40
3.0
  1
最低照度
100
AcDbText
  0
TEXT
  5
2F2
330
2
100
AcDbEntity
  8
MOJI1
100
AcDbText
 10
-56.9756345890006
 20
-18.5632854747231
 30
0.0
 40
3.0
  1
撮像素子
100
AcDbText
  0
TEXT
  5
2F3
330
2
100
AcDbEntity
  8
MOJI1
100
AcDbText
 10
-56.9756345890006
 20
-23.5632854747231
 30
0.0
 40
3.0
  1
解像度
100
AcDbText
  0
TEXT
  5
2F4
330
2
100
AcDbEntity
  8
MOJI1
100
AcDbText
 10
-56.9756345890006
 20
-28.5632854747231
 30
0.0
 40
3.0
  1
ズーム
100
AcDbText
  0
TEXT
  5
2F5
330
2
100
AcDbEntity
  8
MOJI1
100
AcDbText
 10
-16.9756345890006
 20
-38.5632854747231
 30
0.0
 40
3.0
  1
－６０°～＋６０°
100
AcDbText
  0
TEXT
  5
2F6
330
2
100
AcDbEntity
  8
MOJI1
100
AcDbText
 10
-16.9756345890006
 20
-18.5632854747231
 30
0.0
 40
3.0
  1
１／４インチ １３０万画素 ＣＭＯＳセンサー
100
AcDbText
  0
TEXT
  5
2F7
330
2
100
AcDbEntity
  8
MOJI1
100
AcDbText
 10
-15.9756345890006
 20
-8.563285474723102
 30
0.0
 40
3.0
  1
ＡＣ１００Ｖ　５０／６０Ｈｚ
100
AcDbText
  0
TEXT
  5
2F8
330
2
100
AcDbEntity
  8
MOJI1
100
AcDbText
 10
-16.9756345890006
 20
-43.5632854747231
 30
0.0
 40
3.0
  1
＋２０°～－４５°
100
AcDbText
  0
TEXT
  5
2F9
330
2
100
AcDbEntity
  8
MOJI1
100
AcDbText
 10
-56.9756345890006
 20
-38.5632854747231
 30
0.0
 40
3.0
  1
パ　ン
100
AcDbText
  0
TEXT
  5
2FA
330
2
100
AcDbEntity
  8
MOJI1
100
AcDbText
 10
-16.9756345890006
 20
-23.5632854747231
 30
0.0
 40
3.0
  1
１２８０×１０２４、６４０×４８０、３２０×２４０、１９２×１４４
 41
0.6800000000000001
100
AcDbText
  0
TEXT
  5
2FB
330
2
100
AcDbEntity
  8
MOJI1
100
AcDbText
 10
-56.9756345890006
 20
-48.5632854747231
 30
0.0
 40
3.0
  1
回転速度
100
AcDbText
  0
LINE
  5
2FC
330
2
100
AcDbEntity
  8
WAKU
 62
     1
100
AcDbLine
 10
65.5243654109994
 20
-39.5632854747231
 30
0.0
 11
-59.4756345890006
 21
-39.5632854747231
 31
0.0
  0
TEXT
  5
2FD
330
2
100
AcDbEntity
  8
MOJI1
100
AcDbText
 10
-16.9756345890006
 20
-48.5632854747231
 30
0.0
 40
3.0
  1
パン：最大８０°／秒　チルト：最大８０°／秒
 41
0.95
100
AcDbText
  0
ENDSEC
  0
SECTION
  2
OBJECTS
  0
DICTIONARY
  5
7
330
0
100
AcDbDictionary
281
     1
  3
ACAD_COLOR
350
2C
  3
ACAD_GROUP
350
28
  3
ACAD_LAYOUT
350
B
  3
ACAD_MATERIAL
350
2B
  3
ACAD_MLINESTYLE
350
29
  3
ACAD_PLOTSETTINGS
350
2A
  3
ACAD_PLOTSTYLENAME
350
6
  3
ACDBHEADERROUNDTRIPXREC
350
33E
  3
AcDbVariableDictionary
350
339
  3
ASE_INDEX_DICTIONARY
350
306
  0
DICTIONARY
  5
11
330
10
100
AcDbDictionary
280
     1
281
     1
  3
ACAD_LAYERSTATES
360
12
  0
DICTIONARY
  5
2C
102
{ACAD_REACTORS
330
7
102
}
330
7
100
AcDbDictionary
281
     1
  0
DICTIONARY
  5
28
102
{ACAD_REACTORS
330
7
102
}
330
7
100
AcDbDictionary
281
     1
  0
DICTIONARY
  5
B
102
{ACAD_REACTORS
330
7
102
}
330
7
100
AcDbDictionary
281
     1
  3
Model
350
A
  3
レイアウト1
350
F
  0
DICTIONARY
  5
2B
102
{ACAD_REACTORS
330
7
102
}
330
7
100
AcDbDictionary
281
     1
  0
DICTIONARY
  5
29
102
{ACAD_REACTORS
330
7
102
}
330
7
100
AcDbDictionary
281
     1
  3
Standard
350
2E
  0
DICTIONARY
  5
2A
102
{ACAD_REACTORS
330
7
102
}
330
7
100
AcDbDictionary
281
     1
  0
ACDBDICTIONARYWDFLT
  5
6
102
{ACAD_REACTORS
330
7
102
}
330
7
100
AcDbDictionary
281
     1
  3
Normal
350
5
100
AcDbDictionaryWithDefault
340
5
  0
DICTIONARY
  5
33E
102
{ACAD_REACTORS
330
7
102
}
330
7
100
AcDbDictionary
281
     1
  3
COLORDICT
350
340
  3
MATERIALDICT
350
33F
  0
DICTIONARY
  5
339
102
{ACAD_REACTORS
330
7
102
}
330
7
100
AcDbDictionary
281
     1
  3
DIMASSOC
350
33B
  3
HIDETEXT
350
33A
  3
PROJECTNAME
350
33C
  0
DICTIONARY
  5
306
102
{ACAD_REACTORS
330
7
102
}
330
7
100
AcDbDictionary
281
     1
  3
ASEBlockHierarchyIndexRecord
350
308
1001
DCO15
1040
1629188842.459
  0
DICTIONARY
  5
12
102
{ACAD_REACTORS
330
11
102
}
330
11
100
AcDbDictionary
281
     1
  0
LAYOUT
  5
A
102
{ACAD_XDICTIONARY
360
341
102
}
102
{ACAD_REACTORS
330
B
102
}
330
B
100
AcDbPlotSettings
  1

  2
Ａ４－縦3FRIM01.pc3
  4
A4
  6

 40
5.873749732971191
 41
5.873747825622558
 42
5.873748779296875
 43
5.873748779296875
 44
209.9733276367187
 45
296.9259948730469
 46
5.419999999999999
 47
0.0
 48
-315.5349153359857
 49
224.8191642733469
140
-12.83102128827022
141
423.9755221004062
142
1.0
143
1.382434615292221
 70
 11956
 72
     1
 73
     0
 74
     1
  7
tmsacad.ctb
 75
     0
147
0.7233615166592297
148
0.0148158059998878
149
0.0097886928209618
100
AcDbLayout
  1
Model
 70
     1
 71
     0
 10
0.0
 20
0.0
 11
12.0
 21
9.0
 12
0.0
 22
0.0
 32
0.0
 14
0.0
 24
0.0
 34
0.0
 15
0.0
 25
0.0
 35
0.0
146
0.0
 13
0.0
 23
0.0
 33
0.0
 16
1.0
 26
0.0
 36
0.0
 17
0.0
 27
1.0
 37
0.0
 76
     0
330
2
  0
LAYOUT
  5
F
102
{ACAD_XDICTIONARY
360
343
102
}
102
{ACAD_REACTORS
330
B
102
}
330
B
100
AcDbPlotSettings
  1

  2
None
  4

  6

 40
0.0
 41
0.0
 42
0.0
 43
0.0
 44
0.0
 45
0.0
 46
0.0
 47
0.0
 48
0.0
 49
0.0
140
0.0
141
0.0
142
1.0
143
1.0
 70
   688
 72
     0
 73
     0
 74
     5
  7
tmsacad.ctb
 75
    16
147
1.0
148
0.0
149
0.0
100
AcDbLayout
  1
レイアウト1
 70
     1
 71
     1
 10
0.0
 20
0.0
 11
12.0
 21
9.0
 12
0.0
 22
0.0
 32
0.0
 14
0.0
 24
0.0
 34
0.0
 15
0.0
 25
0.0
 35
0.0
146
0.0
 13
0.0
 23
0.0
 33
0.0
 16
1.0
 26
0.0
 36
0.0
 17
0.0
 27
1.0
 37
0.0
 76
     0
330
C
  0
MLINESTYLE
  5
2E
102
{ACAD_REACTORS
330
29
102
}
330
29
100
AcDbMlineStyle
  2
STANDARD
 70
     0
  3

 62
   256
 51
90.0
 52
90.0
 71
     2
 49
0.5
 62
   256
  6
BYLAYER
 49
-0.5
 62
   256
  6
BYLAYER
  0
ACDBPLACEHOLDER
  5
5
102
{ACAD_REACTORS
330
6
102
}
330
6
  0
XRECORD
  5
340
102
{ACAD_REACTORS
330
33E
102
}
330
33E
100
AcDbXrecord
280
     1
340
2C
  0
XRECORD
  5
33F
102
{ACAD_REACTORS
330
33E
102
}
330
33E
100
AcDbXrecord
280
     1
340
2B
  0
DICTIONARYVAR
  5
33B
102
{ACAD_REACTORS
330
339
102
}
330
339
100
DictionaryVariables
280
     0
  1
1
  0
DICTIONARYVAR
  5
33A
102
{ACAD_REACTORS
330
339
102
}
330
339
100
DictionaryVariables
280
     0
  1
1
  0
DICTIONARYVAR
  5
33C
102
{ACAD_REACTORS
330
339
102
}
330
339
100
DictionaryVariables
280
     0
  1

  0
XRECORD
  5
308
102
{ACAD_REACTORS
330
306
102
}
330
306
100
AcDbXrecord
280
     1
330
2D3
330
2D4
330
193
330
194
330
1A1
330
1A2
330
319
330
31A
330
325
330
326
330
331
330
332
  0
DICTIONARY
  5
341
330
A
100
AcDbDictionary
280
     1
281
     1
  3
ACAD_XREC_ROUNDTRIP
360
342
  0
DICTIONARY
  5
343
330
F
100
AcDbDictionary
280
     1
281
     1
  3
ACAD_XREC_ROUNDTRIP
360
344
  0
XRECORD
  5
342
102
{ACAD_REACTORS
330
341
102
}
330
341
100
AcDbXrecord
280
     1
102
SHADEPLOT
 70
     0
102
SHADEPLOTRESLEVEL
 70
     2
102
SHADEPLOTCUSTOMDPI
 70
   300
  0
XRECORD
  5
344
102
{ACAD_REACTORS
330
343
102
}
330
343
100
AcDbXrecord
280
     1
102
SHADEPLOT
 70
     0
102
SHADEPLOTRESLEVEL
 70
     2
102
SHADEPLOTCUSTOMDPI
 70
   300
  0
ENDSEC
  0
EOF
