  0
SECTION
  2
HEADER
  9
$ACADVER
  1
AC1015
  9
$ACADMAINTVER
 70
    20
  9
$DWGCODEPAGE
  3
ANSI_932
  9
$INSBASE
 10
0.4999999440410648
 20
372.5008351249344
 30
0.0
  9
$EXTMIN
 10
-60.22247223675072
 20
-60.35078368050836
 30
-0.0015258207003583
  9
$EXTMAX
 10
64.81109675580069
 20
52.42456095365878
 30
0.0000000349246037
  9
$LIMMIN
 10
0.0
 20
0.0
  9
$LIMMAX
 10
420.0
 20
297.0
  9
$ORTHOMODE
 70
     1
  9
$REGENMODE
 70
     0
  9
$FILLMODE
 70
     1
  9
$QTEXTMODE
 70
     0
  9
$MIRRTEXT
 70
     1
  9
$LTSCALE
 40
1.0
  9
$ATTMODE
 70
     1
  9
$TEXTSIZE
 40
2.5
  9
$TRACEWID
 40
1.0
  9
$TEXTSTYLE
  7
Standard
  9
$CLAYER
  8
SUNPO
  9
$CELTYPE
  6
ByLayer
  9
$CECOLOR
 62
   256
  9
$CELTSCALE
 40
1.0
  9
$DISPSILH
 70
     0
  9
$DIMSCALE
 40
1.0
  9
$DIMASZ
 40
2.0
  9
$DIMEXO
 40
2.0
  9
$DIMDLI
 40
8.0
  9
$DIMRND
 40
0.0
  9
$DIMDLE
 40
0.0
  9
$DIMEXE
 40
2.0
  9
$DIMTP
 40
0.0
  9
$DIMTM
 40
0.0
  9
$DIMTXT
 40
2.5
  9
$DIMCEN
 40
0.0
  9
$DIMTSZ
 40
0.0
  9
$DIMTOL
 70
     0
  9
$DIMLIM
 70
     0
  9
$DIMTIH
 70
     0
  9
$DIMTOH
 70
     0
  9
$DIMSE1
 70
     0
  9
$DIMSE2
 70
     0
  9
$DIMTAD
 70
     3
  9
$DIMZIN
 70
     0
  9
$DIMBLK
  1

  9
$DIMASO
 70
     1
  9
$DIMSHO
 70
     1
  9
$DIMPOST
  1

  9
$DIMAPOST
  1

  9
$DIMALT
 70
     0
  9
$DIMALTD
 70
     2
  9
$DIMALTF
 40
25.4
  9
$DIMLFAC
 40
1.0
  9
$DIMTOFL
 70
     1
  9
$DIMTVP
 40
0.0
  9
$DIMTIX
 70
     0
  9
$DIMSOXD
 70
     0
  9
$DIMSAH
 70
     1
  9
$DIMBLK1
  1
OPEN30
  9
$DIMBLK2
  1
OPEN30
  9
$DIMSTYLE
  2
STANDARD
  9
$DIMCLRD
 70
     0
  9
$DIMCLRE
 70
     0
  9
$DIMCLRT
 70
     0
  9
$DIMTFAC
 40
1.0
  9
$DIMGAP
 40
0.5
  9
$DIMJUST
 70
     0
  9
$DIMSD1
 70
     0
  9
$DIMSD2
 70
     0
  9
$DIMTOLJ
 70
     1
  9
$DIMTZIN
 70
     0
  9
$DIMALTZ
 70
     0
  9
$DIMALTTZ
 70
     0
  9
$DIMUPT
 70
     0
  9
$DIMDEC
 70
     4
  9
$DIMTDEC
 70
     4
  9
$DIMALTU
 70
     2
  9
$DIMALTTD
 70
     2
  9
$DIMTXSTY
  7
Standard
  9
$DIMAUNIT
 70
     0
  9
$DIMADEC
 70
     0
  9
$DIMALTRND
 40
0.0
  9
$DIMAZIN
 70
     0
  9
$DIMDSEP
 70
    46
  9
$DIMATFIT
 70
     3
  9
$DIMFRAC
 70
     0
  9
$DIMLDRBLK
  1
OPEN30
  9
$DIMLUNIT
 70
     2
  9
$DIMLWD
 70
    -2
  9
$DIMLWE
 70
    -2
  9
$DIMTMOVE
 70
     0
  9
$LUNITS
 70
     2
  9
$LUPREC
 70
     4
  9
$SKETCHINC
 40
1.0
  9
$FILLETRAD
 40
0.0
  9
$AUNITS
 70
     0
  9
$AUPREC
 70
     0
  9
$MENU
  1
.
  9
$ELEVATION
 40
0.0
  9
$PELEVATION
 40
0.0
  9
$THICKNESS
 40
0.0
  9
$LIMCHECK
 70
     0
  9
$CHAMFERA
 40
0.0
  9
$CHAMFERB
 40
0.0
  9
$CHAMFERC
 40
0.0
  9
$CHAMFERD
 40
0.0
  9
$SKPOLY
 70
     0
  9
$TDCREATE
 40
2454349.434269746
  9
$TDUCREATE
 40
2454349.059269746
  9
$TDUPDATE
 40
2454524.660552940
  9
$TDUUPDATE
 40
2454524.285552940
  9
$TDINDWG
 40
0.7954650579
  9
$TDUSRTIMER
 40
0.7954650579
  9
$USRTIMER
 70
     1
  9
$ANGBASE
 50
0.0
  9
$ANGDIR
 70
     0
  9
$PDMODE
 70
     0
  9
$PDSIZE
 40
0.0
  9
$PLINEWID
 40
0.0
  9
$SPLFRAME
 70
     0
  9
$SPLINETYPE
 70
     6
  9
$SPLINESEGS
 70
     8
  9
$HANDSEED
  5
55E
  9
$SURFTAB1
 70
     6
  9
$SURFTAB2
 70
     6
  9
$SURFTYPE
 70
     6
  9
$SURFU
 70
     6
  9
$SURFV
 70
     6
  9
$UCSBASE
  2

  9
$UCSNAME
  2

  9
$UCSORG
 10
0.0
 20
0.0
 30
0.0
  9
$UCSXDIR
 10
1.0
 20
0.0
 30
0.0
  9
$UCSYDIR
 10
0.0
 20
1.0
 30
0.0
  9
$UCSORTHOREF
  2

  9
$UCSORTHOVIEW
 70
     0
  9
$UCSORGTOP
 10
0.0
 20
0.0
 30
0.0
  9
$UCSORGBOTTOM
 10
0.0
 20
0.0
 30
0.0
  9
$UCSORGLEFT
 10
0.0
 20
0.0
 30
0.0
  9
$UCSORGRIGHT
 10
0.0
 20
0.0
 30
0.0
  9
$UCSORGFRONT
 10
0.0
 20
0.0
 30
0.0
  9
$UCSORGBACK
 10
0.0
 20
0.0
 30
0.0
  9
$PUCSBASE
  2

  9
$PUCSNAME
  2

  9
$PUCSORG
 10
0.0
 20
0.0
 30
0.0
  9
$PUCSXDIR
 10
1.0
 20
0.0
 30
0.0
  9
$PUCSYDIR
 10
0.0
 20
1.0
 30
0.0
  9
$PUCSORTHOREF
  2

  9
$PUCSORTHOVIEW
 70
     0
  9
$PUCSORGTOP
 10
0.0
 20
0.0
 30
0.0
  9
$PUCSORGBOTTOM
 10
0.0
 20
0.0
 30
0.0
  9
$PUCSORGLEFT
 10
0.0
 20
0.0
 30
0.0
  9
$PUCSORGRIGHT
 10
0.0
 20
0.0
 30
0.0
  9
$PUCSORGFRONT
 10
0.0
 20
0.0
 30
0.0
  9
$PUCSORGBACK
 10
0.0
 20
0.0
 30
0.0
  9
$USERI1
 70
     0
  9
$USERI2
 70
     0
  9
$USERI3
 70
     0
  9
$USERI4
 70
     0
  9
$USERI5
 70
     0
  9
$USERR1
 40
0.0
  9
$USERR2
 40
0.0
  9
$USERR3
 40
0.0
  9
$USERR4
 40
0.0
  9
$USERR5
 40
0.0
  9
$WORLDVIEW
 70
     1
  9
$SHADEDGE
 70
     3
  9
$SHADEDIF
 70
    70
  9
$TILEMODE
 70
     1
  9
$MAXACTVP
 70
    64
  9
$PINSBASE
 10
0.0
 20
0.0
 30
0.0
  9
$PLIMCHECK
 70
     0
  9
$PEXTMIN
 10
0.0
 20
0.0
 30
0.0
  9
$PEXTMAX
 10
0.0
 20
0.0
 30
0.0
  9
$PLIMMIN
 10
0.0
 20
0.0
  9
$PLIMMAX
 10
12.0
 20
9.0
  9
$UNITMODE
 70
     0
  9
$VISRETAIN
 70
     1
  9
$PLINEGEN
 70
     0
  9
$PSLTSCALE
 70
     1
  9
$TREEDEPTH
 70
  3020
  9
$CMLSTYLE
  2
Standard
  9
$CMLJUST
 70
     0
  9
$CMLSCALE
 40
20.0
  9
$PROXYGRAPHICS
 70
     1
  9
$MEASUREMENT
 70
     1
  9
$CELWEIGHT
370
    -1
  9
$ENDCAPS
280
     0
  9
$JOINSTYLE
280
     0
  9
$LWDISPLAY
290
     0
  9
$INSUNITS
 70
     4
  9
$HYPERLINKBASE
  1

  9
$STYLESHEET
  1

  9
$XEDIT
290
     1
  9
$CEPSNTYPE
380
     0
  9
$PSTYLEMODE
290
     1
  9
$FINGERPRINTGUID
  2
{FDEAD578-A652-11D2-9A35-0060089B3A3F}
  9
$VERSIONGUID
  2
{8E1F5E7A-A9F3-471B-918D-70FBD64BA3DE}
  9
$EXTNAMES
290
     1
  9
$PSVPSCALE
 40
0.0
  9
$OLESTARTUP
290
     0
  0
ENDSEC
  0
SECTION
  2
CLASSES
  0
CLASS
  1
ACDBDICTIONARYWDFLT
  2
AcDbDictionaryWithDefault
  3
ObjectDBX Classes
 90
        0
280
     0
281
     0
  0
CLASS
  1
ACDBPLACEHOLDER
  2
AcDbPlaceHolder
  3
ObjectDBX Classes
 90
        0
280
     0
281
     0
  0
CLASS
  1
LAYOUT
  2
AcDbLayout
  3
ObjectDBX Classes
 90
        0
280
     0
281
     0
  0
CLASS
  1
DICTIONARYVAR
  2
AcDbDictionaryVar
  3
ObjectDBX Classes
 90
        0
280
     0
281
     0
  0
ENDSEC
  0
SECTION
  2
TABLES
  0
TABLE
  2
VPORT
  5
1B
330
0
100
AcDbSymbolTable
 70
     3
  0
VPORT
  5
556
330
1B
100
AcDbSymbolTableRecord
100
AcDbViewportTableRecord
  2
*Active
 70
     0
 10
0.0
 20
0.0
 11
1.0
 21
1.0
 12
2.294312259525
 22
-3.963111363424786
 13
0.0
 23
0.0
 14
10.0
 24
10.0
 15
10.0
 25
10.0
 16
0.0
 26
0.0
 36
1.0
 17
0.0
 27
0.0
 37
0.0
 40
113.6645063527019
 41
1.527631578947368
 42
50.0
 43
0.0
 44
0.0
 50
0.0
 51
0.0
 71
     0
 72
 10000
 73
     1
 74
     2
 75
     0
 76
     0
 77
     0
 78
     0
281
     0
 65
     1
110
0.0
120
0.0
130
0.0
111
1.0
121
0.0
131
0.0
112
0.0
122
1.0
132
0.0
 79
     0
146
0.0
  0
ENDTAB
  0
TABLE
  2
LTYPE
  5
16
330
0
100
AcDbSymbolTable
 70
     3
  0
LTYPE
  5
17
330
16
100
AcDbSymbolTableRecord
100
AcDbLinetypeTableRecord
  2
ByBlock
 70
     0
  3

 72
    65
 73
     0
 40
0.0
  0
LTYPE
  5
18
330
16
100
AcDbSymbolTableRecord
100
AcDbLinetypeTableRecord
  2
ByLayer
 70
     0
  3

 72
    65
 73
     0
 40
0.0
  0
LTYPE
  5
8
330
16
100
AcDbSymbolTableRecord
100
AcDbLinetypeTableRecord
  2
Continuous
 70
     0
  3
Solid line
 72
    65
 73
     0
 40
0.0
  0
LTYPE
  5
324
330
16
100
AcDbSymbolTableRecord
100
AcDbLinetypeTableRecord
  2
S50
 70
     0
  3
-------------- - ------------- 40,-1,1.5,-1
 72
    65
 73
     4
 40
43.5
 49
40.0
 74
     0
 49
-1.0
 74
     0
 49
1.5
 74
     0
 49
-1.0
 74
     0
  0
LTYPE
  5
325
330
16
100
AcDbSymbolTableRecord
100
AcDbLinetypeTableRecord
  2
S130
 70
     0
  3
--- - --- - --- 3,-1,1,-1
 72
    65
 73
     4
 40
6.0
 49
3.0
 74
     0
 49
-1.0
 74
     0
 49
1.0
 74
     0
 49
-1.0
 74
     0
  0
ENDTAB
  0
TABLE
  2
LAYER
  5
10
102
{ACAD_XDICTIONARY
360
11
102
}
330
0
100
AcDbSymbolTable
 70
     8
  0
LAYER
  5
4
330
10
100
AcDbSymbolTableRecord
100
AcDbLayerTableRecord
  2
0
 70
     0
 62
     7
  6
Continuous
370
    -3
390
5
  0
LAYER
  5
50A
330
10
100
AcDbSymbolTableRecord
100
AcDbLayerTableRecord
  2
WAKU
 70
     0
 62
     4
  6
Continuous
370
    -3
390
5
  0
LAYER
  5
506
330
10
100
AcDbSymbolTableRecord
100
AcDbLayerTableRecord
  2
MOJI1
 70
     0
 62
     2
  6
Continuous
370
    -3
390
5
  0
LAYER
  5
504
330
10
100
AcDbSymbolTableRecord
100
AcDbLayerTableRecord
  2
TOUROKU
 70
     0
 62
     1
  6
Continuous
370
    -3
390
5
  0
LAYER
  5
4B
330
10
100
AcDbSymbolTableRecord
100
AcDbLayerTableRecord
  2
GAIKEI
 70
     0
 62
     7
  6
Continuous
370
    -3
390
5
  0
LAYER
  5
39
330
10
100
AcDbSymbolTableRecord
100
AcDbLayerTableRecord
  2
Defpoints
 70
     0
 62
     7
  6
Continuous
290
     0
370
    -3
390
5
  0
LAYER
  5
2D
330
10
100
AcDbSymbolTableRecord
100
AcDbLayerTableRecord
  2
SUNPO
 70
     0
 62
     3
  6
Continuous
370
    -3
390
5
  0
LAYER
  5
323
330
10
100
AcDbSymbolTableRecord
100
AcDbLayerTableRecord
  2
KIJUN
 70
     0
 62
    14
  6
S50
370
    -3
390
5
  0
ENDTAB
  0
TABLE
  2
STYLE
  5
13
330
0
100
AcDbSymbolTable
 70
     1
  0
STYLE
  5
14
330
13
100
AcDbSymbolTableRecord
100
AcDbTextStyleTableRecord
  2
Standard
 70
     0
 40
0.0
 41
1.0
 50
0.0
 71
     0
 42
2.5
  3
MONOTXT.shx
  4
BIGFONT.shx
  0
ENDTAB
  0
TABLE
  2
VIEW
  5
19
330
0
100
AcDbSymbolTable
 70
     0
  0
ENDTAB
  0
TABLE
  2
UCS
  5
1A
330
0
100
AcDbSymbolTable
 70
     0
  0
ENDTAB
  0
TABLE
  2
APPID
  5
1D
330
0
100
AcDbSymbolTable
 70
     1
  0
APPID
  5
1E
330
1D
100
AcDbSymbolTableRecord
100
AcDbRegAppTableRecord
  2
ACAD
 70
     0
  0
ENDTAB
  0
TABLE
  2
DIMSTYLE
  5
1F
330
0
100
AcDbSymbolTable
 70
     1
100
AcDbDimStyleTable
 71
     1
340
20
  0
DIMSTYLE
105
20
102
{ACAD_REACTORS
330
3D
330
2F
102
}
330
1F
100
AcDbSymbolTableRecord
100
AcDbDimStyleTableRecord
  2
STANDARD
 70
     0
 40
0.0
 41
2.0
 42
2.0
 43
8.0
 44
2.0
 73
     0
 74
     0
 77
     3
140
3.0
141
0.0
173
     1
279
     2
288
     1
340
14
341
21
343
21
344
21
  0
ENDTAB
  0
TABLE
  2
BLOCK_RECORD
  5
1
330
0
100
AcDbSymbolTable
 70
     5
  0
BLOCK_RECORD
  5
2
330
1
100
AcDbSymbolTableRecord
100
AcDbBlockTableRecord
  2
*Model_Space
340
A
  0
BLOCK_RECORD
  5
C
330
1
100
AcDbSymbolTableRecord
100
AcDbBlockTableRecord
  2
*Paper_Space
340
F
  0
BLOCK_RECORD
  5
21
330
1
100
AcDbSymbolTableRecord
100
AcDbBlockTableRecord
  2
_OPEN30
340
0
102
{BLKREFS
331
43
331
44
331
35
331
36
331
53E
331
53F
331
54A
331
54B
102
}
  0
BLOCK_RECORD
  5
3E
330
1
100
AcDbSymbolTableRecord
100
AcDbBlockTableRecord
  2
*D1
340
0
  0
BLOCK_RECORD
  5
30
330
1
100
AcDbSymbolTableRecord
100
AcDbBlockTableRecord
  2
*D2
340
0
  0
BLOCK_RECORD
  5
53A
330
1
100
AcDbSymbolTableRecord
100
AcDbBlockTableRecord
  2
*D3
340
0
  0
BLOCK_RECORD
  5
546
330
1
100
AcDbSymbolTableRecord
100
AcDbBlockTableRecord
  2
*D4
340
0
  0
ENDTAB
  0
ENDSEC
  0
SECTION
  2
BLOCKS
  0
BLOCK
  5
3
330
2
100
AcDbEntity
  8
0
100
AcDbBlockBegin
  2
*Model_Space
 70
     0
 10
0.0
 20
0.0
 30
0.0
  3
*Model_Space
  1

  0
ENDBLK
  5
9
330
2
100
AcDbEntity
  8
0
100
AcDbBlockEnd
  0
BLOCK
  5
D
330
C
100
AcDbEntity
 67
     1
  8
0
100
AcDbBlockBegin
  2
*Paper_Space
 70
     0
 10
0.0
 20
0.0
 30
0.0
  3
*Paper_Space
  1

  0
ENDBLK
  5
E
330
C
100
AcDbEntity
 67
     1
  8
0
100
AcDbBlockEnd
  0
BLOCK
  5
22
330
21
100
AcDbEntity
  8
0
100
AcDbBlockBegin
  2
_OPEN30
 70
     0
 10
0.0
 20
0.0
 30
0.0
  3
_OPEN30
  1

  0
LINE
  5
23
330
21
100
AcDbEntity
  8
0
  6
ByBlock
 62
     0
100
AcDbLine
 10
-1.0
 20
0.26794919
 30
0.0
 11
0.0
 21
0.0
 31
0.0
  0
LINE
  5
24
330
21
100
AcDbEntity
  8
0
  6
ByBlock
 62
     0
100
AcDbLine
 10
0.0
 20
0.0
 30
0.0
 11
-1.0
 21
-0.26794919
 31
0.0
  0
LINE
  5
25
330
21
100
AcDbEntity
  8
0
  6
ByBlock
 62
     0
100
AcDbLine
 10
0.0
 20
0.0
 30
0.0
 11
-1.0
 21
0.0
 31
0.0
  0
ENDBLK
  5
26
330
21
100
AcDbEntity
  8
0
100
AcDbBlockEnd
  0
BLOCK
  5
3F
330
3E
100
AcDbEntity
  8
0
100
AcDbBlockBegin
  2
*D1
 70
     1
 10
0.0
 20
0.0
 30
0.0
  3
*D1
  1

  0
LINE
  5
40
330
3E
100
AcDbEntity
  8
SUNPO
 62
     0
370
    -2
100
AcDbLine
 10
60.29308073839439
 20
326.1936430923402
 30
0.0
 11
68.20114988791846
 21
326.1936430923402
 31
0.0
  0
LINE
  5
41
330
3E
100
AcDbEntity
  8
SUNPO
 62
     0
370
    -2
100
AcDbLine
 10
60.29308073839439
 20
337.70364369234
 30
0.0
 11
68.20114988791846
 21
337.70364369234
 31
0.0
  0
LINE
  5
42
330
3E
100
AcDbEntity
  8
SUNPO
 62
     0
370
    -2
100
AcDbLine
 10
66.20114988791846
 20
328.1936430923402
 30
0.0
 11
66.20114988791846
 21
335.70364369234
 31
0.0
  0
INSERT
  5
43
330
3E
100
AcDbEntity
  8
SUNPO
 62
     0
370
    -2
100
AcDbBlockReference
  2
_OPEN30
 10
66.20114988791846
 20
326.1936430923402
 30
0.0
 41
2.0
 42
2.0
 43
2.0
 50
270.0
  0
INSERT
  5
44
330
3E
100
AcDbEntity
  8
SUNPO
 62
     0
370
    -2
100
AcDbBlockReference
  2
_OPEN30
 10
66.20114988791846
 20
337.70364369234
 30
0.0
 41
2.0
 42
2.0
 43
2.0
 50
90.0
  0
MTEXT
  5
45
330
3E
100
AcDbEntity
  8
SUNPO
 62
     0
100
AcDbMText
 10
64.4511498879184
 20
331.9486433923401
 30
0.0
 40
2.5
 41
0.0
 71
     5
 72
     1
  1
\A1;115
 11
0.0000000000000001
 21
1.0
 31
0.0
 73
     1
 44
1.0
1001
ACAD
1000
MTEXTBEGIN
1070
    73
1070
     1
1070
    44
1040
1.0
1070
    74
1070
     0
1000
MTEXTEND
  0
POINT
  5
46
330
3E
100
AcDbEntity
  8
Defpoints
 62
     0
100
AcDbPoint
 10
58.29308073839439
 20
326.1936430923402
 30
0.0
  0
POINT
  5
47
330
3E
100
AcDbEntity
  8
Defpoints
 62
     0
100
AcDbPoint
 10
58.29308073839439
 20
337.70364369234
 30
0.0
  0
POINT
  5
48
330
3E
100
AcDbEntity
  8
Defpoints
 62
     0
100
AcDbPoint
 10
66.20114988791846
 20
337.70364369234
 30
0.0
  0
ENDBLK
  5
49
330
3E
100
AcDbEntity
  8
0
100
AcDbBlockEnd
  0
BLOCK
  5
31
330
30
100
AcDbEntity
  8
0
100
AcDbBlockBegin
  2
*D2
 70
     1
 10
0.0
 20
0.0
 30
0.0
  3
*D2
  1

  0
LINE
  5
32
330
30
100
AcDbEntity
  8
SUNPO
 62
     0
370
    -2
100
AcDbLine
 10
42.99768525944381
 20
339.7022798030649
 30
0.0
 11
42.99768525944381
 21
347.7022798030649
 31
0.0
  0
LINE
  5
33
330
30
100
AcDbEntity
  8
SUNPO
 62
     0
370
    -2
100
AcDbLine
 10
58.29592445944382
 20
339.7022798030649
 30
0.0
 11
58.29592445944382
 21
347.7022798030649
 31
0.0
  0
LINE
  5
34
330
30
100
AcDbEntity
  8
SUNPO
 62
     0
370
    -2
100
AcDbLine
 10
44.99768525944381
 20
345.7022798030649
 30
0.0
 11
56.29592445944382
 21
345.7022798030649
 31
0.0
  0
INSERT
  5
35
330
30
100
AcDbEntity
  8
SUNPO
 62
     0
370
    -2
100
AcDbBlockReference
  2
_OPEN30
 10
42.99768525944381
 20
345.7022798030649
 30
0.0
 41
2.0
 42
2.0
 43
2.0
 50
180.0
  0
INSERT
  5
36
330
30
100
AcDbEntity
  8
SUNPO
 62
     0
370
    -2
100
AcDbBlockReference
  2
_OPEN30
 10
58.29592445944382
 20
345.7022798030649
 30
0.0
 41
2.0
 42
2.0
 43
2.0
  0
MTEXT
  5
37
330
30
100
AcDbEntity
  8
SUNPO
 62
     0
100
AcDbMText
 10
50.64680485944382
 20
347.4522798030649
 30
0.0
 40
2.5
 41
0.0
 71
     5
 72
     1
  1
\A1;φ153
 73
     1
 44
1.0
1001
ACAD
1000
MTEXTBEGIN
1070
    73
1070
     1
1070
    44
1040
1.0
1070
    74
1070
     0
1000
MTEXTEND
  0
POINT
  5
38
330
30
100
AcDbEntity
  8
Defpoints
 62
     0
100
AcDbPoint
 10
42.99768525944381
 20
337.7022798030649
 30
0.0
  0
POINT
  5
3A
330
30
100
AcDbEntity
  8
Defpoints
 62
     0
100
AcDbPoint
 10
58.29592445944382
 20
337.7022798030649
 30
0.0
  0
POINT
  5
3B
330
30
100
AcDbEntity
  8
Defpoints
 62
     0
100
AcDbPoint
 10
58.29592445944382
 20
345.7022798030649
 30
0.0
  0
ENDBLK
  5
3C
330
30
100
AcDbEntity
  8
0
100
AcDbBlockEnd
  0
BLOCK
  5
544
330
53A
100
AcDbEntity
  8
0
100
AcDbBlockBegin
  2
*D3
 70
     1
 10
0.0
 20
0.0
 30
0.0
  3
*D3
  1

  0
LINE
  5
53B
330
53A
100
AcDbEntity
  8
SUNPO
 62
     0
370
    -2
100
AcDbLine
 10
-2.422754775118562
 20
8.363992989580308
 30
0.0
 11
5.485314374405501
 21
8.363992989580307
 31
0.0
  0
LINE
  5
53C
330
53A
100
AcDbEntity
  8
SUNPO
 62
     0
370
    -2
100
AcDbLine
 10
-2.422754775118562
 20
19.87399358958021
 30
0.0
 11
5.485314374405504
 21
19.87399358958021
 31
0.0
  0
LINE
  5
53D
330
53A
100
AcDbEntity
  8
SUNPO
 62
     0
370
    -2
100
AcDbLine
 10
3.485314374405502
 20
10.36399298958031
 30
0.0
 11
3.485314374405504
 21
17.87399358958021
 31
0.0
  0
INSERT
  5
53E
330
53A
100
AcDbEntity
  8
SUNPO
 62
     0
370
    -2
100
AcDbBlockReference
  2
_OPEN30
 10
3.485314374405501
 20
8.363992989580308
 30
0.0
 41
2.0
 42
2.0
 43
2.0
 50
270.0
  0
INSERT
  5
53F
330
53A
100
AcDbEntity
  8
SUNPO
 62
     0
370
    -2
100
AcDbBlockReference
  2
_OPEN30
 10
3.485314374405504
 20
19.87399358958021
 30
0.0
 41
2.0
 42
2.0
 43
2.0
 50
90.0
  0
MTEXT
  5
540
330
53A
100
AcDbEntity
  8
SUNPO
 62
     0
100
AcDbMText
 10
1.7353143744055
 20
14.11899328958026
 30
0.0
 40
2.5
 41
0.0
 71
     5
 72
     1
  1
\A1;115
 11
0.0000000000000001
 21
1.0
 31
0.0
 73
     1
 44
1.0
1001
ACAD
1000
MTEXTBEGIN
1070
    73
1070
     1
1070
    44
1040
1.0
1070
    74
1070
     0
1000
MTEXTEND
  0
POINT
  5
541
330
53A
100
AcDbEntity
  8
Defpoints
 62
     0
100
AcDbPoint
 10
-4.422754775118562
 20
8.36399298958031
 30
0.0
  0
POINT
  5
542
330
53A
100
AcDbEntity
  8
Defpoints
 62
     0
100
AcDbPoint
 10
-4.422754775118562
 20
19.87399358958021
 30
0.0
  0
POINT
  5
543
330
53A
100
AcDbEntity
  8
Defpoints
 62
     0
100
AcDbPoint
 10
3.485314374405504
 20
19.87399358958021
 30
0.0
  0
ENDBLK
  5
545
330
53A
100
AcDbEntity
  8
0
100
AcDbBlockEnd
  0
BLOCK
  5
550
330
546
100
AcDbEntity
  8
0
100
AcDbBlockBegin
  2
*D4
 70
     1
 10
0.0
 20
0.0
 30
0.0
  3
*D4
  1

  0
LINE
  5
547
330
546
100
AcDbEntity
  8
SUNPO
 62
     0
370
    -2
100
AcDbLine
 10
-19.71815025406914
 20
21.87262970030508
 30
0.0
 11
-19.71815025406914
 21
29.87262970030503
 31
0.0
  0
LINE
  5
548
330
546
100
AcDbEntity
  8
SUNPO
 62
     0
370
    -2
100
AcDbLine
 10
-4.419911054069132
 20
21.87262970030503
 30
0.0
 11
-4.419911054069131
 21
29.87262970030503
 31
0.0
  0
LINE
  5
549
330
546
100
AcDbEntity
  8
SUNPO
 62
     0
370
    -2
100
AcDbLine
 10
-17.71815025406914
 20
27.87262970030503
 30
0.0
 11
-6.419911054069131
 21
27.87262970030503
 31
0.0
  0
INSERT
  5
54A
330
546
100
AcDbEntity
  8
SUNPO
 62
     0
370
    -2
100
AcDbBlockReference
  2
_OPEN30
 10
-19.71815025406914
 20
27.87262970030503
 30
0.0
 41
2.0
 42
2.0
 43
2.0
 50
180.0
  0
INSERT
  5
54B
330
546
100
AcDbEntity
  8
SUNPO
 62
     0
370
    -2
100
AcDbBlockReference
  2
_OPEN30
 10
-4.419911054069131
 20
27.87262970030503
 30
0.0
 41
2.0
 42
2.0
 43
2.0
  0
MTEXT
  5
54C
330
546
100
AcDbEntity
  8
SUNPO
 62
     0
100
AcDbMText
 10
-12.06903065406914
 20
29.62262970030503
 30
0.0
 40
2.5
 41
0.0
 71
     5
 72
     1
  1
\A1;φ153
 73
     1
 44
1.0
1001
ACAD
1000
MTEXTBEGIN
1070
    73
1070
     1
1070
    44
1040
1.0
1070
    74
1070
     0
1000
MTEXTEND
  0
POINT
  5
54D
330
546
100
AcDbEntity
  8
Defpoints
 62
     0
100
AcDbPoint
 10
-19.71815025406914
 20
19.87262970030508
 30
0.0
  0
POINT
  5
54E
330
546
100
AcDbEntity
  8
Defpoints
 62
     0
100
AcDbPoint
 10
-4.419911054069132
 20
19.87262970030502
 30
0.0
  0
POINT
  5
54F
330
546
100
AcDbEntity
  8
Defpoints
 62
     0
100
AcDbPoint
 10
-4.419911054069131
 20
27.87262970030503
 30
0.0
  0
ENDBLK
  5
551
330
546
100
AcDbEntity
  8
0
100
AcDbBlockEnd
  0
ENDSEC
  0
SECTION
  2
ENTITIES
  0
DIMENSION
  5
2F
330
2
100
AcDbEntity
  8
SUNPO
100
AcDbDimension
  2
*D4
 10
-4.419911054069131
 20
27.87262970030503
 30
0.0
 11
-12.06903065406914
 21
29.62262970030503
 31
0.0
 70
    33
  1
φ153
 71
     5
 42
15.29823920000001
  3
STANDARD
100
AcDbAlignedDimension
 13
-19.71815025406914
 23
19.87262970030508
 33
0.0
 14
-4.419911054069132
 24
19.87262970030502
 34
0.0
1001
ACAD
1000
DSTYLE
1002
{
1070
    40
1040
1.0
1070
   140
1040
2.5
1070
   147
1040
0.5
1070
   172
1070
     1
1070
   279
1070
     0
1070
   288
1070
     0
1002
}
  0
DIMENSION
  5
3D
330
2
100
AcDbEntity
  8
SUNPO
100
AcDbDimension
  2
*D3
 10
3.485314374405504
 20
19.87399358958021
 30
0.0
 11
1.7353143744055
 21
14.11899328958026
 31
0.0
 70
    33
  1
115
 71
     5
 42
11.5100005999999
  3
STANDARD
100
AcDbAlignedDimension
 13
-4.422754775118562
 23
8.36399298958031
 33
0.0
 14
-4.422754775118562
 24
19.87399358958021
 34
0.0
1001
ACAD
1000
DSTYLE
1002
{
1070
    40
1040
1.0
1070
   140
1040
2.5
1070
   147
1040
0.5
1070
   172
1070
     1
1070
   279
1070
     0
1070
   288
1070
     0
1002
}
  0
ARC
  5
4A
330
2
100
AcDbEntity
  8
GAIKEI
100
AcDbCircle
 10
11.94126046319148
 20
16.26399298958023
 30
0.0
 40
0.05
100
AcDbArc
 50
178.9999990000001
 51
270.0000030000042
  0
ARC
  5
4C
330
2
100
AcDbEntity
  8
GAIKEI
100
AcDbCircle
 10
11.99301216319149
 20
16.3639929895802
 30
0.0
 40
0.1
100
AcDbArc
 50
89.9999970000023
 51
179.0
  0
LINE
  5
4D
330
2
100
AcDbEntity
  8
GAIKEI
 48
0.025222
100
AcDbLine
 10
11.89302446319145
 20
16.36573858958024
 30
0.0
 11
11.89126656319148
 21
16.2648657895802
 31
0.0
  0
LINE
  5
4E
330
2
100
AcDbEntity
  8
GAIKEI
 62
     1
100
AcDbLine
 10
13.82651736580948
 20
17.60832578958025
 30
0.0
 11
13.8408331658095
 21
17.60607058958021
 31
0.0
  0
LINE
  5
4F
330
2
100
AcDbEntity
  8
GAIKEI
 62
     1
100
AcDbLine
 10
13.80932686580951
 20
17.61467958958025
 30
0.0
 11
13.82651736580948
 21
17.60832578958025
 31
0.0
  0
LINE
  5
50
330
2
100
AcDbEntity
  8
GAIKEI
 62
     1
100
AcDbLine
 10
13.79704656580946
 20
17.62356938958021
 30
0.0
 11
13.80932686580951
 21
17.61467958958025
 31
0.0
  0
LINE
  5
51
330
2
100
AcDbEntity
  8
GAIKEI
 62
     1
100
AcDbLine
 10
13.78619756580951
 20
17.63494938958024
 30
0.0
 11
13.79704656580946
 21
17.62356938958021
 31
0.0
  0
LINE
  5
52
330
2
100
AcDbEntity
  8
GAIKEI
 62
     1
100
AcDbLine
 10
13.77370366580948
 20
17.65405028958025
 30
0.0
 11
13.78619756580951
 21
17.63494938958024
 31
0.0
  0
LINE
  5
53
330
2
100
AcDbEntity
  8
GAIKEI
 62
     1
100
AcDbLine
 10
13.76469186580948
 20
17.67591008958021
 30
0.0
 11
13.77370366580948
 21
17.65405028958025
 31
0.0
  0
LINE
  5
54
330
2
100
AcDbEntity
  8
GAIKEI
 62
     1
100
AcDbLine
 10
13.75927186580947
 20
17.69948798958023
 30
0.0
 11
13.76469186580948
 21
17.67591008958021
 31
0.0
  0
LINE
  5
55
330
2
100
AcDbEntity
  8
GAIKEI
 62
     1
100
AcDbLine
 10
13.75744996580948
 20
17.72405458958025
 30
0.0
 11
13.75927186580947
 21
17.69948798958023
 31
0.0
  0
LINE
  5
56
330
2
100
AcDbEntity
  8
GAIKEI
 62
     1
100
AcDbLine
 10
13.75929016580949
 20
17.74863958958025
 30
0.0
 11
13.75744996580948
 21
17.72405458958025
 31
0.0
  0
LINE
  5
57
330
2
100
AcDbEntity
  8
GAIKEI
 62
     1
100
AcDbLine
 10
13.76478946580948
 20
17.77237308958024
 30
0.0
 11
13.75929016580949
 21
17.74863958958025
 31
0.0
  0
LINE
  5
58
330
2
100
AcDbEntity
  8
GAIKEI
 62
     1
100
AcDbLine
 10
13.77096926580947
 20
17.78837348958024
 30
0.0
 11
13.76478946580948
 21
17.77237308958024
 31
0.0
  0
LINE
  5
59
330
2
100
AcDbEntity
  8
GAIKEI
 62
     1
100
AcDbLine
 10
13.77899846580948
 20
17.80307378958025
 30
0.0
 11
13.77096926580947
 21
17.78837348958024
 31
0.0
  0
LINE
  5
5A
330
2
100
AcDbEntity
  8
GAIKEI
 62
     1
100
AcDbLine
 10
13.78835516580949
 20
17.81560118958021
 30
0.0
 11
13.77899846580948
 21
17.80307378958025
 31
0.0
  0
LINE
  5
5B
330
2
100
AcDbEntity
  8
GAIKEI
 62
     1
100
AcDbLine
 10
13.79918886580952
 20
17.8262579895802
 30
0.0
 11
13.78835516580949
 21
17.81560118958021
 31
0.0
  0
LINE
  5
5C
330
2
100
AcDbEntity
  8
GAIKEI
 62
     1
100
AcDbLine
 10
13.81502746580946
 20
17.83612738958021
 30
0.0
 11
13.79918886580952
 21
17.8262579895802
 31
0.0
  0
LINE
  5
5D
330
2
100
AcDbEntity
  8
GAIKEI
 62
     1
100
AcDbLine
 10
13.82344426580948
 20
17.83893798958024
 30
0.0
 11
13.81502746580946
 21
17.83612738958021
 31
0.0
  0
LINE
  5
5E
330
2
100
AcDbEntity
  8
GAIKEI
 62
     1
100
AcDbLine
 10
13.8408331658095
 20
17.84191648958023
 30
0.0
 11
13.82344426580948
 21
17.83893798958024
 31
0.0
  0
LINE
  5
5F
330
2
100
AcDbEntity
  8
GAIKEI
 62
     1
100
AcDbLine
 10
14.0155340658095
 20
17.84158078958023
 30
0.0
 11
13.99800476580947
 21
17.84416868958021
 31
0.0
  0
LINE
  5
60
330
2
100
AcDbEntity
  8
GAIKEI
 62
     1
100
AcDbLine
 10
14.03433906580949
 20
17.83262998958025
 30
0.0
 11
14.0155340658095
 21
17.84158078958023
 31
0.0
  0
LINE
  5
61
330
2
100
AcDbEntity
  8
GAIKEI
 62
     1
100
AcDbLine
 10
14.0157294658095
 20
17.60646428958023
 30
0.0
 11
14.03433296580948
 21
17.61536318958025
 31
0.0
  0
LINE
  5
62
330
2
100
AcDbEntity
  8
GAIKEI
 62
     1
100
AcDbLine
 10
13.99800476580947
 20
17.60381838958022
 30
0.0
 11
14.0157294658095
 21
17.60646428958023
 31
0.0
  0
LINE
  5
63
330
2
100
AcDbEntity
  8
GAIKEI
 62
     1
100
AcDbLine
 10
22.09483706580948
 20
17.85889038958021
 30
0.0
 11
22.10416936580947
 21
17.85903388958024
 31
0.0
  0
LINE
  5
64
330
2
100
AcDbEntity
  8
GAIKEI
 62
     1
100
AcDbLine
 10
22.07476266580949
 20
17.86322088958025
 30
0.0
 11
22.09483706580948
 21
17.85889038958021
 31
0.0
  0
LINE
  5
65
330
2
100
AcDbEntity
  8
GAIKEI
 62
     1
100
AcDbLine
 10
22.0624335658095
 20
17.86955628958026
 30
0.0
 11
22.07476266580949
 21
17.86322088958025
 31
0.0
  0
LINE
  5
66
330
2
100
AcDbEntity
  8
GAIKEI
 62
     1
100
AcDbLine
 10
22.05159366580949
 20
17.87848268958021
 30
0.0
 11
22.0624335658095
 21
17.86955628958026
 31
0.0
  0
LINE
  5
67
330
2
100
AcDbEntity
  8
GAIKEI
 62
     1
100
AcDbLine
 10
17.44282296580951
 20
19.85739808958021
 30
0.0
 11
17.4259222658095
 21
19.85970218958022
 31
0.0
  0
LINE
  5
68
330
2
100
AcDbEntity
  8
GAIKEI
 62
     1
100
AcDbLine
 10
17.48114076580947
 20
19.84729368958022
 30
0.0
 11
17.44282296580951
 21
19.85739808958021
 31
0.0
  0
LINE
  5
69
330
2
100
AcDbEntity
  8
GAIKEI
 62
     1
100
AcDbLine
 10
17.50956486580946
 20
19.83443968958022
 30
0.0
 11
17.48114076580947
 21
19.84729368958022
 31
0.0
  0
LINE
  5
6A
330
2
100
AcDbEntity
  8
GAIKEI
 62
     1
100
AcDbLine
 10
17.53623726580952
 20
19.81639468958025
 30
0.0
 11
17.50956486580946
 21
19.83443968958022
 31
0.0
  0
LINE
  5
6B
330
2
100
AcDbEntity
  8
GAIKEI
 62
     1
100
AcDbLine
 10
17.55329656580949
 20
19.79994878958024
 30
0.0
 11
17.53623726580952
 21
19.81639468958025
 31
0.0
  0
LINE
  5
6C
330
2
100
AcDbEntity
  8
GAIKEI
 62
     1
100
AcDbLine
 10
17.56785346580949
 20
19.7799932895802
 30
0.0
 11
17.55329656580949
 21
19.79994878958024
 31
0.0
  0
LINE
  5
6D
330
2
100
AcDbEntity
  8
GAIKEI
 62
     1
100
AcDbLine
 10
17.57420106580952
 20
19.76796328958022
 30
0.0
 11
17.56785346580949
 21
19.7799932895802
 31
0.0
  0
LINE
  5
6E
330
2
100
AcDbEntity
  8
GAIKEI
 62
     1
100
AcDbLine
 10
17.58112856580948
 20
19.74560918958025
 30
0.0
 11
17.57420106580952
 21
19.76796328958022
 31
0.0
  0
LINE
  5
6F
330
2
100
AcDbEntity
  8
GAIKEI
 62
     1
100
AcDbLine
 10
17.58364326580948
 20
19.72619078958024
 30
0.0
 11
17.58112856580948
 21
19.74560918958025
 31
0.0
  0
LINE
  5
70
330
2
100
AcDbEntity
  8
GAIKEI
 62
     1
100
AcDbLine
 10
13.4278845658095
 20
19.74588078958021
 30
0.0
 11
13.42505256580949
 21
19.72619078958024
 31
0.0
  0
LINE
  5
71
330
2
100
AcDbEntity
  8
GAIKEI
 62
     1
100
AcDbLine
 10
13.43545596580947
 20
19.76789618958025
 30
0.0
 11
13.4278845658095
 21
19.74588078958021
 31
0.0
  0
LINE
  5
72
330
2
100
AcDbEntity
  8
GAIKEI
 62
     1
100
AcDbLine
 10
13.44220646580948
 20
19.77951718958024
 30
0.0
 11
13.43545596580947
 21
19.76789618958025
 31
0.0
  0
LINE
  5
73
330
2
100
AcDbEntity
  8
GAIKEI
 62
     1
100
AcDbLine
 10
13.45783756580948
 20
19.79910038958024
 30
0.0
 11
13.44220646580948
 21
19.77951718958024
 31
0.0
  0
LINE
  5
74
330
2
100
AcDbEntity
  8
GAIKEI
 62
     1
100
AcDbLine
 10
13.47606876580949
 20
19.81524108958024
 30
0.0
 11
13.45783756580948
 21
19.79910038958024
 31
0.0
  0
LINE
  5
75
330
2
100
AcDbEntity
  8
GAIKEI
 62
     1
100
AcDbLine
 10
13.49358276580949
 20
19.82698728958024
 30
0.0
 11
13.47606876580949
 21
19.81524108958024
 31
0.0
  0
LINE
  5
76
330
2
100
AcDbEntity
  8
GAIKEI
 62
     1
100
AcDbLine
 10
13.5120703658095
 20
19.83669798958021
 30
0.0
 11
13.49358276580949
 21
19.82698728958024
 31
0.0
  0
LINE
  5
77
330
2
100
AcDbEntity
  8
GAIKEI
 62
     1
100
AcDbLine
 10
13.5348669658095
 20
19.84584418958025
 30
0.0
 11
13.5120703658095
 21
19.83669798958021
 31
0.0
  0
LINE
  5
78
330
2
100
AcDbEntity
  8
GAIKEI
 62
     1
100
AcDbLine
 10
13.55816406580948
 20
19.8526434895802
 30
0.0
 11
13.5348669658095
 21
19.84584418958025
 31
0.0
  0
LINE
  5
79
330
2
100
AcDbEntity
  8
GAIKEI
 62
     1
100
AcDbLine
 10
13.60166076580947
 20
19.85970218958022
 30
0.0
 11
13.55816406580948
 21
19.8526434895802
 31
0.0
  0
LINE
  5
7A
330
2
100
AcDbEntity
  8
GAIKEI
 62
     1
100
AcDbLine
 10
17.71842106580948
 20
19.8063238895802
 30
0.0
 11
17.71849426580951
 21
19.7272192895802
 31
0.0
  0
LINE
  5
7B
330
2
100
AcDbEntity
  8
GAIKEI
 62
     1
100
AcDbLine
 10
17.72028876580947
 20
19.85276858958025
 30
0.0
 11
17.71842106580948
 21
19.8063238895802
 31
0.0
  0
LINE
  5
7C
330
2
100
AcDbEntity
  8
GAIKEI
 62
     1
100
AcDbLine
 10
17.72173526580951
 20
19.8600408895802
 30
0.0
 11
17.72028876580947
 21
19.85276858958025
 31
0.0
  0
LINE
  5
7D
330
2
100
AcDbEntity
  8
GAIKEI
 62
     1
100
AcDbLine
 10
17.70786806580952
 20
19.5438604895802
 30
0.0
 11
17.67763126580951
 21
19.5148657895802
 31
0.0
  0
LINE
  5
7E
330
2
100
AcDbEntity
  8
GAIKEI
 62
     1
100
AcDbLine
 10
17.72736886580952
 20
19.55882628958022
 30
0.0
 11
17.70786806580952
 21
19.5438604895802
 31
0.0
  0
LINE
  5
7F
330
2
100
AcDbEntity
  8
GAIKEI
 62
     1
100
AcDbLine
 10
17.73584656580948
 20
19.5633306895802
 30
0.0
 11
17.72736886580952
 21
19.55882628958022
 31
0.0
  0
LINE
  5
80
330
2
100
AcDbEntity
  8
GAIKEI
 62
     1
100
AcDbLine
 10
17.73892276580949
 20
19.56399298958024
 30
0.0
 11
17.73584656580948
 21
19.5633306895802
 31
0.0
  0
LINE
  5
81
330
2
100
AcDbEntity
  8
GAIKEI
 62
     1
100
AcDbLine
 10
19.96900696580951
 20
19.53960638958023
 30
0.0
 11
19.9939215658095
 21
19.5148657895802
 31
0.0
  0
LINE
  5
82
330
2
100
AcDbEntity
  8
GAIKEI
 62
     1
100
AcDbLine
 10
19.94664376580948
 20
19.56030028958025
 30
0.0
 11
19.96900696580951
 21
19.53960638958023
 31
0.0
  0
LINE
  5
83
330
2
100
AcDbEntity
  8
GAIKEI
 62
     1
100
AcDbLine
 10
19.94194396580951
 20
19.56382818958025
 30
0.0
 11
19.94664376580948
 21
19.56030028958025
 31
0.0
  0
LINE
  5
84
330
2
100
AcDbEntity
  8
GAIKEI
 62
     1
100
AcDbLine
 10
19.94161446580949
 20
19.56396848958025
 30
0.0
 11
19.94194396580951
 21
19.56382818958025
 31
0.0
  0
LINE
  5
85
330
2
100
AcDbEntity
  8
GAIKEI
 62
     1
100
AcDbLine
 10
19.94144356580949
 20
19.56399298958024
 30
0.0
 11
19.94161446580949
 21
19.56396848958025
 31
0.0
  0
LINE
  5
86
330
2
100
AcDbEntity
  8
GAIKEI
 62
     1
100
AcDbLine
 10
13.84793156580952
 20
17.85520688958024
 30
0.0
 11
13.85994936580948
 21
17.85690368958023
 31
0.0
  0
LINE
  5
87
330
2
100
AcDbEntity
  8
GAIKEI
 62
     1
100
AcDbLine
 10
13.82919376580952
 20
17.84919498958021
 30
0.0
 11
13.84793156580952
 21
17.85520688958024
 31
0.0
  0
LINE
  5
88
330
2
100
AcDbEntity
  8
GAIKEI
 62
     1
100
AcDbLine
 10
13.80960756580947
 20
17.83777838958025
 30
0.0
 11
13.82919376580952
 21
17.84919498958021
 31
0.0
  0
LINE
  5
89
330
2
100
AcDbEntity
  8
GAIKEI
 62
     1
100
AcDbLine
 10
13.79251776580946
 20
17.82202208958023
 30
0.0
 11
13.80960756580947
 21
17.83777838958025
 31
0.0
  0
LINE
  5
8A
330
2
100
AcDbEntity
  8
GAIKEI
 62
     1
100
AcDbLine
 10
13.78039616580946
 20
17.80576238958025
 30
0.0
 11
13.79251776580946
 21
17.82202208958023
 31
0.0
  0
LINE
  5
8B
330
2
100
AcDbEntity
  8
GAIKEI
 62
     1
100
AcDbLine
 10
13.76780766580947
 20
17.78008178958021
 30
0.0
 11
13.78039616580946
 21
17.80576238958025
 31
0.0
  0
LINE
  5
8C
330
2
100
AcDbEntity
  8
GAIKEI
 62
     1
100
AcDbLine
 10
13.76038576580947
 20
17.7524999895802
 30
0.0
 11
13.76780766580947
 21
17.78008178958021
 31
0.0
  0
LINE
  5
8D
330
2
100
AcDbEntity
  8
GAIKEI
 62
     1
100
AcDbLine
 10
13.75808476580948
 20
17.71683408958023
 30
0.0
 11
13.76038576580947
 21
17.7524999895802
 31
0.0
  0
LINE
  5
8E
330
2
100
AcDbEntity
  8
GAIKEI
 62
     1
100
AcDbLine
 10
13.76176826580951
 20
17.68847718958022
 30
0.0
 11
13.75808476580948
 21
17.71683408958023
 31
0.0
  0
LINE
  5
8F
330
2
100
AcDbEntity
  8
GAIKEI
 62
     1
100
AcDbLine
 10
13.77045046580952
 20
17.66128298958023
 30
0.0
 11
13.76176826580951
 21
17.68847718958022
 31
0.0
  0
LINE
  5
90
330
2
100
AcDbEntity
  8
GAIKEI
 62
     1
100
AcDbLine
 10
13.78437256580952
 20
17.63626158958021
 30
0.0
 11
13.77045046580952
 21
17.66128298958023
 31
0.0
  0
LINE
  5
91
330
2
100
AcDbEntity
  8
GAIKEI
 62
     1
100
AcDbLine
 10
13.80067506580951
 20
17.61761838958023
 30
0.0
 11
13.78437256580952
 21
17.63626158958021
 31
0.0
  0
LINE
  5
92
330
2
100
AcDbEntity
  8
GAIKEI
 62
     1
100
AcDbLine
 10
13.8158636658095
 20
17.60590888958023
 30
0.0
 11
13.80067506580951
 21
17.61761838958023
 31
0.0
  0
LINE
  5
93
330
2
100
AcDbEntity
  8
GAIKEI
 62
     1
100
AcDbLine
 10
13.83620366580948
 20
17.5960363895802
 30
0.0
 11
13.8158636658095
 21
17.60590888958023
 31
0.0
  0
LINE
  5
94
330
2
100
AcDbEntity
  8
GAIKEI
 62
     1
100
AcDbLine
 10
13.85994936580948
 20
17.5910833895802
 30
0.0
 11
13.83620366580948
 21
17.5960363895802
 31
0.0
  0
LINE
  5
95
330
2
100
AcDbEntity
  8
GAIKEI
 62
     1
100
AcDbLine
 10
14.05497506580951
 20
17.81581788958021
 30
0.0
 11
13.99440986580947
 21
17.81405088958024
 31
0.0
  0
LINE
  5
96
330
2
100
AcDbEntity
  8
GAIKEI
 62
     1
100
AcDbLine
 10
14.08637146580952
 20
17.81897338958021
 30
0.0
 11
14.05497506580951
 21
17.81581788958021
 31
0.0
  0
LINE
  5
97
330
2
100
AcDbEntity
  8
GAIKEI
 62
     1
100
AcDbLine
 10
14.0512640658095
 20
17.6324102895802
 30
0.0
 11
13.99440986580947
 21
17.63393618958025
 31
0.0
  0
LINE
  5
98
330
2
100
AcDbEntity
  8
GAIKEI
 62
     1
100
AcDbLine
 10
14.08637146580952
 20
17.62901368958023
 30
0.0
 11
14.0512640658095
 21
17.6324102895802
 31
0.0
  0
LINE
  5
99
330
2
100
AcDbEntity
  8
GAIKEI
 62
     1
100
AcDbLine
 10
14.05497506580951
 20
17.81581788958021
 30
0.0
 11
13.99440986580947
 21
17.81405088958024
 31
0.0
  0
LINE
  5
9A
330
2
100
AcDbEntity
  8
GAIKEI
 62
     1
100
AcDbLine
 10
14.08637146580952
 20
17.81897338958021
 30
0.0
 11
14.05497506580951
 21
17.81581788958021
 31
0.0
  0
LINE
  5
9B
330
2
100
AcDbEntity
  8
GAIKEI
 62
     1
100
AcDbLine
 10
14.0512640658095
 20
17.6324102895802
 30
0.0
 11
13.99440986580947
 21
17.63393618958025
 31
0.0
  0
LINE
  5
9C
330
2
100
AcDbEntity
  8
GAIKEI
 62
     1
100
AcDbLine
 10
14.08637146580952
 20
17.62901368958023
 30
0.0
 11
14.0512640658095
 21
17.6324102895802
 31
0.0
  0
LINE
  5
9D
330
2
100
AcDbEntity
  8
GAIKEI
 62
     1
100
AcDbLine
 10
18.30551826580949
 20
9.190602789580225
 30
0.0
 11
18.23850166580951
 21
9.210068389580214
 31
0.0
  0
LINE
  5
9E
330
2
100
AcDbEntity
  8
GAIKEI
 62
     1
100
AcDbLine
 10
18.37116156580947
 20
9.17258818958021
 30
0.0
 11
18.30551826580949
 21
9.190602789580225
 31
0.0
  0
LINE
  5
9F
330
2
100
AcDbEntity
  8
GAIKEI
 62
     1
100
AcDbLine
 10
18.43542546580948
 20
9.155954589580233
 30
0.0
 11
18.37116156580947
 21
9.17258818958021
 31
0.0
  0
LINE
  5
A0
330
2
100
AcDbEntity
  8
GAIKEI
 62
     1
100
AcDbLine
 10
18.49830386580947
 20
9.140625589580224
 30
0.0
 11
18.43542546580948
 21
9.155954589580233
 31
0.0
  0
LINE
  5
A1
330
2
100
AcDbEntity
  8
GAIKEI
 62
     1
100
AcDbLine
 10
18.55980896580951
 20
9.126529589580229
 30
0.0
 11
18.49830386580947
 21
9.140625589580224
 31
0.0
  0
LINE
  5
A2
330
2
100
AcDbEntity
  8
GAIKEI
 62
     1
100
AcDbLine
 10
18.61997136580948
 20
9.113599289580236
 30
0.0
 11
18.55980896580951
 21
9.126529589580229
 31
0.0
  0
LINE
  5
A3
330
2
100
AcDbEntity
  8
GAIKEI
 62
     1
100
AcDbLine
 10
18.67882756580951
 20
9.101762989580208
 30
0.0
 11
18.61997136580948
 21
9.113599289580236
 31
0.0
  0
LINE
  5
A4
330
2
100
AcDbEntity
  8
GAIKEI
 62
     1
100
AcDbLine
 10
18.73643256580948
 20
9.090955189580199
 30
0.0
 11
18.67882756580951
 21
9.101762989580208
 31
0.0
  0
LINE
  5
A5
330
2
100
AcDbEntity
  8
GAIKEI
 62
     1
100
AcDbLine
 10
18.79283516580949
 20
9.08111328958023
 30
0.0
 11
18.73643256580948
 21
9.090955189580199
 31
0.0
  0
LINE
  5
A6
330
2
100
AcDbEntity
  8
GAIKEI
 62
     1
100
AcDbLine
 10
18.84811466580947
 20
9.072177789580223
 30
0.0
 11
18.79283516580949
 21
9.08111328958023
 31
0.0
  0
LINE
  5
A7
330
2
100
AcDbEntity
  8
GAIKEI
 62
     1
100
AcDbLine
 10
18.90231996580951
 20
9.064093689580204
 30
0.0
 11
18.84811466580947
 21
9.072177789580223
 31
0.0
  0
LINE
  5
A8
330
2
100
AcDbEntity
  8
GAIKEI
 62
     1
100
AcDbLine
 10
18.95553656580949
 20
9.056809089580212
 30
0.0
 11
18.90231996580951
 21
9.064093689580204
 31
0.0
  0
LINE
  5
A9
330
2
100
AcDbEntity
  8
GAIKEI
 62
     1
100
AcDbLine
 10
19.00781926580947
 20
9.05028138958022
 30
0.0
 11
18.95553656580949
 21
9.056809089580212
 31
0.0
  0
LINE
  5
AA
330
2
100
AcDbEntity
  8
GAIKEI
 62
     1
100
AcDbLine
 10
19.0592474658095
 20
9.044466289580213
 30
0.0
 11
19.00781926580947
 21
9.05028138958022
 31
0.0
  0
LINE
  5
AB
330
2
100
AcDbEntity
  8
GAIKEI
 62
     1
100
AcDbLine
 10
19.10990056580948
 20
9.039324089580247
 30
0.0
 11
19.0592474658095
 21
9.044466289580213
 31
0.0
  0
LINE
  5
AC
330
2
100
AcDbEntity
  8
GAIKEI
 62
     1
100
AcDbLine
 10
19.1598578658095
 20
9.034821189580213
 30
0.0
 11
19.10990056580948
 21
9.039324089580247
 31
0.0
  0
LINE
  5
AD
330
2
100
AcDbEntity
  8
GAIKEI
 62
     1
100
AcDbLine
 10
19.20919256580947
 20
9.030925589580249
 30
0.0
 11
19.1598578658095
 21
9.034821189580213
 31
0.0
  0
LINE
  5
AE
330
2
100
AcDbEntity
  8
GAIKEI
 62
     1
100
AcDbLine
 10
19.25799016580947
 20
9.027609889580219
 30
0.0
 11
19.20919256580947
 21
9.030925589580249
 31
0.0
  0
LINE
  5
AF
330
2
100
AcDbEntity
  8
GAIKEI
 62
     1
100
AcDbLine
 10
19.3063421658095
 20
9.024851089580238
 30
0.0
 11
19.25799016580947
 21
9.027609889580219
 31
0.0
  0
LINE
  5
B0
330
2
100
AcDbEntity
  8
GAIKEI
 62
     1
100
AcDbLine
 10
19.35433416580952
 20
9.022627889580235
 30
0.0
 11
19.3063421658095
 21
9.024851089580238
 31
0.0
  0
LINE
  5
B1
330
2
100
AcDbEntity
  8
GAIKEI
 62
     1
100
AcDbLine
 10
19.40202706580947
 20
9.020923489580241
 30
0.0
 11
19.35433416580952
 21
9.022627889580235
 31
0.0
  0
LINE
  5
B2
330
2
100
AcDbEntity
  8
GAIKEI
 62
     1
100
AcDbLine
 10
19.44949406580952
 20
9.019727189580237
 30
0.0
 11
19.40202706580947
 21
9.020923489580241
 31
0.0
  0
LINE
  5
B3
330
2
100
AcDbEntity
  8
GAIKEI
 62
     1
100
AcDbLine
 10
19.49682686580951
 20
9.019025289580213
 30
0.0
 11
19.44949406580952
 21
9.019727189580237
 31
0.0
  0
LINE
  5
B4
330
2
100
AcDbEntity
  8
GAIKEI
 62
     1
100
AcDbLine
 10
19.5440863658095
 20
9.018811689580218
 30
0.0
 11
19.49682686580951
 21
9.019025289580213
 31
0.0
  0
LINE
  5
B5
330
2
100
AcDbEntity
  8
GAIKEI
 62
     1
100
AcDbLine
 10
16.94770576580947
 20
9.885925889580221
 30
0.0
 11
16.9084234658095
 21
9.918921489580213
 31
0.0
  0
LINE
  5
B6
330
2
100
AcDbEntity
  8
GAIKEI
 62
     1
100
AcDbLine
 10
16.98739076580949
 20
9.853726789580207
 30
0.0
 11
16.94770576580947
 21
9.885925889580221
 31
0.0
  0
LINE
  5
B7
330
2
100
AcDbEntity
  8
GAIKEI
 62
     1
100
AcDbLine
 10
17.0274359658095
 20
9.822315089580229
 30
0.0
 11
16.98739076580949
 21
9.853726789580207
 31
0.0
  0
LINE
  5
B8
330
2
100
AcDbEntity
  8
GAIKEI
 62
     1
100
AcDbLine
 10
17.06780456580947
 20
9.791675489580256
 30
0.0
 11
17.0274359658095
 21
9.822315089580229
 31
0.0
  0
LINE
  5
B9
330
2
100
AcDbEntity
  8
GAIKEI
 62
     1
100
AcDbLine
 10
17.10844796580949
 20
9.761798689580245
 30
0.0
 11
17.06780456580947
 21
9.791675489580256
 31
0.0
  0
LINE
  5
BA
330
2
100
AcDbEntity
  8
GAIKEI
 62
     1
100
AcDbLine
 10
17.14932926580951
 20
9.732675789580241
 30
0.0
 11
17.10844796580949
 21
9.761798689580245
 31
0.0
  0
LINE
  5
BB
330
2
100
AcDbEntity
  8
GAIKEI
 62
     1
100
AcDbLine
 10
17.19038146580948
 20
9.704276189580241
 30
0.0
 11
17.14932926580951
 21
9.732675789580241
 31
0.0
  0
LINE
  5
BC
330
2
100
AcDbEntity
  8
GAIKEI
 62
     1
100
AcDbLine
 10
17.23157416580949
 20
9.676578389580242
 30
0.0
 11
17.19038146580948
 21
9.704276189580241
 31
0.0
  0
LINE
  5
BD
330
2
100
AcDbEntity
  8
GAIKEI
 62
     1
100
AcDbLine
 10
17.27287056580951
 20
9.649576489580226
 30
0.0
 11
17.23157416580949
 21
9.676578389580242
 31
0.0
  0
LINE
  5
BE
330
2
100
AcDbEntity
  8
GAIKEI
 62
     1
100
AcDbLine
 10
17.31425846580947
 20
9.623261089580239
 30
0.0
 11
17.27287056580951
 21
9.649576489580226
 31
0.0
  0
LINE
  5
BF
330
2
100
AcDbEntity
  8
GAIKEI
 62
     1
100
AcDbLine
 10
17.3557745658095
 20
9.597626389580227
 30
0.0
 11
17.31425846580947
 21
9.623261089580239
 31
0.0
  0
LINE
  5
C0
330
2
100
AcDbEntity
  8
GAIKEI
 62
     1
100
AcDbLine
 10
17.39743716580949
 20
9.572669089580244
 30
0.0
 11
17.3557745658095
 21
9.597626389580227
 31
0.0
  0
LINE
  5
C1
330
2
100
AcDbEntity
  8
GAIKEI
 62
     1
100
AcDbLine
 10
17.43926456580948
 20
9.548395389580207
 30
0.0
 11
17.39743716580949
 21
9.572669089580244
 31
0.0
  0
LINE
  5
C2
330
2
100
AcDbEntity
  8
GAIKEI
 62
     1
100
AcDbLine
 10
17.48125676580952
 20
9.524820589580201
 30
0.0
 11
17.43926456580948
 21
9.548395389580207
 31
0.0
  0
LINE
  5
C3
330
2
100
AcDbEntity
  8
GAIKEI
 62
     1
100
AcDbLine
 10
17.52340766580948
 20
9.501947689580219
 30
0.0
 11
17.48125676580952
 21
9.524820589580201
 31
0.0
  0
LINE
  5
C4
330
2
100
AcDbEntity
  8
GAIKEI
 62
     1
100
AcDbLine
 10
17.56573556580952
 20
9.479749189580218
 30
0.0
 11
17.52340766580948
 21
9.501947689580219
 31
0.0
  0
LINE
  5
C5
330
2
100
AcDbEntity
  8
GAIKEI
 62
     1
100
AcDbLine
 10
17.6081610658095
 20
9.458228189580211
 30
0.0
 11
17.56573556580952
 21
9.479749189580218
 31
0.0
  0
LINE
  5
C6
330
2
100
AcDbEntity
  8
GAIKEI
 62
     1
100
AcDbLine
 10
17.65056826580951
 20
9.437398389580209
 30
0.0
 11
17.6081610658095
 21
9.458228189580211
 31
0.0
  0
LINE
  5
C7
330
2
100
AcDbEntity
  8
GAIKEI
 62
     1
100
AcDbLine
 10
17.69297546580952
 20
9.417218689580238
 30
0.0
 11
17.65056826580951
 21
9.437398389580209
 31
0.0
  0
LINE
  5
C8
330
2
100
AcDbEntity
  8
GAIKEI
 62
     1
100
AcDbLine
 10
17.7353827658095
 20
9.39767518958024
 30
0.0
 11
17.69297546580952
 21
9.417218689580238
 31
0.0
  0
LINE
  5
C9
330
2
100
AcDbEntity
  8
GAIKEI
 62
     1
100
AcDbLine
 10
17.77776556580949
 20
9.378760389580236
 30
0.0
 11
17.7353827658095
 21
9.39767518958024
 31
0.0
  0
LINE
  5
CA
330
2
100
AcDbEntity
  8
GAIKEI
 62
     1
100
AcDbLine
 10
17.82010566580948
 20
9.360468189580217
 30
0.0
 11
17.77776556580949
 21
9.378760389580236
 31
0.0
  0
LINE
  5
CB
330
2
100
AcDbEntity
  8
GAIKEI
 62
     1
100
AcDbLine
 10
17.86239076580949
 20
9.342790889580214
 30
0.0
 11
17.82010566580948
 21
9.360468189580217
 31
0.0
  0
LINE
  5
CC
330
2
100
AcDbEntity
  8
GAIKEI
 62
     1
100
AcDbLine
 10
17.90462106580952
 20
9.325719289580206
 30
0.0
 11
17.86239076580949
 21
9.342790889580214
 31
0.0
  0
LINE
  5
CD
330
2
100
AcDbEntity
  8
GAIKEI
 62
     1
100
AcDbLine
 10
17.94678406580948
 20
9.309248989580225
 30
0.0
 11
17.90462106580952
 21
9.325719289580206
 31
0.0
  0
LINE
  5
CE
330
2
100
AcDbEntity
  8
GAIKEI
 62
     1
100
AcDbLine
 10
17.98884956580951
 20
9.293375289580239
 30
0.0
 11
17.94678406580948
 21
9.309248989580225
 31
0.0
  0
LINE
  5
CF
330
2
100
AcDbEntity
  8
GAIKEI
 62
     1
100
AcDbLine
 10
18.03081116580949
 20
9.278093589580237
 30
0.0
 11
17.98884956580951
 21
9.293375289580239
 31
0.0
  0
LINE
  5
D0
330
2
100
AcDbEntity
  8
GAIKEI
 62
     1
100
AcDbLine
 10
18.0726507658095
 20
9.263391789580225
 30
0.0
 11
18.03081116580949
 21
9.278093589580237
 31
0.0
  0
LINE
  5
D1
330
2
100
AcDbEntity
  8
GAIKEI
 62
     1
100
AcDbLine
 10
18.11435616580951
 20
9.249252989580213
 30
0.0
 11
18.0726507658095
 21
9.263391789580225
 31
0.0
  0
LINE
  5
D2
330
2
100
AcDbEntity
  8
GAIKEI
 62
     1
100
AcDbLine
 10
18.15590886580952
 20
9.235663489580247
 30
0.0
 11
18.11435616580951
 21
9.249252989580213
 31
0.0
  0
LINE
  5
D3
330
2
100
AcDbEntity
  8
GAIKEI
 62
     1
100
AcDbLine
 10
18.19729066580947
 20
9.222606489580243
 30
0.0
 11
18.15590886580952
 21
9.235663489580247
 31
0.0
  0
LINE
  5
D4
330
2
100
AcDbEntity
  8
GAIKEI
 62
     1
100
AcDbLine
 10
18.23850166580951
 20
9.210068389580214
 30
0.0
 11
18.19729066580947
 21
9.222606489580243
 31
0.0
  0
LINE
  5
D5
330
2
100
AcDbEntity
  8
GAIKEI
 62
     1
100
AcDbLine
 10
15.74519106580948
 20
11.60860358958024
 30
0.0
 11
15.71350776580948
 21
11.70062628958021
 31
0.0
  0
LINE
  5
D6
330
2
100
AcDbEntity
  8
GAIKEI
 62
     1
100
AcDbLine
 10
15.77893136580951
 20
11.51788698958023
 30
0.0
 11
15.74519106580948
 21
11.60860358958024
 31
0.0
  0
LINE
  5
D7
330
2
100
AcDbEntity
  8
GAIKEI
 62
     1
100
AcDbLine
 10
15.8146734658095
 20
11.42852238958022
 30
0.0
 11
15.77893136580951
 21
11.51788698958023
 31
0.0
  0
LINE
  5
D8
330
2
100
AcDbEntity
  8
GAIKEI
 62
     1
100
AcDbLine
 10
15.85231386580949
 20
11.34057988958022
 30
0.0
 11
15.8146734658095
 21
11.42852238958022
 31
0.0
  0
LINE
  5
D9
330
2
100
AcDbEntity
  8
GAIKEI
 62
     1
100
AcDbLine
 10
15.89169376580946
 20
11.25413878958022
 30
0.0
 11
15.85231386580949
 21
11.34057988958022
 31
0.0
  0
LINE
  5
DA
330
2
100
AcDbEntity
  8
GAIKEI
 62
     1
100
AcDbLine
 10
15.93272156580951
 20
11.16924498958025
 30
0.0
 11
15.89169376580946
 21
11.25413878958022
 31
0.0
  0
LINE
  5
DB
330
2
100
AcDbEntity
  8
GAIKEI
 62
     1
100
AcDbLine
 10
15.97536076580951
 20
11.08589238958024
 30
0.0
 11
15.93272156580951
 21
11.16924498958025
 31
0.0
  0
LINE
  5
DC
330
2
100
AcDbEntity
  8
GAIKEI
 62
     1
100
AcDbLine
 10
16.01959296580952
 20
11.00410218958024
 30
0.0
 11
15.97536076580951
 21
11.08589238958024
 31
0.0
  0
LINE
  5
DD
330
2
100
AcDbEntity
  8
GAIKEI
 62
     1
100
AcDbLine
 10
16.0656500658095
 20
10.92348998958022
 30
0.0
 11
16.01959296580952
 21
11.00410218958024
 31
0.0
  0
LINE
  5
DE
330
2
100
AcDbEntity
  8
GAIKEI
 62
     1
100
AcDbLine
 10
16.11330636580948
 20
10.84447388958023
 30
0.0
 11
16.0656500658095
 21
10.92348998958022
 31
0.0
  0
LINE
  5
DF
330
2
100
AcDbEntity
  8
GAIKEI
 62
     1
100
AcDbLine
 10
16.16254336580948
 20
10.76706608958022
 30
0.0
 11
16.11330636580948
 21
10.84447388958023
 31
0.0
  0
LINE
  5
E0
330
2
100
AcDbEntity
  8
GAIKEI
 62
     1
100
AcDbLine
 10
16.2132818658095
 20
10.69129698958022
 30
0.0
 11
16.16254336580948
 21
10.76706608958022
 31
0.0
  0
LINE
  5
E1
330
2
100
AcDbEntity
  8
GAIKEI
 62
     1
100
AcDbLine
 10
16.2649237658095
 20
10.61788388958024
 30
0.0
 11
16.2132818658095
 21
10.69129698958022
 31
0.0
  0
LINE
  5
E2
330
2
100
AcDbEntity
  8
GAIKEI
 62
     1
100
AcDbLine
 10
16.31787786580946
 20
10.54611268958024
 30
0.0
 11
16.2649237658095
 21
10.61788388958024
 31
0.0
  0
LINE
  5
E3
330
2
100
AcDbEntity
  8
GAIKEI
 62
     1
100
AcDbLine
 10
16.37207706580949
 20
10.47600768958023
 30
0.0
 11
16.31787786580946
 21
10.54611268958024
 31
0.0
  0
LINE
  5
E4
330
2
100
AcDbEntity
  8
GAIKEI
 62
     1
100
AcDbLine
 10
16.42744816580949
 20
10.40757508958023
 30
0.0
 11
16.37207706580949
 21
10.47600768958023
 31
0.0
  0
LINE
  5
E5
330
2
100
AcDbEntity
  8
GAIKEI
 62
     1
100
AcDbLine
 10
16.48421086580947
 20
10.34051578958019
 30
0.0
 11
16.42744816580949
 21
10.40757508958023
 31
0.0
  0
LINE
  5
E6
330
2
100
AcDbEntity
  8
GAIKEI
 62
     1
100
AcDbLine
 10
16.5420416658095
 20
10.27515928958024
 30
0.0
 11
16.48421086580947
 21
10.34051578958019
 31
0.0
  0
LINE
  5
E7
330
2
100
AcDbEntity
  8
GAIKEI
 62
     1
100
AcDbLine
 10
16.60087956580946
 20
10.21151488958025
 30
0.0
 11
16.5420416658095
 21
10.27515928958024
 31
0.0
  0
LINE
  5
E8
330
2
100
AcDbEntity
  8
GAIKEI
 62
     1
100
AcDbLine
 10
16.6606817658095
 20
10.14957948958022
 30
0.0
 11
16.60087956580946
 21
10.21151488958025
 31
0.0
  0
LINE
  5
E9
330
2
100
AcDbEntity
  8
GAIKEI
 62
     1
100
AcDbLine
 10
16.7213873658095
 20
10.08935308958024
 30
0.0
 11
16.6606817658095
 21
10.14957948958022
 31
0.0
  0
LINE
  5
EA
330
2
100
AcDbEntity
  8
GAIKEI
 62
     1
100
AcDbLine
 10
16.78295356580952
 20
10.03083558958025
 30
0.0
 11
16.7213873658095
 21
10.08935308958024
 31
0.0
  0
LINE
  5
EB
330
2
100
AcDbEntity
  8
GAIKEI
 62
     1
100
AcDbLine
 10
16.8453131658095
 20
9.974030189580219
 30
0.0
 11
16.78295356580952
 21
10.03083558958025
 31
0.0
  0
LINE
  5
EC
330
2
100
AcDbEntity
  8
GAIKEI
 62
     1
100
AcDbLine
 10
16.9084234658095
 20
9.918924589580228
 30
0.0
 11
16.8453131658095
 21
9.974030189580219
 31
0.0
  0
LINE
  5
ED
330
2
100
AcDbEntity
  8
GAIKEI
 62
     1
100
AcDbLine
 10
15.43623726580949
 20
13.08828798958024
 30
0.0
 11
15.43191596580948
 21
13.15114198958019
 31
0.0
  0
LINE
  5
EE
330
2
100
AcDbEntity
  8
GAIKEI
 62
     1
100
AcDbLine
 10
15.44121766580952
 20
13.02562628958026
 30
0.0
 11
15.43623726580949
 21
13.08828798958024
 31
0.0
  0
LINE
  5
EF
330
2
100
AcDbEntity
  8
GAIKEI
 62
     1
100
AcDbLine
 10
15.44683906580951
 20
12.96315068958023
 30
0.0
 11
15.44121766580952
 21
13.02562628958026
 31
0.0
  0
LINE
  5
F0
330
2
100
AcDbEntity
  8
GAIKEI
 62
     1
100
AcDbLine
 10
15.45309516580948
 20
12.90086118958021
 30
0.0
 11
15.44683906580951
 21
12.96315068958023
 31
0.0
  0
LINE
  5
F1
330
2
100
AcDbEntity
  8
GAIKEI
 62
     1
100
AcDbLine
 10
15.46001046580949
 20
12.83875488958023
 30
0.0
 11
15.45309516580948
 21
12.90086118958021
 31
0.0
  0
LINE
  5
F2
330
2
100
AcDbEntity
  8
GAIKEI
 62
     1
100
AcDbLine
 10
15.46757876580949
 20
12.7768316895802
 30
0.0
 11
15.46001046580949
 21
12.83875488958023
 31
0.0
  0
LINE
  5
F3
330
2
100
AcDbEntity
  8
GAIKEI
 62
     1
100
AcDbLine
 10
15.47583076580952
 20
12.7150976895802
 30
0.0
 11
15.46757876580949
 21
12.7768316895802
 31
0.0
  0
LINE
  5
F4
330
2
100
AcDbEntity
  8
GAIKEI
 62
     1
100
AcDbLine
 10
15.48476626580947
 20
12.65356508958024
 30
0.0
 11
15.47583076580952
 21
12.7150976895802
 31
0.0
  0
LINE
  5
F5
330
2
100
AcDbEntity
  8
GAIKEI
 62
     1
100
AcDbLine
 10
15.49440376580946
 20
12.59223388958025
 30
0.0
 11
15.48476626580947
 21
12.65356508958024
 31
0.0
  0
LINE
  5
F6
330
2
100
AcDbEntity
  8
GAIKEI
 62
     1
100
AcDbLine
 10
15.50473696580951
 20
12.53111938958022
 30
0.0
 11
15.49440376580946
 21
12.59223388958025
 31
0.0
  0
LINE
  5
F7
330
2
100
AcDbEntity
  8
GAIKEI
 62
     1
100
AcDbLine
 10
15.51574776580952
 20
12.47023078958023
 30
0.0
 11
15.50473696580951
 21
12.53111938958022
 31
0.0
  0
LINE
  5
F8
330
2
100
AcDbEntity
  8
GAIKEI
 62
     1
100
AcDbLine
 10
15.52741766580948
 20
12.40957098958023
 30
0.0
 11
15.51574776580952
 21
12.47023078958023
 31
0.0
  0
LINE
  5
F9
330
2
100
AcDbEntity
  8
GAIKEI
 62
     1
100
AcDbLine
 10
15.53970406580947
 20
12.3491400895802
 30
0.0
 11
15.52741766580948
 21
12.40957098958023
 31
0.0
  0
LINE
  5
FA
330
2
100
AcDbEntity
  8
GAIKEI
 62
     1
100
AcDbLine
 10
15.5525763658095
 20
12.28893498958024
 30
0.0
 11
15.53970406580947
 21
12.3491400895802
 31
0.0
  0
LINE
  5
FB
330
2
100
AcDbEntity
  8
GAIKEI
 62
     1
100
AcDbLine
 10
15.56604066580951
 20
12.22895878958025
 30
0.0
 11
15.5525763658095
 21
12.28893498958024
 31
0.0
  0
LINE
  5
FC
330
2
100
AcDbEntity
  8
GAIKEI
 62
     1
100
AcDbLine
 10
15.58009096580952
 20
12.16922668958023
 30
0.0
 11
15.56604066580951
 21
12.22895878958025
 31
0.0
  0
LINE
  5
FD
330
2
100
AcDbEntity
  8
GAIKEI
 62
     1
100
AcDbLine
 10
15.59472726580947
 20
12.10973578958021
 30
0.0
 11
15.58009096580952
 21
12.16922668958023
 31
0.0
  0
LINE
  5
FE
330
2
100
AcDbEntity
  8
GAIKEI
 62
     1
100
AcDbLine
 10
15.60994936580948
 20
12.05049498958021
 30
0.0
 11
15.59472726580947
 21
12.10973578958021
 31
0.0
  0
LINE
  5
FF
330
2
100
AcDbEntity
  8
GAIKEI
 62
     1
100
AcDbLine
 10
15.62575136580949
 20
11.99150458958024
 30
0.0
 11
15.60994936580948
 21
12.05049498958021
 31
0.0
  0
LINE
  5
100
330
2
100
AcDbEntity
  8
GAIKEI
 62
     1
100
AcDbLine
 10
15.6421454658095
 20
11.9327795895802
 30
0.0
 11
15.62575136580949
 21
11.99150458958024
 31
0.0
  0
LINE
  5
101
330
2
100
AcDbEntity
  8
GAIKEI
 62
     1
100
AcDbLine
 10
15.65911316580951
 20
11.87431398958023
 30
0.0
 11
15.6421454658095
 21
11.9327795895802
 31
0.0
  0
LINE
  5
102
330
2
100
AcDbEntity
  8
GAIKEI
 62
     1
100
AcDbLine
 10
15.67666696580949
 20
11.81613218958023
 30
0.0
 11
15.65911316580951
 21
11.87431398958023
 31
0.0
  0
LINE
  5
103
330
2
100
AcDbEntity
  8
GAIKEI
 62
     1
100
AcDbLine
 10
15.69480046580952
 20
11.75822818958022
 30
0.0
 11
15.67666696580949
 21
11.81613218958023
 31
0.0
  0
LINE
  5
104
330
2
100
AcDbEntity
  8
GAIKEI
 62
     1
100
AcDbLine
 10
15.71350776580948
 20
11.70062628958021
 30
0.0
 11
15.69480046580952
 21
11.75822818958022
 31
0.0
  0
LINE
  5
105
330
2
100
AcDbEntity
  8
GAIKEI
 62
     1
100
AcDbLine
 10
15.43141546580949
 20
13.15862798958022
 30
0.0
 11
15.43191596580948
 21
13.15114198958019
 31
0.0
  0
LINE
  5
106
330
2
100
AcDbEntity
  8
GAIKEI
 62
     1
100
AcDbLine
 10
15.4308661658095
 20
13.16613218958025
 30
0.0
 11
15.43141546580949
 21
13.15862798958022
 31
0.0
  0
LINE
  5
107
330
2
100
AcDbEntity
  8
GAIKEI
 62
     1
100
AcDbLine
 10
15.43026796580949
 20
13.17365178958022
 30
0.0
 11
15.4308661658095
 21
13.16613218958025
 31
0.0
  0
LINE
  5
108
330
2
100
AcDbEntity
  8
GAIKEI
 62
     1
100
AcDbLine
 10
15.4296210658095
 20
13.18118348958023
 30
0.0
 11
15.43026796580949
 21
13.17365178958022
 31
0.0
  0
LINE
  5
109
330
2
100
AcDbEntity
  8
GAIKEI
 62
     1
100
AcDbLine
 10
15.42893136580949
 20
13.18872438958021
 30
0.0
 11
15.4296210658095
 21
13.18118348958023
 31
0.0
  0
LINE
  5
10A
330
2
100
AcDbEntity
  8
GAIKEI
 62
     1
100
AcDbLine
 10
15.42819886580952
 20
13.19628058958022
 30
0.0
 11
15.42893136580949
 21
13.18872438958021
 31
0.0
  0
LINE
  5
10B
330
2
100
AcDbEntity
  8
GAIKEI
 62
     1
100
AcDbLine
 10
15.4274542658095
 20
13.20389158958022
 30
0.0
 11
15.42819886580952
 21
13.19628058958022
 31
0.0
  0
LINE
  5
10C
330
2
100
AcDbEntity
  8
GAIKEI
 62
     1
100
AcDbLine
 10
15.42674626580947
 20
13.2116033895802
 30
0.0
 11
15.4274542658095
 21
13.20389158958022
 31
0.0
  0
LINE
  5
10D
330
2
100
AcDbEntity
  8
GAIKEI
 62
     1
100
AcDbLine
 10
15.42610536580952
 20
13.21942808958022
 30
0.0
 11
15.42674626580947
 21
13.2116033895802
 31
0.0
  0
LINE
  5
10E
330
2
100
AcDbEntity
  8
GAIKEI
 62
     1
100
AcDbLine
 10
15.4255316658095
 20
13.22735658958021
 30
0.0
 11
15.42610536580952
 21
13.21942808958022
 31
0.0
  0
LINE
  5
10F
330
2
100
AcDbEntity
  8
GAIKEI
 62
     1
100
AcDbLine
 10
15.42503116580951
 20
13.2353735895802
 30
0.0
 11
15.4255316658095
 21
13.22735658958021
 31
0.0
  0
LINE
  5
110
330
2
100
AcDbEntity
  8
GAIKEI
 62
     1
100
AcDbLine
 10
15.42457336580946
 20
13.24345768958022
 30
0.0
 11
15.42503116580951
 21
13.2353735895802
 31
0.0
  0
LINE
  5
111
330
2
100
AcDbEntity
  8
GAIKEI
 62
     1
100
AcDbLine
 10
15.42414006580952
 20
13.25157538958024
 30
0.0
 11
15.42457336580946
 21
13.24345768958022
 31
0.0
  0
LINE
  5
112
330
2
100
AcDbEntity
  8
GAIKEI
 62
     1
100
AcDbLine
 10
15.4231939658095
 20
13.26777408958025
 30
0.0
 11
15.42368836580948
 21
13.25968998958024
 31
0.0
  0
LINE
  5
113
330
2
100
AcDbEntity
  8
GAIKEI
 62
     1
100
AcDbLine
 10
15.42191836580952
 20
13.28373478958019
 30
0.0
 11
15.42261416580948
 21
13.27579108958025
 31
0.0
  0
LINE
  5
114
330
2
100
AcDbEntity
  8
GAIKEI
 62
     1
100
AcDbLine
 10
15.42108826580949
 20
13.29152588958021
 30
0.0
 11
15.42191836580952
 21
13.28373478958019
 31
0.0
  0
LINE
  5
115
330
2
100
AcDbEntity
  8
GAIKEI
 62
     1
100
AcDbLine
 10
15.42009956580949
 20
13.29912478958022
 30
0.0
 11
15.42108826580949
 21
13.29152588958021
 31
0.0
  0
LINE
  5
116
330
2
100
AcDbEntity
  8
GAIKEI
 62
     1
100
AcDbLine
 10
15.41895206580949
 20
13.30649778958025
 30
0.0
 11
15.42009956580949
 21
13.29912478958022
 31
0.0
  0
LINE
  5
117
330
2
100
AcDbEntity
  8
GAIKEI
 62
     1
100
AcDbLine
 10
15.41765206580947
 20
13.31362368958025
 30
0.0
 11
15.41895206580949
 21
13.30649778958025
 31
0.0
  0
LINE
  5
118
330
2
100
AcDbEntity
  8
GAIKEI
 62
     1
100
AcDbLine
 10
15.41620546580952
 20
13.32053588958024
 30
0.0
 11
15.41765206580947
 21
13.31362368958025
 31
0.0
  0
LINE
  5
119
330
2
100
AcDbEntity
  8
GAIKEI
 62
     1
100
AcDbLine
 10
15.41463076580948
 20
13.32727118958024
 30
0.0
 11
15.41620546580952
 21
13.32053588958024
 31
0.0
  0
LINE
  5
11A
330
2
100
AcDbEntity
  8
GAIKEI
 62
     1
100
AcDbLine
 10
15.4129461658095
 20
13.33392398958023
 30
0.0
 11
15.41463076580948
 21
13.32727118958024
 31
0.0
  0
LINE
  5
11B
330
2
100
AcDbEntity
  8
GAIKEI
 62
     1
100
AcDbLine
 10
15.43091496580951
 20
13.15942138958024
 30
0.0
 11
15.43141546580949
 21
13.15189268958022
 31
0.0
  0
LINE
  5
11C
330
2
100
AcDbEntity
  8
GAIKEI
 62
     1
100
AcDbLine
 10
15.43037176580952
 20
13.16697148958025
 30
0.0
 11
15.43091496580951
 21
13.15942138958024
 31
0.0
  0
LINE
  5
11D
330
2
100
AcDbEntity
  8
GAIKEI
 62
     1
100
AcDbLine
 10
15.42977966580952
 20
13.17453368958024
 30
0.0
 11
15.43037176580952
 21
13.16697148958025
 31
0.0
  0
LINE
  5
11E
330
2
100
AcDbEntity
  8
GAIKEI
 62
     1
100
AcDbLine
 10
15.42913276580947
 20
13.18210818958022
 30
0.0
 11
15.42977966580952
 21
13.17453368958024
 31
0.0
  0
LINE
  5
11F
330
2
100
AcDbEntity
  8
GAIKEI
 62
     1
100
AcDbLine
 10
15.42844916580946
 20
13.18969178958025
 30
0.0
 11
15.42913276580947
 21
13.18210818958022
 31
0.0
  0
LINE
  5
120
330
2
100
AcDbEntity
  8
GAIKEI
 62
     1
100
AcDbLine
 10
15.42771066580951
 20
13.19728148958023
 30
0.0
 11
15.42844916580946
 21
13.18969178958025
 31
0.0
  0
LINE
  5
121
330
2
100
AcDbEntity
  8
GAIKEI
 62
     1
100
AcDbLine
 10
15.42692326580947
 20
13.20487428958023
 30
0.0
 11
15.42771066580951
 21
13.19728148958023
 31
0.0
  0
LINE
  5
122
330
2
100
AcDbEntity
  8
GAIKEI
 62
     1
100
AcDbLine
 10
15.42608706580949
 20
13.21246708958023
 30
0.0
 11
15.42692326580947
 21
13.20487428958023
 31
0.0
  0
LINE
  5
123
330
2
100
AcDbEntity
  8
GAIKEI
 62
     1
100
AcDbLine
 10
15.42520206580951
 20
13.22005678958021
 30
0.0
 11
15.42608706580949
 21
13.21246708958023
 31
0.0
  0
LINE
  5
124
330
2
100
AcDbEntity
  8
GAIKEI
 62
     1
100
AcDbLine
 10
15.42426826580947
 20
13.22764648958025
 30
0.0
 11
15.42520206580951
 21
13.22005678958021
 31
0.0
  0
LINE
  5
125
330
2
100
AcDbEntity
  8
GAIKEI
 62
     1
100
AcDbLine
 10
15.42330996580949
 20
13.23527588958024
 30
0.0
 11
15.42426826580947
 21
13.22764648958025
 31
0.0
  0
LINE
  5
126
330
2
100
AcDbEntity
  8
GAIKEI
 62
     1
100
AcDbLine
 10
15.42236396580949
 20
13.24297858958022
 30
0.0
 11
15.42330996580949
 21
13.23527588958024
 31
0.0
  0
LINE
  5
127
330
2
100
AcDbEntity
  8
GAIKEI
 62
     1
100
AcDbLine
 10
15.42144836580951
 20
13.25077268958023
 30
0.0
 11
15.42236396580949
 21
13.24297858958022
 31
0.0
  0
LINE
  5
128
330
2
100
AcDbEntity
  8
GAIKEI
 62
     1
100
AcDbLine
 10
15.42056946580948
 20
13.25865538958021
 30
0.0
 11
15.42144836580951
 21
13.25077268958023
 31
0.0
  0
LINE
  5
129
330
2
100
AcDbEntity
  8
GAIKEI
 62
     1
100
AcDbLine
 10
15.41972726580951
 20
13.26662048958025
 30
0.0
 11
15.42056946580948
 21
13.25865538958021
 31
0.0
  0
LINE
  5
12A
330
2
100
AcDbEntity
  8
GAIKEI
 62
     1
100
AcDbLine
 10
15.4189154658095
 20
13.27463748958024
 30
0.0
 11
15.41972726580951
 21
13.26662048958025
 31
0.0
  0
LINE
  5
12B
330
2
100
AcDbEntity
  8
GAIKEI
 62
     1
100
AcDbLine
 10
15.41811586580951
 20
13.2826818895802
 30
0.0
 11
15.4189154658095
 21
13.27463748958024
 31
0.0
  0
LINE
  5
12C
330
2
100
AcDbEntity
  8
GAIKEI
 62
     1
100
AcDbLine
 10
15.41731026580947
 20
13.2907049895802
 30
0.0
 11
15.41811586580951
 21
13.2826818895802
 31
0.0
  0
LINE
  5
12D
330
2
100
AcDbEntity
  8
GAIKEI
 62
     1
100
AcDbLine
 10
15.41647406580949
 20
13.29866698958023
 30
0.0
 11
15.41731026580947
 21
13.2907049895802
 31
0.0
  0
LINE
  5
12E
330
2
100
AcDbEntity
  8
GAIKEI
 62
     1
100
AcDbLine
 10
15.41558906580951
 20
13.30652528958023
 30
0.0
 11
15.41647406580949
 21
13.29866698958023
 31
0.0
  0
LINE
  5
12F
330
2
100
AcDbEntity
  8
GAIKEI
 62
     1
100
AcDbLine
 10
15.41462466580947
 20
13.31425848958019
 30
0.0
 11
15.41558906580951
 21
13.30652528958023
 31
0.0
  0
LINE
  5
130
330
2
100
AcDbEntity
  8
GAIKEI
 62
     1
100
AcDbLine
 10
15.41356876580948
 20
13.3218328895802
 30
0.0
 11
15.41462466580947
 21
13.31425848958019
 31
0.0
  0
LINE
  5
131
330
2
100
AcDbEntity
  8
GAIKEI
 62
     1
100
AcDbLine
 10
15.41239686580951
 20
13.3292059895802
 30
0.0
 11
15.41356876580948
 21
13.3218328895802
 31
0.0
  0
LINE
  5
132
330
2
100
AcDbEntity
  8
GAIKEI
 62
     1
100
AcDbLine
 10
15.41112126580947
 20
13.33633488958026
 30
0.0
 11
15.41239686580951
 21
13.3292059895802
 31
0.0
  0
LINE
  5
133
330
2
100
AcDbEntity
  8
GAIKEI
 62
     1
100
AcDbLine
 10
15.69479436580951
 20
11.75823428958023
 30
0.0
 11
15.71350776580948
 21
11.70062628958021
 31
0.0
  0
LINE
  5
134
330
2
100
AcDbEntity
  8
GAIKEI
 62
     1
100
AcDbLine
 10
15.67666076580951
 20
11.81614438958024
 30
0.0
 11
15.69479436580951
 21
11.75823428958023
 31
0.0
  0
LINE
  5
135
330
2
100
AcDbEntity
  8
GAIKEI
 62
     1
100
AcDbLine
 10
15.6591070658095
 20
11.87433538958021
 30
0.0
 11
15.67666076580951
 21
11.81614438958024
 31
0.0
  0
LINE
  5
136
330
2
100
AcDbEntity
  8
GAIKEI
 62
     1
100
AcDbLine
 10
15.64213326580949
 20
11.93281308958023
 30
0.0
 11
15.6591070658095
 21
11.87433538958021
 31
0.0
  0
LINE
  5
137
330
2
100
AcDbEntity
  8
GAIKEI
 62
     1
100
AcDbLine
 10
15.62573916580948
 20
11.99155338958024
 30
0.0
 11
15.64213326580949
 21
11.93281308958023
 31
0.0
  0
LINE
  5
138
330
2
100
AcDbEntity
  8
GAIKEI
 62
     1
100
AcDbLine
 10
15.60993106580952
 20
12.0505651895802
 30
0.0
 11
15.62573916580948
 21
11.99155338958024
 31
0.0
  0
LINE
  5
139
330
2
100
AcDbEntity
  8
GAIKEI
 62
     1
100
AcDbLine
 10
15.59470276580947
 20
12.10983038958022
 30
0.0
 11
15.60993106580952
 21
12.0505651895802
 31
0.0
  0
LINE
  5
13A
330
2
100
AcDbEntity
  8
GAIKEI
 62
     1
100
AcDbLine
 10
15.58006046580948
 20
12.16935178958022
 30
0.0
 11
15.59470276580947
 21
12.10983038958022
 31
0.0
  0
LINE
  5
13B
330
2
100
AcDbEntity
  8
GAIKEI
 62
     1
100
AcDbLine
 10
15.56600406580946
 20
12.22911438958022
 30
0.0
 11
15.58006046580948
 21
12.16935178958022
 31
0.0
  0
LINE
  5
13C
330
2
100
AcDbEntity
  8
GAIKEI
 62
     1
100
AcDbLine
 10
15.55253976580951
 20
12.28912108958025
 30
0.0
 11
15.56600406580946
 21
12.22911438958022
 31
0.0
  0
LINE
  5
13D
330
2
100
AcDbEntity
  8
GAIKEI
 62
     1
100
AcDbLine
 10
15.5396551658095
 20
12.34935668958025
 30
0.0
 11
15.55253976580951
 21
12.28912108958025
 31
0.0
  0
LINE
  5
13E
330
2
100
AcDbEntity
  8
GAIKEI
 62
     1
100
AcDbLine
 10
15.52736886580948
 20
12.40982428958023
 30
0.0
 11
15.5396551658095
 21
12.34935668958025
 31
0.0
  0
LINE
  5
13F
330
2
100
AcDbEntity
  8
GAIKEI
 62
     1
100
AcDbLine
 10
15.51566836580952
 20
12.4705145895802
 30
0.0
 11
15.52736886580948
 21
12.40982428958023
 31
0.0
  0
LINE
  5
140
330
2
100
AcDbEntity
  8
GAIKEI
 62
     1
100
AcDbLine
 10
15.50456606580951
 20
12.53142458958024
 30
0.0
 11
15.51566836580952
 21
12.4705145895802
 31
0.0
  0
LINE
  5
141
330
2
100
AcDbEntity
  8
GAIKEI
 62
     1
100
AcDbLine
 10
15.49408026580948
 20
12.59255738958023
 30
0.0
 11
15.50456606580951
 21
12.53142458958024
 31
0.0
  0
LINE
  5
142
330
2
100
AcDbEntity
  8
GAIKEI
 62
     1
100
AcDbLine
 10
15.4842779658095
 20
12.65390688958024
 30
0.0
 11
15.49408026580948
 21
12.59255738958023
 31
0.0
  0
LINE
  5
143
330
2
100
AcDbEntity
  8
GAIKEI
 62
     1
100
AcDbLine
 10
15.47519596580952
 20
12.71547608958025
 30
0.0
 11
15.4842779658095
 21
12.65390688958024
 31
0.0
  0
LINE
  5
144
330
2
100
AcDbEntity
  8
GAIKEI
 62
     1
100
AcDbLine
 10
15.46685246580949
 20
12.77725278958024
 30
0.0
 11
15.47519596580952
 21
12.71547608958025
 31
0.0
  0
LINE
  5
145
330
2
100
AcDbEntity
  8
GAIKEI
 62
     1
100
AcDbLine
 10
15.45923526580947
 20
12.83922178958022
 30
0.0
 11
15.46685246580949
 21
12.77725278958024
 31
0.0
  0
LINE
  5
146
330
2
100
AcDbEntity
  8
GAIKEI
 62
     1
100
AcDbLine
 10
15.45232606580947
 20
12.90137998958022
 30
0.0
 11
15.45923526580947
 21
12.83922178958022
 31
0.0
  0
LINE
  5
147
330
2
100
AcDbEntity
  8
GAIKEI
 62
     1
100
AcDbLine
 10
15.44611276580951
 20
12.96373048958026
 30
0.0
 11
15.45232606580947
 21
12.90137998958022
 31
0.0
  0
LINE
  5
148
330
2
100
AcDbEntity
  8
GAIKEI
 62
     1
100
AcDbLine
 10
15.44055856580951
 20
13.02627318958025
 30
0.0
 11
15.44611276580951
 21
12.96373048958026
 31
0.0
  0
LINE
  5
149
330
2
100
AcDbEntity
  8
GAIKEI
 62
     1
100
AcDbLine
 10
15.4356573658095
 20
13.08899598958021
 30
0.0
 11
15.44055856580951
 21
13.02627318958025
 31
0.0
  0
LINE
  5
14A
330
2
100
AcDbEntity
  8
GAIKEI
 62
     1
100
AcDbLine
 10
15.43141546580949
 20
13.15189268958022
 30
0.0
 11
15.4356573658095
 21
13.08899598958021
 31
0.0
  0
LINE
  5
14B
330
2
100
AcDbEntity
  8
GAIKEI
 62
     1
100
AcDbLine
 10
18.25786196580947
 20
9.200870389580245
 30
0.0
 11
18.30129456580948
 21
9.188503189580217
 31
0.0
  0
LINE
  5
14C
330
2
100
AcDbEntity
  8
GAIKEI
 62
     1
100
AcDbLine
 10
18.21419746580949
 20
9.213812889580253
 30
0.0
 11
18.25786196580947
 21
9.200870389580245
 31
0.0
  0
LINE
  5
14D
330
2
100
AcDbEntity
  8
GAIKEI
 62
     1
100
AcDbLine
 10
18.17031926580949
 20
9.227347389580245
 30
0.0
 11
18.21419746580949
 21
9.213812889580253
 31
0.0
  0
LINE
  5
14E
330
2
100
AcDbEntity
  8
GAIKEI
 62
     1
100
AcDbLine
 10
18.12623966580952
 20
9.241483189580208
 30
0.0
 11
18.17031926580949
 21
9.227347389580245
 31
0.0
  0
LINE
  5
14F
330
2
100
AcDbEntity
  8
GAIKEI
 62
     1
100
AcDbLine
 10
18.08197696580947
 20
9.256233889580244
 30
0.0
 11
18.12623966580952
 21
9.241483189580208
 31
0.0
  0
LINE
  5
150
330
2
100
AcDbEntity
  8
GAIKEI
 62
     1
100
AcDbLine
 10
18.03753726580947
 20
9.271617789580204
 30
0.0
 11
18.08197696580947
 21
9.256233889580244
 31
0.0
  0
LINE
  5
151
330
2
100
AcDbEntity
  8
GAIKEI
 62
     1
100
AcDbLine
 10
17.99298156580948
 20
9.287711189580249
 30
0.0
 11
18.03753726580947
 21
9.271617789580204
 31
0.0
  0
LINE
  5
152
330
2
100
AcDbEntity
  8
GAIKEI
 62
     1
100
AcDbLine
 10
17.94837716580952
 20
9.304582889580217
 30
0.0
 11
17.99298156580948
 21
9.287711189580249
 31
0.0
  0
LINE
  5
153
330
2
100
AcDbEntity
  8
GAIKEI
 62
     1
100
AcDbLine
 10
17.90377876580947
 20
9.322250989580197
 30
0.0
 11
17.94837716580952
 21
9.304582889580217
 31
0.0
  0
LINE
  5
154
330
2
100
AcDbEntity
  8
GAIKEI
 62
     1
100
AcDbLine
 10
17.85921696580948
 20
9.340704989580217
 30
0.0
 11
17.90377876580947
 21
9.322250989580197
 31
0.0
  0
LINE
  5
155
330
2
100
AcDbEntity
  8
GAIKEI
 62
     1
100
AcDbLine
 10
17.8146979658095
 20
9.35990818958021
 30
0.0
 11
17.85921696580948
 21
9.340704989580217
 31
0.0
  0
LINE
  5
156
330
2
100
AcDbEntity
  8
GAIKEI
 62
     1
100
AcDbLine
 10
17.77022156580949
 20
9.379813289580226
 30
0.0
 11
17.8146979658095
 21
9.35990818958021
 31
0.0
  0
LINE
  5
157
330
2
100
AcDbEntity
  8
GAIKEI
 62
     1
100
AcDbLine
 10
17.7257391658095
 20
9.400388189580212
 30
0.0
 11
17.77022156580949
 21
9.379813289580226
 31
0.0
  0
LINE
  5
158
330
2
100
AcDbEntity
  8
GAIKEI
 62
     1
100
AcDbLine
 10
17.68122016580952
 20
9.421603989580205
 30
0.0
 11
17.7257391658095
 21
9.400388189580212
 31
0.0
  0
LINE
  5
159
330
2
100
AcDbEntity
  8
GAIKEI
 62
     1
100
AcDbLine
 10
17.63665836580947
 20
9.443442389580241
 30
0.0
 11
17.68122016580952
 21
9.421603989580205
 31
0.0
  0
LINE
  5
15A
330
2
100
AcDbEntity
  8
GAIKEI
 62
     1
100
AcDbLine
 10
17.59227356580948
 20
9.465802689580243
 30
0.0
 11
17.63665836580947
 21
9.443442389580241
 31
0.0
  0
LINE
  5
15B
330
2
100
AcDbEntity
  8
GAIKEI
 62
     1
100
AcDbLine
 10
17.54774846580949
 20
9.488904489580249
 30
0.0
 11
17.59227356580948
 21
9.465802689580243
 31
0.0
  0
LINE
  5
15C
330
2
100
AcDbEntity
  8
GAIKEI
 62
     1
100
AcDbLine
 10
17.5031500658095
 20
9.512808889580242
 30
0.0
 11
17.54774846580949
 21
9.488904489580249
 31
0.0
  0
LINE
  5
15D
330
2
100
AcDbEntity
  8
GAIKEI
 62
     1
100
AcDbLine
 10
17.45867376580946
 20
9.537454889580203
 30
0.0
 11
17.5031500658095
 21
9.512808889580242
 31
0.0
  0
LINE
  5
15E
330
2
100
AcDbEntity
  8
GAIKEI
 62
     1
100
AcDbLine
 10
-9.516276454069156
 20
17.60832578958025
 30
0.0
 11
-9.501960654069137
 21
17.60607058958021
 31
0.0
  0
LINE
  5
15F
330
2
100
AcDbEntity
  8
GAIKEI
 62
     1
100
AcDbLine
 10
-9.533466954069183
 20
17.61467958958025
 30
0.0
 11
-9.516276454069156
 21
17.60832578958025
 31
0.0
  0
LINE
  5
160
330
2
100
AcDbEntity
  8
GAIKEI
 62
     1
100
AcDbLine
 10
-9.545747254069169
 20
17.62356938958021
 30
0.0
 11
-9.533466954069183
 21
17.61467958958025
 31
0.0
  0
LINE
  5
161
330
2
100
AcDbEntity
  8
GAIKEI
 62
     1
100
AcDbLine
 10
-9.556593254069127
 20
17.63494938958024
 30
0.0
 11
-9.545747254069169
 21
17.62356938958021
 31
0.0
  0
LINE
  5
162
330
2
100
AcDbEntity
  8
GAIKEI
 62
     1
100
AcDbLine
 10
-9.569087154069165
 20
17.65405028958025
 30
0.0
 11
-9.556593254069127
 21
17.63494938958024
 31
0.0
  0
LINE
  5
163
330
2
100
AcDbEntity
  8
GAIKEI
 62
     1
100
AcDbLine
 10
-9.578102054069177
 20
17.67591008958021
 30
0.0
 11
-9.569087154069165
 21
17.65405028958025
 31
0.0
  0
LINE
  5
164
330
2
100
AcDbEntity
  8
GAIKEI
 62
     1
100
AcDbLine
 10
-9.583521954069169
 20
17.69948798958023
 30
0.0
 11
-9.578102054069177
 21
17.67591008958021
 31
0.0
  0
LINE
  5
165
330
2
100
AcDbEntity
  8
GAIKEI
 62
     1
100
AcDbLine
 10
-9.585340754069136
 20
17.72405458958025
 30
0.0
 11
-9.583521954069169
 21
17.69948798958023
 31
0.0
  0
LINE
  5
166
330
2
100
AcDbEntity
  8
GAIKEI
 62
     1
100
AcDbLine
 10
-9.583500554069132
 20
17.74863958958025
 30
0.0
 11
-9.585340754069136
 21
17.72405458958025
 31
0.0
  0
LINE
  5
167
330
2
100
AcDbEntity
  8
GAIKEI
 62
     1
100
AcDbLine
 10
-9.57800435406915
 20
17.77237308958024
 30
0.0
 11
-9.583500554069132
 21
17.74863958958025
 31
0.0
  0
LINE
  5
168
330
2
100
AcDbEntity
  8
GAIKEI
 62
     1
100
AcDbLine
 10
-9.571821454069151
 20
17.78837348958024
 30
0.0
 11
-9.57800435406915
 21
17.77237308958024
 31
0.0
  0
LINE
  5
169
330
2
100
AcDbEntity
  8
GAIKEI
 62
     1
100
AcDbLine
 10
-9.563795354069156
 20
17.80307378958025
 30
0.0
 11
-9.571821454069151
 21
17.78837348958024
 31
0.0
  0
LINE
  5
16A
330
2
100
AcDbEntity
  8
GAIKEI
 62
     1
100
AcDbLine
 10
-9.554438654069144
 20
17.81560118958021
 30
0.0
 11
-9.563795354069156
 21
17.80307378958025
 31
0.0
  0
LINE
  5
16B
330
2
100
AcDbEntity
  8
GAIKEI
 62
     1
100
AcDbLine
 10
-9.543604954069166
 20
17.8262579895802
 30
0.0
 11
-9.554438654069144
 21
17.81560118958021
 31
0.0
  0
LINE
  5
16C
330
2
100
AcDbEntity
  8
GAIKEI
 62
     1
100
AcDbLine
 10
-9.527766354069171
 20
17.83612738958021
 30
0.0
 11
-9.543604954069166
 21
17.8262579895802
 31
0.0
  0
LINE
  5
16D
330
2
100
AcDbEntity
  8
GAIKEI
 62
     1
100
AcDbLine
 10
-9.519346554069159
 20
17.83893798958024
 30
0.0
 11
-9.527766354069171
 21
17.83612738958021
 31
0.0
  0
LINE
  5
16E
330
2
100
AcDbEntity
  8
GAIKEI
 62
     1
100
AcDbLine
 10
-9.501960654069137
 20
17.84191648958023
 30
0.0
 11
-9.519346554069159
 21
17.83893798958024
 31
0.0
  0
LINE
  5
16F
330
2
100
AcDbEntity
  8
GAIKEI
 62
     1
100
AcDbLine
 10
-17.71736895406917
 20
19.75007388958022
 30
0.0
 11
-17.71874535406914
 21
19.72744508958021
 31
0.0
  0
LINE
  5
170
330
2
100
AcDbEntity
  8
GAIKEI
 62
     1
100
AcDbLine
 10
-17.71381975406916
 20
19.77095098958023
 30
0.0
 11
-17.71736895406917
 21
19.75007388958022
 31
0.0
  0
LINE
  5
171
330
2
100
AcDbEntity
  8
GAIKEI
 62
     1
100
AcDbLine
 10
-17.70800925406916
 20
19.79087278958025
 30
0.0
 11
-17.71381975406916
 21
19.77095098958023
 31
0.0
  0
LINE
  5
172
330
2
100
AcDbEntity
  8
GAIKEI
 62
     1
100
AcDbLine
 10
-17.70038285406917
 20
19.80852118958023
 30
0.0
 11
-17.70800925406916
 21
19.79087278958025
 31
0.0
  0
LINE
  5
173
330
2
100
AcDbEntity
  8
GAIKEI
 62
     1
100
AcDbLine
 10
-17.69070885406916
 20
19.82437198958024
 30
0.0
 11
-17.70038285406917
 21
19.80852118958023
 31
0.0
  0
LINE
  5
174
330
2
100
AcDbEntity
  8
GAIKEI
 62
     1
100
AcDbLine
 10
-17.67350305406916
 20
19.84288698958022
 30
0.0
 11
-17.69070885406916
 21
19.82437198958024
 31
0.0
  0
LINE
  5
175
330
2
100
AcDbEntity
  8
GAIKEI
 62
     1
100
AcDbLine
 10
-17.65281515406917
 20
19.85518858958022
 30
0.0
 11
-17.67350305406916
 21
19.84288698958022
 31
0.0
  0
LINE
  5
176
330
2
100
AcDbEntity
  8
GAIKEI
 62
     1
100
AcDbLine
 10
-17.64277485406916
 20
19.85838688958023
 30
0.0
 11
-17.65281515406917
 21
19.85518858958022
 31
0.0
  0
LINE
  5
177
330
2
100
AcDbEntity
  8
GAIKEI
 62
     1
100
AcDbLine
 10
-17.62229755406912
 20
19.86001348958024
 30
0.0
 11
-17.64277485406916
 21
19.85838688958023
 31
0.0
  0
LINE
  5
178
330
2
100
AcDbEntity
  8
GAIKEI
 62
     1
100
AcDbLine
 10
-6.110728354069181
 20
19.8573431895802
 30
0.0
 11
-6.130308454069165
 21
19.85970218958022
 31
0.0
  0
LINE
  5
179
330
2
100
AcDbEntity
  8
GAIKEI
 62
     1
100
AcDbLine
 10
-6.067545954069146
 20
19.84719608958022
 30
0.0
 11
-6.110728354069181
 21
19.8573431895802
 31
0.0
  0
LINE
  5
17A
330
2
100
AcDbEntity
  8
GAIKEI
 62
     1
100
AcDbLine
 10
-6.035841254069168
 20
19.83436338958023
 30
0.0
 11
-6.067545954069146
 21
19.84719608958022
 31
0.0
  0
LINE
  5
17B
330
2
100
AcDbEntity
  8
GAIKEI
 62
     1
100
AcDbLine
 10
-6.006086654069179
 20
19.81627258958025
 30
0.0
 11
-6.035841254069168
 21
19.83436338958023
 31
0.0
  0
LINE
  5
17C
330
2
100
AcDbEntity
  8
GAIKEI
 62
     1
100
AcDbLine
 10
-5.987251154069156
 20
19.79989378958021
 30
0.0
 11
-6.006086654069179
 21
19.81627258958025
 31
0.0
  0
LINE
  5
17D
330
2
100
AcDbEntity
  8
GAIKEI
 62
     1
100
AcDbLine
 10
-5.971107354069147
 20
19.77990788958021
 30
0.0
 11
-5.987251154069156
 21
19.79989378958021
 31
0.0
  0
LINE
  5
17E
330
2
100
AcDbEntity
  8
GAIKEI
 62
     1
100
AcDbLine
 10
-5.964121954069184
 20
19.76793888958025
 30
0.0
 11
-5.971107354069147
 21
19.77990788958021
 31
0.0
  0
LINE
  5
17F
330
2
100
AcDbEntity
  8
GAIKEI
 62
     1
100
AcDbLine
 10
-5.956474154069155
 20
19.74560608958023
 30
0.0
 11
-5.964121954069184
 21
19.76793888958025
 31
0.0
  0
LINE
  5
180
330
2
100
AcDbEntity
  8
GAIKEI
 62
     1
100
AcDbLine
 10
-5.953697054069152
 20
19.72619078958024
 30
0.0
 11
-5.956474154069155
 21
19.74560608958023
 31
0.0
  0
LINE
  5
181
330
2
100
AcDbEntity
  8
GAIKEI
 62
     1
100
AcDbLine
 10
-10.10966025406918
 20
19.74623778958022
 30
0.0
 11
-10.11228775406914
 21
19.72619078958024
 31
0.0
  0
LINE
  5
182
330
2
100
AcDbEntity
  8
GAIKEI
 62
     1
100
AcDbLine
 10
-10.10270525406918
 20
19.76827458958024
 30
0.0
 11
-10.10966025406918
 21
19.74623778958022
 31
0.0
  0
LINE
  5
183
330
2
100
AcDbEntity
  8
GAIKEI
 62
     1
100
AcDbLine
 10
-10.09659565406917
 20
19.77982848958021
 30
0.0
 11
-10.10270525406918
 21
19.76827458958024
 31
0.0
  0
LINE
  5
184
330
2
100
AcDbEntity
  8
GAIKEI
 62
     1
100
AcDbLine
 10
-10.08255455406913
 20
19.79924378958026
 30
0.0
 11
-10.09659565406917
 21
19.77982848958021
 31
0.0
  0
LINE
  5
185
330
2
100
AcDbEntity
  8
GAIKEI
 62
     1
100
AcDbLine
 10
-10.06612995406914
 20
19.81535708958023
 30
0.0
 11
-10.08255455406913
 21
19.79924378958026
 31
0.0
  0
LINE
  5
186
330
2
100
AcDbEntity
  8
GAIKEI
 62
     1
100
AcDbLine
 10
-10.05060875406917
 20
19.8269415895802
 30
0.0
 11
-10.06612995406914
 21
19.81535708958023
 31
0.0
  0
LINE
  5
187
330
2
100
AcDbEntity
  8
GAIKEI
 62
     1
100
AcDbLine
 10
-10.03422385406912
 20
19.83657898958023
 30
0.0
 11
-10.05060875406917
 21
19.8269415895802
 31
0.0
  0
LINE
  5
188
330
2
100
AcDbEntity
  8
GAIKEI
 62
     1
100
AcDbLine
 10
-10.01378315406913
 20
19.84579228958023
 30
0.0
 11
-10.03422385406912
 21
19.83657898958023
 31
0.0
  0
LINE
  5
189
330
2
100
AcDbEntity
  8
GAIKEI
 62
     1
100
AcDbLine
 10
-9.992912154069131
 20
19.8526525895802
 30
0.0
 11
-10.01378315406913
 21
19.84579228958023
 31
0.0
  0
LINE
  5
18A
330
2
100
AcDbEntity
  8
GAIKEI
 62
     1
100
AcDbLine
 10
-9.954566854069128
 20
19.85970218958022
 30
0.0
 11
-9.992912154069131
 21
19.8526525895802
 31
0.0
  0
LINE
  5
18B
330
2
100
AcDbEntity
  8
GAIKEI
 62
     1
100
AcDbLine
 10
-5.679609554069145
 20
19.75434638958023
 30
0.0
 11
-5.676286254069168
 21
19.72703308958023
 31
0.0
  0
LINE
  5
18C
330
2
100
AcDbEntity
  8
GAIKEI
 62
     1
100
AcDbLine
 10
-5.68348835406914
 20
19.76787778958021
 30
0.0
 11
-5.679609554069145
 21
19.75434638958023
 31
0.0
  0
LINE
  5
18D
330
2
100
AcDbEntity
  8
GAIKEI
 62
     1
100
AcDbLine
 10
-5.697242654069157
 20
19.79664678958022
 30
0.0
 11
-5.68348835406914
 21
19.76787778958021
 31
0.0
  0
LINE
  5
18E
330
2
100
AcDbEntity
  8
GAIKEI
 62
     1
100
AcDbLine
 10
-5.717317054069155
 20
19.82141478958022
 30
0.0
 11
-5.697242654069157
 21
19.79664678958022
 31
0.0
  0
LINE
  5
18F
330
2
100
AcDbEntity
  8
GAIKEI
 62
     1
100
AcDbLine
 10
-5.742616154069139
 20
19.84083618958021
 30
0.0
 11
-5.717317054069155
 21
19.82141478958022
 31
0.0
  0
LINE
  5
190
330
2
100
AcDbEntity
  8
GAIKEI
 62
     1
100
AcDbLine
 10
-5.771739054069144
 20
19.85383368958025
 30
0.0
 11
-5.742616154069139
 21
19.84083618958021
 31
0.0
  0
LINE
  5
191
330
2
100
AcDbEntity
  8
GAIKEI
 62
     1
100
AcDbLine
 10
-5.785655154069161
 20
19.8574346895802
 30
0.0
 11
-5.771739054069144
 21
19.85383368958025
 31
0.0
  0
LINE
  5
192
330
2
100
AcDbEntity
  8
GAIKEI
 62
     1
100
AcDbLine
 10
-5.813597054069134
 20
19.86001348958024
 30
0.0
 11
-5.785655154069161
 21
19.8574346895802
 31
0.0
  0
LINE
  5
193
330
2
100
AcDbEntity
  8
GAIKEI
 62
     1
100
AcDbLine
 10
-16.94319905406917
 20
19.74089418958022
 30
0.0
 11
-16.94428855406914
 21
19.72734438958025
 31
0.0
  0
LINE
  5
194
330
2
100
AcDbEntity
  8
GAIKEI
 62
     1
100
AcDbLine
 10
-16.93721155406916
 20
19.76725218958023
 30
0.0
 11
-16.94319905406917
 21
19.74089418958022
 31
0.0
  0
LINE
  5
195
330
2
100
AcDbEntity
  8
GAIKEI
 62
     1
100
AcDbLine
 10
-16.92327105406917
 20
19.79755618958023
 30
0.0
 11
-16.93721155406916
 21
19.76725218958023
 31
0.0
  0
LINE
  5
196
330
2
100
AcDbEntity
  8
GAIKEI
 62
     1
100
AcDbLine
 10
-16.90339805406916
 20
19.82369748958024
 30
0.0
 11
-16.92327105406917
 21
19.79755618958023
 31
0.0
  0
LINE
  5
197
330
2
100
AcDbEntity
  8
GAIKEI
 62
     1
100
AcDbLine
 10
-16.87889855406917
 20
19.84490728958025
 30
0.0
 11
-16.90339805406916
 21
19.82369748958024
 31
0.0
  0
LINE
  5
198
330
2
100
AcDbEntity
  8
GAIKEI
 62
     1
100
AcDbLine
 10
-16.85089865406917
 20
19.86069398958022
 30
0.0
 11
-16.87889855406917
 21
19.84490728958025
 31
0.0
  0
LINE
  5
199
330
2
100
AcDbEntity
  8
GAIKEI
 62
     1
100
AcDbLine
 10
-16.82038415406913
 20
19.87057248958024
 30
0.0
 11
-16.85089865406917
 21
19.86069398958022
 31
0.0
  0
LINE
  5
19A
330
2
100
AcDbEntity
  8
GAIKEI
 62
     1
100
AcDbLine
 10
-16.78838335406914
 20
19.87399358958021
 30
0.0
 11
-16.82038415406913
 21
19.87057248958024
 31
0.0
  0
LINE
  5
19B
330
2
100
AcDbEntity
  8
GAIKEI
 62
     1
100
AcDbLine
 10
-6.060279754069142
 20
19.8730596895802
 30
0.0
 11
-6.066438154069146
 21
19.87360898958025
 31
0.0
  0
LINE
  5
19C
330
2
100
AcDbEntity
  8
GAIKEI
 62
     1
100
AcDbLine
 10
-6.030033754069165
 20
19.86675788958024
 30
0.0
 11
-6.060279754069142
 21
19.8730596895802
 31
0.0
  0
LINE
  5
19D
330
2
100
AcDbEntity
  8
GAIKEI
 62
     1
100
AcDbLine
 10
-6.001512054069166
 20
19.85466978958021
 30
0.0
 11
-6.030033754069165
 21
19.86675788958024
 31
0.0
  0
LINE
  5
19E
330
2
100
AcDbEntity
  8
GAIKEI
 62
     1
100
AcDbLine
 10
-5.97582845406913
 20
19.8371160895802
 30
0.0
 11
-6.001512054069166
 21
19.85466978958021
 31
0.0
  0
LINE
  5
19F
330
2
100
AcDbEntity
  8
GAIKEI
 62
     1
100
AcDbLine
 10
-5.954099954069135
 20
19.81463078958023
 30
0.0
 11
-5.97582845406913
 21
19.8371160895802
 31
0.0
  0
LINE
  5
1A0
330
2
100
AcDbEntity
  8
GAIKEI
 62
     1
100
AcDbLine
 10
-5.937385454069158
 20
19.78800718958024
 30
0.0
 11
-5.954099954069135
 21
19.81463078958023
 31
0.0
  0
LINE
  5
1A1
330
2
100
AcDbEntity
  8
GAIKEI
 62
     1
100
AcDbLine
 10
-5.926606654069132
 20
19.75831968958022
 30
0.0
 11
-5.937385454069158
 21
19.78800718958024
 31
0.0
  0
LINE
  5
1A2
330
2
100
AcDbEntity
  8
GAIKEI
 62
     1
100
AcDbLine
 10
-5.92242875406913
 20
19.7269171895802
 30
0.0
 11
-5.926606654069132
 21
19.75831968958022
 31
0.0
  0
LINE
  5
1A3
330
2
100
AcDbEntity
  8
GAIKEI
 62
     1
100
AcDbLine
 10
-16.95900715406913
 20
19.19375678958022
 30
0.0
 11
-16.96109765406913
 21
19.20712958958023
 31
0.0
  0
LINE
  5
1A4
330
2
100
AcDbEntity
  8
GAIKEI
 62
     1
100
AcDbLine
 10
-16.95007465406917
 20
19.17486638958024
 30
0.0
 11
-16.95900715406913
 21
19.19375678958022
 31
0.0
  0
LINE
  5
1A5
330
2
100
AcDbEntity
  8
GAIKEI
 62
     1
100
AcDbLine
 10
-17.69770955406915
 20
19.22382268958023
 30
0.0
 11
-17.69394675406914
 21
19.22399358958023
 31
0.0
  0
LINE
  5
1A6
330
2
100
AcDbEntity
  8
GAIKEI
 62
     1
100
AcDbLine
 10
-17.71268755406913
 20
19.22020938958025
 30
0.0
 11
-17.69770955406915
 21
19.22382268958023
 31
0.0
  0
LINE
  5
1A7
330
2
100
AcDbEntity
  8
GAIKEI
 62
     1
100
AcDbLine
 10
-17.73150475406913
 20
19.2098425895802
 30
0.0
 11
-17.71268755406913
 21
19.22020938958025
 31
0.0
  0
LINE
  5
1A8
330
2
100
AcDbEntity
  8
GAIKEI
 62
     1
100
AcDbLine
 10
-17.74940325406913
 20
19.19295408958021
 30
0.0
 11
-17.73150475406913
 21
19.2098425895802
 31
0.0
  0
LINE
  5
1A9
330
2
100
AcDbEntity
  8
GAIKEI
 62
     1
100
AcDbLine
 10
-17.76096635406912
 20
19.17486638958024
 30
0.0
 11
-17.74940325406913
 21
19.19295408958021
 31
0.0
  0
LINE
  5
1AA
330
2
100
AcDbEntity
  8
GAIKEI
 62
     1
100
AcDbLine
 10
-9.304020554069154
 20
17.82826298958025
 30
0.0
 11
-9.293348554069154
 21
17.8163183895802
 31
0.0
  0
LINE
  5
1AB
330
2
100
AcDbEntity
  8
GAIKEI
 62
     1
100
AcDbLine
 10
-9.325022754069152
 20
17.84425718958022
 30
0.0
 11
-9.304020554069154
 21
17.82826298958025
 31
0.0
  0
LINE
  5
1AC
330
2
100
AcDbEntity
  8
GAIKEI
 62
     1
100
AcDbLine
 10
-9.34757225406912
 20
17.85376958958022
 30
0.0
 11
-9.325022754069152
 21
17.84425718958022
 31
0.0
  0
LINE
  5
1AD
330
2
100
AcDbEntity
  8
GAIKEI
 62
     1
100
AcDbLine
 10
-9.365516554069131
 20
17.85690368958023
 30
0.0
 11
-9.34757225406912
 21
17.85376958958022
 31
0.0
  0
LINE
  5
1AE
330
2
100
AcDbEntity
  8
GAIKEI
 62
     1
100
AcDbLine
 10
-9.304020554069154
 20
17.61972418958021
 30
0.0
 11
-9.293348554069154
 21
17.63166868958023
 31
0.0
  0
LINE
  5
1AF
330
2
100
AcDbEntity
  8
GAIKEI
 62
     1
100
AcDbLine
 10
-9.325022754069152
 20
17.60372988958022
 30
0.0
 11
-9.304020554069154
 21
17.61972418958021
 31
0.0
  0
LINE
  5
1B0
330
2
100
AcDbEntity
  8
GAIKEI
 62
     1
100
AcDbLine
 10
-9.34757225406912
 20
17.59421758958024
 30
0.0
 11
-9.325022754069152
 21
17.60372988958022
 31
0.0
  0
LINE
  5
1B1
330
2
100
AcDbEntity
  8
GAIKEI
 62
     1
100
AcDbLine
 10
-9.365516554069131
 20
17.5910833895802
 30
0.0
 11
-9.34757225406912
 21
17.59421758958024
 31
0.0
  0
LINE
  5
1B2
330
2
100
AcDbEntity
  8
GAIKEI
 62
     1
100
AcDbLine
 10
-9.30612625406917
 20
17.81438048958023
 30
0.0
 11
-9.330265754069159
 21
17.81405088958024
 31
0.0
  0
LINE
  5
1B3
330
2
100
AcDbEntity
  8
GAIKEI
 62
     1
100
AcDbLine
 10
-9.295213254069153
 20
17.8152502895802
 30
0.0
 11
-9.30612625406917
 21
17.81438048958023
 31
0.0
  0
LINE
  5
1B4
330
2
100
AcDbEntity
  8
GAIKEI
 62
     1
100
AcDbLine
 10
-9.293595754069144
 20
17.81573248958023
 30
0.0
 11
-9.295213254069153
 21
17.8152502895802
 31
0.0
  0
LINE
  5
1B5
330
2
100
AcDbEntity
  8
GAIKEI
 62
     1
100
AcDbLine
 10
-9.293357754069177
 20
17.81589728958022
 30
0.0
 11
-9.293595754069144
 21
17.81573248958023
 31
0.0
  0
LINE
  5
1B6
330
2
100
AcDbEntity
  8
GAIKEI
 62
     1
100
AcDbLine
 10
-9.293287554069138
 20
17.8160101895802
 30
0.0
 11
-9.293357754069177
 21
17.81589728958022
 31
0.0
  0
LINE
  5
1B7
330
2
100
AcDbEntity
  8
GAIKEI
 62
     1
100
AcDbLine
 10
-9.293278354069173
 20
17.81616578958022
 30
0.0
 11
-9.293287554069138
 21
17.8160101895802
 31
0.0
  0
LINE
  5
1B8
330
2
100
AcDbEntity
  8
GAIKEI
 62
     1
100
AcDbLine
 10
-9.293348554069154
 20
17.8163183895802
 30
0.0
 11
-9.293278354069173
 21
17.81616578958022
 31
0.0
  0
LINE
  5
1B9
330
2
100
AcDbEntity
  8
GAIKEI
 62
     1
100
AcDbLine
 10
-9.306669554069173
 20
17.63362488958023
 30
0.0
 11
-9.330265754069159
 21
17.63393618958025
 31
0.0
  0
LINE
  5
1BA
330
2
100
AcDbEntity
  8
GAIKEI
 62
     1
100
AcDbLine
 10
-9.294184754069135
 20
17.63248968958021
 30
0.0
 11
-9.306669554069173
 21
17.63362488958023
 31
0.0
  0
LINE
  5
1BB
330
2
100
AcDbEntity
  8
GAIKEI
 62
     1
100
AcDbLine
 10
-9.293623254069132
 20
17.63229128958022
 30
0.0
 11
-9.294184754069135
 21
17.63248968958021
 31
0.0
  0
LINE
  5
1BC
330
2
100
AcDbEntity
  8
GAIKEI
 62
     1
100
AcDbLine
 10
-9.293385254069164
 20
17.63210818958021
 30
0.0
 11
-9.293623254069132
 21
17.63229128958022
 31
0.0
  0
LINE
  5
1BD
330
2
100
AcDbEntity
  8
GAIKEI
 62
     1
100
AcDbLine
 10
-9.293290654069153
 20
17.6319708895802
 30
0.0
 11
-9.293385254069164
 21
17.63210818958021
 31
0.0
  0
LINE
  5
1BE
330
2
100
AcDbEntity
  8
GAIKEI
 62
     1
100
AcDbLine
 10
-9.293272254069165
 20
17.63181828958022
 30
0.0
 11
-9.293290654069153
 21
17.6319708895802
 31
0.0
  0
LINE
  5
1BF
330
2
100
AcDbEntity
  8
GAIKEI
 62
     1
100
AcDbLine
 10
-9.293348554069154
 20
17.63166868958023
 30
0.0
 11
-9.293272254069165
 21
17.63181828958022
 31
0.0
  0
LINE
  5
1C0
330
2
100
AcDbEntity
  8
GAIKEI
 62
     1
100
AcDbLine
 10
-9.27728415406915
 20
17.65840208958025
 30
0.0
 11
-9.293348554069154
 21
17.63166868958023
 31
0.0
  0
LINE
  5
1C1
330
2
100
AcDbEntity
  8
GAIKEI
 62
     1
100
AcDbLine
 10
-9.268424854069166
 20
17.6838567895802
 30
0.0
 11
-9.27728415406915
 21
17.65840208958025
 31
0.0
  0
LINE
  5
1C2
330
2
100
AcDbEntity
  8
GAIKEI
 62
     1
100
AcDbLine
 10
-9.264039554069142
 20
17.7104864895802
 30
0.0
 11
-9.268424854069166
 21
17.6838567895802
 31
0.0
  0
LINE
  5
1C3
330
2
100
AcDbEntity
  8
GAIKEI
 62
     1
100
AcDbLine
 10
-9.264039554069142
 20
17.73750058958023
 30
0.0
 11
-9.264039554069142
 21
17.7104864895802
 31
0.0
  0
LINE
  5
1C4
330
2
100
AcDbEntity
  8
GAIKEI
 62
     1
100
AcDbLine
 10
-9.268424854069166
 20
17.76413028958024
 30
0.0
 11
-9.264039554069142
 21
17.73750058958023
 31
0.0
  0
LINE
  5
1C5
330
2
100
AcDbEntity
  8
GAIKEI
 62
     1
100
AcDbLine
 10
-9.27728415406915
 20
17.78958498958025
 30
0.0
 11
-9.268424854069166
 21
17.76413028958024
 31
0.0
  0
LINE
  5
1C6
330
2
100
AcDbEntity
  8
GAIKEI
 62
     1
100
AcDbLine
 10
-9.293348554069154
 20
17.8163183895802
 30
0.0
 11
-9.27728415406915
 21
17.78958498958025
 31
0.0
  0
LINE
  5
1C7
330
2
100
AcDbEntity
  8
GAIKEI
 62
     1
100
AcDbLine
 10
-9.360734454069131
 20
17.64524598958024
 30
0.0
 11
-9.375279154069176
 21
17.6609319895802
 31
0.0
  0
LINE
  5
1C8
330
2
100
AcDbEntity
  8
GAIKEI
 62
     1
100
AcDbLine
 10
-9.34606165406916
 20
17.63686588958023
 30
0.0
 11
-9.360734454069131
 21
17.64524598958024
 31
0.0
  0
LINE
  5
1C9
330
2
100
AcDbEntity
  8
GAIKEI
 62
     1
100
AcDbLine
 10
-9.330265754069159
 20
17.63393618958025
 30
0.0
 11
-9.34606165406916
 21
17.63686588958023
 31
0.0
  0
LINE
  5
1CA
330
2
100
AcDbEntity
  8
GAIKEI
 62
     1
100
AcDbLine
 10
-9.360734454069131
 20
17.80274108958025
 30
0.0
 11
-9.375279154069176
 21
17.78705508958023
 31
0.0
  0
LINE
  5
1CB
330
2
100
AcDbEntity
  8
GAIKEI
 62
     1
100
AcDbLine
 10
-9.34606165406916
 20
17.81112128958023
 30
0.0
 11
-9.360734454069131
 21
17.80274108958025
 31
0.0
  0
LINE
  5
1CC
330
2
100
AcDbEntity
  8
GAIKEI
 62
     1
100
AcDbLine
 10
-9.330265754069159
 20
17.81405088958024
 30
0.0
 11
-9.34606165406916
 21
17.81112128958023
 31
0.0
  0
LINE
  5
1CD
330
2
100
AcDbEntity
  8
GAIKEI
 62
     1
100
AcDbLine
 10
-9.306123254069177
 20
17.81438048958023
 30
0.0
 11
-9.330265754069159
 21
17.81405088958024
 31
0.0
  0
LINE
  5
1CE
330
2
100
AcDbEntity
  8
GAIKEI
 62
     1
100
AcDbLine
 10
-9.295213254069153
 20
17.8152502895802
 30
0.0
 11
-9.306123254069177
 21
17.81438048958023
 31
0.0
  0
LINE
  5
1CF
330
2
100
AcDbEntity
  8
GAIKEI
 62
     1
100
AcDbLine
 10
-9.293595754069144
 20
17.81573248958023
 30
0.0
 11
-9.295213254069153
 21
17.8152502895802
 31
0.0
  0
LINE
  5
1D0
330
2
100
AcDbEntity
  8
GAIKEI
 62
     1
100
AcDbLine
 10
-9.293357754069177
 20
17.81589728958022
 30
0.0
 11
-9.293595754069144
 21
17.81573248958023
 31
0.0
  0
LINE
  5
1D1
330
2
100
AcDbEntity
  8
GAIKEI
 62
     1
100
AcDbLine
 10
-9.293287554069138
 20
17.8160101895802
 30
0.0
 11
-9.293357754069177
 21
17.81589728958022
 31
0.0
  0
LINE
  5
1D2
330
2
100
AcDbEntity
  8
GAIKEI
 62
     1
100
AcDbLine
 10
-9.293281454069131
 20
17.81616578958022
 30
0.0
 11
-9.293287554069138
 21
17.8160101895802
 31
0.0
  0
LINE
  5
1D3
330
2
100
AcDbEntity
  8
GAIKEI
 62
     1
100
AcDbLine
 10
-9.293348554069154
 20
17.8163183895802
 30
0.0
 11
-9.293281454069131
 21
17.81616578958022
 31
0.0
  0
LINE
  5
1D4
330
2
100
AcDbEntity
  8
GAIKEI
 62
     1
100
AcDbLine
 10
-9.306669554069173
 20
17.63362488958023
 30
0.0
 11
-9.330265754069159
 21
17.63393618958025
 31
0.0
  0
LINE
  5
1D5
330
2
100
AcDbEntity
  8
GAIKEI
 62
     1
100
AcDbLine
 10
-9.294184754069135
 20
17.63248968958021
 30
0.0
 11
-9.306669554069173
 21
17.63362488958023
 31
0.0
  0
LINE
  5
1D6
330
2
100
AcDbEntity
  8
GAIKEI
 62
     1
100
AcDbLine
 10
-9.293623254069132
 20
17.63229128958022
 30
0.0
 11
-9.294184754069135
 21
17.63248968958021
 31
0.0
  0
LINE
  5
1D7
330
2
100
AcDbEntity
  8
GAIKEI
 62
     1
100
AcDbLine
 10
-9.293385254069164
 20
17.63210818958021
 30
0.0
 11
-9.293623254069132
 21
17.63229128958022
 31
0.0
  0
LINE
  5
1D8
330
2
100
AcDbEntity
  8
GAIKEI
 62
     1
100
AcDbLine
 10
-9.293290654069153
 20
17.6319708895802
 30
0.0
 11
-9.293385254069164
 21
17.63210818958021
 31
0.0
  0
LINE
  5
1D9
330
2
100
AcDbEntity
  8
GAIKEI
 62
     1
100
AcDbLine
 10
-9.293272254069165
 20
17.63181828958022
 30
0.0
 11
-9.293290654069153
 21
17.6319708895802
 31
0.0
  0
LINE
  5
1DA
330
2
100
AcDbEntity
  8
GAIKEI
 62
     1
100
AcDbLine
 10
-9.293348554069154
 20
17.63166868958023
 30
0.0
 11
-9.293272254069165
 21
17.63181828958022
 31
0.0
  0
LINE
  5
1DB
330
2
100
AcDbEntity
  8
GAIKEI
 62
     1
100
AcDbLine
 10
-13.96355735406916
 20
13.85059268958025
 30
0.0
 11
-13.96017905406916
 21
13.86509458958022
 31
0.0
  0
LINE
  5
1DC
330
2
100
AcDbEntity
  8
GAIKEI
 62
     1
100
AcDbLine
 10
-13.97378985406914
 20
13.83832158958023
 30
0.0
 11
-13.96355735406916
 21
13.85059268958025
 31
0.0
  0
LINE
  5
1DD
330
2
100
AcDbEntity
  8
GAIKEI
 62
     1
100
AcDbLine
 10
-13.98679955406914
 20
13.83129028958024
 30
0.0
 11
-13.97378985406914
 21
13.83832158958023
 31
0.0
  0
LINE
  5
1DE
330
2
100
AcDbEntity
  8
GAIKEI
 62
     1
100
AcDbLine
 10
-14.00350485406915
 20
13.8277563895802
 30
0.0
 11
-13.98679955406914
 21
13.83129028958024
 31
0.0
  0
LINE
  5
1DF
330
2
100
AcDbEntity
  8
GAIKEI
 62
     1
100
AcDbLine
 10
-14.02753745406914
 20
13.82913878958021
 30
0.0
 11
-14.00350485406915
 21
13.8277563895802
 31
0.0
  0
LINE
  5
1E0
330
2
100
AcDbEntity
  8
GAIKEI
 62
     1
100
AcDbLine
 10
-14.05181415406917
 20
13.83651798958021
 30
0.0
 11
-14.02753745406914
 21
13.82913878958021
 31
0.0
  0
LINE
  5
1E1
330
2
100
AcDbEntity
  8
GAIKEI
 62
     1
100
AcDbLine
 10
-14.07738485406918
 20
13.85091918958022
 30
0.0
 11
-14.05181415406917
 21
13.83651798958021
 31
0.0
  0
LINE
  5
1E2
330
2
100
AcDbEntity
  8
GAIKEI
 62
     1
100
AcDbLine
 10
-14.09654685406917
 20
13.86849738958022
 30
0.0
 11
-14.07738485406918
 21
13.85091918958022
 31
0.0
  0
LINE
  5
1E3
330
2
100
AcDbEntity
  8
GAIKEI
 62
     1
100
AcDbLine
 10
-14.10651085406914
 20
13.88387518958024
 30
0.0
 11
-14.09654685406917
 21
13.86849738958022
 31
0.0
  0
LINE
  5
1E4
330
2
100
AcDbEntity
  8
GAIKEI
 62
     1
100
AcDbLine
 10
-14.20279375406915
 20
14.05199038958022
 30
0.0
 11
-14.20291275406913
 21
14.0505224895802
 31
0.0
  0
LINE
  5
1E5
330
2
100
AcDbEntity
  8
GAIKEI
 62
     1
100
AcDbLine
 10
-14.19986405406916
 20
14.05736758958022
 30
0.0
 11
-14.20279375406915
 21
14.05199038958022
 31
0.0
  0
LINE
  5
1E6
330
2
100
AcDbEntity
  8
GAIKEI
 62
     1
100
AcDbLine
 10
-14.19086755406914
 20
14.06273868958021
 30
0.0
 11
-14.19986405406916
 21
14.05736758958022
 31
0.0
  0
LINE
  5
1E7
330
2
100
AcDbEntity
  8
GAIKEI
 62
     1
100
AcDbLine
 10
-14.17656085406912
 20
14.06631228958019
 30
0.0
 11
-14.19086755406914
 21
14.06273868958021
 31
0.0
  0
LINE
  5
1E8
330
2
100
AcDbEntity
  8
GAIKEI
 62
     1
100
AcDbLine
 10
-14.14990375406915
 20
14.06794188958019
 30
0.0
 11
-14.17656085406912
 21
14.06631228958019
 31
0.0
  0
LINE
  5
1E9
330
2
100
AcDbEntity
  8
GAIKEI
 62
     1
100
AcDbLine
 10
-14.11106095406916
 20
14.06409058958024
 30
0.0
 11
-14.14990375406915
 21
14.06794188958019
 31
0.0
  0
LINE
  5
1EA
330
2
100
AcDbEntity
  8
GAIKEI
 62
     1
100
AcDbLine
 10
-14.08367455406915
 20
14.05687018958019
 30
0.0
 11
-14.11106095406916
 21
14.06409058958024
 31
0.0
  0
LINE
  5
1EB
330
2
100
AcDbEntity
  8
GAIKEI
 62
     1
100
AcDbLine
 10
-14.06589495406916
 20
14.04840458958023
 30
0.0
 11
-14.08367455406915
 21
14.05687018958019
 31
0.0
  0
LINE
  5
1EC
330
2
100
AcDbEntity
  8
GAIKEI
 62
     1
100
AcDbLine
 10
-14.05658405406916
 20
14.04035098958025
 30
0.0
 11
-14.06589495406916
 21
14.04840458958023
 31
0.0
  0
LINE
  5
1ED
330
2
100
AcDbEntity
  8
GAIKEI
 62
     1
100
AcDbLine
 10
-13.67499835406914
 20
13.86464908958021
 30
0.0
 11
-13.67486405406913
 21
13.86768558958022
 31
0.0
  0
LINE
  5
1EE
330
2
100
AcDbEntity
  8
GAIKEI
 62
     1
100
AcDbLine
 10
-13.67970115406916
 20
13.85018988958023
 30
0.0
 11
-13.67499835406914
 21
13.86464908958021
 31
0.0
  0
LINE
  5
1EF
330
2
100
AcDbEntity
  8
GAIKEI
 62
     1
100
AcDbLine
 10
-13.69117875406914
 20
13.83801028958021
 30
0.0
 11
-13.67970115406916
 21
13.85018988958023
 31
0.0
  0
LINE
  5
1F0
330
2
100
AcDbEntity
  8
GAIKEI
 62
     1
100
AcDbLine
 10
-13.70503985406912
 20
13.8310888895802
 30
0.0
 11
-13.69117875406914
 21
13.83801028958021
 31
0.0
  0
LINE
  5
1F1
330
2
100
AcDbEntity
  8
GAIKEI
 62
     1
100
AcDbLine
 10
-13.72237695406915
 20
13.82770148958025
 30
0.0
 11
-13.70503985406912
 21
13.8310888895802
 31
0.0
  0
LINE
  5
1F2
330
2
100
AcDbEntity
  8
GAIKEI
 62
     1
100
AcDbLine
 10
-13.74676355406916
 20
13.82927918958023
 30
0.0
 11
-13.72237695406915
 21
13.82770148958025
 31
0.0
  0
LINE
  5
1F3
330
2
100
AcDbEntity
  8
GAIKEI
 62
     1
100
AcDbLine
 10
-13.77088155406915
 20
13.83681398958021
 30
0.0
 11
-13.74676355406916
 21
13.82927918958023
 31
0.0
  0
LINE
  5
1F4
330
2
100
AcDbEntity
  8
GAIKEI
 62
     1
100
AcDbLine
 10
-13.79570755406916
 20
13.85133118958021
 30
0.0
 11
-13.77088155406915
 21
13.83681398958021
 31
0.0
  0
LINE
  5
1F5
330
2
100
AcDbEntity
  8
GAIKEI
 62
     1
100
AcDbLine
 10
-13.81123795406915
 20
13.86590638958023
 30
0.0
 11
-13.79570755406916
 21
13.85133118958021
 31
0.0
  0
LINE
  5
1F6
330
2
100
AcDbEntity
  8
GAIKEI
 62
     1
100
AcDbLine
 10
-13.82119285406912
 20
13.88126898958023
 30
0.0
 11
-13.81123795406915
 21
13.86590638958023
 31
0.0
  0
LINE
  5
1F7
330
2
100
AcDbEntity
  8
GAIKEI
 62
     1
100
AcDbLine
 10
-13.91748795406914
 20
14.05065978958021
 30
0.0
 11
-13.91759785406913
 21
14.04924378958026
 31
0.0
  0
LINE
  5
1F8
330
2
100
AcDbEntity
  8
GAIKEI
 62
     1
100
AcDbLine
 10
-13.91490015406913
 20
14.05592108958024
 30
0.0
 11
-13.91748795406914
 21
14.05065978958021
 31
0.0
  0
LINE
  5
1F9
330
2
100
AcDbEntity
  8
GAIKEI
 62
     1
100
AcDbLine
 10
-13.90691365406917
 20
14.0613744895802
 30
0.0
 11
-13.91490015406913
 21
14.05592108958024
 31
0.0
  0
LINE
  5
1FA
330
2
100
AcDbEntity
  8
GAIKEI
 62
     1
100
AcDbLine
 10
-13.89105975406915
 20
14.06588498958024
 30
0.0
 11
-13.90691365406917
 21
14.0613744895802
 31
0.0
  0
LINE
  5
1FB
330
2
100
AcDbEntity
  8
GAIKEI
 62
     1
100
AcDbLine
 10
-13.86210165406913
 20
14.06795408958021
 30
0.0
 11
-13.89105975406915
 21
14.06588498958024
 31
0.0
  0
LINE
  5
1FC
330
2
100
AcDbEntity
  8
GAIKEI
 62
     1
100
AcDbLine
 10
-13.82542865406918
 20
14.06466428958021
 30
0.0
 11
-13.86210165406913
 21
14.06795408958021
 31
0.0
  0
LINE
  5
1FD
330
2
100
AcDbEntity
  8
GAIKEI
 62
     1
100
AcDbLine
 10
-13.79622635406917
 20
14.05714788958022
 30
0.0
 11
-13.82542865406918
 21
14.06466428958021
 31
0.0
  0
LINE
  5
1FE
330
2
100
AcDbEntity
  8
GAIKEI
 62
     1
100
AcDbLine
 10
-13.77990555406916
 20
14.04927428958024
 30
0.0
 11
-13.79622635406917
 21
14.05714788958022
 31
0.0
  0
LINE
  5
1FF
330
2
100
AcDbEntity
  8
GAIKEI
 62
     1
100
AcDbLine
 10
-13.77126915406916
 20
14.04177008958021
 30
0.0
 11
-13.77990555406916
 21
14.04927428958024
 31
0.0
  0
LINE
  5
200
330
2
100
AcDbEntity
  8
GAIKEI
 62
     1
100
AcDbLine
 10
-11.85436235406917
 20
13.95525578958023
 30
0.0
 11
-11.85296465406912
 21
13.96687078958024
 31
0.0
  0
LINE
  5
201
330
2
100
AcDbEntity
  8
GAIKEI
 62
     1
100
AcDbLine
 10
-11.86161035406917
 20
13.9373998895802
 30
0.0
 11
-11.85436235406917
 21
13.95525578958023
 31
0.0
  0
LINE
  5
202
330
2
100
AcDbEntity
  8
GAIKEI
 62
     1
100
AcDbLine
 10
-11.87457725406915
 20
13.91962958958021
 30
0.0
 11
-11.86161035406917
 21
13.9373998895802
 31
0.0
  0
LINE
  5
203
330
2
100
AcDbEntity
  8
GAIKEI
 62
     1
100
AcDbLine
 10
-11.89257345406918
 20
13.90261298958023
 30
0.0
 11
-11.87457725406915
 21
13.91962958958021
 31
0.0
  0
LINE
  5
204
330
2
100
AcDbEntity
  8
GAIKEI
 62
     1
100
AcDbLine
 10
-11.92306665406914
 20
13.88216308958021
 30
0.0
 11
-11.89257345406918
 21
13.90261298958023
 31
0.0
  0
LINE
  5
205
330
2
100
AcDbEntity
  8
GAIKEI
 62
     1
100
AcDbLine
 10
-11.95934895406913
 20
13.8654089895802
 30
0.0
 11
-11.92306665406914
 21
13.88216308958021
 31
0.0
  0
LINE
  5
206
330
2
100
AcDbEntity
  8
GAIKEI
 62
     1
100
AcDbLine
 10
-11.99971155406916
 20
13.85337278958025
 30
0.0
 11
-11.95934895406913
 21
13.8654089895802
 31
0.0
  0
LINE
  5
207
330
2
100
AcDbEntity
  8
GAIKEI
 62
     1
100
AcDbLine
 10
-12.04256425406913
 20
13.84678098958022
 30
0.0
 11
-11.99971155406916
 21
13.85337278958025
 31
0.0
  0
LINE
  5
208
330
2
100
AcDbEntity
  8
GAIKEI
 62
     1
100
AcDbLine
 10
-12.08636925406915
 20
13.84604248958021
 30
0.0
 11
-12.04256425406913
 21
13.84678098958022
 31
0.0
  0
LINE
  5
209
330
2
100
AcDbEntity
  8
GAIKEI
 62
     1
100
AcDbLine
 10
-12.12960045406913
 20
13.85119688958025
 30
0.0
 11
-12.08636925406915
 21
13.84604248958021
 31
0.0
  0
LINE
  5
20A
330
2
100
AcDbEntity
  8
GAIKEI
 62
     1
100
AcDbLine
 10
-12.17072895406914
 20
13.86193298958022
 30
0.0
 11
-12.12960045406913
 21
13.85119688958025
 31
0.0
  0
LINE
  5
20B
330
2
100
AcDbEntity
  8
GAIKEI
 62
     1
100
AcDbLine
 10
-12.20817095406914
 20
13.8775884895802
 30
0.0
 11
-12.17072895406914
 21
13.86193298958022
 31
0.0
  0
LINE
  5
20C
330
2
100
AcDbEntity
  8
GAIKEI
 62
     1
100
AcDbLine
 10
-12.24026935406914
 20
13.89722348958025
 30
0.0
 11
-12.20817095406914
 21
13.8775884895802
 31
0.0
  0
LINE
  5
20D
330
2
100
AcDbEntity
  8
GAIKEI
 62
     1
100
AcDbLine
 10
-12.25977005406918
 20
13.91384338958022
 30
0.0
 11
-12.24026935406914
 21
13.89722348958025
 31
0.0
  0
LINE
  5
20E
330
2
100
AcDbEntity
  8
GAIKEI
 62
     1
100
AcDbLine
 10
-12.27449485406913
 20
13.93143678958023
 30
0.0
 11
-12.25977005406918
 21
13.91384338958022
 31
0.0
  0
LINE
  5
20F
330
2
100
AcDbEntity
  8
GAIKEI
 62
     1
100
AcDbLine
 10
-12.28371415406917
 20
13.94933838958025
 30
0.0
 11
-12.27449485406913
 21
13.93143678958023
 31
0.0
  0
LINE
  5
210
330
2
100
AcDbEntity
  8
GAIKEI
 62
     1
100
AcDbLine
 10
-12.28685745406915
 20
13.96687078958024
 30
0.0
 11
-12.28371415406917
 21
13.94933838958025
 31
0.0
  0
LINE
  5
211
330
2
100
AcDbEntity
  8
GAIKEI
 62
     1
100
AcDbLine
 10
-12.28474875406914
 20
13.98032898958024
 30
0.0
 11
-12.28685745406915
 21
13.96687078958024
 31
0.0
  0
LINE
  5
212
330
2
100
AcDbEntity
  8
GAIKEI
 62
     1
100
AcDbLine
 10
-12.27849265406917
 20
13.99285038958021
 30
0.0
 11
-12.28474875406914
 21
13.98032898958024
 31
0.0
  0
LINE
  5
213
330
2
100
AcDbEntity
  8
GAIKEI
 62
     1
100
AcDbLine
 10
-12.26826925406914
 20
14.00422428958023
 30
0.0
 11
-12.27849265406917
 21
13.99285038958021
 31
0.0
  0
LINE
  5
214
330
2
100
AcDbEntity
  8
GAIKEI
 62
     1
100
AcDbLine
 10
-12.25438375406912
 20
14.01432558958021
 30
0.0
 11
-12.26826925406914
 21
14.00422428958023
 31
0.0
  0
LINE
  5
215
330
2
100
AcDbEntity
  8
GAIKEI
 62
     1
100
AcDbLine
 10
-12.23723285406913
 20
14.02309018958021
 30
0.0
 11
-12.25438375406912
 21
14.01432558958021
 31
0.0
  0
LINE
  5
216
330
2
100
AcDbEntity
  8
GAIKEI
 62
     1
100
AcDbLine
 10
-12.20636125406912
 20
14.03373778958024
 30
0.0
 11
-12.23723285406913
 21
14.02309018958021
 31
0.0
  0
LINE
  5
217
330
2
100
AcDbEntity
  8
GAIKEI
 62
     1
100
AcDbLine
 10
-12.17067405406914
 20
14.04149848958025
 30
0.0
 11
-12.20636125406912
 21
14.03373778958024
 31
0.0
  0
LINE
  5
218
330
2
100
AcDbEntity
  8
GAIKEI
 62
     1
100
AcDbLine
 10
-12.11816245406913
 20
14.04765078958024
 30
0.0
 11
-12.17067405406914
 21
14.04149848958025
 31
0.0
  0
LINE
  5
219
330
2
100
AcDbEntity
  8
GAIKEI
 62
     1
100
AcDbLine
 10
-12.04910725406916
 20
14.04902408958025
 30
0.0
 11
-12.11816245406913
 21
14.04765078958024
 31
0.0
  0
LINE
  5
21A
330
2
100
AcDbEntity
  8
GAIKEI
 62
     1
100
AcDbLine
 10
-11.99486535406913
 20
14.04515138958021
 30
0.0
 11
-12.04910725406916
 21
14.04902408958025
 31
0.0
  0
LINE
  5
21B
330
2
100
AcDbEntity
  8
GAIKEI
 62
     1
100
AcDbLine
 10
-11.94488975406915
 20
14.03663388958023
 30
0.0
 11
-11.99486535406913
 21
14.04515138958021
 31
0.0
  0
LINE
  5
21C
330
2
100
AcDbEntity
  8
GAIKEI
 62
     1
100
AcDbLine
 10
-11.91224505406916
 20
14.02696598958022
 30
0.0
 11
-11.94488975406915
 21
14.03663388958023
 31
0.0
  0
LINE
  5
21D
330
2
100
AcDbEntity
  8
GAIKEI
 62
     1
100
AcDbLine
 10
-11.88543535406916
 20
14.01432248958019
 30
0.0
 11
-11.91224505406916
 21
14.02696598958022
 31
0.0
  0
LINE
  5
21E
330
2
100
AcDbEntity
  8
GAIKEI
 62
     1
100
AcDbLine
 10
-11.87154985406914
 20
14.00422428958023
 30
0.0
 11
-11.88543535406916
 21
14.01432248958019
 31
0.0
  0
LINE
  5
21F
330
2
100
AcDbEntity
  8
GAIKEI
 62
     1
100
AcDbLine
 10
-11.86132955406913
 20
13.99285038958021
 30
0.0
 11
-11.87154985406914
 21
14.00422428958023
 31
0.0
  0
LINE
  5
220
330
2
100
AcDbEntity
  8
GAIKEI
 62
     1
100
AcDbLine
 10
-11.85507345406915
 20
13.98032898958024
 30
0.0
 11
-11.86132955406913
 21
13.99285038958021
 31
0.0
  0
LINE
  5
221
330
2
100
AcDbEntity
  8
GAIKEI
 62
     1
100
AcDbLine
 10
-11.85296465406912
 20
13.96687078958024
 30
0.0
 11
-11.85507345406915
 21
13.98032898958024
 31
0.0
  0
LINE
  5
222
330
2
100
AcDbEntity
  8
GAIKEI
 62
     1
100
AcDbLine
 10
-13.61334985406915
 20
9.773697489580229
 30
0.0
 11
-13.66975855406918
 21
9.904791889580224
 31
0.0
  0
LINE
  5
223
330
2
100
AcDbEntity
  8
GAIKEI
 62
     1
100
AcDbLine
 10
-13.59564045406915
 20
9.728488789580239
 30
0.0
 11
-13.61334985406915
 21
9.773697489580229
 31
0.0
  0
LINE
  5
224
330
2
100
AcDbEntity
  8
GAIKEI
 62
     1
100
AcDbLine
 10
-13.57946005406916
 20
9.684833389580205
 30
0.0
 11
-13.59564045406915
 21
9.728488789580239
 31
0.0
  0
LINE
  5
225
330
2
100
AcDbEntity
  8
GAIKEI
 62
     1
100
AcDbLine
 10
-13.53803245406914
 20
9.56112428958022
 30
0.0
 11
-13.57946005406916
 21
9.684833389580205
 31
0.0
  0
LINE
  5
226
330
2
100
AcDbEntity
  8
GAIKEI
 62
     1
100
AcDbLine
 10
-13.52691185406917
 20
9.524106489580219
 30
0.0
 11
-13.53803245406914
 21
9.56112428958022
 31
0.0
  0
LINE
  5
227
330
2
100
AcDbEntity
  8
GAIKEI
 62
     1
100
AcDbLine
 10
-13.51971275406913
 20
9.499173589580209
 30
0.0
 11
-13.52691185406917
 21
9.524106489580219
 31
0.0
  0
LINE
  5
228
330
2
100
AcDbEntity
  8
GAIKEI
 62
     1
100
AcDbLine
 10
-13.51642295406913
 20
9.487518989580223
 30
0.0
 11
-13.51971275406913
 21
9.499173589580209
 31
0.0
  0
LINE
  5
229
330
2
100
AcDbEntity
  8
GAIKEI
 62
     1
100
AcDbLine
 10
-13.51352375406912
 20
9.477078889580241
 30
0.0
 11
-13.51642295406913
 21
9.487518989580223
 31
0.0
  0
LINE
  5
22A
330
2
100
AcDbEntity
  8
GAIKEI
 62
     1
100
AcDbLine
 10
-13.50968155406917
 20
9.462998089580196
 30
0.0
 11
-13.51352375406912
 21
9.477078889580241
 31
0.0
  0
LINE
  5
22B
330
2
100
AcDbEntity
  8
GAIKEI
 62
     1
100
AcDbLine
 10
-13.50756365406914
 20
9.455093989580234
 30
0.0
 11
-13.50968155406917
 21
9.462998089580196
 31
0.0
  0
LINE
  5
22C
330
2
100
AcDbEntity
  8
GAIKEI
 62
     1
100
AcDbLine
 10
-13.48382105406915
 20
9.356635189580231
 30
0.0
 11
-13.50756365406914
 21
9.455093989580234
 31
0.0
  0
LINE
  5
22D
330
2
100
AcDbEntity
  8
GAIKEI
 62
     1
100
AcDbLine
 10
-13.47840715406914
 20
9.330742489580245
 30
0.0
 11
-13.48382105406915
 21
9.356635189580231
 31
0.0
  0
LINE
  5
22E
330
2
100
AcDbEntity
  8
GAIKEI
 62
     1
100
AcDbLine
 10
-13.47380205406915
 20
9.307797889580228
 30
0.0
 11
-13.47840715406914
 21
9.330742489580245
 31
0.0
  0
LINE
  5
22F
330
2
100
AcDbEntity
  8
GAIKEI
 62
     1
100
AcDbLine
 10
-13.46590715406916
 20
9.267563489580197
 30
0.0
 11
-13.47380205406915
 21
9.307797889580228
 31
0.0
  0
LINE
  5
230
330
2
100
AcDbEntity
  8
GAIKEI
 62
     1
100
AcDbLine
 10
-13.45956255406912
 20
9.234628889580221
 30
0.0
 11
-13.46590715406916
 21
9.267563489580197
 31
0.0
  0
LINE
  5
231
330
2
100
AcDbEntity
  8
GAIKEI
 62
     1
100
AcDbLine
 10
-14.20237565406916
 20
11.53099118958022
 30
0.0
 11
-14.25099015406914
 21
11.69594788958022
 31
0.0
  0
LINE
  5
232
330
2
100
AcDbEntity
  8
GAIKEI
 62
     1
100
AcDbLine
 10
-14.18653705406916
 20
11.4776922895802
 30
0.0
 11
-14.20237565406916
 21
11.53099118958022
 31
0.0
  0
LINE
  5
233
330
2
100
AcDbEntity
  8
GAIKEI
 62
     1
100
AcDbLine
 10
-14.15581505406914
 20
11.37531188958024
 30
0.0
 11
-14.18653705406916
 21
11.4776922895802
 31
0.0
  0
LINE
  5
234
330
2
100
AcDbEntity
  8
GAIKEI
 62
     1
100
AcDbLine
 10
-14.12485495406918
 20
11.27339538958023
 30
0.0
 11
-14.15581505406914
 21
11.37531188958024
 31
0.0
  0
LINE
  5
235
330
2
100
AcDbEntity
  8
GAIKEI
 62
     1
100
AcDbLine
 10
-14.06223285406912
 20
11.07065798958024
 30
0.0
 11
-14.12485495406918
 21
11.27339538958023
 31
0.0
  0
LINE
  5
236
330
2
100
AcDbEntity
  8
GAIKEI
 62
     1
100
AcDbLine
 10
-14.00123435406914
 20
10.87761908958021
 30
0.0
 11
-14.06223285406912
 21
11.07065798958024
 31
0.0
  0
LINE
  5
237
330
2
100
AcDbEntity
  8
GAIKEI
 62
     1
100
AcDbLine
 10
-13.88452595406915
 20
10.52039858958022
 30
0.0
 11
-14.00123435406914
 21
10.87761908958021
 31
0.0
  0
LINE
  5
238
330
2
100
AcDbEntity
  8
GAIKEI
 62
     1
100
AcDbLine
 10
-13.82895035406915
 20
10.35590578958022
 30
0.0
 11
-13.88452595406915
 21
10.52039858958022
 31
0.0
  0
LINE
  5
239
330
2
100
AcDbEntity
  8
GAIKEI
 62
     1
100
AcDbLine
 10
-13.75137165406914
 20
10.13232488958021
 30
0.0
 11
-13.82895035406915
 21
10.35590578958022
 31
0.0
  0
LINE
  5
23A
330
2
100
AcDbEntity
  8
GAIKEI
 62
     1
100
AcDbLine
 10
-13.72606955406917
 20
10.06094428958022
 30
0.0
 11
-13.75137165406914
 21
10.13232488958021
 31
0.0
  0
LINE
  5
23B
330
2
100
AcDbEntity
  8
GAIKEI
 62
     1
100
AcDbLine
 10
-13.67802575406915
 20
9.927588489580216
 30
0.0
 11
-13.72606955406917
 21
10.06094428958022
 31
0.0
  0
LINE
  5
23C
330
2
100
AcDbEntity
  8
GAIKEI
 62
     1
100
AcDbLine
 10
-14.50093835406915
 20
13.00112668958024
 30
0.0
 11
-14.51293175406914
 21
13.15001898958024
 31
0.0
  0
LINE
  5
23D
330
2
100
AcDbEntity
  8
GAIKEI
 62
     1
100
AcDbLine
 10
-14.49575335406916
 20
12.94619208958022
 30
0.0
 11
-14.50093835406915
 21
13.00112668958024
 31
0.0
  0
LINE
  5
23E
330
2
100
AcDbEntity
  8
GAIKEI
 62
     1
100
AcDbLine
 10
-14.48269185406917
 20
12.82571778958021
 30
0.0
 11
-14.49575335406916
 21
12.94619208958022
 31
0.0
  0
LINE
  5
23F
330
2
100
AcDbEntity
  8
GAIKEI
 62
     1
100
AcDbLine
 10
-14.46786645406916
 20
12.70750188958021
 30
0.0
 11
-14.48269185406917
 21
12.82571778958021
 31
0.0
  0
LINE
  5
240
330
2
100
AcDbEntity
  8
GAIKEI
 62
     1
100
AcDbLine
 10
-14.45750565406916
 20
12.63328008958024
 30
0.0
 11
-14.46786645406916
 21
12.70750188958021
 31
0.0
  0
LINE
  5
241
330
2
100
AcDbEntity
  8
GAIKEI
 62
     1
100
AcDbLine
 10
-14.44599755406915
 20
12.55706548958022
 30
0.0
 11
-14.45750565406916
 21
12.63328008958024
 31
0.0
  0
LINE
  5
242
330
2
100
AcDbEntity
  8
GAIKEI
 62
     1
100
AcDbLine
 10
-14.42115015406915
 20
12.4092932895802
 30
0.0
 11
-14.44599755406915
 21
12.55706548958022
 31
0.0
  0
LINE
  5
243
330
2
100
AcDbEntity
  8
GAIKEI
 62
     1
100
AcDbLine
 10
-14.40791465406914
 20
12.33785768958023
 30
0.0
 11
-14.42115015406915
 21
12.4092932895802
 31
0.0
  0
LINE
  5
244
330
2
100
AcDbEntity
  8
GAIKEI
 62
     1
100
AcDbLine
 10
-14.38301535406913
 20
12.21390748958021
 30
0.0
 11
-14.40791465406914
 21
12.33785768958023
 31
0.0
  0
LINE
  5
245
330
2
100
AcDbEntity
  8
GAIKEI
 62
     1
100
AcDbLine
 10
-14.35777115406915
 20
12.09937808958023
 30
0.0
 11
-14.38301535406913
 21
12.21390748958021
 31
0.0
  0
LINE
  5
246
330
2
100
AcDbEntity
  8
GAIKEI
 62
     1
100
AcDbLine
 10
-14.33056475406914
 20
11.9857244895802
 30
0.0
 11
-14.35777115406915
 21
12.09937808958023
 31
0.0
  0
LINE
  5
247
330
2
100
AcDbEntity
  8
GAIKEI
 62
     1
100
AcDbLine
 10
-14.29451745406914
 20
11.84757448958021
 30
0.0
 11
-14.33056475406914
 21
11.9857244895802
 31
0.0
  0
LINE
  5
248
330
2
100
AcDbEntity
  8
GAIKEI
 62
     1
100
AcDbLine
 10
-14.25540605406917
 20
11.71099308958025
 30
0.0
 11
-14.29451745406914
 21
11.84757448958021
 31
0.0
  0
LINE
  5
249
330
2
100
AcDbEntity
  8
GAIKEI
 62
     1
100
AcDbLine
 10
-14.52248985406913
 20
13.3042364895802
 30
0.0
 11
-14.52011865406916
 21
13.32120428958023
 31
0.0
  0
LINE
  5
24A
330
2
100
AcDbEntity
  8
GAIKEI
 62
     1
100
AcDbLine
 10
-14.52473595406917
 20
13.26979128958021
 30
0.0
 11
-14.52248985406913
 21
13.3042364895802
 31
0.0
  0
LINE
  5
24B
330
2
100
AcDbEntity
  8
GAIKEI
 62
     1
100
AcDbLine
 10
-14.52482135406916
 20
13.2530920895802
 30
0.0
 11
-14.52473595406917
 21
13.26979128958021
 31
0.0
  0
LINE
  5
24C
330
2
100
AcDbEntity
  8
GAIKEI
 62
     1
100
AcDbLine
 10
-14.52224565406914
 20
13.2065191895802
 30
0.0
 11
-14.52482135406916
 21
13.2530920895802
 31
0.0
  0
LINE
  5
24D
330
2
100
AcDbEntity
  8
GAIKEI
 62
     1
100
AcDbLine
 10
-14.52019795406914
 20
13.18956968958025
 30
0.0
 11
-14.52224565406914
 21
13.2065191895802
 31
0.0
  0
LINE
  5
24E
330
2
100
AcDbEntity
  8
GAIKEI
 62
     1
100
AcDbLine
 10
-14.51385945406918
 20
13.1543096895802
 30
0.0
 11
-14.52019795406914
 21
13.18956968958025
 31
0.0
  0
LINE
  5
24F
330
2
100
AcDbEntity
  8
GAIKEI
 62
     1
100
AcDbLine
 10
-9.616609054069158
 20
13.30380308958024
 30
0.0
 11
-9.619126754069156
 21
13.31972718958025
 31
0.0
  0
LINE
  5
250
330
2
100
AcDbEntity
  8
GAIKEI
 62
     1
100
AcDbLine
 10
-9.614024254069136
 20
13.27067628958025
 30
0.0
 11
-9.616609054069158
 21
13.30380308958024
 31
0.0
  0
LINE
  5
251
330
2
100
AcDbEntity
  8
GAIKEI
 62
     1
100
AcDbLine
 10
-9.614021154069178
 20
13.2535253895802
 30
0.0
 11
-9.614024254069136
 21
13.27067628958025
 31
0.0
  0
LINE
  5
252
330
2
100
AcDbEntity
  8
GAIKEI
 62
     1
100
AcDbLine
 10
-9.617979354069177
 20
13.20137998958023
 30
0.0
 11
-9.614021154069178
 21
13.2535253895802
 31
0.0
  0
LINE
  5
253
330
2
100
AcDbEntity
  8
GAIKEI
 62
     1
100
AcDbLine
 10
-9.625971854069177
 20
13.1535772895802
 30
0.0
 11
-9.617979354069177
 21
13.20137998958023
 31
0.0
  0
LINE
  5
254
330
2
100
AcDbEntity
  8
GAIKEI
 62
     1
100
AcDbLine
 10
-9.876231254069182
 20
11.73896238958025
 30
0.0
 11
-9.884419154069121
 21
11.71098998958024
 31
0.0
  0
LINE
  5
255
330
2
100
AcDbEntity
  8
GAIKEI
 62
     1
100
AcDbLine
 10
-9.846653654069143
 20
11.84266118958021
 30
0.0
 11
-9.876231254069182
 21
11.73896238958025
 31
0.0
  0
LINE
  5
256
330
2
100
AcDbEntity
  8
GAIKEI
 62
     1
100
AcDbLine
 10
-9.818531654069147
 20
11.94887448958025
 30
0.0
 11
-9.846653654069143
 21
11.84266118958021
 31
0.0
  0
LINE
  5
257
330
2
100
AcDbEntity
  8
GAIKEI
 62
     1
100
AcDbLine
 10
-9.806526054069138
 20
11.99674438958021
 30
0.0
 11
-9.818531654069147
 21
11.94887448958025
 31
0.0
  0
LINE
  5
258
330
2
100
AcDbEntity
  8
GAIKEI
 62
     1
100
AcDbLine
 10
-9.794221354069179
 20
12.04741888958023
 30
0.0
 11
-9.806526054069138
 21
11.99674438958021
 31
0.0
  0
LINE
  5
259
330
2
100
AcDbEntity
  8
GAIKEI
 62
     1
100
AcDbLine
 10
-9.776756154069175
 20
12.12259588958022
 30
0.0
 11
-9.794221354069179
 21
12.04741888958023
 31
0.0
  0
LINE
  5
25A
330
2
100
AcDbEntity
  8
GAIKEI
 62
     1
100
AcDbLine
 10
-9.74946125406916
 20
12.24921938958022
 30
0.0
 11
-9.776756154069175
 21
12.12259588958022
 31
0.0
  0
LINE
  5
25B
330
2
100
AcDbEntity
  8
GAIKEI
 62
     1
100
AcDbLine
 10
-9.728279054069162
 20
12.35702878958022
 30
0.0
 11
-9.74946125406916
 21
12.24921938958022
 31
0.0
  0
LINE
  5
25C
330
2
100
AcDbEntity
  8
GAIKEI
 62
     1
100
AcDbLine
 10
-9.71970665406917
 20
12.40355588958022
 30
0.0
 11
-9.728279054069162
 21
12.35702878958022
 31
0.0
  0
LINE
  5
25D
330
2
100
AcDbEntity
  8
GAIKEI
 62
     1
100
AcDbLine
 10
-9.711665254069146
 20
12.44899358958025
 30
0.0
 11
-9.71970665406917
 21
12.40355588958022
 31
0.0
  0
LINE
  5
25E
330
2
100
AcDbEntity
  8
GAIKEI
 62
     1
100
AcDbLine
 10
-9.703727654069155
 20
12.49572208958023
 30
0.0
 11
-9.711665254069146
 21
12.44899358958025
 31
0.0
  0
LINE
  5
25F
330
2
100
AcDbEntity
  8
GAIKEI
 62
     1
100
AcDbLine
 10
-9.685441454069177
 20
12.61191168958021
 30
0.0
 11
-9.703727654069155
 21
12.49572208958023
 31
0.0
  0
LINE
  5
260
330
2
100
AcDbEntity
  8
GAIKEI
 62
     1
100
AcDbLine
 10
-9.669071854069159
 20
12.72902588958021
 30
0.0
 11
-9.685441454069177
 21
12.61191168958021
 31
0.0
  0
LINE
  5
261
330
2
100
AcDbEntity
  8
GAIKEI
 62
     1
100
AcDbLine
 10
-9.652192554069131
 20
12.86861328958025
 30
0.0
 11
-9.669071854069159
 21
12.72902588958021
 31
0.0
  0
LINE
  5
262
330
2
100
AcDbEntity
  8
GAIKEI
 62
     1
100
AcDbLine
 10
-9.63818505406914
 20
13.00856388958022
 30
0.0
 11
-9.652192554069131
 21
12.86861328958025
 31
0.0
  0
LINE
  5
263
330
2
100
AcDbEntity
  8
GAIKEI
 62
     1
100
AcDbLine
 10
-9.626914854069184
 20
13.14924378958022
 30
0.0
 11
-9.63818505406914
 21
13.00856388958022
 31
0.0
  0
LINE
  5
264
330
2
100
AcDbEntity
  8
GAIKEI
 62
     1
100
AcDbLine
 10
-10.41454305406915
 20
10.05873478958023
 30
0.0
 11
-10.46178425406913
 21
9.927622089580211
 31
0.0
  0
LINE
  5
265
330
2
100
AcDbEntity
  8
GAIKEI
 62
     1
100
AcDbLine
 10
-10.38927445406915
 20
10.12999328958023
 30
0.0
 11
-10.41454305406915
 21
10.05873478958023
 31
0.0
  0
LINE
  5
266
330
2
100
AcDbEntity
  8
GAIKEI
 62
     1
100
AcDbLine
 10
-10.31185745406918
 20
10.35304018958021
 30
0.0
 11
-10.38927445406915
 21
10.12999328958023
 31
0.0
  0
LINE
  5
267
330
2
100
AcDbEntity
  8
GAIKEI
 62
     1
100
AcDbLine
 10
-10.25612935406917
 20
10.51793278958024
 30
0.0
 11
-10.31185745406918
 21
10.35304018958021
 31
0.0
  0
LINE
  5
268
330
2
100
AcDbEntity
  8
GAIKEI
 62
     1
100
AcDbLine
 10
-10.13871905406915
 20
10.87723448958024
 30
0.0
 11
-10.25612935406917
 21
10.51793278958024
 31
0.0
  0
LINE
  5
269
330
2
100
AcDbEntity
  8
GAIKEI
 62
     1
100
AcDbLine
 10
-10.07727805406915
 20
11.07165898958021
 30
0.0
 11
-10.13871905406915
 21
10.87723448958024
 31
0.0
  0
LINE
  5
26A
330
2
100
AcDbEntity
  8
GAIKEI
 62
     1
100
AcDbLine
 10
-10.01432945406913
 20
11.27547668958021
 30
0.0
 11
-10.07727805406915
 21
11.07165898958021
 31
0.0
  0
LINE
  5
26B
330
2
100
AcDbEntity
  8
GAIKEI
 62
     1
100
AcDbLine
 10
-9.998689154069154
 20
11.32682558958021
 30
0.0
 11
-10.01432945406913
 21
11.27547668958021
 31
0.0
  0
LINE
  5
26C
330
2
100
AcDbEntity
  8
GAIKEI
 62
     1
100
AcDbLine
 10
-9.952635054069162
 20
11.47987738958022
 30
0.0
 11
-9.998689154069154
 21
11.32682558958021
 31
0.0
  0
LINE
  5
26D
330
2
100
AcDbEntity
  8
GAIKEI
 62
     1
100
AcDbLine
 10
-9.93676595406913
 20
11.53328918958021
 30
0.0
 11
-9.952635054069162
 21
11.47987738958022
 31
0.0
  0
LINE
  5
26E
330
2
100
AcDbEntity
  8
GAIKEI
 62
     1
100
AcDbLine
 10
-9.888831954069132
 20
11.69594788958022
 30
0.0
 11
-9.93676595406913
 21
11.53328918958021
 31
0.0
  0
LINE
  5
26F
330
2
100
AcDbEntity
  8
GAIKEI
 62
     1
100
AcDbLine
 10
-10.67168725406912
 20
9.292564989580228
 30
0.0
 11
-10.67848955406913
 21
9.25943668958024
 31
0.0
  0
LINE
  5
270
330
2
100
AcDbEntity
  8
GAIKEI
 62
     1
100
AcDbLine
 10
-10.65190875406915
 20
9.379524889580238
 30
0.0
 11
-10.67168725406912
 21
9.292564989580228
 31
0.0
  0
LINE
  5
271
330
2
100
AcDbEntity
  8
GAIKEI
 62
     1
100
AcDbLine
 10
-10.62135155406918
 20
9.494788189580219
 30
0.0
 11
-10.65190875406915
 21
9.379524889580238
 31
0.0
  0
LINE
  5
272
330
2
100
AcDbEntity
  8
GAIKEI
 62
     1
100
AcDbLine
 10
-10.60129235406913
 20
9.562573889580221
 30
0.0
 11
-10.62135155406918
 21
9.494788189580219
 31
0.0
  0
LINE
  5
273
330
2
100
AcDbEntity
  8
GAIKEI
 62
     1
100
AcDbLine
 10
-10.57588335406916
 20
9.64075378958023
 30
0.0
 11
-10.60129235406913
 21
9.562573889580221
 31
0.0
  0
LINE
  5
274
330
2
100
AcDbEntity
  8
GAIKEI
 62
     1
100
AcDbLine
 10
-10.56152795406916
 20
9.68158938958021
 30
0.0
 11
-10.57588335406916
 21
9.64075378958023
 31
0.0
  0
LINE
  5
275
330
2
100
AcDbEntity
  8
GAIKEI
 62
     1
100
AcDbLine
 10
-10.54608905406917
 20
9.723416789580255
 30
0.0
 11
-10.56152795406916
 21
9.68158938958021
 31
0.0
  0
LINE
  5
276
330
2
100
AcDbEntity
  8
GAIKEI
 62
     1
100
AcDbLine
 10
-10.52893515406913
 20
9.767572689580219
 30
0.0
 11
-10.54608905406917
 21
9.723416789580255
 31
0.0
  0
LINE
  5
277
330
2
100
AcDbEntity
  8
GAIKEI
 62
     1
100
AcDbLine
 10
-10.51056965406917
 20
9.812207689580247
 30
0.0
 11
-10.52893515406913
 21
9.767572689580219
 31
0.0
  0
LINE
  5
278
330
2
100
AcDbEntity
  8
GAIKEI
 62
     1
100
AcDbLine
 10
-10.47005455406912
 20
9.904822389580203
 30
0.0
 11
-10.51056965406917
 21
9.812207689580247
 31
0.0
  0
LINE
  5
279
330
2
100
AcDbEntity
  8
GAIKEI
 62
     1
100
AcDbLine
 10
-13.47700945406916
 20
12.74923158958023
 30
0.0
 11
-13.48328385406915
 21
12.7545843895802
 31
0.0
  0
LINE
  5
27A
330
2
100
AcDbEntity
  8
GAIKEI
 62
     1
100
AcDbLine
 10
-13.47612145406913
 20
12.74846258958024
 30
0.0
 11
-13.47700945406916
 21
12.74923158958023
 31
0.0
  0
LINE
  5
27B
330
2
100
AcDbEntity
  8
GAIKEI
 62
     1
100
AcDbLine
 10
-13.45206445406916
 20
12.72520818958026
 30
0.0
 11
-13.47612145406913
 21
12.74846258958024
 31
0.0
  0
LINE
  5
27C
330
2
100
AcDbEntity
  8
GAIKEI
 62
     1
100
AcDbLine
 10
-13.44622635406915
 20
12.71729188958022
 30
0.0
 11
-13.45206445406916
 21
12.72520818958026
 31
0.0
  0
LINE
  5
27D
330
2
100
AcDbEntity
  8
GAIKEI
 62
     1
100
AcDbLine
 10
-13.44484395406914
 20
12.71415158958024
 30
0.0
 11
-13.44622635406915
 21
12.71729188958022
 31
0.0
  0
LINE
  5
27E
330
2
100
AcDbEntity
  8
GAIKEI
 62
     1
100
AcDbLine
 10
-13.44460895406917
 20
12.71152098958021
 30
0.0
 11
-13.44484395406914
 21
12.71415158958024
 31
0.0
  0
LINE
  5
27F
330
2
100
AcDbEntity
  8
GAIKEI
 62
     1
100
AcDbLine
 10
-10.66282495406915
 20
12.74922238958021
 30
0.0
 11
-10.65653825406917
 21
12.7545843895802
 31
0.0
  0
LINE
  5
280
330
2
100
AcDbEntity
  8
GAIKEI
 62
     1
100
AcDbLine
 10
-10.66387165406917
 20
12.7483129895802
 30
0.0
 11
-10.66282495406915
 21
12.74922238958021
 31
0.0
  0
LINE
  5
281
330
2
100
AcDbEntity
  8
GAIKEI
 62
     1
100
AcDbLine
 10
-10.68778525406912
 20
12.7251745895802
 30
0.0
 11
-10.66387165406917
 21
12.7483129895802
 31
0.0
  0
LINE
  5
282
330
2
100
AcDbEntity
  8
GAIKEI
 62
     1
100
AcDbLine
 10
-10.69361105406915
 20
12.71726748958019
 30
0.0
 11
-10.68778525406912
 21
12.7251745895802
 31
0.0
  0
LINE
  5
283
330
2
100
AcDbEntity
  8
GAIKEI
 62
     1
100
AcDbLine
 10
-10.69498125406915
 20
12.71413938958022
 30
0.0
 11
-10.69361105406915
 21
12.71726748958019
 31
0.0
  0
LINE
  5
284
330
2
100
AcDbEntity
  8
GAIKEI
 62
     1
100
AcDbLine
 10
-10.69521325406913
 20
12.71152098958021
 30
0.0
 11
-10.69498125406915
 21
12.71413938958022
 31
0.0
  0
LINE
  5
285
330
2
100
AcDbEntity
  8
GAIKEI
 62
     1
100
AcDbLine
 10
-11.16771075406916
 20
11.08192508958024
 30
0.0
 11
-11.16812275406914
 21
11.08138488958025
 31
0.0
  0
LINE
  5
286
330
2
100
AcDbEntity
  8
GAIKEI
 62
     1
100
AcDbLine
 10
-11.16468035406916
 20
11.08597478958023
 30
0.0
 11
-11.16771075406916
 21
11.08192508958024
 31
0.0
  0
LINE
  5
287
330
2
100
AcDbEntity
  8
GAIKEI
 62
     1
100
AcDbLine
 10
-11.15525345406917
 20
11.09877988958021
 30
0.0
 11
-11.16468035406916
 21
11.08597478958023
 31
0.0
  0
LINE
  5
288
330
2
100
AcDbEntity
  8
GAIKEI
 62
     1
100
AcDbLine
 10
-11.13513635406917
 20
11.12737488958021
 30
0.0
 11
-11.15525345406917
 21
11.09877988958021
 31
0.0
  0
LINE
  5
289
330
2
100
AcDbEntity
  8
GAIKEI
 62
     1
100
AcDbLine
 10
-11.12499225406913
 20
11.14252378958025
 30
0.0
 11
-11.13513635406917
 21
11.12737488958021
 31
0.0
  0
LINE
  5
28A
330
2
100
AcDbEntity
  8
GAIKEI
 62
     1
100
AcDbLine
 10
-11.09621115406918
 20
11.18865418958023
 30
0.0
 11
-11.12499225406913
 21
11.14252378958025
 31
0.0
  0
LINE
  5
28B
330
2
100
AcDbEntity
  8
GAIKEI
 62
     1
100
AcDbLine
 10
-11.08566425406917
 20
11.20692508958024
 30
0.0
 11
-11.09621115406918
 21
11.18865418958023
 31
0.0
  0
LINE
  5
28C
330
2
100
AcDbEntity
  8
GAIKEI
 62
     1
100
AcDbLine
 10
-11.04572895406914
 20
11.28523008958024
 30
0.0
 11
-11.08566425406917
 21
11.20692508958024
 31
0.0
  0
LINE
  5
28D
330
2
100
AcDbEntity
  8
GAIKEI
 62
     1
100
AcDbLine
 10
-11.01919085406916
 20
11.34938418958023
 30
0.0
 11
-11.04572895406914
 21
11.28523008958024
 31
0.0
  0
LINE
  5
28E
330
2
100
AcDbEntity
  8
GAIKEI
 62
     1
100
AcDbLine
 10
-11.01545855406914
 20
11.35963498958023
 30
0.0
 11
-11.01919085406916
 21
11.34938418958023
 31
0.0
  0
LINE
  5
28F
330
2
100
AcDbEntity
  8
GAIKEI
 62
     1
100
AcDbLine
 10
-11.00786275406915
 20
11.38177558958023
 30
0.0
 11
-11.01545855406914
 21
11.35963498958023
 31
0.0
  0
LINE
  5
290
330
2
100
AcDbEntity
  8
GAIKEI
 62
     1
100
AcDbLine
 10
-11.00475305406917
 20
11.39143738958023
 30
0.0
 11
-11.00786275406915
 21
11.38177558958023
 31
0.0
  0
LINE
  5
291
330
2
100
AcDbEntity
  8
GAIKEI
 62
     1
100
AcDbLine
 10
-11.00363605406915
 20
11.39502018958023
 30
0.0
 11
-11.00475305406917
 21
11.39143738958023
 31
0.0
  0
LINE
  5
292
330
2
100
AcDbEntity
  8
GAIKEI
 62
     1
100
AcDbLine
 10
-11.00307145406913
 20
11.39681458958023
 30
0.0
 11
-11.00363605406915
 21
11.39502018958023
 31
0.0
  0
LINE
  5
293
330
2
100
AcDbEntity
  8
GAIKEI
 62
     1
100
AcDbLine
 10
-11.00279375406916
 20
11.39771178958023
 30
0.0
 11
-11.00307145406913
 21
11.39681458958023
 31
0.0
  0
LINE
  5
294
330
2
100
AcDbEntity
  8
GAIKEI
 62
     1
100
AcDbLine
 10
-11.00252825406915
 20
11.39857848958024
 30
0.0
 11
-11.00279375406916
 21
11.39771178958023
 31
0.0
  0
LINE
  5
295
330
2
100
AcDbEntity
  8
GAIKEI
 62
     1
100
AcDbLine
 10
-13.55456375406913
 20
9.018759789580201
 30
0.0
 11
-13.57495865406918
 21
9.023431989580217
 31
0.0
  0
LINE
  5
296
330
2
100
AcDbEntity
  8
GAIKEI
 62
     1
100
AcDbLine
 10
-13.53926225406917
 20
9.016768489580215
 30
0.0
 11
-13.55456375406913
 21
9.018759789580201
 31
0.0
  0
LINE
  5
297
330
2
100
AcDbEntity
  8
GAIKEI
 62
     1
100
AcDbLine
 10
-13.52257835406914
 20
9.015233489580225
 30
0.0
 11
-13.53926225406917
 21
9.016768489580215
 31
0.0
  0
LINE
  5
298
330
2
100
AcDbEntity
  8
GAIKEI
 62
     1
100
AcDbLine
 10
-13.50312035406915
 20
9.013851089580214
 30
0.0
 11
-13.52257835406914
 21
9.015233489580225
 31
0.0
  0
LINE
  5
299
330
2
100
AcDbEntity
  8
GAIKEI
 62
     1
100
AcDbLine
 10
-13.48037555406915
 20
9.012537289580222
 30
0.0
 11
-13.50312035406915
 21
9.013851089580214
 31
0.0
  0
LINE
  5
29A
330
2
100
AcDbEntity
  8
GAIKEI
 62
     1
100
AcDbLine
 10
-13.45428605406914
 20
9.011275389580248
 30
0.0
 11
-13.48037555406915
 21
9.012537289580222
 31
0.0
  0
LINE
  5
29B
330
2
100
AcDbEntity
  8
GAIKEI
 62
     1
100
AcDbLine
 10
-13.42481225406914
 20
9.010054689580215
 30
0.0
 11
-13.45428605406914
 21
9.011275389580248
 31
0.0
  0
LINE
  5
29C
330
2
100
AcDbEntity
  8
GAIKEI
 62
     1
100
AcDbLine
 10
-13.39198445406913
 20
9.008870589580226
 30
0.0
 11
-13.42481225406914
 21
9.010054689580215
 31
0.0
  0
LINE
  5
29D
330
2
100
AcDbEntity
  8
GAIKEI
 62
     1
100
AcDbLine
 10
-13.35587605406914
 20
9.00772458958022
 30
0.0
 11
-13.39198445406913
 21
9.008870589580226
 31
0.0
  0
LINE
  5
29E
330
2
100
AcDbEntity
  8
GAIKEI
 62
     1
100
AcDbLine
 10
-13.31657245406916
 20
9.006616889580243
 30
0.0
 11
-13.35587605406914
 21
9.00772458958022
 31
0.0
  0
LINE
  5
29F
330
2
100
AcDbEntity
  8
GAIKEI
 62
     1
100
AcDbLine
 10
-13.27418665406918
 20
9.005548689580223
 30
0.0
 11
-13.31657245406916
 21
9.006616889580243
 31
0.0
  0
LINE
  5
2A0
330
2
100
AcDbEntity
  8
GAIKEI
 62
     1
100
AcDbLine
 10
-13.22883135406914
 20
9.004523389580242
 30
0.0
 11
-13.27418665406918
 21
9.005548689580223
 31
0.0
  0
LINE
  5
2A1
330
2
100
AcDbEntity
  8
GAIKEI
 62
     1
100
AcDbLine
 10
-13.18063805406916
 20
9.00354218958023
 30
0.0
 11
-13.22883135406914
 21
9.004523389580242
 31
0.0
  0
LINE
  5
2A2
330
2
100
AcDbEntity
  8
GAIKEI
 62
     1
100
AcDbLine
 10
-13.12971335406917
 20
9.002606789580227
 30
0.0
 11
-13.18063805406916
 21
9.00354218958023
 31
0.0
  0
LINE
  5
2A3
330
2
100
AcDbEntity
  8
GAIKEI
 62
     1
100
AcDbLine
 10
-13.07622515406916
 20
9.001717289580199
 30
0.0
 11
-13.12971335406917
 21
9.002606789580227
 31
0.0
  0
LINE
  5
2A4
330
2
100
AcDbEntity
  8
GAIKEI
 62
     1
100
AcDbLine
 10
-13.02028955406916
 20
9.000876489580207
 30
0.0
 11
-13.07622515406916
 21
9.001717289580199
 31
0.0
  0
LINE
  5
2A5
330
2
100
AcDbEntity
  8
GAIKEI
 62
     1
100
AcDbLine
 10
-12.96207725406913
 20
9.000089089580228
 30
0.0
 11
-13.02028955406916
 21
9.000876489580207
 31
0.0
  0
LINE
  5
2A6
330
2
100
AcDbEntity
  8
GAIKEI
 62
     1
100
AcDbLine
 10
-12.90171955406913
 20
8.999350589580217
 30
0.0
 11
-12.96207725406913
 21
9.000089089580228
 31
0.0
  0
LINE
  5
2A7
330
2
100
AcDbEntity
  8
GAIKEI
 62
     1
100
AcDbLine
 10
-12.83938135406913
 20
8.998668589580233
 30
0.0
 11
-12.90171955406913
 21
8.999350589580217
 31
0.0
  0
LINE
  5
2A8
330
2
100
AcDbEntity
  8
GAIKEI
 62
     1
100
AcDbLine
 10
-12.77520895406917
 20
8.99803988958024
 30
0.0
 11
-12.83938135406913
 21
8.998668589580233
 31
0.0
  0
LINE
  5
2A9
330
2
100
AcDbEntity
  8
GAIKEI
 62
     1
100
AcDbLine
 10
-12.70937335406916
 20
8.997467689580219
 30
0.0
 11
-12.77520895406917
 21
8.99803988958024
 31
0.0
  0
LINE
  5
2AA
330
2
100
AcDbEntity
  8
GAIKEI
 62
     1
100
AcDbLine
 10
-12.64202415406913
 20
8.996953489580221
 30
0.0
 11
-12.70937335406916
 21
8.997467689580219
 31
0.0
  0
LINE
  5
2AB
330
2
100
AcDbEntity
  8
GAIKEI
 62
     1
100
AcDbLine
 10
-12.57333515406918
 20
8.996497189580225
 30
0.0
 11
-12.64202415406913
 21
8.996953489580221
 31
0.0
  0
LINE
  5
2AC
330
2
100
AcDbEntity
  8
GAIKEI
 62
     1
100
AcDbLine
 10
-12.50346515406915
 20
8.996100489580214
 30
0.0
 11
-12.57333515406918
 21
8.996497189580225
 31
0.0
  0
LINE
  5
2AD
330
2
100
AcDbEntity
  8
GAIKEI
 62
     1
100
AcDbLine
 10
-12.43258195406912
 20
8.995763289580224
 30
0.0
 11
-12.50346515406915
 21
8.996100489580214
 31
0.0
  0
LINE
  5
2AE
330
2
100
AcDbEntity
  8
GAIKEI
 62
     1
100
AcDbLine
 10
-12.36085345406917
 20
8.995487089580251
 30
0.0
 11
-12.43258195406912
 21
8.995763289580224
 31
0.0
  0
LINE
  5
2AF
330
2
100
AcDbEntity
  8
GAIKEI
 62
     1
100
AcDbLine
 10
-12.28844745406917
 20
8.995271889580237
 30
0.0
 11
-12.36085345406917
 21
8.995487089580251
 31
0.0
  0
LINE
  5
2B0
330
2
100
AcDbEntity
  8
GAIKEI
 62
     1
100
AcDbLine
 10
-12.21553185406918
 20
8.995117789580206
 30
0.0
 11
-12.28844745406917
 21
8.995271889580237
 31
0.0
  0
LINE
  5
2B1
330
2
100
AcDbEntity
  8
GAIKEI
 62
     1
100
AcDbLine
 10
-12.14228355406914
 20
8.995026289580209
 30
0.0
 11
-12.21553185406918
 21
8.995117789580206
 31
0.0
  0
LINE
  5
2B2
330
2
100
AcDbEntity
  8
GAIKEI
 62
     1
100
AcDbLine
 10
-12.06886435406915
 20
8.994995789580229
 30
0.0
 11
-12.14228355406914
 21
8.995026289580209
 31
0.0
  0
LINE
  5
2B3
330
2
100
AcDbEntity
  8
GAIKEI
 62
     1
100
AcDbLine
 10
-11.99545435406918
 20
8.995027789580205
 30
0.0
 11
-12.06886435406915
 21
8.994995789580229
 31
0.0
  0
LINE
  5
2B4
330
2
100
AcDbEntity
  8
GAIKEI
 62
     1
100
AcDbLine
 10
-11.92221515406913
 20
8.995120889580221
 30
0.0
 11
-11.99545435406918
 21
8.995027789580205
 31
0.0
  0
LINE
  5
2B5
330
2
100
AcDbEntity
  8
GAIKEI
 62
     1
100
AcDbLine
 10
-11.84931785406917
 20
8.995276489580248
 30
0.0
 11
-11.92221515406913
 21
8.995120889580221
 31
0.0
  0
LINE
  5
2B6
330
2
100
AcDbEntity
  8
GAIKEI
 62
     1
100
AcDbLine
 10
-11.77693315406912
 20
8.995494689580254
 30
0.0
 11
-11.84931785406917
 21
8.995276489580248
 31
0.0
  0
LINE
  5
2B7
330
2
100
AcDbEntity
  8
GAIKEI
 62
     1
100
AcDbLine
 10
-11.70523215406916
 20
8.995772389580224
 30
0.0
 11
-11.77693315406912
 21
8.995494689580254
 31
0.0
  0
LINE
  5
2B8
330
2
100
AcDbEntity
  8
GAIKEI
 62
     1
100
AcDbLine
 10
-11.63438255406913
 20
8.996111189580233
 30
0.0
 11
-11.70523215406916
 21
8.995772389580224
 31
0.0
  0
LINE
  5
2B9
330
2
100
AcDbEntity
  8
GAIKEI
 62
     1
100
AcDbLine
 10
-11.56454605406912
 20
8.996509389580239
 30
0.0
 11
-11.63438255406913
 21
8.996111189580233
 31
0.0
  0
LINE
  5
2BA
330
2
100
AcDbEntity
  8
GAIKEI
 62
     1
100
AcDbLine
 10
-11.49589685406914
 20
8.996967189580232
 30
0.0
 11
-11.56454605406912
 21
8.996509389580239
 31
0.0
  0
LINE
  5
2BB
330
2
100
AcDbEntity
  8
GAIKEI
 62
     1
100
AcDbLine
 10
-11.42859025406915
 20
8.997482889580226
 30
0.0
 11
-11.49589685406914
 21
8.996967189580232
 31
0.0
  0
LINE
  5
2BC
330
2
100
AcDbEntity
  8
GAIKEI
 62
     1
100
AcDbLine
 10
-11.36280045406914
 20
8.998056689580209
 30
0.0
 11
-11.42859025406915
 21
8.997482889580226
 31
0.0
  0
LINE
  5
2BD
330
2
100
AcDbEntity
  8
GAIKEI
 62
     1
100
AcDbLine
 10
-11.29868005406916
 20
8.998686889580199
 30
0.0
 11
-11.36280045406914
 21
8.998056689580209
 31
0.0
  0
LINE
  5
2BE
330
2
100
AcDbEntity
  8
GAIKEI
 62
     1
100
AcDbLine
 10
-11.23639665406915
 20
8.999370489580201
 30
0.0
 11
-11.29868005406916
 21
8.998686889580199
 31
0.0
  0
LINE
  5
2BF
330
2
100
AcDbEntity
  8
GAIKEI
 62
     1
100
AcDbLine
 10
-11.17609395406913
 20
9.000108989580212
 30
0.0
 11
-11.23639665406915
 21
8.999370489580201
 31
0.0
  0
LINE
  5
2C0
330
2
100
AcDbEntity
  8
GAIKEI
 62
     1
100
AcDbLine
 10
-11.11794275406913
 20
9.00089938958024
 30
0.0
 11
-11.17609395406913
 21
9.000108989580212
 31
0.0
  0
LINE
  5
2C1
330
2
100
AcDbEntity
  8
GAIKEI
 62
     1
100
AcDbLine
 10
-11.06207415406913
 20
9.001740189580232
 30
0.0
 11
-11.11794275406913
 21
9.00089938958024
 31
0.0
  0
LINE
  5
2C2
330
2
100
AcDbEntity
  8
GAIKEI
 62
     1
100
AcDbLine
 10
-11.00865625406914
 20
9.002631289580222
 30
0.0
 11
-11.06207415406913
 21
9.001740189580232
 31
0.0
  0
LINE
  5
2C3
330
2
100
AcDbEntity
  8
GAIKEI
 62
     1
100
AcDbLine
 10
-10.95780475406917
 20
9.003568189580221
 30
0.0
 11
-11.00865625406914
 21
9.002631289580222
 31
0.0
  0
LINE
  5
2C4
330
2
100
AcDbEntity
  8
GAIKEI
 62
     1
100
AcDbLine
 10
-10.90968765406916
 20
9.004550789580207
 30
0.0
 11
-10.95780475406917
 21
9.003568189580221
 31
0.0
  0
LINE
  5
2C5
330
2
100
AcDbEntity
  8
GAIKEI
 62
     1
100
AcDbLine
 10
-10.86441485406914
 20
9.005579289580225
 30
0.0
 11
-10.90968765406916
 21
9.004550789580207
 31
0.0
  0
LINE
  5
2C6
330
2
100
AcDbEntity
  8
GAIKEI
 62
     1
100
AcDbLine
 10
-10.82211145406916
 20
9.006647389580223
 30
0.0
 11
-10.86441485406914
 21
9.005579289580225
 31
0.0
  0
LINE
  5
2C7
330
2
100
AcDbEntity
  8
GAIKEI
 62
     1
100
AcDbLine
 10
-10.78289935406917
 20
9.007755189580223
 30
0.0
 11
-10.82211145406916
 21
9.006647389580223
 31
0.0
  0
LINE
  5
2C8
330
2
100
AcDbEntity
  8
GAIKEI
 62
     1
100
AcDbLine
 10
-10.74687945406913
 20
9.008902589580202
 30
0.0
 11
-10.78289935406917
 21
9.007755189580223
 31
0.0
  0
LINE
  5
2C9
330
2
100
AcDbEntity
  8
GAIKEI
 62
     1
100
AcDbLine
 10
-10.71414325406914
 20
9.010086689580248
 30
0.0
 11
-10.74687945406913
 21
9.008902589580202
 31
0.0
  0
LINE
  5
2CA
330
2
100
AcDbEntity
  8
GAIKEI
 62
     1
100
AcDbLine
 10
-10.68476095406913
 20
9.011310489580239
 30
0.0
 11
-10.71414325406914
 21
9.010086689580248
 31
0.0
  0
LINE
  5
2CB
330
2
100
AcDbEntity
  8
GAIKEI
 62
     1
100
AcDbLine
 10
-10.65876605406913
 20
9.01257388958021
 30
0.0
 11
-10.68476095406913
 21
9.011310489580239
 31
0.0
  0
LINE
  5
2CC
330
2
100
AcDbEntity
  8
GAIKEI
 62
     1
100
AcDbLine
 10
-10.63611285406915
 20
9.013887689580201
 30
0.0
 11
-10.65876605406913
 21
9.01257388958021
 31
0.0
  0
LINE
  5
2CD
330
2
100
AcDbEntity
  8
GAIKEI
 62
     1
100
AcDbLine
 10
-10.61673115406915
 20
9.015274689580223
 30
0.0
 11
-10.63611285406915
 21
9.013887689580201
 31
0.0
  0
LINE
  5
2CE
330
2
100
AcDbEntity
  8
GAIKEI
 62
     1
100
AcDbLine
 10
-10.60009295406917
 20
9.016818889580235
 30
0.0
 11
-10.61673115406915
 21
9.015274689580223
 31
0.0
  0
LINE
  5
2CF
330
2
100
AcDbEntity
  8
GAIKEI
 62
     1
100
AcDbLine
 10
-10.58464195406912
 20
9.018858989580223
 30
0.0
 11
-10.60009295406917
 21
9.016818889580235
 31
0.0
  0
LINE
  5
2D0
330
2
100
AcDbEntity
  8
GAIKEI
 62
     1
100
AcDbLine
 10
-13.44448685406917
 20
12.48517518958022
 30
0.0
 11
-13.44491105406916
 21
12.47143618958023
 31
0.0
  0
LINE
  5
2D1
330
2
100
AcDbEntity
  8
GAIKEI
 62
     1
100
AcDbLine
 10
-13.44322045406915
 20
12.49880738958023
 30
0.0
 11
-13.44448685406917
 21
12.48517518958022
 31
0.0
  0
LINE
  5
2D2
330
2
100
AcDbEntity
  8
GAIKEI
 62
     1
100
AcDbLine
 10
-13.44113605406915
 20
12.5122747895802
 30
0.0
 11
-13.44322045406915
 21
12.49880738958023
 31
0.0
  0
LINE
  5
2D3
330
2
100
AcDbEntity
  8
GAIKEI
 62
     1
100
AcDbLine
 10
-13.43825825406912
 20
12.52551638958022
 30
0.0
 11
-13.44113605406915
 21
12.5122747895802
 31
0.0
  0
LINE
  5
2D4
330
2
100
AcDbEntity
  8
GAIKEI
 62
     1
100
AcDbLine
 10
-13.43461755406912
 20
12.5384832895802
 30
0.0
 11
-13.43825825406912
 21
12.52551638958022
 31
0.0
  0
LINE
  5
2D5
330
2
100
AcDbEntity
  8
GAIKEI
 62
     1
100
AcDbLine
 10
-13.43024125406913
 20
12.55113588958022
 30
0.0
 11
-13.43461755406912
 21
12.5384832895802
 31
0.0
  0
LINE
  5
2D6
330
2
100
AcDbEntity
  8
GAIKEI
 62
     1
100
AcDbLine
 10
-13.42516315406914
 20
12.56342838958022
 30
0.0
 11
-13.43024125406913
 21
12.55113588958022
 31
0.0
  0
LINE
  5
2D7
330
2
100
AcDbEntity
  8
GAIKEI
 62
     1
100
AcDbLine
 10
-13.41941975406917
 20
12.57532408958025
 30
0.0
 11
-13.42516315406914
 21
12.56342838958022
 31
0.0
  0
LINE
  5
2D8
330
2
100
AcDbEntity
  8
GAIKEI
 62
     1
100
AcDbLine
 10
-13.41304155406914
 20
12.58679258958023
 30
0.0
 11
-13.41941975406917
 21
12.57532408958025
 31
0.0
  0
LINE
  5
2D9
330
2
100
AcDbEntity
  8
GAIKEI
 62
     1
100
AcDbLine
 10
-13.40606525406917
 20
12.59780638958023
 30
0.0
 11
-13.41304155406914
 21
12.58679258958023
 31
0.0
  0
LINE
  5
2DA
330
2
100
AcDbEntity
  8
GAIKEI
 62
     1
100
AcDbLine
 10
-13.39852435406914
 20
12.60833808958023
 30
0.0
 11
-13.40606525406917
 21
12.59780638958023
 31
0.0
  0
LINE
  5
2DB
330
2
100
AcDbEntity
  8
GAIKEI
 62
     1
100
AcDbLine
 10
-13.39044945406914
 20
12.61837218958021
 30
0.0
 11
-13.39852435406914
 21
12.60833808958023
 31
0.0
  0
LINE
  5
2DC
330
2
100
AcDbEntity
  8
GAIKEI
 62
     1
100
AcDbLine
 10
-13.38186785406913
 20
12.62788758958021
 30
0.0
 11
-13.39044945406914
 21
12.61837218958021
 31
0.0
  0
LINE
  5
2DD
330
2
100
AcDbEntity
  8
GAIKEI
 62
     1
100
AcDbLine
 10
-13.37281635406913
 20
12.63686278958022
 30
0.0
 11
-13.38186785406913
 21
12.62788758958021
 31
0.0
  0
LINE
  5
2DE
330
2
100
AcDbEntity
  8
GAIKEI
 62
     1
100
AcDbLine
 10
-13.36331925406915
 20
12.64528568958025
 30
0.0
 11
-13.37281635406913
 21
12.63686278958022
 31
0.0
  0
LINE
  5
2DF
330
2
100
AcDbEntity
  8
GAIKEI
 62
     1
100
AcDbLine
 10
-13.35341025406916
 20
12.65313788958025
 30
0.0
 11
-13.36331925406915
 21
12.64528568958025
 31
0.0
  0
LINE
  5
2E0
330
2
100
AcDbEntity
  8
GAIKEI
 62
     1
100
AcDbLine
 10
-13.34311055406914
 20
12.66040408958019
 30
0.0
 11
-13.35341025406916
 21
12.65313788958025
 31
0.0
  0
LINE
  5
2E1
330
2
100
AcDbEntity
  8
GAIKEI
 62
     1
100
AcDbLine
 10
-13.33245685406916
 20
12.66707218958021
 30
0.0
 11
-13.34311055406914
 21
12.66040408958019
 31
0.0
  0
LINE
  5
2E2
330
2
100
AcDbEntity
  8
GAIKEI
 62
     1
100
AcDbLine
 10
-13.32146745406914
 20
12.6731268895802
 30
0.0
 11
-13.33245685406916
 21
12.66707218958021
 31
0.0
  0
LINE
  5
2E3
330
2
100
AcDbEntity
  8
GAIKEI
 62
     1
100
AcDbLine
 10
-13.31017295406917
 20
12.6785528895802
 30
0.0
 11
-13.32146745406914
 21
12.6731268895802
 31
0.0
  0
LINE
  5
2E4
330
2
100
AcDbEntity
  8
GAIKEI
 62
     1
100
AcDbLine
 10
-13.29860065406916
 20
12.68334108958021
 30
0.0
 11
-13.31017295406917
 21
12.6785528895802
 31
0.0
  0
LINE
  5
2E5
330
2
100
AcDbEntity
  8
GAIKEI
 62
     1
100
AcDbLine
 10
-13.28677815406917
 20
12.68747618958025
 30
0.0
 11
-13.29860065406916
 21
12.68334108958021
 31
0.0
  0
LINE
  5
2E6
330
2
100
AcDbEntity
  8
GAIKEI
 62
     1
100
AcDbLine
 10
-13.27472985406916
 20
12.69094298958021
 30
0.0
 11
-13.28677815406917
 21
12.68747618958025
 31
0.0
  0
LINE
  5
2E7
330
2
100
AcDbEntity
  8
GAIKEI
 62
     1
100
AcDbLine
 10
-13.26248615406916
 20
12.69372618958022
 30
0.0
 11
-13.27472985406916
 21
12.69094298958021
 31
0.0
  0
LINE
  5
2E8
330
2
100
AcDbEntity
  8
GAIKEI
 62
     1
100
AcDbLine
 10
-13.25008385406915
 20
12.69581358958021
 30
0.0
 11
-13.26248615406916
 21
12.69372618958022
 31
0.0
  0
LINE
  5
2E9
330
2
100
AcDbEntity
  8
GAIKEI
 62
     1
100
AcDbLine
 10
-13.23754715406915
 20
12.69719298958023
 30
0.0
 11
-13.25008385406915
 21
12.69581358958021
 31
0.0
  0
LINE
  5
2EA
330
2
100
AcDbEntity
  8
GAIKEI
 62
     1
100
AcDbLine
 10
-13.22490985406915
 20
12.69784918958021
 30
0.0
 11
-13.23754715406915
 21
12.69719298958023
 31
0.0
  0
LINE
  5
2EB
330
2
100
AcDbEntity
  8
GAIKEI
 62
     1
100
AcDbLine
 10
-10.69530475406913
 20
12.48461978958022
 30
0.0
 11
-10.69491105406916
 21
12.47143618958023
 31
0.0
  0
LINE
  5
2EC
330
2
100
AcDbEntity
  8
GAIKEI
 62
     1
100
AcDbLine
 10
-10.69647355406914
 20
12.49775458958021
 30
0.0
 11
-10.69530475406913
 21
12.48461978958022
 31
0.0
  0
LINE
  5
2ED
330
2
100
AcDbEntity
  8
GAIKEI
 62
     1
100
AcDbLine
 10
-10.69841455406913
 20
12.51078248958021
 30
0.0
 11
-10.69647355406914
 21
12.49775458958021
 31
0.0
  0
LINE
  5
2EE
330
2
100
AcDbEntity
  8
GAIKEI
 62
     1
100
AcDbLine
 10
-10.70110925406914
 20
12.52366088958024
 30
0.0
 11
-10.69841455406913
 21
12.51078248958021
 31
0.0
  0
LINE
  5
2EF
330
2
100
AcDbEntity
  8
GAIKEI
 62
     1
100
AcDbLine
 10
-10.70454545406914
 20
12.53634098958025
 30
0.0
 11
-10.70110925406914
 21
12.52366088958024
 31
0.0
  0
LINE
  5
2F0
330
2
100
AcDbEntity
  8
GAIKEI
 62
     1
100
AcDbLine
 10
-10.70870505406912
 20
12.54878298958022
 30
0.0
 11
-10.70454545406914
 21
12.53634098958025
 31
0.0
  0
LINE
  5
2F1
330
2
100
AcDbEntity
  8
GAIKEI
 62
     1
100
AcDbLine
 10
-10.71356645406916
 20
12.56094428958022
 30
0.0
 11
-10.70870505406912
 21
12.54878298958022
 31
0.0
  0
LINE
  5
2F2
330
2
100
AcDbEntity
  8
GAIKEI
 62
     1
100
AcDbLine
 10
-10.71910545406916
 20
12.57278508958023
 30
0.0
 11
-10.71356645406916
 21
12.56094428958022
 31
0.0
  0
LINE
  5
2F3
330
2
100
AcDbEntity
  8
GAIKEI
 62
     1
100
AcDbLine
 10
-10.72530045406915
 20
12.58426268958021
 30
0.0
 11
-10.71910545406916
 21
12.57278508958023
 31
0.0
  0
LINE
  5
2F4
330
2
100
AcDbEntity
  8
GAIKEI
 62
     1
100
AcDbLine
 10
-10.73212115406914
 20
12.5953466895802
 30
0.0
 11
-10.72530045406915
 21
12.58426268958021
 31
0.0
  0
LINE
  5
2F5
330
2
100
AcDbEntity
  8
GAIKEI
 62
     1
100
AcDbLine
 10
-10.73954605406914
 20
12.60600038958023
 30
0.0
 11
-10.73212115406914
 21
12.5953466895802
 31
0.0
  0
LINE
  5
2F6
330
2
100
AcDbEntity
  8
GAIKEI
 62
     1
100
AcDbLine
 10
-10.74754175406917
 20
12.61619628958021
 30
0.0
 11
-10.73954605406914
 21
12.60600038958023
 31
0.0
  0
LINE
  5
2F7
330
2
100
AcDbEntity
  8
GAIKEI
 62
     1
100
AcDbLine
 10
-10.75608355406916
 20
12.62590088958023
 30
0.0
 11
-10.74754175406917
 21
12.61619628958021
 31
0.0
  0
LINE
  5
2F8
330
2
100
AcDbEntity
  8
GAIKEI
 62
     1
100
AcDbLine
 10
-10.76513815406912
 20
12.6350897895802
 30
0.0
 11
-10.75608355406916
 21
12.62590088958023
 31
0.0
  0
LINE
  5
2F9
330
2
100
AcDbEntity
  8
GAIKEI
 62
     1
100
AcDbLine
 10
-10.77467795406914
 20
12.64373838958022
 30
0.0
 11
-10.76513815406912
 21
12.6350897895802
 31
0.0
  0
LINE
  5
2FA
330
2
100
AcDbEntity
  8
GAIKEI
 62
     1
100
AcDbLine
 10
-10.78466935406914
 20
12.65181948958025
 30
0.0
 11
-10.77467795406914
 21
12.64373838958022
 31
0.0
  0
LINE
  5
2FB
330
2
100
AcDbEntity
  8
GAIKEI
 62
     1
100
AcDbLine
 10
-10.79508195406913
 20
12.65930848958021
 30
0.0
 11
-10.78466935406914
 21
12.65181948958025
 31
0.0
  0
LINE
  5
2FC
330
2
100
AcDbEntity
  8
GAIKEI
 62
     1
100
AcDbLine
 10
-10.80588215406914
 20
12.66619018958022
 30
0.0
 11
-10.79508195406913
 21
12.65930848958021
 31
0.0
  0
LINE
  5
2FD
330
2
100
AcDbEntity
  8
GAIKEI
 62
     1
100
AcDbLine
 10
-10.81703635406916
 20
12.67244018958024
 30
0.0
 11
-10.80588215406914
 21
12.66619018958022
 31
0.0
  0
LINE
  5
2FE
330
2
100
AcDbEntity
  8
GAIKEI
 62
     1
100
AcDbLine
 10
-10.82851395406914
 20
12.67804328958021
 30
0.0
 11
-10.81703635406916
 21
12.67244018958024
 31
0.0
  0
LINE
  5
2FF
330
2
100
AcDbEntity
  8
GAIKEI
 62
     1
100
AcDbLine
 10
-10.84028155406918
 20
12.68298098958024
 30
0.0
 11
-10.82851395406914
 21
12.67804328958021
 31
0.0
  0
LINE
  5
300
330
2
100
AcDbEntity
  8
GAIKEI
 62
     1
100
AcDbLine
 10
-10.85229935406914
 20
12.68723818958022
 30
0.0
 11
-10.84028155406918
 21
12.68298098958024
 31
0.0
  0
LINE
  5
301
330
2
100
AcDbEntity
  8
GAIKEI
 62
     1
100
AcDbLine
 10
-10.86453695406913
 20
12.69079648958024
 30
0.0
 11
-10.85229935406914
 21
12.68723818958022
 31
0.0
  0
LINE
  5
302
330
2
100
AcDbEntity
  8
GAIKEI
 62
     1
100
AcDbLine
 10
-10.87695455406913
 20
12.69364988958023
 30
0.0
 11
-10.86453695406913
 21
12.69079648958024
 31
0.0
  0
LINE
  5
303
330
2
100
AcDbEntity
  8
GAIKEI
 62
     1
100
AcDbLine
 10
-10.88951555406913
 20
12.69578308958023
 30
0.0
 11
-10.87695455406913
 21
12.69364988958023
 31
0.0
  0
LINE
  5
304
330
2
100
AcDbEntity
  8
GAIKEI
 62
     1
100
AcDbLine
 10
-10.90218035406917
 20
12.69718388958023
 30
0.0
 11
-10.88951555406913
 21
12.69578308958023
 31
0.0
  0
LINE
  5
305
330
2
100
AcDbEntity
  8
GAIKEI
 62
     1
100
AcDbLine
 10
-10.91491235406914
 20
12.69784918958021
 30
0.0
 11
-10.90218035406917
 21
12.69718388958023
 31
0.0
  0
LINE
  5
306
330
2
100
AcDbEntity
  8
GAIKEI
 62
     1
100
AcDbLine
 10
-10.70073995406915
 20
9.215875889580217
 30
0.0
 11
-10.69491105406916
 21
9.216727289580205
 31
0.0
  0
LINE
  5
307
330
2
100
AcDbEntity
  8
GAIKEI
 62
     1
100
AcDbLine
 10
-10.71022485406917
 20
9.215845389580238
 30
0.0
 11
-10.70073995406915
 21
9.215875889580217
 31
0.0
  0
LINE
  5
308
330
2
100
AcDbEntity
  8
GAIKEI
 62
     1
100
AcDbLine
 10
-10.72333825406917
 20
9.216615889580225
 30
0.0
 11
-10.71022485406917
 21
9.215845389580238
 31
0.0
  0
LINE
  5
309
330
2
100
AcDbEntity
  8
GAIKEI
 62
     1
100
AcDbLine
 10
-10.74003435406917
 20
9.218158589580241
 30
0.0
 11
-10.72333825406917
 21
9.216615889580225
 31
0.0
  0
LINE
  5
30A
330
2
100
AcDbEntity
  8
GAIKEI
 62
     1
100
AcDbLine
 10
-10.76025535406916
 20
9.220438289580215
 30
0.0
 11
-10.74003435406917
 21
9.218158589580241
 31
0.0
  0
LINE
  5
30B
330
2
100
AcDbEntity
  8
GAIKEI
 62
     1
100
AcDbLine
 10
-10.78393395406914
 20
9.223409189580252
 30
0.0
 11
-10.76025535406916
 21
9.220438289580215
 31
0.0
  0
LINE
  5
30C
330
2
100
AcDbEntity
  8
GAIKEI
 62
     1
100
AcDbLine
 10
-10.81098165406916
 20
9.227017889580224
 30
0.0
 11
-10.78393395406914
 21
9.223409189580252
 31
0.0
  0
LINE
  5
30D
330
2
100
AcDbEntity
  8
GAIKEI
 62
     1
100
AcDbLine
 10
-10.84131005406914
 20
9.231209389580214
 30
0.0
 11
-10.81098165406916
 21
9.227017889580224
 31
0.0
  0
LINE
  5
30E
330
2
100
AcDbEntity
  8
GAIKEI
 62
     1
100
AcDbLine
 10
-10.87480915406917
 20
9.235916789580244
 30
0.0
 11
-10.84131005406914
 21
9.231209389580214
 31
0.0
  0
LINE
  5
30F
330
2
100
AcDbEntity
  8
GAIKEI
 62
     1
100
AcDbLine
 10
-10.91136615406918
 20
9.24107428958024
 30
0.0
 11
-10.87480915406917
 21
9.235916789580244
 31
0.0
  0
LINE
  5
310
330
2
100
AcDbEntity
  8
GAIKEI
 62
     1
100
AcDbLine
 10
-10.95085895406913
 20
9.246608589580205
 30
0.0
 11
-10.91136615406918
 21
9.24107428958024
 31
0.0
  0
LINE
  5
311
330
2
100
AcDbEntity
  8
GAIKEI
 62
     1
100
AcDbLine
 10
-10.99315635406918
 20
9.252445089580248
 30
0.0
 11
-10.95085895406913
 21
9.246608589580205
 31
0.0
  0
LINE
  5
312
330
2
100
AcDbEntity
  8
GAIKEI
 62
     1
100
AcDbLine
 10
-11.03812705406915
 20
9.258508889580241
 30
0.0
 11
-10.99315635406918
 21
9.252445089580248
 31
0.0
  0
LINE
  5
313
330
2
100
AcDbEntity
  8
GAIKEI
 62
     1
100
AcDbLine
 10
-11.08562155406918
 20
9.264720789580223
 30
0.0
 11
-11.03812705406915
 21
9.258508889580241
 31
0.0
  0
LINE
  5
314
330
2
100
AcDbEntity
  8
GAIKEI
 62
     1
100
AcDbLine
 10
-13.10169515406915
 20
9.258508889580241
 30
0.0
 11
-13.05420065406912
 21
9.264720789580223
 31
0.0
  0
LINE
  5
315
330
2
100
AcDbEntity
  8
GAIKEI
 62
     1
100
AcDbLine
 10
-13.14666585406917
 20
9.252445089580248
 30
0.0
 11
-13.10169515406915
 21
9.258508889580241
 31
0.0
  0
LINE
  5
316
330
2
100
AcDbEntity
  8
GAIKEI
 62
     1
100
AcDbLine
 10
-13.18896325406916
 20
9.246610089580201
 30
0.0
 11
-13.14666585406917
 21
9.252445089580248
 31
0.0
  0
LINE
  5
317
330
2
100
AcDbEntity
  8
GAIKEI
 62
     1
100
AcDbLine
 10
-13.22845905406916
 20
9.24107428958024
 30
0.0
 11
-13.18896325406916
 21
9.246610089580201
 31
0.0
  0
LINE
  5
318
330
2
100
AcDbEntity
  8
GAIKEI
 62
     1
100
AcDbLine
 10
-13.26501605406912
 20
9.23591828958024
 30
0.0
 11
-13.22845905406916
 21
9.24107428958024
 31
0.0
  0
LINE
  5
319
330
2
100
AcDbEntity
  8
GAIKEI
 62
     1
100
AcDbLine
 10
-13.29851825406916
 20
9.231209389580214
 30
0.0
 11
-13.26501605406912
 21
9.23591828958024
 31
0.0
  0
LINE
  5
31A
330
2
100
AcDbEntity
  8
GAIKEI
 62
     1
100
AcDbLine
 10
-13.32884355406912
 20
9.227017889580224
 30
0.0
 11
-13.29851825406916
 21
9.231209389580214
 31
0.0
  0
LINE
  5
31B
330
2
100
AcDbEntity
  8
GAIKEI
 62
     1
100
AcDbLine
 10
-13.35589435406916
 20
9.223409189580252
 30
0.0
 11
-13.32884355406912
 21
9.227017889580224
 31
0.0
  0
LINE
  5
31C
330
2
100
AcDbEntity
  8
GAIKEI
 62
     1
100
AcDbLine
 10
-13.37956995406915
 20
9.220438289580215
 30
0.0
 11
-13.35589435406916
 21
9.223409189580252
 31
0.0
  0
LINE
  5
31D
330
2
100
AcDbEntity
  8
GAIKEI
 62
     1
100
AcDbLine
 10
-13.39979085406918
 20
9.218160089580237
 30
0.0
 11
-13.37956995406915
 21
9.220438289580215
 31
0.0
  0
LINE
  5
31E
330
2
100
AcDbEntity
  8
GAIKEI
 62
     1
100
AcDbLine
 10
-13.41648705406913
 20
9.216617489580244
 30
0.0
 11
-13.39979085406918
 21
9.218160089580237
 31
0.0
  0
LINE
  5
31F
330
2
100
AcDbEntity
  8
GAIKEI
 62
     1
100
AcDbLine
 10
-13.42960045406914
 20
9.215846889580234
 30
0.0
 11
-13.41648705406913
 21
9.216617489580244
 31
0.0
  0
LINE
  5
320
330
2
100
AcDbEntity
  8
GAIKEI
 62
     1
100
AcDbLine
 10
-13.43908525406914
 20
9.215877389580214
 30
0.0
 11
-13.42960045406914
 21
9.215846889580234
 31
0.0
  0
LINE
  5
321
330
2
100
AcDbEntity
  8
GAIKEI
 62
     1
100
AcDbLine
 10
-13.44491105406916
 20
9.216727289580205
 30
0.0
 11
-13.43908525406914
 21
9.215877389580214
 31
0.0
  0
LINE
  5
322
330
2
100
AcDbEntity
  8
KIJUN
  6
S130
 48
0.5
100
AcDbLine
 10
-10.25824115406914
 20
11.75399228958019
 30
0.0
 11
-13.88158405406915
 21
11.75399228958019
 31
0.0
  0
LINE
  5
326
330
2
100
AcDbEntity
  8
KIJUN
  6
S130
 48
0.5
100
AcDbLine
 10
-12.06991105406916
 20
13.56566528958024
 30
0.0
 11
-12.06991105406916
 21
9.942322389580226
 31
0.0
  0
LINE
  5
327
330
2
100
AcDbEntity
  8
GAIKEI
 62
     1
 48
0.031406
100
AcDbLine
 10
-13.44492635406914
 20
9.313873889580236
 30
0.0
 11
-13.32118675406917
 21
9.335556689580243
 31
0.0
  0
LINE
  5
328
330
2
100
AcDbEntity
  8
GAIKEI
 62
     1
 48
0.031402
100
AcDbLine
 10
-10.81863545406912
 20
9.335556689580243
 30
0.0
 11
-10.69491105406916
 21
9.313876989580251
 31
0.0
  0
LINE
  5
329
330
2
100
AcDbEntity
  8
GAIKEI
 62
     1
 48
0.023383
100
AcDbLine
 10
-13.44491105406916
 20
9.284827289580221
 30
0.0
 11
-13.44491105406916
 21
9.191295489580227
 31
0.0
  0
ARC
  5
32A
330
2
100
AcDbEntity
  8
GAIKEI
 62
     1
100
AcDbCircle
 10
-10.59491105406914
 20
9.118810189580244
 30
0.0
 40
0.0999995
100
AcDbArc
 50
180.027053
 51
225.9035869999991
  0
LINE
  5
32B
330
2
100
AcDbEntity
  8
GAIKEI
 62
     1
 48
0.048955
100
AcDbLine
 10
-10.69491105406916
 20
9.118810189580244
 30
0.0
 11
-10.69491105406916
 21
9.314630789580235
 31
0.0
  0
LINE
  5
32C
330
2
100
AcDbEntity
  8
GAIKEI
 62
     1
 48
0.000259
100
AcDbLine
 10
-13.57596575406916
 20
9.023755489580253
 30
0.0
 11
-13.57498005406916
 21
9.023439689580243
 31
0.0
  0
ARC
  5
32D
330
2
100
AcDbEntity
  8
GAIKEI
 62
     1
100
AcDbCircle
 10
-13.54491105406913
 20
9.118810189580244
 30
0.0
 40
0.099999
100
AcDbArc
 50
252.5000450000021
 51
359.9728809999999
  0
LINE
  5
32E
330
2
100
AcDbEntity
  8
GAIKEI
 62
     1
 48
0.018121
100
AcDbLine
 10
-13.44491105406916
 20
9.11881168958024
 30
0.0
 11
-13.44491105406916
 21
9.191295489580227
 31
0.0
  0
ARC
  5
32F
330
2
100
AcDbEntity
  8
GAIKEI
 62
     1
100
AcDbCircle
 10
-12.06992025406913
 20
-38.50176331041979
 30
0.0
 40
51.2126709
100
AcDbArc
 50
88.70768300000056
 51
91.29229500000068
  0
LINE
  5
330
330
2
100
AcDbEntity
  8
GAIKEI
 62
     1
 48
0.184206
100
AcDbLine
 10
-13.44491105406916
 20
11.75399228958019
 30
0.0
 11
-13.44491105406916
 21
12.49081788958023
 31
0.0
  0
LINE
  5
331
330
2
100
AcDbEntity
  8
GAIKEI
 62
     1
100
AcDbLine
 10
-13.44491105406916
 20
9.284825789580224
 30
0.0
 11
-13.44491105406916
 21
11.75399228958019
 31
0.0
  0
LINE
  5
332
330
2
100
AcDbEntity
  8
GAIKEI
 62
     1
100
AcDbLine
 10
-10.69491105406916
 20
9.314630789580235
 30
0.0
 11
-10.69491105406916
 21
11.75399228958019
 31
0.0
  0
LINE
  5
333
330
2
100
AcDbEntity
  8
GAIKEI
 62
     1
 48
0.184206
100
AcDbLine
 10
-10.69491105406916
 20
11.75399228958019
 30
0.0
 11
-10.69491105406916
 21
12.49081788958023
 31
0.0
  0
ARC
  5
334
330
2
100
AcDbEntity
  8
GAIKEI
 62
     1
100
AcDbCircle
 10
-12.06990805406917
 20
13.63399418958022
 30
0.0
 40
4.8499977
100
AcDbArc
 50
288.0909050000028
 51
356.5720199999999
  0
ARC
  5
335
330
2
100
AcDbEntity
  8
GAIKEI
 62
     1
100
AcDbCircle
 10
-12.06991415406918
 20
13.63399418958022
 30
0.0
 40
4.8499977
100
AcDbArc
 50
183.427968
 51
251.9090710000004
  0
ARC
  5
336
330
2
100
AcDbEntity
  8
GAIKEI
 62
     1
100
AcDbCircle
 10
-10.59491105406914
 20
9.118810189580244
 30
0.0
 40
0.0999995
100
AcDbArc
 50
225.9035779999985
 51
288.0909309999999
  0
ARC
  5
337
330
2
100
AcDbEntity
  8
GAIKEI
 62
     1
100
AcDbCircle
 10
-12.06991105406916
 20
13.55399228958021
 30
0.0
 40
4.3999996
100
AcDbArc
 50
251.7900349999989
 51
288.2099679999988
  0
ARC
  5
338
330
2
100
AcDbEntity
  8
GAIKEI
 62
     1
100
AcDbCircle
 10
-12.06991105406916
 20
11.75399228958019
 30
0.0
 40
1.125
100
AcDbArc
 50
122.056408
 51
359.9999829999999
  0
ARC
  5
339
330
2
100
AcDbEntity
  8
GAIKEI
 62
     1
100
AcDbCircle
 10
-12.06991105406916
 20
11.75399228958019
 30
0.0
 40
1.125
100
AcDbArc
 50
359.9999829999999
 51
57.94357600000246
  0
CIRCLE
  5
33A
330
2
100
AcDbEntity
  8
GAIKEI
 62
     1
100
AcDbCircle
 10
-12.06991105406916
 20
11.75399228958019
 30
0.0
 40
0.7250000000000001
  0
CIRCLE
  5
33B
330
2
100
AcDbEntity
  8
GAIKEI
 62
     1
100
AcDbCircle
 10
-12.06991105406916
 20
11.75399228958019
 30
0.0
 40
0.8900000000000002
  0
ARC
  5
33C
330
2
100
AcDbEntity
  8
GAIKEI
 62
     1
100
AcDbCircle
 10
-12.06991105406916
 20
11.75399228958019
 30
0.0
 40
1.074999999999999
100
AcDbArc
 50
117.3842870000024
 51
62.61567700000152
  0
LINE
  5
33D
330
2
100
AcDbEntity
  8
GAIKEI
 62
     1
 48
0.000115
100
AcDbLine
 10
-13.13755945406916
 20
11.87947448958022
 30
0.0
 11
-13.13709855406915
 21
11.8794622895802
 31
0.0
  0
LINE
  5
33E
330
2
100
AcDbEntity
  8
GAIKEI
 62
     1
 48
0.000821
100
AcDbLine
 10
-11.16491235406914
 20
12.41899478958021
 30
0.0
 11
-11.16491235406914
 21
12.42227848958021
 31
0.0
  0
ARC
  5
33F
330
2
100
AcDbEntity
  8
GAIKEI
 62
     1
100
AcDbCircle
 10
-12.06991105406916
 20
13.55399228958021
 30
0.0
 40
4.4
100
AcDbArc
 50
251.7900349999989
 51
288.2099679999988
  0
ARC
  5
340
330
2
100
AcDbEntity
  8
GAIKEI
 62
     1
100
AcDbCircle
 10
-12.06915735406915
 20
11.75263128958022
 30
0.0
 40
1.1234674
100
AcDbArc
 50
287.2068600000004
 51
305.4936779999982
  0
ARC
  5
341
330
2
100
AcDbEntity
  8
GAIKEI
 62
     1
100
AcDbCircle
 10
-12.06991105406916
 20
11.75399228958019
 30
0.0
 40
1.125
100
AcDbArc
 50
287.2230050000005
 51
305.4846359999989
  0
ARC
  5
342
330
2
100
AcDbEntity
  8
GAIKEI
 62
     1
100
AcDbCircle
 10
-12.06991105406916
 20
11.75399228958019
 30
0.0
 40
1.125
100
AcDbArc
 50
270.0049730000026
 51
287.2230050000005
  0
LINE
  5
343
330
2
100
AcDbEntity
  8
GAIKEI
 62
     1
 48
0.036049
100
AcDbLine
 10
-10.69491105406916
 20
9.572150289580235
 30
0.0
 11
-10.69491105406916
 21
9.716345889580225
 31
0.0
  0
LINE
  5
344
330
2
100
AcDbEntity
  8
GAIKEI
 62
     1
 48
0.06438
100
AcDbLine
 10
-10.69491105406916
 20
9.314630789580235
 30
0.0
 11
-10.69491105406916
 21
9.572150289580235
 31
0.0
  0
LINE
  5
345
330
2
100
AcDbEntity
  8
GAIKEI
 62
     1
100
AcDbLine
 10
-10.89932085406917
 20
12.73070738958023
 30
0.0
 11
-13.24050125406916
 21
12.73071048958025
 31
0.0
  0
LINE
  5
346
330
2
100
AcDbEntity
  8
GAIKEI
 62
     1
 48
0.084277
100
AcDbLine
 10
-13.44491105406916
 20
9.835584089580208
 30
0.0
 11
-13.44491105406916
 21
10.17269348958024
 31
0.0
  0
LINE
  5
347
330
2
100
AcDbEntity
  8
GAIKEI
 62
     1
 48
0.189752
100
AcDbLine
 10
-13.44491105406916
 20
10.17269348958024
 30
0.0
 11
-13.44491105406916
 21
10.93170228958024
 31
0.0
  0
LINE
  5
348
330
2
100
AcDbEntity
  8
GAIKEI
 62
     1
 48
0.01012
100
AcDbLine
 10
-10.69491105406916
 20
9.129324989580254
 30
0.0
 11
-10.69491105406916
 21
9.169806589580218
 31
0.0
  0
LINE
  5
349
330
2
100
AcDbEntity
  8
GAIKEI
 62
     1
 48
0.23891
100
AcDbLine
 10
-10.59575645406914
 20
12.8069647895802
 30
0.0
 11
-9.805296254069162
 21
13.34401308958024
 31
0.0
  0
LINE
  5
34A
330
2
100
AcDbEntity
  8
GAIKEI
 62
     1
 48
0.23891
100
AcDbLine
 10
-14.33452595406913
 20
13.34401308958024
 30
0.0
 11
-13.54406575406915
 21
12.8069677895802
 31
0.0
  0
LINE
  5
34B
330
2
100
AcDbEntity
  8
GAIKEI
 62
     1
 48
0.003173
100
AcDbLine
 10
-9.621781854069126
 20
13.33169008958021
 30
0.0
 11
-9.624714554069157
 21
13.34404058958023
 31
0.0
  0
LINE
  5
34C
330
2
100
AcDbEntity
  8
GAIKEI
 62
     1
 48
0.002846
100
AcDbLine
 10
-14.51759485406916
 20
13.33287108958024
 30
0.0
 11
-14.51503435406914
 21
13.34396428958024
 31
0.0
  0
LINE
  5
34D
330
2
100
AcDbEntity
  8
KIJUN
  6
S130
 62
     1
 48
0.5
100
AcDbLine
 10
-12.06991105406916
 20
13.13935252739219
 30
0.0
 11
-12.06991105406916
 21
10.09434452886569
 31
0.0
  0
ARC
  5
34E
330
2
100
AcDbEntity
  8
GAIKEI
100
AcDbCircle
 10
-12.06991105406916
 20
13.63399418958022
 30
0.0
 40
5.2700001
100
AcDbArc
 50
269.9999969999958
 51
356.8454879999996
  0
ARC
  5
34F
330
2
100
AcDbEntity
  8
GAIKEI
100
AcDbCircle
 10
-12.06991105406916
 20
13.63399418958022
 30
0.0
 40
5.2700001
100
AcDbArc
 50
183.1544899999999
 51
269.9999969999958
  0
LINE
  5
350
330
2
100
AcDbEntity
  8
GAIKEI
 48
0.16407
100
AcDbLine
 10
-7.365183954069152
 20
13.34399478958022
 30
0.0
 11
-6.70890335406915
 21
13.34399478958022
 31
0.0
  0
LINE
  5
351
330
2
100
AcDbEntity
  8
GAIKEI
100
AcDbLine
 10
-17.43091875406918
 20
13.34399478958022
 30
0.0
 11
-7.365183954069152
 21
13.34399478958022
 31
0.0
  0
LINE
  5
352
330
2
100
AcDbEntity
  8
GAIKEI
 62
     1
 48
0.000087
100
AcDbLine
 10
-12.28685745406915
 20
13.96687078958024
 30
0.0
 11
-12.28685745406915
 21
13.96721868958025
 31
0.0
  0
ARC
  5
353
330
2
100
AcDbEntity
  8
GAIKEI
 62
     1
100
AcDbCircle
 10
-13.90288535406915
 20
14.0502203895802
 30
0.0
 40
0.0147765
100
AcDbArc
 50
183.8017740000003
 51
221.7914230000014
  0
ELLIPSE
  5
354
330
2
100
AcDbEntity
  8
GAIKEI
 62
     1
100
AcDbEllipse
 10
-14.08318625406917
 20
12.64464178958025
 30
0.0
 11
0.0001068115234375
 21
-1.499407958984375
 31
0.0
210
0.0
220
0.0
230
1.0
 40
0.309076
 41
2.540525674819946
 42
2.767481803894042
  0
ARC
  5
355
330
2
100
AcDbEntity
  8
GAIKEI
 62
     1
100
AcDbCircle
 10
-13.71398155406916
 20
13.86728278958026
 30
0.0
 40
0.03913
100
AcDbArc
 50
0.5892500000000358
 51
25.08381599999952
  0
ELLIPSE
  5
356
330
2
100
AcDbEntity
  8
GAIKEI
 62
     1
100
AcDbEllipse
 10
-13.93932945406914
 20
12.64518498958023
 30
0.0
 11
0.000286865234375
 21
-1.49886474609375
 31
0.0
210
0.0
220
0.0
230
0.9999999999999998
 40
0.309275
 41
2.543457269668579
 42
2.769976377487182
  0
ELLIPSE
  5
357
330
2
100
AcDbEntity
  8
GAIKEI
 62
     1
100
AcDbEllipse
 10
-14.22584375406916
 20
12.64464178958025
 30
0.0
 11
0.0001068115234375
 21
-1.499407958984375
 31
0.0
210
0.0
220
0.0
230
1.0
 40
0.309076
 41
2.540525674819946
 42
2.767481803894042
  0
ARC
  5
358
330
2
100
AcDbEntity
  8
GAIKEI
 62
     1
100
AcDbCircle
 10
-14.18845055406916
 20
14.05155398958021
 30
0.0
 40
0.0145316
100
AcDbArc
 50
184.0810609999999
 51
222.1982140000004
  0
ELLIPSE
  5
359
330
2
100
AcDbEntity
  8
GAIKEI
 62
     1
100
AcDbEllipse
 10
-14.36730485406917
 20
12.64518498958023
 30
0.0
 11
0.000286865234375
 21
-1.49886474609375
 31
0.0
210
0.0
220
0.0
230
0.9999999999999998
 40
0.309275
 41
2.543457269668579
 42
2.769976377487182
  0
ARC
  5
35A
330
2
100
AcDbEntity
  8
GAIKEI
 62
     1
100
AcDbCircle
 10
-13.99954675406917
 20
13.86461248958022
 30
0.0
 40
0.0393801
100
AcDbArc
 50
0.701496000000005
 51
25.01534499999902
  0
LINE
  5
35B
330
2
100
AcDbEntity
  8
GAIKEI
100
AcDbLine
 10
-18.96991105406914
 20
16.19399478958024
 30
0.0
 11
-6.014591854069124
 21
16.19399478958024
 31
0.0
  0
LINE
  5
35C
330
2
100
AcDbEntity
  8
GAIKEI
 48
0.21117
100
AcDbLine
 10
-6.014591854069124
 20
16.19399478958024
 30
0.0
 11
-5.169911054069132
 21
16.19399478958024
 31
0.0
  0
ARC
  5
35D
330
2
100
AcDbEntity
  8
GAIKEI
100
AcDbCircle
 10
-5.323228354069158
 20
12.6440527895802
 30
0.0
 40
1.5
100
AcDbArc
 50
90.55061099999672
 51
150.0024430000007
  0
ARC
  5
35E
330
2
100
AcDbEntity
  8
GAIKEI
100
AcDbCircle
 10
-6.70890335406915
 20
13.44399478958024
 30
0.0
 40
0.1
100
AcDbArc
 50
269.9999969999958
 51
330.0024449999992
  0
ARC
  5
35F
330
2
100
AcDbEntity
  8
GAIKEI
100
AcDbCircle
 10
-17.43091875406918
 20
13.44399478958024
 30
0.0
 40
0.1
100
AcDbArc
 50
209.9975569999993
 51
269.9999969999958
  0
ARC
  5
360
330
2
100
AcDbEntity
  8
GAIKEI
100
AcDbCircle
 10
-18.81659385406914
 20
12.6440527895802
 30
0.0
 40
1.5
100
AcDbArc
 50
29.9975520000014
 51
89.44939400000015
  0
ARC
  5
361
330
2
100
AcDbEntity
  8
GAIKEI
100
AcDbCircle
 10
-18.80189045406917
 20
14.1739813895802
 30
0.0
 40
0.03
100
AcDbArc
 50
183.9068909999997
 51
269.4493409999992
  0
ARC
  5
362
330
2
100
AcDbEntity
  8
GAIKEI
100
AcDbCircle
 10
-5.337931754069131
 20
14.1739813895802
 30
0.0
 40
0.03
100
AcDbArc
 50
270.5506609999984
 51
356.0931069999996
  0
LINE
  5
363
330
2
100
AcDbEntity
  8
GAIKEI
100
AcDbLine
 10
-18.83181905406917
 20
14.1719366895802
 30
0.0
 11
-18.96991105406914
 21
16.19399478958024
 31
0.0
  0
LINE
  5
364
330
2
100
AcDbEntity
  8
GAIKEI
100
AcDbLine
 10
-5.308003154069126
 20
14.1719366895802
 30
0.0
 11
-5.169911054069132
 21
16.19399478958024
 31
0.0
  0
LINE
  5
365
330
2
100
AcDbEntity
  8
GAIKEI
 62
     1
 48
0.422861
100
AcDbLine
 10
-6.97728105406918
 20
17.21399298958022
 30
0.0
 11
-8.668727054069165
 21
17.21399298958022
 31
0.0
  0
LINE
  5
366
330
2
100
AcDbEntity
  8
GAIKEI
 62
     1
 48
0.4221210000000001
100
AcDbLine
 10
-6.980244354069156
 20
17.45399228958024
 30
0.0
 11
-8.668727054069165
 21
17.45399228958024
 31
0.0
  0
ELLIPSE
  5
367
330
2
100
AcDbEntity
  8
GAIKEI
 62
     1
100
AcDbEllipse
 10
-9.329872054069141
 20
17.72399358958023
 30
0.0
 11
0.0
 21
-0.0899993896484375
 31
0.0
210
0.0
220
0.0
230
1.0
 40
0.7071069999999998
 41
3.936046361923217
 42
5.488731384277343
  0
ARC
  5
368
330
2
100
AcDbEntity
  8
GAIKEI
 62
     1
100
AcDbCircle
 10
-9.330140554069146
 20
17.7699987895802
 30
0.0
 40
0.0440524
100
AcDbArc
 50
90.16639999999513
 51
99.25926599999925
  0
ELLIPSE
  5
369
330
2
100
AcDbEntity
  8
GAIKEI
 62
     1
100
AcDbEllipse
 10
-9.329872054069141
 20
17.72399358958023
 30
0.0
 11
0.0
 21
-0.0899993896484375
 31
0.0
210
0.0
220
0.0
230
1.0
 40
0.7071069999999998
 41
3.936046361923217
 42
5.488731384277343
  0
ARC
  5
36A
330
2
100
AcDbEntity
  8
GAIKEI
 62
     1
100
AcDbCircle
 10
-9.330140554069146
 20
17.67798828958024
 30
0.0
 40
0.0440524
100
AcDbArc
 50
260.7407340000007
 51
269.8336000000049
  0
ELLIPSE
  5
36B
330
2
100
AcDbEntity
  8
GAIKEI
 62
     1
100
AcDbEllipse
 10
-9.598573154069129
 20
17.72399358958023
 30
0.0
 11
0.0
 21
-0.15
 31
0.0
210
0.0
220
0.0
230
1.0
 40
0.7071069999999999
 41
3.089160203933715
 42
3.141592741012572
  0
ELLIPSE
  5
36C
330
2
100
AcDbEntity
  8
GAIKEI
 62
     1
100
AcDbEllipse
 10
-9.598573154069129
 20
17.72399358958023
 30
0.0
 11
0.0
 21
-0.15
 31
0.0
210
0.0
220
0.0
230
1.0
 40
0.7071069999999999
 41
6.283185482025146
 42
6.335617542266845
  0
LINE
  5
36D
330
2
100
AcDbEntity
  8
GAIKEI
 62
     1
 48
0.03182
100
AcDbLine
 10
-9.598573154069129
 20
17.57399358958025
 30
0.0
 11
-9.72585285406916
 21
17.57399358958025
 31
0.0
  0
LINE
  5
36E
330
2
100
AcDbEntity
  8
GAIKEI
 62
     1
 48
0.03182
100
AcDbLine
 10
-9.598573154069129
 20
17.87399358958021
 30
0.0
 11
-9.72585285406916
 21
17.87399358958021
 31
0.0
  0
ELLIPSE
  5
36F
330
2
100
AcDbEntity
  8
GAIKEI
 62
     1
100
AcDbEllipse
 10
-9.336942954069172
 20
17.72399358958023
 30
0.0
 11
0.0
 21
-0.083160400390625
 31
0.0
210
0.0
220
0.0
230
1.0
 40
0.7071069999999997
 41
3.145118951797485
 42
3.851691246032714
  0
ELLIPSE
  5
370
330
2
100
AcDbEntity
  8
GAIKEI
 62
     1
100
AcDbEllipse
 10
-9.37229755406912
 20
17.80715398958023
 30
0.0
 11
0.0
 21
-0.05
 31
0.0
210
0.0
220
0.0
230
1.0
 40
0.7071069999999999
 41
1.570796370506286
 42
1.697622060775756
  0
ELLIPSE
  5
371
330
2
100
AcDbEntity
  8
GAIKEI
 62
     1
100
AcDbEllipse
 10
-9.336942954069172
 20
17.72399358958023
 30
0.0
 11
0.0
 21
-0.083160400390625
 31
0.0
210
0.0
220
0.0
230
1.0
 40
0.7071069999999997
 41
5.573086738586425
 42
6.279659748077392
  0
ELLIPSE
  5
372
330
2
100
AcDbEntity
  8
GAIKEI
 62
     1
100
AcDbEllipse
 10
-9.37229755406912
 20
17.64083318958023
 30
0.0
 11
0.0
 21
0.05
 31
0.0
210
0.0
220
0.0
230
1.0
 40
0.7071069999999999
 41
4.58556318283081
 42
4.712388992309569
  0
LINE
  5
373
330
2
100
AcDbEntity
  8
GAIKEI
 62
     1
 48
0.05703
100
AcDbLine
 10
-9.365516554069131
 20
17.5910833895802
 30
0.0
 11
-9.593012854069172
 21
17.57420108958024
 31
0.0
  0
LINE
  5
374
330
2
100
AcDbEntity
  8
GAIKEI
 62
     1
 48
0.05703
100
AcDbLine
 10
-9.365516554069131
 20
17.85690368958023
 30
0.0
 11
-9.593012854069172
 21
17.87378598958025
 31
0.0
  0
LINE
  5
375
330
2
100
AcDbEntity
  8
GAIKEI
 48
0.23101
100
AcDbLine
 10
-5.44569535406913
 20
16.46399298958022
 30
0.0
 11
-4.521656654069147
 21
16.46399298958022
 31
0.0
  0
LINE
  5
376
330
2
100
AcDbEntity
  8
GAIKEI
100
AcDbLine
 10
-19.61816545406913
 20
16.46399298958022
 30
0.0
 11
-5.44569535406913
 21
16.46399298958022
 31
0.0
  0
LINE
  5
377
330
2
100
AcDbEntity
  8
GAIKEI
 62
     1
 48
0.007912
100
AcDbLine
 10
-16.98570695406914
 20
19.42399358958022
 30
0.0
 11
-16.95406025406913
 21
19.42399358958022
 31
0.0
  0
LINE
  5
378
330
2
100
AcDbEntity
  8
GAIKEI
 62
     1
 48
0.157297
100
AcDbLine
 10
-17.61489395406914
 20
19.42399358958022
 30
0.0
 11
-16.98570695406914
 21
19.42399358958022
 31
0.0
  0
LINE
  5
379
330
2
100
AcDbEntity
  8
GAIKEI
 62
     1
 48
0.011796
100
AcDbLine
 10
-17.66207725406917
 20
19.42399358958022
 30
0.0
 11
-17.61489395406914
 21
19.42399358958022
 31
0.0
  0
LINE
  5
37A
330
2
100
AcDbEntity
  8
GAIKEI
 62
     1
 48
0.012518
100
AcDbLine
 10
-16.98302445406915
 20
19.37399358958021
 30
0.0
 11
-16.98570695406914
 21
19.42399358958022
 31
0.0
  0
LINE
  5
37B
330
2
100
AcDbEntity
  8
GAIKEI
 62
     1
 48
0.000461
100
AcDbLine
 10
-16.98486775406917
 20
19.37399358958021
 30
0.0
 11
-16.98302445406915
 21
19.37399358958021
 31
0.0
  0
LINE
  5
37C
330
2
100
AcDbEntity
  8
GAIKEI
 62
     1
 48
0.027569
100
AcDbLine
 10
-17.61356345406915
 20
19.37399358958021
 30
0.0
 11
-17.50328815406914
 21
19.37399358958021
 31
0.0
  0
LINE
  5
37D
330
2
100
AcDbEntity
  8
GAIKEI
 62
     1
 48
0.012504
100
AcDbLine
 10
-17.61356345406915
 20
19.37399358958021
 30
0.0
 11
-17.61489395406914
 21
19.42399358958022
 31
0.0
  0
LINE
  5
37E
330
2
100
AcDbEntity
  8
GAIKEI
 62
     1
 48
0.038055
100
AcDbLine
 10
-17.35106645406915
 20
19.37399358958021
 30
0.0
 11
-17.50328815406914
 21
19.37399358958021
 31
0.0
  0
LINE
  5
37F
330
2
100
AcDbEntity
  8
GAIKEI
 62
     1
 48
0.001539
100
AcDbLine
 10
-17.35106645406915
 20
19.37399358958021
 30
0.0
 11
-17.34491105406914
 21
19.37399358958021
 31
0.0
  0
LINE
  5
380
330
2
100
AcDbEntity
  8
GAIKEI
 62
     1
 48
0.090011
100
AcDbLine
 10
-17.34491105406914
 20
19.37399358958021
 30
0.0
 11
-16.98486775406917
 21
19.37399358958021
 31
0.0
  0
LINE
  5
381
330
2
100
AcDbEntity
  8
GAIKEI
 62
     1
 48
0.0375
100
AcDbLine
 10
-17.34491105406914
 20
19.22399358958023
 30
0.0
 11
-17.34491105406914
 21
19.37399358958021
 31
0.0
  0
LINE
  5
382
330
2
100
AcDbEntity
  8
GAIKEI
 62
     1
 48
0.038891
100
AcDbLine
 10
-9.513719054069156
 20
17.89399478958023
 30
0.0
 11
-9.669282454069161
 21
17.89399478958023
 31
0.0
  0
ELLIPSE
  5
383
330
2
100
AcDbEntity
  8
GAIKEI
 62
     1
100
AcDbEllipse
 10
-9.596336254069171
 20
17.72399048958021
 30
0.0
 11
0.004193115234375
 21
-0.169976806640625
 31
0.0
210
0.0
220
0.0
230
1.0
 40
0.7068870000000001
 41
2.581297397613525
 42
3.124154329299926
  0
ELLIPSE
  5
384
330
2
100
AcDbEntity
  8
GAIKEI
 62
     1
100
AcDbEllipse
 10
-9.596336254069171
 20
17.72399358958023
 30
0.0
 11
0.0041961669921875
 21
-0.169976806640625
 31
0.0
210
0.0
220
0.0
230
1.0
 40
0.7068889999999999
 41
6.265739917755127
 42
6.811187744140625
  0
ELLIPSE
  5
385
330
2
100
AcDbEntity
  8
GAIKEI
 62
     1
100
AcDbEllipse
 10
-9.513719054069156
 20
17.72399358958023
 30
0.0
 11
0.0
 21
-0.170001220703125
 31
0.0
210
0.0
220
0.0
230
1.0
 40
0.7071069999999998
 41
2.525670289993286
 42
3.141592741012572
  0
ELLIPSE
  5
386
330
2
100
AcDbEntity
  8
GAIKEI
 62
     1
100
AcDbEllipse
 10
-9.513719054069156
 20
17.72399358958023
 30
0.0
 11
0.0
 21
-0.170001220703125
 31
0.0
210
0.0
220
0.0
230
1.0
 40
0.7071069999999998
 41
6.283185482025146
 42
6.89910888671875
  0
LINE
  5
387
330
2
100
AcDbEntity
  8
GAIKEI
 62
     1
 48
0.038891
100
AcDbLine
 10
-9.513719054069156
 20
17.55399228958021
 30
0.0
 11
-9.669282454069161
 21
17.55399228958021
 31
0.0
  0
ELLIPSE
  5
388
330
2
100
AcDbEntity
  8
GAIKEI
 62
     1
100
AcDbEllipse
 10
-9.669282454069161
 20
17.72399358958023
 30
0.0
 11
0.0
 21
-0.170001220703125
 31
0.0
210
0.0
220
0.0
230
1.0
 40
0.7071069999999998
 41
3.141592741012572
 42
6.283185482025146
  0
LINE
  5
389
330
2
100
AcDbEntity
  8
GAIKEI
 62
     1
 48
0.038891
100
AcDbLine
 10
-9.443009854069146
 20
17.99399478958025
 30
0.0
 11
-9.598573154069129
 21
17.99399478958025
 31
0.0
  0
ELLIPSE
  5
38A
330
2
100
AcDbEntity
  8
GAIKEI
 62
     1
100
AcDbEllipse
 10
-9.443009854069146
 20
17.72399358958023
 30
0.0
 11
0.0
 21
-0.2700012207031249
 31
0.0
210
0.0
220
0.0
230
1.0
 40
0.7071069999999999
 41
0.0000002125636485
 42
3.141592741012572
  0
LINE
  5
38B
330
2
100
AcDbEntity
  8
GAIKEI
 62
     1
 48
0.038891
100
AcDbLine
 10
-9.443009854069146
 20
17.45399228958024
 30
0.0
 11
-9.598573154069129
 21
17.45399228958024
 31
0.0
  0
ELLIPSE
  5
38C
330
2
100
AcDbEntity
  8
GAIKEI
 62
     1
100
AcDbEllipse
 10
-9.598573154069129
 20
17.72399358958023
 30
0.0
 11
0.0
 21
-0.2700012207031249
 31
0.0
210
0.0
220
0.0
230
1.0
 40
0.7071069999999999
 41
3.141592979431152
 42
6.283185482025146
  0
ELLIPSE
  5
38D
330
2
100
AcDbEntity
  8
GAIKEI
 62
     1
100
AcDbEllipse
 10
-6.770826654069139
 20
17.67399358958022
 30
0.0
 11
0.0030853271484375
 21
-0.124981689453125
 31
0.0
210
0.0
220
0.0
230
1.0
 40
0.7068919999999999
 41
0.6994091868400574
 42
2.38980746269226
  0
ELLIPSE
  5
38E
330
2
100
AcDbEntity
  8
GAIKEI
 62
     1
100
AcDbEllipse
 10
-6.653474354069146
 20
17.67399358958022
 30
0.0
 11
0.0
 21
-0.125
 31
0.0
210
0.0
220
0.0
230
1.0
 40
0.7071069999999999
 41
3.141592741012572
 42
6.283185482025146
  0
ELLIPSE
  5
38F
330
2
100
AcDbEntity
  8
GAIKEI
 62
     1
100
AcDbEllipse
 10
-6.653474354069146
 20
17.67399358958022
 30
0.0
 11
0.0
 21
-0.125
 31
0.0
210
0.0
220
0.0
230
1.0
 40
0.7071069999999999
 41
6.283185482025146
 42
7.853981494903564
  0
ELLIPSE
  5
390
330
2
100
AcDbEntity
  8
GAIKEI
 62
     1
100
AcDbEllipse
 10
-6.653474354069146
 20
17.67399358958022
 30
0.0
 11
0.0
 21
-0.125
 31
0.0
210
0.0
220
0.0
230
1.0
 40
0.7071069999999999
 41
1.570796370506286
 42
3.141592741012572
  0
ELLIPSE
  5
391
330
2
100
AcDbEntity
  8
GAIKEI
 62
     1
100
AcDbEllipse
 10
-6.618116654069183
 20
17.67399358958022
 30
0.0
 11
0.0
 21
-0.175
 31
0.0
210
0.0
220
0.0
230
1.0
 40
0.7071069999999999
 41
1.570795536041259
 42
7.853980843220845
  0
ELLIPSE
  5
392
330
2
100
AcDbEntity
  8
GAIKEI
 62
     1
100
AcDbEllipse
 10
-8.962858454069134
 20
17.67399358958022
 30
0.0
 11
0.0030853271484375
 21
-0.124981689453125
 31
0.0
210
0.0
220
0.0
230
1.0
 40
0.7068919999999999
 41
0.6994091868400574
 42
2.38980746269226
  0
ELLIPSE
  5
393
330
2
100
AcDbEntity
  8
GAIKEI
 62
     1
100
AcDbEllipse
 10
-8.845503154069149
 20
17.67399358958022
 30
0.0
 11
0.0
 21
-0.125
 31
0.0
210
0.0
220
0.0
230
1.0
 40
0.7071069999999999
 41
3.141592741012572
 42
6.283185482025146
  0
ELLIPSE
  5
394
330
2
100
AcDbEntity
  8
GAIKEI
 62
     1
100
AcDbEllipse
 10
-8.845503154069149
 20
17.67399358958022
 30
0.0
 11
0.0
 21
-0.125
 31
0.0
210
0.0
220
0.0
230
1.0
 40
0.7071069999999999
 41
6.283185482025146
 42
7.853981494903564
  0
ELLIPSE
  5
395
330
2
100
AcDbEntity
  8
GAIKEI
 62
     1
100
AcDbEllipse
 10
-8.845503154069149
 20
17.67399358958022
 30
0.0
 11
0.0
 21
-0.125
 31
0.0
210
0.0
220
0.0
230
1.0
 40
0.7071069999999999
 41
1.570796370506286
 42
3.141592741012572
  0
ELLIPSE
  5
396
330
2
100
AcDbEntity
  8
GAIKEI
 62
     1
100
AcDbEllipse
 10
-8.810148554069144
 20
17.67399358958022
 30
0.0
 11
0.0
 21
-0.175
 31
0.0
210
0.0
220
0.0
230
1.0
 40
0.7071069999999999
 41
1.570795536041259
 42
7.853980843220845
  0
LINE
  5
397
330
2
100
AcDbEntity
  8
GAIKEI
 62
     1
 48
0.064079
100
AcDbLine
 10
-5.813597054069134
 20
19.87399358958021
 30
0.0
 11
-6.069911054069166
 21
19.87399358958021
 31
0.0
  0
LINE
  5
398
330
2
100
AcDbEntity
  8
GAIKEI
 62
     1
 48
0.001717
100
AcDbLine
 10
-6.076780554069159
 20
19.87399358958021
 30
0.0
 11
-6.069911054069166
 21
19.87399358958021
 31
0.0
  0
LINE
  5
399
330
2
100
AcDbEntity
  8
GAIKEI
 62
     1
 48
0.019511
100
AcDbLine
 10
-6.155555654069132
 20
19.87399358958021
 30
0.0
 11
-6.077513054069129
 21
19.87399358958021
 31
0.0
  0
LINE
  5
39A
330
2
100
AcDbEntity
  8
GAIKEI
 62
     1
100
AcDbLine
 10
-9.979817054069144
 20
19.87399358958021
 30
0.0
 11
-6.155555654069132
 21
19.87399358958021
 31
0.0
  0
LINE
  5
39B
330
2
100
AcDbEntity
  8
GAIKEI
 62
     1
 48
0.000877
100
AcDbLine
 10
-18.48042745406917
 20
19.5148657895802
 30
0.0
 11
-18.48048545406914
 21
19.51837218958025
 31
0.0
  0
LINE
  5
39C
330
2
100
AcDbEntity
  8
GAIKEI
 62
     1
100
AcDbLine
 10
-16.78838035406915
 20
19.87399358958021
 30
0.0
 11
-9.979817054069144
 21
19.87399358958021
 31
0.0
  0
LINE
  5
39D
330
2
100
AcDbEntity
  8
GAIKEI
 62
     1
 48
0.169466
100
AcDbLine
 10
-18.32622515406916
 20
19.87399358958021
 30
0.0
 11
-17.64836265406916
 21
19.87399358958021
 31
0.0
  0
LINE
  5
39E
330
2
100
AcDbEntity
  8
GAIKEI
 62
     1
 48
0.183349
100
AcDbLine
 10
-17.69394675406914
 20
19.22399358958023
 30
0.0
 11
-16.96055135406914
 21
19.22399358958023
 31
0.0
  0
LINE
  5
39F
330
2
100
AcDbEntity
  8
GAIKEI
 62
     1
 48
0.214944
100
AcDbLine
 10
-17.64836265406916
 20
19.87399358958021
 30
0.0
 11
-16.78858475406918
 21
19.87399358958021
 31
0.0
  0
ARC
  5
3A0
330
2
100
AcDbEntity
  8
GAIKEI
 62
     1
100
AcDbCircle
 10
-5.968971154069151
 20
19.52842168958023
 30
0.0
 40
0.0512057
100
AcDbArc
 50
344.6497339999996
 51
0.9536440000000938
  0
LINE
  5
3A1
330
2
100
AcDbEntity
  8
GAIKEI
 62
     1
 48
0.056295
100
AcDbLine
 10
-5.918604954069166
 20
19.56399298958024
 30
0.0
 11
-5.693424854069178
 21
19.56399298958024
 31
0.0
  0
LINE
  5
3A2
330
2
100
AcDbEntity
  8
GAIKEI
 62
     1
100
AcDbLine
 10
-18.81552575406914
 20
16.61399298958019
 30
0.0
 11
-6.150077754069172
 21
16.61399298958019
 31
0.0
  0
LINE
  5
3A3
330
2
100
AcDbEntity
  8
GAIKEI
 62
     1
 48
0.206445
100
AcDbLine
 10
-6.150077754069172
 20
16.61399298958019
 30
0.0
 11
-5.324296454069155
 21
16.61399298958019
 31
0.0
  0
LINE
  5
3A4
330
2
100
AcDbEntity
  8
GAIKEI
 62
     1
 48
0.234387
100
AcDbLine
 10
-12.53868555406916
 20
19.97399358958023
 30
0.0
 11
-11.60113665406913
 21
19.97399358958023
 31
0.0
  0
LINE
  5
3A5
330
2
100
AcDbEntity
  8
GAIKEI
 62
     1
 48
0.017633
100
AcDbLine
 10
-11.57114095406916
 20
19.94451658958024
 30
0.0
 11
-11.56991105406916
 21
19.87399358958021
 31
0.0
  0
LINE
  5
3A6
330
2
100
AcDbEntity
  8
GAIKEI
 62
     1
 48
0.017633
100
AcDbLine
 10
-12.56868125406913
 20
19.94451658958024
 30
0.0
 11
-12.56991105406916
 21
19.87399358958021
 31
0.0
  0
ARC
  5
3A7
330
2
100
AcDbEntity
  8
GAIKEI
 62
     1
100
AcDbCircle
 10
-11.60113665406913
 20
19.94399478958024
 30
0.0
 40
0.03
100
AcDbArc
 50
0.99999999999993
 51
90.00000299999769
  0
ARC
  5
3A8
330
2
100
AcDbEntity
  8
GAIKEI
 62
     1
100
AcDbCircle
 10
-12.53868555406916
 20
19.94399478958024
 30
0.0
 40
0.03
100
AcDbArc
 50
90.00000299999769
 51
178.999997
  0
LINE
  5
3A9
330
2
100
AcDbEntity
  8
GAIKEI
 62
     1
 48
0.441942
100
AcDbLine
 10
-6.90095965406914
 20
17.46399298958022
 30
0.0
 11
-8.668727054069165
 21
17.46399298958022
 31
0.0
  0
LINE
  5
3AA
330
2
100
AcDbEntity
  8
GAIKEI
 62
     1
 48
0.0675
100
AcDbLine
 10
-6.90095965406914
 20
17.19399478958024
 30
0.0
 11
-6.90095965406914
 21
17.46399298958022
 31
0.0
  0
LINE
  5
3AB
330
2
100
AcDbEntity
  8
GAIKEI
 62
     1
 48
0.067505
100
AcDbLine
 10
-6.980366454069155
 20
17.46399298958022
 30
0.0
 11
-6.977033854069134
 21
17.19399478958024
 31
0.0
  0
LINE
  5
3AC
330
2
100
AcDbEntity
  8
GAIKEI
 62
     1
 48
0.441942
100
AcDbLine
 10
-8.668727054069165
 20
17.19399478958024
 30
0.0
 11
-6.90095965406914
 21
17.19399478958024
 31
0.0
  0
LINE
  5
3AD
330
2
100
AcDbEntity
  8
GAIKEI
 62
     1
 48
0.477297
100
AcDbLine
 10
-8.668727054069165
 20
17.09399478958022
 30
0.0
 11
-6.759538154069161
 21
17.09399478958022
 31
0.0
  0
LINE
  5
3AE
330
2
100
AcDbEntity
  8
GAIKEI
 62
     1
 48
0.1175
100
AcDbLine
 10
-8.668727054069165
 20
17.56399298958024
 30
0.0
 11
-8.668727054069165
 21
17.09399478958022
 31
0.0
  0
LINE
  5
3AF
330
2
100
AcDbEntity
  8
GAIKEI
 62
     1
 48
0.477297
100
AcDbLine
 10
-6.759538154069161
 20
17.56399298958024
 30
0.0
 11
-8.668727054069165
 21
17.56399298958024
 31
0.0
  0
LINE
  5
3B0
330
2
100
AcDbEntity
  8
GAIKEI
 62
     1
 48
0.1175
100
AcDbLine
 10
-6.759538154069161
 20
17.09399478958022
 30
0.0
 11
-6.759538154069161
 21
17.56399298958024
 31
0.0
  0
LINE
  5
3B1
330
2
100
AcDbEntity
  8
GAIKEI
 62
     1
 48
0.043301
100
AcDbLine
 10
-6.759538154069161
 20
17.56399298958024
 30
0.0
 11
-6.90095965406914
 21
17.46399298958022
 31
0.0
  0
LINE
  5
3B2
330
2
100
AcDbEntity
  8
GAIKEI
 62
     1
 48
0.043301
100
AcDbLine
 10
-6.759538154069161
 20
17.09399478958022
 30
0.0
 11
-6.90095965406914
 21
17.19399478958024
 31
0.0
  0
LINE
  5
3B3
330
2
100
AcDbEntity
  8
GAIKEI
 62
     1
 48
0.011321
100
AcDbLine
 10
-8.926508954069163
 20
17.62399358958021
 30
0.0
 11
-8.881223954069184
 21
17.62399358958021
 31
0.0
  0
LINE
  5
3B4
330
2
100
AcDbEntity
  8
GAIKEI
 62
     1
 48
0.011321
100
AcDbLine
 10
-6.73448015406916
 20
17.62399358958021
 30
0.0
 11
-6.689195154069125
 21
17.62399358958021
 31
0.0
  0
LINE
  5
3B5
330
2
100
AcDbEntity
  8
GAIKEI
 48
0.232594
100
AcDbLine
 10
-5.400276054069138
 20
16.21399298958022
 30
0.0
 11
-4.469901954069143
 21
16.21399298958022
 31
0.0
  0
LINE
  5
3B6
330
2
100
AcDbEntity
  8
GAIKEI
100
AcDbLine
 10
-19.66992025406915
 20
16.21399298958022
 30
0.0
 11
-5.400276054069138
 21
16.21399298958022
 31
0.0
  0
LINE
  5
3B7
330
2
100
AcDbEntity
  8
GAIKEI
 48
0.025222
100
AcDbLine
 10
-4.421671954069154
 20
16.36573858958024
 30
0.0
 11
-4.419911054069132
 21
16.2648657895802
 31
0.0
  0
LINE
  5
3B8
330
2
100
AcDbEntity
  8
GAIKEI
 48
0.025222
100
AcDbLine
 10
-19.71815025406914
 20
16.36573858958024
 30
0.0
 11
-19.71991105406914
 21
16.2648657895802
 31
0.0
  0
ARC
  5
3B9
330
2
100
AcDbEntity
  8
GAIKEI
100
AcDbCircle
 10
-4.521656654069147
 20
16.3639929895802
 30
0.0
 40
0.1
100
AcDbArc
 50
0.99999999999993
 51
90.00000299999769
  0
ARC
  5
3BA
330
2
100
AcDbEntity
  8
GAIKEI
100
AcDbCircle
 10
-19.61816545406913
 20
16.3639929895802
 30
0.0
 40
0.1
100
AcDbArc
 50
90.00000299999769
 51
178.999997
  0
LINE
  5
3BB
330
2
100
AcDbEntity
  8
GAIKEI
 62
     1
 48
0.037547
100
AcDbLine
 10
-16.97732385406914
 20
19.22399358958023
 30
0.0
 11
-16.98486775406917
 21
19.37399358958021
 31
0.0
  0
LINE
  5
3BC
330
2
100
AcDbEntity
  8
GAIKEI
 62
     1
 48
0.050062
100
AcDbLine
 10
-17.65209795406912
 20
19.22399358958023
 30
0.0
 11
-17.66207725406917
 21
19.42399358958022
 31
0.0
  0
ARC
  5
3BD
330
2
100
AcDbEntity
  8
GAIKEI
 62
     1
100
AcDbCircle
 10
-5.813477954069128
 20
19.72368838958022
 30
0.0
 40
0.1502888
100
AcDbArc
 50
1.139515999999953
 51
89.97023000000256
  0
LINE
  5
3BE
330
2
100
AcDbEntity
  8
GAIKEI
 62
     1
 48
0.00277
100
AcDbLine
 10
-6.077513054069129
 20
19.87399358958021
 30
0.0
 11
-6.066438154069146
 21
19.87360898958025
 31
0.0
  0
ARC
  5
3BF
330
2
100
AcDbEntity
  8
GAIKEI
 62
     1
100
AcDbCircle
 10
-18.32634415406914
 20
19.72368838958022
 30
0.0
 40
0.150289
100
AcDbArc
 50
89.95445899999991
 51
178.860415
  0
ARC
  5
3C0
330
2
100
AcDbEntity
  8
GAIKEI
 62
     1
100
AcDbCircle
 10
-18.44639725406915
 20
19.51399298958023
 30
0.0
 40
0.0499999
100
AcDbArc
 50
132.0294830000012
 51
178.999929
  0
LINE
  5
3C1
330
2
100
AcDbEntity
  8
GAIKEI
 62
     1
 48
0.052085
100
AcDbLine
 10
-18.48048545406914
 20
19.51837218958025
 30
0.0
 11
-18.47658225406917
 21
19.72667608958022
 31
0.0
  0
LINE
  5
3C2
330
2
100
AcDbEntity
  8
GAIKEI
 62
     1
 48
0.130122
100
AcDbLine
 10
-16.96109765406913
 20
19.20712958958023
 30
0.0
 11
-16.94428855406914
 21
19.72734438958025
 31
0.0
  0
LINE
  5
3C3
330
2
100
AcDbEntity
  8
GAIKEI
 62
     1
 48
0.043894
100
AcDbLine
 10
-5.659950154069122
 20
19.55113288958023
 30
0.0
 11
-5.663239954069183
 21
19.72667608958022
 31
0.0
  0
LINE
  5
3C4
330
2
100
AcDbEntity
  8
GAIKEI
 62
     1
 48
0.049425
100
AcDbLine
 10
-5.917774854069136
 20
19.52927308958021
 30
0.0
 11
-5.92242875406913
 21
19.7269171895802
 31
0.0
  0
ARC
  5
3C5
330
2
100
AcDbEntity
  8
GAIKEI
 62
     1
100
AcDbCircle
 10
-5.693424854069178
 20
19.51399298958023
 30
0.0
 40
0.05
100
AcDbArc
 50
0.99999999999993
 51
89.99999600000091
  0
LINE
  5
3C6
330
2
100
AcDbEntity
  8
GAIKEI
 62
     1
 48
0.000655
100
AcDbLine
 10
-18.96550125406912
 20
16.46661138958023
 30
0.0
 11
-18.96554705406913
 21
16.46399298958022
 31
0.0
  0
LINE
  5
3C7
330
2
100
AcDbEntity
  8
GAIKEI
 62
     1
 48
0.000655
100
AcDbLine
 10
-5.174320854069151
 20
16.46661138958023
 30
0.0
 11
-5.174275154069164
 21
16.46399298958022
 31
0.0
  0
ARC
  5
3C8
330
2
100
AcDbEntity
  8
GAIKEI
 62
     1
100
AcDbCircle
 10
-18.81552575406914
 20
16.46399298958022
 30
0.0
 40
0.15
100
AcDbArc
 50
90.00000299999769
 51
178.999997
  0
ARC
  5
3C9
330
2
100
AcDbEntity
  8
GAIKEI
 62
     1
100
AcDbCircle
 10
-5.324296454069155
 20
16.46399298958022
 30
0.0
 40
0.15
100
AcDbArc
 50
0.99999999999993
 51
90.00000299999769
  0
LINE
  5
3CA
330
2
100
AcDbEntity
  8
GAIKEI
 62
     1
100
AcDbLine
 10
-18.49638815406916
 20
19.5148657895802
 30
0.0
 11
-18.54702595406917
 21
16.61399298958019
 31
0.0
  0
LINE
  5
3CB
330
2
100
AcDbEntity
  8
GAIKEI
 62
     1
100
AcDbLine
 10
-5.643434054069132
 20
19.5148657895802
 30
0.0
 11
-5.592796254069128
 21
16.61399298958019
 31
0.0
  0
ARC
  5
3CC
330
2
100
AcDbEntity
  8
GAIKEI
100
AcDbCircle
 10
-4.469901954069143
 20
16.26399298958023
 30
0.0
 40
0.05
100
AcDbArc
 50
269.9999969999958
 51
1.000000999999918
  0
ARC
  5
3CD
330
2
100
AcDbEntity
  8
GAIKEI
100
AcDbCircle
 10
-19.66992025406915
 20
16.26399298958023
 30
0.0
 40
0.05
100
AcDbArc
 50
178.999997
 51
270.0000010000014
  0
LINE
  5
3CE
330
2
100
AcDbEntity
  8
GAIKEI
 48
0.005
100
AcDbLine
 10
-18.85956255406916
 20
16.19399478958024
 30
0.0
 11
-18.85991045406916
 21
16.21399298958022
 31
0.0
  0
LINE
  5
3CF
330
2
100
AcDbEntity
  8
GAIKEI
 62
     1
 48
0.034001
100
AcDbLine
 10
-16.96840965406915
 20
19.23844358958024
 30
0.0
 11
-16.97544085406917
 21
19.37426518958023
 31
0.0
  0
LINE
  5
3D0
330
2
100
AcDbEntity
  8
GAIKEI
 62
     1
 48
0.033989
100
AcDbLine
 10
-17.62706135406915
 20
19.23844358958024
 30
0.0
 11
-17.63339985406912
 21
19.37425298958021
 31
0.0
  0
LINE
  5
3D1
330
2
100
AcDbEntity
  8
GAIKEI
 62
     1
 48
0.049568
100
AcDbLine
 10
-6.011869754069152
 20
19.85965638958021
 30
0.0
 11
-5.813597054069134
 21
19.85965638958021
 31
0.0
  0
LINE
  5
3D2
330
2
100
AcDbEntity
  8
GAIKEI
 62
     1
 48
0.008653
100
AcDbLine
 10
-6.010111854069123
 20
19.83133608958025
 30
0.0
 11
-5.975498854069144
 21
19.83133608958025
 31
0.0
  0
LINE
  5
3D3
330
2
100
AcDbEntity
  8
GAIKEI
 62
     1
100
AcDbLine
 10
-9.954817054069167
 20
19.8593481895802
 30
0.0
 11
-6.130555654069155
 21
19.8593481895802
 31
0.0
  0
ARC
  5
3D4
330
2
100
AcDbEntity
  8
GAIKEI
 62
     1
100
AcDbCircle
 10
-3850.08173665407
 20
-83.75077451041978
 30
0.0
 40
3845.520312500001
100
AcDbArc
 50
1.49553399999996
 51
1.541925999999902
  0
ARC
  5
3D5
330
2
100
AcDbEntity
  8
GAIKEI
 62
     1
100
AcDbCircle
 10
3830.87373214593
 20
-83.83787171041978
 30
0.0
 40
3842.3820313
100
AcDbArc
 50
178.455508
 51
178.50194
  0
LINE
  5
3D6
330
2
100
AcDbEntity
  8
GAIKEI
 62
     1
 48
0.046635
100
AcDbLine
 10
-18.46758875406914
 20
19.55001288958021
 30
0.0
 11
-18.28104695406915
 21
19.55001288958021
 31
0.0
  0
LINE
  5
3D7
330
2
100
AcDbEntity
  8
GAIKEI
 62
     1
100
AcDbLine
 10
-16.36559285406917
 20
19.83133608958025
 30
0.0
 11
-10.67891685406914
 21
19.83133608958025
 31
0.0
  0
LINE
  5
3D8
330
2
100
AcDbEntity
  8
GAIKEI
 62
     1
 48
0.14266
100
AcDbLine
 10
-18.40807025406917
 20
19.83133608958025
 30
0.0
 11
-17.83743125406914
 21
19.83133608958025
 31
0.0
  0
LINE
  5
3D9
330
2
100
AcDbEntity
  8
GAIKEI
 62
     1
 48
0.161932
100
AcDbLine
 10
-17.67942345406914
 20
19.2100134895802
 30
0.0
 11
-17.03169395406917
 21
19.2100134895802
 31
0.0
  0
LINE
  5
3DA
330
2
100
AcDbEntity
  8
GAIKEI
 62
     1
 48
0.124137
100
AcDbLine
 10
-17.71914505406914
 20
19.23089658958019
 30
0.0
 11
-17.71874535406914
 21
19.72744508958021
 31
0.0
  0
LINE
  5
3DB
330
2
100
AcDbEntity
  8
GAIKEI
 62
     1
 48
0.192448
100
AcDbLine
 10
-17.62229755406912
 20
19.86001348958024
 30
0.0
 11
-16.85250385406914
 21
19.86001348958024
 31
0.0
  0
LINE
  5
3DC
330
2
100
AcDbEntity
  8
GAIKEI
 62
     1
 48
0.04184
100
AcDbLine
 10
-5.673161254069157
 20
19.55970218958021
 30
0.0
 11
-5.676286254069168
 21
19.72703308958023
 31
0.0
  0
LINE
  5
3DD
330
2
100
AcDbEntity
  8
GAIKEI
 62
     1
 48
0.027911
100
AcDbLine
 10
-5.869834754069131
 20
19.55001288958021
 30
0.0
 11
-5.758189254069122
 21
19.55001288958021
 31
0.0
  0
LINE
  5
3DE
330
2
100
AcDbEntity
  8
GAIKEI
 62
     1
 48
0.000082
100
AcDbLine
 10
-12.55986775406916
 20
19.96574768958021
 30
0.0
 11
-12.55953815406917
 21
19.96574768958021
 31
0.0
  0
LINE
  5
3DF
330
2
100
AcDbEntity
  8
GAIKEI
 62
     1
 48
0.000082
100
AcDbLine
 10
-11.58028405406918
 20
19.96574768958021
 30
0.0
 11
-11.57995445406914
 21
19.96574768958021
 31
0.0
  0
LINE
  5
3E0
330
2
100
AcDbEntity
  8
GAIKEI
 62
     1
 48
0.195076
100
AcDbLine
 10
-12.46006305406917
 20
19.96574768958021
 30
0.0
 11
-11.67975915406913
 21
19.96574768958021
 31
0.0
  0
LINE
  5
3E1
330
2
100
AcDbEntity
  8
GAIKEI
 62
     1
 48
0.003416
100
AcDbLine
 10
-9.32368615406915
 20
17.60884158958021
 30
0.0
 11
-9.311677454069183
 21
17.61536318958025
 31
0.0
  0
LINE
  5
3E2
330
2
100
AcDbEntity
  8
GAIKEI
 62
     1
 48
0.003416
100
AcDbLine
 10
-9.311674354069168
 20
17.83262998958025
 30
0.0
 11
-9.32368615406915
 21
17.83914248958024
 31
0.0
  0
ARC
  5
3E3
330
2
100
AcDbEntity
  8
GAIKEI
 62
     1
100
AcDbCircle
 10
-9.336204454069161
 20
17.76142948958022
 30
0.0
 40
0.0489343
100
AcDbArc
 50
106.0006219999998
 51
119.2788180000001
  0
ARC
  5
3E4
330
2
100
AcDbEntity
  8
GAIKEI
 62
     1
100
AcDbCircle
 10
-9.336204454069161
 20
17.68655768958024
 30
0.0
 40
0.0489343
100
AcDbArc
 50
240.721182
 51
253.9993780000001
  0
LINE
  5
3E5
330
2
100
AcDbEntity
  8
GAIKEI
 62
     1
 48
0.038891
100
AcDbLine
 10
-9.502216954069183
 20
17.60641538958021
 30
0.0
 11
-9.346653654069143
 21
17.60641538958021
 31
0.0
  0
LINE
  5
3E6
330
2
100
AcDbEntity
  8
GAIKEI
 62
     1
 48
0.038891
100
AcDbLine
 10
-9.502216954069183
 20
17.84157168958023
 30
0.0
 11
-9.346653654069143
 21
17.84157168958023
 31
0.0
  0
LINE
  5
3E7
330
2
100
AcDbEntity
  8
GAIKEI
 62
     1
 48
0.000381
100
AcDbLine
 10
-9.263011054069181
 20
17.72323058958022
 30
0.0
 11
-9.263014154069139
 21
17.72475648958021
 31
0.0
  0
LINE
  5
3E8
330
2
100
AcDbEntity
  8
GAIKEI
100
AcDbLine
 10
-18.72887105406914
 20
14.1517919895802
 30
0.0
 11
-6.143681254069122
 21
14.1517919895802
 31
0.0
  0
LINE
  5
3E9
330
2
100
AcDbEntity
  8
GAIKEI
 48
0.181462
100
AcDbLine
 10
-6.143681254069122
 20
14.1517919895802
 30
0.0
 11
-5.41783285406916
 21
14.1517919895802
 31
0.0
  0
ARC
  5
3EA
330
2
100
AcDbEntity
  8
GAIKEI
 62
     1
100
AcDbCircle
 10
19.53062806580948
 20
9.023348089580224
 30
0.0
 40
0.0134081
100
AcDbArc
 50
340.1461249999997
 51
1.729934999999987
  0
LINE
  5
3EB
330
2
100
AcDbEntity
  8
GAIKEI
 62
     1
 48
0.001977
100
AcDbLine
 10
15.41112126580947
 20
13.33632568958023
 30
0.0
 11
15.4095160658095
 21
13.34407108958021
 31
0.0
  0
LINE
  5
3EC
330
2
100
AcDbEntity
  8
GAIKEI
 62
     1
 48
0.002634
100
AcDbLine
 10
15.4129461658095
 20
13.33392398958023
 30
0.0
 11
15.41019356580949
 21
13.34409238958022
 31
0.0
  0
ARC
  5
3ED
330
2
100
AcDbEntity
  8
GAIKEI
 62
     1
100
AcDbCircle
 10
19.54126656580951
 20
13.63399418958022
 30
0.0
 40
4.850000399999999
100
AcDbArc
 50
287.1417529999987
 51
356.571993
  0
ARC
  5
3EE
330
2
100
AcDbEntity
  8
GAIKEI
 62
     1
100
AcDbCircle
 10
19.54126656580951
 20
13.63399418958022
 30
0.0
 40
4.615182899999999
100
AcDbArc
 50
254.4147099999968
 51
259.7197189999973
  0
ARC
  5
3EF
330
2
100
AcDbEntity
  8
GAIKEI
 62
     1
100
AcDbCircle
 10
19.05413276580947
 20
12.4451971895802
 30
0.0
 40
3.314604899999999
100
AcDbArc
 50
229.6576539999983
 51
236.8225489999979
  0
ARC
  5
3F0
330
2
100
AcDbEntity
  8
GAIKEI
 62
     1
100
AcDbCircle
 10
19.54965276580947
 20
12.97247068958023
 30
0.0
 40
4.041513799999999
100
AcDbArc
 50
198.3425599999991
 51
206.8669359999994
  0
ARC
  5
3F1
330
2
100
AcDbEntity
  8
GAIKEI
 62
     1
100
AcDbCircle
 10
19.49700386580952
 20
12.9475591895802
 30
0.0
 40
3.9841419
100
AcDbArc
 50
225.5437329999995
 51
229.4801209999978
  0
ARC
  5
3F2
330
2
100
AcDbEntity
  8
GAIKEI
 62
     1
100
AcDbCircle
 10
20.94126656580948
 20
9.095015589580214
 30
0.0
 40
0.1000195
100
AcDbArc
 50
269.0286380000033
 51
287.139977000002
  0
LINE
  5
3F3
330
2
100
AcDbEntity
  8
GAIKEI
 62
     1
 48
0.349363
100
AcDbLine
 10
19.54232246580949
 20
9.018825389580229
 30
0.0
 11
20.93956976580949
 21
8.995010989580237
 31
0.0
  0
ARC
  5
3F4
330
2
100
AcDbEntity
  8
GAIKEI
 62
     1
100
AcDbCircle
 10
19.54126656580951
 20
13.63399418958022
 30
0.0
 40
4.615182899999999
100
AcDbArc
 50
259.7197189999973
 51
270.0239060000003
  0
ARC
  5
3F5
330
2
100
AcDbEntity
  8
GAIKEI
100
AcDbCircle
 10
19.54126656580951
 20
13.63399418958022
 30
0.0
 40
5.2700001
100
AcDbArc
 50
183.1545039999998
 51
269.9999969999958
  0
ARC
  5
3F6
330
2
100
AcDbEntity
  8
GAIKEI
100
AcDbCircle
 10
19.54126656580951
 20
13.63399418958022
 30
0.0
 40
5.2700001
100
AcDbArc
 50
269.9999969999958
 51
356.8454879999996
  0
LINE
  5
3F7
330
2
100
AcDbEntity
  8
GAIKEI
 62
     7
 48
0.005042
100
AcDbLine
 10
26.0812689658095
 20
14.12975218958024
 30
0.0
 11
26.10126406580952
 21
14.13239198958024
 31
0.0
  0
ARC
  5
3F8
330
2
100
AcDbEntity
  8
GAIKEI
100
AcDbCircle
 10
26.28790346580951
 20
12.64403138958022
 30
0.0
 40
1.500022099999999
100
AcDbArc
 50
97.91796799999717
 51
112.1947440000017
  0
LINE
  5
3F9
330
2
100
AcDbEntity
  8
GAIKEI
 62
     7
 48
0.005417
100
AcDbLine
 10
25.70126406580949
 20
14.02456118958025
 30
0.0
 11
25.7212591658095
 21
14.03290778958023
 31
0.0
  0
LINE
  5
3FA
330
2
100
AcDbEntity
  8
GAIKEI
100
AcDbLine
 10
14.18026186580948
 20
13.34399478958022
 30
0.0
 11
24.90227116580951
 21
13.34399478958022
 31
0.0
  0
ARC
  5
3FB
330
2
100
AcDbEntity
  8
GAIKEI
100
AcDbCircle
 10
12.85078186580949
 20
12.7371252895802
 30
0.0
 40
1.3932857
100
AcDbArc
 50
61.96198000000162
 51
70.35620100000262
  0
ARC
  5
3FC
330
2
100
AcDbEntity
  8
GAIKEI
100
AcDbCircle
 10
12.8953985658095
 20
12.82192748958022
 30
0.0
 40
1.297427899999999
100
AcDbArc
 50
52.09435499999966
 51
61.94083399999863
  0
LINE
  5
3FD
330
2
100
AcDbEntity
  8
GAIKEI
100
AcDbLine
 10
12.64126656580947
 20
16.19399478958024
 30
0.0
 11
26.44126656580949
 21
16.19399478958024
 31
0.0
  0
LINE
  5
3FE
330
2
100
AcDbEntity
  8
GAIKEI
 62
     1
 48
0.003186
100
AcDbLine
 10
26.10126406580952
 20
14.13239198958024
 30
0.0
 11
26.10126406580952
 21
14.11964788958022
 31
0.0
  0
ARC
  5
3FF
330
2
100
AcDbEntity
  8
GAIKEI
 62
     1
100
AcDbCircle
 10
26.0812689658095
 20
14.11964788958022
 30
0.0
 40
0.02
100
AcDbArc
 50
277.9733179999993
 51
0.0000099999999887
  0
ARC
  5
400
330
2
100
AcDbEntity
  8
GAIKEI
 62
     1
100
AcDbCircle
 10
26.2879461658095
 20
12.6440527895802
 30
0.0
 40
1.469999999999999
100
AcDbArc
 50
97.97333399999562
 51
112.3536819999975
  0
ARC
  5
401
330
2
100
AcDbEntity
  8
GAIKEI
 62
     1
100
AcDbCircle
 10
25.72126526580951
 20
14.02208618958025
 30
0.0
 40
0.02
100
AcDbArc
 50
172.6942657799397
 51
292.3536800000009
  0
ARC
  5
402
330
2
100
AcDbEntity
  8
GAIKEI
100
AcDbCircle
 10
26.2879461658095
 20
12.6440527895802
 30
0.0
 40
1.5
100
AcDbArc
 50
113.024256
 51
150.0024430000007
  0
ARC
  5
403
330
2
100
AcDbEntity
  8
GAIKEI
100
AcDbCircle
 10
26.2879461658095
 20
12.6440527895802
 30
0.0
 40
1.5
100
AcDbArc
 50
90.55061099999672
 51
97.14922999999737
  0
ARC
  5
404
330
2
100
AcDbEntity
  8
GAIKEI
100
AcDbCircle
 10
24.90227116580951
 20
13.44399478958024
 30
0.0
 40
0.1
100
AcDbArc
 50
269.9999969999958
 51
330.0024449999992
  0
ARC
  5
405
330
2
100
AcDbEntity
  8
GAIKEI
100
AcDbCircle
 10
14.18026186580948
 20
13.44399478958024
 30
0.0
 40
0.1
100
AcDbArc
 50
209.9975569999993
 51
269.9999969999958
  0
ARC
  5
406
330
2
100
AcDbEntity
  8
GAIKEI
100
AcDbCircle
 10
12.79458686580949
 20
12.6440527895802
 30
0.0
 40
1.5
100
AcDbArc
 50
29.99755500000058
 51
53.23018200000155
  0
ARC
  5
407
330
2
100
AcDbEntity
  8
GAIKEI
100
AcDbCircle
 10
12.79458686580949
 20
12.64405578958025
 30
0.0
 40
1.499996099999999
100
AcDbArc
 50
69.5296799999995
 51
89.44941400000068
  0
ARC
  5
408
330
2
100
AcDbEntity
  8
GAIKEI
100
AcDbCircle
 10
12.8092901658095
 20
14.1739813895802
 30
0.0
 40
0.03
100
AcDbArc
 50
183.9068769999998
 51
269.4493070000031
  0
ARC
  5
409
330
2
100
AcDbEntity
  8
GAIKEI
100
AcDbCircle
 10
26.27324286580949
 20
14.1739813895802
 30
0.0
 40
0.03
100
AcDbArc
 50
270.550695000001
 51
356.0931180000001
  0
LINE
  5
40A
330
2
100
AcDbEntity
  8
GAIKEI
100
AcDbLine
 10
12.7793585658095
 20
14.1719366895802
 30
0.0
 11
12.64126656580947
 21
16.19399478958024
 31
0.0
  0
LINE
  5
40B
330
2
100
AcDbEntity
  8
GAIKEI
100
AcDbLine
 10
26.30317446580949
 20
14.1719366895802
 30
0.0
 11
26.44126656580949
 21
16.19399478958024
 31
0.0
  0
ARC
  5
40C
330
2
100
AcDbEntity
  8
GAIKEI
100
AcDbCircle
 10
12.85369936580952
 20
12.74455628958026
 30
0.0
 40
1.3850569
100
AcDbArc
 50
61.9179120000013
 51
69.62346499999899
  0
ARC
  5
40D
330
2
100
AcDbEntity
  8
GAIKEI
100
AcDbCircle
 10
12.89527346580951
 20
12.82341978958021
 30
0.0
 40
1.2958783
100
AcDbArc
 50
53.07405899999878
 51
61.89822199999873
  0
ARC
  5
40E
330
2
100
AcDbEntity
  8
GAIKEI
100
AcDbCircle
 10
12.79458686580949
 20
12.6440527895802
 30
0.0
 40
1.5
100
AcDbArc
 50
54.11572600000219
 51
68.84338899999733
  0
LINE
  5
40F
330
2
100
AcDbEntity
  8
GAIKEI
 48
0.000139
100
AcDbLine
 10
13.67381046580948
 20
13.8593572895802
 30
0.0
 11
13.67381656580949
 21
13.85991278958022
 31
0.0
  0
LINE
  5
410
330
2
100
AcDbEntity
  8
GAIKEI
 48
0.000062
100
AcDbLine
 10
13.33596256580949
 20
14.04294798958023
 30
0.0
 11
13.3359595658095
 21
14.04319518958021
 31
0.0
  0
LINE
  5
411
330
2
100
AcDbEntity
  8
GAIKEI
 62
     1
 48
0.004329
100
AcDbLine
 10
14.81173776580948
 20
17.7539922895802
 30
0.0
 11
14.8290533658095
 21
17.7539922895802
 31
0.0
  0
ARC
  5
412
330
2
100
AcDbEntity
  8
GAIKEI
 62
     1
100
AcDbCircle
 10
14.80719056580949
 20
17.86973028958022
 30
0.0
 40
0.2057356
100
AcDbArc
 50
265.3046729999987
 51
269.9982759999969
  0
ARC
  5
413
330
2
100
AcDbEntity
  8
GAIKEI
 62
     1
100
AcDbCircle
 10
14.81420356580952
 20
17.8707464895802
 30
0.0
 40
0.2067526
100
AcDbArc
 50
270.0157889999963
 51
279.8208809999984
  0
ARC
  5
414
330
2
100
AcDbEntity
  8
GAIKEI
 62
     1
100
AcDbCircle
 10
14.81427676580949
 20
17.8700292895802
 30
0.0
 40
0.2060346
100
AcDbArc
 50
263.3158719999984
 51
269.9950180000044
  0
LINE
  5
415
330
2
100
AcDbEntity
  8
GAIKEI
 62
     1
 48
0.001768
100
AcDbLine
 10
14.80718446580948
 20
17.66399298958021
 30
0.0
 11
14.81425846580947
 21
17.66399298958021
 31
0.0
  0
LINE
  5
416
330
2
100
AcDbEntity
  8
GAIKEI
 62
     1
 48
0.001613
100
AcDbLine
 10
14.81612006580951
 20
17.58399418958021
 30
0.0
 11
14.82257146580951
 21
17.58399418958021
 31
0.0
  0
LINE
  5
417
330
2
100
AcDbEntity
  8
GAIKEI
 62
     1
 48
0.01469
100
AcDbLine
 10
14.79044866580949
 20
17.66199408958022
 30
0.0
 11
14.8492071658095
 21
17.66199408958022
 31
0.0
  0
LINE
  5
418
330
2
100
AcDbEntity
  8
GAIKEI
 62
     1
 48
0.422923
100
AcDbLine
 10
16.77647766580952
 20
17.19399478958024
 30
0.0
 11
15.08478456580951
 21
17.19399478958024
 31
0.0
  0
LINE
  5
419
330
2
100
AcDbEntity
  8
GAIKEI
 62
     1
 48
0.422861
100
AcDbLine
 10
16.77647766580952
 20
17.21399298958022
 30
0.0
 11
15.08503486580952
 21
17.21399298958022
 31
0.0
  0
LINE
  5
41A
330
2
100
AcDbEntity
  8
GAIKEI
 62
     1
 48
0.4221210000000001
100
AcDbLine
 10
16.77647766580952
 20
17.45399228958024
 30
0.0
 11
15.08799506580948
 21
17.45399228958024
 31
0.0
  0
LINE
  5
41B
330
2
100
AcDbEntity
  8
GAIKEI
 62
     1
 48
0.041067
100
AcDbLine
 10
14.08637146580952
 20
17.62901368958023
 30
0.0
 11
14.24868226580952
 21
17.60373288958021
 31
0.0
  0
LINE
  5
41C
330
2
100
AcDbEntity
  8
GAIKEI
 62
     1
 48
0.041067
100
AcDbLine
 10
14.08637146580952
 20
17.81897338958021
 30
0.0
 11
14.24868226580952
 21
17.84425418958022
 31
0.0
  0
ELLIPSE
  5
41D
330
2
100
AcDbEntity
  8
GAIKEI
 62
     1
100
AcDbEllipse
 10
13.9940130658095
 20
17.72399358958023
 30
0.0
 11
0.0
 21
0.0899993896484375
 31
0.0
210
0.0
220
0.0
230
1.0
 40
0.7071069999999998
 41
0.7944537997245789
 42
2.347138881683349
  0
ARC
  5
41E
330
2
100
AcDbEntity
  8
GAIKEI
 62
     1
100
AcDbCircle
 10
13.9945257658095
 20
17.76731628958021
 30
0.0
 40
0.0467359
100
AcDbArc
 50
90.1460999999986
 51
98.51089600000067
  0
ELLIPSE
  5
41F
330
2
100
AcDbEntity
  8
GAIKEI
 62
     1
100
AcDbEllipse
 10
13.99641176580951
 20
17.72102418958025
 30
0.0
 11
0.003765869140625
 21
-0.0929931640625
 31
0.0
210
0.0
220
0.0
230
1.0
 40
0.7085600000000002
 41
3.218225240707397
 42
3.894513845443725
  0
ELLIPSE
  5
420
330
2
100
AcDbEntity
  8
GAIKEI
 62
     1
100
AcDbEllipse
 10
13.99641176580951
 20
17.72696288958025
 30
0.0
 11
-0.003765869140625
 21
-0.0929931640625
 31
0.0
210
0.0
220
0.0
230
1.0
 40
0.7085600000000002
 41
5.530263900756835
 42
6.206552505493164
  0
ARC
  5
421
330
2
100
AcDbEntity
  8
GAIKEI
 62
     1
100
AcDbCircle
 10
13.9945257658095
 20
17.68067078958023
 30
0.0
 40
0.0467359
100
AcDbArc
 50
261.4891039999993
 51
269.8539000000014
  0
LINE
  5
422
330
2
100
AcDbEntity
  8
GAIKEI
 62
     1
 48
0.041067
100
AcDbLine
 10
14.08637146580952
 20
17.62901368958023
 30
0.0
 11
14.24868226580952
 21
17.60373288958021
 31
0.0
  0
ARC
  5
423
330
2
100
AcDbEntity
  8
GAIKEI
 62
     1
100
AcDbCircle
 10
13.9945257658095
 20
17.7673010895802
 30
0.0
 40
0.046752
100
AcDbArc
 50
90.14726800000039
 51
98.98566300000133
  0
ELLIPSE
  5
424
330
2
100
AcDbEntity
  8
GAIKEI
 62
     1
100
AcDbEllipse
 10
13.9940130658095
 20
17.72399358958023
 30
0.0
 11
0.0
 21
0.0899993896484375
 31
0.0
210
0.0
220
0.0
230
1.0
 40
0.7071069999999998
 41
0.7944537997245789
 42
2.347138881683349
  0
LINE
  5
425
330
2
100
AcDbEntity
  8
GAIKEI
 62
     1
 48
0.000097
100
AcDbLine
 10
13.9872259658095
 20
17.63450988958021
 30
0.0
 11
13.98761056580952
 21
17.6344488895802
 31
0.0
  0
ARC
  5
426
330
2
100
AcDbEntity
  8
GAIKEI
 62
     1
100
AcDbCircle
 10
13.9945257658095
 20
17.6806860895802
 30
0.0
 40
0.046752
100
AcDbArc
 50
261.0143369999987
 51
269.8527319999996
  0
LINE
  5
427
330
2
100
AcDbEntity
  8
GAIKEI
 62
     1
 48
0.041067
100
AcDbLine
 10
14.08637146580952
 20
17.81897338958021
 30
0.0
 11
14.24868226580952
 21
17.84425418958022
 31
0.0
  0
LINE
  5
428
330
2
100
AcDbEntity
  8
GAIKEI
 62
     1
 48
0.031821
100
AcDbLine
 10
14.22028876580947
 20
17.57399358958025
 30
0.0
 11
14.0930060658095
 21
17.57399358958025
 31
0.0
  0
ELLIPSE
  5
429
330
2
100
AcDbEntity
  8
GAIKEI
 62
     1
100
AcDbEllipse
 10
14.0930060658095
 20
17.72399358958023
 30
0.0
 11
0.0
 21
0.15
 31
0.0
210
0.0
220
0.0
230
1.0
 40
0.7071069999999999
 41
6.283185482025146
 42
6.335617542266845
  0
ELLIPSE
  5
42A
330
2
100
AcDbEntity
  8
GAIKEI
 62
     1
100
AcDbEllipse
 10
14.0930060658095
 20
17.72399358958023
 30
0.0
 11
0.0
 21
0.15
 31
0.0
210
0.0
220
0.0
230
1.0
 40
0.7071069999999999
 41
3.089160680770873
 42
3.141592741012572
  0
LINE
  5
42B
330
2
100
AcDbEntity
  8
GAIKEI
 62
     1
 48
0.031821
100
AcDbLine
 10
14.22028876580947
 20
17.87399358958021
 30
0.0
 11
14.0930060658095
 21
17.87399358958021
 31
0.0
  0
ELLIPSE
  5
42C
330
2
100
AcDbEntity
  8
GAIKEI
 62
     1
100
AcDbEllipse
 10
13.98694526580948
 20
17.72399358958023
 30
0.0
 11
0.0
 21
0.083160400390625
 31
0.0
210
0.0
220
0.0
230
1.0
 40
0.7071069999999997
 41
0.0035262554883957
 42
0.7100985050201416
  0
ELLIPSE
  5
42D
330
2
100
AcDbEntity
  8
GAIKEI
 62
     1
100
AcDbEllipse
 10
14.02229676580947
 20
17.80715398958023
 30
0.0
 11
0.0
 21
-0.05
 31
0.0
210
0.0
220
0.0
230
1.0
 40
0.7071069999999999
 41
4.58556318283081
 42
4.712388992309569
  0
ELLIPSE
  5
42E
330
2
100
AcDbEntity
  8
GAIKEI
 62
     1
100
AcDbEllipse
 10
13.98694526580948
 20
17.72399358958023
 30
0.0
 11
0.0
 21
0.083160400390625
 31
0.0
210
0.0
220
0.0
230
1.0
 40
0.7071069999999997
 41
2.431494235992432
 42
3.138067007064819
  0
ELLIPSE
  5
42F
330
2
100
AcDbEntity
  8
GAIKEI
 62
     1
100
AcDbEllipse
 10
14.02229676580947
 20
17.64083318958023
 30
0.0
 11
0.0
 21
0.05
 31
0.0
210
0.0
220
0.0
230
1.0
 40
0.7071069999999999
 41
1.570796370506286
 42
1.697622060775756
  0
LINE
  5
430
330
2
100
AcDbEntity
  8
GAIKEI
 62
     1
 48
0.05703
100
AcDbLine
 10
13.85993716580947
 20
17.85690368958023
 30
0.0
 11
14.08743356580948
 21
17.87378598958025
 31
0.0
  0
LINE
  5
431
330
2
100
AcDbEntity
  8
GAIKEI
 62
     1
 48
0.05703
100
AcDbLine
 10
13.85993716580947
 20
17.5910833895802
 30
0.0
 11
14.08743356580948
 21
17.57420108958024
 31
0.0
  0
LINE
  5
432
330
2
100
AcDbEntity
  8
GAIKEI
100
AcDbLine
 10
15.92244326580948
 20
16.46399298958022
 30
0.0
 11
27.08952096580947
 21
16.46399298958022
 31
0.0
  0
LINE
  5
433
330
2
100
AcDbEntity
  8
GAIKEI
100
AcDbLine
 10
11.99301216580949
 20
16.46399298958022
 30
0.0
 11
15.92244326580948
 21
16.46399298958022
 31
0.0
  0
LINE
  5
434
330
2
100
AcDbEntity
  8
GAIKEI
 62
     1
 48
0.038892
100
AcDbLine
 10
14.16372136580952
 20
17.89399478958023
 30
0.0
 11
14.00815496580946
 21
17.89399478958023
 31
0.0
  0
ELLIPSE
  5
435
330
2
100
AcDbEntity
  8
GAIKEI
 62
     1
100
AcDbEllipse
 10
14.16372136580952
 20
17.72399358958023
 30
0.0
 11
0.0
 21
0.170001220703125
 31
0.0
210
0.0
220
0.0
230
1.0
 40
0.7071069999999998
 41
3.141592741012572
 42
6.283185482025146
  0
LINE
  5
436
330
2
100
AcDbEntity
  8
GAIKEI
 62
     1
 48
0.038892
100
AcDbLine
 10
14.16372136580952
 20
17.55399228958021
 30
0.0
 11
14.00815496580946
 21
17.55399228958021
 31
0.0
  0
ELLIPSE
  5
437
330
2
100
AcDbEntity
  8
GAIKEI
 62
     1
100
AcDbEllipse
 10
14.09077216580948
 20
17.72399048958021
 30
0.0
 11
-0.004193115234375
 21
-0.169970703125
 31
0.0
210
0.0
220
0.0
230
1.0
 40
0.706896
 41
5.755171298980712
 42
6.300624370574951
  0
ELLIPSE
  5
438
330
2
100
AcDbEntity
  8
GAIKEI
 62
     1
100
AcDbEllipse
 10
14.09077216580948
 20
17.72399358958023
 30
0.0
 11
-0.004193115234375
 21
-0.1699737548828125
 31
0.0
210
0.0
220
0.0
230
1.0
 40
0.706894
 41
3.159038305282592
 42
3.701916217803955
  0
ELLIPSE
  5
439
330
2
100
AcDbEntity
  8
GAIKEI
 62
     1
100
AcDbEllipse
 10
14.00815496580946
 20
17.72399358958023
 30
0.0
 11
0.0
 21
0.170001220703125
 31
0.0
210
0.0
220
0.0
230
1.0
 40
0.7071069999999998
 41
2.525622367858886
 42
3.141592741012572
  0
ELLIPSE
  5
43A
330
2
100
AcDbEntity
  8
GAIKEI
 62
     1
100
AcDbEllipse
 10
14.00815496580946
 20
17.72399358958023
 30
0.0
 11
0.0
 21
0.170001220703125
 31
0.0
210
0.0
220
0.0
230
1.0
 40
0.7071069999999998
 41
0.0
 42
0.615971326828003
  0
LINE
  5
43B
330
2
100
AcDbEntity
  8
GAIKEI
 62
     1
 48
0.03889
100
AcDbLine
 10
14.0930060658095
 20
17.99399478958025
 30
0.0
 11
13.93744576580951
 21
17.99399478958025
 31
0.0
  0
ELLIPSE
  5
43C
330
2
100
AcDbEntity
  8
GAIKEI
 62
     1
100
AcDbEllipse
 10
14.0930060658095
 20
17.72399358958023
 30
0.0
 11
0.0
 21
0.2700012207031249
 31
0.0
210
0.0
220
0.0
230
1.0
 40
0.7071069999999999
 41
3.141592979431152
 42
6.283185482025146
  0
LINE
  5
43D
330
2
100
AcDbEntity
  8
GAIKEI
 62
     1
 48
0.03889
100
AcDbLine
 10
14.0930060658095
 20
17.45399228958024
 30
0.0
 11
13.93744576580951
 21
17.45399228958024
 31
0.0
  0
ELLIPSE
  5
43E
330
2
100
AcDbEntity
  8
GAIKEI
 62
     1
100
AcDbEllipse
 10
13.93744576580951
 20
17.72399358958023
 30
0.0
 11
0.0
 21
0.2700012207031249
 31
0.0
210
0.0
220
0.0
230
1.0
 40
0.7071069999999999
 41
0.0000002125636058
 42
3.141592741012572
  0
ELLIPSE
  5
43F
330
2
100
AcDbEntity
  8
GAIKEI
 62
     1
100
AcDbEllipse
 10
17.07061226580947
 20
17.67399358958022
 30
0.0
 11
-0.003082275390625
 21
-0.1249816894531252
 31
0.0
210
0.0
220
0.0
230
1.0
 40
0.706896
 41
4.729841232299804
 42
5.583773612976073
  0
ELLIPSE
  5
440
330
2
100
AcDbEntity
  8
GAIKEI
 62
     1
100
AcDbEllipse
 10
16.95325386580947
 20
17.67399358958022
 30
0.0
 11
0.0
 21
0.125
 31
0.0
210
0.0
220
0.0
230
1.0
 40
0.7071069999999999
 41
0.0
 42
3.141592741012572
  0
ELLIPSE
  5
441
330
2
100
AcDbEntity
  8
GAIKEI
 62
     1
100
AcDbEllipse
 10
16.95325386580947
 20
17.67399358958022
 30
0.0
 11
0.0
 21
0.125
 31
0.0
210
0.0
220
0.0
230
1.0
 40
0.7071069999999999
 41
3.141592741012572
 42
4.712388992309569
  0
ELLIPSE
  5
442
330
2
100
AcDbEntity
  8
GAIKEI
 62
     1
100
AcDbEllipse
 10
17.07060616580946
 20
17.67399358958022
 30
0.0
 11
-0.003082275390625
 21
-0.1249786376953125
 31
0.0
210
0.0
220
0.0
230
1.0
 40
0.7068860000000001
 41
3.893373727798461
 42
4.729842185974121
  0
ELLIPSE
  5
443
330
2
100
AcDbEntity
  8
GAIKEI
 62
     1
100
AcDbEllipse
 10
16.95325386580947
 20
17.67399358958022
 30
0.0
 11
0.0
 21
0.125
 31
0.0
210
0.0
220
0.0
230
1.0
 40
0.7071069999999999
 41
4.712388992309569
 42
6.283185482025146
  0
ELLIPSE
  5
444
330
2
100
AcDbEntity
  8
GAIKEI
 62
     1
100
AcDbEllipse
 10
16.91790226580946
 20
17.67399358958022
 30
0.0
 11
0.0
 21
0.175
 31
0.0
210
0.0
220
0.0
230
1.0
 40
0.7071069999999999
 41
4.712388038635253
 42
10.99557304382324
  0
ELLIPSE
  5
445
330
2
100
AcDbEntity
  8
GAIKEI
 62
     1
100
AcDbEllipse
 10
14.87857736580946
 20
17.67399358958022
 30
0.0
 11
-0.003082275390625
 21
-0.1249816894531252
 31
0.0
210
0.0
220
0.0
230
1.0
 40
0.706896
 41
4.729841232299804
 42
5.583773612976073
  0
ELLIPSE
  5
446
330
2
100
AcDbEntity
  8
GAIKEI
 62
     1
100
AcDbEllipse
 10
14.76122506580947
 20
17.67399358958022
 30
0.0
 11
0.0
 21
0.125
 31
0.0
210
0.0
220
0.0
230
1.0
 40
0.7071069999999999
 41
0.0
 42
3.141592741012572
  0
ELLIPSE
  5
447
330
2
100
AcDbEntity
  8
GAIKEI
 62
     1
100
AcDbEllipse
 10
14.76122506580947
 20
17.67399358958022
 30
0.0
 11
0.0
 21
0.125
 31
0.0
210
0.0
220
0.0
230
1.0
 40
0.7071069999999999
 41
3.141592741012572
 42
4.712388992309569
  0
ELLIPSE
  5
448
330
2
100
AcDbEntity
  8
GAIKEI
 62
     1
100
AcDbEllipse
 10
14.87857736580946
 20
17.67399358958022
 30
0.0
 11
-0.003082275390625
 21
-0.1249786376953125
 31
0.0
210
0.0
220
0.0
230
1.0
 40
0.7068860000000001
 41
3.893373727798461
 42
4.729842185974121
  0
ELLIPSE
  5
449
330
2
100
AcDbEntity
  8
GAIKEI
 62
     1
100
AcDbEllipse
 10
14.76122506580947
 20
17.67399358958022
 30
0.0
 11
0.0
 21
0.125
 31
0.0
210
0.0
220
0.0
230
1.0
 40
0.7071069999999999
 41
4.712388992309569
 42
6.283185482025146
  0
ELLIPSE
  5
44A
330
2
100
AcDbEntity
  8
GAIKEI
 62
     1
100
AcDbEllipse
 10
14.7258673658095
 20
17.67399358958022
 30
0.0
 11
0.0
 21
0.175
 31
0.0
210
0.0
220
0.0
230
1.0
 40
0.7071069999999999
 41
4.712388038635253
 42
10.99557304382324
  0
LINE
  5
44B
330
2
100
AcDbEntity
  8
GAIKEI
 62
     1
 48
0.024567
100
AcDbLine
 10
19.9441046658095
 20
19.72661198958025
 30
0.0
 11
19.94581976580952
 21
19.82486638958022
 31
0.0
  0
LINE
  5
44C
330
2
100
AcDbEntity
  8
GAIKEI
 62
     1
 48
0.040661
100
AcDbLine
 10
19.94126656580948
 20
19.56399298958024
 30
0.0
 11
19.9441046658095
 21
19.72661198958025
 31
0.0
  0
ARC
  5
44D
330
2
100
AcDbEntity
  8
GAIKEI
 62
     1
100
AcDbCircle
 10
19.99581366580946
 20
19.82399358958025
 30
0.0
 40
0.05
100
AcDbArc
 50
90.00000299999769
 51
178.999997
  0
LINE
  5
44E
330
2
100
AcDbEntity
  8
GAIKEI
 62
     1
 48
0.040661
100
AcDbLine
 10
17.74126656580949
 20
19.56399298958024
 30
0.0
 11
17.73842836580951
 21
19.72661198958025
 31
0.0
  0
LINE
  5
44F
330
2
100
AcDbEntity
  8
GAIKEI
 62
     1
 48
0.024501
100
AcDbLine
 10
17.73842836580951
 20
19.72661198958025
 30
0.0
 11
17.7367193658095
 21
19.82460088958021
 31
0.0
  0
LINE
  5
450
330
2
100
AcDbEntity
  8
GAIKEI
 62
     1
 48
0.146321
100
AcDbLine
 10
19.41052926580949
 20
19.87399358958021
 30
0.0
 11
19.99581366580946
 21
19.87399358958021
 31
0.0
  0
LINE
  5
451
330
2
100
AcDbEntity
  8
GAIKEI
 62
     1
 48
0.300459
100
AcDbLine
 10
17.68674386580949
 20
19.87399358958021
 30
0.0
 11
18.88858096580952
 21
19.87399358958021
 31
0.0
  0
LINE
  5
452
330
2
100
AcDbEntity
  8
GAIKEI
 62
     1
 48
0.088177
100
AcDbLine
 10
18.88855656580949
 20
19.87399358958021
 30
0.0
 11
19.2412665658095
 21
19.87399358958021
 31
0.0
  0
LINE
  5
453
330
2
100
AcDbEntity
  8
GAIKEI
 62
     1
 48
0.067993
100
AcDbLine
 10
19.2412665658095
 20
19.87399358958021
 30
0.0
 11
19.51323916580946
 21
19.87399358958021
 31
0.0
  0
LINE
  5
454
330
2
100
AcDbEntity
  8
GAIKEI
 62
     1
 48
0.058893
100
AcDbLine
 10
17.45117256580948
 20
19.87399358958021
 30
0.0
 11
17.68674386580949
 21
19.87399358958021
 31
0.0
  0
LINE
  5
455
330
2
100
AcDbEntity
  8
GAIKEI
 62
     1
100
AcDbLine
 10
13.62691106580951
 20
19.87399358958021
 30
0.0
 11
17.45117256580948
 21
19.87399358958021
 31
0.0
  0
LINE
  5
456
330
2
100
AcDbEntity
  8
GAIKEI
 62
     1
 48
0.089613
100
AcDbLine
 10
13.26846076580949
 20
19.87399358958021
 30
0.0
 11
13.62691106580951
 21
19.87399358958021
 31
0.0
  0
LINE
  5
457
330
2
100
AcDbEntity
  8
GAIKEI
 62
     1
100
AcDbLine
 10
17.73892276580949
 20
19.56399298958024
 30
0.0
 11
19.94144356580949
 21
19.56399298958024
 31
0.0
  0
LINE
  5
458
330
2
100
AcDbEntity
  8
GAIKEI
 62
     1
100
AcDbLine
 10
12.79565496580949
 20
16.61399298958019
 30
0.0
 11
16.30724556580952
 21
16.61399298958019
 31
0.0
  0
LINE
  5
459
330
2
100
AcDbEntity
  8
GAIKEI
 62
     1
100
AcDbLine
 10
16.30724556580952
 20
16.61399298958019
 30
0.0
 11
26.28687806580951
 21
16.61399298958019
 31
0.0
  0
LINE
  5
45A
330
2
100
AcDbEntity
  8
GAIKEI
 62
     1
 48
0.014423
100
AcDbLine
 10
25.8823736658095
 20
17.52399358958024
 30
0.0
 11
25.94006416580948
 21
17.52399358958024
 31
0.0
  0
ARC
  5
45B
330
2
100
AcDbEntity
  8
GAIKEI
 62
     1
100
AcDbCircle
 10
25.93936836580951
 20
17.47014838958023
 30
0.0
 40
0.0538989
100
AcDbArc
 50
5.024945999999637
 51
86.0332949999975
  0
LINE
  5
45C
330
2
100
AcDbEntity
  8
GAIKEI
 62
     1
 48
0.000757
100
AcDbLine
 10
25.94006416580948
 20
17.52399358958024
 30
0.0
 11
25.94309146580952
 21
17.52399358958024
 31
0.0
  0
ARC
  5
45D
330
2
100
AcDbEntity
  8
GAIKEI
 62
     1
100
AcDbCircle
 10
25.83278876580948
 20
17.48365848958025
 30
0.0
 40
0.0502654
100
AcDbArc
 50
349.925585
 51
0.8942449999999386
  0
ARC
  5
45E
330
2
100
AcDbEntity
  8
GAIKEI
 62
     1
100
AcDbCircle
 10
23.54126656580951
 20
19.82399358958025
 30
0.0
 40
0.05
100
AcDbArc
 50
0.0
 51
90.00000299999769
  0
LINE
  5
45F
330
2
100
AcDbEntity
  8
GAIKEI
 62
     1
 48
0.217937
100
AcDbLine
 10
23.54126656580951
 20
19.87399358958021
 30
0.0
 11
22.6695196658095
 21
19.87399358958021
 31
0.0
  0
LINE
  5
460
330
2
100
AcDbEntity
  8
GAIKEI
 62
     1
 48
0.024564
100
AcDbLine
 10
22.57126526580947
 20
19.87399358958021
 30
0.0
 11
22.6695196658095
 21
19.87399358958021
 31
0.0
  0
ARC
  5
461
330
2
100
AcDbEntity
  8
GAIKEI
 62
     1
100
AcDbCircle
 10
23.64126656580948
 20
17.8960729895802
 30
0.0
 40
0.05
100
AcDbArc
 50
180.0000050000001
 51
269.0000059999955
  0
LINE
  5
462
330
2
100
AcDbEntity
  8
GAIKEI
 62
     1
 48
0.498863
100
AcDbLine
 10
19.99581366580946
 20
19.87399358958021
 30
0.0
 11
21.9912665658095
 21
19.87399358958021
 31
0.0
  0
LINE
  5
463
330
2
100
AcDbEntity
  8
GAIKEI
 62
     1
 48
0.025
100
AcDbLine
 10
23.94126656580949
 20
19.87399358958021
 30
0.0
 11
24.04126656580951
 21
19.87399358958021
 31
0.0
  0
LINE
  5
464
330
2
100
AcDbEntity
  8
GAIKEI
 62
     1
 48
0.1
100
AcDbLine
 10
23.54126656580951
 20
19.87399358958021
 30
0.0
 11
23.94126656580949
 21
19.87399358958021
 31
0.0
  0
LINE
  5
465
330
2
100
AcDbEntity
  8
GAIKEI
 62
     1
 48
0.120436
100
AcDbLine
 10
22.57126526580947
 20
19.87399358958021
 30
0.0
 11
22.08952096580947
 21
19.87399358958021
 31
0.0
  0
LINE
  5
466
330
2
100
AcDbEntity
  8
GAIKEI
 62
     1
 48
0.024564
100
AcDbLine
 10
21.9912665658095
 20
19.87399358958021
 30
0.0
 11
22.08952096580947
 21
19.87399358958021
 31
0.0
  0
ARC
  5
467
330
2
100
AcDbEntity
  8
GAIKEI
 62
     1
100
AcDbCircle
 10
22.57126526580947
 20
19.82399358958025
 30
0.0
 40
0.05
100
AcDbArc
 50
0.0
 51
90.00000299999769
  0
ARC
  5
468
330
2
100
AcDbEntity
  8
GAIKEI
 62
     1
100
AcDbCircle
 10
21.9912665658095
 20
19.82399358958025
 30
0.0
 40
0.05
100
AcDbArc
 50
0.0
 51
90.00000299999769
  0
LINE
  5
469
330
2
100
AcDbEntity
  8
GAIKEI
 62
     1
 48
0.024564
100
AcDbLine
 10
22.04126656580951
 20
19.72573918958022
 30
0.0
 11
22.04126656580951
 21
19.82399358958025
 31
0.0
  0
LINE
  5
46A
330
2
100
AcDbEntity
  8
GAIKEI
 62
     1
 48
0.450653
100
AcDbLine
 10
22.04126656580951
 20
17.9231268895802
 30
0.0
 11
22.04126656580951
 21
19.72573918958022
 31
0.0
  0
ARC
  5
46B
330
2
100
AcDbEntity
  8
GAIKEI
 62
     1
100
AcDbCircle
 10
22.09126656580952
 20
17.9231268895802
 30
0.0
 40
0.05
100
AcDbArc
 50
180.0000050000001
 51
269.0000059999955
  0
LINE
  5
46C
330
2
100
AcDbEntity
  8
GAIKEI
 62
     1
100
AcDbLine
 10
22.0903937658095
 20
17.87313598958025
 30
0.0
 11
25.82906556580951
 21
17.80787718958021
 31
0.0
  0
LINE
  5
46D
330
2
100
AcDbEntity
  8
GAIKEI
 62
     1
 48
0.027493
100
AcDbLine
 10
25.82907776580948
 20
17.80787718958021
 30
0.0
 11
25.93903266580952
 21
17.80595768958022
 31
0.0
  0
LINE
  5
46E
330
2
100
AcDbEntity
  8
GAIKEI
 62
     1
 48
0.002571
100
AcDbLine
 10
25.93903266580952
 20
17.80595768958022
 30
0.0
 11
25.94931706580951
 21
17.8057775895802
 31
0.0
  0
LINE
  5
46F
330
2
100
AcDbEntity
  8
GAIKEI
 62
     1
 48
0.230254
100
AcDbLine
 10
22.62126526580948
 20
18.22399358958023
 30
0.0
 11
23.54213936580948
 21
18.2079199895802
 31
0.0
  0
LINE
  5
470
330
2
100
AcDbEntity
  8
GAIKEI
 62
     1
 48
0.065463
100
AcDbLine
 10
23.59126656580952
 20
18.1579260895802
 30
0.0
 11
23.59126656580952
 21
17.8960729895802
 31
0.0
  0
ARC
  5
471
330
2
100
AcDbEntity
  8
GAIKEI
 62
     1
100
AcDbCircle
 10
23.54126656580951
 20
18.1579260895802
 30
0.0
 40
0.05
100
AcDbArc
 50
0.0
 51
89.0000009999956
  0
LINE
  5
472
330
2
100
AcDbEntity
  8
GAIKEI
 62
     1
 48
0.416517
100
AcDbLine
 10
23.59126656580952
 20
18.1579260895802
 30
0.0
 11
23.59126656580952
 21
19.82399358958025
 31
0.0
  0
LINE
  5
473
330
2
100
AcDbEntity
  8
GAIKEI
 62
     1
 48
0.477747
100
AcDbLine
 10
22.62126526580948
 20
17.91300418958025
 30
0.0
 11
22.62126526580948
 21
19.82399358958025
 31
0.0
  0
ARC
  5
474
330
2
100
AcDbEntity
  8
GAIKEI
 62
     1
100
AcDbCircle
 10
22.6712652658095
 20
17.91300418958025
 30
0.0
 40
0.05
100
AcDbArc
 50
180.0000050000001
 51
269.0000059999955
  0
LINE
  5
475
330
2
100
AcDbEntity
  8
GAIKEI
 62
     1
 48
0.0625
100
AcDbLine
 10
23.84126656580952
 20
19.67399358958022
 30
0.0
 11
23.59126656580952
 21
19.67399358958022
 31
0.0
  0
LINE
  5
476
330
2
100
AcDbEntity
  8
GAIKEI
 62
     1
 48
0.019959
100
AcDbLine
 10
24.04126656580951
 20
19.79415648958024
 30
0.0
 11
24.04126656580951
 21
19.87399358958021
 31
0.0
  0
LINE
  5
477
330
2
100
AcDbEntity
  8
GAIKEI
 62
     1
 48
0.0875
100
AcDbLine
 10
23.94126656580949
 20
19.17399358958022
 30
0.0
 11
23.59126656580952
 21
19.17399358958022
 31
0.0
  0
ARC
  5
478
330
2
100
AcDbEntity
  8
GAIKEI
 62
     1
100
AcDbCircle
 10
23.94126656580949
 20
19.27399358958024
 30
0.0
 40
0.1
100
AcDbArc
 50
270.0000010000014
 51
0.0000099999999887
  0
LINE
  5
479
330
2
100
AcDbEntity
  8
GAIKEI
 62
     1
 48
0.1125
100
AcDbLine
 10
24.04126656580951
 20
19.27399358958024
 30
0.0
 11
24.04126656580951
 21
19.72399358958023
 31
0.0
  0
LINE
  5
47A
330
2
100
AcDbEntity
  8
GAIKEI
 62
     1
 48
0.0175
100
AcDbLine
 10
24.04126656580951
 20
19.79399478958021
 30
0.0
 11
24.04126656580951
 21
19.72399358958023
 31
0.0
  0
ARC
  5
47B
330
2
100
AcDbEntity
  8
GAIKEI
 62
     1
100
AcDbCircle
 10
24.01126776580952
 20
19.79399478958021
 30
0.0
 40
0.03
100
AcDbArc
 50
0.0
 51
90.00000299999769
  0
LINE
  5
47C
330
2
100
AcDbEntity
  8
GAIKEI
 62
     1
 48
0.0625
100
AcDbLine
 10
23.84126656580952
 20
19.37399358958021
 30
0.0
 11
23.59126656580952
 21
19.37399358958021
 31
0.0
  0
LINE
  5
47D
330
2
100
AcDbEntity
  8
GAIKEI
 62
     1
 48
0.0875
100
AcDbLine
 10
23.84126656580952
 20
19.37399358958021
 30
0.0
 11
23.84126656580952
 21
19.72399358958023
 31
0.0
  0
LINE
  5
47E
330
2
100
AcDbEntity
  8
GAIKEI
 62
     1
 48
0.0175
100
AcDbLine
 10
23.84126656580952
 20
19.79399478958021
 30
0.0
 11
23.84126656580952
 21
19.72399358958023
 31
0.0
  0
LINE
  5
47F
330
2
100
AcDbEntity
  8
GAIKEI
 62
     1
 48
0.035001
100
AcDbLine
 10
24.01126776580952
 20
19.82399358958025
 30
0.0
 11
23.87126526580948
 21
19.82399358958025
 31
0.0
  0
ARC
  5
480
330
2
100
AcDbEntity
  8
GAIKEI
 62
     1
100
AcDbCircle
 10
23.87126526580948
 20
19.79399478958021
 30
0.0
 40
0.03
100
AcDbArc
 50
90.00000299999769
 51
180.0000050000001
  0
LINE
  5
481
330
2
100
AcDbEntity
  8
GAIKEI
 62
     1
 48
0.010606
100
AcDbLine
 10
23.87126526580948
 20
19.34399478958022
 30
0.0
 11
23.84126656580952
 21
19.37399358958021
 31
0.0
  0
LINE
  5
482
330
2
100
AcDbEntity
  8
GAIKEI
 62
     1
 48
0.079694
100
AcDbLine
 10
21.4912665658095
 20
19.97399358958023
 30
0.0
 11
21.81004096580949
 21
19.97399358958023
 31
0.0
  0
LINE
  5
483
330
2
100
AcDbEntity
  8
GAIKEI
 62
     1
 48
0.079694
100
AcDbLine
 10
21.17249206580948
 20
19.97399358958023
 30
0.0
 11
21.4912665658095
 21
19.97399358958023
 31
0.0
  0
LINE
  5
484
330
2
100
AcDbEntity
  8
GAIKEI
 62
     1
 48
0.117194
100
AcDbLine
 10
13.84126656580946
 20
19.97399358958023
 30
0.0
 11
14.31004096580949
 21
19.97399358958023
 31
0.0
  0
LINE
  5
485
330
2
100
AcDbEntity
  8
GAIKEI
 62
     1
 48
0.117194
100
AcDbLine
 10
13.37249206580947
 20
19.97399358958023
 30
0.0
 11
13.84126656580946
 21
19.97399358958023
 31
0.0
  0
LINE
  5
486
330
2
100
AcDbEntity
  8
GAIKEI
 62
     1
 48
0.441942
100
AcDbLine
 10
16.77647766580952
 20
17.46399298958022
 30
0.0
 11
15.00871036580946
 21
17.46399298958022
 31
0.0
  0
LINE
  5
487
330
2
100
AcDbEntity
  8
GAIKEI
 62
     1
 48
0.441942
100
AcDbLine
 10
15.00871036580946
 20
17.19399478958024
 30
0.0
 11
16.77647766580952
 21
17.19399478958024
 31
0.0
  0
LINE
  5
488
330
2
100
AcDbEntity
  8
GAIKEI
 62
     1
 48
0.0675
100
AcDbLine
 10
15.00871036580946
 20
17.46399298958022
 30
0.0
 11
15.00871036580946
 21
17.19399478958024
 31
0.0
  0
LINE
  5
489
330
2
100
AcDbEntity
  8
GAIKEI
 62
     1
 48
0.067505
100
AcDbLine
 10
15.08811706580951
 20
17.46399298958022
 30
0.0
 11
15.08478456580951
 21
17.19399478958024
 31
0.0
  0
LINE
  5
48A
330
2
100
AcDbEntity
  8
GAIKEI
 62
     1
 48
0.4772960000000001
100
AcDbLine
 10
14.8672919658095
 20
17.09399478958022
 30
0.0
 11
16.77647766580952
 21
17.09399478958022
 31
0.0
  0
LINE
  5
48B
330
2
100
AcDbEntity
  8
GAIKEI
 62
     1
 48
0.1175
100
AcDbLine
 10
14.8672919658095
 20
17.56399298958024
 30
0.0
 11
14.8672919658095
 21
17.09399478958022
 31
0.0
  0
LINE
  5
48C
330
2
100
AcDbEntity
  8
GAIKEI
 62
     1
 48
0.4772960000000001
100
AcDbLine
 10
16.77647766580952
 20
17.56399298958024
 30
0.0
 11
14.8672919658095
 21
17.56399298958024
 31
0.0
  0
LINE
  5
48D
330
2
100
AcDbEntity
  8
GAIKEI
 62
     1
 48
0.1175
100
AcDbLine
 10
16.77647766580952
 20
17.09399478958022
 30
0.0
 11
16.77647766580952
 21
17.56399298958024
 31
0.0
  0
LINE
  5
48E
330
2
100
AcDbEntity
  8
GAIKEI
 62
     1
 48
0.043301
100
AcDbLine
 10
14.8672919658095
 20
17.09399478958022
 30
0.0
 11
15.00871036580946
 21
17.19399478958024
 31
0.0
  0
LINE
  5
48F
330
2
100
AcDbEntity
  8
GAIKEI
 62
     1
 48
0.043301
100
AcDbLine
 10
14.8672919658095
 20
17.56399298958024
 30
0.0
 11
15.00871036580946
 21
17.46399298958022
 31
0.0
  0
LINE
  5
490
330
2
100
AcDbEntity
  8
GAIKEI
 48
0.005003
100
AcDbLine
 10
25.72532416580947
 20
16.19399168958023
 30
0.0
 11
25.7260321658095
 21
16.21399298958022
 31
0.0
  0
LINE
  5
491
330
2
100
AcDbEntity
  8
GAIKEI
 48
0.005004
100
AcDbLine
 10
25.64614326580949
 20
16.19399478958024
 30
0.0
 11
25.64702826580947
 21
16.21399298958022
 31
0.0
  0
LINE
  5
492
330
2
100
AcDbEntity
  8
GAIKEI
100
AcDbLine
 10
15.89762636580951
 20
16.21399298958022
 30
0.0
 11
27.14127266580948
 21
16.21399298958022
 31
0.0
  0
LINE
  5
493
330
2
100
AcDbEntity
  8
GAIKEI
100
AcDbLine
 10
11.94126046580947
 20
16.21399298958022
 30
0.0
 11
15.89762636580951
 21
16.21399298958022
 31
0.0
  0
LINE
  5
494
330
2
100
AcDbEntity
  8
GAIKEI
 48
0.025222
100
AcDbLine
 10
27.18950866580951
 20
16.36573858958024
 30
0.0
 11
27.19126656580949
 21
16.2648657895802
 31
0.0
  0
ARC
  5
495
330
2
100
AcDbEntity
  8
GAIKEI
100
AcDbCircle
 10
27.08952096580947
 20
16.3639929895802
 30
0.0
 40
0.1
100
AcDbArc
 50
0.99999999999993
 51
90.00000299999769
  0
ARC
  5
496
330
2
100
AcDbEntity
  8
GAIKEI
 62
     1
100
AcDbCircle
 10
18.88858096580952
 20
19.82399358958025
 30
0.0
 40
0.05
100
AcDbArc
 50
1.975269999999975
 51
90.00019399999869
  0
ARC
  5
497
330
2
100
AcDbEntity
  8
GAIKEI
 62
     1
100
AcDbCircle
 10
19.41052926580949
 20
19.82399358958025
 30
0.0
 40
0.05
100
AcDbArc
 50
89.99990699999976
 51
177.7517529999998
  0
LINE
  5
498
330
2
100
AcDbEntity
  8
GAIKEI
 62
     1
 48
0.065544
100
AcDbLine
 10
19.35012276580948
 20
19.56398988958023
 30
0.0
 11
19.36056586580946
 21
19.82595578958023
 31
0.0
  0
LINE
  5
499
330
2
100
AcDbEntity
  8
GAIKEI
 62
     1
 48
0.065532
100
AcDbLine
 10
18.94774846580952
 20
19.5637518895802
 30
0.0
 11
18.9385565658095
 21
19.82571778958021
 31
0.0
  0
ARC
  5
49A
330
2
100
AcDbEntity
  8
GAIKEI
 62
     1
100
AcDbCircle
 10
13.26846076580949
 20
19.72399358958023
 30
0.0
 40
0.15
100
AcDbArc
 50
90.00000299999769
 51
178.999997
  0
LINE
  5
49B
330
2
100
AcDbEntity
  8
GAIKEI
 48
0.000655
100
AcDbLine
 10
12.64567626580947
 20
16.46661138958023
 30
0.0
 11
12.64563056580948
 21
16.46399298958022
 31
0.0
  0
LINE
  5
49C
330
2
100
AcDbEntity
  8
GAIKEI
 48
0.000655
100
AcDbLine
 10
26.43685976580952
 20
16.46661138958023
 30
0.0
 11
26.43690246580951
 21
16.46399298958022
 31
0.0
  0
ARC
  5
49D
330
2
100
AcDbEntity
  8
GAIKEI
 62
     1
100
AcDbCircle
 10
12.79565496580949
 20
16.46399298958022
 30
0.0
 40
0.15
100
AcDbArc
 50
90.00000299999769
 51
178.999997
  0
ARC
  5
49E
330
2
100
AcDbEntity
  8
GAIKEI
 62
     1
100
AcDbCircle
 10
26.28687806580951
 20
16.46399298958022
 30
0.0
 40
0.15
100
AcDbArc
 50
0.99999999999993
 51
90.00000299999769
  0
LINE
  5
49F
330
2
100
AcDbEntity
  8
GAIKEI
 62
     1
 48
0.068593
100
AcDbLine
 10
25.88304506580949
 20
17.48444278958021
 30
0.0
 11
25.87818666580949
 21
17.7587713895802
 31
0.0
  0
LINE
  5
4A0
330
2
100
AcDbEntity
  8
GAIKEI
 62
     1
100
AcDbLine
 10
13.11848516580949
 20
19.72661198958025
 30
0.0
 11
13.06415466580949
 21
16.61399298958019
 31
0.0
  0
LINE
  5
4A1
330
2
100
AcDbEntity
  8
GAIKEI
 62
     1
 48
0.2857099999999999
100
AcDbLine
 10
25.99843206580948
 20
17.75665958958024
 30
0.0
 11
26.0183783658095
 21
16.61399298958019
 31
0.0
  0
ARC
  5
4A2
330
2
100
AcDbEntity
  8
GAIKEI
 62
     1
100
AcDbCircle
 10
25.82819276580949
 20
17.75788638958022
 30
0.0
 40
0.05
100
AcDbArc
 50
1.015634999999956
 51
89.0000009999956
  0
ARC
  5
4A3
330
2
100
AcDbEntity
  8
GAIKEI
 62
     1
100
AcDbCircle
 10
25.94844426580948
 20
17.75578678958021
 30
0.0
 40
0.05
100
AcDbArc
 50
0.99999999999993
 51
88.99999500000483
  0
LINE
  5
4A4
330
2
100
AcDbEntity
  8
GAIKEI
 62
     1
 48
0.017633
100
AcDbLine
 10
21.14249946580947
 20
19.94451658958024
 30
0.0
 11
21.14126656580948
 21
19.87399358958021
 31
0.0
  0
LINE
  5
4A5
330
2
100
AcDbEntity
  8
GAIKEI
 62
     1
 48
0.017633
100
AcDbLine
 10
21.84003356580951
 20
19.94451658958024
 30
0.0
 11
21.84126656580952
 21
19.87399358958021
 31
0.0
  0
ARC
  5
4A6
330
2
100
AcDbEntity
  8
GAIKEI
 62
     1
100
AcDbCircle
 10
21.81004096580949
 20
19.94399478958024
 30
0.0
 40
0.03
100
AcDbArc
 50
0.99999999999993
 51
90.00000299999769
  0
ARC
  5
4A7
330
2
100
AcDbEntity
  8
GAIKEI
 62
     1
100
AcDbCircle
 10
21.17249206580948
 20
19.94399478958024
 30
0.0
 40
0.03
100
AcDbArc
 50
90.00000299999769
 51
178.999997
  0
LINE
  5
4A8
330
2
100
AcDbEntity
  8
GAIKEI
 62
     1
 48
0.017633
100
AcDbLine
 10
13.34249636580949
 20
19.94451658958024
 30
0.0
 11
13.34126656580946
 21
19.87399358958021
 31
0.0
  0
LINE
  5
4A9
330
2
100
AcDbEntity
  8
GAIKEI
 62
     1
 48
0.017633
100
AcDbLine
 10
14.3400335658095
 20
19.94451658958024
 30
0.0
 11
14.34126656580952
 21
19.87399358958021
 31
0.0
  0
ARC
  5
4AA
330
2
100
AcDbEntity
  8
GAIKEI
 62
     1
100
AcDbCircle
 10
14.31004096580949
 20
19.94399478958024
 30
0.0
 40
0.03
100
AcDbArc
 50
0.99999999999993
 51
90.00000299999769
  0
ARC
  5
4AB
330
2
100
AcDbEntity
  8
GAIKEI
 62
     1
100
AcDbCircle
 10
13.37249206580947
 20
19.94399478958024
 30
0.0
 40
0.03
100
AcDbArc
 50
90.00000299999769
 51
178.999997
  0
LINE
  5
4AC
330
2
100
AcDbEntity
  8
GAIKEI
 48
0.005004
100
AcDbLine
 10
25.90432196580952
 20
16.19399168958023
 30
0.0
 11
25.90513986580948
 21
16.21399298958022
 31
0.0
  0
ARC
  5
4AD
330
2
100
AcDbEntity
  8
GAIKEI
100
AcDbCircle
 10
27.14127266580948
 20
16.26399298958023
 30
0.0
 40
0.05
100
AcDbArc
 50
269.9999969999958
 51
1.000000999999918
  0
LINE
  5
4AE
330
2
100
AcDbEntity
  8
GAIKEI
 62
     1
 48
0.008427
100
AcDbLine
 10
19.25813056580949
 20
19.66052308958024
 30
0.0
 11
19.22442086580946
 21
19.66052308958024
 31
0.0
  0
LINE
  5
4AF
330
2
100
AcDbEntity
  8
GAIKEI
 62
     1
 48
0.000385
100
AcDbLine
 10
19.14450746580951
 20
19.66052308958024
 30
0.0
 11
19.1429693658095
 21
19.66052308958024
 31
0.0
  0
LINE
  5
4B0
330
2
100
AcDbEntity
  8
GAIKEI
 62
     1
 48
0.017094
100
AcDbLine
 10
19.25811226580947
 20
19.66052308958024
 30
0.0
 11
19.18973456580949
 21
19.66052308958024
 31
0.0
  0
LINE
  5
4B1
330
2
100
AcDbEntity
  8
GAIKEI
 62
     1
 48
0.003647
100
AcDbLine
 10
19.33956366580946
 20
19.66052308958024
 30
0.0
 11
19.32497626580948
 21
19.66052308958024
 31
0.0
  0
LINE
  5
4B2
330
2
100
AcDbEntity
  8
GAIKEI
 62
     1
 48
0.000536
100
AcDbLine
 10
19.29424506580949
 20
19.66799378958024
 30
0.0
 11
19.29424506580949
 21
19.67013608958024
 31
0.0
  0
LINE
  5
4B3
330
2
100
AcDbEntity
  8
GAIKEI
 62
     1
 48
0.000924
100
AcDbLine
 10
19.29096136580949
 20
19.6684362895802
 30
0.0
 11
19.29424506580949
 21
19.67013608958024
 31
0.0
  0
LINE
  5
4B4
330
2
100
AcDbEntity
  8
GAIKEI
 62
     1
 48
0.001581
100
AcDbLine
 10
19.19387886580949
 20
19.66052308958024
 30
0.0
 11
19.19387886580949
 21
19.6668463895802
 31
0.0
  0
LINE
  5
4B5
330
2
100
AcDbEntity
  8
GAIKEI
 62
     1
 48
0.000139
100
AcDbLine
 10
19.19343326580952
 20
19.66717898958023
 30
0.0
 11
19.19387886580949
 21
19.6668463895802
 31
0.0
  0
ARC
  5
4B6
330
2
100
AcDbEntity
  8
GAIKEI
 62
     1
100
AcDbCircle
 10
19.17862616580947
 20
19.64744328958022
 30
0.0
 40
0.0246682
100
AcDbArc
 50
53.11579299999915
 51
66.93637200000027
  0
ARC
  5
4B7
330
2
100
AcDbEntity
  8
GAIKEI
 62
     1
100
AcDbCircle
 10
19.2136175658095
 20
19.45106878958023
 30
0.0
 40
0.2205312
100
AcDbArc
 50
96.5965309999982
 51
101.9185999999973
  0
ARC
  5
4B8
330
2
100
AcDbEntity
  8
GAIKEI
 62
     1
100
AcDbCircle
 10
19.31908026580947
 20
19.05474608958025
 30
0.0
 40
0.6304545
100
AcDbArc
 50
103.8581479999965
 51
106.0833619999982
  0
LINE
  5
4B9
330
2
100
AcDbEntity
  8
GAIKEI
 62
     1
 48
0.002403
100
AcDbLine
 10
19.20536566580949
 20
19.66052308958024
 30
0.0
 11
19.20536566580949
 21
19.67013608958024
 31
0.0
  0
LINE
  5
4BA
330
2
100
AcDbEntity
  8
GAIKEI
 62
     1
 48
0.003492
100
AcDbLine
 10
19.1914984658095
 20
19.66846988958025
 30
0.0
 11
19.20536566580949
 21
19.67013608958024
 31
0.0
  0
ARC
  5
4BB
330
2
100
AcDbEntity
  8
GAIKEI
 62
     1
100
AcDbCircle
 10
19.18704286580947
 20
19.56006838958024
 30
0.0
 40
0.1115856
100
AcDbArc
 50
73.11734600000133
 51
80.55005300000159
  0
LINE
  5
4BC
330
2
100
AcDbEntity
  8
GAIKEI
 62
     1
 48
0.001581
100
AcDbLine
 10
19.21944646580948
 20
19.66052308958024
 30
0.0
 11
19.21944646580948
 21
19.6668463895802
 31
0.0
  0
LINE
  5
4BD
330
2
100
AcDbEntity
  8
GAIKEI
 62
     1
 48
0.002011
100
AcDbLine
 10
19.22442086580946
 20
19.66052308958024
 30
0.0
 11
19.21944646580948
 21
19.6668463895802
 31
0.0
  0
LINE
  5
4BE
330
2
100
AcDbEntity
  8
GAIKEI
 62
     1
 48
0.00189
100
AcDbLine
 10
19.18973456580949
 20
19.66052308958024
 30
0.0
 11
19.19387886580949
 21
19.6668463895802
 31
0.0
  0
ARC
  5
4BF
330
2
100
AcDbEntity
  8
GAIKEI
 62
     1
100
AcDbCircle
 10
19.26891546580947
 20
19.45106878958023
 30
0.0
 40
0.2205312
100
AcDbArc
 50
78.08140499999682
 51
83.403467000001
  0
LINE
  5
4C0
330
2
100
AcDbEntity
  8
GAIKEI
 62
     1
 48
0.000852
100
AcDbLine
 10
19.31445986580951
 20
19.66343748958024
 30
0.0
 11
19.31445986580951
 21
19.6668463895802
 31
0.0
  0
ARC
  5
4C1
330
2
100
AcDbEntity
  8
GAIKEI
 62
     1
100
AcDbCircle
 10
19.16345276580949
 20
19.05474608958025
 30
0.0
 40
0.6304545
100
AcDbArc
 50
73.91663600000095
 51
76.14185600000194
  0
ARC
  5
4C2
330
2
100
AcDbEntity
  8
GAIKEI
 62
     1
100
AcDbCircle
 10
19.14928656580952
 20
19.04707098958022
 30
0.0
 40
0.6381163000000001
100
AcDbArc
 50
74.0187180000013
 51
76.23103200000016
  0
ARC
  5
4C3
330
2
100
AcDbEntity
  8
GAIKEI
 62
     1
100
AcDbCircle
 10
19.24740666580948
 20
19.3643408895802
 30
0.0
 40
0.3072418
100
AcDbArc
 50
79.92365000000176
 51
84.44089800000236
  0
ARC
  5
4C4
330
2
100
AcDbEntity
  8
GAIKEI
 62
     1
100
AcDbCircle
 10
19.29549016580949
 20
19.56006838958024
 30
0.0
 40
0.1115856
100
AcDbArc
 50
99.4499449999974
 51
106.8826530000006
  0
LINE
  5
4C5
330
2
100
AcDbEntity
  8
GAIKEI
 62
     1
 48
0.002011
100
AcDbLine
 10
19.25811226580947
 20
19.66052308958024
 30
0.0
 11
19.26308656580949
 21
19.6668463895802
 31
0.0
  0
LINE
  5
4C6
330
2
100
AcDbEntity
  8
GAIKEI
 62
     1
 48
0.070322
100
AcDbLine
 10
19.06977606580949
 20
19.58715268958025
 30
0.0
 11
19.35106266580948
 21
19.58715268958025
 31
0.0
  0
LINE
  5
4C7
330
2
100
AcDbEntity
  8
GAIKEI
 62
     1
 48
0.024496
100
AcDbLine
 10
19.06977606580949
 20
19.58715268958025
 30
0.0
 11
18.97179016580952
 21
19.58715268958025
 31
0.0
  0
LINE
  5
4C8
330
2
100
AcDbEntity
  8
GAIKEI
 62
     1
 48
0.003738
100
AcDbLine
 10
19.33956366580946
 20
19.66052308958024
 30
0.0
 11
19.35383366580947
 21
19.6560613895802
 31
0.0
  0
ARC
  5
4C9
330
2
100
AcDbEntity
  8
GAIKEI
 62
     1
100
AcDbCircle
 10
19.38762276580951
 20
18.8533849895802
 30
0.0
 40
0.8434047999999998
100
AcDbArc
 50
106.8628660000027
 51
119.5405639999985
  0
LINE
  5
4CA
330
2
100
AcDbEntity
  8
GAIKEI
 62
     1
 48
0.005812
100
AcDbLine
 10
18.97179016580952
 20
19.58715268958025
 30
0.0
 11
18.96976386580951
 21
19.56399298958024
 31
0.0
  0
LINE
  5
4CB
330
2
100
AcDbEntity
  8
GAIKEI
 62
     1
 48
0.020742
100
AcDbLine
 10
19.96066346580949
 20
19.8099951895802
 30
0.0
 11
19.95969306580952
 21
19.72703308958023
 31
0.0
  0
LINE
  5
4CC
330
2
100
AcDbEntity
  8
GAIKEI
 62
     1
 48
0.000101
100
AcDbLine
 10
17.72173526580951
 20
19.8600408895802
 30
0.0
 11
17.72213806580947
 21
19.86001348958024
 31
0.0
  0
LINE
  5
4CD
330
2
100
AcDbEntity
  8
GAIKEI
 62
     1
 48
0.141837
100
AcDbLine
 10
19.39307316580948
 20
19.86001348958024
 30
0.0
 11
19.96041936580951
 21
19.86001348958024
 31
0.0
  0
LINE
  5
4CE
330
2
100
AcDbEntity
  8
GAIKEI
 62
     1
 48
0.291249
100
AcDbLine
 10
17.72213806580947
 20
19.86001348958024
 30
0.0
 11
18.88713446580948
 21
19.86001348958024
 31
0.0
  0
LINE
  5
4CF
330
2
100
AcDbEntity
  8
GAIKEI
 62
     1
 48
0.079507
100
AcDbLine
 10
18.92323676580952
 20
19.86001348958024
 30
0.0
 11
19.2412665658095
 21
19.86001348958024
 31
0.0
  0
LINE
  5
4D0
330
2
100
AcDbEntity
  8
GAIKEI
 62
     1
 48
0.033649
100
AcDbLine
 10
19.2412665658095
 20
19.86001348958024
 30
0.0
 11
19.37586126580947
 21
19.86001348958024
 31
0.0
  0
LINE
  5
4D1
330
2
100
AcDbEntity
  8
GAIKEI
 62
     1
 48
0.065546
100
AcDbLine
 10
19.34972596580951
 20
19.56400208958024
 30
0.0
 11
19.36014466580951
 21
19.82597718958021
 31
0.0
  0
LINE
  5
4D2
330
2
100
AcDbEntity
  8
GAIKEI
 62
     1
 48
0.065536
100
AcDbLine
 10
18.94220036580947
 20
19.56400208958024
 30
0.0
 11
18.93284366580951
 21
19.82597718958021
 31
0.0
  0
LINE
  5
4D3
330
2
100
AcDbEntity
  8
GAIKEI
 62
     1
 48
0.027161
100
AcDbLine
 10
17.55093446580952
 20
19.83133608958025
 30
0.0
 11
17.65957706580951
 21
19.83133608958025
 31
0.0
  0
LINE
  5
4D4
330
2
100
AcDbEntity
  8
GAIKEI
 62
     1
100
AcDbLine
 10
13.60191106580947
 20
19.8593481895802
 30
0.0
 11
17.42617256580951
 21
19.8593481895802
 31
0.0
  0
ARC
  5
4D5
330
2
100
AcDbEntity
  8
GAIKEI
 62
     1
100
AcDbCircle
 10
-3823.402629934191
 20
-83.83787171041978
 30
0.0
 40
3842.3820313
100
AcDbArc
 50
1.498054999999865
 51
1.544485000000107
  0
ARC
  5
4D6
330
2
100
AcDbEntity
  8
GAIKEI
 62
     1
100
AcDbCircle
 10
3857.55283876581
 20
-83.75077451041978
 30
0.0
 40
3845.520312500001
100
AcDbArc
 50
178.458076
 51
178.5044669999999
  0
LINE
  5
4D7
330
2
100
AcDbEntity
  8
GAIKEI
 62
     1
 48
0.029856
100
AcDbLine
 10
19.95759956580952
 20
19.60762698958024
 30
0.0
 11
19.95969306580952
 21
19.72703308958023
 31
0.0
  0
LINE
  5
4D8
330
2
100
AcDbEntity
  8
GAIKEI
 62
     1
 48
0.029856
100
AcDbLine
 10
17.72058776580951
 20
19.60781308958025
 30
0.0
 11
17.71849426580951
 21
19.7272192895802
 31
0.0
  0
LINE
  5
4D9
330
2
100
AcDbEntity
  8
GAIKEI
 62
     1
 48
0.4631300000000001
100
AcDbLine
 10
17.90685486580952
 20
19.55001288958021
 30
0.0
 11
19.7593756658095
 21
19.55001288958021
 31
0.0
  0
LINE
  5
4DA
330
2
100
AcDbEntity
  8
GAIKEI
 62
     1
 48
0.015852
100
AcDbLine
 10
25.88441226580949
 20
17.51001348958022
 30
0.0
 11
25.9478216658095
 21
17.51001348958022
 31
0.0
  0
LINE
  5
4DB
330
2
100
AcDbEntity
  8
GAIKEI
 62
     1
 48
0.400214
100
AcDbLine
 10
22.63560246580949
 20
18.22313598958021
 30
0.0
 11
22.63560246580949
 21
19.82399358958025
 31
0.0
  0
LINE
  5
4DC
330
2
100
AcDbEntity
  8
GAIKEI
 62
     1
 48
0.217937
100
AcDbLine
 10
22.67013616580948
 20
19.8593481895802
 30
0.0
 11
23.54188296580952
 21
19.8593481895802
 31
0.0
  0
LINE
  5
4DD
330
2
100
AcDbEntity
  8
GAIKEI
 62
     1
 48
0.015791
100
AcDbLine
 10
22.60697696580951
 20
19.85970218958022
 30
0.0
 11
22.67014226580949
 21
19.85970218958022
 31
0.0
  0
LINE
  5
4DE
330
2
100
AcDbEntity
  8
GAIKEI
 62
     1
 48
0.009795
100
AcDbLine
 10
23.54179146580947
 20
17.86279668958025
 30
0.0
 11
23.58096376580949
 21
17.86192998958023
 31
0.0
  0
LINE
  5
4DF
330
2
100
AcDbEntity
  8
GAIKEI
 62
     1
 48
0.408264
100
AcDbLine
 10
20.20424256580952
 20
19.83133608958025
 30
0.0
 11
21.83729926580952
 21
19.83133608958025
 31
0.0
  0
LINE
  5
4E0
330
2
100
AcDbEntity
  8
GAIKEI
 62
     1
 48
0.056404
100
AcDbLine
 10
25.97710636580951
 20
17.53098818958022
 30
0.0
 11
25.97315736580947
 21
17.75656798958022
 31
0.0
  0
LINE
  5
4E1
330
2
100
AcDbEntity
  8
GAIKEI
 62
     1
 48
0.120436
100
AcDbLine
 10
22.09013736580948
 20
19.8593481895802
 30
0.0
 11
22.57188176580951
 21
19.8593481895802
 31
0.0
  0
LINE
  5
4E2
330
2
100
AcDbEntity
  8
GAIKEI
 62
     1
 48
0.015791
100
AcDbLine
 10
22.02697816580951
 20
19.85970218958022
 30
0.0
 11
22.09014346580949
 21
19.85970218958022
 31
0.0
  0
LINE
  5
4E3
330
2
100
AcDbEntity
  8
GAIKEI
 62
     1
 48
0.02096
100
AcDbLine
 10
22.03184876580952
 20
19.81009888958022
 30
0.0
 11
22.03328316580951
 21
19.72627018958025
 31
0.0
  0
LINE
  5
4E4
330
2
100
AcDbEntity
  8
GAIKEI
 62
     1
 48
0.450653
100
AcDbLine
 10
22.03325256580951
 20
17.92365788958022
 30
0.0
 11
22.03328316580951
 21
19.72627018958025
 31
0.0
  0
LINE
  5
4E5
330
2
100
AcDbEntity
  8
GAIKEI
 62
     1
100
AcDbLine
 10
22.10416936580947
 20
17.85903388958024
 30
0.0
 11
25.8632513658095
 21
17.7935980895802
 31
0.0
  0
LINE
  5
4E6
330
2
100
AcDbEntity
  8
GAIKEI
 62
     1
 48
0.018812
100
AcDbLine
 10
25.86415466580951
 20
17.79262448958025
 30
0.0
 11
25.93939276580949
 21
17.7913091895802
 31
0.0
  0
LINE
  5
4E7
330
2
100
AcDbEntity
  8
GAIKEI
 62
     1
 48
0.065466
100
AcDbLine
 10
23.57692936580952
 20
17.89606078958025
 30
0.0
 11
23.57692936580952
 21
18.1579260895802
 31
0.0
  0
LINE
  5
4E8
330
2
100
AcDbEntity
  8
GAIKEI
 62
     1
 48
0.208438
100
AcDbLine
 10
22.7088751658095
 20
18.20782228958023
 30
0.0
 11
23.5424994658095
 21
18.19327148958024
 31
0.0
  0
LINE
  5
4E9
330
2
100
AcDbEntity
  8
GAIKEI
 62
     1
 48
0.374865
100
AcDbLine
 10
23.57692936580952
 20
18.32453368958022
 30
0.0
 11
23.57692936580952
 21
19.82399358958025
 31
0.0
  0
LINE
  5
4EA
330
2
100
AcDbEntity
  8
GAIKEI
 62
     1
 48
0.207228
100
AcDbLine
 10
22.71299506580948
 20
17.87691098958021
 30
0.0
 11
23.54177926580951
 21
17.86244268958023
 31
0.0
  0
LINE
  5
4EB
330
2
100
AcDbEntity
  8
GAIKEI
 62
     1
 48
0.475217
100
AcDbLine
 10
22.05560366580948
 20
17.9231268895802
 30
0.0
 11
22.05560366580948
 21
19.82399358958025
 31
0.0
  0
LINE
  5
4EC
330
2
100
AcDbEntity
  8
GAIKEI
 62
     1
 48
0.477757
100
AcDbLine
 10
22.60692816580951
 20
17.9129675895802
 30
0.0
 11
22.60692816580951
 21
19.82399358958025
 31
0.0
  0
LINE
  5
4ED
330
2
100
AcDbEntity
  8
GAIKEI
 62
     1
 48
0.009797
100
AcDbLine
 10
22.57179016580949
 20
17.87972778958021
 30
0.0
 11
22.61096866580948
 21
17.87886108958025
 31
0.0
  0
LINE
  5
4EE
330
2
100
AcDbEntity
  8
GAIKEI
 62
     1
 48
0.120454
100
AcDbLine
 10
22.09003356580951
 20
17.88778448958021
 30
0.0
 11
22.57177796580947
 21
17.8793737895802
 31
0.0
  0
LINE
  5
4EF
330
2
100
AcDbEntity
  8
GAIKEI
 62
     1
 48
0.006252
100
AcDbLine
 10
24.0119757658095
 20
19.82398438958023
 30
0.0
 11
24.0119757658095
 21
19.84899358958023
 31
0.0
  0
LINE
  5
4F0
330
2
100
AcDbEntity
  8
GAIKEI
 62
     1
 48
0.0625
100
AcDbLine
 10
23.59126656580952
 20
19.68277958958021
 30
0.0
 11
23.84126656580952
 21
19.68277958958021
 31
0.0
  0
ARC
  5
4F1
330
2
100
AcDbEntity
  8
GAIKEI
 62
     1
100
AcDbCircle
 10
23.94138856580952
 20
19.27387148958024
 30
0.0
 40
0.0914035
100
AcDbArc
 50
269.9238069999972
 51
0.0761900000000238
  0
LINE
  5
4F2
330
2
100
AcDbEntity
  8
GAIKEI
 62
     1
 48
0.1125
100
AcDbLine
 10
24.03247746580951
 20
19.27399358958024
 30
0.0
 11
24.03247746580951
 21
19.72399358958023
 31
0.0
  0
LINE
  5
4F3
330
2
100
AcDbEntity
  8
GAIKEI
 62
     1
 48
0.016642
100
AcDbLine
 10
24.03283146580952
 20
19.72399358958023
 30
0.0
 11
24.03283146580952
 21
19.79056158958025
 31
0.0
  0
LINE
  5
4F4
330
2
100
AcDbEntity
  8
GAIKEI
 62
     1
 48
0.0875
100
AcDbLine
 10
23.59126656580952
 20
19.18277958958021
 30
0.0
 11
23.94126656580949
 21
19.18277958958021
 31
0.0
  0
LINE
  5
4F5
330
2
100
AcDbEntity
  8
GAIKEI
 62
     1
 48
0.035001
100
AcDbLine
 10
23.87126526580948
 20
19.79470278958024
 30
0.0
 11
24.01126776580952
 21
19.79470278958024
 31
0.0
  0
LINE
  5
4F6
330
2
100
AcDbEntity
  8
GAIKEI
 62
     1
 48
0.016642
100
AcDbLine
 10
23.84970156580948
 20
19.72399358958023
 30
0.0
 11
23.84970156580948
 21
19.79056158958025
 31
0.0
  0
LINE
  5
4F7
330
2
100
AcDbEntity
  8
GAIKEI
 62
     1
 48
0.0855
100
AcDbLine
 10
23.8500555658095
 20
19.38199528958023
 30
0.0
 11
23.8500555658095
 21
19.72399358958023
 31
0.0
  0
LINE
  5
4F8
330
2
100
AcDbEntity
  8
GAIKEI
 62
     1
 48
0.038
100
AcDbLine
 10
23.59126656580952
 20
19.36520758958022
 30
0.0
 11
23.74326846580948
 21
19.36520758958022
 31
0.0
  0
LINE
  5
4F9
330
2
100
AcDbEntity
  8
GAIKEI
 62
     1
 48
0.06003
100
AcDbLine
 10
21.4912665658095
 20
19.96574768958021
 30
0.0
 11
21.73138496580947
 21
19.96574768958021
 31
0.0
  0
LINE
  5
4FA
330
2
100
AcDbEntity
  8
GAIKEI
 62
     1
 48
0.060023
100
AcDbLine
 10
21.2511725658095
 20
19.96574768958021
 30
0.0
 11
21.4912665658095
 21
19.96574768958021
 31
0.0
  0
LINE
  5
4FB
330
2
100
AcDbEntity
  8
GAIKEI
 62
     1
 48
0.097537
100
AcDbLine
 10
13.84126656580946
 20
19.96574768958021
 30
0.0
 11
14.2314154658095
 21
19.96574768958021
 31
0.0
  0
LINE
  5
4FC
330
2
100
AcDbEntity
  8
GAIKEI
 62
     1
 48
0.097538
100
AcDbLine
 10
13.45111456580952
 20
19.96574768958021
 30
0.0
 11
13.84126656580946
 21
19.96574768958021
 31
0.0
  0
ARC
  5
4FD
330
2
100
AcDbEntity
  8
GAIKEI
 62
     1
100
AcDbCircle
 10
13.98853216580949
 20
17.76142948958022
 30
0.0
 40
0.0489343
100
AcDbArc
 50
106.0006219999998
 51
119.2788180000001
  0
ARC
  5
4FE
330
2
100
AcDbEntity
  8
GAIKEI
 62
     1
100
AcDbCircle
 10
13.98853216580949
 20
17.68655768958024
 30
0.0
 40
0.0489343
100
AcDbArc
 50
240.721182
 51
253.9993780000001
  0
LINE
  5
4FF
330
2
100
AcDbEntity
  8
GAIKEI
 62
     1
 48
0.03889
100
AcDbLine
 10
13.84108956580951
 20
17.60641538958021
 30
0.0
 11
13.9966498658095
 21
17.60641538958021
 31
0.0
  0
LINE
  5
500
330
2
100
AcDbEntity
  8
GAIKEI
 62
     1
 48
0.03889
100
AcDbLine
 10
13.84108956580951
 20
17.84157168958023
 30
0.0
 11
13.9966498658095
 21
17.84157168958023
 31
0.0
  0
LINE
  5
501
330
2
100
AcDbEntity
  8
GAIKEI
 62
     1
 48
0.000381
100
AcDbLine
 10
14.0797796658095
 20
17.72323058958022
 30
0.0
 11
14.0797796658095
 21
17.72475648958021
 31
0.0
  0
LINE
  5
502
330
2
100
AcDbEntity
  8
GAIKEI
100
AcDbLine
 10
26.29343272781103
 20
14.1517919895802
 30
0.0
 11
12.88844666580951
 21
14.1517919895802
 31
0.0
  0
TEXT
  5
503
330
2
100
AcDbEntity
  8
TOUROKU
100
AcDbText
 10
46.38411446345563
 20
42.67118502217477
 30
0.0
 40
2.0
  1
ＢＢＨＣＭ５２７
 72
     2
 11
64.78411446345564
 21
42.67118502217477
 31
0.0
100
AcDbText
  0
TEXT
  5
505
330
2
100
AcDbEntity
  8
MOJI1
100
AcDbText
 10
-33.21583556947189
 20
48.67118502217465
 30
0.0
 40
4.0
  1
ネットワークカメラ
100
AcDbText
  0
TEXT
  5
507
330
2
100
AcDbEntity
  8
MOJI1
100
AcDbText
 10
-17.71583556947212
 20
-44.32881497782512
 30
0.0
 40
3.0
  1
テレ：２４°（光学）／１２°（デジタル）、ワイド：５５°
 41
0.8299999999999998
100
AcDbText
  0
TEXT
  5
508
330
2
100
AcDbEntity
  8
MOJI1
100
AcDbText
 10
-57.71583556947212
 20
-44.32881497782512
 30
0.0
 40
3.0
  1
垂直画角
100
AcDbText
  0
LINE
  5
509
330
2
100
AcDbEntity
  8
WAKU
 62
     1
100
AcDbLine
 10
-60.21583556947212
 20
-20.32881497782512
 30
0.0
 11
64.78416443052793
 21
-20.32881497782512
 31
0.0
  0
LINE
  5
50B
330
2
100
AcDbEntity
  8
WAKU
 62
     1
100
AcDbLine
 10
-60.21583556947212
 20
-25.32881497782512
 30
0.0
 11
64.78416443052793
 21
-25.32881497782512
 31
0.0
  0
LINE
  5
50C
330
2
100
AcDbEntity
  8
WAKU
 62
     1
100
AcDbLine
 10
-60.21583556947212
 20
-35.32881497782512
 30
0.0
 11
64.78416443052793
 21
-35.32881497782512
 31
0.0
  0
LINE
  5
50D
330
2
100
AcDbEntity
  8
WAKU
 62
     1
100
AcDbLine
 10
-60.21583556947212
 20
-40.32881497782511
 30
0.0
 11
64.78416443052793
 21
-40.32881497782511
 31
0.0
  0
LINE
  5
50E
330
2
100
AcDbEntity
  8
WAKU
 62
     4
100
AcDbLine
 10
64.78416443052793
 20
-15.32881497782511
 30
0.0
 11
-60.21583556947212
 21
-15.32881497782511
 31
0.0
  0
LINE
  5
50F
330
2
100
AcDbEntity
  8
WAKU
 62
     4
100
AcDbLine
 10
-60.21583556947212
 20
-60.32881497782511
 30
0.0
 11
64.78416443052793
 21
-60.32881497782511
 31
0.0
  0
LINE
  5
510
330
2
100
AcDbEntity
  8
WAKU
 62
     1
100
AcDbLine
 10
-60.21583556947212
 20
-30.32881497782512
 30
0.0
 11
64.78416443052793
 21
-30.32881497782512
 31
0.0
  0
TEXT
  5
511
330
2
100
AcDbEntity
  8
MOJI1
100
AcDbText
 10
-17.71583556947212
 20
-24.32881497782512
 30
0.0
 40
3.0
  1
１／３．６インチ　３７００００画素
100
AcDbText
  0
TEXT
  5
512
330
2
100
AcDbEntity
  8
MOJI1
100
AcDbText
 10
-17.71583556947212
 20
-34.32881497782512
 30
0.0
 40
3.0
  1
４．６倍（光学２．３倍　デジタル２倍）
100
AcDbText
  0
LINE
  5
513
330
2
100
AcDbEntity
  8
WAKU
 62
     4
100
AcDbLine
 10
-60.21583556947212
 20
-15.32881497782511
 30
0.0
 11
-60.21583556947212
 21
-60.32881497782511
 31
0.0
  0
LINE
  5
514
330
2
100
AcDbEntity
  8
WAKU
 62
     4
100
AcDbLine
 10
-20.21583556947212
 20
-60.32881497782511
 30
0.0
 11
-20.21583556947212
 21
-15.32881497782511
 31
0.0
  0
TEXT
  5
515
330
2
100
AcDbEntity
  8
MOJI1
100
AcDbText
 10
-17.71583556947212
 20
-19.32881497782512
 30
0.0
 40
3.0
  1
専用ＡＣアダプター　最大８．５Ｗ
100
AcDbText
  0
TEXT
  5
516
330
2
100
AcDbEntity
  8
MOJI1
100
AcDbText
 10
-17.71583556947212
 20
-29.32881497782512
 30
0.0
 40
3.0
  1
２ルクス（カラーナイトビューモード時：０．２ルクス）
 41
0.9
100
AcDbText
  0
TEXT
  5
517
330
2
100
AcDbEntity
  8
MOJI1
100
AcDbText
 10
-57.71583556947212
 20
-29.32881497782512
 30
0.0
 40
3.0
  1
最低照度
100
AcDbText
  0
TEXT
  5
518
330
2
100
AcDbEntity
  8
MOJI1
100
AcDbText
 10
-57.71583556947212
 20
-34.32881497782512
 30
0.0
 40
3.0
  1
ズーム
100
AcDbText
  0
TEXT
  5
519
330
2
100
AcDbEntity
  8
MOJI1
100
AcDbText
 10
-57.71583556947212
 20
-19.32881497782512
 30
0.0
 40
3.0
  1
電　源
100
AcDbText
  0
TEXT
  5
51A
330
2
100
AcDbEntity
  8
MOJI1
100
AcDbText
 10
-57.71583556947212
 20
-24.32881497782512
 30
0.0
 40
3.0
  1
撮像素子
100
AcDbText
  0
LINE
  5
51B
330
2
100
AcDbEntity
  8
WAKU
 62
     4
100
AcDbLine
 10
64.78416443052793
 20
-60.32881497782511
 30
0.0
 11
64.78416443052793
 21
-15.32881497782511
 31
0.0
  0
TEXT
  5
51C
330
2
100
AcDbEntity
  8
MOJI1
100
AcDbText
 10
-57.71583556947212
 20
-39.32881497782512
 30
0.0
 40
3.0
  1
水平画角
100
AcDbText
  0
LINE
  5
51D
330
2
100
AcDbEntity
  8
WAKU
 62
     1
100
AcDbLine
 10
-60.21583556947212
 20
-45.32881497782511
 30
0.0
 11
64.78416443052793
 21
-45.32881497782511
 31
0.0
  0
TEXT
  5
51E
330
2
100
AcDbEntity
  8
MOJI1
100
AcDbText
 10
-17.71583556947212
 20
-39.32881497782512
 30
0.0
 40
3.0
  1
テレ：３２°（光学）／１６°（デジタル）、ワイド：７３°
 41
0.8299999999999998
100
AcDbText
  0
TEXT
  5
51F
330
2
100
AcDbEntity
  8
MOJI1
100
AcDbText
 10
-17.71583556947212
 20
-49.32881497782512
 30
0.0
 40
3.0
  1
１０／１００ＢＡＳＥ－ＴＸ、ＲＪ－４５
 41
0.75
100
AcDbText
  0
LINE
  5
520
330
2
100
AcDbEntity
  8
WAKU
 62
     1
100
AcDbLine
 10
-60.21583556947212
 20
-50.32881497782511
 30
0.0
 11
64.78416443052793
 21
-50.32881497782511
 31
0.0
  0
TEXT
  5
521
330
2
100
AcDbEntity
  8
MOJI1
100
AcDbText
 10
-57.71583556947212
 20
-49.32881497782512
 30
0.0
 40
3.0
  1
インタフェース
100
AcDbText
  0
TEXT
  5
522
330
2
100
AcDbEntity
  8
MOJI1
100
AcDbText
 10
-57.71583556947212
 20
-54.32881497782512
 30
0.0
 40
3.0
  1
画像解像度
100
AcDbText
  0
LINE
  5
523
330
2
100
AcDbEntity
  8
WAKU
 62
     1
100
AcDbLine
 10
-60.21583556947212
 20
-55.32881497782511
 30
0.0
 11
64.78416443052793
 21
-55.32881497782511
 31
0.0
  0
TEXT
  5
524
330
2
100
AcDbEntity
  8
MOJI1
100
AcDbText
 10
-17.71583556947212
 20
-54.32881497782512
 30
0.0
 40
3.0
  1
６４０×４８０、３２０×２４０、１９２×１４４
 41
0.85
100
AcDbText
  0
TEXT
  5
525
330
2
100
AcDbEntity
  8
MOJI1
100
AcDbText
 10
-57.71583556947212
 20
-59.32881497782512
 30
0.0
 40
3.0
  1
画像圧縮方式
100
AcDbText
  0
TEXT
  5
526
330
2
100
AcDbEntity
  8
MOJI1
100
AcDbText
 10
-17.71583556947212
 20
-59.32881497782512
 30
0.0
 40
3.0
  1
ＭＰＥＧ－４／ＪＰＥＧ 
 41
0.9
100
AcDbText
  0
ENDSEC
  0
SECTION
  2
OBJECTS
  0
DICTIONARY
  5
7
330
0
100
AcDbDictionary
281
     1
  3
ACAD_COLOR
350
2C
  3
ACAD_GROUP
350
28
  3
ACAD_LAYOUT
350
B
  3
ACAD_MATERIAL
350
2B
  3
ACAD_MLINESTYLE
350
29
  3
ACAD_PLOTSETTINGS
350
2A
  3
ACAD_PLOTSTYLENAME
350
6
  3
ACDBHEADERROUNDTRIPXREC
350
557
  3
AcDbVariableDictionary
350
552
  0
DICTIONARY
  5
11
330
10
100
AcDbDictionary
280
     1
281
     1
  3
ACAD_LAYERSTATES
360
12
  0
DICTIONARY
  5
2C
102
{ACAD_REACTORS
330
7
102
}
330
7
100
AcDbDictionary
281
     1
  0
DICTIONARY
  5
28
102
{ACAD_REACTORS
330
7
102
}
330
7
100
AcDbDictionary
281
     1
  0
DICTIONARY
  5
B
102
{ACAD_REACTORS
330
7
102
}
330
7
100
AcDbDictionary
281
     1
  3
Model
350
A
  3
レイアウト1
350
F
  0
DICTIONARY
  5
2B
102
{ACAD_REACTORS
330
7
102
}
330
7
100
AcDbDictionary
281
     1
  0
DICTIONARY
  5
29
102
{ACAD_REACTORS
330
7
102
}
330
7
100
AcDbDictionary
281
     1
  3
Standard
350
2E
  0
DICTIONARY
  5
2A
102
{ACAD_REACTORS
330
7
102
}
330
7
100
AcDbDictionary
281
     1
  0
ACDBDICTIONARYWDFLT
  5
6
102
{ACAD_REACTORS
330
7
102
}
330
7
100
AcDbDictionary
281
     1
  3
Normal
350
5
100
AcDbDictionaryWithDefault
340
5
  0
DICTIONARY
  5
557
102
{ACAD_REACTORS
330
7
102
}
330
7
100
AcDbDictionary
281
     1
  3
COLORDICT
350
559
  3
MATERIALDICT
350
558
  0
DICTIONARY
  5
552
102
{ACAD_REACTORS
330
7
102
}
330
7
100
AcDbDictionary
281
     1
  3
DIMASSOC
350
554
  3
HIDETEXT
350
553
  3
PROJECTNAME
350
555
  0
DICTIONARY
  5
12
102
{ACAD_REACTORS
330
11
102
}
330
11
100
AcDbDictionary
281
     1
  0
LAYOUT
  5
A
102
{ACAD_XDICTIONARY
360
55A
102
}
102
{ACAD_REACTORS
330
B
102
}
330
B
100
AcDbPlotSettings
  1

  2
FX78BC34-A4縦.pc3
  4
A4
  6

 40
4.900083065032958
 41
4.900057315826416
 42
4.90008544921875
 43
4.90008544921875
 44
210.0156707763672
 45
297.0106506347656
 46
2.98
 47
0.0
 48
-6.625603241464204
 49
-4.667688513160101
140
263.0851989801788
141
394.1171726757357
142
1.0
143
1.388475874879152
 70
 11956
 72
     1
 73
     0
 74
     4
  7
tmsacad.ctb
 75
     0
147
0.7202141701504438
148
6.625603241464204
149
4.667688513160101
100
AcDbLayout
  1
Model
 70
     1
 71
     0
 10
0.0
 20
0.0
 11
12.0
 21
9.0
 12
0.0
 22
0.0
 32
0.0
 14
0.0
 24
0.0
 34
0.0
 15
0.0
 25
0.0
 35
0.0
146
0.0
 13
0.0
 23
0.0
 33
0.0
 16
1.0
 26
0.0
 36
0.0
 17
0.0
 27
1.0
 37
0.0
 76
     0
330
2
  0
LAYOUT
  5
F
102
{ACAD_XDICTIONARY
360
55C
102
}
102
{ACAD_REACTORS
330
B
102
}
330
B
100
AcDbPlotSettings
  1

  2
None
  4

  6

 40
0.0
 41
0.0
 42
0.0
 43
0.0
 44
0.0
 45
0.0
 46
0.0
 47
0.0
 48
0.0
 49
0.0
140
0.0
141
0.0
142
1.0
143
1.0
 70
   688
 72
     0
 73
     0
 74
     5
  7
tmsacad.ctb
 75
    16
147
1.0
148
0.0
149
0.0
100
AcDbLayout
  1
レイアウト1
 70
     1
 71
     1
 10
0.0
 20
0.0
 11
12.0
 21
9.0
 12
0.0
 22
0.0
 32
0.0
 14
0.0
 24
0.0
 34
0.0
 15
0.0
 25
0.0
 35
0.0
146
0.0
 13
0.0
 23
0.0
 33
0.0
 16
1.0
 26
0.0
 36
0.0
 17
0.0
 27
1.0
 37
0.0
 76
     0
330
C
  0
MLINESTYLE
  5
2E
102
{ACAD_REACTORS
330
29
102
}
330
29
100
AcDbMlineStyle
  2
STANDARD
 70
     0
  3

 62
   256
 51
90.0
 52
90.0
 71
     2
 49
0.5
 62
   256
  6
BYLAYER
 49
-0.5
 62
   256
  6
BYLAYER
  0
ACDBPLACEHOLDER
  5
5
102
{ACAD_REACTORS
330
6
102
}
330
6
  0
XRECORD
  5
559
102
{ACAD_REACTORS
330
557
102
}
330
557
100
AcDbXrecord
280
     1
340
2C
  0
XRECORD
  5
558
102
{ACAD_REACTORS
330
557
102
}
330
557
100
AcDbXrecord
280
     1
340
2B
  0
DICTIONARYVAR
  5
554
102
{ACAD_REACTORS
330
552
102
}
330
552
100
DictionaryVariables
280
     0
  1
1
  0
DICTIONARYVAR
  5
553
102
{ACAD_REACTORS
330
552
102
}
330
552
100
DictionaryVariables
280
     0
  1
1
  0
DICTIONARYVAR
  5
555
102
{ACAD_REACTORS
330
552
102
}
330
552
100
DictionaryVariables
280
     0
  1

  0
DICTIONARY
  5
55A
330
A
100
AcDbDictionary
280
     1
281
     1
  3
ACAD_XREC_ROUNDTRIP
360
55B
  0
DICTIONARY
  5
55C
330
F
100
AcDbDictionary
280
     1
281
     1
  3
ACAD_XREC_ROUNDTRIP
360
55D
  0
XRECORD
  5
55B
102
{ACAD_REACTORS
330
55A
102
}
330
55A
100
AcDbXrecord
280
     1
102
SHADEPLOT
 70
     0
102
SHADEPLOTRESLEVEL
 70
     2
102
SHADEPLOTCUSTOMDPI
 70
   300
  0
XRECORD
  5
55D
102
{ACAD_REACTORS
330
55C
102
}
330
55C
100
AcDbXrecord
280
     1
102
SHADEPLOT
 70
     0
102
SHADEPLOTRESLEVEL
 70
     2
102
SHADEPLOTCUSTOMDPI
 70
   300
  0
ENDSEC
  0
EOF
