  0
SECTION
  2
HEADER
  9
$ACADVER
  1
AC1015
  9
$ACADMAINTVER
 70
    20
  9
$DWGCODEPAGE
  3
ANSI_932
  9
$INSBASE
 10
0.4999999440410648
 20
246.5008351249344
 30
0.0
  9
$EXTMIN
 10
-62.04894928965825
 20
-50.51664670616924
 30
-0.0015258207003583
  9
$EXTMAX
 10
62.98461970289316
 20
62.96113628330772
 30
0.0000000349246037
  9
$LIMMIN
 10
0.0
 20
0.0
  9
$LIMMAX
 10
420.0
 20
297.0
  9
$ORTHOMODE
 70
     1
  9
$REGENMODE
 70
     0
  9
$FILLMODE
 70
     1
  9
$QTEXTMODE
 70
     0
  9
$MIRRTEXT
 70
     0
  9
$LTSCALE
 40
1.0
  9
$ATTMODE
 70
     1
  9
$TEXTSIZE
 40
2.5
  9
$TRACEWID
 40
1.0
  9
$TEXTSTYLE
  7
Standard
  9
$CLAYER
  8
SUNPO
  9
$CELTYPE
  6
ByLayer
  9
$CECOLOR
 62
   256
  9
$CELTSCALE
 40
1.0
  9
$DISPSILH
 70
     0
  9
$DIMSCALE
 40
1.0
  9
$DIMASZ
 40
2.0
  9
$DIMEXO
 40
2.0
  9
$DIMDLI
 40
8.0
  9
$DIMRND
 40
0.0
  9
$DIMDLE
 40
0.0
  9
$DIMEXE
 40
2.0
  9
$DIMTP
 40
0.0
  9
$DIMTM
 40
0.0
  9
$DIMTXT
 40
2.5
  9
$DIMCEN
 40
0.0
  9
$DIMTSZ
 40
0.0
  9
$DIMTOL
 70
     0
  9
$DIMLIM
 70
     0
  9
$DIMTIH
 70
     0
  9
$DIMTOH
 70
     0
  9
$DIMSE1
 70
     0
  9
$DIMSE2
 70
     0
  9
$DIMTAD
 70
     3
  9
$DIMZIN
 70
     0
  9
$DIMBLK
  1

  9
$DIMASO
 70
     1
  9
$DIMSHO
 70
     1
  9
$DIMPOST
  1

  9
$DIMAPOST
  1

  9
$DIMALT
 70
     0
  9
$DIMALTD
 70
     2
  9
$DIMALTF
 40
25.4
  9
$DIMLFAC
 40
1.0
  9
$DIMTOFL
 70
     1
  9
$DIMTVP
 40
0.0
  9
$DIMTIX
 70
     0
  9
$DIMSOXD
 70
     0
  9
$DIMSAH
 70
     1
  9
$DIMBLK1
  1
OPEN30
  9
$DIMBLK2
  1
OPEN30
  9
$DIMSTYLE
  2
STANDARD
  9
$DIMCLRD
 70
     0
  9
$DIMCLRE
 70
     0
  9
$DIMCLRT
 70
     0
  9
$DIMTFAC
 40
1.0
  9
$DIMGAP
 40
0.5
  9
$DIMJUST
 70
     0
  9
$DIMSD1
 70
     0
  9
$DIMSD2
 70
     0
  9
$DIMTOLJ
 70
     1
  9
$DIMTZIN
 70
     0
  9
$DIMALTZ
 70
     0
  9
$DIMALTTZ
 70
     0
  9
$DIMUPT
 70
     0
  9
$DIMDEC
 70
     4
  9
$DIMTDEC
 70
     4
  9
$DIMALTU
 70
     2
  9
$DIMALTTD
 70
     2
  9
$DIMTXSTY
  7
Standard
  9
$DIMAUNIT
 70
     0
  9
$DIMADEC
 70
     0
  9
$DIMALTRND
 40
0.0
  9
$DIMAZIN
 70
     0
  9
$DIMDSEP
 70
    46
  9
$DIMATFIT
 70
     3
  9
$DIMFRAC
 70
     0
  9
$DIMLDRBLK
  1
OPEN30
  9
$DIMLUNIT
 70
     2
  9
$DIMLWD
 70
    -2
  9
$DIMLWE
 70
    -2
  9
$DIMTMOVE
 70
     0
  9
$LUNITS
 70
     2
  9
$LUPREC
 70
     4
  9
$SKETCHINC
 40
1.0
  9
$FILLETRAD
 40
0.0
  9
$AUNITS
 70
     0
  9
$AUPREC
 70
     0
  9
$MENU
  1
.
  9
$ELEVATION
 40
0.0
  9
$PELEVATION
 40
0.0
  9
$THICKNESS
 40
0.0
  9
$LIMCHECK
 70
     0
  9
$CHAMFERA
 40
0.0
  9
$CHAMFERB
 40
0.0
  9
$CHAMFERC
 40
0.0
  9
$CHAMFERD
 40
0.0
  9
$SKPOLY
 70
     0
  9
$TDCREATE
 40
2454349.434269746
  9
$TDUCREATE
 40
2454349.059269746
  9
$TDUPDATE
 40
2454659.563850301
  9
$TDUUPDATE
 40
2454659.188850301
  9
$TDINDWG
 40
0.2031807870
  9
$TDUSRTIMER
 40
0.2031807870
  9
$USRTIMER
 70
     1
  9
$ANGBASE
 50
0.0
  9
$ANGDIR
 70
     0
  9
$PDMODE
 70
     0
  9
$PDSIZE
 40
0.0
  9
$PLINEWID
 40
0.0
  9
$SPLFRAME
 70
     0
  9
$SPLINETYPE
 70
     6
  9
$SPLINESEGS
 70
     8
  9
$HANDSEED
  5
312
  9
$SURFTAB1
 70
     6
  9
$SURFTAB2
 70
     6
  9
$SURFTYPE
 70
     6
  9
$SURFU
 70
     6
  9
$SURFV
 70
     6
  9
$UCSBASE
  2

  9
$UCSNAME
  2

  9
$UCSORG
 10
0.0
 20
0.0
 30
0.0
  9
$UCSXDIR
 10
1.0
 20
0.0
 30
0.0
  9
$UCSYDIR
 10
0.0
 20
1.0
 30
0.0
  9
$UCSORTHOREF
  2

  9
$UCSORTHOVIEW
 70
     0
  9
$UCSORGTOP
 10
0.0
 20
0.0
 30
0.0
  9
$UCSORGBOTTOM
 10
0.0
 20
0.0
 30
0.0
  9
$UCSORGLEFT
 10
0.0
 20
0.0
 30
0.0
  9
$UCSORGRIGHT
 10
0.0
 20
0.0
 30
0.0
  9
$UCSORGFRONT
 10
0.0
 20
0.0
 30
0.0
  9
$UCSORGBACK
 10
0.0
 20
0.0
 30
0.0
  9
$PUCSBASE
  2

  9
$PUCSNAME
  2

  9
$PUCSORG
 10
0.0
 20
0.0
 30
0.0
  9
$PUCSXDIR
 10
1.0
 20
0.0
 30
0.0
  9
$PUCSYDIR
 10
0.0
 20
1.0
 30
0.0
  9
$PUCSORTHOREF
  2

  9
$PUCSORTHOVIEW
 70
     0
  9
$PUCSORGTOP
 10
0.0
 20
0.0
 30
0.0
  9
$PUCSORGBOTTOM
 10
0.0
 20
0.0
 30
0.0
  9
$PUCSORGLEFT
 10
0.0
 20
0.0
 30
0.0
  9
$PUCSORGRIGHT
 10
0.0
 20
0.0
 30
0.0
  9
$PUCSORGFRONT
 10
0.0
 20
0.0
 30
0.0
  9
$PUCSORGBACK
 10
0.0
 20
0.0
 30
0.0
  9
$USERI1
 70
     0
  9
$USERI2
 70
     0
  9
$USERI3
 70
     0
  9
$USERI4
 70
     0
  9
$USERI5
 70
     0
  9
$USERR1
 40
0.0
  9
$USERR2
 40
0.0
  9
$USERR3
 40
0.0
  9
$USERR4
 40
0.0
  9
$USERR5
 40
0.0
  9
$WORLDVIEW
 70
     1
  9
$SHADEDGE
 70
     3
  9
$SHADEDIF
 70
    70
  9
$TILEMODE
 70
     1
  9
$MAXACTVP
 70
    64
  9
$PINSBASE
 10
0.0
 20
0.0
 30
0.0
  9
$PLIMCHECK
 70
     0
  9
$PEXTMIN
 10
0.0
 20
0.0
 30
0.0
  9
$PEXTMAX
 10
0.0
 20
0.0
 30
0.0
  9
$PLIMMIN
 10
0.0
 20
0.0
  9
$PLIMMAX
 10
12.0
 20
9.0
  9
$UNITMODE
 70
     0
  9
$VISRETAIN
 70
     1
  9
$PLINEGEN
 70
     0
  9
$PSLTSCALE
 70
     1
  9
$TREEDEPTH
 70
  3020
  9
$CMLSTYLE
  2
Standard
  9
$CMLJUST
 70
     0
  9
$CMLSCALE
 40
20.0
  9
$PROXYGRAPHICS
 70
     1
  9
$MEASUREMENT
 70
     1
  9
$CELWEIGHT
370
    -1
  9
$ENDCAPS
280
     0
  9
$JOINSTYLE
280
     0
  9
$LWDISPLAY
290
     0
  9
$INSUNITS
 70
     4
  9
$HYPERLINKBASE
  1

  9
$STYLESHEET
  1

  9
$XEDIT
290
     1
  9
$CEPSNTYPE
380
     0
  9
$PSTYLEMODE
290
     1
  9
$FINGERPRINTGUID
  2
{FDEAD578-A652-11D2-9A35-0060089B3A3F}
  9
$VERSIONGUID
  2
{B213CECE-B045-4069-A09D-E6513B0B74C6}
  9
$EXTNAMES
290
     1
  9
$PSVPSCALE
 40
0.0
  9
$OLESTARTUP
290
     0
  0
ENDSEC
  0
SECTION
  2
CLASSES
  0
CLASS
  1
ACDBDICTIONARYWDFLT
  2
AcDbDictionaryWithDefault
  3
ObjectDBX Classes
 90
        0
280
     0
281
     0
  0
CLASS
  1
ACDBPLACEHOLDER
  2
AcDbPlaceHolder
  3
ObjectDBX Classes
 90
        0
280
     0
281
     0
  0
CLASS
  1
LAYOUT
  2
AcDbLayout
  3
ObjectDBX Classes
 90
        0
280
     0
281
     0
  0
CLASS
  1
DICTIONARYVAR
  2
AcDbDictionaryVar
  3
ObjectDBX Classes
 90
        0
280
     0
281
     0
  0
CLASS
  1
DIMASSOC
  2
AcDbDimAssoc
  3
"AcDbDimAssoc|Product Desc:     AcDim ARX App For Dimension|Company:          Autodesk, Inc.|WEB Address:      www.autodesk.com"
 90
    32768
280
     0
281
     0
  0
ENDSEC
  0
SECTION
  2
TABLES
  0
TABLE
  2
VPORT
  5
1B
330
0
100
AcDbSymbolTable
 70
     3
  0
VPORT
  5
30A
330
1B
100
AcDbSymbolTableRecord
100
AcDbViewportTableRecord
  2
*Active
 70
     0
 10
0.0
 20
0.0
 11
1.0
 21
1.0
 12
0.4678352066174512
 22
6.222244788569241
 13
0.0
 23
0.0
 14
10.0
 24
10.0
 15
10.0
 25
10.0
 16
0.0
 26
0.0
 36
1.0
 17
0.0
 27
0.0
 37
0.0
 40
114.3724829867658
 41
1.536842105263157
 42
50.0
 43
0.0
 44
0.0
 50
0.0
 51
0.0
 71
     0
 72
  1000
 73
     1
 74
     2
 75
     0
 76
     0
 77
     0
 78
     0
281
     0
 65
     1
110
0.0
120
0.0
130
0.0
111
1.0
121
0.0
131
0.0
112
0.0
122
1.0
132
0.0
 79
     0
146
0.0
  0
ENDTAB
  0
TABLE
  2
LTYPE
  5
16
330
0
100
AcDbSymbolTable
 70
     3
  0
LTYPE
  5
17
330
16
100
AcDbSymbolTableRecord
100
AcDbLinetypeTableRecord
  2
ByBlock
 70
     0
  3

 72
    65
 73
     0
 40
0.0
  0
LTYPE
  5
18
330
16
100
AcDbSymbolTableRecord
100
AcDbLinetypeTableRecord
  2
ByLayer
 70
     0
  3

 72
    65
 73
     0
 40
0.0
  0
LTYPE
  5
8
330
16
100
AcDbSymbolTableRecord
100
AcDbLinetypeTableRecord
  2
Continuous
 70
     0
  3
Solid line
 72
    65
 73
     0
 40
0.0
  0
LTYPE
  5
E7
330
16
100
AcDbSymbolTableRecord
100
AcDbLinetypeTableRecord
  2
DASHED
 70
     0
  3
Dashed __ __ __ __ __ __ __ __ __ __ __ __ __ _
 72
    65
 73
     2
 40
19.05
 49
12.7
 74
     0
 49
-6.349999999999999
 74
     0
  0
LTYPE
  5
E3
330
16
100
AcDbSymbolTableRecord
100
AcDbLinetypeTableRecord
  2
HIDDEN2
 70
     0
  3
Hidden (.5x) _ _ _ _ _ _ _ _ _ _ _ _ _ _ _ _ _
 72
    65
 73
     2
 40
1.399999999999999
 49
0.7
 74
     0
 49
-0.7
 74
     0
  0
ENDTAB
  0
TABLE
  2
LAYER
  5
10
102
{ACAD_XDICTIONARY
360
11
102
}
330
0
100
AcDbSymbolTable
 70
     7
  0
LAYER
  5
4
330
10
100
AcDbSymbolTableRecord
100
AcDbLayerTableRecord
  2
0
 70
     0
 62
     7
  6
Continuous
370
    -3
390
5
  0
LAYER
  5
2AD
330
10
100
AcDbSymbolTableRecord
100
AcDbLayerTableRecord
  2
WAKU
 70
     0
 62
     4
  6
Continuous
370
    -3
390
5
  0
LAYER
  5
2AA
330
10
100
AcDbSymbolTableRecord
100
AcDbLayerTableRecord
  2
MOJI1
 70
     0
 62
     2
  6
Continuous
370
    -3
390
5
  0
LAYER
  5
2A8
330
10
100
AcDbSymbolTableRecord
100
AcDbLayerTableRecord
  2
TOUROKU
 70
     0
 62
     1
  6
Continuous
370
    -3
390
5
  0
LAYER
  5
200
330
10
100
AcDbSymbolTableRecord
100
AcDbLayerTableRecord
  2
DEFPOINTS
 70
     0
 62
     7
  6
Continuous
290
     0
370
    -3
390
5
  0
LAYER
  5
30
330
10
100
AcDbSymbolTableRecord
100
AcDbLayerTableRecord
  2
GAIKEI
 70
     0
 62
     7
  6
Continuous
370
    -3
390
5
  0
LAYER
  5
2D
330
10
100
AcDbSymbolTableRecord
100
AcDbLayerTableRecord
  2
SUNPO
 70
     0
 62
     3
  6
Continuous
370
    -3
390
5
  0
ENDTAB
  0
TABLE
  2
STYLE
  5
13
330
0
100
AcDbSymbolTable
 70
     1
  0
STYLE
  5
14
330
13
100
AcDbSymbolTableRecord
100
AcDbTextStyleTableRecord
  2
Standard
 70
     0
 40
0.0
 41
1.0
 50
0.0
 71
     0
 42
2.5
  3
MONOTXT.shx
  4
BIGFONT.shx
  0
ENDTAB
  0
TABLE
  2
VIEW
  5
19
330
0
100
AcDbSymbolTable
 70
     0
  0
ENDTAB
  0
TABLE
  2
UCS
  5
1A
330
0
100
AcDbSymbolTable
 70
     0
  0
ENDTAB
  0
TABLE
  2
APPID
  5
1D
330
0
100
AcDbSymbolTable
 70
     2
  0
APPID
  5
1E
330
1D
100
AcDbSymbolTableRecord
100
AcDbRegAppTableRecord
  2
ACAD
 70
     0
  0
APPID
  5
2D4
330
1D
100
AcDbSymbolTableRecord
100
AcDbRegAppTableRecord
  2
DCO15
 70
     0
  0
ENDTAB
  0
TABLE
  2
DIMSTYLE
  5
1F
330
0
100
AcDbSymbolTable
 70
     1
100
AcDbDimStyleTable
 71
     1
340
20
  0
DIMSTYLE
105
20
102
{ACAD_REACTORS
330
211
330
1F6
330
204
102
}
330
1F
100
AcDbSymbolTableRecord
100
AcDbDimStyleTableRecord
  2
STANDARD
 70
     0
 40
0.0
 41
2.0
 42
2.0
 43
8.0
 44
2.0
 73
     0
 74
     0
 77
     3
140
3.0
141
0.0
173
     1
279
     2
288
     1
340
14
341
21
343
21
344
21
  0
ENDTAB
  0
TABLE
  2
BLOCK_RECORD
  5
1
330
0
100
AcDbSymbolTable
 70
     7
  0
BLOCK_RECORD
  5
2
330
1
100
AcDbSymbolTableRecord
100
AcDbBlockTableRecord
  2
*Model_Space
340
A
  0
BLOCK_RECORD
  5
C
330
1
100
AcDbSymbolTableRecord
100
AcDbBlockTableRecord
  2
*Paper_Space
340
F
  0
BLOCK_RECORD
  5
21
330
1
100
AcDbSymbolTableRecord
100
AcDbBlockTableRecord
  2
_OPEN30
340
0
102
{BLKREFS
331
217
331
218
331
1FC
331
1FD
331
20A
331
20B
331
2E6
331
2E7
331
2F2
331
2F3
331
2FE
331
2FF
102
}
  0
BLOCK_RECORD
  5
212
330
1
100
AcDbSymbolTableRecord
100
AcDbBlockTableRecord
  2
*D1
340
0
  0
BLOCK_RECORD
  5
1F7
330
1
100
AcDbSymbolTableRecord
100
AcDbBlockTableRecord
  2
*D2
340
0
  0
BLOCK_RECORD
  5
205
330
1
100
AcDbSymbolTableRecord
100
AcDbBlockTableRecord
  2
*D3
340
0
  0
BLOCK_RECORD
  5
2E2
330
1
100
AcDbSymbolTableRecord
100
AcDbBlockTableRecord
  2
*D4
340
0
  0
BLOCK_RECORD
  5
2EE
330
1
100
AcDbSymbolTableRecord
100
AcDbBlockTableRecord
  2
*D5
340
0
  0
BLOCK_RECORD
  5
2FA
330
1
100
AcDbSymbolTableRecord
100
AcDbBlockTableRecord
  2
*D6
340
0
  0
ENDTAB
  0
ENDSEC
  0
SECTION
  2
BLOCKS
  0
BLOCK
  5
3
330
2
100
AcDbEntity
  8
0
100
AcDbBlockBegin
  2
*Model_Space
 70
     0
 10
0.0
 20
0.0
 30
0.0
  3
*Model_Space
  1

  0
ENDBLK
  5
9
330
2
100
AcDbEntity
  8
0
100
AcDbBlockEnd
  0
BLOCK
  5
D
330
C
100
AcDbEntity
 67
     1
  8
0
100
AcDbBlockBegin
  2
*Paper_Space
 70
     0
 10
0.0
 20
0.0
 30
0.0
  3
*Paper_Space
  1

  0
ENDBLK
  5
E
330
C
100
AcDbEntity
 67
     1
  8
0
100
AcDbBlockEnd
  0
BLOCK
  5
22
330
21
100
AcDbEntity
  8
0
100
AcDbBlockBegin
  2
_OPEN30
 70
     0
 10
0.0
 20
0.0
 30
0.0
  3
_OPEN30
  1

  0
LINE
  5
23
330
21
100
AcDbEntity
  8
0
  6
ByBlock
 62
     0
100
AcDbLine
 10
-1.0
 20
0.26794919
 30
0.0
 11
0.0
 21
0.0
 31
0.0
  0
LINE
  5
24
330
21
100
AcDbEntity
  8
0
  6
ByBlock
 62
     0
100
AcDbLine
 10
0.0
 20
0.0
 30
0.0
 11
-1.0
 21
-0.26794919
 31
0.0
  0
LINE
  5
25
330
21
100
AcDbEntity
  8
0
  6
ByBlock
 62
     0
100
AcDbLine
 10
0.0
 20
0.0
 30
0.0
 11
-1.0
 21
0.0
 31
0.0
  0
ENDBLK
  5
26
330
21
100
AcDbEntity
  8
0
100
AcDbBlockEnd
  0
BLOCK
  5
213
330
212
100
AcDbEntity
  8
0
100
AcDbBlockBegin
  2
*D1
 70
     1
 10
0.0
 20
0.0
 30
0.0
  3
*D1
  1

  0
LINE
  5
214
330
212
100
AcDbEntity
  8
SUNPO
 62
     0
370
    -2
100
AcDbLine
 10
78.79801919874406
 20
194.3392171929215
 30
0.0
 11
78.79801919874406
 21
186.3392171929216
 31
0.0
  0
LINE
  5
215
330
212
100
AcDbEntity
  8
SUNPO
 62
     0
370
    -2
100
AcDbLine
 10
103.318020398744
 20
194.3392171929215
 30
0.0
 11
103.318020398744
 21
186.3392171929216
 31
0.0
  0
LINE
  5
216
330
212
100
AcDbEntity
  8
SUNPO
 62
     0
370
    -2
100
AcDbLine
 10
80.79801919874405
 20
188.3392171929216
 30
0.0
 11
101.318020398744
 21
188.3392171929216
 31
0.0
  0
INSERT
  5
217
330
212
100
AcDbEntity
  8
SUNPO
 62
     0
370
    -2
100
AcDbBlockReference
  2
_OPEN30
 10
78.79801919874406
 20
188.3392171929216
 30
0.0
 41
2.0
 42
2.0
 43
2.0
 50
180.0
  0
INSERT
  5
218
330
212
100
AcDbEntity
  8
SUNPO
 62
     0
370
    -2
100
AcDbBlockReference
  2
_OPEN30
 10
103.318020398744
 20
188.3392171929216
 30
0.0
 41
2.0
 42
2.0
 43
2.0
  0
MTEXT
  5
219
330
212
100
AcDbEntity
  8
SUNPO
 62
     0
100
AcDbMText
 10
91.05801979874405
 20
190.0892171929216
 30
0.0
 40
2.5
 41
0.0
 71
     5
 72
     1
  1
\A1;φ122.6
 73
     1
 44
1.0
1001
ACAD
1000
MTEXTBEGIN
1070
    73
1070
     1
1070
    44
1040
1.0
1070
    74
1070
     0
1000
MTEXTEND
  0
POINT
  5
21A
330
212
100
AcDbEntity
  8
DEFPOINTS
 62
     0
100
AcDbPoint
 10
78.79801919874406
 20
196.3392171929216
 30
0.0
  0
POINT
  5
21B
330
212
100
AcDbEntity
  8
DEFPOINTS
 62
     0
100
AcDbPoint
 10
103.318020398744
 20
196.3392171929216
 30
0.0
  0
POINT
  5
21C
330
212
100
AcDbEntity
  8
DEFPOINTS
 62
     0
100
AcDbPoint
 10
103.318020398744
 20
188.3392171929216
 30
0.0
  0
ENDBLK
  5
21D
330
212
100
AcDbEntity
  8
0
100
AcDbBlockEnd
  0
BLOCK
  5
1F8
330
1F7
100
AcDbEntity
  8
0
100
AcDbBlockBegin
  2
*D2
 70
     1
 10
0.0
 20
0.0
 30
0.0
  3
*D2
  1

  0
LINE
  5
1F9
330
1F7
100
AcDbEntity
  8
SUNPO
 62
     0
370
    -2
100
AcDbLine
 10
32.22949394951906
 20
194.3392171929215
 30
0.0
 11
32.22949394951906
 21
186.3392171929216
 31
0.0
  0
LINE
  5
1FA
330
1F7
100
AcDbEntity
  8
SUNPO
 62
     0
370
    -2
100
AcDbLine
 10
56.74949514951905
 20
194.3392171929215
 30
0.0
 11
56.74949514951905
 21
186.3392171929216
 31
0.0
  0
LINE
  5
1FB
330
1F7
100
AcDbEntity
  8
SUNPO
 62
     0
370
    -2
100
AcDbLine
 10
34.22949394951905
 20
188.3392171929216
 30
0.0
 11
54.74949514951905
 21
188.3392171929216
 31
0.0
  0
INSERT
  5
1FC
330
1F7
100
AcDbEntity
  8
SUNPO
 62
     0
370
    -2
100
AcDbBlockReference
  2
_OPEN30
 10
32.22949394951906
 20
188.3392171929216
 30
0.0
 41
2.0
 42
2.0
 43
2.0
 50
180.0
  0
INSERT
  5
1FD
330
1F7
100
AcDbEntity
  8
SUNPO
 62
     0
370
    -2
100
AcDbBlockReference
  2
_OPEN30
 10
56.74949514951905
 20
188.3392171929216
 30
0.0
 41
2.0
 42
2.0
 43
2.0
  0
MTEXT
  5
1FE
330
1F7
100
AcDbEntity
  8
SUNPO
 62
     0
100
AcDbMText
 10
44.48949454951905
 20
190.0892171929216
 30
0.0
 40
2.5
 41
0.0
 71
     5
 72
     1
  1
\A1;φ122.6
 73
     1
 44
1.0
1001
ACAD
1000
MTEXTBEGIN
1070
    73
1070
     1
1070
    44
1040
1.0
1070
    74
1070
     0
1000
MTEXTEND
  0
POINT
  5
1FF
330
1F7
100
AcDbEntity
  8
DEFPOINTS
 62
     0
100
AcDbPoint
 10
32.22949394951906
 20
196.3392171929216
 30
0.0
  0
POINT
  5
201
330
1F7
100
AcDbEntity
  8
DEFPOINTS
 62
     0
100
AcDbPoint
 10
56.74949514951905
 20
196.3392171929216
 30
0.0
  0
POINT
  5
202
330
1F7
100
AcDbEntity
  8
DEFPOINTS
 62
     0
100
AcDbPoint
 10
56.74949514951905
 20
188.3392171929216
 30
0.0
  0
ENDBLK
  5
203
330
1F7
100
AcDbEntity
  8
0
100
AcDbBlockEnd
  0
BLOCK
  5
206
330
205
100
AcDbEntity
  8
0
100
AcDbBlockBegin
  2
*D3
 70
     1
 10
0.0
 20
0.0
 30
0.0
  3
*D3
  1

  0
LINE
  5
207
330
205
100
AcDbEntity
  8
SUNPO
 62
     0
370
    -2
100
AcDbLine
 10
35.88949454951904
 20
224.217743944416
 30
0.0
 11
35.88949454951904
 21
232.217743944416
 31
0.0
  0
LINE
  5
208
330
205
100
AcDbEntity
  8
SUNPO
 62
     0
370
    -2
100
AcDbLine
 10
53.08949454951905
 20
224.217743944416
 30
0.0
 11
53.08949454951905
 21
232.217743944416
 31
0.0
  0
LINE
  5
209
330
205
100
AcDbEntity
  8
SUNPO
 62
     0
370
    -2
100
AcDbLine
 10
37.88949454951904
 20
230.217743944416
 30
0.0
 11
51.08949454951905
 21
230.217743944416
 31
0.0
  0
INSERT
  5
20A
330
205
100
AcDbEntity
  8
SUNPO
 62
     0
370
    -2
100
AcDbBlockReference
  2
_OPEN30
 10
35.88949454951904
 20
230.217743944416
 30
0.0
 41
2.0
 42
2.0
 43
2.0
 50
180.0
  0
INSERT
  5
20B
330
205
100
AcDbEntity
  8
SUNPO
 62
     0
370
    -2
100
AcDbBlockReference
  2
_OPEN30
 10
53.08949454951905
 20
230.217743944416
 30
0.0
 41
2.0
 42
2.0
 43
2.0
  0
MTEXT
  5
20C
330
205
100
AcDbEntity
  8
SUNPO
 62
     0
100
AcDbMText
 10
44.48949454951904
 20
231.9677439444161
 30
0.0
 40
2.5
 41
0.0
 71
     5
 72
     1
  1
\A1;φ86
 73
     1
 44
1.0
1001
ACAD
1000
MTEXTBEGIN
1070
    73
1070
     1
1070
    44
1040
1.0
1070
    74
1070
     0
1000
MTEXTEND
  0
POINT
  5
20D
330
205
100
AcDbEntity
  8
DEFPOINTS
 62
     0
100
AcDbPoint
 10
35.88949454951904
 20
222.217743944416
 30
0.0
  0
POINT
  5
20E
330
205
100
AcDbEntity
  8
DEFPOINTS
 62
     0
100
AcDbPoint
 10
53.08949454951905
 20
222.217743944416
 30
0.0
  0
POINT
  5
20F
330
205
100
AcDbEntity
  8
DEFPOINTS
 62
     0
100
AcDbPoint
 10
53.08949454951905
 20
230.217743944416
 30
0.0
  0
ENDBLK
  5
210
330
205
100
AcDbEntity
  8
0
100
AcDbBlockEnd
  0
BLOCK
  5
2EC
330
2E2
100
AcDbEntity
  8
0
100
AcDbBlockBegin
  2
*D4
 70
     1
 10
0.0
 20
0.0
 30
0.0
  3
*D4
  1

  0
LINE
  5
2E3
330
2E2
100
AcDbEntity
  8
SUNPO
 62
     0
370
    -2
100
AcDbLine
 10
14.26938344548803
 20
13.04698206523204
 30
0.0
 11
14.26938344548803
 21
5.046982065232043
 31
0.0
  0
LINE
  5
2E4
330
2E2
100
AcDbEntity
  8
SUNPO
 62
     0
370
    -2
100
AcDbLine
 10
38.78938464548804
 20
13.04698206523204
 30
0.0
 11
38.78938464548804
 21
5.046982065232043
 31
0.0
  0
LINE
  5
2E5
330
2E2
100
AcDbEntity
  8
SUNPO
 62
     0
370
    -2
100
AcDbLine
 10
16.26938344548803
 20
7.046982065232043
 30
0.0
 11
36.78938464548804
 21
7.046982065232043
 31
0.0
  0
INSERT
  5
2E6
330
2E2
100
AcDbEntity
  8
SUNPO
 62
     0
370
    -2
100
AcDbBlockReference
  2
_OPEN30
 10
14.26938344548803
 20
7.046982065232043
 30
0.0
 41
2.0
 42
2.0
 43
2.0
 50
180.0
  0
INSERT
  5
2E7
330
2E2
100
AcDbEntity
  8
SUNPO
 62
     0
370
    -2
100
AcDbBlockReference
  2
_OPEN30
 10
38.78938464548804
 20
7.046982065232043
 30
0.0
 41
2.0
 42
2.0
 43
2.0
  0
MTEXT
  5
2E8
330
2E2
100
AcDbEntity
  8
SUNPO
 62
     0
100
AcDbMText
 10
26.52938404548804
 20
8.796982065232043
 30
0.0
 40
2.5
 41
0.0
 71
     5
 72
     1
  1
\A1;φ122.6
 73
     1
 44
1.0
1001
ACAD
1000
MTEXTBEGIN
1070
    73
1070
     1
1070
    44
1040
1.0
1070
    74
1070
     0
1000
MTEXTEND
  0
POINT
  5
2E9
330
2E2
100
AcDbEntity
  8
DEFPOINTS
 62
     0
100
AcDbPoint
 10
14.26938344548803
 20
15.04698206523204
 30
0.0
  0
POINT
  5
2EA
330
2E2
100
AcDbEntity
  8
DEFPOINTS
 62
     0
100
AcDbPoint
 10
38.78938464548804
 20
15.04698206523204
 30
0.0
  0
POINT
  5
2EB
330
2E2
100
AcDbEntity
  8
DEFPOINTS
 62
     0
100
AcDbPoint
 10
38.78938464548804
 20
7.046982065232043
 30
0.0
  0
ENDBLK
  5
2ED
330
2E2
100
AcDbEntity
  8
0
100
AcDbBlockEnd
  0
BLOCK
  5
2F8
330
2EE
100
AcDbEntity
  8
0
100
AcDbBlockBegin
  2
*D5
 70
     1
 10
0.0
 20
0.0
 30
0.0
  3
*D5
  1

  0
LINE
  5
2EF
330
2EE
100
AcDbEntity
  8
SUNPO
 62
     0
370
    -2
100
AcDbLine
 10
-28.63914120373699
 20
42.9255088167265
 30
0.0
 11
-28.63914120373699
 21
50.9255088167265
 31
0.0
  0
LINE
  5
2F0
330
2EE
100
AcDbEntity
  8
SUNPO
 62
     0
370
    -2
100
AcDbLine
 10
-11.43914120373697
 20
42.9255088167265
 30
0.0
 11
-11.43914120373697
 21
50.9255088167265
 31
0.0
  0
LINE
  5
2F1
330
2EE
100
AcDbEntity
  8
SUNPO
 62
     0
370
    -2
100
AcDbLine
 10
-26.63914120373699
 20
48.92550881672651
 30
0.0
 11
-13.43914120373697
 21
48.92550881672651
 31
0.0
  0
INSERT
  5
2F2
330
2EE
100
AcDbEntity
  8
SUNPO
 62
     0
370
    -2
100
AcDbBlockReference
  2
_OPEN30
 10
-28.63914120373699
 20
48.92550881672651
 30
0.0
 41
2.0
 42
2.0
 43
2.0
 50
180.0
  0
INSERT
  5
2F3
330
2EE
100
AcDbEntity
  8
SUNPO
 62
     0
370
    -2
100
AcDbBlockReference
  2
_OPEN30
 10
-11.43914120373697
 20
48.92550881672651
 30
0.0
 41
2.0
 42
2.0
 43
2.0
  0
MTEXT
  5
2F4
330
2EE
100
AcDbEntity
  8
SUNPO
 62
     0
100
AcDbMText
 10
-20.03914120373698
 20
50.67550881672651
 30
0.0
 40
2.5
 41
0.0
 71
     5
 72
     1
  1
\A1;φ86
 73
     1
 44
1.0
1001
ACAD
1000
MTEXTBEGIN
1070
    73
1070
     1
1070
    44
1040
1.0
1070
    74
1070
     0
1000
MTEXTEND
  0
POINT
  5
2F5
330
2EE
100
AcDbEntity
  8
DEFPOINTS
 62
     0
100
AcDbPoint
 10
-28.63914120373699
 20
40.9255088167265
 30
0.0
  0
POINT
  5
2F6
330
2EE
100
AcDbEntity
  8
DEFPOINTS
 62
     0
100
AcDbPoint
 10
-11.43914120373697
 20
40.9255088167265
 30
0.0
  0
POINT
  5
2F7
330
2EE
100
AcDbEntity
  8
DEFPOINTS
 62
     0
100
AcDbPoint
 10
-11.43914120373697
 20
48.92550881672651
 30
0.0
  0
ENDBLK
  5
2F9
330
2EE
100
AcDbEntity
  8
0
100
AcDbBlockEnd
  0
BLOCK
  5
304
330
2FA
100
AcDbEntity
  8
0
100
AcDbBlockBegin
  2
*D6
 70
     1
 10
0.0
 20
0.0
 30
0.0
  3
*D6
  1

  0
LINE
  5
2FB
330
2FA
100
AcDbEntity
  8
SUNPO
 62
     0
370
    -2
100
AcDbLine
 10
-32.29914180373697
 20
13.04698206523204
 30
0.0
 11
-32.29914180373697
 21
5.046982065232043
 31
0.0
  0
LINE
  5
2FC
330
2FA
100
AcDbEntity
  8
SUNPO
 62
     0
370
    -2
100
AcDbLine
 10
-7.779140603736969
 20
13.04698206523204
 30
0.0
 11
-7.77914060373697
 21
5.046982065232043
 31
0.0
  0
LINE
  5
2FD
330
2FA
100
AcDbEntity
  8
SUNPO
 62
     0
370
    -2
100
AcDbLine
 10
-30.29914180373697
 20
7.046982065232043
 30
0.0
 11
-9.779140603736969
 21
7.046982065232043
 31
0.0
  0
INSERT
  5
2FE
330
2FA
100
AcDbEntity
  8
SUNPO
 62
     0
370
    -2
100
AcDbBlockReference
  2
_OPEN30
 10
-32.29914180373697
 20
7.046982065232043
 30
0.0
 41
2.0
 42
2.0
 43
2.0
 50
180.0
  0
INSERT
  5
2FF
330
2FA
100
AcDbEntity
  8
SUNPO
 62
     0
370
    -2
100
AcDbBlockReference
  2
_OPEN30
 10
-7.77914060373697
 20
7.046982065232043
 30
0.0
 41
2.0
 42
2.0
 43
2.0
  0
MTEXT
  5
300
330
2FA
100
AcDbEntity
  8
SUNPO
 62
     0
100
AcDbMText
 10
-20.03914120373697
 20
8.796982065232043
 30
0.0
 40
2.5
 41
0.0
 71
     5
 72
     1
  1
\A1;φ122.6
 73
     1
 44
1.0
1001
ACAD
1000
MTEXTBEGIN
1070
    73
1070
     1
1070
    44
1040
1.0
1070
    74
1070
     0
1000
MTEXTEND
  0
POINT
  5
301
330
2FA
100
AcDbEntity
  8
DEFPOINTS
 62
     0
100
AcDbPoint
 10
-32.29914180373697
 20
15.04698206523204
 30
0.0
  0
POINT
  5
302
330
2FA
100
AcDbEntity
  8
DEFPOINTS
 62
     0
100
AcDbPoint
 10
-7.779140603736969
 20
15.04698206523204
 30
0.0
  0
POINT
  5
303
330
2FA
100
AcDbEntity
  8
DEFPOINTS
 62
     0
100
AcDbPoint
 10
-7.77914060373697
 20
7.046982065232043
 30
0.0
  0
ENDBLK
  5
305
330
2FA
100
AcDbEntity
  8
0
100
AcDbBlockEnd
  0
ENDSEC
  0
SECTION
  2
ENTITIES
  0
POINT
  5
2F
330
2
100
AcDbEntity
  8
GAIKEI
  6
Continuous
 62
     1
100
AcDbPoint
 10
-20.03914120373696
 20
42.9255088167265
 30
0.0
  0
POINT
  5
31
330
2
100
AcDbEntity
  8
GAIKEI
  6
Continuous
 62
     7
100
AcDbPoint
 10
-29.702355203737
 20
29.0456870167265
 30
0.0
  0
ARC
  5
32
330
2
100
AcDbEntity
  8
GAIKEI
  6
Continuous
 62
     1
100
AcDbCircle
 10
-31.69606860373699
 20
20.37278361672651
 30
0.0
 40
0.05
100
AcDbArc
 50
127.7396449999998
 51
171.7396419999992
  0
LINE
  5
33
330
2
100
AcDbEntity
  8
GAIKEI
  6
Continuous
 62
     1
100
AcDbLine
 10
-31.75505760373699
 20
20.31447981672653
 30
0.0
 11
-31.74554980373699
 21
20.37996441672652
 31
0.0
  0
LINE
  5
34
330
2
100
AcDbEntity
  8
GAIKEI
  6
Continuous
 62
     7
100
AcDbLine
 10
-31.75505760373699
 20
20.31447981672653
 30
0.0
 11
-31.698150003737
 21
20.35844341672651
 31
0.0
  0
LINE
  5
35
330
2
100
AcDbEntity
  8
GAIKEI
  6
Continuous
 62
     7
100
AcDbLine
 10
-31.698150003737
 20
20.35844341672651
 30
0.0
 11
-31.16191480373698
 21
20.7734824167265
 31
0.0
  0
LINE
  5
36
330
2
100
AcDbEntity
  8
GAIKEI
  6
Continuous
 62
     7
100
AcDbLine
 10
-31.16191480373698
 20
20.7734824167265
 30
0.0
 11
-31.12241760373698
 21
20.80414041672651
 31
0.0
  0
LINE
  5
37
330
2
100
AcDbEntity
  8
GAIKEI
  6
Continuous
 62
     7
100
AcDbLine
 10
-28.63914120373698
 20
22.7261802167265
 30
0.0
 11
-11.43914120373696
 21
22.7261802167265
 31
0.0
  0
LINE
  5
38
330
2
100
AcDbEntity
  8
GAIKEI
  6
Continuous
 62
     1
100
AcDbLine
 10
-25.91689840373698
 20
18.82618021672653
 30
0.0
 11
-7.879140603736949
 21
18.82618021672658
 31
0.0
  0
LINE
  5
39
330
2
100
AcDbEntity
  8
GAIKEI
  6
Continuous
 62
     7
100
AcDbLine
 10
-32.29914180373697
 20
18.82618021672653
 30
0.0
 11
-32.19914180373698
 21
18.82618021672658
 31
0.0
  0
LINE
  5
3A
330
2
100
AcDbEntity
  8
GAIKEI
  6
Continuous
 62
     1
100
AcDbLine
 10
-31.66566240373697
 20
18.62618021672654
 30
0.0
 11
-31.673572603737
 21
18.62618021672654
 31
0.0
  0
LINE
  5
3B
330
2
100
AcDbEntity
  8
GAIKEI
  6
Continuous
 62
     1
100
AcDbLine
 10
-31.12951900373699
 20
18.62618021672654
 30
0.0
 11
-31.66566240373697
 21
18.62618021672654
 31
0.0
  0
LINE
  5
3C
330
2
100
AcDbEntity
  8
GAIKEI
  6
Continuous
 62
     1
100
AcDbLine
 10
-8.188314203736979
 20
20.1858238167265
 30
0.0
 11
-25.72072980373699
 21
20.1858238167265
 31
0.0
  0
LINE
  5
3D
330
2
100
AcDbEntity
  8
GAIKEI
  6
Continuous
 62
     1
100
AcDbLine
 10
-31.88996820373697
 20
20.1858238167265
 30
0.0
 11
-25.72072980373699
 21
20.1858238167265
 31
0.0
  0
LINE
  5
3E
330
2
100
AcDbEntity
  8
GAIKEI
  6
Continuous
 62
     1
100
AcDbLine
 10
-31.19868100373697
 20
20.82098301672653
 30
0.0
 11
-31.72667160373698
 21
20.41232221672652
 31
0.0
  0
ARC
  5
3F
330
2
100
AcDbEntity
  8
GAIKEI
  6
Continuous
 62
     1
100
AcDbCircle
 10
-31.16807800373698
 20
20.78144441672652
 30
0.0
 40
0.05
100
AcDbArc
 50
37.73964999999859
 51
127.7396449999998
  0
LINE
  5
40
330
2
100
AcDbEntity
  8
GAIKEI
  6
Continuous
 62
     1
100
AcDbLine
 10
-31.12241760373698
 20
20.80414041672651
 30
0.0
 11
-31.12853780373697
 21
20.8120474167265
 31
0.0
  0
LINE
  5
41
330
2
100
AcDbEntity
  8
GAIKEI
  6
Continuous
 62
     1
100
AcDbLine
 10
-26.86314020373698
 20
23.02617401672654
 30
0.0
 11
-26.86914140373699
 21
22.7261802167265
 31
0.0
  0
LINE
  5
42
330
2
100
AcDbEntity
  8
GAIKEI
  6
Continuous
 62
     1
100
AcDbLine
 10
-13.21514220373697
 20
23.02617401672654
 30
0.0
 11
-13.20914240373696
 21
22.7261802167265
 31
0.0
  0
ARC
  5
43
330
2
100
AcDbEntity
  8
GAIKEI
  6
Continuous
 62
     7
100
AcDbCircle
 10
-28.32505420373698
 20
18.37160261672653
 30
0.0
 40
4.0000004
100
AcDbArc
 50
153.0279980000001
 51
173.4745789999997
  0
ARC
  5
44
330
2
100
AcDbEntity
  8
GAIKEI
  6
Continuous
 62
     7
100
AcDbCircle
 10
-31.71172100373699
 20
20.09511321672653
 30
0.0
 40
0.2000018
100
AcDbArc
 50
127.7397689999998
 51
153.0278900000013
  0
LINE
  5
45
330
2
100
AcDbEntity
  8
GAIKEI
  6
Continuous
 62
     7
100
AcDbLine
 10
-28.63914120373698
 20
22.7261802167265
 30
0.0
 11
-31.12241760373698
 21
20.80414041672651
 31
0.0
  0
LINE
  5
46
330
2
100
AcDbEntity
  8
GAIKEI
  6
Continuous
 62
     7
100
AcDbLine
 10
-31.75505760373699
 20
20.31447981672653
 30
0.0
 11
-31.83413620373699
 21
20.25327361672652
 31
0.0
  0
LINE
  5
47
330
2
100
AcDbEntity
  8
GAIKEI
  6
Continuous
 62
     1
100
AcDbLine
 10
-8.098684302954296
 20
18.62618021672654
 30
0.0
 11
-30.798302603737
 21
18.62618021672654
 31
0.0
  0
LINE
  5
48
330
2
100
AcDbEntity
  8
GAIKEI
  6
Continuous
 62
     1
100
AcDbLine
 10
-30.798302603737
 20
18.62618021672654
 30
0.0
 11
-32.19914180373698
 21
18.62618021672659
 31
0.0
  0
LINE
  5
49
330
2
100
AcDbEntity
  8
GAIKEI
  6
Continuous
 62
     7
100
AcDbLine
 10
-31.83914120373697
 20
17.48618081672652
 30
0.0
 11
-32.065046003737
 21
17.48618081672652
 31
0.0
  0
LINE
  5
4A
330
2
100
AcDbEntity
  8
GAIKEI
  6
Continuous
 62
     1
100
AcDbLine
 10
-8.239141203736963
 20
17.48618081672652
 30
0.0
 11
-31.83914120373698
 21
17.48618081672652
 31
0.0
  0
LINE
  5
4B
330
2
100
AcDbEntity
  8
GAIKEI
  6
Continuous
 62
     1
100
AcDbLine
 10
-8.674035003736975
 20
15.34650801672649
 30
0.0
 11
-31.40424880373698
 21
15.34650801672649
 31
0.0
  0
LINE
  5
4C
330
2
100
AcDbEntity
  8
GAIKEI
  6
Continuous
 62
     7
100
AcDbLine
 10
-9.066018003736985
 20
15.02618021672651
 30
0.0
 11
-31.01226440373699
 21
15.02618021672651
 31
0.0
  0
ARC
  5
4D
330
2
100
AcDbEntity
  8
GAIKEI
  6
Continuous
 62
     7
100
AcDbCircle
 10
-28.09914180373699
 20
18.62618021672654
 30
0.0
 40
4.200000399999999
100
AcDbArc
 50
179.9999949999995
 51
194.6941079999992
  0
ARC
  5
4E
330
2
100
AcDbEntity
  8
GAIKEI
  6
Continuous
 62
     7
100
AcDbCircle
 10
-32.065046003737
 20
17.58618081672654
 30
0.0
 40
0.1
100
AcDbArc
 50
194.6941079999992
 51
269.9999969999991
  0
LINE
  5
4F
330
2
100
AcDbEntity
  8
GAIKEI
  6
Continuous
 62
     7
100
AcDbLine
 10
-31.40424880373698
 20
15.34650801672649
 30
0.0
 11
-31.83914120373697
 21
17.48618081672652
 31
0.0
  0
ARC
  5
50
330
2
100
AcDbEntity
  8
GAIKEI
  6
Continuous
 62
     7
100
AcDbCircle
 10
-31.01226440373699
 20
15.42618021672649
 30
0.0
 40
0.4
100
AcDbArc
 50
191.4889879999996
 51
269.9999969999991
  0
LINE
  5
51
330
2
100
AcDbEntity
  8
GAIKEI
  6
Continuous
 62
     7
100
AcDbLine
 10
-32.19914180373698
 20
18.62618021672659
 30
0.0
 11
-32.19914180373698
 21
18.82618021672653
 31
0.0
  0
LINE
  5
52
330
2
100
AcDbEntity
  8
GAIKEI
  6
Continuous
 62
     1
100
AcDbLine
 10
-12.63914120373698
 20
14.82618021672652
 30
0.0
 11
-13.63914120373698
 21
14.82618021672652
 31
0.0
  0
LINE
  5
53
330
2
100
AcDbEntity
  8
GAIKEI
  6
Continuous
 62
     1
100
AcDbLine
 10
-13.63914120373698
 20
14.82618021672652
 30
0.0
 11
-14.63914120373698
 21
14.82618021672652
 31
0.0
  0
LINE
  5
54
330
2
100
AcDbEntity
  8
GAIKEI
  6
Continuous
 62
     1
100
AcDbLine
 10
-12.63914120373698
 20
14.82618021672652
 30
0.0
 11
-12.63914120373698
 21
15.02617401672654
 31
0.0
  0
LINE
  5
55
330
2
100
AcDbEntity
  8
GAIKEI
  6
Continuous
 62
     1
100
AcDbLine
 10
-14.63914120373698
 20
14.82618021672652
 30
0.0
 11
-14.63914120373698
 21
15.02617401672654
 31
0.0
  0
LINE
  5
56
330
2
100
AcDbEntity
  8
GAIKEI
  6
Continuous
 62
     1
100
AcDbLine
 10
-25.43914120373699
 20
14.82618021672652
 30
0.0
 11
-26.43914120373699
 21
14.82618021672652
 31
0.0
  0
LINE
  5
57
330
2
100
AcDbEntity
  8
GAIKEI
  6
Continuous
 62
     1
100
AcDbLine
 10
-26.43914120373699
 20
14.82618021672652
 30
0.0
 11
-27.439141203737
 21
14.82618021672652
 31
0.0
  0
LINE
  5
58
330
2
100
AcDbEntity
  8
GAIKEI
  6
Continuous
 62
     1
100
AcDbLine
 10
-25.43914120373699
 20
14.82618021672652
 30
0.0
 11
-25.43914120373699
 21
15.02617401672654
 31
0.0
  0
LINE
  5
59
330
2
100
AcDbEntity
  8
GAIKEI
  6
Continuous
 62
     1
100
AcDbLine
 10
-27.439141203737
 20
14.82618021672652
 30
0.0
 11
-27.439141203737
 21
15.02617401672654
 31
0.0
  0
LINE
  5
5A
330
2
100
AcDbEntity
  8
GAIKEI
  6
Continuous
 62
     1
100
AcDbLine
 10
-19.93912900373698
 20
14.82618021672652
 30
0.0
 11
-20.03914120373696
 21
14.82618021672652
 31
0.0
  0
LINE
  5
5B
330
2
100
AcDbEntity
  8
GAIKEI
  6
Continuous
 62
     1
100
AcDbLine
 10
-20.03914120373696
 20
14.82618021672652
 30
0.0
 11
-20.53914120373696
 21
14.82618021672652
 31
0.0
  0
LINE
  5
5C
330
2
100
AcDbEntity
  8
GAIKEI
  6
Continuous
 62
     1
100
AcDbLine
 10
-20.53914120373696
 20
14.82618021672652
 30
0.0
 11
-20.53914120373696
 21
15.02618021672651
 31
0.0
  0
LINE
  5
5D
330
2
100
AcDbEntity
  8
GAIKEI
  6
Continuous
 62
     1
100
AcDbLine
 10
-18.93914120373696
 20
14.82618021672652
 30
0.0
 11
-19.43914120373696
 21
14.82618021672652
 31
0.0
  0
LINE
  5
5E
330
2
100
AcDbEntity
  8
GAIKEI
  6
Continuous
 62
     1
100
AcDbLine
 10
-19.43914120373696
 20
14.82618021672652
 30
0.0
 11
-19.93914120373696
 21
14.82618021672652
 31
0.0
  0
LINE
  5
5F
330
2
100
AcDbEntity
  8
GAIKEI
  6
Continuous
 62
     1
100
AcDbLine
 10
-18.93914120373696
 20
14.82618021672652
 30
0.0
 11
-18.93914120373696
 21
15.02618021672651
 31
0.0
  0
LINE
  5
60
330
2
100
AcDbEntity
  8
GAIKEI
  6
Continuous
 62
     1
100
AcDbLine
 10
-19.93914120373696
 20
14.82618021672652
 30
0.0
 11
-19.93914120373696
 21
15.02618021672651
 31
0.0
  0
LINE
  5
61
330
2
100
AcDbEntity
  8
GAIKEI
  6
Continuous
 62
     7
100
AcDbLine
 10
-11.43914120373696
 20
32.86383281672653
 30
0.0
 11
-11.43914120373696
 21
34.7261802167265
 31
0.0
  0
LINE
  5
62
330
2
100
AcDbEntity
  8
GAIKEI
  6
Continuous
 62
     1
100
AcDbLine
 10
-15.23914120373698
 20
23.02618021672651
 30
0.0
 11
-15.23914120373698
 21
34.7261802167265
 31
0.0
  0
ARC
  5
63
330
2
100
AcDbEntity
  8
GAIKEI
  6
Continuous
 62
     7
100
AcDbCircle
 10
-20.03914120373696
 20
34.7261802167265
 30
0.0
 40
8.599999999999999
100
AcDbArc
 50
0.0
 51
56.0726729999993
  0
LINE
  5
64
330
2
100
AcDbEntity
  8
GAIKEI
  6
Continuous
 62
     1
100
AcDbLine
 10
-15.23912900373699
 20
34.7261802167265
 30
0.0
 11
-15.23912900373699
 21
41.86199561672651
 31
0.0
  0
LINE
  5
65
330
2
100
AcDbEntity
  8
GAIKEI
  6
Continuous
 62
     1
100
AcDbLine
 10
-15.56784900373697
 20
28.7274192167265
 30
0.0
 11
-15.56784900373697
 21
34.7261802167265
 31
0.0
  0
LWPOLYLINE
  5
66
330
2
100
AcDbEntity
  8
GAIKEI
  6
Continuous
 62
     1
100
AcDbPolyline
 90
       18
 70
     0
 43
0.0
 10
-15.56784900373699
 20
28.72741921672656
 10
-15.57534420373699
 20
28.59598001672657
 10
-15.59742980373698
 20
28.46621921672653
 10
-15.63364800373699
 20
28.33975441672658
 10
-15.68353820373699
 20
28.21819061672653
 10
-15.74664540373698
 20
28.10313941672655
 10
-15.82250600373697
 20
27.99621801672652
 10
-15.86505060373699
 20
27.94636461672656
 10
-15.91055540373699
 20
27.89928801672653
 10
-15.958919603737
 20
27.85528781672656
 10
-16.01005180373698
 20
27.81465061672657
 10
-16.06385420373701
 20
27.77767561672653
 10
-16.12021100373698
 20
27.74464941672653
 10
-16.17886280373699
 20
27.71588361672656
 10
-16.23949200373698
 20
27.69169541672653
 10
-16.301775403737
 20
27.67240221672654
 10
-16.36539540373698
 20
27.65831521672652
 10
-16.43002860373698
 20
27.64975201672655
  0
ARC
  5
67
330
2
100
AcDbEntity
  8
GAIKEI
  6
Continuous
 62
     1
100
AcDbCircle
 10
-20.03467040373698
 20
68.64341661672648
 30
0.0
 40
41.151892
100
AcDbArc
 50
270.0633880000009
 51
275.0251929999998
  0
LINE
  5
68
330
2
100
AcDbEntity
  8
GAIKEI
  6
Continuous
 62
     1
100
AcDbLine
 10
-19.98914120373697
 20
27.49151221672651
 30
0.0
 11
-19.98914120373697
 21
23.08617781672655
 31
0.0
  0
LINE
  5
69
330
2
100
AcDbEntity
  8
GAIKEI
  6
Continuous
 62
     7
100
AcDbLine
 10
-11.43914120373692
 20
23.02618021672657
 30
0.0
 11
-19.98926620373697
 21
23.02618021672651
 31
0.0
  0
ARC
  5
6A
330
2
100
AcDbEntity
  8
GAIKEI
  6
Continuous
 62
     7
100
AcDbCircle
 10
-20.03914120373696
 20
18.5918784167265
 30
0.0
 40
23.7600006
100
AcDbArc
 50
78.34487800000158
 51
79.15308199999902
  0
LINE
  5
6B
330
2
100
AcDbEntity
  8
GAIKEI
  6
Continuous
 62
     1
100
AcDbLine
 10
-15.56784900373697
 20
34.7261802167265
 30
0.0
 11
-15.56784900373697
 21
41.92737041672649
 31
0.0
  0
LINE
  5
6C
330
2
100
AcDbEntity
  8
GAIKEI
  6
Continuous
 62
     1
100
AcDbLine
 10
-19.98914120373697
 20
23.02618021672651
 30
0.0
 11
-19.98914120373697
 21
23.08617781672655
 31
0.0
  0
LINE
  5
6D
330
2
100
AcDbEntity
  8
GAIKEI
  6
Continuous
 62
     1
100
AcDbLine
 10
-15.63914120373698
 20
34.7261802167265
 30
0.0
 11
-15.63914120373698
 21
28.7274192167265
 31
0.0
  0
LINE
  5
6E
330
2
100
AcDbEntity
  8
GAIKEI
  6
Continuous
 62
     1
100
AcDbLine
 10
-15.63914120373698
 20
28.7274192167265
 30
0.0
 11
-15.56784900373697
 21
28.7274192167265
 31
0.0
  0
LINE
  5
6F
330
2
100
AcDbEntity
  8
GAIKEI
  6
Continuous
 62
     1
100
AcDbLine
 10
-19.98914120373697
 20
27.49151221672651
 30
0.0
 11
-19.98926620373697
 21
27.54352021672651
 31
0.0
  0
LINE
  5
70
330
2
100
AcDbEntity
  8
GAIKEI
  6
Continuous
 62
     1
100
AcDbLine
 10
-19.98914120373697
 20
27.54352021672651
 30
0.0
 11
-19.98914120373697
 21
28.0589194167265
 31
0.0
  0
ARC
  5
71
330
2
100
AcDbEntity
  8
GAIKEI
  6
Continuous
 62
     7
100
AcDbCircle
 10
-15.57914060373699
 20
41.86844101672654
 30
0.0
 40
0.06
100
AcDbArc
 50
79.15308199999902
 51
180.0000050000005
  0
LINE
  5
72
330
2
100
AcDbEntity
  8
GAIKEI
  6
Continuous
 62
     1
100
AcDbLine
 10
-15.63914120373698
 20
34.7261802167265
 30
0.0
 11
-15.63914120373698
 21
41.86844101672654
 31
0.0
  0
ELLIPSE
  5
73
330
2
100
AcDbEntity
  8
GAIKEI
  6
Continuous
 62
     1
100
AcDbEllipse
 10
-16.43914420373699
 20
28.98194181672653
 30
0.0
 11
0.000006103515625
 21
-0.9230194091796875
 31
0.0
210
0.0
220
0.0
230
1.0
 40
0.8667249999999999
 41
6.28318452835083
 42
7.851845741271972
  0
LINE
  5
74
330
2
100
AcDbEntity
  8
GAIKEI
  6
Continuous
 62
     1
100
AcDbLine
 10
-16.43914120373696
 20
28.0589194167265
 30
0.0
 11
-16.43914120373696
 21
27.648900093762
 31
0.0
  0
LINE
  5
75
330
2
100
AcDbEntity
  8
GAIKEI
  6
Continuous
 62
     1
100
AcDbLine
 10
-19.98914120373697
 20
28.0589194167265
 30
0.0
 11
-16.43914120373696
 21
28.0589194167265
 31
0.0
  0
LINE
  5
76
330
2
100
AcDbEntity
  8
GAIKEI
  6
Continuous
 62
     7
100
AcDbLine
 10
-28.63914120373698
 20
23.648559812489
 30
0.0
 11
-28.40557800373699
 21
23.85371921672652
 31
0.0
  0
ARC
  5
77
330
2
100
AcDbEntity
  8
GAIKEI
  6
Continuous
 62
     7
100
AcDbCircle
 10
32.92136919626301
 20
-46.14610978327346
 30
0.0
 40
93.06433099999999
100
AcDbArc
 50
130.7922609999997
 51
131.2216479999985
  0
LINE
  5
78
330
2
100
AcDbEntity
  8
GAIKEI
  6
Continuous
 62
     7
100
AcDbLine
 10
-28.63914120373698
 20
23.08617781672655
 30
0.0
 11
-28.63914120373698
 21
23.648559812489
 31
0.0
  0
LINE
  5
79
330
2
100
AcDbEntity
  8
GAIKEI
  6
Continuous
 62
     7
100
AcDbLine
 10
-28.59829940373698
 20
32.76615221672654
 30
0.0
 11
-28.62283860373697
 21
32.82509381672651
 31
0.0
  0
LINE
  5
7A
330
2
100
AcDbEntity
  8
GAIKEI
  6
Continuous
 62
     7
100
AcDbLine
 10
-28.62283860373697
 20
32.82509381672651
 30
0.0
 11
-28.63386320373698
 21
32.85135721672651
 31
0.0
  0
LINE
  5
7B
330
2
100
AcDbEntity
  8
GAIKEI
  6
Continuous
 62
     7
100
AcDbLine
 10
-28.63914120373698
 20
32.86383281672653
 30
0.0
 11
-28.63914120373698
 21
34.7261802167265
 31
0.0
  0
LWPOLYLINE
  5
7C
330
2
100
AcDbEntity
  8
GAIKEI
  6
Continuous
 62
     7
100
AcDbPolyline
 90
        6
 70
     0
 43
0.0
 10
-27.81464780373699
 20
24.51603621672655
 10
-27.819893603737
 20
24.44708481672654
 10
-27.835183003737
 20
24.38442601672654
 10
-27.85302660373699
 20
24.34457001672655
 10
-27.87383040373697
 20
24.31643281672655
 10
-27.879262603737
 20
24.31134261672657
  0
LINE
  5
7D
330
2
100
AcDbEntity
  8
GAIKEI
  6
Continuous
 62
     7
100
AcDbLine
 10
-28.63469480373698
 20
32.85329801672651
 30
0.0
 11
-28.63912580373699
 21
32.8638266167265
 31
0.0
  0
ARC
  5
7E
330
2
100
AcDbEntity
  8
GAIKEI
  6
Continuous
 62
     7
100
AcDbCircle
 10
-40.14950340373698
 20
27.99062721672652
 30
0.0
 40
12.4994576
100
AcDbArc
 50
22.07937600000069
 51
22.89421099999977
  0
ARC
  5
7F
330
2
100
AcDbEntity
  8
GAIKEI
  6
Continuous
 62
     7
100
AcDbCircle
 10
-39.48758620373698
 20
28.2318992167265
 30
0.0
 40
11.795311
100
AcDbArc
 50
17.31796900000048
 51
22.20190400000005
  0
LWPOLYLINE
  5
80
330
2
100
AcDbEntity
  8
GAIKEI
  6
Continuous
 62
     7
100
AcDbPolyline
 90
        7
 70
     0
 43
0.0
 10
-28.22710800373699
 20
31.74302581672657
 10
-28.12965780373699
 20
31.40898041672654
 10
-28.03702620373698
 20
31.04190901672655
 10
-27.97425160373701
 20
30.74885481672652
 10
-27.919710603737
 20
30.44415501672654
 10
-27.87530140373699
 20
30.13109961672654
 10
-27.852071403737
 20
29.91934421672653
  0
ARC
  5
81
330
2
100
AcDbEntity
  8
GAIKEI
  6
Continuous
 62
     7
100
AcDbCircle
 10
-35.87171100373698
 20
29.14341661672654
 30
0.0
 40
8.0570786
100
AcDbArc
 50
0.0196609999997647
 51
5.526386999999371
  0
LINE
  5
82
330
2
100
AcDbEntity
  8
GAIKEI
  6
Continuous
 62
     7
100
AcDbLine
 10
-27.81464780373699
 20
29.14618141672651
 30
0.0
 11
-27.81464780373699
 21
24.51603621672649
 31
0.0
  0
LINE
  5
83
330
2
100
AcDbEntity
  8
GAIKEI
  6
Continuous
 62
     1
100
AcDbLine
 10
-24.83914120373697
 20
23.02618021672651
 30
0.0
 11
-24.83914120373697
 21
34.7261802167265
 31
0.0
  0
ARC
  5
84
330
2
100
AcDbEntity
  8
GAIKEI
  6
Continuous
 62
     7
100
AcDbCircle
 10
-20.03914120373696
 20
34.7261802167265
 30
0.0
 40
8.599999999999999
100
AcDbArc
 50
123.9273200000001
 51
180.0000050000005
  0
LINE
  5
85
330
2
100
AcDbEntity
  8
GAIKEI
  6
Continuous
 62
     7
100
AcDbLine
 10
-28.57914060373699
 20
23.02618021672651
 30
0.0
 11
-20.08901600373699
 21
23.02618021672651
 31
0.0
  0
LINE
  5
86
330
2
100
AcDbEntity
  8
GAIKEI
  6
Continuous
 62
     1
100
AcDbLine
 10
-20.08914120373697
 20
23.08617781672655
 30
0.0
 11
-20.08914120373697
 21
27.49151221672651
 31
0.0
  0
ARC
  5
87
330
2
100
AcDbEntity
  8
GAIKEI
  6
Continuous
 62
     1
100
AcDbCircle
 10
-20.04342580373696
 20
68.6476340167265
 30
0.0
 40
41.15611580000001
100
AcDbArc
 50
264.9750680000002
 51
269.9363610000007
  0
LWPOLYLINE
  5
88
330
2
100
AcDbEntity
  8
GAIKEI
  6
Continuous
 62
     1
100
AcDbPolyline
 90
       18
 70
     0
 43
0.0
 10
-23.64825520373699
 20
27.64975201672655
 10
-23.71281200373699
 20
27.65830301672656
 10
-23.77638780373698
 20
27.67236541672656
 10
-23.838620803737
 20
27.69161601672653
 10
-23.89917540373699
 20
27.71574921672652
 10
-23.957738603737
 20
27.74444181672652
 10
-24.01403580373699
 20
27.77741301672654
 10
-24.06784300373698
 20
27.81436981672653
 10
-24.11899340373699
 20
27.85499481672656
 10
-24.16736840373699
 20
27.89896461672652
 10
-24.212874603737
 20
27.94598601672652
 10
-24.25542680373701
 20
27.99577861672657
 10
-24.331331603737
 20
28.10263281672656
 10
-24.39451080373698
 20
28.21769021672651
 10
-24.444478603737
 20
28.33932101672656
 10
-24.48076720373701
 20
28.46589581672652
 10
-24.50291060373698
 20
28.59580901672655
 10
-24.51043180373699
 20
28.72741921672656
  0
LINE
  5
89
330
2
100
AcDbEntity
  8
GAIKEI
  6
Continuous
 62
     1
100
AcDbLine
 10
-24.51043180373699
 20
28.7274192167265
 30
0.0
 11
-24.51043180373699
 21
34.7261802167265
 31
0.0
  0
LINE
  5
8A
330
2
100
AcDbEntity
  8
GAIKEI
  6
Continuous
 62
     1
100
AcDbLine
 10
-24.83915340373699
 20
34.7261802167265
 30
0.0
 11
-24.83915340373699
 21
41.86199561672651
 31
0.0
  0
ARC
  5
8B
330
2
100
AcDbEntity
  8
GAIKEI
  6
Continuous
 62
     7
100
AcDbCircle
 10
-20.03914120373696
 20
18.5918784167265
 30
0.0
 40
23.7600006
100
AcDbArc
 50
100.8469170000002
 51
101.6551189999994
  0
LINE
  5
8C
330
2
100
AcDbEntity
  8
GAIKEI
  6
Continuous
 62
     1
100
AcDbLine
 10
-20.08914120373697
 20
23.02618021672651
 30
0.0
 11
-20.08914120373697
 21
23.08617781672655
 31
0.0
  0
LINE
  5
8D
330
2
100
AcDbEntity
  8
GAIKEI
  6
Continuous
 62
     1
100
AcDbLine
 10
-20.08914120373697
 20
28.0589194167265
 30
0.0
 11
-20.08914120373697
 21
27.54352021672651
 31
0.0
  0
LINE
  5
8E
330
2
100
AcDbEntity
  8
GAIKEI
  6
Continuous
 62
     1
100
AcDbLine
 10
-20.08914120373697
 20
27.49151221672651
 30
0.0
 11
-20.08901600373699
 21
27.54352021672651
 31
0.0
  0
LINE
  5
8F
330
2
100
AcDbEntity
  8
GAIKEI
  6
Continuous
 62
     1
100
AcDbLine
 10
-24.51043180373699
 20
28.7274192167265
 30
0.0
 11
-24.439141203737
 21
28.7274192167265
 31
0.0
  0
LINE
  5
90
330
2
100
AcDbEntity
  8
GAIKEI
  6
Continuous
 62
     1
100
AcDbLine
 10
-24.439141203737
 20
28.7274192167265
 30
0.0
 11
-24.439141203737
 21
34.7261802167265
 31
0.0
  0
LINE
  5
91
330
2
100
AcDbEntity
  8
GAIKEI
  6
Continuous
 62
     1
100
AcDbLine
 10
-24.51043180373699
 20
34.7261802167265
 30
0.0
 11
-24.51043180373699
 21
41.92737041672649
 31
0.0
  0
ARC
  5
92
330
2
100
AcDbEntity
  8
GAIKEI
  6
Continuous
 62
     7
100
AcDbCircle
 10
-24.49914180373699
 20
41.86844101672654
 30
0.0
 40
0.06
100
AcDbArc
 50
0.0
 51
100.8469170000002
  0
LINE
  5
93
330
2
100
AcDbEntity
  8
GAIKEI
  6
Continuous
 62
     1
100
AcDbLine
 10
-24.439141203737
 20
34.7261802167265
 30
0.0
 11
-24.439141203737
 21
41.86844101672654
 31
0.0
  0
LINE
  5
94
330
2
100
AcDbEntity
  8
GAIKEI
  6
Continuous
 62
     1
100
AcDbLine
 10
-19.98914120373697
 20
27.45681981672652
 30
0.0
 11
-19.98914120373697
 21
23.18617781672651
 31
0.0
  0
LINE
  5
95
330
2
100
AcDbEntity
  8
GAIKEI
  6
Continuous
 62
     1
100
AcDbLine
 10
-19.98914120373697
 20
27.45681981672652
 30
0.0
 11
-20.08914120373697
 21
27.45681981672652
 31
0.0
  0
LINE
  5
96
330
2
100
AcDbEntity
  8
GAIKEI
  6
Continuous
 62
     1
100
AcDbLine
 10
-19.98914120373697
 20
27.45681981672652
 30
0.0
 11
-19.98914120373697
 21
27.50882181672654
 31
0.0
  0
LINE
  5
97
330
2
100
AcDbEntity
  8
GAIKEI
  6
Continuous
 62
     1
100
AcDbLine
 10
-20.08914120373697
 20
27.50882181672654
 30
0.0
 11
-19.98914120373697
 21
27.50882181672654
 31
0.0
  0
LINE
  5
98
330
2
100
AcDbEntity
  8
GAIKEI
  6
Continuous
 62
     1
100
AcDbLine
 10
-20.08914120373697
 20
27.98969341672654
 30
0.0
 11
-19.98914120373697
 21
27.98969341672654
 31
0.0
  0
LWPOLYLINE
  5
99
330
2
100
AcDbEntity
  8
GAIKEI
  6
Continuous
 62
     1
100
AcDbPolyline
 90
       15
 70
     0
 43
0.0
 10
-24.439141203737
 20
28.98194181672653
 10
-24.435149403737
 20
28.88985821672657
 10
-24.42251820373698
 20
28.79475921672656
 10
-24.40036100373698
 20
28.69804301672656
 10
-24.36796800373699
 20
28.60134501672656
 10
-24.32488480373698
 20
28.50656961672655
 10
-24.27103200373699
 20
28.41587141672653
 10
-24.206849003737
 20
28.33160621672653
 10
-24.13330780373701
 20
28.25606901672654
 10
-24.05179380373699
 20
28.19118881672654
 10
-23.964052603737
 20
28.13847881672655
 10
-23.87213060373699
 20
28.09893401672656
 10
-23.778304403737
 20
28.07299421672656
 10
-23.68495100373698
 20
28.06043921672653
 10
-23.63914120373698
 20
28.05891941672655
  0
LINE
  5
9A
330
2
100
AcDbEntity
  8
GAIKEI
  6
Continuous
 62
     1
100
AcDbLine
 10
-23.63914120373698
 20
28.0589194167265
 30
0.0
 11
-20.08914120373697
 21
28.0589194167265
 31
0.0
  0
LINE
  5
9B
330
2
100
AcDbEntity
  8
GAIKEI
  6
Continuous
 62
     1
100
AcDbLine
 10
-23.63914120373698
 20
27.6488938104078
 30
0.0
 11
-23.63914120373698
 21
28.0589194167265
 31
0.0
  0
ARC
  5
9C
330
2
100
AcDbEntity
  8
GAIKEI
  6
Continuous
 62
     7
100
AcDbCircle
 10
-28.57914060373699
 20
23.08617781672655
 30
0.0
 40
0.06
100
AcDbArc
 50
181.6300060000001
 51
268.3699929999995
  0
LINE
  5
9D
330
2
100
AcDbEntity
  8
GAIKEI
  6
Continuous
 62
     1
100
AcDbLine
 10
-28.01045000373699
 20
29.04510721672654
 30
0.0
 11
-28.01045000373699
 21
29.06891081672654
 31
0.0
  0
LWPOLYLINE
  5
9E
330
2
100
AcDbEntity
  8
GAIKEI
  6
Continuous
 62
     1
100
AcDbPolyline
 90
        6
 70
     0
 43
0.0
 10
-28.01052780373698
 20
29.04511321672658
 10
-28.00941700373698
 20
26.33789281672654
 10
-28.00916380373701
 20
25.83151461672656
 10
-28.00903240373699
 20
25.32713841672654
 10
-28.007506603737
 20
24.90895001672652
 10
-28.00903560373701
 20
24.69987401672654
  0
LINE
  5
9F
330
2
100
AcDbEntity
  8
GAIKEI
  6
Continuous
 62
     1
100
AcDbLine
 10
-27.81464219290189
 20
29.15597623640684
 30
0.0
 11
-28.01045000373699
 21
29.06891081672654
 31
0.0
  0
LINE
  5
A0
330
2
100
AcDbEntity
  8
GAIKEI
  6
Continuous
 62
     1
100
AcDbLine
 10
-27.91703720373698
 20
24.34031601672649
 30
0.0
 11
-27.85572140373699
 21
24.34031601672649
 31
0.0
  0
LINE
  5
A1
330
2
100
AcDbEntity
  8
GAIKEI
  6
Continuous
 62
     1
100
AcDbLine
 10
-28.75002380373698
 20
32.53992521672649
 30
0.0
 11
-28.78528227896326
 21
32.63533477579756
 31
0.0
  0
LINE
  5
A2
330
2
100
AcDbEntity
  8
GAIKEI
  6
Continuous
 62
     1
100
AcDbLine
 10
-28.674218003737
 20
32.33915021672653
 30
0.0
 11
-28.75002380373698
 21
32.53992521672649
 31
0.0
  0
LWPOLYLINE
  5
A3
330
2
100
AcDbEntity
  8
GAIKEI
  6
Continuous
 62
     1
100
AcDbPolyline
 90
       12
 70
     0
 43
0.0
 10
-28.674218003737
 20
32.33915021672653
 10
-28.531441603737
 20
31.94035861672654
 10
-28.422709003737
 20
31.60085061672658
 10
-28.33772520373699
 20
31.30550761672657
 10
-28.25471120373697
 20
30.97981181672651
 10
-28.17973560373699
 20
30.63589081672655
 10
-28.115169603737
 20
30.27185281672655
 10
-28.078893403737
 20
30.01478501672654
 10
-28.04935380373701
 20
29.74924541672653
 10
-28.02751700373699
 20
29.47907321672654
 10
-28.013936603737
 20
29.20602021672653
 10
-28.010424003737
 20
29.06891081672654
  0
LINE
  5
A4
330
2
100
AcDbEntity
  8
GAIKEI
  6
Continuous
 62
     1
100
AcDbLine
 10
-28.10697100373699
 20
29.04510101672651
 30
0.0
 11
-28.01053100373699
 21
29.04510721672654
 31
0.0
  0
ARC
  5
A5
330
2
100
AcDbEntity
  8
GAIKEI
  6
Continuous
 62
     1
100
AcDbCircle
 10
-18.76560600373699
 20
42.52260361672654
 30
0.0
 40
20.3554566
100
AcDbArc
 50
242.4277329999994
 51
243.2831469999999
  0
LINE
  5
A6
330
2
100
AcDbEntity
  8
GAIKEI
  6
Continuous
 62
     1
100
AcDbLine
 10
-28.01848680373698
 20
24.68539041672654
 30
0.0
 11
-28.00986860373697
 21
24.70043561672651
 31
0.0
  0
LINE
  5
A7
330
2
100
AcDbEntity
  8
GAIKEI
  6
Continuous
 62
     1
100
AcDbLine
 10
-28.03617020373699
 20
24.65096041672649
 30
0.0
 11
-28.01848680373698
 21
24.68539041672654
 31
0.0
  0
LWPOLYLINE
  5
A8
330
2
100
AcDbEntity
  8
GAIKEI
  6
Continuous
 62
     1
100
AcDbPolyline
 90
        3
 70
     0
 43
0.0
 10
-28.097225203737
 20
24.55475681672652
 10
-28.05971300373699
 20
24.60724701672655
 10
-28.03617020373699
 20
24.65096041672655
  0
LWPOLYLINE
  5
A9
330
2
100
AcDbEntity
  8
GAIKEI
  6
Continuous
 62
     1
100
AcDbPolyline
 90
        5
 70
     0
 43
0.0
 10
-28.18742600373699
 20
24.47903061672656
 10
-28.18111200373698
 20
24.48763641672656
 10
-28.162844203737
 20
24.50084441672653
 10
-28.115349603737
 20
24.53576881672655
 10
-28.097225203737
 20
24.55475681672652
  0
LINE
  5
AA
330
2
100
AcDbEntity
  8
GAIKEI
  6
Continuous
 62
     7
100
AcDbLine
 10
-28.63832780373698
 20
23.74569321672652
 30
0.0
 11
-28.63789600373698
 21
23.74607161672651
 31
0.0
  0
ARC
  5
AB
330
2
100
AcDbEntity
  8
GAIKEI
  6
Continuous
 62
     7
100
AcDbCircle
 10
-28.62615600373698
 20
32.4558006167265
 30
0.0
 40
0.24
100
AcDbArc
 50
131.6367059999993
 51
152.5945940000008
  0
LINE
  5
AC
330
2
100
AcDbEntity
  8
GAIKEI
  6
Continuous
 62
     1
100
AcDbLine
 10
-29.702355203737
 20
29.04571761672651
 30
0.0
 11
-28.10697100373699
 21
29.04510101672651
 31
0.0
  0
LWPOLYLINE
  5
AD
330
2
100
AcDbEntity
  8
GAIKEI
  6
Continuous
 62
     1
100
AcDbPolyline
 90
        5
 70
     0
 43
0.0
 10
-28.187313203737
 20
24.47887801672653
 10
-28.26189500373698
 20
24.48976041672654
 10
-28.40158020373698
 20
24.50453101672656
 10
-28.733753203737
 20
24.54153061672656
 10
-29.31020140373698
 20
24.61366801672653
  0
ARC
  5
AE
330
2
100
AcDbEntity
  8
GAIKEI
  6
Continuous
 62
     1
100
AcDbCircle
 10
-27.187740403737
 20
41.0181358167265
 30
0.0
 40
16.5410934
100
AcDbArc
 50
261.4402400000003
 51
262.6278469999991
  0
LINE
  5
AF
330
2
100
AcDbEntity
  8
GAIKEI
  6
Continuous
 62
     7
100
AcDbLine
 10
-28.63828680551101
 20
32.7660484167265
 30
0.0
 11
-28.59817280373699
 21
32.7660484167265
 31
0.0
  0
LINE
  5
B0
330
2
100
AcDbEntity
  8
GAIKEI
  6
Continuous
 62
     7
100
AcDbLine
 10
-28.78554920373699
 20
32.63509741672653
 30
0.0
 11
-28.63828680551101
 21
32.7660484167265
 31
0.0
  0
LINE
  5
B1
330
2
100
AcDbEntity
  8
GAIKEI
  6
Continuous
 62
     7
100
AcDbLine
 10
-28.63789600373698
 20
23.74569321672652
 30
0.0
 11
-28.52870880373698
 21
23.74569321672652
 31
0.0
  0
LWPOLYLINE
  5
B2
330
2
100
AcDbEntity
  8
GAIKEI
  6
Continuous
 62
     7
100
AcDbPolyline
 90
       13
 70
     0
 43
0.0
 10
-29.702355203737
 20
29.04568701672656
 10
-29.69559560373699
 20
29.36270981672652
 10
-29.675570003737
 20
29.67893281672656
 10
-29.64590080373699
 20
29.96608501672654
 10
-29.605507803737
 20
30.25114961672654
 10
-29.55198760373699
 20
30.54682841672656
 10
-29.48715300373698
 20
30.83918681672651
 10
-29.410857403737
 20
31.12874361672652
 10
-29.32307980373699
 20
31.41581041672657
 10
-29.22345820373698
 20
31.70108861672657
 10
-29.10846480373698
 20
31.99127421672654
 10
-28.96984480373701
 20
32.30133281672653
 10
-28.83921440373701
 20
32.56628021672657
  0
LINE
  5
B3
330
2
100
AcDbEntity
  8
GAIKEI
  6
Continuous
 62
     7
100
AcDbLine
 10
-29.70185480373698
 20
24.7800314167265
 30
0.0
 11
-29.70159540373698
 21
29.04569321672653
 31
0.0
  0
LINE
  5
B4
330
2
100
AcDbEntity
  8
GAIKEI
  6
Continuous
 62
     7
100
AcDbLine
 10
-29.646584403737
 20
24.65858981672653
 30
0.0
 11
-28.63832940373697
 21
23.74554661672653
 31
0.0
  0
ARC
  5
B5
330
2
100
AcDbEntity
  8
GAIKEI
  6
Continuous
 62
     7
100
AcDbCircle
 10
-29.54230420373699
 20
24.78000101672649
 30
0.0
 40
0.1599164
100
AcDbArc
 50
180.0102539999992
 51
227.8484200000007
  0
CIRCLE
  5
B6
330
2
100
AcDbEntity
  8
GAIKEI
  6
Continuous
 62
     1
100
AcDbCircle
 10
-20.03914120373696
 20
34.7261802167265
 30
0.0
 40
2.9
  0
LINE
  5
B7
330
2
100
AcDbEntity
  8
GAIKEI
  6
Continuous
 62
     1
100
AcDbLine
 10
-24.439141203737
 20
41.10617901672651
 30
0.0
 11
-24.23914120373698
 21
41.3061790167265
 31
0.0
  0
LINE
  5
B8
330
2
100
AcDbEntity
  8
GAIKEI
  6
Continuous
 62
     1
100
AcDbLine
 10
-15.63914120373698
 20
41.10617901672651
 30
0.0
 11
-15.83914120373697
 21
41.3061790167265
 31
0.0
  0
LINE
  5
B9
330
2
100
AcDbEntity
  8
GAIKEI
  6
Continuous
 62
     1
100
AcDbLine
 10
-15.83914120373697
 20
34.7261802167265
 30
0.0
 11
-15.83914120373697
 21
41.3061790167265
 31
0.0
  0
LINE
  5
BA
330
2
100
AcDbEntity
  8
GAIKEI
  6
Continuous
 62
     1
100
AcDbLine
 10
-15.83914120373697
 20
41.30616681672648
 30
0.0
 11
-15.83914120373697
 21
41.42633281672653
 31
0.0
  0
LINE
  5
BB
330
2
100
AcDbEntity
  8
GAIKEI
  6
Continuous
 62
     1
100
AcDbLine
 10
-15.83914120373697
 20
34.7261802167265
 30
0.0
 11
-15.83914120373697
 21
42.37340301672651
 31
0.0
  0
LINE
  5
BC
330
2
100
AcDbEntity
  8
GAIKEI
  6
Continuous
 62
     1
100
AcDbLine
 10
-24.23914120373698
 20
34.7261802167265
 30
0.0
 11
-24.23914120373698
 21
42.37340301672651
 31
0.0
  0
ARC
  5
BD
330
2
100
AcDbEntity
  8
GAIKEI
  6
Continuous
 62
     1
100
AcDbCircle
 10
-20.03914120373696
 20
34.7261802167265
 30
0.0
 40
3.219240999999999
100
AcDbArc
 50
51.99999699999963
 51
180.0000050000005
  0
ELLIPSE
  5
BE
330
2
100
AcDbEntity
  8
GAIKEI
  6
Continuous
 62
     1
100
AcDbEllipse
 10
-20.285622403737
 20
34.54802461672654
 30
0.0
 11
2.786575317382812
 21
1.8840576171875
 31
0.0
210
0.0
220
0.0
230
1.0
 40
0.944692
 41
5.717058658599853
 42
6.184291839599609
  0
LINE
  5
BF
330
2
100
AcDbEntity
  8
GAIKEI
  6
Continuous
 62
     1
100
AcDbLine
 10
-17.19672180373698
 20
36.2375206167265
 30
0.0
 11
-17.33732220373699
 21
36.16276461672652
 31
0.0
  0
ARC
  5
C0
330
2
100
AcDbEntity
  8
GAIKEI
  6
Continuous
 62
     1
100
AcDbCircle
 10
-20.03919600373698
 20
34.72616801672649
 30
0.0
 40
3.219296599999999
100
AcDbArc
 50
0.0002419999992783
 51
27.99974899999963
  0
LINE
  5
C1
330
2
100
AcDbEntity
  8
GAIKEI
  6
Continuous
 62
     1
100
AcDbLine
 10
-18.15521780373697
 20
37.13749001672653
 30
0.0
 11
-18.05717700373697
 21
37.26297821672654
 31
0.0
  0
ARC
  5
C2
330
2
100
AcDbEntity
  8
GAIKEI
  6
Continuous
 62
     1
100
AcDbCircle
 10
-20.03937000373699
 20
34.72624121672652
 30
0.0
 40
3.059769799999999
100
AcDbArc
 50
152.8860659999993
 51
180.0010980000005
  0
ARC
  5
C3
330
2
100
AcDbEntity
  8
GAIKEI
  6
Continuous
 62
     1
100
AcDbCircle
 10
-20.03912280373697
 20
34.72616181672652
 30
0.0
 40
3.060023
100
AcDbArc
 50
109.1635110000003
 51
152.8868860000004
  0
ARC
  5
C4
330
2
100
AcDbEntity
  8
GAIKEI
  6
Continuous
 62
     1
100
AcDbCircle
 10
-20.03914120373696
 20
34.72616181672652
 30
0.0
 40
3.060022
100
AcDbArc
 50
66.81653700000039
 51
109.1631969999987
  0
ARC
  5
C5
330
2
100
AcDbEntity
  8
GAIKEI
  6
Continuous
 62
     1
100
AcDbCircle
 10
-20.03922660373698
 20
34.72602761672653
 30
0.0
 40
3.0601738
100
AcDbArc
 50
60.00002299999953
 51
66.81600400000006
  0
ARC
  5
C6
330
2
100
AcDbEntity
  8
GAIKEI
  6
Continuous
 62
     1
100
AcDbCircle
 10
-20.03940060373697
 20
34.72579561672649
 30
0.0
 40
3.0604614
100
AcDbArc
 50
52.00060800000107
 51
59.99940099999982
  0
LINE
  5
C7
330
2
100
AcDbEntity
  8
GAIKEI
  6
Continuous
 62
     1
100
AcDbLine
 10
-18.15521780373697
 20
37.13749001672653
 30
0.0
 11
-18.16047300373696
 21
37.13076401672652
 31
0.0
  0
ARC
  5
C8
330
2
100
AcDbEntity
  8
GAIKEI
  6
Continuous
 62
     7
100
AcDbCircle
 10
-20.03914120373696
 20
26.67421481672653
 30
0.0
 40
16.2512908
100
AcDbArc
 50
75.0224209999988
 51
104.9775770000007
  0
LINE
  5
C9
330
2
100
AcDbEntity
  8
GAIKEI
  6
Continuous
 62
     1
100
AcDbLine
 10
-22.76230100373698
 20
36.12187721672649
 30
0.0
 11
-22.75906300373697
 21
36.12805401672654
 31
0.0
  0
LINE
  5
CA
330
2
100
AcDbEntity
  8
GAIKEI
  6
Continuous
 62
     1
100
AcDbLine
 10
-15.83914120373697
 20
28.37126081672654
 30
0.0
 11
-15.83914120373697
 21
31.43617781672651
 31
0.0
  0
LINE
  5
CB
330
2
100
AcDbEntity
  8
GAIKEI
  6
Continuous
 62
     1
100
AcDbLine
 10
-15.83914120373697
 20
31.43617781672651
 30
0.0
 11
-15.83914120373697
 21
34.7261802167265
 31
0.0
  0
LINE
  5
CC
330
2
100
AcDbEntity
  8
GAIKEI
  6
Continuous
 62
     1
100
AcDbLine
 10
-22.02110520373697
 20
32.18938201672654
 30
0.0
 11
-21.92306440373699
 21
32.31487041672654
 31
0.0
  0
LINE
  5
CD
330
2
100
AcDbEntity
  8
GAIKEI
  6
Continuous
 62
     1
100
AcDbLine
 10
-21.92000660373699
 20
32.31878281672653
 30
0.0
 11
-21.92306440373699
 21
32.31487041672654
 31
0.0
  0
LINE
  5
CE
330
2
100
AcDbEntity
  8
GAIKEI
  6
Continuous
 62
     1
100
AcDbLine
 10
-22.74096000373697
 20
33.28959581672649
 30
0.0
 11
-22.88156060373697
 21
33.21483981672651
 31
0.0
  0
LINE
  5
CF
330
2
100
AcDbEntity
  8
GAIKEI
  6
Continuous
 62
     1
100
AcDbLine
 10
-24.23914120373698
 20
28.37134001672649
 30
0.0
 11
-24.23914120373698
 21
34.7261802167265
 31
0.0
  0
LINE
  5
D0
330
2
100
AcDbEntity
  8
GAIKEI
  6
Continuous
 62
     1
100
AcDbLine
 10
-15.83914120373697
 20
28.37134621672652
 30
0.0
 11
-15.83914120373697
 21
34.7261802167265
 31
0.0
  0
ARC
  5
D1
330
2
100
AcDbEntity
  8
GAIKEI
  6
Continuous
 62
     1
100
AcDbCircle
 10
-20.03914120373696
 20
34.7261802167265
 30
0.0
 40
3.219240999999999
100
AcDbArc
 50
232.0000019999983
 51
359.9999159999994
  0
LWPOLYLINE
  5
D2
330
2
100
AcDbEntity
  8
GAIKEI
  6
Continuous
 62
     1
100
AcDbPolyline
 90
       10
 70
     0
 43
0.0
 10
-18.50882200373701
 20
32.07558821672654
 10
-18.34007200373699
 20
32.18067841672655
 10
-18.17846920373699
 20
32.29687721672656
 10
-18.02464220373699
 20
32.42345801672656
 10
-17.87921680373699
 20
32.55971901672655
 10
-17.74281860373699
 20
32.70492781672658
 10
-17.61607280373698
 20
32.85837621672653
 10
-17.49960860373699
 20
33.01935041672653
 10
-17.39405140373699
 20
33.18712981672656
 10
-17.345552803737
 20
33.27334821672656
  0
ELLIPSE
  5
D3
330
2
100
AcDbEntity
  8
GAIKEI
  6
Continuous
 62
     1
100
AcDbEllipse
 10
-20.28526840373701
 20
34.90426241672657
 30
0.0
 11
2.785632324218749
 21
-1.884854125976564
 31
0.0
210
0.0
220
0.0
230
1.0
 40
0.9447279999999999
 41
0.093502901494503
 42
0.5664887428283692
  0
ARC
  5
D4
330
2
100
AcDbEntity
  8
GAIKEI
  6
Continuous
 62
     1
100
AcDbCircle
 10
-20.048159003737
 20
34.71270361672651
 30
0.0
 40
3.0441456
100
AcDbArc
 50
231.9776120000008
 51
250.8104589999987
  0
LWPOLYLINE
  5
D5
330
2
100
AcDbEntity
  8
GAIKEI
  6
Continuous
 62
     1
100
AcDbPolyline
 90
       12
 70
     0
 43
0.0
 10
-21.048760203737
 20
31.83767921672654
 10
-20.841317003737
 20
31.77342741672658
 10
-20.629735603737
 20
31.72386081672653
 10
-20.415264203737
 20
31.68939421672656
 10
-20.19915400373699
 20
31.67036361672655
 10
-19.98261960373699
 20
31.66673201672654
 10
-19.76687240373701
 20
31.67834701672655
 10
-19.55311520373698
 20
31.70506201672651
 10
-19.34248580373699
 20
31.74670621672658
 10
-19.13560100373698
 20
31.80294401672654
 10
-18.932851403737
 20
31.87338481672657
 10
-18.83322080373699
 20
31.91383281672654
  0
ARC
  5
D6
330
2
100
AcDbEntity
  8
GAIKEI
  6
Continuous
 62
     1
100
AcDbCircle
 10
-20.01373520373698
 20
34.68799661672654
 30
0.0
 40
3.014883
100
AcDbArc
 50
293.05164
 51
299.9446589999989
  0
ARC
  5
D7
330
2
100
AcDbEntity
  8
GAIKEI
  6
Continuous
 62
     1
100
AcDbCircle
 10
-20.03908620373699
 20
34.72619241672652
 30
0.0
 40
3.2192948
100
AcDbArc
 50
180.0002409999995
 51
207.9997550000003
  0
ARC
  5
D8
330
2
100
AcDbEntity
  8
GAIKEI
  6
Continuous
 62
     1
100
AcDbCircle
 10
-20.04890380373698
 20
34.72363501672652
 30
0.0
 40
3.050172
100
AcDbArc
 50
179.9522480000007
 51
208.0439160000006
  0
LINE
  5
D9
330
2
100
AcDbEntity
  8
GAIKEI
  6
Continuous
 62
     1
100
AcDbLine
 10
-21.05453420373698
 20
31.83969941672655
 30
0.0
 11
-21.04876020373698
 21
31.83767921672654
 31
0.0
  0
CIRCLE
  5
DA
330
2
100
AcDbEntity
  8
GAIKEI
  6
Continuous
 62
     1
100
AcDbCircle
 10
-20.03914120373696
 20
34.7261802167265
 30
0.0
 40
3.3
  0
CIRCLE
  5
DB
330
2
100
AcDbEntity
  8
GAIKEI
  6
Continuous
 62
     1
100
AcDbCircle
 10
-20.03913800373698
 20
34.72617401672653
 30
0.0
 40
3.5000042
  0
LINE
  5
DC
330
2
100
AcDbEntity
  8
GAIKEI
  6
Continuous
 62
     1
100
AcDbLine
 10
-19.88914120373698
 20
29.77018041672653
 30
0.0
 11
-19.88914120373698
 21
30.77018041672654
 31
0.0
  0
LINE
  5
DD
330
2
100
AcDbEntity
  8
GAIKEI
  6
Continuous
 62
     1
100
AcDbLine
 10
-20.18914120373697
 20
29.77018041672653
 30
0.0
 11
-20.18914120373697
 21
30.77018041672654
 31
0.0
  0
ARC
  5
DE
330
2
100
AcDbEntity
  8
GAIKEI
  6
Continuous
 62
     1
100
AcDbCircle
 10
-20.03914120373696
 20
65.27983001672652
 30
0.0
 40
34.50997620000001
100
AcDbArc
 50
269.7509620000002
 51
270.2490399999987
  0
ARC
  5
DF
330
2
100
AcDbEntity
  8
GAIKEI
  6
Continuous
 62
     1
100
AcDbCircle
 10
-20.03914120373696
 20
57.31655501672651
 30
0.0
 40
27.5467804
100
AcDbArc
 50
269.6880079999995
 51
270.3119940000004
  0
LINE
  5
E0
330
2
100
AcDbEntity
  8
GAIKEI
  6
Continuous
 62
     1
100
AcDbLine
 10
-24.439141203737
 20
28.98151461672654
 30
0.0
 11
-24.439141203737
 21
30.29404521672649
 31
0.0
  0
LINE
  5
E1
330
2
100
AcDbEntity
  8
GAIKEI
  6
Continuous
 62
     1
100
AcDbLine
 10
-20.08914120373697
 20
27.99951401672649
 30
0.0
 11
-19.98915640373698
 21
27.99951401672649
 31
0.0
  0
LINE
  5
E2
330
2
100
AcDbEntity
  8
GAIKEI
  6
HIDDEN2
 62
     1
100
AcDbLine
 10
29.12938264548802
 20
16.52618021672651
 30
0.0
 11
29.12938264548802
 21
19.02618021672651
 31
0.0
  0
LINE
  5
E4
330
2
100
AcDbEntity
  8
GAIKEI
  6
HIDDEN2
 62
     1
100
AcDbLine
 10
31.52938264548803
 20
19.02618021672651
 30
0.0
 11
31.52938264548803
 21
16.52618021672651
 31
0.0
  0
LINE
  5
E5
330
2
100
AcDbEntity
  8
GAIKEI
  6
HIDDEN2
 62
     1
100
AcDbLine
 10
29.12938264548802
 20
16.52618021672651
 30
0.0
 11
31.52938264548803
 21
16.52618021672651
 31
0.0
  0
LINE
  5
E6
330
2
100
AcDbEntity
  8
GAIKEI
  6
DASHED
 62
     1
100
AcDbLine
 10
29.12938264548802
 20
19.02618021672651
 30
0.0
 11
31.52938264548803
 21
19.02618021672651
 31
0.0
  0
CIRCLE
  5
E8
330
2
100
AcDbEntity
  8
GAIKEI
  6
HIDDEN2
 62
     1
100
AcDbCircle
 10
30.32938264548801
 20
17.82618021672653
 30
0.0
 40
0.5900000000000001
  0
CIRCLE
  5
E9
330
2
100
AcDbEntity
  8
GAIKEI
  6
HIDDEN2
 62
     1
100
AcDbCircle
 10
30.32938264548801
 20
17.82618021672653
 30
0.0
 40
0.3
  0
CIRCLE
  5
EA
330
2
100
AcDbEntity
  8
GAIKEI
  6
HIDDEN2
 62
     1
100
AcDbCircle
 10
30.32938264548801
 20
17.82618021672653
 30
0.0
 40
0.1050006
  0
LINE
  5
EB
330
2
100
AcDbEntity
  8
GAIKEI
  6
HIDDEN2
 62
     1
100
AcDbLine
 10
31.52938264548803
 20
16.32618021672653
 30
0.0
 11
31.52938264548803
 21
16.52618021672651
 31
0.0
  0
LINE
  5
EC
330
2
100
AcDbEntity
  8
GAIKEI
  6
HIDDEN2
 62
     1
100
AcDbLine
 10
29.12938264548802
 20
16.52618021672651
 30
0.0
 11
29.12938264548802
 21
16.32618021672653
 31
0.0
  0
LINE
  5
ED
330
2
100
AcDbEntity
  8
GAIKEI
  6
HIDDEN2
 62
     1
100
AcDbLine
 10
29.12938264548802
 20
16.32618021672653
 30
0.0
 11
31.52938264548803
 21
16.32618021672653
 31
0.0
  0
LINE
  5
EE
330
2
100
AcDbEntity
  8
GAIKEI
  6
DASHED
 62
     1
100
AcDbLine
 10
35.22729524548803
 20
17.0561790167265
 30
0.0
 11
35.79938384548802
 21
17.0561790167265
 31
0.0
  0
LINE
  5
EF
330
2
100
AcDbEntity
  8
GAIKEI
  6
HIDDEN2
 62
     1
100
AcDbLine
 10
35.79938384548802
 20
17.0561790167265
 30
0.0
 11
35.79938384548802
 21
18.45617901672653
 31
0.0
  0
ARC
  5
F0
330
2
100
AcDbEntity
  8
GAIKEI
  6
HIDDEN2
 62
     1
100
AcDbCircle
 10
34.52938864548801
 20
18.45617901672653
 30
0.0
 40
0.099995
100
AcDbArc
 50
179.9992670000004
 51
0.0026670000000331
  0
LINE
  5
F1
330
2
100
AcDbEntity
  8
GAIKEI
  6
DASHED
 62
     1
100
AcDbLine
 10
35.22729524548803
 20
16.85617901672651
 30
0.0
 11
35.22729524548803
 21
17.0561790167265
 31
0.0
  0
LINE
  5
F2
330
2
100
AcDbEntity
  8
GAIKEI
  6
HIDDEN2
 62
     1
100
AcDbLine
 10
36.12938264548802
 20
16.32618021672653
 30
0.0
 11
32.92938264548804
 21
16.32618021672653
 31
0.0
  0
LINE
  5
F3
330
2
100
AcDbEntity
  8
GAIKEI
  6
HIDDEN2
 62
     1
100
AcDbLine
 10
36.12938264548802
 20
18.98618081672651
 30
0.0
 11
36.12938264548802
 21
16.32618021672653
 31
0.0
  0
LINE
  5
F4
330
2
100
AcDbEntity
  8
GAIKEI
  6
HIDDEN2
 62
     1
100
AcDbLine
 10
32.92938264548804
 20
18.98618081672651
 30
0.0
 11
36.12938264548802
 21
18.98618081672651
 31
0.0
  0
LINE
  5
F5
330
2
100
AcDbEntity
  8
GAIKEI
  6
HIDDEN2
 62
     1
100
AcDbLine
 10
32.92938264548804
 20
16.32618021672653
 30
0.0
 11
32.92938264548804
 21
18.98618081672651
 31
0.0
  0
LINE
  5
F6
330
2
100
AcDbEntity
  8
GAIKEI
  6
HIDDEN2
 62
     1
100
AcDbLine
 10
35.79938384548802
 20
18.45617901672653
 30
0.0
 11
33.25938124548802
 21
18.45617901672653
 31
0.0
  0
LINE
  5
F7
330
2
100
AcDbEntity
  8
GAIKEI
  6
DASHED
 62
     1
100
AcDbLine
 10
34.95938124548803
 20
16.85617901672651
 30
0.0
 11
35.22729524548803
 21
16.85617901672651
 31
0.0
  0
LINE
  5
F8
330
2
100
AcDbEntity
  8
GAIKEI
  6
DASHED
 62
     1
100
AcDbLine
 10
34.95938124548803
 20
16.45617901672653
 30
0.0
 11
34.95938124548803
 21
16.85617901672651
 31
0.0
  0
LINE
  5
F9
330
2
100
AcDbEntity
  8
GAIKEI
  6
DASHED
 62
     1
100
AcDbLine
 10
34.09938384548804
 20
16.45617901672653
 30
0.0
 11
34.95938124548803
 21
16.45617901672653
 31
0.0
  0
LINE
  5
FA
330
2
100
AcDbEntity
  8
GAIKEI
  6
DASHED
 62
     1
100
AcDbLine
 10
34.09938384548804
 20
16.85617901672651
 30
0.0
 11
34.09938384548804
 21
16.45617901672653
 31
0.0
  0
LINE
  5
FB
330
2
100
AcDbEntity
  8
GAIKEI
  6
DASHED
 62
     1
100
AcDbLine
 10
33.83147004548801
 20
16.85617901672651
 30
0.0
 11
34.09938384548804
 21
16.85617901672651
 31
0.0
  0
LINE
  5
FC
330
2
100
AcDbEntity
  8
GAIKEI
  6
DASHED
 62
     1
100
AcDbLine
 10
33.83147004548801
 20
17.0561790167265
 30
0.0
 11
33.83147004548801
 21
16.85617901672651
 31
0.0
  0
LINE
  5
FD
330
2
100
AcDbEntity
  8
GAIKEI
  6
DASHED
 62
     1
100
AcDbLine
 10
33.25938124548802
 20
17.0561790167265
 30
0.0
 11
33.83147004548801
 21
17.0561790167265
 31
0.0
  0
LINE
  5
FE
330
2
100
AcDbEntity
  8
GAIKEI
  6
HIDDEN2
 62
     1
100
AcDbLine
 10
33.25938124548802
 20
18.45617901672653
 30
0.0
 11
33.25938124548802
 21
17.0561790167265
 31
0.0
  0
LINE
  5
FF
330
2
100
AcDbEntity
  8
GAIKEI
  6
Continuous
 62
     1
100
AcDbLine
 10
26.47938264548802
 20
20.78144441672652
 30
0.0
 11
26.47938264548802
 21
20.37278361672651
 31
0.0
  0
LINE
  5
100
330
2
100
AcDbEntity
  8
GAIKEI
  6
Continuous
 62
     1
100
AcDbLine
 10
26.57938264548801
 20
20.78144441672652
 30
0.0
 11
26.57938264548801
 21
20.37278361672651
 31
0.0
  0
LINE
  5
101
330
2
100
AcDbEntity
  8
GAIKEI
  6
Continuous
 62
     1
100
AcDbLine
 10
26.47938264548802
 20
20.37278361672651
 30
0.0
 11
26.47938264548802
 21
20.35844341672651
 31
0.0
  0
LWPOLYLINE
  5
102
330
2
100
AcDbEntity
  8
GAIKEI
  6
Continuous
 62
     1
100
AcDbPolyline
 90
        4
 70
     0
 43
0.0
 10
26.52938264548803
 20
20.31447981672653
 10
26.50409564548801
 20
20.32050401672655
 10
26.48593164548803
 20
20.33667221672653
 10
26.47938264548802
 20
20.35844341672657
  0
LINE
  5
103
330
2
100
AcDbEntity
  8
GAIKEI
  6
Continuous
 62
     1
100
AcDbLine
 10
26.57938264548801
 20
20.35844341672651
 30
0.0
 11
26.57938264548801
 21
20.37278361672651
 31
0.0
  0
LWPOLYLINE
  5
104
330
2
100
AcDbEntity
  8
GAIKEI
  6
Continuous
 62
     1
100
AcDbPolyline
 90
        4
 70
     0
 43
0.0
 10
26.52938264548803
 20
20.31447981672653
 10
26.55565204548802
 20
20.32102281672655
 10
26.57390764548802
 20
20.33842081672651
 10
26.57938264548801
 20
20.35844341672657
  0
LINE
  5
105
330
2
100
AcDbEntity
  8
GAIKEI
  6
Continuous
 62
     1
100
AcDbLine
 10
29.03362444548802
 20
18.82618021672653
 30
0.0
 11
28.92122824548801
 21
18.82618021672653
 31
0.0
  0
ARC
  5
106
330
2
100
AcDbEntity
  8
GAIKEI
  6
Continuous
 62
     1
100
AcDbCircle
 10
38.65061664548803
 20
18.3817466167265
 30
0.0
 40
9.739530999999999
100
AcDbArc
 50
176.2061490000006
 51
177.3845750000006
  0
LINE
  5
107
330
2
100
AcDbEntity
  8
GAIKEI
  6
Continuous
 62
     1
100
AcDbLine
 10
28.93242824548801
 20
19.02618021672651
 30
0.0
 11
36.51730984548802
 21
19.02618021672651
 31
0.0
  0
ARC
  5
108
330
2
100
AcDbEntity
  8
GAIKEI
  6
Continuous
 62
     1
100
AcDbCircle
 10
30.62229644548802
 20
18.37777321672649
 30
0.0
 40
5.930564799999999
100
AcDbArc
 50
4.336242999999223
 51
6.276874
  0
LINE
  5
109
330
2
100
AcDbEntity
  8
GAIKEI
  6
Continuous
 62
     1
100
AcDbLine
 10
36.35003084548802
 20
18.82618021672653
 30
0.0
 11
36.53588884548803
 21
18.82618021672653
 31
0.0
  0
LINE
  5
10A
330
2
100
AcDbEntity
  8
GAIKEI
  6
Continuous
 62
     7
100
AcDbLine
 10
17.92938264548803
 20
22.7261802167265
 30
0.0
 11
35.12938264548802
 21
22.7261802167265
 31
0.0
  0
LINE
  5
10B
330
2
100
AcDbEntity
  8
GAIKEI
  6
Continuous
 62
     1
100
AcDbLine
 10
37.28854384548802
 20
18.82618021672653
 30
0.0
 11
37.69647844548801
 21
18.82618021672653
 31
0.0
  0
LINE
  5
10C
330
2
100
AcDbEntity
  8
GAIKEI
  6
Continuous
 62
     1
100
AcDbLine
 10
36.53588884548803
 20
18.82618021672653
 30
0.0
 11
37.28854384548802
 21
18.82618021672653
 31
0.0
  0
LINE
  5
10D
330
2
100
AcDbEntity
  8
GAIKEI
  6
Continuous
 62
     7
100
AcDbLine
 10
14.26938204548801
 20
18.82618021672653
 30
0.0
 11
14.36938204548801
 21
18.82618021672653
 31
0.0
  0
LINE
  5
10E
330
2
100
AcDbEntity
  8
GAIKEI
  6
Continuous
 62
     1
100
AcDbLine
 10
26.25105604548804
 20
18.62618021672654
 30
0.0
 11
26.44771144548801
 21
18.62618021672654
 31
0.0
  0
LINE
  5
10F
330
2
100
AcDbEntity
  8
GAIKEI
  6
Continuous
 62
     1
100
AcDbLine
 10
14.67855544548803
 20
20.1858238167265
 30
0.0
 11
38.38021264548802
 21
20.1858238167265
 31
0.0
  0
ARC
  5
110
330
2
100
AcDbEntity
  8
GAIKEI
  6
Continuous
 62
     1
100
AcDbCircle
 10
34.01200584548801
 20
18.35827561672653
 30
0.0
 40
3.714199
100
AcDbArc
 50
7.237482999999962
 51
29.47367300000016
  0
LINE
  5
111
330
2
100
AcDbEntity
  8
GAIKEI
  6
Continuous
 62
     1
100
AcDbLine
 10
37.24565444548803
 20
20.1858238167265
 30
0.0
 11
36.92946184548801
 21
20.1858238167265
 31
0.0
  0
ARC
  5
112
330
2
100
AcDbEntity
  8
GAIKEI
  6
Continuous
 62
     1
100
AcDbCircle
 10
37.06684584548802
 20
20.08386461672649
 30
0.0
 40
0.205872
100
AcDbArc
 50
29.69235899999937
 51
55.36124900000045
  0
LINE
  5
113
330
2
100
AcDbEntity
  8
GAIKEI
  6
Continuous
 62
     1
100
AcDbLine
 10
36.22938264548802
 20
20.94197001672654
 30
0.0
 11
36.22938264548802
 21
21.74832981672654
 31
0.0
  0
ARC
  5
114
330
2
100
AcDbEntity
  8
GAIKEI
  6
Continuous
 62
     1
100
AcDbCircle
 10
-41.16390975451198
 20
-91.77972798327349
 30
0.0
 40
136.7105346
100
AcDbArc
 50
55.03383599999989
 51
55.41879800000085
  0
LWPOLYLINE
  5
115
330
2
100
AcDbEntity
  8
GAIKEI
  6
Continuous
 62
     1
100
AcDbPolyline
 90
        8
 70
     0
 43
0.0
 10
36.42938264548802
 20
20.77713541672654
 10
36.329297045488
 20
20.85213541672652
 10
36.239581445488
 20
20.93175581672654
 10
36.18731704548799
 20
20.98721541672654
 10
36.15156264548801
 20
21.03434661672657
 10
36.13722564548802
 20
21.05996321672654
 10
36.130237045488
 20
21.08056261672652
 10
36.12938264548802
 20
21.08895481672653
  0
LINE
  5
116
330
2
100
AcDbEntity
  8
GAIKEI
  6
Continuous
 62
     1
100
AcDbLine
 10
36.12938264548802
 20
21.08895481672653
 30
0.0
 11
36.12938264548802
 21
21.95218721672649
 31
0.0
  0
ARC
  5
117
330
2
100
AcDbEntity
  8
GAIKEI
  6
Continuous
 62
     1
100
AcDbCircle
 10
26.52938264548803
 20
20.78144441672652
 30
0.0
 40
0.05
100
AcDbArc
 50
90.00000300000095
 51
179.9930790000002
  0
ARC
  5
118
330
2
100
AcDbEntity
  8
GAIKEI
  6
Continuous
 62
     1
100
AcDbCircle
 10
26.52938264548803
 20
20.78144441672652
 30
0.0
 40
0.05
100
AcDbArc
 50
0.0041779999998161
 51
90.00000300000095
  0
LINE
  5
119
330
2
100
AcDbEntity
  8
GAIKEI
  6
Continuous
 62
     1
100
AcDbLine
 10
33.35338164548801
 20
23.02618021672651
 30
0.0
 11
33.35938124548801
 21
22.7261802167265
 31
0.0
  0
LINE
  5
11A
330
2
100
AcDbEntity
  8
GAIKEI
  6
Continuous
 62
     1
100
AcDbLine
 10
19.70538344548802
 20
23.02618021672651
 30
0.0
 11
19.69938384548803
 21
22.7261802167265
 31
0.0
  0
LINE
  5
11B
330
2
100
AcDbEntity
  8
GAIKEI
  6
Continuous
 62
     7
100
AcDbLine
 10
17.92938264548803
 20
22.7261802167265
 30
0.0
 11
14.73438744548801
 21
20.25327361672652
 31
0.0
  0
ARC
  5
11C
330
2
100
AcDbEntity
  8
GAIKEI
  6
Continuous
 62
     7
100
AcDbCircle
 10
18.24346944548802
 20
18.37160261672653
 30
0.0
 40
4.0
100
AcDbArc
 50
153.0279980000001
 51
173.4745789999997
  0
ARC
  5
11D
330
2
100
AcDbEntity
  8
GAIKEI
  6
Continuous
 62
     7
100
AcDbCircle
 10
14.85680264548802
 20
20.09511321672653
 30
0.0
 40
0.2000016
100
AcDbArc
 50
127.7397540000006
 51
153.0279020000014
  0
LINE
  5
11E
330
2
100
AcDbEntity
  8
GAIKEI
  6
Continuous
 62
     7
100
AcDbLine
 10
35.12938264548802
 20
22.7261802167265
 30
0.0
 11
36.12938264548802
 21
21.95218721672649
 31
0.0
  0
LINE
  5
11F
330
2
100
AcDbEntity
  8
GAIKEI
  6
Continuous
 62
     1
100
AcDbLine
 10
36.12938264548802
 20
21.82573461672649
 30
0.0
 11
36.22938264548802
 21
21.74832981672654
 31
0.0
  0
LINE
  5
120
330
2
100
AcDbEntity
  8
GAIKEI
  6
Continuous
 62
     1
100
AcDbLine
 10
37.69647844548801
 20
18.62618021672654
 30
0.0
 11
32.40714144548801
 21
18.62618021672654
 31
0.0
  0
LINE
  5
121
330
2
100
AcDbEntity
  8
GAIKEI
  6
Continuous
 62
     1
100
AcDbLine
 10
32.40714144548801
 20
18.62618021672654
 30
0.0
 11
14.36938204548801
 21
18.62618021672654
 31
0.0
  0
LINE
  5
122
330
2
100
AcDbEntity
  8
GAIKEI
  6
Continuous
 62
     7
100
AcDbLine
 10
38.658209445488
 20
18.28618081672653
 30
0.0
 11
38.61191424548801
 21
18.35925521672652
 31
0.0
  0
ARC
  5
123
330
2
100
AcDbEntity
  8
GAIKEI
  6
Continuous
 62
     7
100
AcDbCircle
 10
29.83215364548801
 20
17.08786541672651
 30
0.0
 40
8.907170200000001
100
AcDbArc
 50
4.665988000000839
 51
7.731658999999607
  0
LINE
  5
124
330
2
100
AcDbEntity
  8
GAIKEI
  6
Continuous
 62
     7
100
AcDbLine
 10
38.658209445488
 20
18.28618081672653
 30
0.0
 11
38.61191424548801
 21
18.35925521672652
 31
0.0
  0
LINE
  5
125
330
2
100
AcDbEntity
  8
GAIKEI
  6
Continuous
 62
     1
100
AcDbLine
 10
34.97938264548802
 20
16.52618021672651
 30
0.0
 11
36.02938264548803
 21
16.52618021672651
 31
0.0
  0
LINE
  5
126
330
2
100
AcDbEntity
  8
GAIKEI
  6
Continuous
 62
     1
100
AcDbLine
 10
34.97938264548802
 20
16.52618021672651
 30
0.0
 11
34.97938264548802
 21
16.32618021672653
 31
0.0
  0
LINE
  5
127
330
2
100
AcDbEntity
  8
GAIKEI
  6
Continuous
 62
     1
100
AcDbLine
 10
34.07938264548801
 20
16.32618021672653
 30
0.0
 11
34.97938264548802
 21
16.32618021672653
 31
0.0
  0
LINE
  5
128
330
2
100
AcDbEntity
  8
GAIKEI
  6
Continuous
 62
     1
100
AcDbLine
 10
34.07938264548801
 20
16.52618021672651
 30
0.0
 11
34.07938264548801
 21
16.32618021672653
 31
0.0
  0
LINE
  5
129
330
2
100
AcDbEntity
  8
GAIKEI
  6
Continuous
 62
     1
100
AcDbLine
 10
33.02938264548803
 20
16.52618021672651
 30
0.0
 11
34.07938264548801
 21
16.52618021672651
 31
0.0
  0
ARC
  5
12A
330
2
100
AcDbEntity
  8
GAIKEI
  6
Continuous
 62
     1
100
AcDbCircle
 10
30.32938264548801
 20
17.82618021672653
 30
0.0
 40
1.02
100
AcDbArc
 50
236.2133939999995
 51
340.5287310000002
  0
LINE
  5
12B
330
2
100
AcDbEntity
  8
GAIKEI
  6
Continuous
 62
     1
100
AcDbLine
 10
37.58585844548802
 20
18.82618021672653
 30
0.0
 11
32.35919824548802
 21
18.82618021672653
 31
0.0
  0
LINE
  5
12C
330
2
100
AcDbEntity
  8
GAIKEI
  6
Continuous
 62
     1
100
AcDbLine
 10
32.35919824548802
 20
18.82618021672653
 30
0.0
 11
28.96257344548804
 21
18.82618021672653
 31
0.0
  0
LINE
  5
12D
330
2
100
AcDbEntity
  8
GAIKEI
  6
Continuous
 62
     1
100
AcDbLine
 10
37.752563645488
 20
18.28618081672653
 30
0.0
 11
38.65836204548801
 21
18.28618081672653
 31
0.0
  0
ARC
  5
12E
330
2
100
AcDbEntity
  8
GAIKEI
  6
Continuous
 62
     1
100
AcDbCircle
 10
33.87047144548802
 20
18.62618621672652
 30
0.0
 40
3.8260078
100
AcDbArc
 50
357.30334
 51
359.9998970000004
  0
LWPOLYLINE
  5
12F
330
2
100
AcDbEntity
  8
GAIKEI
  6
Continuous
 62
     1
100
AcDbPolyline
 90
        6
 70
     0
 43
0.0
 10
37.69224264548802
 20
18.44618141672652
 10
37.695300445488
 20
18.37813641672653
 10
37.70656764548802
 20
18.33251861672653
 10
37.72204604548802
 20
18.30366121672654
 10
37.73824484548801
 20
18.28969941672653
 10
37.752563645488
 20
18.28618081672653
  0
LINE
  5
130
330
2
100
AcDbEntity
  8
GAIKEI
  6
Continuous
 62
     1
100
AcDbLine
 10
33.02938264548803
 20
17.48617161672649
 30
0.0
 11
33.02938264548803
 21
16.52618021672651
 31
0.0
  0
LINE
  5
131
330
2
100
AcDbEntity
  8
GAIKEI
  6
Continuous
 62
     1
100
AcDbLine
 10
36.02938264548803
 20
17.48617461672654
 30
0.0
 11
36.02938264548803
 21
16.52618021672651
 31
0.0
  0
LINE
  5
132
330
2
100
AcDbEntity
  8
GAIKEI
  6
Continuous
 62
     7
100
AcDbLine
 10
38.55528584548802
 20
17.48618081672652
 30
0.0
 11
38.32938264548804
 21
17.48618081672657
 31
0.0
  0
LINE
  5
133
330
2
100
AcDbEntity
  8
GAIKEI
  6
Continuous
 62
     1
100
AcDbLine
 10
32.29490984548801
 20
17.48618081672652
 30
0.0
 11
14.7293826454881
 21
17.48618081672652
 31
0.0
  0
ELLIPSE
  5
134
330
2
100
AcDbEntity
  8
GAIKEI
  6
Continuous
 62
     1
100
AcDbEllipse
 10
36.55893584548801
 20
15.42620761672651
 30
0.0
 11
0.0001281738281248
 21
-0.4000274658203125
 31
0.0
210
0.0
220
0.0
230
1.0
 40
0.911208
 41
6.282896995544433
 42
7.653119087219238
  0
LINE
  5
135
330
2
100
AcDbEntity
  8
GAIKEI
  6
Continuous
 62
     1
100
AcDbLine
 10
36.91613784548801
 20
15.34650801672649
 30
0.0
 11
37.28982564548801
 21
17.36626201672652
 31
0.0
  0
ARC
  5
136
330
2
100
AcDbEntity
  8
GAIKEI
  6
Continuous
 62
     1
100
AcDbCircle
 10
36.89134544548802
 20
17.44654761672649
 30
0.0
 40
0.4063434
100
AcDbArc
 50
348.6085480000005
 51
5.599413000000483
  0
LINE
  5
137
330
2
100
AcDbEntity
  8
GAIKEI
  6
Continuous
 62
     1
100
AcDbLine
 10
29.57070344548802
 20
15.34650801672649
 30
0.0
 11
15.16427644548801
 21
15.34650801672649
 31
0.0
  0
LINE
  5
138
330
2
100
AcDbEntity
  8
GAIKEI
  6
Continuous
 62
     7
100
AcDbLine
 10
37.50250264548802
 20
15.02618021672651
 30
0.0
 11
36.55895404548801
 21
15.02618021672651
 31
0.0
  0
LINE
  5
139
330
2
100
AcDbEntity
  8
GAIKEI
  6
Continuous
 62
     7
100
AcDbLine
 10
29.45939964548802
 20
15.02618021672651
 30
0.0
 11
15.55625944548802
 21
15.02618021672651
 31
0.0
  0
ELLIPSE
  5
13A
330
2
100
AcDbEntity
  8
GAIKEI
  6
Continuous
 62
     1
100
AcDbEllipse
 10
29.544476645488
 20
15.36642681672651
 30
0.0
 11
0.099737548828125
 21
-0.0072662353515625
 31
0.0
210
0.0
220
0.0
230
1.0
 40
0.1868599999999999
 41
4.992037296295166
 42
6.28315019607544
  0
LINE
  5
13B
330
2
100
AcDbEntity
  8
GAIKEI
  6
Continuous
 62
     1
100
AcDbLine
 10
36.22821684548803
 20
17.3844352167265
 30
0.0
 11
36.22644064548801
 21
17.48618081672652
 31
0.0
  0
LINE
  5
13C
330
2
100
AcDbEntity
  8
GAIKEI
  6
Continuous
 62
     1
100
AcDbLine
 10
32.57111224548803
 20
15.12443461672649
 30
0.0
 11
32.61233544548799
 21
17.48617161672649
 31
0.0
  0
LINE
  5
13D
330
2
100
AcDbEntity
  8
GAIKEI
  6
Continuous
 62
     1
100
AcDbLine
 10
32.57111224548803
 20
15.12443461672649
 30
0.0
 11
32.57111224548803
 21
15.02618021672651
 31
0.0
  0
LINE
  5
13E
330
2
100
AcDbEntity
  8
GAIKEI
  6
Continuous
 62
     7
100
AcDbLine
 10
29.46072404548801
 20
15.02618021672651
 30
0.0
 11
32.57111224548803
 21
15.02618021672651
 31
0.0
  0
LINE
  5
13F
330
2
100
AcDbEntity
  8
GAIKEI
  6
Continuous
 62
     1
100
AcDbLine
 10
36.26766984548801
 20
15.12443461672649
 30
0.0
 11
36.22821684548803
 21
17.3844352167265
 31
0.0
  0
LINE
  5
140
330
2
100
AcDbEntity
  8
GAIKEI
  6
Continuous
 62
     7
100
AcDbLine
 10
36.36765164548801
 20
15.02618021672651
 30
0.0
 11
36.55895404548801
 21
15.02618021672651
 31
0.0
  0
LINE
  5
141
330
2
100
AcDbEntity
  8
GAIKEI
  6
Continuous
 62
     7
100
AcDbLine
 10
32.57111224548803
 20
15.02618021672651
 30
0.0
 11
36.36765164548801
 21
15.02618021672651
 31
0.0
  0
ARC
  5
142
330
2
100
AcDbEntity
  8
GAIKEI
  6
Continuous
 62
     1
100
AcDbCircle
 10
36.36765164548801
 20
15.12618021672654
 30
0.0
 40
0.1
100
AcDbArc
 50
180.9999989999995
 51
270.0000009999981
  0
LINE
  5
143
330
2
100
AcDbEntity
  8
GAIKEI
  6
Continuous
 62
     1
100
AcDbLine
 10
37.62092924548801
 20
18.62618021672654
 30
0.0
 11
37.62092924548801
 21
18.82618021672653
 31
0.0
  0
ARC
  5
144
330
2
100
AcDbEntity
  8
GAIKEI
  6
Continuous
 62
     7
100
AcDbCircle
 10
18.469382045488
 20
18.62618021672654
 30
0.0
 40
4.200000399999999
100
AcDbArc
 50
179.9999949999995
 51
194.6941079999992
  0
ARC
  5
145
330
2
100
AcDbEntity
  8
GAIKEI
  6
Continuous
 62
     7
100
AcDbCircle
 10
34.58938004548798
 20
18.62618021672654
 30
0.0
 40
4.2000046
100
AcDbArc
 50
345.3058910000002
 51
348.8283369999995
  0
ARC
  5
146
330
2
100
AcDbEntity
  8
GAIKEI
  6
Continuous
 62
     7
100
AcDbCircle
 10
38.55528584548802
 20
17.58618081672654
 30
0.0
 40
0.1
100
AcDbArc
 50
269.9999969999991
 51
345.3058910000002
  0
ARC
  5
147
330
2
100
AcDbEntity
  8
GAIKEI
  6
Continuous
 62
     7
100
AcDbCircle
 10
14.50347924548799
 20
17.58618081672654
 30
0.0
 40
0.1
100
AcDbArc
 50
194.6941079999992
 51
269.9999969999991
  0
LINE
  5
148
330
2
100
AcDbEntity
  8
GAIKEI
  6
Continuous
 62
     7
100
AcDbLine
 10
37.89448884548801
 20
15.34650801672649
 30
0.0
 11
38.32938264548804
 21
17.48618081672657
 31
0.0
  0
LINE
  5
149
330
2
100
AcDbEntity
  8
GAIKEI
  6
Continuous
 62
     7
100
AcDbLine
 10
15.16427644548801
 20
15.34650801672649
 30
0.0
 11
14.7293826454881
 21
17.48618081672652
 31
0.0
  0
ARC
  5
14A
330
2
100
AcDbEntity
  8
GAIKEI
  6
Continuous
 62
     7
100
AcDbCircle
 10
37.50250264548802
 20
15.42618021672649
 30
0.0
 40
0.4
100
AcDbArc
 50
269.9999969999991
 51
348.5110189999999
  0
ARC
  5
14B
330
2
100
AcDbEntity
  8
GAIKEI
  6
Continuous
 62
     7
100
AcDbCircle
 10
15.55625944548802
 20
15.42618021672649
 30
0.0
 40
0.4
100
AcDbArc
 50
191.4889879999996
 51
269.9999969999991
  0
LINE
  5
14C
330
2
100
AcDbEntity
  8
GAIKEI
  6
Continuous
 62
     1
100
AcDbLine
 10
29.64421404548801
 20
15.35916061672651
 30
0.0
 11
29.799139645488
 21
17.48618081672652
 31
0.0
  0
LWPOLYLINE
  5
14D
330
2
100
AcDbEntity
  8
GAIKEI
  6
Continuous
 62
     1
100
AcDbPolyline
 90
        8
 70
     0
 43
0.0
 10
29.459411845488
 20
15.02618021672651
 10
29.50264924548802
 20
15.03399261672655
 10
29.54001484548803
 20
15.05530621672653
 10
29.56998924548802
 20
15.08694381672654
 10
29.59436064548802
 20
15.12893601672653
 10
29.61699244548802
 20
15.19177461672654
 10
29.63582784548803
 20
15.28231421672655
 10
29.64421404548801
 20
15.35916061672651
  0
LINE
  5
14E
330
2
100
AcDbEntity
  8
GAIKEI
  6
Continuous
 62
     7
100
AcDbLine
 10
14.36938204548801
 20
18.62618021672654
 30
0.0
 11
14.36938204548801
 21
18.82618021672658
 31
0.0
  0
LWPOLYLINE
  5
14F
330
2
100
AcDbEntity
  8
GAIKEI
  6
Continuous
 62
     1
100
AcDbPolyline
 90
        6
 70
     0
 43
0.0
 10
38.38584004548801
 20
18.76617961672656
 10
38.38917864548802
 20
18.80553501672654
 10
38.39411024548801
 20
18.82142241672653
 10
38.396679845488
 20
18.82497781672657
 10
38.39867584548802
 20
18.82610381672657
 10
38.39934724548802
 20
18.82618021672653
  0
LINE
  5
150
330
2
100
AcDbEntity
  8
GAIKEI
  6
Continuous
 62
     1
100
AcDbLine
 10
38.38584004548803
 20
18.7661796167265
 30
0.0
 11
38.38584004548803
 21
18.6861808167265
 31
0.0
  0
LWPOLYLINE
  5
151
330
2
100
AcDbEntity
  8
GAIKEI
  6
Continuous
 62
     1
100
AcDbPolyline
 90
        6
 70
     0
 43
0.0
 10
38.38584004548801
 20
18.68618081672656
 10
38.38917864548802
 20
18.64682541672653
 10
38.39411024548801
 20
18.63093781672654
 10
38.396679845488
 20
18.62738261672655
 10
38.39867584548802
 20
18.6262564167265
 10
38.39934724548802
 20
18.62618021672654
  0
LWPOLYLINE
  5
152
330
2
100
AcDbEntity
  8
GAIKEI
  6
Continuous
 62
     1
100
AcDbPolyline
 90
        6
 70
     0
 43
0.0
 10
38.38584004548801
 20
18.76617961672656
 10
38.38917864548802
 20
18.80553501672654
 10
38.39411024548801
 20
18.82142241672653
 10
38.396679845488
 20
18.82497781672657
 10
38.39867584548802
 20
18.82610381672657
 10
38.39934724548802
 20
18.82618021672653
  0
LINE
  5
153
330
2
100
AcDbEntity
  8
GAIKEI
  6
Continuous
 62
     1
100
AcDbLine
 10
38.38584004548803
 20
18.7661796167265
 30
0.0
 11
38.38584004548803
 21
18.6861808167265
 31
0.0
  0
LWPOLYLINE
  5
154
330
2
100
AcDbEntity
  8
GAIKEI
  6
Continuous
 62
     1
100
AcDbPolyline
 90
        6
 70
     0
 43
0.0
 10
38.38584004548801
 20
18.68618081672656
 10
38.38917864548802
 20
18.64682541672653
 10
38.39411024548801
 20
18.63093781672654
 10
38.396679845488
 20
18.62738261672655
 10
38.39867584548802
 20
18.6262564167265
 10
38.39934724548802
 20
18.62618021672654
  0
LINE
  5
155
330
2
100
AcDbEntity
  8
GAIKEI
  6
Continuous
 62
     1
100
AcDbLine
 10
37.74484884548801
 20
18.82618021672653
 30
0.0
 11
37.74566664548802
 21
18.82618021672653
 31
0.0
  0
LINE
  5
156
330
2
100
AcDbEntity
  8
GAIKEI
  6
Continuous
 62
     1
100
AcDbLine
 10
38.789380045488
 20
18.82618021672653
 30
0.0
 11
37.74566664548802
 21
18.82618021672653
 31
0.0
  0
LINE
  5
157
330
2
100
AcDbEntity
  8
GAIKEI
  6
Continuous
 62
     1
100
AcDbLine
 10
37.70722684548801
 20
18.82618021672653
 30
0.0
 11
37.69647844548801
 21
18.82618021672653
 31
0.0
  0
LINE
  5
158
330
2
100
AcDbEntity
  8
GAIKEI
  6
Continuous
 62
     1
100
AcDbLine
 10
37.70722684548801
 20
18.82618021672653
 30
0.0
 11
37.74484884548801
 21
18.82618021672653
 31
0.0
  0
LINE
  5
159
330
2
100
AcDbEntity
  8
GAIKEI
  6
Continuous
 62
     1
100
AcDbLine
 10
36.22944364548803
 20
20.94196381672651
 30
0.0
 11
36.22938264548802
 21
20.94337381672653
 31
0.0
  0
LINE
  5
15A
330
2
100
AcDbEntity
  8
GAIKEI
  6
Continuous
 62
     1
100
AcDbLine
 10
36.22938264548802
 20
20.94337381672653
 30
0.0
 11
36.22938264548802
 21
21.79324561672649
 31
0.0
  0
ARC
  5
15B
330
2
100
AcDbEntity
  8
GAIKEI
  6
Continuous
 62
     7
100
AcDbCircle
 10
38.62584864548804
 20
18.39934921672653
 30
0.0
 40
0.0403142
100
AcDbArc
 50
268.7852619999995
 51
344.9815330000005
  0
LINE
  5
15C
330
2
100
AcDbEntity
  8
GAIKEI
  6
Continuous
 62
     7
100
AcDbLine
 10
38.66477064548803
 20
18.38889381672652
 30
0.0
 11
38.782605245488
 21
18.39095061672651
 31
0.0
  0
LINE
  5
15D
330
2
100
AcDbEntity
  8
GAIKEI
  6
Continuous
 62
     1
100
AcDbLine
 10
37.70751364548801
 20
18.62618021672654
 30
0.0
 11
37.62538484548802
 21
18.62618021672654
 31
0.0
  0
LINE
  5
15E
330
2
100
AcDbEntity
  8
GAIKEI
  6
Continuous
 62
     7
100
AcDbLine
 10
38.66476464548801
 20
18.38889381672652
 30
0.0
 11
38.66601584548803
 21
18.39682221672649
 31
0.0
  0
LINE
  5
15F
330
2
100
AcDbEntity
  8
GAIKEI
  6
Continuous
 62
     1
100
AcDbLine
 10
37.70751364548801
 20
18.62618021672654
 30
0.0
 11
37.74480004548801
 21
18.62618021672654
 31
0.0
  0
ARC
  5
160
330
2
100
AcDbEntity
  8
GAIKEI
  6
Continuous
 62
     7
100
AcDbCircle
 10
38.62584864548804
 20
18.39934921672653
 30
0.0
 40
0.040314
100
AcDbArc
 50
268.7845590000013
 51
344.9607920000007
  0
LINE
  5
161
330
2
100
AcDbEntity
  8
GAIKEI
  6
Continuous
 62
     1
100
AcDbLine
 10
37.74480004548801
 20
18.62618021672654
 30
0.0
 11
37.74566664548802
 21
18.62618021672654
 31
0.0
  0
LINE
  5
162
330
2
100
AcDbEntity
  8
GAIKEI
  6
Continuous
 62
     1
100
AcDbLine
 10
38.789380045488
 20
18.62618021672654
 30
0.0
 11
37.74566664548802
 21
18.62618021672654
 31
0.0
  0
ARC
  5
163
330
2
100
AcDbEntity
  8
GAIKEI
  6
Continuous
 62
     7
100
AcDbCircle
 10
34.81529564548799
 20
18.37160261672653
 30
0.0
 40
4.0
100
AcDbArc
 50
6.525426000000082
 51
26.9720010000006
  0
ARC
  5
164
330
2
100
AcDbEntity
  8
GAIKEI
  6
Continuous
 62
     7
100
AcDbCircle
 10
38.201959445488
 20
20.09511021672654
 30
0.0
 40
0.2000026
100
AcDbArc
 50
26.9721729999988
 51
52.26018999999979
  0
LINE
  5
165
330
2
100
AcDbEntity
  8
GAIKEI
  6
Continuous
 62
     7
100
AcDbLine
 10
36.29386624548802
 20
21.82488021672651
 30
0.0
 11
38.32437764548802
 21
20.25327361672652
 31
0.0
  0
ARC
  5
166
330
2
100
AcDbEntity
  8
GAIKEI
  6
Continuous
 62
     1
100
AcDbCircle
 10
36.26939104548801
 20
21.79322721672651
 30
0.0
 40
0.0400098
100
AcDbArc
 50
54.83904000000047
 51
177.421322
  0
ARC
  5
167
330
2
100
AcDbEntity
  8
GAIKEI
  6
Continuous
 62
     7
100
AcDbCircle
 10
34.58938004548798
 20
18.62618021672654
 30
0.0
 40
4.2
100
AcDbArc
 50
356.8415119999998
 51
0.0
  0
ARC
  5
168
330
2
100
AcDbEntity
  8
GAIKEI
  6
Continuous
 62
     1
100
AcDbCircle
 10
30.32938264548801
 20
17.82618021672653
 30
0.0
 40
0.5900000000000001
100
AcDbArc
 50
215.1820660000001
 51
324.8310040000011
  0
LINE
  5
169
330
2
100
AcDbEntity
  8
GAIKEI
  6
Continuous
 62
     1
100
AcDbLine
 10
35.22729524548803
 20
17.0561790167265
 30
0.0
 11
35.79938384548802
 21
17.0561790167265
 31
0.0
  0
LINE
  5
16A
330
2
100
AcDbEntity
  8
GAIKEI
  6
Continuous
 62
     1
100
AcDbLine
 10
35.79938384548802
 20
17.0561790167265
 30
0.0
 11
35.79938384548802
 21
17.48617461672654
 31
0.0
  0
LINE
  5
16B
330
2
100
AcDbEntity
  8
GAIKEI
  6
Continuous
 62
     1
100
AcDbLine
 10
35.22729524548803
 20
16.85617901672651
 30
0.0
 11
35.22729524548803
 21
17.0561790167265
 31
0.0
  0
LINE
  5
16C
330
2
100
AcDbEntity
  8
GAIKEI
  6
Continuous
 62
     1
100
AcDbLine
 10
34.95938124548803
 20
16.85617901672651
 30
0.0
 11
35.22729524548803
 21
16.85617901672651
 31
0.0
  0
LINE
  5
16D
330
2
100
AcDbEntity
  8
GAIKEI
  6
Continuous
 62
     1
100
AcDbLine
 10
34.95938124548803
 20
16.45617901672653
 30
0.0
 11
34.95938124548803
 21
16.85617901672651
 31
0.0
  0
LINE
  5
16E
330
2
100
AcDbEntity
  8
GAIKEI
  6
Continuous
 62
     1
100
AcDbLine
 10
34.09938384548804
 20
16.45617901672653
 30
0.0
 11
34.95938124548803
 21
16.45617901672653
 31
0.0
  0
LINE
  5
16F
330
2
100
AcDbEntity
  8
GAIKEI
  6
Continuous
 62
     1
100
AcDbLine
 10
34.09938384548804
 20
16.85617901672651
 30
0.0
 11
34.09938384548804
 21
16.45617901672653
 31
0.0
  0
LINE
  5
170
330
2
100
AcDbEntity
  8
GAIKEI
  6
Continuous
 62
     1
100
AcDbLine
 10
33.83147004548801
 20
16.85617901672651
 30
0.0
 11
34.09938384548804
 21
16.85617901672651
 31
0.0
  0
LINE
  5
171
330
2
100
AcDbEntity
  8
GAIKEI
  6
Continuous
 62
     1
100
AcDbLine
 10
33.83147004548801
 20
17.0561790167265
 30
0.0
 11
33.83147004548801
 21
16.85617901672651
 31
0.0
  0
LINE
  5
172
330
2
100
AcDbEntity
  8
GAIKEI
  6
Continuous
 62
     1
100
AcDbLine
 10
33.25938124548802
 20
17.0561790167265
 30
0.0
 11
33.83147004548801
 21
17.0561790167265
 31
0.0
  0
LINE
  5
173
330
2
100
AcDbEntity
  8
GAIKEI
  6
Continuous
 62
     1
100
AcDbLine
 10
33.25938124548802
 20
17.48617161672649
 30
0.0
 11
33.25938124548802
 21
17.0561790167265
 31
0.0
  0
LINE
  5
174
330
2
100
AcDbEntity
  8
GAIKEI
  6
Continuous
 62
     1
100
AcDbLine
 10
25.52938264548803
 20
15.02617721672652
 30
0.0
 11
25.52938264548803
 21
14.82618021672652
 31
0.0
  0
LINE
  5
175
330
2
100
AcDbEntity
  8
GAIKEI
  6
Continuous
 62
     1
100
AcDbLine
 10
27.52938264548803
 20
15.02617721672652
 30
0.0
 11
27.52938264548803
 21
14.82618021672652
 31
0.0
  0
LINE
  5
176
330
2
100
AcDbEntity
  8
GAIKEI
  6
Continuous
 62
     1
100
AcDbLine
 10
27.52938264548803
 20
14.82618021672652
 30
0.0
 11
25.52938264548803
 21
14.82618021672652
 31
0.0
  0
LINE
  5
177
330
2
100
AcDbEntity
  8
GAIKEI
  6
Continuous
 62
     1
100
AcDbLine
 10
36.389380045488
 20
15.02617721672652
 30
0.0
 11
36.389380045488
 21
14.82618021672652
 31
0.0
  0
LINE
  5
178
330
2
100
AcDbEntity
  8
GAIKEI
  6
Continuous
 62
     1
100
AcDbLine
 10
37.389380045488
 20
15.02618021672651
 30
0.0
 11
37.389380045488
 21
14.82618021672652
 31
0.0
  0
LINE
  5
179
330
2
100
AcDbEntity
  8
GAIKEI
  6
Continuous
 62
     1
100
AcDbLine
 10
37.389380045488
 20
14.82618021672652
 30
0.0
 11
36.389380045488
 21
14.82618021672652
 31
0.0
  0
LINE
  5
17A
330
2
100
AcDbEntity
  8
GAIKEI
  6
Continuous
 62
     1
100
AcDbLine
 10
16.24938384548801
 20
15.02617721672652
 30
0.0
 11
16.24938384548801
 21
14.82618021672652
 31
0.0
  0
LINE
  5
17B
330
2
100
AcDbEntity
  8
GAIKEI
  6
Continuous
 62
     1
100
AcDbLine
 10
17.24938384548801
 20
15.02617721672652
 30
0.0
 11
17.24938384548801
 21
14.82618021672652
 31
0.0
  0
LINE
  5
17C
330
2
100
AcDbEntity
  8
GAIKEI
  6
Continuous
 62
     1
100
AcDbLine
 10
17.24938384548801
 20
14.82618021672652
 30
0.0
 11
16.24938384548801
 21
14.82618021672652
 31
0.0
  0
ARC
  5
17D
330
2
100
AcDbEntity
  8
GAIKEI
  6
Continuous
 62
     1
100
AcDbCircle
 10
23.07456084548801
 20
24.51599341672653
 30
0.0
 40
0.2196152
100
AcDbArc
 50
179.989131
 51
248.7334680000003
  0
ARC
  5
17E
330
2
100
AcDbEntity
  8
GAIKEI
  6
Continuous
 62
     1
100
AcDbCircle
 10
26.52669084548802
 20
33.3932334167265
 30
0.0
 40
9.744461000000001
100
AcDbArc
 50
248.7498510000001
 51
261.5840839999997
  0
ARC
  5
17F
330
2
100
AcDbEntity
  8
GAIKEI
  6
Continuous
 62
     1
100
AcDbCircle
 10
26.52932764548803
 20
33.4074730167265
 30
0.0
 40
9.758941599999999
100
AcDbArc
 50
261.5810169999991
 51
270.0003390000002
  0
ARC
  5
180
330
2
100
AcDbEntity
  8
GAIKEI
  6
Continuous
 62
     1
100
AcDbCircle
 10
26.52937044548802
 20
33.4090720167265
 30
0.0
 40
9.760540800000001
100
AcDbArc
 50
270.0000729999982
 51
272.4448769999995
  0
ARC
  5
181
330
2
100
AcDbEntity
  8
GAIKEI
  6
Continuous
 62
     1
100
AcDbCircle
 10
26.52965104548804
 20
33.40538541672652
 30
0.0
 40
9.756846600000001
100
AcDbArc
 50
272.4441469999991
 51
281.7709739999999
  0
ARC
  5
182
330
2
100
AcDbEntity
  8
GAIKEI
  6
Continuous
 62
     1
100
AcDbCircle
 10
26.53314224548803
 20
33.38974221672652
 30
0.0
 40
9.740811200000001
100
AcDbArc
 50
281.7696629999988
 51
291.2517560000003
  0
LINE
  5
183
330
2
100
AcDbEntity
  8
GAIKEI
  6
Continuous
 62
     1
100
AcDbLine
 10
22.85494404548803
 20
24.51603621672649
 30
0.0
 11
22.85494404548803
 21
29.14618141672651
 31
0.0
  0
ARC
  5
184
330
2
100
AcDbEntity
  8
GAIKEI
  6
Continuous
 62
     1
100
AcDbCircle
 10
26.61381244548801
 20
29.14681001672653
 30
0.0
 40
3.7588498
100
AcDbArc
 50
158.5960489999995
 51
180.009622
  0
ARC
  5
185
330
2
100
AcDbEntity
  8
GAIKEI
  6
Continuous
 62
     1
100
AcDbCircle
 10
26.56717544548801
 20
29.16880721672652
 30
0.0
 40
3.7071908
100
AcDbArc
 50
124.4616879999993
 51
158.6495030000007
  0
ARC
  5
186
330
2
100
AcDbEntity
  8
GAIKEI
  6
Continuous
 62
     1
100
AcDbCircle
 10
26.532672445488
 20
29.21423561672651
 30
0.0
 40
3.6499706
100
AcDbArc
 50
98.39045900000105
 51
124.4187000000005
  0
ARC
  5
187
330
2
100
AcDbEntity
  8
GAIKEI
  6
Continuous
 62
     1
100
AcDbCircle
 10
26.529407045488
 20
29.22775481672653
 30
0.0
 40
3.6360734
100
AcDbArc
 50
90.00042599999858
 51
98.37065200000111
  0
LINE
  5
188
330
2
100
AcDbEntity
  8
GAIKEI
  6
Continuous
 62
     1
100
AcDbLine
 10
19.39358244548802
 20
23.02618021672651
 30
0.0
 11
19.39358244548802
 21
34.7261802167265
 31
0.0
  0
ARC
  5
189
330
2
100
AcDbEntity
  8
GAIKEI
  6
Continuous
 62
     1
100
AcDbCircle
 10
29.984204245488
 20
24.51599341672653
 30
0.0
 40
0.2196154
100
AcDbArc
 50
291.2665839999989
 51
0.0108479999994128
  0
ARC
  5
18A
330
2
100
AcDbEntity
  8
GAIKEI
  6
Continuous
 62
     1
100
AcDbCircle
 10
26.52939484548801
 20
29.22848121672649
 30
0.0
 40
3.635345
100
AcDbArc
 50
85.63823700000005
 51
90.00020099999872
  0
ARC
  5
18B
330
2
100
AcDbEntity
  8
GAIKEI
  6
Continuous
 62
     1
100
AcDbCircle
 10
26.52887604548801
 20
29.22435521672651
 30
0.0
 40
3.639505399999999
100
AcDbArc
 50
72.17018299999994
 51
85.63503399999826
  0
ARC
  5
18C
330
2
100
AcDbEntity
  8
GAIKEI
  6
Continuous
 62
     1
100
AcDbCircle
 10
26.51876864548802
 20
29.19953841672651
 30
0.0
 40
3.6663108
100
AcDbArc
 50
43.92602500000164
 51
72.13854599999911
  0
ARC
  5
18D
330
2
100
AcDbEntity
  8
GAIKEI
  6
Continuous
 62
     1
100
AcDbCircle
 10
26.47199724548801
 20
29.1561728167265
 30
0.0
 40
3.7303196
100
AcDbArc
 50
11.80485399999974
 51
43.90741600000085
  0
ARC
  5
18E
330
2
100
AcDbEntity
  8
GAIKEI
  6
Continuous
 62
     1
100
AcDbCircle
 10
26.44071064548803
 20
29.1463156167265
 30
0.0
 40
3.7631112
100
AcDbArc
 50
359.9979190000005
 51
11.85426999999938
  0
LINE
  5
18F
330
2
100
AcDbEntity
  8
GAIKEI
  6
Continuous
 62
     1
100
AcDbLine
 10
30.20382104548804
 20
29.14618141672651
 30
0.0
 11
30.20382104548804
 21
24.51603621672649
 31
0.0
  0
LINE
  5
190
330
2
100
AcDbEntity
  8
GAIKEI
  6
Continuous
 62
     1
100
AcDbLine
 10
33.665185845488
 20
23.02618021672651
 30
0.0
 11
33.665185845488
 21
34.7261802167265
 31
0.0
  0
ARC
  5
191
330
2
100
AcDbEntity
  8
GAIKEI
  6
Continuous
 62
     1
100
AcDbCircle
 10
26.52938264548803
 20
34.7261802167265
 30
0.0
 40
7.135816199999999
100
AcDbArc
 50
359.999993
 51
180.0000319999993
  0
LINE
  5
192
330
2
100
AcDbEntity
  8
GAIKEI
  6
Continuous
 62
     1
100
AcDbLine
 10
19.32819244548801
 20
34.7261802167265
 30
0.0
 11
19.39358244548802
 21
34.7261802167265
 31
0.0
  0
LINE
  5
193
330
2
100
AcDbEntity
  8
GAIKEI
  6
Continuous
 62
     7
100
AcDbLine
 10
18.90373564548801
 20
27.49151221672651
 30
0.0
 11
18.90373564548801
 21
23.08617781672655
 31
0.0
  0
LINE
  5
194
330
2
100
AcDbEntity
  8
GAIKEI
  6
Continuous
 62
     7
100
AcDbLine
 10
34.15502944548803
 20
23.08617781672655
 30
0.0
 11
34.15502944548803
 21
27.49151221672651
 31
0.0
  0
LINE
  5
195
330
2
100
AcDbEntity
  8
GAIKEI
  6
Continuous
 62
     7
100
AcDbLine
 10
33.87937044548801
 20
27.6497520167265
 30
0.0
 11
34.15502944548803
 21
27.49151221672651
 31
0.0
  0
LWPOLYLINE
  5
196
330
2
100
AcDbEntity
  8
GAIKEI
  6
Continuous
 62
     7
100
AcDbPolyline
 90
       10
 70
     0
 43
0.0
 10
33.87937044548801
 20
27.64975201672655
 10
33.869360645488
 20
27.65830301672656
 10
33.85932024548802
 20
27.67236541672656
 10
33.83943504548802
 20
27.71574921672652
 10
33.82023344548802
 20
27.77741301672654
 10
33.79370144548801
 20
27.89896461672652
 10
33.770831445488
 20
28.04807341672654
 10
33.747497845488
 20
28.27778541672655
 10
33.73378324548801
 20
28.53053801672655
 10
33.73057284548802
 20
28.72741921672656
  0
LINE
  5
197
330
2
100
AcDbEntity
  8
GAIKEI
  6
Continuous
 62
     7
100
AcDbLine
 10
33.73057284548802
 20
28.7274192167265
 30
0.0
 11
33.73057284548802
 21
30.90617901672653
 31
0.0
  0
LINE
  5
198
330
2
100
AcDbEntity
  8
GAIKEI
  6
Continuous
 62
     1
100
AcDbLine
 10
33.665185845488
 20
34.7261802167265
 30
0.0
 11
33.73057284548802
 21
34.7261802167265
 31
0.0
  0
ARC
  5
199
330
2
100
AcDbEntity
  8
GAIKEI
  6
Continuous
 62
     1
100
AcDbCircle
 10
26.52938264548803
 20
34.7261802167265
 30
0.0
 40
7.2011902
100
AcDbArc
 50
0.0
 51
180.0000050000005
  0
ARC
  5
19A
330
2
100
AcDbEntity
  8
GAIKEI
  6
Continuous
 62
     7
100
AcDbCircle
 10
18.96375764548801
 20
23.08620221672652
 30
0.0
 40
0.0600254
100
AcDbArc
 50
180.0235859999992
 51
269.9801009999989
  0
LINE
  5
19B
330
2
100
AcDbEntity
  8
GAIKEI
  6
Continuous
 62
     7
100
AcDbLine
 10
18.963736245488
 20
23.02618021672651
 30
0.0
 11
34.09503204548801
 21
23.02618021672651
 31
0.0
  0
LINE
  5
19C
330
2
100
AcDbEntity
  8
GAIKEI
  6
Continuous
 62
     1
100
AcDbLine
 10
19.327121245488
 20
34.7261802167265
 30
0.0
 11
19.32819244548801
 21
34.7261802167265
 31
0.0
  0
LINE
  5
19D
330
2
100
AcDbEntity
  8
GAIKEI
  6
Continuous
 62
     7
100
AcDbLine
 10
19.327121245488
 20
28.7274192167265
 30
0.0
 11
19.32819244548801
 21
28.7274192167265
 31
0.0
  0
ARC
  5
19E
330
2
100
AcDbEntity
  8
GAIKEI
  6
Continuous
 62
     7
100
AcDbCircle
 10
18.963736245488
 20
27.49151221672651
 30
0.0
 40
0.0599998
100
AcDbArc
 50
119.9204990000014
 51
180.0001959999998
  0
ARC
  5
19F
330
2
100
AcDbEntity
  8
GAIKEI
  6
Continuous
 62
     7
100
AcDbCircle
 10
34.09500764548801
 20
23.08620221672652
 30
0.0
 40
0.0600254
100
AcDbArc
 50
270.023738999999
 51
359.9802459999994
  0
LINE
  5
1A0
330
2
100
AcDbEntity
  8
GAIKEI
  6
Continuous
 62
     1
100
AcDbLine
 10
33.73057284548802
 20
34.7261802167265
 30
0.0
 11
33.73164704548802
 21
34.7261802167265
 31
0.0
  0
LINE
  5
1A1
330
2
100
AcDbEntity
  8
GAIKEI
  6
Continuous
 62
     7
100
AcDbLine
 10
19.327121245488
 20
28.7274192167265
 30
0.0
 11
19.327121245488
 21
30.80821027794809
 31
0.0
  0
LWPOLYLINE
  5
1A2
330
2
100
AcDbEntity
  8
GAIKEI
  6
Continuous
 62
     7
100
AcDbPolyline
 90
        8
 70
     0
 43
0.0
 10
19.327121245488
 20
28.72741921672656
 10
19.31986104548801
 20
28.43394381672652
 10
19.301800845488
 20
28.18375461672656
 10
19.27754544548799
 20
27.98473741672655
 10
19.25198084548799
 20
27.84376441672657
 10
19.22864104548802
 20
27.75505601672654
 10
19.2041396722158
 20
27.69909229425315
 10
18.933807645488
 20
27.54352021672656
  0
ARC
  5
1A3
330
2
100
AcDbEntity
  8
GAIKEI
  6
Continuous
 62
     1
100
AcDbCircle
 10
26.52938264548803
 20
34.7261802167265
 30
0.0
 40
7.202262199999999
100
AcDbArc
 50
90.00000300000095
 51
180.0000050000005
  0
ARC
  5
1A4
330
2
100
AcDbEntity
  8
GAIKEI
  6
Continuous
 62
     1
100
AcDbCircle
 10
26.52938264548803
 20
34.7261802167265
 30
0.0
 40
7.202262199999999
100
AcDbArc
 50
0.0
 51
90.00000300000095
  0
ARC
  5
1A5
330
2
100
AcDbEntity
  8
GAIKEI
  6
Continuous
 62
     7
100
AcDbCircle
 10
34.09506864548803
 20
23.08616561672653
 30
0.0
 40
0.059956
100
AcDbArc
 50
314.9793169999987
 51
0.0121320000001073
  0
ARC
  5
1A6
330
2
100
AcDbEntity
  8
GAIKEI
  6
Continuous
 62
     7
100
AcDbCircle
 10
18.963736245488
 20
27.49151221672651
 30
0.0
 40
0.0599998
100
AcDbArc
 50
119.9204990000014
 51
180.0001959999998
  0
LINE
  5
1A7
330
2
100
AcDbEntity
  8
GAIKEI
  6
Continuous
 62
     1
100
AcDbLine
 10
30.14982924548801
 20
24.58741061672652
 30
0.0
 11
30.14906644548802
 21
29.14728001672654
 31
0.0
  0
ARC
  5
1A8
330
2
100
AcDbEntity
  8
GAIKEI
  6
Continuous
 62
     1
100
AcDbCircle
 10
26.53685324548801
 20
29.1445518167265
 30
0.0
 40
3.627940399999999
100
AcDbArc
 50
148.1768690000013
 51
179.9762219999998
  0
ARC
  5
1A9
330
2
100
AcDbEntity
  8
GAIKEI
  6
Continuous
 62
     1
100
AcDbCircle
 10
26.52918724548801
 20
29.14632181672653
 30
0.0
 40
3.620324999999999
100
AcDbArc
 50
104.4861920000014
 51
148.1366940000005
  0
ARC
  5
1AA
330
2
100
AcDbEntity
  8
GAIKEI
  6
Continuous
 62
     1
100
AcDbCircle
 10
26.52899804548801
 20
29.16419281672654
 30
0.0
 40
3.602651199999999
100
AcDbArc
 50
82.06035799999931
 51
104.5543369999983
  0
LWPOLYLINE
  5
1AB
330
2
100
AcDbEntity
  8
GAIKEI
  6
Continuous
 62
     1
100
AcDbPolyline
 90
       19
 70
     0
 43
0.0
 10
29.65141024548803
 20
30.97853621672653
 10
29.55305204548802
 20
31.13623261672655
 10
29.44689364548802
 20
31.28850321672655
 10
29.333215645488
 20
31.43503641672658
 10
29.21231704548799
 20
31.57553321672657
 10
29.08448504548801
 20
31.70969461672655
 10
28.95000624548803
 20
31.83720921672654
 10
28.809173845488
 20
31.95779021672655
 10
28.66226824548803
 20
32.07113261672657
 10
28.50958284548801
 20
32.17691881672653
 10
28.35141024548801
 20
32.27486801672654
 10
28.18803744548799
 20
32.36466281672654
 10
28.01975124548801
 20
32.44601041672655
 10
27.84687524548801
 20
32.51861801672652
 10
27.66990984548801
 20
32.58228981672653
 10
27.48943504548802
 20
32.63684301672652
 10
27.30601824548802
 20
32.68211281672654
 10
27.120227245488
 20
32.71792221672655
 10
27.02661764548802
 20
32.73222881672655
  0
LWPOLYLINE
  5
1AC
330
2
100
AcDbEntity
  8
GAIKEI
  6
Continuous
 62
     1
100
AcDbPolyline
 90
       11
 70
     0
 43
0.0
 10
30.148968645488
 20
29.14723741672657
 10
30.14313384548803
 20
29.35068581672652
 10
30.12598284548801
 20
29.55341401672655
 10
30.097595445488
 20
29.75468361672654
 10
30.05806304548801
 20
29.95377421672652
 10
30.00757464548801
 20
30.14995941672657
 10
29.94635024548802
 20
30.34250101672654
 10
29.87463404548802
 20
30.53067241672653
 10
29.79270044548801
 20
30.71387541672653
 10
29.70090364548801
 20
30.89172581672654
 10
29.65141624548801
 20
30.97853001672655
  0
LINE
  5
1AD
330
2
100
AcDbEntity
  8
GAIKEI
  6
Continuous
 62
     1
100
AcDbLine
 10
30.104486245488
 20
24.70205301672649
 30
0.0
 11
30.149823245488
 21
24.58741061672652
 31
0.0
  0
ARC
  5
1AE
330
2
100
AcDbEntity
  8
GAIKEI
  6
Continuous
 62
     1
100
AcDbCircle
 10
29.88992944548801
 20
24.58733121672651
 30
0.0
 40
0.2598918
100
AcDbArc
 50
289.5821569999998
 51
0.0168409999992501
  0
LINE
  5
1AF
330
2
100
AcDbEntity
  8
GAIKEI
  6
Continuous
 62
     1
100
AcDbLine
 10
22.90906404548801
 20
29.14605941672653
 30
0.0
 11
22.90983304548803
 21
24.58619001672651
 31
0.0
  0
LWPOLYLINE
  5
1B0
330
2
100
AcDbEntity
  8
GAIKEI
  6
Continuous
 62
     1
100
AcDbPolyline
 90
        6
 70
     0
 43
0.0
 10
30.05189224548804
 20
29.04726181672652
 10
30.05157484548801
 20
26.67149261672654
 10
30.051404045488
 20
26.01418061672655
 10
30.05121484548801
 20
25.35564801672655
 10
30.05008564548802
 20
24.91986921672651
 10
30.05136124548801
 20
24.70199201672654
  0
LINE
  5
1B1
330
2
100
AcDbEntity
  8
GAIKEI
  6
Continuous
 62
     1
100
AcDbLine
 10
30.05119644548802
 20
24.70199201672654
 30
0.0
 11
30.104486245488
 21
24.70205301672649
 31
0.0
  0
LINE
  5
1B2
330
2
100
AcDbEntity
  8
GAIKEI
  6
Continuous
 62
     1
100
AcDbLine
 10
29.97704484548803
 20
24.34244601672651
 30
0.0
 11
29.901550445488
 21
24.48107521672654
 31
0.0
  0
LINE
  5
1B3
330
2
100
AcDbEntity
  8
GAIKEI
  6
Continuous
 62
     1
100
AcDbLine
 10
29.85925324548802
 20
24.3013084167265
 30
0.0
 11
29.97704484548803
 21
24.34245221672654
 31
0.0
  0
ARC
  5
1B4
330
2
100
AcDbEntity
  8
GAIKEI
  6
Continuous
 62
     1
100
AcDbCircle
 10
26.52668484548801
 20
34.03219221672652
 30
0.0
 40
10.2857216
100
AcDbArc
 50
280.3369969999984
 51
288.9049440000005
  0
ARC
  5
1B5
330
2
100
AcDbEntity
  8
GAIKEI
  6
Continuous
 62
     1
100
AcDbCircle
 10
26.52778344548802
 20
34.03147201672652
 30
0.0
 40
10.2848114
100
AcDbArc
 50
270.5137640000013
 51
280.3316969999999
  0
ARC
  5
1B6
330
2
100
AcDbEntity
  8
GAIKEI
  6
Continuous
 62
     1
100
AcDbCircle
 10
26.52844264548804
 20
34.02650361672653
 30
0.0
 40
10.279834
100
AcDbArc
 50
266.2587890000007
 51
270.5103699999982
  0
ARC
  5
1B7
330
2
100
AcDbEntity
  8
GAIKEI
  6
Continuous
 62
     1
100
AcDbCircle
 10
26.52829604548802
 20
34.02874981672653
 30
0.0
 40
10.2820672
100
AcDbArc
 50
261.267478
 51
266.2604209999987
  0
ARC
  5
1B8
330
2
100
AcDbEntity
  8
GAIKEI
  6
Continuous
 62
     1
100
AcDbCircle
 10
26.53026764548801
 20
34.03431001672653
 30
0.0
 40
10.2878678
100
AcDbArc
 50
250.4074830000002
 51
261.2613160000009
  0
LWPOLYLINE
  5
1B9
330
2
100
AcDbEntity
  8
GAIKEI
  6
Continuous
 62
     1
100
AcDbPolyline
 90
        8
 70
     0
 43
0.0
 10
23.08045064548801
 20
24.34209821672653
 10
23.03695084548801
 20
24.36245341672657
 10
22.99802264548802
 20
24.39118881672653
 10
22.96470364548802
 20
24.42701021672656
 10
22.93802504548799
 20
24.46899641672656
 10
22.919317845488
 20
24.51635961672656
 10
22.91032744548801
 20
24.56816621672653
 10
22.90983904548801
 20
24.58619001672656
  0
LINE
  5
1BA
330
2
100
AcDbEntity
  8
GAIKEI
  6
Continuous
 62
     1
100
AcDbLine
 10
22.90926544548802
 20
27.96249001672652
 30
0.0
 11
22.889380045488
 21
27.96248381672649
 31
0.0
  0
LINE
  5
1BB
330
2
100
AcDbEntity
  8
GAIKEI
  6
Continuous
 62
     1
100
AcDbLine
 10
22.90983904548801
 20
24.58619001672651
 30
0.0
 11
22.95530424548801
 21
24.69972141672651
 31
0.0
  0
LWPOLYLINE
  5
1BC
330
2
100
AcDbEntity
  8
GAIKEI
  6
Continuous
 62
     1
100
AcDbPolyline
 90
       25
 70
     0
 43
0.0
 10
23.00626864548801
 20
29.07065641672654
 10
23.00805684548803
 20
29.18916841672654
 10
23.01395904548801
 20
29.30802221672656
 10
23.02401144548801
 20
29.42715061672652
 10
23.03822044548801
 20
29.54618761672657
 10
23.05654924548802
 20
29.66463241672654
 10
23.07889424548802
 20
29.78197241672655
 10
23.10513324548802
 20
29.89783541672654
 10
23.135168645488
 20
30.01212381672656
 10
23.169049245488
 20
30.12522201672652
 10
23.207092445488
 20
30.23808821672657
 10
23.24940204548801
 20
30.35071641672653
 10
23.295740045488
 20
30.46217881672658
 10
23.34561184548801
 20
30.57132181672654
 10
23.45430924548802
 20
30.78041601672652
 10
23.575671645488
 20
30.97998261672655
 10
23.70974764548802
 20
31.17066261672653
 10
23.85603044548802
 20
31.35180281672655
 10
24.014099445488
 20
31.52287201672653
 10
24.18356344548801
 20
31.68330901672653
 10
24.36384304548801
 20
31.83249741672654
 10
24.55383944548803
 20
31.96949681672652
 10
24.75205104548801
 20
32.09335541672653
 10
24.958655045488
 20
32.20418921672655
 10
25.17403584548802
 20
32.30190641672653
  0
ARC
  5
1BD
330
2
100
AcDbEntity
  8
GAIKEI
  6
Continuous
 62
     1
100
AcDbCircle
 10
26.49329864548801
 20
29.10768661672654
 30
0.0
 40
3.455968
100
AcDbArc
 50
100.9298280000003
 51
112.4413190000013
  0
ARC
  5
1BE
330
2
100
AcDbEntity
  8
GAIKEI
  6
Continuous
 62
     1
100
AcDbCircle
 10
26.52863184548801
 20
28.92343961672651
 30
0.0
 40
3.6436238
100
AcDbArc
 50
93.99003500000116
 51
100.9260720000001
  0
ARC
  5
1BF
330
2
100
AcDbEntity
  8
GAIKEI
  6
Continuous
 62
     1
100
AcDbCircle
 10
26.53070704548799
 20
28.93609221672654
 30
0.0
 40
3.6311618
100
AcDbArc
 50
90.03398300000029
 51
94.03656300000042
  0
LWPOLYLINE
  5
1C0
330
2
100
AcDbEntity
  8
GAIKEI
  6
Continuous
 62
     1
100
AcDbPolyline
 90
        9
 70
     0
 43
0.0
 10
26.528552445488
 20
32.56724461672656
 10
26.734064045488
 20
32.56131201672656
 10
26.96441064548802
 20
32.54076761672656
 10
27.124811045488
 20
32.51772681672651
 10
27.29083884548803
 20
32.48601301672653
 10
27.454468045488
 20
32.44657201672658
 10
27.61444724548801
 20
32.39987401672653
 10
27.77157004548801
 20
32.34582741672654
 10
27.92737444548803
 20
32.28380341672653
  0
LWPOLYLINE
  5
1C1
330
2
100
AcDbEntity
  8
GAIKEI
  6
Continuous
 62
     1
100
AcDbPolyline
 90
       24
 70
     0
 43
0.0
 10
27.92737444548803
 20
32.28380341672653
 10
28.03472304548802
 20
32.23587261672651
 10
28.24190704548801
 20
32.13044041672652
 10
28.438580645488
 20
32.01327121672654
 10
28.62631244548803
 20
31.88410861672656
 10
28.806610245488
 20
31.74190901672654
 10
28.97879664548799
 20
31.58680641672652
 10
29.14030784548803
 20
31.42086401672657
 10
29.29010644548802
 20
31.24530241672653
 10
29.42785064548801
 20
31.06068941672652
 10
29.55331444548802
 20
30.86727521672651
 10
29.66614404548798
 20
30.66528541672653
 10
29.76569844548803
 20
30.45526961672653
 10
29.85150784548799
 20
30.23727021672653
 10
29.88927024548801
 20
30.12479461672655
 10
29.92341324548801
 20
30.01021941672656
 10
29.95373564548803
 20
29.89402081672654
 10
29.98006624548802
 20
29.77678441672657
 10
30.00228904548803
 20
29.65909041672654
 10
30.02036164548801
 20
29.54143281672657
 10
30.03430804548802
 20
29.42405001672654
 10
30.04420184548803
 20
29.30681381672656
 10
30.050067445488
 20
29.18939421672656
 10
30.05225177905913
 20
29.04726188256973
  0
LINE
  5
1C2
330
2
100
AcDbEntity
  8
GAIKEI
  6
Continuous
 62
     1
100
AcDbLine
 10
23.00630524548802
 20
29.04610821672651
 30
0.0
 11
30.14908317441862
 21
29.04727773722783
 31
0.0
  0
LINE
  5
1C3
330
2
100
AcDbEntity
  8
GAIKEI
  6
Continuous
 62
     1
100
AcDbLine
 10
23.00629904548802
 20
29.04607761672651
 30
0.0
 11
23.00639064548801
 21
29.07065641672654
 31
0.0
  0
LINE
  5
1C4
330
2
100
AcDbEntity
  8
GAIKEI
  6
Continuous
 62
     1
100
AcDbLine
 10
23.00857564548801
 20
24.69684061672649
 30
0.0
 11
23.008447445488
 21
24.70094821672655
 31
0.0
  0
LWPOLYLINE
  5
1C5
330
2
100
AcDbEntity
  8
GAIKEI
  6
Continuous
 62
     1
100
AcDbPolyline
 90
        5
 70
     0
 43
0.0
 10
23.11017484548802
 20
24.60620341672655
 10
23.067566245488
 20
24.62138901672654
 10
23.03433864548802
 20
24.64734721672653
 10
23.01544204548802
 20
24.67509981672652
 10
23.00857564548801
 20
24.69684061672655
  0
LWPOLYLINE
  5
1C6
330
2
100
AcDbEntity
  8
GAIKEI
  6
Continuous
 62
     1
100
AcDbPolyline
 90
        3
 70
     0
 43
0.0
 10
23.295447045488
 20
24.61957001672653
 10
23.188135045488
 20
24.60870581672657
 10
23.110180845488
 20
24.60610581672654
  0
LWPOLYLINE
  5
1C7
330
2
100
AcDbEntity
  8
GAIKEI
  6
Continuous
 62
     1
100
AcDbPolyline
 90
        9
 70
     0
 43
0.0
 10
28.303796645488
 20
24.73426121672657
 10
27.707733445488
 20
24.76043921672653
 10
27.08811664548802
 20
24.77633281672655
 10
26.37882104548803
 20
24.78066021672657
 10
25.79655184548801
 20
24.77289641672655
 10
25.17366964548799
 20
24.75343841672657
 10
24.57668484548802
 20
24.72351301672655
 10
23.91045564548802
 20
24.67618021672655
 10
23.295447045488
 20
24.61957001672653
  0
LWPOLYLINE
  5
1C8
330
2
100
AcDbEntity
  8
GAIKEI
  6
Continuous
 62
     1
100
AcDbPolyline
 90
        6
 70
     0
 43
0.0
 10
29.94856584548802
 20
24.60717381672657
 10
29.87305924548801
 20
24.60978001672652
 10
29.79548364548799
 20
24.61737901672655
 10
29.247229245488
 20
24.66884981672655
 10
28.602539245488
 20
24.71679901672656
 10
28.303796645488
 20
24.73426121672657
  0
LWPOLYLINE
  5
1C9
330
2
100
AcDbEntity
  8
GAIKEI
  6
Continuous
 62
     1
100
AcDbPolyline
 90
        6
 70
     0
 43
0.0
 10
30.051379645488
 20
24.70199201672654
 10
30.04669824548799
 20
24.68232041672655
 10
30.027844445488
 20
24.65149761672654
 10
29.99486104548799
 20
24.62448341672655
 10
29.958069045488
 20
24.60943221672653
 10
29.94858424548801
 20
24.60729581672655
  0
LINE
  5
1CA
330
2
100
AcDbEntity
  8
GAIKEI
  6
Continuous
 62
     1
100
AcDbLine
 10
23.00847804548801
 20
24.70094821672655
 30
0.0
 11
23.00627464548802
 21
29.04607761672651
 31
0.0
  0
ELLIPSE
  5
1CB
330
2
100
AcDbEntity
  8
GAIKEI
  6
Continuous
 62
     1
100
AcDbEllipse
 10
29.82293104548802
 20
24.60725321672658
 30
0.0
 11
-0.0191162109375001
 21
-0.171929931640625
 31
0.0
210
0.0
220
0.0
230
1.0
 40
0.721991
 41
0.8302415609359741
 42
1.650443911552429
  0
LWPOLYLINE
  5
1CC
330
2
100
AcDbEntity
  8
GAIKEI
  6
Continuous
 62
     1
100
AcDbPolyline
 90
        6
 70
     0
 43
0.0
 10
29.90159324548802
 20
24.48098981672655
 10
29.83396024548802
 20
24.49184801672652
 10
29.68962424548801
 20
24.50656961672655
 10
29.20842304548799
 20
24.55060641672651
 10
28.572577045488
 20
24.59777441672656
 10
28.27793604548802
 20
24.61523041672655
  0
LWPOLYLINE
  5
1CD
330
2
100
AcDbEntity
  8
GAIKEI
  6
Continuous
 62
     1
100
AcDbPolyline
 90
        9
 70
     0
 43
0.0
 10
28.27793604548802
 20
24.61523041672655
 10
27.698987045488
 20
24.64112761672652
 10
27.09308504548801
 20
24.65733261672653
 10
26.474206845488
 20
24.66236801672653
 10
25.85673244548801
 20
24.65534281672655
 10
25.25496844548801
 20
24.63717261672656
 10
24.68239764548801
 20
24.60934661672656
 10
24.02397484548803
 20
24.56413801672653
 10
23.33768324548803
 20
24.50244981672654
  0
LWPOLYLINE
  5
1CE
330
2
100
AcDbEntity
  8
GAIKEI
  6
Continuous
 62
     1
100
AcDbPolyline
 90
        3
 70
     0
 43
0.0
 10
23.33768324548803
 20
24.50244981672654
 10
23.231073245488
 20
24.49154281672657
 10
23.15716584548801
 20
24.47975081672655
  0
LINE
  5
1CF
330
2
100
AcDbEntity
  8
GAIKEI
  6
Continuous
 62
     1
100
AcDbLine
 10
23.08045064548801
 20
24.34209821672653
 30
0.0
 11
23.15719024548801
 21
24.4797996167265
 31
0.0
  0
LINE
  5
1D0
330
2
100
AcDbEntity
  8
GAIKEI
  6
Continuous
 62
     1
100
AcDbLine
 10
22.95530424548801
 20
24.69972761672654
 30
0.0
 11
23.00860004548801
 21
24.70094821672655
 31
0.0
  0
LINE
  5
1D1
330
2
100
AcDbEntity
  8
GAIKEI
  6
Continuous
 62
     1
100
AcDbLine
 10
22.90908090496288
 20
29.04608932114587
 30
0.0
 11
23.00631744548801
 21
29.04607761672651
 31
0.0
  0
ELLIPSE
  5
1D2
330
2
100
AcDbEntity
  8
GAIKEI
  6
Continuous
 62
     1
100
AcDbEllipse
 10
23.23590724548802
 20
24.60624001672653
 30
0.0
 11
0.01915283203125
 21
-0.172296142578125
 31
0.0
210
0.0
220
0.0
230
1.0
 40
0.7211
 41
4.633162021636962
 42
5.453343868255615
  0
ARC
  5
1D3
330
2
100
AcDbEntity
  8
GAIKEI
  6
Continuous
 62
     1
100
AcDbCircle
 10
27.75538344548801
 20
34.7261802167265
 30
0.0
 40
9.572000200000001
100
AcDbArc
 50
172.3151950000006
 51
180.0000050000005
  0
ARC
  5
1D4
330
2
100
AcDbEntity
  8
GAIKEI
  6
Continuous
 62
     1
100
AcDbCircle
 10
27.75539564548803
 20
34.7261802167265
 30
0.0
 40
9.572010799999999
100
AcDbArc
 50
180.0000089999995
 51
187.6848049999993
  0
LINE
  5
1D5
330
2
100
AcDbEntity
  8
GAIKEI
  6
Continuous
 62
     1
100
AcDbLine
 10
34.17723404548801
 20
34.7261802167265
 30
0.0
 11
33.73164704548802
 21
34.7261802167265
 31
0.0
  0
LWPOLYLINE
  5
1D6
330
2
100
AcDbEntity
  8
GAIKEI
  6
Continuous
 62
     1
100
AcDbPolyline
 90
      132
 70
     0
 43
0.0
 10
34.17723404548801
 20
34.72618021672656
 10
34.17650784548801
 20
34.90948101672655
 10
34.17102064548803
 20
35.09265361672658
 10
34.16081564548802
 20
35.27558821672653
 10
34.14594744548802
 20
35.45818101672654
 10
34.12645904548802
 20
35.64033421672656
 10
34.10239884548801
 20
35.82193821672655
 10
34.07381624548802
 20
36.00289521672653
 10
34.04075944548802
 20
36.18310761672655
 10
34.00327784548802
 20
36.36246561672653
 10
33.96142604548803
 20
36.54087141672653
 10
33.91525284548803
 20
36.71822721672652
 10
33.864807445488
 20
36.89443581672652
 10
33.81015044548801
 20
37.06940521672652
 10
33.75131864548803
 20
37.24303201672654
 10
33.68836684548799
 20
37.41523041672656
 10
33.62135644548803
 20
37.58589701672657
 10
33.55032364548802
 20
37.75494001672655
 10
33.47532364548801
 20
37.92228001672652
 10
33.396399245488
 20
38.08781341672654
 10
33.31361104548799
 20
38.25145481672655
 10
33.22699004548801
 20
38.41311861672654
 10
33.13659684548801
 20
38.57270721672654
 10
33.04246844548803
 20
38.73014141672655
 10
32.94465964548801
 20
38.88531101672652
 10
32.843219245488
 20
39.03813701672652
 10
32.73818984548802
 20
39.18852141672653
 10
32.62962064548802
 20
39.33636701672657
 10
32.51756004548801
 20
39.48158781672658
 10
32.40206324548799
 20
39.62408061672653
 10
32.28317284548803
 20
39.76374741672657
 10
32.16093764548802
 20
39.90050261672656
 10
32.03541884548801
 20
40.03424901672656
 10
31.90665304548801
 20
40.16488261672657
 10
31.77470724548803
 20
40.29232401672652
 10
31.63966084548801
 20
40.41652441672653
 10
31.501605445488
 20
40.53742281672657
 10
31.360620445488
 20
40.65497041672654
 10
31.21681544548801
 20
40.76911241672656
 10
31.070288245488
 20
40.87979961672653
 10
30.92113064548803
 20
40.98697721672652
 10
30.76944604548803
 20
41.09057841672654
 10
30.61534444548801
 20
41.19055401672653
 10
30.458923645488
 20
41.2868552167265
 10
30.300281045488
 20
41.37942121672653
 10
30.13952664548802
 20
41.46820281672654
 10
29.97675204548798
 20
41.55313941672654
 10
29.81205464548802
 20
41.63418181672653
 10
29.64552024548803
 20
41.71128141672653
 10
29.47724624548801
 20
41.78438941672652
 10
29.30730004548801
 20
41.85346281672656
 10
29.135711845488
 20
41.91847141672655
 10
28.96250624548802
 20
41.97937241672656
 10
28.78778704548802
 20
42.03611661672653
 10
28.61168244548802
 20
42.08861301672652
 10
28.43436304548803
 20
42.13678801672654
 10
28.25600004548801
 20
42.18056261672654
 10
28.07674584548801
 20
42.21986301672655
 10
27.89672884548802
 20
42.25466521672655
 10
27.71603424548803
 20
42.28494481672652
 10
27.53469264548804
 20
42.31073821672658
 10
27.352777245488
 20
42.33207001672655
 10
27.170392045488
 20
42.34895241672655
 10
26.98764064548803
 20
42.36141581672654
 10
26.80462664548799
 20
42.36947861672655
 10
26.62146024548801
 20
42.37314681672654
 10
26.438238845488
 20
42.37245101672653
 10
26.25507224548801
 20
42.36741561672653
 10
26.07205824548799
 20
42.35804661672654
 10
25.88930684548802
 20
42.34437481672654
 10
25.70691544548802
 20
42.32640601672653
 10
25.52498804548802
 20
42.30417701672656
 10
25.34362824548802
 20
42.27770601672654
 10
25.162939645488
 20
42.24699921672652
 10
24.98302024548801
 20
42.21208721672655
 10
24.80396744548801
 20
42.17298801672654
 10
24.62589144548801
 20
42.12971421672654
 10
24.44888944548802
 20
42.08229581672651
 10
24.27305924548802
 20
42.03073961672657
 10
24.09849884548803
 20
41.97507541672655
 10
23.92529324548801
 20
41.91530381672658
 10
23.75347924548799
 20
41.85142441672655
 10
23.58310564548802
 20
41.78341901672655
 10
23.41425804548803
 20
41.71129381672654
 10
23.24707064548801
 20
41.63507921672652
 10
23.081683645488
 20
41.55479341672651
 10
22.91827424548799
 20
41.47047941672656
 10
22.75700104548801
 20
41.38219221672653
 10
22.598034845488
 20
41.28996801672656
 10
22.44151644548799
 20
41.19387421672655
 10
22.28756744548801
 20
41.0939598167265
 10
22.13627944548802
 20
40.99027921672655
 10
21.987689445488
 20
40.88288801672655
 10
21.84180924548801
 20
40.77184061672653
 10
21.69865744548801
 20
40.65720441672652
 10
21.55830104548801
 20
40.53908921672655
 10
21.42080104548802
 20
40.41756821672652
 10
21.286218445488
 20
40.29275121672651
 10
21.15460844548801
 20
40.16473001672653
 10
21.02603784548802
 20
40.03358381672654
 10
20.900561845488
 20
39.89942241672657
 10
20.77824124548801
 20
39.76232521672654
 10
20.65913104548801
 20
39.62238381672654
 10
20.54329864548799
 20
39.47968961672655
 10
20.430804645488
 20
39.33434061672654
 10
20.32170424548801
 20
39.18641581672654
 10
20.216052445488
 20
39.03600081672653
 10
20.11392244548801
 20
38.88319321672657
 10
20.015362845488
 20
38.72807841672653
 10
19.920440845488
 20
38.57074201672657
 10
19.82921784548802
 20
38.41126921672657
 10
19.74175124548799
 20
38.24974581672655
 10
19.65810264548801
 20
38.08625701672657
 10
19.578332845488
 20
37.92088241672656
 10
19.50250884548802
 20
37.75371321672657
 10
19.43069184548801
 20
37.58482881672654
 10
19.36294584548801
 20
37.41431501672656
 10
19.299341045488
 20
37.24226301672656
 10
19.23994164548799
 20
37.06876441672654
 10
19.18481464548802
 20
36.89390481672655
 10
19.134033445488
 20
36.71779401672655
 10
19.08766504548799
 20
36.54051741672652
 10
19.04577964548798
 20
36.36217261672653
 10
19.00844144548802
 20
36.18286361672654
 10
18.975723445488
 20
36.00268781672657
 10
18.947690045488
 20
35.82175521672656
 10
18.92441124548799
 20
35.64016341672652
 10
18.905948045488
 20
35.45802841672657
 10
18.89236784548799
 20
35.27545381672656
 10
18.88373124548801
 20
35.09254381672656
 10
18.880099645488
 20
34.90941381672655
 10
18.881531045488
 20
34.72618021672656
  0
LINE
  5
1D7
330
2
100
AcDbEntity
  8
GAIKEI
  6
Continuous
 62
     1
100
AcDbLine
 10
19.32711824548801
 20
34.7261802167265
 30
0.0
 11
18.88153104548803
 21
34.7261802167265
 31
0.0
  0
LINE
  5
1D8
330
2
100
AcDbEntity
  8
GAIKEI
  6
Continuous
 62
     7
100
AcDbLine
 10
35.12938264548802
 20
37.58017801672651
 30
0.0
 11
35.12938264548802
 21
31.8721824167265
 31
0.0
  0
LINE
  5
1D9
330
2
100
AcDbEntity
  8
GAIKEI
  6
Continuous
 62
     7
100
AcDbLine
 10
35.12938264548802
 20
37.58017801672651
 30
0.0
 11
34.98464984548801
 21
37.94618141672652
 31
0.0
  0
LINE
  5
1DA
330
2
100
AcDbEntity
  8
GAIKEI
  6
Continuous
 62
     1
100
AcDbLine
 10
34.98464984548801
 20
37.94618141672652
 30
0.0
 11
33.60222804548803
 21
37.94618141672652
 31
0.0
  0
ELLIPSE
  5
1DB
330
2
100
AcDbEntity
  8
GAIKEI
  6
Continuous
 62
     1
100
AcDbEllipse
 10
24.09874904548801
 20
35.07589341672656
 30
0.0
 11
10.17115478515625
 21
-0.9738311767578125
 31
0.0
210
0.0
220
0.0
230
1.0
 40
0.8413019999999999
 41
0.072700247168541
 42
0.4530980885028839
  0
LINE
  5
1DC
330
2
100
AcDbEntity
  8
GAIKEI
  6
Continuous
 62
     1
100
AcDbLine
 10
34.30254544548802
 20
34.7261802167265
 30
0.0
 11
35.12938264548802
 21
34.7261802167265
 31
0.0
  0
LINE
  5
1DD
330
2
100
AcDbEntity
  8
GAIKEI
  6
Continuous
 62
     7
100
AcDbLine
 10
34.98464984548801
 20
37.94618141672652
 30
0.0
 11
34.74738184548801
 21
38.54618141672654
 31
0.0
  0
LWPOLYLINE
  5
1DE
330
2
100
AcDbEntity
  8
GAIKEI
  6
Continuous
 62
     1
100
AcDbPolyline
 90
        8
 70
     0
 43
0.0
 10
33.44324984548803
 20
38.54618141672654
 10
33.43203144548801
 20
38.54347761672654
 10
33.423608645488
 20
38.53517681672656
 10
33.41821924548802
 20
38.52108981672655
 10
33.41619284548801
 20
38.48898541672657
 10
33.42165544548803
 20
38.44399021672655
 10
33.44032004548799
 20
38.36552341672655
 10
33.46212784548803
 20
38.29482641672655
  0
ARC
  5
1DF
330
2
100
AcDbEntity
  8
GAIKEI
  6
Continuous
 62
     1
100
AcDbCircle
 10
36.82325464548801
 20
39.44649261672651
 30
0.0
 40
3.5531292
100
AcDbArc
 50
198.9136359999997
 51
204.9755250000007
  0
LINE
  5
1E0
330
2
100
AcDbEntity
  8
GAIKEI
  6
Continuous
 62
     1
100
AcDbLine
 10
34.17723404548801
 20
34.7261802167265
 30
0.0
 11
34.30254544548802
 21
34.7261802167265
 31
0.0
  0
LINE
  5
1E1
330
2
100
AcDbEntity
  8
GAIKEI
  6
Continuous
 62
     1
100
AcDbLine
 10
18.67489944548802
 20
34.7261802167265
 30
0.0
 11
18.88153104548803
 21
34.7261802167265
 31
0.0
  0
LINE
  5
1E2
330
2
100
AcDbEntity
  8
GAIKEI
  6
Continuous
 62
     1
100
AcDbLine
 10
18.67489944548802
 20
34.7261802167265
 30
0.0
 11
18.88153104548803
 21
34.7261802167265
 31
0.0
  0
LINE
  5
1E3
330
2
100
AcDbEntity
  8
GAIKEI
  6
Continuous
 62
     1
100
AcDbLine
 10
19.32711824548801
 20
34.7261802167265
 30
0.0
 11
18.88153104548803
 21
34.7261802167265
 31
0.0
  0
LINE
  5
1E4
330
2
100
AcDbEntity
  8
GAIKEI
  6
Continuous
 62
     1
100
AcDbLine
 10
34.17723404548801
 20
34.7261802167265
 30
0.0
 11
33.73164704548802
 21
34.7261802167265
 31
0.0
  0
LINE
  5
1E5
330
2
100
AcDbEntity
  8
GAIKEI
  6
Continuous
 62
     1
100
AcDbLine
 10
34.17723404548801
 20
34.7261802167265
 30
0.0
 11
34.30254544548802
 21
34.7261802167265
 31
0.0
  0
LINE
  5
1E6
330
2
100
AcDbEntity
  8
GAIKEI
  6
Continuous
 62
     1
100
AcDbLine
 10
34.30254544548802
 20
34.7261802167265
 30
0.0
 11
35.12938264548802
 21
34.7261802167265
 31
0.0
  0
ELLIPSE
  5
1E7
330
2
100
AcDbEntity
  8
GAIKEI
  6
Continuous
 62
     1
100
AcDbEllipse
 10
24.09826684548801
 20
34.37651581672657
 30
0.0
 11
10.1716552734375
 21
0.9735748291015632
 31
0.0
210
0.0
220
0.0
230
1.0
 40
0.8412829999999999
 41
5.866662979125976
 42
6.210511684417724
  0
ELLIPSE
  5
1E8
330
2
100
AcDbEntity
  8
GAIKEI
  6
Continuous
 62
     1
100
AcDbEllipse
 10
27.66682764548801
 20
33.91199561672653
 30
0.0
 11
-3.972863769531255
 21
-5.809320068359374
 31
0.0
210
0.0
220
0.0
230
1.0
 40
0.887892
 41
1.854884505271911
 42
2.236584663391113
  0
ELLIPSE
  5
1E9
330
2
100
AcDbEntity
  8
GAIKEI
  6
Continuous
 62
     1
100
AcDbEllipse
 10
25.94288964548801
 20
33.66892301672653
 30
0.0
 11
5.71544189453125
 21
-4.752517700195315
 31
0.0
210
0.0
220
0.0
230
1.0
 40
0.873121
 41
3.748564243316649
 42
4.127293109893798
  0
LINE
  5
1EA
330
2
100
AcDbEntity
  8
GAIKEI
  6
Continuous
 62
     1
100
AcDbLine
 10
34.98464984548801
 20
31.50617901672655
 30
0.0
 11
33.73164084548802
 21
31.50617901672655
 31
0.0
  0
LINE
  5
1EB
330
2
100
AcDbEntity
  8
GAIKEI
  6
Continuous
 62
     7
100
AcDbLine
 10
35.12938264548802
 20
31.8721824167265
 30
0.0
 11
34.98464984548801
 21
31.50617901672655
 31
0.0
  0
LINE
  5
1EC
330
2
100
AcDbEntity
  8
GAIKEI
  6
Continuous
 62
     7
100
AcDbLine
 10
33.73057284548802
 20
30.90617901672653
 30
0.0
 11
34.74738184548801
 21
30.90617901672653
 31
0.0
  0
LINE
  5
1ED
330
2
100
AcDbEntity
  8
GAIKEI
  6
Continuous
 62
     7
100
AcDbLine
 10
34.74738184548801
 20
30.90617901672653
 30
0.0
 11
34.98464984548801
 21
31.50617901672655
 31
0.0
  0
ARC
  5
1EE
330
2
100
AcDbEntity
  8
GAIKEI
  6
Continuous
 62
     7
100
AcDbCircle
 10
26.69046664548802
 20
34.86467501672649
 30
0.0
 40
8.4067688
100
AcDbArc
 50
205.6441169999998
 51
208.8503554863978
  0
LINE
  5
1EF
330
2
100
AcDbEntity
  8
GAIKEI
  6
Continuous
 62
     7
100
AcDbLine
 10
18.26938204548801
 20
38.22618021672651
 30
0.0
 11
18.26938204548801
 21
31.6950950167265
 31
0.0
  0
LINE
  5
1F0
330
2
100
AcDbEntity
  8
GAIKEI
  6
Continuous
 62
     7
100
AcDbLine
 10
18.26938204548801
 20
31.2261802167265
 30
0.0
 11
18.26938204548801
 21
31.6950950167265
 31
0.0
  0
LINE
  5
1F1
330
2
100
AcDbEntity
  8
GAIKEI
  6
Continuous
 62
     7
100
AcDbLine
 10
18.26938204548801
 20
38.22618021672651
 30
0.0
 11
19.11189604548801
 21
38.22618021672651
 31
0.0
  0
LINE
  5
1F2
330
2
100
AcDbEntity
  8
GAIKEI
  6
Continuous
 62
     7
100
AcDbLine
 10
18.26938204548801
 20
31.2261802167265
 30
0.0
 11
19.11189604548801
 21
31.2261802167265
 31
0.0
  0
LINE
  5
1F3
330
2
100
AcDbEntity
  8
GAIKEI
  6
Continuous
 62
     7
100
AcDbLine
 10
19.32711824548801
 20
30.77018041672654
 30
0.0
 11
19.233581845488
 21
30.77018041672654
 31
0.0
  0
LINE
  5
1F4
330
2
100
AcDbEntity
  8
GAIKEI
  6
Continuous
 62
     7
100
AcDbLine
 10
19.232980645488
 20
30.76985081672655
 30
0.0
 11
19.233581845488
 21
30.77018041672654
 31
0.0
  0
ARC
  5
1F5
330
2
100
AcDbEntity
  8
GAIKEI
  6
Continuous
 62
     7
100
AcDbCircle
 10
26.52948024548801
 20
34.72623521672654
 30
0.0
 40
8.3001114
100
AcDbArc
 50
208.4678680000007
 51
209.8026230000009
  0
DIMENSION
  5
1F6
330
2
100
AcDbEntity
  8
SUNPO
100
AcDbDimension
  2
*D6
 10
-7.77914060373697
 20
7.046982065232043
 30
0.0
 11
-20.03914120373697
 21
8.796982065232043
 31
0.0
 70
    33
  1
φ122.6
 71
     5
 42
24.52000120000001
  3
STANDARD
100
AcDbAlignedDimension
 13
-32.29914180373697
 23
15.04698206523204
 33
0.0
 14
-7.779140603736969
 24
15.04698206523204
 34
0.0
1001
ACAD
1000
DSTYLE
1002
{
1070
    40
1040
1.0
1070
   140
1040
2.5
1070
   147
1040
0.5
1070
   172
1070
     1
1070
   279
1070
     0
1070
   288
1070
     0
1002
}
  0
DIMENSION
  5
204
330
2
100
AcDbEntity
  8
SUNPO
100
AcDbDimension
  2
*D5
 10
-11.43914120373697
 20
48.92550881672651
 30
0.0
 11
-20.03914120373698
 21
50.67550881672651
 31
0.0
 70
    33
  1
φ86
 71
     5
 42
17.20000000000001
  3
STANDARD
100
AcDbAlignedDimension
 13
-28.63914120373699
 23
40.9255088167265
 33
0.0
 14
-11.43914120373697
 24
40.9255088167265
 34
0.0
1001
ACAD
1000
DSTYLE
1002
{
1070
    40
1040
1.0
1070
   140
1040
2.5
1070
   147
1040
0.5
1070
   172
1070
     1
1070
   279
1070
     0
1070
   288
1070
     0
1002
}
  0
DIMENSION
  5
211
330
2
100
AcDbEntity
  8
SUNPO
100
AcDbDimension
  2
*D4
 10
38.78938464548804
 20
7.046982065232043
 30
0.0
 11
26.52938404548804
 21
8.796982065232043
 31
0.0
 70
    33
  1
φ122.6
 71
     5
 42
24.52000120000001
  3
STANDARD
100
AcDbAlignedDimension
 13
14.26938344548803
 23
15.04698206523204
 33
0.0
 14
38.78938464548804
 24
15.04698206523204
 34
0.0
1001
ACAD
1000
DSTYLE
1002
{
1070
    40
1040
1.0
1070
   140
1040
2.5
1070
   147
1040
0.5
1070
   172
1070
     1
1070
   279
1070
     0
1070
   288
1070
     0
1002
}
  0
LINE
  5
21E
330
2
100
AcDbEntity
  8
GAIKEI
  6
Continuous
 62
     7
100
AcDbLine
 10
-32.19914180373698
 20
18.62618021672648
 30
0.0
 11
-32.29914180373697
 21
18.62618021672654
 31
0.0
  0
LINE
  5
21F
330
2
100
AcDbEntity
  8
GAIKEI
  6
Continuous
 62
     1
100
AcDbLine
 10
-32.19914180373698
 20
18.82618021672653
 30
0.0
 11
-25.91689840373698
 21
18.82618021672653
 31
0.0
  0
LINE
  5
220
330
2
100
AcDbEntity
  8
GAIKEI
  6
Continuous
 62
     7
100
AcDbLine
 10
-7.879140603736956
 20
18.62618021672648
 30
0.0
 11
-7.779140603736962
 21
18.62618021672654
 31
0.0
  0
LINE
  5
221
330
2
100
AcDbEntity
  8
GAIKEI
  6
Continuous
 62
     7
100
AcDbLine
 10
-7.879140603736956
 20
18.62618021672659
 30
0.0
 11
-7.879140603736949
 21
18.82618021672658
 31
0.0
  0
ARC
  5
222
330
2
100
AcDbEntity
  8
GAIKEI
  6
Continuous
 62
     7
100
AcDbCircle
 10
-9.066018003736942
 20
15.42618021672649
 30
0.0
 40
0.4
100
AcDbArc
 50
270.000003000001
 51
348.5110120000003
  0
LINE
  5
223
330
2
100
AcDbEntity
  8
GAIKEI
  6
Continuous
 62
     7
100
AcDbLine
 10
-8.674033603736958
 20
15.34650801672649
 30
0.0
 11
-8.239141203736963
 21
17.48618081672652
 31
0.0
  0
ARC
  5
224
330
2
100
AcDbEntity
  8
GAIKEI
  6
Continuous
 62
     7
100
AcDbCircle
 10
-8.013236403736939
 20
17.58618081672654
 30
0.0
 40
0.1
100
AcDbArc
 50
270.000003000001
 51
345.3058920000008
  0
ARC
  5
225
330
2
100
AcDbEntity
  8
GAIKEI
  6
Continuous
 62
     7
100
AcDbCircle
 10
-11.97914060373695
 20
18.62618021672654
 30
0.0
 40
4.200000399999999
100
AcDbArc
 50
345.3058920000008
 51
0.0000050000005102
  0
LINE
  5
226
330
2
100
AcDbEntity
  8
GAIKEI
  6
Continuous
 62
     7
100
AcDbLine
 10
-8.239141203736963
 20
17.48618081672652
 30
0.0
 11
-8.013236403736939
 21
17.48618081672652
 31
0.0
  0
LINE
  5
227
330
2
100
AcDbEntity
  8
GAIKEI
  6
Continuous
 62
     1
100
AcDbLine
 10
-9.279979803736935
 20
18.62618021672654
 30
0.0
 11
-7.879140603736956
 21
18.62618021672659
 31
0.0
  0
LINE
  5
228
330
2
100
AcDbEntity
  8
GAIKEI
  6
Continuous
 62
     7
100
AcDbLine
 10
-8.323224803736948
 20
20.31447981672653
 30
0.0
 11
-8.244146203736946
 21
20.25327361672652
 31
0.0
  0
ARC
  5
229
330
2
100
AcDbEntity
  8
GAIKEI
  6
Continuous
 62
     7
100
AcDbCircle
 10
-8.366561403736952
 20
20.09511321672653
 30
0.0
 40
0.2000018
100
AcDbArc
 50
26.97210999999867
 51
52.2602310000002
  0
ARC
  5
22A
330
2
100
AcDbEntity
  8
GAIKEI
  6
Continuous
 62
     7
100
AcDbCircle
 10
-11.75322820373695
 20
18.37160261672653
 30
0.0
 40
4.0000004
100
AcDbArc
 50
6.52542100000032
 51
26.97200199999985
  0
LINE
  5
22B
330
2
100
AcDbEntity
  8
GAIKEI
  6
Continuous
 62
     1
100
AcDbLine
 10
-8.955864803736957
 20
20.80414041672651
 30
0.0
 11
-8.949744603736959
 21
20.8120474167265
 31
0.0
  0
ARC
  5
22C
330
2
100
AcDbEntity
  8
GAIKEI
  6
Continuous
 62
     1
100
AcDbCircle
 10
-8.910204403736955
 20
20.78144441672652
 30
0.0
 40
0.05
100
AcDbArc
 50
52.26035500000019
 51
142.2603500000014
  0
LINE
  5
22D
330
2
100
AcDbEntity
  8
GAIKEI
  6
Continuous
 62
     1
100
AcDbLine
 10
-8.87960140373697
 20
20.82098301672653
 30
0.0
 11
-8.35161080373696
 21
20.41232221672652
 31
0.0
  0
LINE
  5
22E
330
2
100
AcDbEntity
  8
GAIKEI
  6
Continuous
 62
     1
100
AcDbLine
 10
-8.948763403736947
 20
18.62618021672654
 30
0.0
 11
-8.412620003736961
 21
18.62618021672654
 31
0.0
  0
LINE
  5
22F
330
2
100
AcDbEntity
  8
GAIKEI
  6
Continuous
 62
     1
100
AcDbLine
 10
-8.412620003736961
 20
18.62618021672654
 30
0.0
 11
-8.404709803736935
 21
18.62618021672654
 31
0.0
  0
LINE
  5
230
330
2
100
AcDbEntity
  8
GAIKEI
  6
Continuous
 62
     7
100
AcDbLine
 10
-7.779140603736962
 20
18.82618021672653
 30
0.0
 11
-7.879140603736956
 21
18.82618021672658
 31
0.0
  0
LINE
  5
231
330
2
100
AcDbEntity
  8
GAIKEI
  6
Continuous
 62
     7
100
AcDbLine
 10
-8.916367603736958
 20
20.7734824167265
 30
0.0
 11
-8.955864803736957
 21
20.80414041672651
 31
0.0
  0
LINE
  5
232
330
2
100
AcDbEntity
  8
GAIKEI
  6
Continuous
 62
     7
100
AcDbLine
 10
-8.380132403736936
 20
20.35844341672651
 30
0.0
 11
-8.916367603736958
 21
20.7734824167265
 31
0.0
  0
LINE
  5
233
330
2
100
AcDbEntity
  8
GAIKEI
  6
Continuous
 62
     7
100
AcDbLine
 10
-8.323224803736948
 20
20.31447981672653
 30
0.0
 11
-8.380132403736936
 21
20.35844341672651
 31
0.0
  0
LINE
  5
234
330
2
100
AcDbEntity
  8
GAIKEI
  6
Continuous
 62
     1
100
AcDbLine
 10
-8.323224803736948
 20
20.31447981672653
 30
0.0
 11
-8.332732603736943
 21
20.37996441672652
 31
0.0
  0
ARC
  5
235
330
2
100
AcDbEntity
  8
GAIKEI
  6
Continuous
 62
     1
100
AcDbCircle
 10
-8.382213803736945
 20
20.37278361672651
 30
0.0
 40
0.05
100
AcDbArc
 50
8.260358000000751
 51
52.26035500000019
  0
LINE
  5
236
330
2
100
AcDbEntity
  8
GAIKEI
  6
Continuous
 62
     7
100
AcDbLine
 10
-11.43914120373695
 20
22.7261802167265
 30
0.0
 11
-8.955864803736957
 21
20.80414041672651
 31
0.0
  0
ARC
  5
237
330
2
100
AcDbEntity
  8
GAIKEI
  6
Continuous
 62
     7
100
AcDbCircle
 10
-10.53597820373691
 20
24.78000101672649
 30
0.0
 40
0.1599164
100
AcDbArc
 50
312.1515799999993
 51
359.9897460000008
  0
LINE
  5
238
330
2
100
AcDbEntity
  8
GAIKEI
  6
Continuous
 62
     7
100
AcDbLine
 10
-10.43169800373691
 20
24.65858981672653
 30
0.0
 11
-11.43995300373693
 21
23.74554661672653
 31
0.0
  0
LINE
  5
239
330
2
100
AcDbEntity
  8
GAIKEI
  6
Continuous
 62
     7
100
AcDbLine
 10
-10.37642760373693
 20
24.7800314167265
 30
0.0
 11
-10.37668700373693
 21
29.04569321672653
 31
0.0
  0
LWPOLYLINE
  5
23A
330
2
100
AcDbEntity
  8
GAIKEI
  6
Continuous
 62
     7
100
AcDbPolyline
 90
       13
 70
     0
 43
0.0
 10
-10.3759272037369
 20
29.04568701672656
 10
-10.38268680373692
 20
29.36270981672652
 10
-10.40271240373691
 20
29.67893281672656
 10
-10.43238160373691
 20
29.96608501672654
 10
-10.47277460373691
 20
30.25114961672654
 10
-10.52629480373691
 20
30.54682841672656
 10
-10.59112940373693
 20
30.83918681672651
 10
-10.66742500373691
 20
31.12874361672652
 10
-10.75520260373692
 20
31.41581041672657
 10
-10.85482420373692
 20
31.70108861672657
 10
-10.96981760373693
 20
31.99127421672654
 10
-11.1084376037369
 20
32.30133281672653
 10
-11.2390680037369
 20
32.56628021672657
  0
LINE
  5
23B
330
2
100
AcDbEntity
  8
GAIKEI
  6
Continuous
 62
     7
100
AcDbLine
 10
-11.44038640373692
 20
23.74569321672652
 30
0.0
 11
-11.54957360373693
 21
23.74569321672652
 31
0.0
  0
LINE
  5
23C
330
2
100
AcDbEntity
  8
GAIKEI
  6
Continuous
 62
     7
100
AcDbLine
 10
-11.29273320373691
 20
32.63509741672653
 30
0.0
 11
-11.43999560196289
 21
32.7660484167265
 31
0.0
  0
LINE
  5
23D
330
2
100
AcDbEntity
  8
GAIKEI
  6
Continuous
 62
     7
100
AcDbLine
 10
-11.43999560196289
 20
32.7660484167265
 30
0.0
 11
-11.48010960373692
 21
32.7660484167265
 31
0.0
  0
ARC
  5
23E
330
2
100
AcDbEntity
  8
GAIKEI
  6
Continuous
 62
     1
100
AcDbCircle
 10
-12.89054200373691
 20
41.0181358167265
 30
0.0
 40
16.5410934
100
AcDbArc
 50
277.3721530000009
 51
278.5597599999996
  0
LWPOLYLINE
  5
23F
330
2
100
AcDbEntity
  8
GAIKEI
  6
Continuous
 62
     1
100
AcDbPolyline
 90
        5
 70
     0
 43
0.0
 10
-11.8909692037369
 20
24.47887801672653
 10
-11.81638740373692
 20
24.48976041672654
 10
-11.67670220373692
 20
24.50453101672656
 10
-11.34452920373691
 20
24.54153061672656
 10
-10.76808100373692
 20
24.61366801672653
  0
LINE
  5
240
330
2
100
AcDbEntity
  8
GAIKEI
  6
Continuous
 62
     1
100
AcDbLine
 10
-10.3759272037369
 20
29.04571761672651
 30
0.0
 11
-11.97131140373692
 21
29.04510101672651
 31
0.0
  0
ARC
  5
241
330
2
100
AcDbEntity
  8
GAIKEI
  6
Continuous
 62
     7
100
AcDbCircle
 10
-11.45212640373692
 20
32.4558006167265
 30
0.0
 40
0.24
100
AcDbArc
 50
27.40540599999916
 51
48.36329400000067
  0
LINE
  5
242
330
2
100
AcDbEntity
  8
GAIKEI
  6
Continuous
 62
     7
100
AcDbLine
 10
-11.43995460373692
 20
23.74569321672652
 30
0.0
 11
-11.44038640373692
 21
23.74607161672651
 31
0.0
  0
LWPOLYLINE
  5
243
330
2
100
AcDbEntity
  8
GAIKEI
  6
Continuous
 62
     1
100
AcDbPolyline
 90
        5
 70
     0
 43
0.0
 10
-11.89085640373692
 20
24.47903061672656
 10
-11.89717040373692
 20
24.48763641672656
 10
-11.91543820373691
 20
24.50084441672653
 10
-11.9629328037369
 20
24.53576881672655
 10
-11.98105720373691
 20
24.55475681672652
  0
LWPOLYLINE
  5
244
330
2
100
AcDbEntity
  8
GAIKEI
  6
Continuous
 62
     1
100
AcDbPolyline
 90
        3
 70
     0
 43
0.0
 10
-11.98105720373691
 20
24.55475681672652
 10
-12.01856940373692
 20
24.60724701672655
 10
-12.04211220373692
 20
24.65096041672655
  0
LINE
  5
245
330
2
100
AcDbEntity
  8
GAIKEI
  6
Continuous
 62
     1
100
AcDbLine
 10
-12.04211220373692
 20
24.65096041672649
 30
0.0
 11
-12.05979560373693
 21
24.68539041672654
 31
0.0
  0
LINE
  5
246
330
2
100
AcDbEntity
  8
GAIKEI
  6
Continuous
 62
     1
100
AcDbLine
 10
-12.05979560373693
 20
24.68539041672654
 30
0.0
 11
-12.06841380373693
 21
24.70043561672651
 31
0.0
  0
ARC
  5
247
330
2
100
AcDbEntity
  8
GAIKEI
  6
Continuous
 62
     1
100
AcDbCircle
 10
-21.31267640373692
 20
42.52260361672654
 30
0.0
 40
20.3554566
100
AcDbArc
 50
296.7168530000001
 51
297.5722670000006
  0
LINE
  5
248
330
2
100
AcDbEntity
  8
GAIKEI
  6
Continuous
 62
     1
100
AcDbLine
 10
-11.97131140373692
 20
29.04510101672651
 30
0.0
 11
-12.06775140373692
 21
29.04510721672654
 31
0.0
  0
LWPOLYLINE
  5
249
330
2
100
AcDbEntity
  8
GAIKEI
  6
Continuous
 62
     1
100
AcDbPolyline
 90
       12
 70
     0
 43
0.0
 10
-11.40406440373691
 20
32.33915021672653
 10
-11.54684080373691
 20
31.94035861672654
 10
-11.65557340373691
 20
31.60085061672658
 10
-11.74055720373691
 20
31.30550761672657
 10
-11.82357120373693
 20
30.97981181672651
 10
-11.89854680373692
 20
30.63589081672655
 10
-11.9631128037369
 20
30.27185281672655
 10
-11.99938900373691
 20
30.01478501672654
 10
-12.0289286037369
 20
29.74924541672653
 10
-12.05076540373692
 20
29.47907321672654
 10
-12.06434580373691
 20
29.20602021672653
 10
-12.0678584037369
 20
29.06891081672654
  0
LINE
  5
24A
330
2
100
AcDbEntity
  8
GAIKEI
  6
Continuous
 62
     1
100
AcDbLine
 10
-11.40406440373691
 20
32.33915021672653
 30
0.0
 11
-11.32825860373692
 21
32.53992521672649
 31
0.0
  0
LINE
  5
24B
330
2
100
AcDbEntity
  8
GAIKEI
  6
Continuous
 62
     1
100
AcDbLine
 10
-11.32825860373692
 20
32.53992521672649
 30
0.0
 11
-11.29300012851065
 21
32.63533477579756
 31
0.0
  0
LINE
  5
24C
330
2
100
AcDbEntity
  8
GAIKEI
  6
Continuous
 62
     1
100
AcDbLine
 10
-12.16124520373692
 20
24.34031601672649
 30
0.0
 11
-12.22256100373691
 21
24.34031601672649
 31
0.0
  0
LINE
  5
24D
330
2
100
AcDbEntity
  8
GAIKEI
  6
Continuous
 62
     1
100
AcDbLine
 10
-12.26364021457202
 20
29.15597623640684
 30
0.0
 11
-12.06783240373691
 21
29.06891081672654
 31
0.0
  0
LWPOLYLINE
  5
24E
330
2
100
AcDbEntity
  8
GAIKEI
  6
Continuous
 62
     1
100
AcDbPolyline
 90
        6
 70
     0
 43
0.0
 10
-12.06775460373693
 20
29.04511321672658
 10
-12.06886540373692
 20
26.33789281672654
 10
-12.06911860373689
 20
25.83151461672656
 10
-12.06925000373691
 20
25.32713841672654
 10
-12.07077580373691
 20
24.90895001672652
 10
-12.0692468037369
 20
24.69987401672654
  0
LINE
  5
24F
330
2
100
AcDbEntity
  8
GAIKEI
  6
Continuous
 62
     1
100
AcDbLine
 10
-12.06783240373691
 20
29.04510721672654
 30
0.0
 11
-12.06783240373691
 21
29.06891081672654
 31
0.0
  0
ARC
  5
250
330
2
100
AcDbEntity
  8
GAIKEI
  6
Continuous
 62
     7
100
AcDbCircle
 10
-11.49914180373692
 20
23.08617781672655
 30
0.0
 40
0.06
100
AcDbArc
 50
271.6300070000006
 51
358.3699939999999
  0
LINE
  5
251
330
2
100
AcDbEntity
  8
GAIKEI
  6
Continuous
 62
     7
100
AcDbLine
 10
-12.26363460373692
 20
29.14618141672651
 30
0.0
 11
-12.26363460373692
 21
24.51603621672649
 31
0.0
  0
ARC
  5
252
330
2
100
AcDbEntity
  8
GAIKEI
  6
Continuous
 62
     7
100
AcDbCircle
 10
-4.20657140373693
 20
29.14341661672654
 30
0.0
 40
8.0570786
100
AcDbArc
 50
174.4736130000006
 51
179.9803390000002
  0
LWPOLYLINE
  5
253
330
2
100
AcDbEntity
  8
GAIKEI
  6
Continuous
 62
     7
100
AcDbPolyline
 90
        7
 70
     0
 43
0.0
 10
-11.85117440373692
 20
31.74302581672657
 10
-11.94862460373691
 20
31.40898041672654
 10
-12.04125620373692
 20
31.04190901672655
 10
-12.1040308037369
 20
30.74885481672652
 10
-12.1585718037369
 20
30.44415501672654
 10
-12.20298100373692
 20
30.13109961672654
 10
-12.22621100373691
 20
29.91934421672653
  0
ARC
  5
254
330
2
100
AcDbEntity
  8
GAIKEI
  6
Continuous
 62
     7
100
AcDbCircle
 10
-0.5906962037369255
 20
28.2318992167265
 30
0.0
 40
11.795311
100
AcDbArc
 50
157.7980959999999
 51
162.6820309999995
  0
ARC
  5
255
330
2
100
AcDbEntity
  8
GAIKEI
  6
Continuous
 62
     7
100
AcDbCircle
 10
0.0712209962630794
 20
27.99062721672652
 30
0.0
 40
12.4994576
100
AcDbArc
 50
157.1057890000002
 51
157.9206239999993
  0
LINE
  5
256
330
2
100
AcDbEntity
  8
GAIKEI
  6
Continuous
 62
     7
100
AcDbLine
 10
-11.44358760373693
 20
32.85329801672651
 30
0.0
 11
-11.43915660373692
 21
32.8638266167265
 31
0.0
  0
LWPOLYLINE
  5
257
330
2
100
AcDbEntity
  8
GAIKEI
  6
Continuous
 62
     7
100
AcDbPolyline
 90
        6
 70
     0
 43
0.0
 10
-12.26363460373692
 20
24.51603621672655
 10
-12.25838880373691
 20
24.44708481672654
 10
-12.24309940373691
 20
24.38442601672654
 10
-12.22525580373691
 20
24.34457001672655
 10
-12.20445200373693
 20
24.31643281672655
 10
-12.1990198037369
 20
24.31134261672657
  0
LINE
  5
258
330
2
100
AcDbEntity
  8
GAIKEI
  6
Continuous
 62
     7
100
AcDbLine
 10
-11.45544380373694
 20
32.82509381672651
 30
0.0
 11
-11.44441920373693
 21
32.85135721672651
 31
0.0
  0
LINE
  5
259
330
2
100
AcDbEntity
  8
GAIKEI
  6
Continuous
 62
     7
100
AcDbLine
 10
-11.47998300373693
 20
32.76615221672654
 30
0.0
 11
-11.45544380373694
 21
32.82509381672651
 31
0.0
  0
LINE
  5
25A
330
2
100
AcDbEntity
  8
GAIKEI
  6
Continuous
 62
     7
100
AcDbLine
 10
-11.43914120373692
 20
23.02618021672657
 30
0.0
 11
-11.43914120373692
 21
23.648559812489
 31
0.0
  0
ARC
  5
25B
330
2
100
AcDbEntity
  8
GAIKEI
  6
Continuous
 62
     7
100
AcDbCircle
 10
-72.99965160373695
 20
-46.14610978327346
 30
0.0
 40
93.06433099999999
100
AcDbArc
 50
48.77835200000149
 51
49.20773900000026
  0
LINE
  5
25C
330
2
100
AcDbEntity
  8
GAIKEI
  6
Continuous
 62
     7
100
AcDbLine
 10
-11.43914120373692
 20
23.648559812489
 30
0.0
 11
-11.67270440373691
 21
23.85371921672652
 31
0.0
  0
POINT
  5
25D
330
2
100
AcDbEntity
  8
GAIKEI
  6
Continuous
 62
     7
100
AcDbPoint
 10
-10.3759272037369
 20
29.0456870167265
 30
0.0
  0
LINE
  5
25E
330
2
100
AcDbEntity
  8
GAIKEI
  6
Continuous
 62
     7
100
AcDbLine
 10
14.72938264548806
 20
17.48618081672652
 30
0.0
 11
14.50347924548799
 21
17.48618081672652
 31
0.0
  0
LINE
  5
25F
330
2
100
AcDbEntity
  8
GAIKEI
  6
Continuous
 62
     7
100
AcDbLine
 10
14.36938204548801
 20
18.62618021672654
 30
0.0
 11
14.26938204548801
 21
18.62618021672654
 31
0.0
  0
LINE
  5
260
330
2
100
AcDbEntity
  8
GAIKEI
  6
Continuous
 62
     1
100
AcDbLine
 10
14.36938204548801
 20
18.82618021672658
 30
0.0
 11
28.92122824548801
 21
18.82618021672653
 31
0.0
  0
LINE
  5
261
330
2
100
AcDbEntity
  8
GAIKEI
  6
Continuous
 62
     1
100
AcDbLine
 10
38.32938264548804
 20
17.48618081672657
 30
0.0
 11
32.29490984548801
 21
17.48618081672652
 31
0.0
  0
LINE
  5
262
330
2
100
AcDbEntity
  8
GAIKEI
  6
Continuous
 62
     1
100
AcDbLine
 10
19.327121245488
 20
30.80821027794815
 30
0.0
 11
19.327121245488
 21
34.7261802167265
 31
0.0
  0
LINE
  5
263
330
2
100
AcDbEntity
  8
GAIKEI
  6
Continuous
 62
     1
100
AcDbLine
 10
33.730572845488
 20
30.90617901672647
 30
0.0
 11
33.73057284548802
 21
34.7261802167265
 31
0.0
  0
LINE
  5
264
330
2
100
AcDbEntity
  8
GAIKEI
  6
Continuous
 62
     7
100
AcDbLine
 10
33.78231722756201
 20
38.54618141672654
 30
0.0
 11
34.74738184548801
 21
38.54618141672654
 31
0.0
  0
LINE
  5
265
330
2
100
AcDbEntity
  8
GAIKEI
  6
Continuous
 62
     1
100
AcDbLine
 10
33.44324984548803
 20
38.54618141672654
 30
0.0
 11
33.782544245488
 21
38.54576641672657
 31
0.0
  0
LINE
  5
266
330
2
100
AcDbEntity
  8
GAIKEI
  6
Continuous
 62
     7
100
AcDbLine
 10
33.782544245488
 20
38.54576641672657
 30
0.0
 11
33.66139544548801
 21
38.76723241672653
 31
0.0
  0
LINE
  5
267
330
2
100
AcDbEntity
  8
GAIKEI
  6
Continuous
 62
     7
100
AcDbLine
 10
33.66139544548801
 20
38.76723241672653
 30
0.0
 11
33.53360624548799
 21
38.98496921672654
 31
0.0
  0
LINE
  5
268
330
2
100
AcDbEntity
  8
GAIKEI
  6
Continuous
 62
     7
100
AcDbLine
 10
33.53360624548799
 20
38.98496921672654
 30
0.0
 11
33.383087445488
 21
39.22359841672653
 31
0.0
  0
LINE
  5
269
330
2
100
AcDbEntity
  8
GAIKEI
  6
Continuous
 62
     7
100
AcDbLine
 10
33.383087445488
 20
39.22359841672653
 30
0.0
 11
33.22475604548802
 21
39.45674041672658
 31
0.0
  0
LINE
  5
26A
330
2
100
AcDbEntity
  8
GAIKEI
  6
Continuous
 62
     7
100
AcDbLine
 10
33.22475604548802
 20
39.45674041672658
 30
0.0
 11
33.05860004548802
 21
39.68436501672653
 31
0.0
  0
LINE
  5
26B
330
2
100
AcDbEntity
  8
GAIKEI
  6
Continuous
 62
     7
100
AcDbLine
 10
33.05860004548802
 20
39.68436501672653
 30
0.0
 11
32.88477204548801
 21
39.90617901672658
 31
0.0
  0
LINE
  5
26C
330
2
100
AcDbEntity
  8
GAIKEI
  6
Continuous
 62
     7
100
AcDbLine
 10
32.88477204548801
 20
39.90617901672658
 30
0.0
 11
32.70343044548801
 21
40.12187721672654
 31
0.0
  0
LINE
  5
26D
330
2
100
AcDbEntity
  8
GAIKEI
  6
Continuous
 62
     7
100
AcDbLine
 10
32.70343044548801
 20
40.12187721672654
 30
0.0
 11
32.51472184548803
 21
40.33116681672652
 31
0.0
  0
LINE
  5
26E
330
2
100
AcDbEntity
  8
GAIKEI
  6
Continuous
 62
     7
100
AcDbLine
 10
32.51472184548803
 20
40.33116681672652
 30
0.0
 11
32.318799045488
 21
40.53375461672652
 31
0.0
  0
LINE
  5
26F
330
2
100
AcDbEntity
  8
GAIKEI
  6
Continuous
 62
     7
100
AcDbLine
 10
32.318799045488
 20
40.53375461672652
 30
0.0
 11
32.11583884548801
 21
40.72935401672657
 31
0.0
  0
LINE
  5
270
330
2
100
AcDbEntity
  8
GAIKEI
  6
Continuous
 62
     7
100
AcDbLine
 10
32.11583884548801
 20
40.72935401672657
 30
0.0
 11
31.90609764548802
 21
40.91776341672653
 31
0.0
  0
LINE
  5
271
330
2
100
AcDbEntity
  8
GAIKEI
  6
Continuous
 62
     7
100
AcDbLine
 10
31.90609764548802
 20
40.91776341672653
 30
0.0
 11
31.689892845488
 21
41.09881821672655
 31
0.0
  0
LINE
  5
272
330
2
100
AcDbEntity
  8
GAIKEI
  6
Continuous
 62
     7
100
AcDbLine
 10
31.689892845488
 20
41.09881821672655
 30
0.0
 11
31.46752944548803
 21
41.27235321672651
 31
0.0
  0
LINE
  5
273
330
2
100
AcDbEntity
  8
GAIKEI
  6
Continuous
 62
     7
100
AcDbLine
 10
31.46752944548803
 20
41.27235321672651
 30
0.0
 11
31.23930684548802
 21
41.43819801672657
 31
0.0
  0
LINE
  5
274
330
2
100
AcDbEntity
  8
GAIKEI
  6
Continuous
 62
     7
100
AcDbLine
 10
31.23930684548802
 20
41.43819801672657
 30
0.0
 11
31.005530045488
 21
41.59618761672652
 31
0.0
  0
LINE
  5
275
330
2
100
AcDbEntity
  8
GAIKEI
  6
Continuous
 62
     7
100
AcDbLine
 10
31.005530045488
 20
41.59618761672652
 30
0.0
 11
30.76651024548801
 21
41.74615081672652
 31
0.0
  0
LINE
  5
276
330
2
100
AcDbEntity
  8
GAIKEI
  6
Continuous
 62
     7
100
AcDbLine
 10
30.76651024548801
 20
41.74615081672652
 30
0.0
 11
30.52255264548802
 21
41.88792341672654
 31
0.0
  0
LINE
  5
277
330
2
100
AcDbEntity
  8
GAIKEI
  6
Continuous
 62
     7
100
AcDbLine
 10
30.52255264548802
 20
41.88792341672654
 30
0.0
 11
30.27396264548801
 21
42.02134001672653
 31
0.0
  0
LINE
  5
278
330
2
100
AcDbEntity
  8
GAIKEI
  6
Continuous
 62
     7
100
AcDbLine
 10
30.27396264548801
 20
42.02134001672653
 30
0.0
 11
30.02105124548803
 21
42.14622421672652
 31
0.0
  0
LINE
  5
279
330
2
100
AcDbEntity
  8
GAIKEI
  6
Continuous
 62
     7
100
AcDbLine
 10
30.02105124548803
 20
42.14622421672652
 30
0.0
 11
29.76411164548802
 21
42.26241681672656
 31
0.0
  0
LINE
  5
27A
330
2
100
AcDbEntity
  8
GAIKEI
  6
Continuous
 62
     7
100
AcDbLine
 10
29.76411164548802
 20
42.26241681672656
 30
0.0
 11
29.50346084548801
 21
42.36975321672656
 31
0.0
  0
LINE
  5
27B
330
2
100
AcDbEntity
  8
GAIKEI
  6
Continuous
 62
     7
100
AcDbLine
 10
29.50346084548801
 20
42.36975321672656
 30
0.0
 11
29.23939844548801
 21
42.46806261672657
 31
0.0
  0
LINE
  5
27C
330
2
100
AcDbEntity
  8
GAIKEI
  6
Continuous
 62
     7
100
AcDbLine
 10
29.23939844548801
 20
42.46806261672657
 30
0.0
 11
28.97223524548801
 21
42.55718001672653
 31
0.0
  0
LINE
  5
27D
330
2
100
AcDbEntity
  8
GAIKEI
  6
Continuous
 62
     7
100
AcDbLine
 10
28.97223524548801
 20
42.55718001672653
 30
0.0
 11
28.70227064548803
 21
42.63692841672656
 31
0.0
  0
LINE
  5
27E
330
2
100
AcDbEntity
  8
GAIKEI
  6
Continuous
 62
     7
100
AcDbLine
 10
28.70227064548803
 20
42.63692841672656
 30
0.0
 11
28.42981584548801
 21
42.70715561672654
 31
0.0
  0
LINE
  5
27F
330
2
100
AcDbEntity
  8
GAIKEI
  6
Continuous
 62
     7
100
AcDbLine
 10
28.42981584548801
 20
42.70715561672654
 30
0.0
 11
28.15516984548802
 21
42.76768401672654
 31
0.0
  0
LINE
  5
280
330
2
100
AcDbEntity
  8
GAIKEI
  6
Continuous
 62
     7
100
AcDbLine
 10
28.15516984548802
 20
42.76768401672654
 30
0.0
 11
27.878650045488
 21
42.81836161672652
 31
0.0
  0
LINE
  5
281
330
2
100
AcDbEntity
  8
GAIKEI
  6
Continuous
 62
     7
100
AcDbLine
 10
27.878650045488
 20
42.81836161672652
 30
0.0
 11
27.60056184548802
 21
42.85918181672656
 31
0.0
  0
LINE
  5
282
330
2
100
AcDbEntity
  8
GAIKEI
  6
Continuous
 62
     7
100
AcDbLine
 10
27.60056184548802
 20
42.85918181672656
 30
0.0
 11
27.321240445488
 21
42.89021221672652
 31
0.0
  0
LINE
  5
283
330
2
100
AcDbEntity
  8
GAIKEI
  6
Continuous
 62
     7
100
AcDbLine
 10
27.321240445488
 20
42.89021221672652
 30
0.0
 11
27.04100364548802
 21
42.9114952167265
 31
0.0
  0
LINE
  5
284
330
2
100
AcDbEntity
  8
GAIKEI
  6
Continuous
 62
     7
100
AcDbLine
 10
27.04100364548802
 20
42.9114952167265
 30
0.0
 11
26.76016864548799
 21
42.92310401672653
 31
0.0
  0
LINE
  5
285
330
2
100
AcDbEntity
  8
GAIKEI
  6
Continuous
 62
     7
100
AcDbLine
 10
26.76016864548799
 20
42.92310401672653
 30
0.0
 11
26.47905904548802
 21
42.92509981672651
 31
0.0
  0
LINE
  5
286
330
2
100
AcDbEntity
  8
GAIKEI
  6
Continuous
 62
     7
100
AcDbLine
 10
26.47905904548802
 20
42.92509981672651
 30
0.0
 11
26.19799824548801
 21
42.91753761672658
 31
0.0
  0
LINE
  5
287
330
2
100
AcDbEntity
  8
GAIKEI
  6
Continuous
 62
     7
100
AcDbLine
 10
26.19799824548801
 20
42.91753761672658
 30
0.0
 11
25.91730984548801
 21
42.90047821672652
 31
0.0
  0
LINE
  5
288
330
2
100
AcDbEntity
  8
GAIKEI
  6
Continuous
 62
     7
100
AcDbLine
 10
25.91730984548801
 20
42.90047821672652
 30
0.0
 11
25.637317045488
 21
42.87398901672657
 31
0.0
  0
LINE
  5
289
330
2
100
AcDbEntity
  8
GAIKEI
  6
Continuous
 62
     7
100
AcDbLine
 10
25.637317045488
 20
42.87398901672657
 30
0.0
 11
25.35833144548801
 21
42.83812481672652
 31
0.0
  0
LINE
  5
28A
330
2
100
AcDbEntity
  8
GAIKEI
  6
Continuous
 62
     7
100
AcDbLine
 10
25.35833144548801
 20
42.83812481672652
 30
0.0
 11
25.08068864548798
 21
42.79294661672657
 31
0.0
  0
LINE
  5
28B
330
2
100
AcDbEntity
  8
GAIKEI
  6
Continuous
 62
     7
100
AcDbLine
 10
25.08068864548798
 20
42.79294661672657
 30
0.0
 11
24.80470604548799
 21
42.73852141672654
 31
0.0
  0
LINE
  5
28C
330
2
100
AcDbEntity
  8
GAIKEI
  6
Continuous
 62
     7
100
AcDbLine
 10
24.80470604548799
 20
42.73852141672654
 30
0.0
 11
24.53070084548802
 21
42.67489841672653
 31
0.0
  0
LINE
  5
28D
330
2
100
AcDbEntity
  8
GAIKEI
  6
Continuous
 62
     7
100
AcDbLine
 10
24.53070084548802
 20
42.67489841672653
 30
0.0
 11
24.259002845488
 21
42.60215061672653
 31
0.0
  0
LINE
  5
28E
330
2
100
AcDbEntity
  8
GAIKEI
  6
Continuous
 62
     7
100
AcDbLine
 10
24.259002845488
 20
42.60215061672653
 30
0.0
 11
23.98993544548801
 21
42.52032701672653
 31
0.0
  0
LINE
  5
28F
330
2
100
AcDbEntity
  8
GAIKEI
  6
Continuous
 62
     7
100
AcDbLine
 10
23.98993544548801
 20
42.52032701672653
 30
0.0
 11
23.72381004548802
 21
42.42949441672652
 31
0.0
  0
LINE
  5
290
330
2
100
AcDbEntity
  8
GAIKEI
  6
Continuous
 62
     7
100
AcDbLine
 10
23.72381004548802
 20
42.42949441672652
 30
0.0
 11
23.46095604548802
 21
42.32971421672653
 31
0.0
  0
LINE
  5
291
330
2
100
AcDbEntity
  8
GAIKEI
  6
Continuous
 62
     7
100
AcDbLine
 10
23.46095604548802
 20
42.32971421672653
 30
0.0
 11
23.20169704548801
 21
42.22104721672656
 31
0.0
  0
LINE
  5
292
330
2
100
AcDbEntity
  8
GAIKEI
  6
Continuous
 62
     7
100
AcDbLine
 10
23.20169704548801
 20
42.22104721672656
 30
0.0
 11
22.94634424548801
 21
42.10354841672653
 31
0.0
  0
LINE
  5
293
330
2
100
AcDbEntity
  8
GAIKEI
  6
Continuous
 62
     7
100
AcDbLine
 10
22.94634424548801
 20
42.10354841672653
 30
0.0
 11
22.69523344548801
 21
41.97728501672656
 31
0.0
  0
LINE
  5
294
330
2
100
AcDbEntity
  8
GAIKEI
  6
Continuous
 62
     7
100
AcDbLine
 10
22.69523344548801
 20
41.97728501672656
 30
0.0
 11
22.44868184548801
 21
41.84231781672656
 31
0.0
  0
LINE
  5
295
330
2
100
AcDbEntity
  8
GAIKEI
  6
Continuous
 62
     7
100
AcDbLine
 10
22.44868184548801
 20
41.84231781672656
 30
0.0
 11
22.20701324548802
 21
41.69870221672653
 31
0.0
  0
LINE
  5
296
330
2
100
AcDbEntity
  8
GAIKEI
  6
Continuous
 62
     7
100
AcDbLine
 10
22.20701324548802
 20
41.69870221672653
 30
0.0
 11
21.97055084548799
 21
41.54650481672655
 31
0.0
  0
LINE
  5
297
330
2
100
AcDbEntity
  8
GAIKEI
  6
Continuous
 62
     7
100
AcDbLine
 10
21.97055084548799
 20
41.54650481672655
 30
0.0
 11
21.739587645488
 21
41.38581761672651
 31
0.0
  0
LINE
  5
298
330
2
100
AcDbEntity
  8
GAIKEI
  6
Continuous
 62
     7
100
AcDbLine
 10
21.739587645488
 20
41.38581761672651
 30
0.0
 11
21.51436784548801
 21
41.21687841672655
 31
0.0
  0
LINE
  5
299
330
2
100
AcDbEntity
  8
GAIKEI
  6
Continuous
 62
     7
100
AcDbLine
 10
21.51436784548801
 20
41.21687841672655
 30
0.0
 11
21.29506864548802
 21
41.03999241672653
 31
0.0
  0
LINE
  5
29A
330
2
100
AcDbEntity
  8
GAIKEI
  6
Continuous
 62
     7
100
AcDbLine
 10
21.29506864548802
 20
41.03999241672653
 30
0.0
 11
21.08190944548801
 21
40.85543441672655
 31
0.0
  0
LINE
  5
29B
330
2
100
AcDbEntity
  8
GAIKEI
  6
Continuous
 62
     7
100
AcDbLine
 10
21.08190944548801
 20
40.85543441672655
 30
0.0
 11
20.87508564548802
 21
40.66351541672656
 31
0.0
  0
LINE
  5
29C
330
2
100
AcDbEntity
  8
GAIKEI
  6
Continuous
 62
     7
100
AcDbLine
 10
20.87508564548802
 20
40.66351541672656
 30
0.0
 11
20.674792645488
 21
40.46451021672652
 31
0.0
  0
LINE
  5
29D
330
2
100
AcDbEntity
  8
GAIKEI
  6
Continuous
 62
     7
100
AcDbLine
 10
20.674792645488
 20
40.46451021672652
 30
0.0
 11
20.481238045488
 21
40.25871801672656
 31
0.0
  0
LINE
  5
29E
330
2
100
AcDbEntity
  8
GAIKEI
  6
Continuous
 62
     7
100
AcDbLine
 10
20.481238045488
 20
40.25871801672656
 30
0.0
 11
20.29461684548801
 21
40.04643161672652
 31
0.0
  0
LINE
  5
29F
330
2
100
AcDbEntity
  8
GAIKEI
  6
Continuous
 62
     7
100
AcDbLine
 10
20.29461684548801
 20
40.04643161672652
 30
0.0
 11
20.11513704548801
 21
39.82793801672654
 31
0.0
  0
LINE
  5
2A0
330
2
100
AcDbEntity
  8
GAIKEI
  6
Continuous
 62
     7
100
AcDbLine
 10
20.11513704548801
 20
39.82793801672654
 30
0.0
 11
19.94298724548801
 21
39.60353001672655
 31
0.0
  0
LINE
  5
2A1
330
2
100
AcDbEntity
  8
GAIKEI
  6
Continuous
 62
     7
100
AcDbLine
 10
19.94298724548801
 20
39.60353001672655
 30
0.0
 11
19.77837544548799
 21
39.37350081672656
 31
0.0
  0
LINE
  5
2A2
330
2
100
AcDbEntity
  8
GAIKEI
  6
Continuous
 62
     7
100
AcDbLine
 10
19.77837544548799
 20
39.37350081672656
 30
0.0
 11
19.62049884548801
 21
39.13650121672652
 31
0.0
  0
LINE
  5
2A3
330
2
100
AcDbEntity
  8
GAIKEI
  6
Continuous
 62
     7
100
AcDbLine
 10
19.62049884548801
 20
39.13650121672652
 30
0.0
 11
19.47706924548799
 21
38.90527561672655
 31
0.0
  0
LINE
  5
2A4
330
2
100
AcDbEntity
  8
GAIKEI
  6
Continuous
 62
     7
100
AcDbLine
 10
19.47706924548799
 20
38.90527561672655
 30
0.0
 11
19.34836444548801
 21
38.68248521672655
 31
0.0
  0
LINE
  5
2A5
330
2
100
AcDbEntity
  8
GAIKEI
  6
Continuous
 62
     7
100
AcDbLine
 10
19.34836444548801
 20
38.68248521672655
 30
0.0
 11
19.226544445488
 21
38.45597141672653
 31
0.0
  0
LINE
  5
2A6
330
2
100
AcDbEntity
  8
GAIKEI
  6
Continuous
 62
     7
100
AcDbLine
 10
19.226544445488
 20
38.45597141672653
 30
0.0
 11
19.11177084548799
 21
38.22596661672657
 31
0.0
  0
TEXT
  5
2A7
330
2
100
AcDbEntity
  8
TOUROKU
100
AcDbText
 10
44.70464755704565
 20
53.20859999724496
 30
0.0
 40
2.0
  1
ＢＢＨＣＭ５８０
 72
     2
 11
62.97131422371233
 21
53.20859999724496
 31
0.0
100
AcDbText
  0
TEXT
  5
2A9
330
2
100
AcDbEntity
  8
MOJI1
100
AcDbText
 10
-35.02863580921485
 20
59.20859999724516
 30
0.0
 40
4.0
  1
ネットワークカメラ
100
AcDbText
  0
TEXT
  5
2AB
330
2
100
AcDbEntity
  8
MOJI1
100
AcDbText
 10
-19.52863580921497
 20
-44.50736550955892
 30
0.0
 40
3.0
  1
パン：最大３００°／秒　チルト：最大２００°／秒
 41
0.95
100
AcDbText
  0
LINE
  5
2AC
330
2
100
AcDbEntity
  8
WAKU
 62
     1
100
AcDbLine
 10
62.97136419078502
 20
-35.50736550955893
 30
0.0
 11
-62.02863580921498
 21
-35.50736550955893
 31
0.0
  0
TEXT
  5
2AE
330
2
100
AcDbEntity
  8
MOJI1
100
AcDbText
 10
-59.52863580921498
 20
-44.50736550955892
 30
0.0
 40
3.0
  1
回転速度
100
AcDbText
  0
TEXT
  5
2AF
330
2
100
AcDbEntity
  8
MOJI1
100
AcDbText
 10
-19.52863580921497
 20
-19.50736550955892
 30
0.0
 40
3.0
  1
６４０×４８０、３２０×２４０、１９２×１４４
 41
0.8699999999999999
100
AcDbText
  0
TEXT
  5
2B0
330
2
100
AcDbEntity
  8
MOJI1
100
AcDbText
 10
-59.52863580921498
 20
-34.50736550955892
 30
0.0
 40
3.0
  1
パ　ン
100
AcDbText
  0
TEXT
  5
2B1
330
2
100
AcDbEntity
  8
MOJI1
100
AcDbText
 10
-19.52863580921497
 20
-39.50736550955893
 30
0.0
 40
3.0
  1
(卓上)：－１２０°～０°（天井）：０°～＋９０°
 41
0.95
100
AcDbText
  0
TEXT
  5
2B2
330
2
100
AcDbEntity
  8
MOJI1
100
AcDbText
 10
-18.52863580921497
 20
-9.507365509558923
 30
0.0
 40
3.0
  1
ＡＣ１００Ｖ　５０／６０Ｈｚ
100
AcDbText
  0
TEXT
  5
2B3
330
2
100
AcDbEntity
  8
MOJI1
100
AcDbText
 10
-19.52863580921497
 20
-14.50736550955892
 30
0.0
 40
3.0
  1
１／４インチ ３２万画素 ＣＣＤ（プログレッシブ方式）
 41
0.88
100
AcDbText
  0
TEXT
  5
2B4
330
2
100
AcDbEntity
  8
MOJI1
100
AcDbText
 10
-19.52863580921497
 20
-34.50736550955892
 30
0.0
 40
3.0
  1
(卓上)：－１７５°～＋１７５°（天井）：－１７５°～＋１７５°
 41
0.73
100
AcDbText
  0
TEXT
  5
2B5
330
2
100
AcDbEntity
  8
MOJI1
100
AcDbText
 10
-59.52863580921498
 20
-24.50736550955892
 30
0.0
 40
3.0
  1
ズーム
100
AcDbText
  0
TEXT
  5
2B6
330
2
100
AcDbEntity
  8
MOJI1
100
AcDbText
 10
-59.52863580921498
 20
-19.50736550955892
 30
0.0
 40
3.0
  1
解像度
100
AcDbText
  0
TEXT
  5
2B7
330
2
100
AcDbEntity
  8
MOJI1
100
AcDbText
 10
-59.52863580921498
 20
-14.50736550955892
 30
0.0
 40
3.0
  1
撮像素子
100
AcDbText
  0
TEXT
  5
2B8
330
2
100
AcDbEntity
  8
MOJI1
100
AcDbText
 10
-59.52863580921498
 20
-29.50736550955893
 30
0.0
 40
3.0
  1
最低照度
100
AcDbText
  0
TEXT
  5
2B9
330
2
100
AcDbEntity
  8
MOJI1
100
AcDbText
 10
-59.52863580921498
 20
-39.50736550955893
 30
0.0
 40
3.0
  1
チルト
100
AcDbText
  0
TEXT
  5
2BA
330
2
100
AcDbEntity
  8
MOJI1
100
AcDbText
 10
-19.52863580921497
 20
-29.50736550955893
 30
0.0
 40
3.0
  1
２ルクス(カラーナイトビューモー時：０．０９ルクス)
 41
0.9
100
AcDbText
  0
TEXT
  5
2BB
330
2
100
AcDbEntity
  8
MOJI1
100
AcDbText
 10
-19.52863580921497
 20
-24.50736550955892
 30
0.0
 40
3.0
  1
４２倍（光学２１倍 デジタル２倍）
100
AcDbText
  0
TEXT
  5
2BC
330
2
100
AcDbEntity
  8
MOJI1
100
AcDbText
 10
-59.52863580921498
 20
-9.507365509558923
 30
0.0
 40
3.0
  1
電　源
100
AcDbText
  0
LINE
  5
2BD
330
2
100
AcDbEntity
  8
WAKU
 62
     4
100
AcDbLine
 10
-62.02863580921498
 20
-50.50736550955893
 30
0.0
 11
62.97136419078502
 21
-50.50736550955893
 31
0.0
  0
LINE
  5
2BE
330
2
100
AcDbEntity
  8
WAKU
 62
     1
100
AcDbLine
 10
62.97136419078502
 20
-30.50736550955893
 30
0.0
 11
-62.02863580921498
 21
-30.50736550955893
 31
0.0
  0
LINE
  5
2BF
330
2
100
AcDbEntity
  8
WAKU
 62
     1
100
AcDbLine
 10
62.97136419078502
 20
-25.50736550955893
 30
0.0
 11
-62.02863580921498
 21
-25.50736550955893
 31
0.0
  0
LINE
  5
2C0
330
2
100
AcDbEntity
  8
WAKU
 62
     1
100
AcDbLine
 10
62.97136419078502
 20
-20.50736550955893
 30
0.0
 11
-62.02863580921498
 21
-20.50736550955893
 31
0.0
  0
LINE
  5
2C1
330
2
100
AcDbEntity
  8
WAKU
 62
     1
100
AcDbLine
 10
62.97136419078502
 20
-15.50736550955892
 30
0.0
 11
-62.02863580921498
 21
-15.50736550955892
 31
0.0
  0
LINE
  5
2C2
330
2
100
AcDbEntity
  8
WAKU
 62
     4
100
AcDbLine
 10
62.97136419078502
 20
-5.507365509558923
 30
0.0
 11
-62.02863580921498
 21
-5.507365509558923
 31
0.0
  0
LINE
  5
2C3
330
2
100
AcDbEntity
  8
WAKU
 62
     1
100
AcDbLine
 10
62.97136419078502
 20
-10.50736550955892
 30
0.0
 11
-62.02863580921498
 21
-10.50736550955892
 31
0.0
  0
LINE
  5
2C4
330
2
100
AcDbEntity
  8
WAKU
 62
     4
100
AcDbLine
 10
-62.02863580921498
 20
-5.507365509558923
 30
0.0
 11
-62.02863580921498
 21
-50.50736550955893
 31
0.0
  0
LINE
  5
2C5
330
2
100
AcDbEntity
  8
WAKU
 62
     4
100
AcDbLine
 10
62.97136419078502
 20
-50.50736550955893
 30
0.0
 11
62.97136419078502
 21
-5.507365509558923
 31
0.0
  0
LINE
  5
2C6
330
2
100
AcDbEntity
  8
WAKU
 62
     4
100
AcDbLine
 10
-21.82305457869656
 20
-50.50736550955869
 30
0.0
 11
-21.82305457869656
 21
-5.507365509558695
 31
0.0
  0
LINE
  5
2C7
330
2
100
AcDbEntity
  8
WAKU
 62
     1
100
AcDbLine
 10
62.97136419078502
 20
-40.50736550955892
 30
0.0
 11
-62.02863580921498
 21
-40.50736550955892
 31
0.0
  0
LINE
  5
2C8
330
2
100
AcDbEntity
  8
WAKU
 62
     1
100
AcDbLine
 10
62.97136419078502
 20
-45.50736550955892
 30
0.0
 11
-62.02863580921498
 21
-45.50736550955892
 31
0.0
  0
TEXT
  5
2C9
330
2
100
AcDbEntity
  8
MOJI1
100
AcDbText
 10
-59.52863580921498
 20
-49.50736550955892
 30
0.0
 40
3.0
  1
画像圧縮方式
100
AcDbText
  0
TEXT
  5
2CA
330
2
100
AcDbEntity
  8
MOJI1
100
AcDbText
 10
-19.52863580921497
 20
-49.50736550955892
 30
0.0
 40
3.0
  1
ＭＰＥＧ－４／ＪＰＥＧ　デュアル通信
100
AcDbText
  0
ENDSEC
  0
SECTION
  2
OBJECTS
  0
DICTIONARY
  5
7
330
0
100
AcDbDictionary
281
     1
  3
ACAD_COLOR
350
2C
  3
ACAD_GROUP
350
28
  3
ACAD_LAYOUT
350
B
  3
ACAD_MATERIAL
350
2B
  3
ACAD_MLINESTYLE
350
29
  3
ACAD_PLOTSETTINGS
350
2A
  3
ACAD_PLOTSTYLENAME
350
6
  3
ACDBHEADERROUNDTRIPXREC
350
30B
  3
AcDbVariableDictionary
350
306
  3
ASE_INDEX_DICTIONARY
350
2D3
  0
DICTIONARY
  5
11
330
10
100
AcDbDictionary
280
     1
281
     1
  3
ACAD_LAYERSTATES
360
12
  0
DICTIONARY
  5
2C
102
{ACAD_REACTORS
330
7
102
}
330
7
100
AcDbDictionary
281
     1
  0
DICTIONARY
  5
28
102
{ACAD_REACTORS
330
7
102
}
330
7
100
AcDbDictionary
281
     1
  0
DICTIONARY
  5
B
102
{ACAD_REACTORS
330
7
102
}
330
7
100
AcDbDictionary
281
     1
  3
Model
350
A
  3
レイアウト1
350
F
  0
DICTIONARY
  5
2B
102
{ACAD_REACTORS
330
7
102
}
330
7
100
AcDbDictionary
281
     1
  0
DICTIONARY
  5
29
102
{ACAD_REACTORS
330
7
102
}
330
7
100
AcDbDictionary
281
     1
  3
Standard
350
2E
  0
DICTIONARY
  5
2A
102
{ACAD_REACTORS
330
7
102
}
330
7
100
AcDbDictionary
281
     1
  0
ACDBDICTIONARYWDFLT
  5
6
102
{ACAD_REACTORS
330
7
102
}
330
7
100
AcDbDictionary
281
     1
  3
Normal
350
5
100
AcDbDictionaryWithDefault
340
5
  0
DICTIONARY
  5
30B
102
{ACAD_REACTORS
330
7
102
}
330
7
100
AcDbDictionary
281
     1
  3
COLORDICT
350
30D
  3
MATERIALDICT
350
30C
  0
DICTIONARY
  5
306
102
{ACAD_REACTORS
330
7
102
}
330
7
100
AcDbDictionary
281
     1
  3
DIMASSOC
350
308
  3
HIDETEXT
350
307
  3
PROJECTNAME
350
309
  0
DICTIONARY
  5
2D3
102
{ACAD_REACTORS
330
7
102
}
330
7
100
AcDbDictionary
281
     1
  3
ASEBlockHierarchyIndexRecord
350
2D5
1001
DCO15
1040
1629188812.666
  0
DICTIONARY
  5
12
102
{ACAD_REACTORS
330
11
102
}
330
11
100
AcDbDictionary
281
     1
  0
LAYOUT
  5
A
102
{ACAD_XDICTIONARY
360
30E
102
}
102
{ACAD_REACTORS
330
B
102
}
330
B
100
AcDbPlotSettings
  1

  2
Ａ４－縦3FRIM01.pc3
  4
A4
  6

 40
5.873749732971191
 41
5.873747825622558
 42
5.873748779296875
 43
5.873748779296875
 44
209.9733276367187
 45
296.9259948730469
 46
5.419999999999999
 47
0.0
 48
-315.5349153359857
 49
224.8191642733469
140
-12.83102128827022
141
423.9755221004062
142
1.0
143
1.382434615292221
 70
 11956
 72
     1
 73
     0
 74
     1
  7
tmsacad.ctb
 75
     0
147
0.7233615166592297
148
0.0148158059998878
149
0.0097886928209618
100
AcDbLayout
  1
Model
 70
     1
 71
     0
 10
0.0
 20
0.0
 11
12.0
 21
9.0
 12
0.0
 22
0.0
 32
0.0
 14
0.0
 24
0.0
 34
0.0
 15
0.0
 25
0.0
 35
0.0
146
0.0
 13
0.0
 23
0.0
 33
0.0
 16
1.0
 26
0.0
 36
0.0
 17
0.0
 27
1.0
 37
0.0
 76
     0
330
2
  0
LAYOUT
  5
F
102
{ACAD_XDICTIONARY
360
310
102
}
102
{ACAD_REACTORS
330
B
102
}
330
B
100
AcDbPlotSettings
  1

  2
None
  4

  6

 40
0.0
 41
0.0
 42
0.0
 43
0.0
 44
0.0
 45
0.0
 46
0.0
 47
0.0
 48
0.0
 49
0.0
140
0.0
141
0.0
142
1.0
143
1.0
 70
   688
 72
     0
 73
     0
 74
     5
  7
tmsacad.ctb
 75
    16
147
1.0
148
0.0
149
0.0
100
AcDbLayout
  1
レイアウト1
 70
     1
 71
     1
 10
0.0
 20
0.0
 11
12.0
 21
9.0
 12
0.0
 22
0.0
 32
0.0
 14
0.0
 24
0.0
 34
0.0
 15
0.0
 25
0.0
 35
0.0
146
0.0
 13
0.0
 23
0.0
 33
0.0
 16
1.0
 26
0.0
 36
0.0
 17
0.0
 27
1.0
 37
0.0
 76
     0
330
C
  0
MLINESTYLE
  5
2E
102
{ACAD_REACTORS
330
29
102
}
330
29
100
AcDbMlineStyle
  2
STANDARD
 70
     0
  3

 62
   256
 51
90.0
 52
90.0
 71
     2
 49
0.5
 62
   256
  6
BYLAYER
 49
-0.5
 62
   256
  6
BYLAYER
  0
ACDBPLACEHOLDER
  5
5
102
{ACAD_REACTORS
330
6
102
}
330
6
  0
XRECORD
  5
30D
102
{ACAD_REACTORS
330
30B
102
}
330
30B
100
AcDbXrecord
280
     1
340
2C
  0
XRECORD
  5
30C
102
{ACAD_REACTORS
330
30B
102
}
330
30B
100
AcDbXrecord
280
     1
340
2B
  0
DICTIONARYVAR
  5
308
102
{ACAD_REACTORS
330
306
102
}
330
306
100
DictionaryVariables
280
     0
  1
1
  0
DICTIONARYVAR
  5
307
102
{ACAD_REACTORS
330
306
102
}
330
306
100
DictionaryVariables
280
     0
  1
1
  0
DICTIONARYVAR
  5
309
102
{ACAD_REACTORS
330
306
102
}
330
306
100
DictionaryVariables
280
     0
  1

  0
XRECORD
  5
2D5
102
{ACAD_REACTORS
330
2D3
102
}
330
2D3
100
AcDbXrecord
280
     1
330
217
330
218
330
1FC
330
1FD
330
20A
330
20B
330
2E6
330
2E7
330
2F2
330
2F3
330
2FE
330
2FF
  0
DICTIONARY
  5
30E
330
A
100
AcDbDictionary
280
     1
281
     1
  3
ACAD_XREC_ROUNDTRIP
360
30F
  0
DICTIONARY
  5
310
330
F
100
AcDbDictionary
280
     1
281
     1
  3
ACAD_XREC_ROUNDTRIP
360
311
  0
XRECORD
  5
30F
102
{ACAD_REACTORS
330
30E
102
}
330
30E
100
AcDbXrecord
280
     1
102
SHADEPLOT
 70
     0
102
SHADEPLOTRESLEVEL
 70
     2
102
SHADEPLOTCUSTOMDPI
 70
   300
  0
XRECORD
  5
311
102
{ACAD_REACTORS
330
310
102
}
330
310
100
AcDbXrecord
280
     1
102
SHADEPLOT
 70
     0
102
SHADEPLOTRESLEVEL
 70
     2
102
SHADEPLOTCUSTOMDPI
 70
   300
  0
ENDSEC
  0
EOF
