  0
SECTION
  2
HEADER
  9
$ACADVER
  1
AC1015
  9
$ACADMAINTVER
 70
    20
  9
$DWGCODEPAGE
  3
ANSI_932
  9
$INSBASE
 10
0.4999999440410648
 20
372.5008351249344
 30
0.0
  9
$EXTMIN
 10
-62.65777497396072
 20
-52.05747922749435
 30
-0.0015258207003583
  9
$EXTMAX
 10
62.37579401859057
 20
61.42030376198272
 30
0.0000000349246037
  9
$LIMMIN
 10
0.0
 20
0.0
  9
$LIMMAX
 10
420.0
 20
297.0
  9
$ORTHOMODE
 70
     1
  9
$REGENMODE
 70
     0
  9
$FILLMODE
 70
     1
  9
$QTEXTMODE
 70
     0
  9
$MIRRTEXT
 70
     0
  9
$LTSCALE
 40
1.0
  9
$ATTMODE
 70
     1
  9
$TEXTSIZE
 40
2.5
  9
$TRACEWID
 40
1.0
  9
$TEXTSTYLE
  7
Standard
  9
$CLAYER
  8
SUNPO
  9
$CELTYPE
  6
ByLayer
  9
$CECOLOR
 62
   256
  9
$CELTSCALE
 40
1.0
  9
$DISPSILH
 70
     0
  9
$DIMSCALE
 40
1.0
  9
$DIMASZ
 40
2.0
  9
$DIMEXO
 40
2.0
  9
$DIMDLI
 40
8.0
  9
$DIMRND
 40
0.0
  9
$DIMDLE
 40
0.0
  9
$DIMEXE
 40
2.0
  9
$DIMTP
 40
0.0
  9
$DIMTM
 40
0.0
  9
$DIMTXT
 40
2.5
  9
$DIMCEN
 40
0.0
  9
$DIMTSZ
 40
0.0
  9
$DIMTOL
 70
     0
  9
$DIMLIM
 70
     0
  9
$DIMTIH
 70
     0
  9
$DIMTOH
 70
     0
  9
$DIMSE1
 70
     0
  9
$DIMSE2
 70
     0
  9
$DIMTAD
 70
     3
  9
$DIMZIN
 70
     0
  9
$DIMBLK
  1

  9
$DIMASO
 70
     1
  9
$DIMSHO
 70
     1
  9
$DIMPOST
  1

  9
$DIMAPOST
  1

  9
$DIMALT
 70
     0
  9
$DIMALTD
 70
     2
  9
$DIMALTF
 40
25.4
  9
$DIMLFAC
 40
1.0
  9
$DIMTOFL
 70
     1
  9
$DIMTVP
 40
0.0
  9
$DIMTIX
 70
     0
  9
$DIMSOXD
 70
     0
  9
$DIMSAH
 70
     1
  9
$DIMBLK1
  1
OPEN30
  9
$DIMBLK2
  1
OPEN30
  9
$DIMSTYLE
  2
STANDARD
  9
$DIMCLRD
 70
     0
  9
$DIMCLRE
 70
     0
  9
$DIMCLRT
 70
     0
  9
$DIMTFAC
 40
1.0
  9
$DIMGAP
 40
0.5
  9
$DIMJUST
 70
     0
  9
$DIMSD1
 70
     0
  9
$DIMSD2
 70
     0
  9
$DIMTOLJ
 70
     1
  9
$DIMTZIN
 70
     0
  9
$DIMALTZ
 70
     0
  9
$DIMALTTZ
 70
     0
  9
$DIMUPT
 70
     0
  9
$DIMDEC
 70
     4
  9
$DIMTDEC
 70
     4
  9
$DIMALTU
 70
     2
  9
$DIMALTTD
 70
     2
  9
$DIMTXSTY
  7
Standard
  9
$DIMAUNIT
 70
     0
  9
$DIMADEC
 70
     0
  9
$DIMALTRND
 40
0.0
  9
$DIMAZIN
 70
     0
  9
$DIMDSEP
 70
    46
  9
$DIMATFIT
 70
     3
  9
$DIMFRAC
 70
     0
  9
$DIMLDRBLK
  1
OPEN30
  9
$DIMLUNIT
 70
     2
  9
$DIMLWD
 70
    -2
  9
$DIMLWE
 70
    -2
  9
$DIMTMOVE
 70
     0
  9
$LUNITS
 70
     2
  9
$LUPREC
 70
     4
  9
$SKETCHINC
 40
1.0
  9
$FILLETRAD
 40
0.0
  9
$AUNITS
 70
     0
  9
$AUPREC
 70
     0
  9
$MENU
  1
.
  9
$ELEVATION
 40
0.0
  9
$PELEVATION
 40
0.0
  9
$THICKNESS
 40
0.0
  9
$LIMCHECK
 70
     0
  9
$CHAMFERA
 40
0.0
  9
$CHAMFERB
 40
0.0
  9
$CHAMFERC
 40
0.0
  9
$CHAMFERD
 40
0.0
  9
$SKPOLY
 70
     0
  9
$TDCREATE
 40
2454349.434269746
  9
$TDUCREATE
 40
2454349.059269746
  9
$TDUPDATE
 40
2454659.563686655
  9
$TDUUPDATE
 40
2454659.188686655
  9
$TDINDWG
 40
0.2026026736
  9
$TDUSRTIMER
 40
0.2026026736
  9
$USRTIMER
 70
     1
  9
$ANGBASE
 50
0.0
  9
$ANGDIR
 70
     0
  9
$PDMODE
 70
     0
  9
$PDSIZE
 40
0.0
  9
$PLINEWID
 40
0.0
  9
$SPLFRAME
 70
     0
  9
$SPLINETYPE
 70
     6
  9
$SPLINESEGS
 70
     8
  9
$HANDSEED
  5
314
  9
$SURFTAB1
 70
     6
  9
$SURFTAB2
 70
     6
  9
$SURFTYPE
 70
     6
  9
$SURFU
 70
     6
  9
$SURFV
 70
     6
  9
$UCSBASE
  2

  9
$UCSNAME
  2

  9
$UCSORG
 10
0.0
 20
0.0
 30
0.0
  9
$UCSXDIR
 10
1.0
 20
0.0
 30
0.0
  9
$UCSYDIR
 10
0.0
 20
1.0
 30
0.0
  9
$UCSORTHOREF
  2

  9
$UCSORTHOVIEW
 70
     0
  9
$UCSORGTOP
 10
0.0
 20
0.0
 30
0.0
  9
$UCSORGBOTTOM
 10
0.0
 20
0.0
 30
0.0
  9
$UCSORGLEFT
 10
0.0
 20
0.0
 30
0.0
  9
$UCSORGRIGHT
 10
0.0
 20
0.0
 30
0.0
  9
$UCSORGFRONT
 10
0.0
 20
0.0
 30
0.0
  9
$UCSORGBACK
 10
0.0
 20
0.0
 30
0.0
  9
$PUCSBASE
  2

  9
$PUCSNAME
  2

  9
$PUCSORG
 10
0.0
 20
0.0
 30
0.0
  9
$PUCSXDIR
 10
1.0
 20
0.0
 30
0.0
  9
$PUCSYDIR
 10
0.0
 20
1.0
 30
0.0
  9
$PUCSORTHOREF
  2

  9
$PUCSORTHOVIEW
 70
     0
  9
$PUCSORGTOP
 10
0.0
 20
0.0
 30
0.0
  9
$PUCSORGBOTTOM
 10
0.0
 20
0.0
 30
0.0
  9
$PUCSORGLEFT
 10
0.0
 20
0.0
 30
0.0
  9
$PUCSORGRIGHT
 10
0.0
 20
0.0
 30
0.0
  9
$PUCSORGFRONT
 10
0.0
 20
0.0
 30
0.0
  9
$PUCSORGBACK
 10
0.0
 20
0.0
 30
0.0
  9
$USERI1
 70
     0
  9
$USERI2
 70
     0
  9
$USERI3
 70
     0
  9
$USERI4
 70
     0
  9
$USERI5
 70
     0
  9
$USERR1
 40
0.0
  9
$USERR2
 40
0.0
  9
$USERR3
 40
0.0
  9
$USERR4
 40
0.0
  9
$USERR5
 40
0.0
  9
$WORLDVIEW
 70
     1
  9
$SHADEDGE
 70
     3
  9
$SHADEDIF
 70
    70
  9
$TILEMODE
 70
     1
  9
$MAXACTVP
 70
    64
  9
$PINSBASE
 10
0.0
 20
0.0
 30
0.0
  9
$PLIMCHECK
 70
     0
  9
$PEXTMIN
 10
0.0
 20
0.0
 30
0.0
  9
$PEXTMAX
 10
0.0
 20
0.0
 30
0.0
  9
$PLIMMIN
 10
0.0
 20
0.0
  9
$PLIMMAX
 10
12.0
 20
9.0
  9
$UNITMODE
 70
     0
  9
$VISRETAIN
 70
     1
  9
$PLINEGEN
 70
     0
  9
$PSLTSCALE
 70
     1
  9
$TREEDEPTH
 70
  3020
  9
$CMLSTYLE
  2
Standard
  9
$CMLJUST
 70
     0
  9
$CMLSCALE
 40
20.0
  9
$PROXYGRAPHICS
 70
     1
  9
$MEASUREMENT
 70
     1
  9
$CELWEIGHT
370
    -1
  9
$ENDCAPS
280
     0
  9
$JOINSTYLE
280
     0
  9
$LWDISPLAY
290
     0
  9
$INSUNITS
 70
     4
  9
$HYPERLINKBASE
  1

  9
$STYLESHEET
  1

  9
$XEDIT
290
     1
  9
$CEPSNTYPE
380
     0
  9
$PSTYLEMODE
290
     1
  9
$FINGERPRINTGUID
  2
{FDEAD578-A652-11D2-9A35-0060089B3A3F}
  9
$VERSIONGUID
  2
{F21A32D9-9CAD-4093-BA00-13F055CBA8AF}
  9
$EXTNAMES
290
     1
  9
$PSVPSCALE
 40
0.0
  9
$OLESTARTUP
290
     0
  0
ENDSEC
  0
SECTION
  2
CLASSES
  0
CLASS
  1
ACDBDICTIONARYWDFLT
  2
AcDbDictionaryWithDefault
  3
ObjectDBX Classes
 90
        0
280
     0
281
     0
  0
CLASS
  1
ACDBPLACEHOLDER
  2
AcDbPlaceHolder
  3
ObjectDBX Classes
 90
        0
280
     0
281
     0
  0
CLASS
  1
LAYOUT
  2
AcDbLayout
  3
ObjectDBX Classes
 90
        0
280
     0
281
     0
  0
CLASS
  1
DICTIONARYVAR
  2
AcDbDictionaryVar
  3
ObjectDBX Classes
 90
        0
280
     0
281
     0
  0
CLASS
  1
DIMASSOC
  2
AcDbDimAssoc
  3
"AcDbDimAssoc|Product Desc:     AcDim ARX App For Dimension|Company:          Autodesk, Inc.|WEB Address:      www.autodesk.com"
 90
    32768
280
     0
281
     0
  0
ENDSEC
  0
SECTION
  2
TABLES
  0
TABLE
  2
VPORT
  5
1B
330
0
100
AcDbSymbolTable
 70
     3
  0
VPORT
  5
30C
330
1B
100
AcDbSymbolTableRecord
100
AcDbViewportTableRecord
  2
*Active
 70
     0
 10
0.0
 20
0.0
 11
1.0
 21
1.0
 12
-0.1409904776850794
 22
4.681412267244184
 13
0.0
 23
0.0
 14
10.0
 24
10.0
 15
10.0
 25
10.0
 16
0.0
 26
0.0
 36
1.0
 17
0.0
 27
0.0
 37
0.0
 40
114.372482986766
 41
1.536842105263157
 42
50.0
 43
0.0
 44
0.0
 50
0.0
 51
0.0
 71
     0
 72
  1000
 73
     1
 74
     2
 75
     0
 76
     0
 77
     0
 78
     0
281
     0
 65
     1
110
0.0
120
0.0
130
0.0
111
1.0
121
0.0
131
0.0
112
0.0
122
1.0
132
0.0
 79
     0
146
0.0
  0
ENDTAB
  0
TABLE
  2
LTYPE
  5
16
330
0
100
AcDbSymbolTable
 70
     3
  0
LTYPE
  5
17
330
16
100
AcDbSymbolTableRecord
100
AcDbLinetypeTableRecord
  2
ByBlock
 70
     0
  3

 72
    65
 73
     0
 40
0.0
  0
LTYPE
  5
18
330
16
100
AcDbSymbolTableRecord
100
AcDbLinetypeTableRecord
  2
ByLayer
 70
     0
  3

 72
    65
 73
     0
 40
0.0
  0
LTYPE
  5
8
330
16
100
AcDbSymbolTableRecord
100
AcDbLinetypeTableRecord
  2
Continuous
 70
     0
  3
Solid line
 72
    65
 73
     0
 40
0.0
  0
LTYPE
  5
1DB
330
16
100
AcDbSymbolTableRecord
100
AcDbLinetypeTableRecord
  2
DASHED
 70
     0
  3
Dashed __ __ __ __ __ __ __ __ __ __ __ __ __ _
 72
    65
 73
     2
 40
19.05
 49
12.7
 74
     0
 49
-6.349999999999999
 74
     0
  0
LTYPE
  5
1D9
330
16
100
AcDbSymbolTableRecord
100
AcDbLinetypeTableRecord
  2
HIDDEN2
 70
     0
  3
Hidden (.5x) _ _ _ _ _ _ _ _ _ _ _ _ _ _ _ _ _
 72
    65
 73
     2
 40
1.399999999999999
 49
0.7
 74
     0
 49
-0.7
 74
     0
  0
ENDTAB
  0
TABLE
  2
LAYER
  5
10
102
{ACAD_XDICTIONARY
360
11
102
}
330
0
100
AcDbSymbolTable
 70
     7
  0
LAYER
  5
4
330
10
100
AcDbSymbolTableRecord
100
AcDbLayerTableRecord
  2
0
 70
     0
 62
     7
  6
Continuous
370
    -3
390
5
  0
LAYER
  5
2AF
330
10
100
AcDbSymbolTableRecord
100
AcDbLayerTableRecord
  2
WAKU
 70
     0
 62
     4
  6
Continuous
370
    -3
390
5
  0
LAYER
  5
2AA
330
10
100
AcDbSymbolTableRecord
100
AcDbLayerTableRecord
  2
MOJI1
 70
     0
 62
     2
  6
Continuous
370
    -3
390
5
  0
LAYER
  5
2A8
330
10
100
AcDbSymbolTableRecord
100
AcDbLayerTableRecord
  2
TOUROKU
 70
     0
 62
     1
  6
Continuous
370
    -3
390
5
  0
LAYER
  5
C3
330
10
100
AcDbSymbolTableRecord
100
AcDbLayerTableRecord
  2
DEFPOINTS
 70
     0
 62
     7
  6
Continuous
290
     0
370
    -3
390
5
  0
LAYER
  5
30
330
10
100
AcDbSymbolTableRecord
100
AcDbLayerTableRecord
  2
GAIKEI
 70
     0
 62
     7
  6
Continuous
370
    -3
390
5
  0
LAYER
  5
2D
330
10
100
AcDbSymbolTableRecord
100
AcDbLayerTableRecord
  2
SUNPO
 70
     0
 62
     3
  6
Continuous
370
    -3
390
5
  0
ENDTAB
  0
TABLE
  2
STYLE
  5
13
330
0
100
AcDbSymbolTable
 70
     1
  0
STYLE
  5
14
330
13
100
AcDbSymbolTableRecord
100
AcDbTextStyleTableRecord
  2
Standard
 70
     0
 40
0.0
 41
1.0
 50
0.0
 71
     0
 42
2.5
  3
MONOTXT.shx
  4
BIGFONT.shx
  0
ENDTAB
  0
TABLE
  2
VIEW
  5
19
330
0
100
AcDbSymbolTable
 70
     0
  0
ENDTAB
  0
TABLE
  2
UCS
  5
1A
330
0
100
AcDbSymbolTable
 70
     0
  0
ENDTAB
  0
TABLE
  2
APPID
  5
1D
330
0
100
AcDbSymbolTable
 70
     2
  0
APPID
  5
1E
330
1D
100
AcDbSymbolTableRecord
100
AcDbRegAppTableRecord
  2
ACAD
 70
     0
  0
APPID
  5
2D6
330
1D
100
AcDbSymbolTableRecord
100
AcDbRegAppTableRecord
  2
DCO15
 70
     0
  0
ENDTAB
  0
TABLE
  2
DIMSTYLE
  5
1F
330
0
100
AcDbSymbolTable
 70
     1
100
AcDbDimStyleTable
 71
     1
340
20
  0
DIMSTYLE
105
20
102
{ACAD_REACTORS
330
D4
330
C7
330
B9
102
}
330
1F
100
AcDbSymbolTableRecord
100
AcDbDimStyleTableRecord
  2
STANDARD
 70
     0
 40
0.0
 41
2.0
 42
2.0
 43
8.0
 44
2.0
 73
     0
 74
     0
 77
     3
140
3.0
141
0.0
173
     1
279
     2
288
     1
340
14
341
21
343
21
344
21
  0
ENDTAB
  0
TABLE
  2
BLOCK_RECORD
  5
1
330
0
100
AcDbSymbolTable
 70
     7
  0
BLOCK_RECORD
  5
2
330
1
100
AcDbSymbolTableRecord
100
AcDbBlockTableRecord
  2
*Model_Space
340
A
  0
BLOCK_RECORD
  5
C
330
1
100
AcDbSymbolTableRecord
100
AcDbBlockTableRecord
  2
*Paper_Space
340
F
  0
BLOCK_RECORD
  5
21
330
1
100
AcDbSymbolTableRecord
100
AcDbBlockTableRecord
  2
_OPEN30
340
0
102
{BLKREFS
331
BF
331
C0
331
CD
331
CE
331
DA
331
DB
331
2E8
331
2E9
331
2F4
331
2F5
331
300
331
301
102
}
  0
BLOCK_RECORD
  5
D5
330
1
100
AcDbSymbolTableRecord
100
AcDbBlockTableRecord
  2
*D1
340
0
  0
BLOCK_RECORD
  5
C8
330
1
100
AcDbSymbolTableRecord
100
AcDbBlockTableRecord
  2
*D2
340
0
  0
BLOCK_RECORD
  5
BA
330
1
100
AcDbSymbolTableRecord
100
AcDbBlockTableRecord
  2
*D3
340
0
  0
BLOCK_RECORD
  5
2E4
330
1
100
AcDbSymbolTableRecord
100
AcDbBlockTableRecord
  2
*D4
340
0
  0
BLOCK_RECORD
  5
2F0
330
1
100
AcDbSymbolTableRecord
100
AcDbBlockTableRecord
  2
*D5
340
0
  0
BLOCK_RECORD
  5
2FC
330
1
100
AcDbSymbolTableRecord
100
AcDbBlockTableRecord
  2
*D6
340
0
  0
ENDTAB
  0
ENDSEC
  0
SECTION
  2
BLOCKS
  0
BLOCK
  5
3
330
2
100
AcDbEntity
  8
0
100
AcDbBlockBegin
  2
*Model_Space
 70
     0
 10
0.0
 20
0.0
 30
0.0
  3
*Model_Space
  1

  0
ENDBLK
  5
9
330
2
100
AcDbEntity
  8
0
100
AcDbBlockEnd
  0
BLOCK
  5
D
330
C
100
AcDbEntity
 67
     1
  8
0
100
AcDbBlockBegin
  2
*Paper_Space
 70
     0
 10
0.0
 20
0.0
 30
0.0
  3
*Paper_Space
  1

  0
ENDBLK
  5
E
330
C
100
AcDbEntity
 67
     1
  8
0
100
AcDbBlockEnd
  0
BLOCK
  5
22
330
21
100
AcDbEntity
  8
0
100
AcDbBlockBegin
  2
_OPEN30
 70
     0
 10
0.0
 20
0.0
 30
0.0
  3
_OPEN30
  1

  0
LINE
  5
23
330
21
100
AcDbEntity
  8
0
  6
ByBlock
 62
     0
100
AcDbLine
 10
-1.0
 20
0.26794919
 30
0.0
 11
0.0
 21
0.0
 31
0.0
  0
LINE
  5
24
330
21
100
AcDbEntity
  8
0
  6
ByBlock
 62
     0
100
AcDbLine
 10
0.0
 20
0.0
 30
0.0
 11
-1.0
 21
-0.26794919
 31
0.0
  0
LINE
  5
25
330
21
100
AcDbEntity
  8
0
  6
ByBlock
 62
     0
100
AcDbLine
 10
0.0
 20
0.0
 30
0.0
 11
-1.0
 21
0.0
 31
0.0
  0
ENDBLK
  5
26
330
21
100
AcDbEntity
  8
0
100
AcDbBlockEnd
  0
BLOCK
  5
D6
330
D5
100
AcDbEntity
  8
0
100
AcDbBlockBegin
  2
*D1
 70
     1
 10
0.0
 20
0.0
 30
0.0
  3
*D1
  1

  0
LINE
  5
D7
330
D5
100
AcDbEntity
  8
SUNPO
 62
     0
370
    -2
100
AcDbLine
 10
32.22949394951894
 20
320.3392171929215
 30
0.0
 11
32.22949394951894
 21
312.3392171929215
 31
0.0
  0
LINE
  5
D8
330
D5
100
AcDbEntity
  8
SUNPO
 62
     0
370
    -2
100
AcDbLine
 10
56.74949514951894
 20
320.3392171929215
 30
0.0
 11
56.74949514951894
 21
312.3392171929215
 31
0.0
  0
LINE
  5
D9
330
D5
100
AcDbEntity
  8
SUNPO
 62
     0
370
    -2
100
AcDbLine
 10
34.22949394951894
 20
314.3392171929215
 30
0.0
 11
54.74949514951894
 21
314.3392171929215
 31
0.0
  0
INSERT
  5
DA
330
D5
100
AcDbEntity
  8
SUNPO
 62
     0
370
    -2
100
AcDbBlockReference
  2
_OPEN30
 10
32.22949394951894
 20
314.3392171929215
 30
0.0
 41
2.0
 42
2.0
 43
2.0
 50
180.0
  0
INSERT
  5
DB
330
D5
100
AcDbEntity
  8
SUNPO
 62
     0
370
    -2
100
AcDbBlockReference
  2
_OPEN30
 10
56.74949514951894
 20
314.3392171929215
 30
0.0
 41
2.0
 42
2.0
 43
2.0
  0
MTEXT
  5
DC
330
D5
100
AcDbEntity
  8
SUNPO
 62
     0
100
AcDbMText
 10
44.48949454951893
 20
316.0892171929215
 30
0.0
 40
2.5
 41
0.0
 71
     5
 72
     1
  1
\A1;φ122.6
 73
     1
 44
1.0
1001
ACAD
1000
MTEXTBEGIN
1070
    73
1070
     1
1070
    44
1040
1.0
1070
    74
1070
     0
1000
MTEXTEND
  0
POINT
  5
DD
330
D5
100
AcDbEntity
  8
DEFPOINTS
 62
     0
100
AcDbPoint
 10
32.22949394951894
 20
322.3392171929215
 30
0.0
  0
POINT
  5
DE
330
D5
100
AcDbEntity
  8
DEFPOINTS
 62
     0
100
AcDbPoint
 10
56.74949514951894
 20
322.3392171929215
 30
0.0
  0
POINT
  5
DF
330
D5
100
AcDbEntity
  8
DEFPOINTS
 62
     0
100
AcDbPoint
 10
56.74949514951894
 20
314.3392171929215
 30
0.0
  0
ENDBLK
  5
E0
330
D5
100
AcDbEntity
  8
0
100
AcDbBlockEnd
  0
BLOCK
  5
C9
330
C8
100
AcDbEntity
  8
0
100
AcDbBlockBegin
  2
*D2
 70
     1
 10
0.0
 20
0.0
 30
0.0
  3
*D2
  1

  0
LINE
  5
CA
330
C8
100
AcDbEntity
  8
SUNPO
 62
     0
370
    -2
100
AcDbLine
 10
35.88949454951892
 20
350.2177439444159
 30
0.0
 11
35.88949454951892
 21
358.2177439444159
 31
0.0
  0
LINE
  5
CB
330
C8
100
AcDbEntity
  8
SUNPO
 62
     0
370
    -2
100
AcDbLine
 10
53.08949454951894
 20
350.2177439444159
 30
0.0
 11
53.08949454951894
 21
358.2177439444159
 31
0.0
  0
LINE
  5
CC
330
C8
100
AcDbEntity
  8
SUNPO
 62
     0
370
    -2
100
AcDbLine
 10
37.88949454951892
 20
356.2177439444159
 30
0.0
 11
51.08949454951893
 21
356.2177439444159
 31
0.0
  0
INSERT
  5
CD
330
C8
100
AcDbEntity
  8
SUNPO
 62
     0
370
    -2
100
AcDbBlockReference
  2
_OPEN30
 10
35.88949454951892
 20
356.2177439444159
 30
0.0
 41
2.0
 42
2.0
 43
2.0
 50
180.0
  0
INSERT
  5
CE
330
C8
100
AcDbEntity
  8
SUNPO
 62
     0
370
    -2
100
AcDbBlockReference
  2
_OPEN30
 10
53.08949454951894
 20
356.2177439444159
 30
0.0
 41
2.0
 42
2.0
 43
2.0
  0
MTEXT
  5
CF
330
C8
100
AcDbEntity
  8
SUNPO
 62
     0
100
AcDbMText
 10
44.48949454951892
 20
357.9677439444159
 30
0.0
 40
2.5
 41
0.0
 71
     5
 72
     1
  1
\A1;φ86
 73
     1
 44
1.0
1001
ACAD
1000
MTEXTBEGIN
1070
    73
1070
     1
1070
    44
1040
1.0
1070
    74
1070
     0
1000
MTEXTEND
  0
POINT
  5
D0
330
C8
100
AcDbEntity
  8
DEFPOINTS
 62
     0
100
AcDbPoint
 10
35.88949454951892
 20
348.2177439444159
 30
0.0
  0
POINT
  5
D1
330
C8
100
AcDbEntity
  8
DEFPOINTS
 62
     0
100
AcDbPoint
 10
53.08949454951894
 20
348.2177439444159
 30
0.0
  0
POINT
  5
D2
330
C8
100
AcDbEntity
  8
DEFPOINTS
 62
     0
100
AcDbPoint
 10
53.08949454951894
 20
356.2177439444159
 30
0.0
  0
ENDBLK
  5
D3
330
C8
100
AcDbEntity
  8
0
100
AcDbBlockEnd
  0
BLOCK
  5
BB
330
BA
100
AcDbEntity
  8
0
100
AcDbBlockBegin
  2
*D3
 70
     1
 10
0.0
 20
0.0
 30
0.0
  3
*D3
  1

  0
LINE
  5
BC
330
BA
100
AcDbEntity
  8
SUNPO
 62
     0
370
    -2
100
AcDbLine
 10
78.79801919874394
 20
320.3392171929215
 30
0.0
 11
78.79801919874394
 21
312.3392171929215
 31
0.0
  0
LINE
  5
BD
330
BA
100
AcDbEntity
  8
SUNPO
 62
     0
370
    -2
100
AcDbLine
 10
103.3180203987439
 20
320.3392171929215
 30
0.0
 11
103.3180203987439
 21
312.3392171929215
 31
0.0
  0
LINE
  5
BE
330
BA
100
AcDbEntity
  8
SUNPO
 62
     0
370
    -2
100
AcDbLine
 10
80.79801919874395
 20
314.3392171929215
 30
0.0
 11
101.3180203987439
 21
314.3392171929215
 31
0.0
  0
INSERT
  5
BF
330
BA
100
AcDbEntity
  8
SUNPO
 62
     0
370
    -2
100
AcDbBlockReference
  2
_OPEN30
 10
78.79801919874394
 20
314.3392171929215
 30
0.0
 41
2.0
 42
2.0
 43
2.0
 50
180.0
  0
INSERT
  5
C0
330
BA
100
AcDbEntity
  8
SUNPO
 62
     0
370
    -2
100
AcDbBlockReference
  2
_OPEN30
 10
103.3180203987439
 20
314.3392171929215
 30
0.0
 41
2.0
 42
2.0
 43
2.0
  0
MTEXT
  5
C1
330
BA
100
AcDbEntity
  8
SUNPO
 62
     0
100
AcDbMText
 10
91.05801979874394
 20
316.0892171929215
 30
0.0
 40
2.5
 41
0.0
 71
     5
 72
     1
  1
\A1;φ122.6
 73
     1
 44
1.0
1001
ACAD
1000
MTEXTBEGIN
1070
    73
1070
     1
1070
    44
1040
1.0
1070
    74
1070
     0
1000
MTEXTEND
  0
POINT
  5
C2
330
BA
100
AcDbEntity
  8
DEFPOINTS
 62
     0
100
AcDbPoint
 10
78.79801919874394
 20
322.3392171929215
 30
0.0
  0
POINT
  5
C4
330
BA
100
AcDbEntity
  8
DEFPOINTS
 62
     0
100
AcDbPoint
 10
103.3180203987439
 20
322.3392171929215
 30
0.0
  0
POINT
  5
C5
330
BA
100
AcDbEntity
  8
DEFPOINTS
 62
     0
100
AcDbPoint
 10
103.3180203987439
 20
314.3392171929215
 30
0.0
  0
ENDBLK
  5
C6
330
BA
100
AcDbEntity
  8
0
100
AcDbBlockEnd
  0
BLOCK
  5
2EE
330
2E4
100
AcDbEntity
  8
0
100
AcDbBlockBegin
  2
*D4
 70
     1
 10
0.0
 20
0.0
 30
0.0
  3
*D4
  1

  0
LINE
  5
2E5
330
2E4
100
AcDbEntity
  8
SUNPO
 62
     0
370
    -2
100
AcDbLine
 10
-32.92452999632673
 20
11.5191819684066
 30
0.0
 11
-32.92452999632673
 21
3.519181968406599
 31
0.0
  0
LINE
  5
2E6
330
2E4
100
AcDbEntity
  8
SUNPO
 62
     0
370
    -2
100
AcDbLine
 10
-8.404528796326722
 20
11.5191819684066
 30
0.0
 11
-8.404528796326722
 21
3.519181968406599
 31
0.0
  0
LINE
  5
2E7
330
2E4
100
AcDbEntity
  8
SUNPO
 62
     0
370
    -2
100
AcDbLine
 10
-30.92452999632673
 20
5.519181968406599
 30
0.0
 11
-10.40452879632672
 21
5.519181968406599
 31
0.0
  0
INSERT
  5
2E8
330
2E4
100
AcDbEntity
  8
SUNPO
 62
     0
370
    -2
100
AcDbBlockReference
  2
_OPEN30
 10
-32.92452999632673
 20
5.519181968406599
 30
0.0
 41
2.0
 42
2.0
 43
2.0
 50
180.0
  0
INSERT
  5
2E9
330
2E4
100
AcDbEntity
  8
SUNPO
 62
     0
370
    -2
100
AcDbBlockReference
  2
_OPEN30
 10
-8.404528796326722
 20
5.519181968406599
 30
0.0
 41
2.0
 42
2.0
 43
2.0
  0
MTEXT
  5
2EA
330
2E4
100
AcDbEntity
  8
SUNPO
 62
     0
100
AcDbMText
 10
-20.66452939632672
 20
7.269181968406599
 30
0.0
 40
2.5
 41
0.0
 71
     5
 72
     1
  1
\A1;φ122.6
 73
     1
 44
1.0
1001
ACAD
1000
MTEXTBEGIN
1070
    73
1070
     1
1070
    44
1040
1.0
1070
    74
1070
     0
1000
MTEXTEND
  0
POINT
  5
2EB
330
2E4
100
AcDbEntity
  8
DEFPOINTS
 62
     0
100
AcDbPoint
 10
-32.92452999632673
 20
13.5191819684066
 30
0.0
  0
POINT
  5
2EC
330
2E4
100
AcDbEntity
  8
DEFPOINTS
 62
     0
100
AcDbPoint
 10
-8.404528796326722
 20
13.5191819684066
 30
0.0
  0
POINT
  5
2ED
330
2E4
100
AcDbEntity
  8
DEFPOINTS
 62
     0
100
AcDbPoint
 10
-8.404528796326722
 20
5.519181968406599
 30
0.0
  0
ENDBLK
  5
2EF
330
2E4
100
AcDbEntity
  8
0
100
AcDbBlockEnd
  0
BLOCK
  5
2FA
330
2F0
100
AcDbEntity
  8
0
100
AcDbBlockBegin
  2
*D5
 70
     1
 10
0.0
 20
0.0
 30
0.0
  3
*D5
  1

  0
LINE
  5
2F1
330
2F0
100
AcDbEntity
  8
SUNPO
 62
     0
370
    -2
100
AcDbLine
 10
-29.26452939632675
 20
41.39770871990106
 30
0.0
 11
-29.26452939632675
 21
49.39770871990106
 31
0.0
  0
LINE
  5
2F2
330
2F0
100
AcDbEntity
  8
SUNPO
 62
     0
370
    -2
100
AcDbLine
 10
-12.06452939632672
 20
41.39770871990106
 30
0.0
 11
-12.06452939632672
 21
49.39770871990106
 31
0.0
  0
LINE
  5
2F3
330
2F0
100
AcDbEntity
  8
SUNPO
 62
     0
370
    -2
100
AcDbLine
 10
-27.26452939632674
 20
47.39770871990105
 30
0.0
 11
-14.06452939632672
 21
47.39770871990105
 31
0.0
  0
INSERT
  5
2F4
330
2F0
100
AcDbEntity
  8
SUNPO
 62
     0
370
    -2
100
AcDbBlockReference
  2
_OPEN30
 10
-29.26452939632675
 20
47.39770871990105
 30
0.0
 41
2.0
 42
2.0
 43
2.0
 50
180.0
  0
INSERT
  5
2F5
330
2F0
100
AcDbEntity
  8
SUNPO
 62
     0
370
    -2
100
AcDbBlockReference
  2
_OPEN30
 10
-12.06452939632672
 20
47.39770871990105
 30
0.0
 41
2.0
 42
2.0
 43
2.0
  0
MTEXT
  5
2F6
330
2F0
100
AcDbEntity
  8
SUNPO
 62
     0
100
AcDbMText
 10
-20.66452939632673
 20
49.14770871990106
 30
0.0
 40
2.5
 41
0.0
 71
     5
 72
     1
  1
\A1;φ86
 73
     1
 44
1.0
1001
ACAD
1000
MTEXTBEGIN
1070
    73
1070
     1
1070
    44
1040
1.0
1070
    74
1070
     0
1000
MTEXTEND
  0
POINT
  5
2F7
330
2F0
100
AcDbEntity
  8
DEFPOINTS
 62
     0
100
AcDbPoint
 10
-29.26452939632675
 20
39.39770871990106
 30
0.0
  0
POINT
  5
2F8
330
2F0
100
AcDbEntity
  8
DEFPOINTS
 62
     0
100
AcDbPoint
 10
-12.06452939632672
 20
39.39770871990106
 30
0.0
  0
POINT
  5
2F9
330
2F0
100
AcDbEntity
  8
DEFPOINTS
 62
     0
100
AcDbPoint
 10
-12.06452939632672
 20
47.39770871990105
 30
0.0
  0
ENDBLK
  5
2FB
330
2F0
100
AcDbEntity
  8
0
100
AcDbBlockEnd
  0
BLOCK
  5
306
330
2FC
100
AcDbEntity
  8
0
100
AcDbBlockBegin
  2
*D6
 70
     1
 10
0.0
 20
0.0
 30
0.0
  3
*D6
  1

  0
LINE
  5
2FD
330
2FC
100
AcDbEntity
  8
SUNPO
 62
     0
370
    -2
100
AcDbLine
 10
13.64399525289828
 20
11.5191819684066
 30
0.0
 11
13.64399525289828
 21
3.519181968406599
 31
0.0
  0
LINE
  5
2FE
330
2FC
100
AcDbEntity
  8
SUNPO
 62
     0
370
    -2
100
AcDbLine
 10
38.16399645289829
 20
11.5191819684066
 30
0.0
 11
38.16399645289829
 21
3.519181968406599
 31
0.0
  0
LINE
  5
2FF
330
2FC
100
AcDbEntity
  8
SUNPO
 62
     0
370
    -2
100
AcDbLine
 10
15.64399525289828
 20
5.519181968406599
 30
0.0
 11
36.16399645289829
 21
5.519181968406599
 31
0.0
  0
INSERT
  5
300
330
2FC
100
AcDbEntity
  8
SUNPO
 62
     0
370
    -2
100
AcDbBlockReference
  2
_OPEN30
 10
13.64399525289828
 20
5.519181968406599
 30
0.0
 41
2.0
 42
2.0
 43
2.0
 50
180.0
  0
INSERT
  5
301
330
2FC
100
AcDbEntity
  8
SUNPO
 62
     0
370
    -2
100
AcDbBlockReference
  2
_OPEN30
 10
38.16399645289829
 20
5.519181968406599
 30
0.0
 41
2.0
 42
2.0
 43
2.0
  0
MTEXT
  5
302
330
2FC
100
AcDbEntity
  8
SUNPO
 62
     0
100
AcDbMText
 10
25.90399585289829
 20
7.269181968406599
 30
0.0
 40
2.5
 41
0.0
 71
     5
 72
     1
  1
\A1;φ122.6
 73
     1
 44
1.0
1001
ACAD
1000
MTEXTBEGIN
1070
    73
1070
     1
1070
    44
1040
1.0
1070
    74
1070
     0
1000
MTEXTEND
  0
POINT
  5
303
330
2FC
100
AcDbEntity
  8
DEFPOINTS
 62
     0
100
AcDbPoint
 10
13.64399525289828
 20
13.5191819684066
 30
0.0
  0
POINT
  5
304
330
2FC
100
AcDbEntity
  8
DEFPOINTS
 62
     0
100
AcDbPoint
 10
38.16399645289829
 20
13.5191819684066
 30
0.0
  0
POINT
  5
305
330
2FC
100
AcDbEntity
  8
DEFPOINTS
 62
     0
100
AcDbPoint
 10
38.16399645289829
 20
5.519181968406599
 30
0.0
  0
ENDBLK
  5
307
330
2FC
100
AcDbEntity
  8
0
100
AcDbBlockEnd
  0
ENDSEC
  0
SECTION
  2
ENTITIES
  0
LINE
  5
2F
330
2
100
AcDbEntity
  8
GAIKEI
  6
Continuous
 62
     7
100
AcDbLine
 10
18.60115625289825
 20
36.92817131990108
 30
0.0
 11
18.48638265289824
 21
36.69816651990112
 31
0.0
  0
LINE
  5
31
330
2
100
AcDbEntity
  8
GAIKEI
  6
Continuous
 62
     7
100
AcDbLine
 10
18.72297625289826
 20
37.1546851199011
 30
0.0
 11
18.60115625289825
 21
36.92817131990108
 31
0.0
  0
LINE
  5
32
330
2
100
AcDbEntity
  8
GAIKEI
  6
Continuous
 62
     7
100
AcDbLine
 10
18.85168105289824
 20
37.37747551990111
 30
0.0
 11
18.72297625289826
 21
37.1546851199011
 31
0.0
  0
LINE
  5
33
330
2
100
AcDbEntity
  8
GAIKEI
  6
Continuous
 62
     7
100
AcDbLine
 10
18.99511065289826
 20
37.60870111990107
 30
0.0
 11
18.85168105289824
 21
37.37747551990111
 31
0.0
  0
LINE
  5
34
330
2
100
AcDbEntity
  8
GAIKEI
  6
Continuous
 62
     7
100
AcDbLine
 10
19.15298725289824
 20
37.84570071990112
 30
0.0
 11
18.99511065289826
 21
37.60870111990107
 31
0.0
  0
LINE
  5
35
330
2
100
AcDbEntity
  8
GAIKEI
  6
Continuous
 62
     7
100
AcDbLine
 10
19.31759905289826
 20
38.07572991990111
 30
0.0
 11
19.15298725289824
 21
37.84570071990112
 31
0.0
  0
LINE
  5
36
330
2
100
AcDbEntity
  8
GAIKEI
  6
Continuous
 62
     7
100
AcDbLine
 10
19.48974885289826
 20
38.30013791990109
 30
0.0
 11
19.31759905289826
 21
38.07572991990111
 31
0.0
  0
LINE
  5
37
330
2
100
AcDbEntity
  8
GAIKEI
  6
Continuous
 62
     7
100
AcDbLine
 10
19.66922865289825
 20
38.51863151990108
 30
0.0
 11
19.48974885289826
 21
38.30013791990109
 31
0.0
  0
LINE
  5
38
330
2
100
AcDbEntity
  8
GAIKEI
  6
Continuous
 62
     7
100
AcDbLine
 10
19.85584985289824
 20
38.73091791990112
 30
0.0
 11
19.66922865289825
 21
38.51863151990108
 31
0.0
  0
LINE
  5
39
330
2
100
AcDbEntity
  8
GAIKEI
  6
Continuous
 62
     7
100
AcDbLine
 10
20.04940445289824
 20
38.93671011990108
 30
0.0
 11
19.85584985289824
 21
38.73091791990112
 31
0.0
  0
LINE
  5
3A
330
2
100
AcDbEntity
  8
GAIKEI
  6
Continuous
 62
     7
100
AcDbLine
 10
20.24969745289826
 20
39.13571531990113
 30
0.0
 11
20.04940445289824
 21
38.93671011990108
 31
0.0
  0
LINE
  5
3B
330
2
100
AcDbEntity
  8
GAIKEI
  6
Continuous
 62
     7
100
AcDbLine
 10
20.45652125289826
 20
39.32763431990111
 30
0.0
 11
20.24969745289826
 21
39.13571531990113
 31
0.0
  0
LINE
  5
3C
330
2
100
AcDbEntity
  8
GAIKEI
  6
Continuous
 62
     7
100
AcDbLine
 10
20.66968045289826
 20
39.51219231990109
 30
0.0
 11
20.45652125289826
 21
39.32763431990111
 31
0.0
  0
LINE
  5
3D
330
2
100
AcDbEntity
  8
GAIKEI
  6
Continuous
 62
     7
100
AcDbLine
 10
20.88897965289826
 20
39.68907831990112
 30
0.0
 11
20.66968045289826
 21
39.51219231990109
 31
0.0
  0
LINE
  5
3E
330
2
100
AcDbEntity
  8
GAIKEI
  6
Continuous
 62
     7
100
AcDbLine
 10
21.11419945289825
 20
39.85801751990107
 30
0.0
 11
20.88897965289826
 21
39.68907831990112
 31
0.0
  0
LINE
  5
3F
330
2
100
AcDbEntity
  8
GAIKEI
  6
Continuous
 62
     7
100
AcDbLine
 10
21.34516265289824
 20
40.01870471990111
 30
0.0
 11
21.11419945289825
 21
39.85801751990107
 31
0.0
  0
LINE
  5
40
330
2
100
AcDbEntity
  8
GAIKEI
  6
Continuous
 62
     7
100
AcDbLine
 10
21.58162505289826
 20
40.17090211990108
 30
0.0
 11
21.34516265289824
 21
40.01870471990111
 31
0.0
  0
LINE
  5
41
330
2
100
AcDbEntity
  8
GAIKEI
  6
Continuous
 62
     7
100
AcDbLine
 10
21.82329365289826
 20
40.31451771990112
 30
0.0
 11
21.58162505289826
 21
40.17090211990108
 31
0.0
  0
LINE
  5
42
330
2
100
AcDbEntity
  8
GAIKEI
  6
Continuous
 62
     7
100
AcDbLine
 10
22.06984525289826
 20
40.44948491990112
 30
0.0
 11
21.82329365289826
 21
40.31451771990112
 31
0.0
  0
LINE
  5
43
330
2
100
AcDbEntity
  8
GAIKEI
  6
Continuous
 62
     7
100
AcDbLine
 10
22.32095605289825
 20
40.57574831990109
 30
0.0
 11
22.06984525289826
 21
40.44948491990112
 31
0.0
  0
LINE
  5
44
330
2
100
AcDbEntity
  8
GAIKEI
  6
Continuous
 62
     7
100
AcDbLine
 10
22.57630885289825
 20
40.69324711990112
 30
0.0
 11
22.32095605289825
 21
40.57574831990109
 31
0.0
  0
LINE
  5
45
330
2
100
AcDbEntity
  8
GAIKEI
  6
Continuous
 62
     7
100
AcDbLine
 10
22.83556785289826
 20
40.80191411990108
 30
0.0
 11
22.57630885289825
 21
40.69324711990112
 31
0.0
  0
LINE
  5
46
330
2
100
AcDbEntity
  8
GAIKEI
  6
Continuous
 62
     7
100
AcDbLine
 10
23.09842185289827
 20
40.90169431990108
 30
0.0
 11
22.83556785289826
 21
40.80191411990108
 31
0.0
  0
LINE
  5
47
330
2
100
AcDbEntity
  8
GAIKEI
  6
Continuous
 62
     7
100
AcDbLine
 10
23.36454725289826
 20
40.99252691990108
 30
0.0
 11
23.09842185289827
 21
40.90169431990108
 31
0.0
  0
LINE
  5
48
330
2
100
AcDbEntity
  8
GAIKEI
  6
Continuous
 62
     7
100
AcDbLine
 10
23.63361465289825
 20
41.07435051990108
 30
0.0
 11
23.36454725289826
 21
40.99252691990108
 31
0.0
  0
LINE
  5
49
330
2
100
AcDbEntity
  8
GAIKEI
  6
Continuous
 62
     7
100
AcDbLine
 10
23.90531265289826
 20
41.14709831990109
 30
0.0
 11
23.63361465289825
 21
41.07435051990108
 31
0.0
  0
LINE
  5
4A
330
2
100
AcDbEntity
  8
GAIKEI
  6
Continuous
 62
     7
100
AcDbLine
 10
24.17931785289824
 20
41.2107213199011
 30
0.0
 11
23.90531265289826
 21
41.14709831990109
 31
0.0
  0
LINE
  5
4B
330
2
100
AcDbEntity
  8
GAIKEI
  6
Continuous
 62
     7
100
AcDbLine
 10
24.45530045289823
 20
41.26514651990112
 30
0.0
 11
24.17931785289824
 21
41.2107213199011
 31
0.0
  0
LINE
  5
4C
330
2
100
AcDbEntity
  8
GAIKEI
  6
Continuous
 62
     7
100
AcDbLine
 10
24.73294325289825
 20
41.31032471990107
 30
0.0
 11
24.45530045289823
 21
41.26514651990112
 31
0.0
  0
LINE
  5
4D
330
2
100
AcDbEntity
  8
GAIKEI
  6
Continuous
 62
     7
100
AcDbLine
 10
25.01192885289825
 20
41.34618891990112
 30
0.0
 11
24.73294325289825
 21
41.31032471990107
 31
0.0
  0
LINE
  5
4E
330
2
100
AcDbEntity
  8
GAIKEI
  6
Continuous
 62
     7
100
AcDbLine
 10
25.29192165289825
 20
41.37267811990108
 30
0.0
 11
25.01192885289825
 21
41.34618891990112
 31
0.0
  0
LINE
  5
4F
330
2
100
AcDbEntity
  8
GAIKEI
  6
Continuous
 62
     7
100
AcDbLine
 10
25.57261005289826
 20
41.38973751990113
 30
0.0
 11
25.29192165289825
 21
41.37267811990108
 31
0.0
  0
LINE
  5
50
330
2
100
AcDbEntity
  8
GAIKEI
  6
Continuous
 62
     7
100
AcDbLine
 10
25.85367085289826
 20
41.39729971990107
 30
0.0
 11
25.57261005289826
 21
41.38973751990113
 31
0.0
  0
LINE
  5
51
330
2
100
AcDbEntity
  8
GAIKEI
  6
Continuous
 62
     7
100
AcDbLine
 10
26.13478045289824
 20
41.39530391990109
 30
0.0
 11
25.85367085289826
 21
41.39729971990107
 31
0.0
  0
LINE
  5
52
330
2
100
AcDbEntity
  8
GAIKEI
  6
Continuous
 62
     7
100
AcDbLine
 10
26.41561545289827
 20
41.38369511990106
 30
0.0
 11
26.13478045289824
 21
41.39530391990109
 31
0.0
  0
LINE
  5
53
330
2
100
AcDbEntity
  8
GAIKEI
  6
Continuous
 62
     7
100
AcDbLine
 10
26.69585225289825
 20
41.36241211990108
 30
0.0
 11
26.41561545289827
 21
41.38369511990106
 31
0.0
  0
LINE
  5
54
330
2
100
AcDbEntity
  8
GAIKEI
  6
Continuous
 62
     7
100
AcDbLine
 10
26.97517365289826
 20
41.33138171990111
 30
0.0
 11
26.69585225289825
 21
41.36241211990108
 31
0.0
  0
LINE
  5
55
330
2
100
AcDbEntity
  8
GAIKEI
  6
Continuous
 62
     7
100
AcDbLine
 10
27.25326185289825
 20
41.29056151990107
 30
0.0
 11
26.97517365289826
 21
41.33138171990111
 31
0.0
  0
LINE
  5
56
330
2
100
AcDbEntity
  8
GAIKEI
  6
Continuous
 62
     7
100
AcDbLine
 10
27.52978165289827
 20
41.2398839199011
 30
0.0
 11
27.25326185289825
 21
41.29056151990107
 31
0.0
  0
LINE
  5
57
330
2
100
AcDbEntity
  8
GAIKEI
  6
Continuous
 62
     7
100
AcDbLine
 10
27.80442765289826
 20
41.17935551990109
 30
0.0
 11
27.52978165289827
 21
41.2398839199011
 31
0.0
  0
LINE
  5
58
330
2
100
AcDbEntity
  8
GAIKEI
  6
Continuous
 62
     7
100
AcDbLine
 10
28.07688245289828
 20
41.10912831990112
 30
0.0
 11
27.80442765289826
 21
41.17935551990109
 31
0.0
  0
LINE
  5
59
330
2
100
AcDbEntity
  8
GAIKEI
  6
Continuous
 62
     7
100
AcDbLine
 10
28.34684705289826
 20
41.02937991990109
 30
0.0
 11
28.07688245289828
 21
41.10912831990112
 31
0.0
  0
LINE
  5
5A
330
2
100
AcDbEntity
  8
GAIKEI
  6
Continuous
 62
     7
100
AcDbLine
 10
28.61401025289826
 20
40.94026251990112
 30
0.0
 11
28.34684705289826
 21
41.02937991990109
 31
0.0
  0
LINE
  5
5B
330
2
100
AcDbEntity
  8
GAIKEI
  6
Continuous
 62
     7
100
AcDbLine
 10
28.87807265289826
 20
40.84195311990112
 30
0.0
 11
28.61401025289826
 21
40.94026251990112
 31
0.0
  0
LINE
  5
5C
330
2
100
AcDbEntity
  8
GAIKEI
  6
Continuous
 62
     7
100
AcDbLine
 10
29.13872345289826
 20
40.73461671990111
 30
0.0
 11
28.87807265289826
 21
40.84195311990112
 31
0.0
  0
LINE
  5
5D
330
2
100
AcDbEntity
  8
GAIKEI
  6
Continuous
 62
     7
100
AcDbLine
 10
29.39566305289827
 20
40.61842411990108
 30
0.0
 11
29.13872345289826
 21
40.73461671990111
 31
0.0
  0
LINE
  5
5E
330
2
100
AcDbEntity
  8
GAIKEI
  6
Continuous
 62
     7
100
AcDbLine
 10
29.64857445289826
 20
40.49353991990108
 30
0.0
 11
29.39566305289827
 21
40.61842411990108
 31
0.0
  0
LINE
  5
5F
330
2
100
AcDbEntity
  8
GAIKEI
  6
Continuous
 62
     7
100
AcDbLine
 10
29.89716445289827
 20
40.3601233199011
 30
0.0
 11
29.64857445289826
 21
40.49353991990108
 31
0.0
  0
LINE
  5
60
330
2
100
AcDbEntity
  8
GAIKEI
  6
Continuous
 62
     7
100
AcDbLine
 10
30.14112205289825
 20
40.21835071990108
 30
0.0
 11
29.89716445289827
 21
40.3601233199011
 31
0.0
  0
LINE
  5
61
330
2
100
AcDbEntity
  8
GAIKEI
  6
Continuous
 62
     7
100
AcDbLine
 10
30.38014185289825
 20
40.06838751990108
 30
0.0
 11
30.14112205289825
 21
40.21835071990108
 31
0.0
  0
LINE
  5
62
330
2
100
AcDbEntity
  8
GAIKEI
  6
Continuous
 62
     7
100
AcDbLine
 10
30.61391865289826
 20
39.91039791990113
 30
0.0
 11
30.38014185289825
 21
40.06838751990108
 31
0.0
  0
LINE
  5
63
330
2
100
AcDbEntity
  8
GAIKEI
  6
Continuous
 62
     7
100
AcDbLine
 10
30.84214125289828
 20
39.74455311990107
 30
0.0
 11
30.61391865289826
 21
39.91039791990113
 31
0.0
  0
LINE
  5
64
330
2
100
AcDbEntity
  8
GAIKEI
  6
Continuous
 62
     7
100
AcDbLine
 10
31.06450465289825
 20
39.57101811990111
 30
0.0
 11
30.84214125289828
 21
39.74455311990107
 31
0.0
  0
LINE
  5
65
330
2
100
AcDbEntity
  8
GAIKEI
  6
Continuous
 62
     7
100
AcDbLine
 10
31.28070945289826
 20
39.38996331990109
 30
0.0
 11
31.06450465289825
 21
39.57101811990111
 31
0.0
  0
LINE
  5
66
330
2
100
AcDbEntity
  8
GAIKEI
  6
Continuous
 62
     7
100
AcDbLine
 10
31.49045065289826
 20
39.20155391990113
 30
0.0
 11
31.28070945289826
 21
39.38996331990109
 31
0.0
  0
LINE
  5
67
330
2
100
AcDbEntity
  8
GAIKEI
  6
Continuous
 62
     7
100
AcDbLine
 10
31.69341085289824
 20
39.00595451990108
 30
0.0
 11
31.49045065289826
 21
39.20155391990113
 31
0.0
  0
LINE
  5
68
330
2
100
AcDbEntity
  8
GAIKEI
  6
Continuous
 62
     7
100
AcDbLine
 10
31.88933365289827
 20
38.80336671990108
 30
0.0
 11
31.69341085289824
 21
39.00595451990108
 31
0.0
  0
LINE
  5
69
330
2
100
AcDbEntity
  8
GAIKEI
  6
Continuous
 62
     7
100
AcDbLine
 10
32.07804225289826
 20
38.5940771199011
 30
0.0
 11
31.88933365289827
 21
38.80336671990108
 31
0.0
  0
LINE
  5
6A
330
2
100
AcDbEntity
  8
GAIKEI
  6
Continuous
 62
     7
100
AcDbLine
 10
32.25938385289826
 20
38.37837891990114
 30
0.0
 11
32.07804225289826
 21
38.5940771199011
 31
0.0
  0
LINE
  5
6B
330
2
100
AcDbEntity
  8
GAIKEI
  6
Continuous
 62
     7
100
AcDbLine
 10
32.43321185289827
 20
38.15656491990109
 30
0.0
 11
32.25938385289826
 21
38.37837891990114
 31
0.0
  0
LINE
  5
6C
330
2
100
AcDbEntity
  8
GAIKEI
  6
Continuous
 62
     7
100
AcDbLine
 10
32.59936785289827
 20
37.92894031990113
 30
0.0
 11
32.43321185289827
 21
38.15656491990109
 31
0.0
  0
LINE
  5
6D
330
2
100
AcDbEntity
  8
GAIKEI
  6
Continuous
 62
     7
100
AcDbLine
 10
32.75769925289825
 20
37.69579831990109
 30
0.0
 11
32.59936785289827
 21
37.92894031990113
 31
0.0
  0
LINE
  5
6E
330
2
100
AcDbEntity
  8
GAIKEI
  6
Continuous
 62
     7
100
AcDbLine
 10
32.90821805289823
 20
37.4571691199011
 30
0.0
 11
32.75769925289825
 21
37.69579831990109
 31
0.0
  0
LINE
  5
6F
330
2
100
AcDbEntity
  8
GAIKEI
  6
Continuous
 62
     7
100
AcDbLine
 10
33.03600725289826
 20
37.23943231990109
 30
0.0
 11
32.90821805289823
 21
37.4571691199011
 31
0.0
  0
LINE
  5
70
330
2
100
AcDbEntity
  8
GAIKEI
  6
Continuous
 62
     7
100
AcDbLine
 10
33.15715605289824
 20
37.01796631990112
 30
0.0
 11
33.03600725289826
 21
37.23943231990109
 31
0.0
  0
LINE
  5
71
330
2
100
AcDbEntity
  8
GAIKEI
  6
Continuous
 62
     1
100
AcDbLine
 10
32.81786165289827
 20
37.0183813199011
 30
0.0
 11
33.15715605289824
 21
37.01796631990112
 31
0.0
  0
LINE
  5
72
330
2
100
AcDbEntity
  8
GAIKEI
  6
Continuous
 62
     7
100
AcDbLine
 10
33.15692903497225
 20
37.0183813199011
 30
0.0
 11
34.12199365289826
 21
37.0183813199011
 31
0.0
  0
LINE
  5
73
330
2
100
AcDbEntity
  8
GAIKEI
  6
Continuous
 62
     1
100
AcDbLine
 10
33.10518465289824
 20
29.37837891990103
 30
0.0
 11
33.10518465289826
 21
33.19838011990106
 31
0.0
  0
LINE
  5
74
330
2
100
AcDbEntity
  8
GAIKEI
  6
Continuous
 62
     1
100
AcDbLine
 10
18.70173305289825
 20
29.28041018112271
 30
0.0
 11
18.70173305289825
 21
33.19838011990106
 31
0.0
  0
LINE
  5
75
330
2
100
AcDbEntity
  8
GAIKEI
  6
Continuous
 62
     1
100
AcDbLine
 10
37.70399445289829
 20
15.95838071990113
 30
0.0
 11
31.66952165289826
 21
15.95838071990107
 31
0.0
  0
LINE
  5
76
330
2
100
AcDbEntity
  8
GAIKEI
  6
Continuous
 62
     1
100
AcDbLine
 10
13.74399385289825
 20
17.29838011990114
 30
0.0
 11
28.29584005289826
 21
17.29838011990108
 31
0.0
  0
LINE
  5
77
330
2
100
AcDbEntity
  8
GAIKEI
  6
Continuous
 62
     7
100
AcDbLine
 10
13.74399385289825
 20
17.09838011990109
 30
0.0
 11
13.64399385289826
 21
17.09838011990109
 31
0.0
  0
LINE
  5
78
330
2
100
AcDbEntity
  8
GAIKEI
  6
Continuous
 62
     7
100
AcDbLine
 10
14.1039944528983
 20
15.95838071990107
 30
0.0
 11
13.87809105289824
 21
15.95838071990107
 31
0.0
  0
POINT
  5
79
330
2
100
AcDbEntity
  8
GAIKEI
  6
Continuous
 62
     7
100
AcDbPoint
 10
-11.00131539632666
 20
27.51788691990106
 30
0.0
  0
LINE
  5
7A
330
2
100
AcDbEntity
  8
GAIKEI
  6
Continuous
 62
     7
100
AcDbLine
 10
-12.06452939632667
 20
22.12075971566355
 30
0.0
 11
-12.29809259632667
 21
22.32591911990107
 31
0.0
  0
ARC
  5
7B
330
2
100
AcDbEntity
  8
GAIKEI
  6
Continuous
 62
     7
100
AcDbCircle
 10
-73.6250397963267
 20
-47.6739098800989
 30
0.0
 40
93.06433099999999
100
AcDbArc
 50
48.77835200000149
 51
49.20773900000026
  0
LINE
  5
7C
330
2
100
AcDbEntity
  8
GAIKEI
  6
Continuous
 62
     7
100
AcDbLine
 10
-12.06452939632667
 20
21.49838011990113
 30
0.0
 11
-12.06452939632667
 21
22.12075971566355
 31
0.0
  0
LINE
  5
7D
330
2
100
AcDbEntity
  8
GAIKEI
  6
Continuous
 62
     7
100
AcDbLine
 10
-12.10537119632668
 20
31.2383521199011
 30
0.0
 11
-12.08083199632669
 21
31.29729371990106
 31
0.0
  0
LINE
  5
7E
330
2
100
AcDbEntity
  8
GAIKEI
  6
Continuous
 62
     7
100
AcDbLine
 10
-12.08083199632669
 20
31.29729371990106
 30
0.0
 11
-12.06980739632668
 21
31.32355711990107
 31
0.0
  0
LWPOLYLINE
  5
7F
330
2
100
AcDbEntity
  8
GAIKEI
  6
Continuous
 62
     7
100
AcDbPolyline
 90
        6
 70
     0
 43
0.0
 10
-12.88902279632667
 20
22.9882361199011
 10
-12.88377699632666
 20
22.9192847199011
 10
-12.86848759632666
 20
22.85662591990109
 10
-12.85064399632666
 20
22.8167699199011
 10
-12.82984019632668
 20
22.7886327199011
 10
-12.82440799632665
 20
22.78354251990112
  0
LINE
  5
80
330
2
100
AcDbEntity
  8
GAIKEI
  6
Continuous
 62
     7
100
AcDbLine
 10
-12.06897579632668
 20
31.32549791990107
 30
0.0
 11
-12.06454479632667
 21
31.33602651990106
 31
0.0
  0
ARC
  5
81
330
2
100
AcDbEntity
  8
GAIKEI
  6
Continuous
 62
     7
100
AcDbCircle
 10
-0.5541671963266737
 20
26.46282711990108
 30
0.0
 40
12.4994576
100
AcDbArc
 50
157.1057890000002
 51
157.9206239999993
  0
ARC
  5
82
330
2
100
AcDbEntity
  8
GAIKEI
  6
Continuous
 62
     7
100
AcDbCircle
 10
-1.216084396326678
 20
26.70409911990106
 30
0.0
 40
11.795311
100
AcDbArc
 50
157.7980959999999
 51
162.6820309999995
  0
LWPOLYLINE
  5
83
330
2
100
AcDbEntity
  8
GAIKEI
  6
Continuous
 62
     7
100
AcDbPolyline
 90
        7
 70
     0
 43
0.0
 10
-12.47656259632667
 20
30.21522571990113
 10
-12.57401279632667
 20
29.88118031990109
 10
-12.66664439632667
 20
29.51410891990111
 10
-12.72941899632666
 20
29.22105471990107
 10
-12.78395999632666
 20
28.9163549199011
 10
-12.82836919632667
 20
28.6032995199011
 10
-12.85159919632666
 20
28.39154411990108
  0
ARC
  5
84
330
2
100
AcDbEntity
  8
GAIKEI
  6
Continuous
 62
     7
100
AcDbCircle
 10
-4.831959596326683
 20
27.6156165199011
 30
0.0
 40
8.0570786
100
AcDbArc
 50
174.4736130000006
 51
179.9803390000002
  0
LINE
  5
85
330
2
100
AcDbEntity
  8
GAIKEI
  6
Continuous
 62
     7
100
AcDbLine
 10
-12.88902279632667
 20
27.61838131990106
 30
0.0
 11
-12.88902279632667
 21
22.98823611990105
 31
0.0
  0
ARC
  5
86
330
2
100
AcDbEntity
  8
GAIKEI
  6
Continuous
 62
     7
100
AcDbCircle
 10
-12.12452999632667
 20
21.5583777199011
 30
0.0
 40
0.06
100
AcDbArc
 50
271.6300070000006
 51
358.3699939999999
  0
LINE
  5
87
330
2
100
AcDbEntity
  8
GAIKEI
  6
Continuous
 62
     1
100
AcDbLine
 10
-12.69322059632667
 20
27.51730711990109
 30
0.0
 11
-12.69322059632667
 21
27.5411107199011
 31
0.0
  0
LWPOLYLINE
  5
88
330
2
100
AcDbEntity
  8
GAIKEI
  6
Continuous
 62
     1
100
AcDbPolyline
 90
        6
 70
     0
 43
0.0
 10
-12.69314279632668
 20
27.51731311990113
 10
-12.69425359632667
 20
24.81009271990109
 10
-12.69450679632665
 20
24.30371451990112
 10
-12.69463819632666
 20
23.79933831990109
 10
-12.69616399632666
 20
23.38114991990108
 10
-12.69463499632665
 20
23.17207391990109
  0
LINE
  5
89
330
2
100
AcDbEntity
  8
GAIKEI
  6
Continuous
 62
     1
100
AcDbLine
 10
-12.88902840716177
 20
27.6281761395814
 30
0.0
 11
-12.69322059632667
 21
27.5411107199011
 31
0.0
  0
LINE
  5
8A
330
2
100
AcDbEntity
  8
GAIKEI
  6
Continuous
 62
     1
100
AcDbLine
 10
-12.78663339632668
 20
22.81251591990105
 30
0.0
 11
-12.84794919632666
 21
22.81251591990105
 31
0.0
  0
LINE
  5
8B
330
2
100
AcDbEntity
  8
GAIKEI
  6
Continuous
 62
     1
100
AcDbLine
 10
-11.95364679632668
 20
31.01212511990104
 30
0.0
 11
-11.9183883211004
 21
31.10753467897211
 31
0.0
  0
LINE
  5
8C
330
2
100
AcDbEntity
  8
GAIKEI
  6
Continuous
 62
     1
100
AcDbLine
 10
-12.02945259632666
 20
30.81135011990108
 30
0.0
 11
-11.95364679632668
 21
31.01212511990104
 31
0.0
  0
LWPOLYLINE
  5
8D
330
2
100
AcDbEntity
  8
GAIKEI
  6
Continuous
 62
     1
100
AcDbPolyline
 90
       12
 70
     0
 43
0.0
 10
-12.02945259632666
 20
30.81135011990108
 10
-12.17222899632666
 20
30.4125585199011
 10
-12.28096159632666
 20
30.07305051990113
 10
-12.36594539632666
 20
29.77770751990113
 10
-12.44895939632668
 20
29.45201171990106
 10
-12.52393499632667
 20
29.1080907199011
 10
-12.58850099632666
 20
28.74405271990111
 10
-12.62477719632666
 20
28.48698491990109
 10
-12.65431679632665
 20
28.22144531990108
 10
-12.67615359632667
 20
27.95127311990109
 10
-12.68973399632666
 20
27.67822011990109
 10
-12.69324659632666
 20
27.5411107199011
  0
LINE
  5
8E
330
2
100
AcDbEntity
  8
GAIKEI
  6
Continuous
 62
     1
100
AcDbLine
 10
-12.59669959632667
 20
27.51730091990106
 30
0.0
 11
-12.69313959632667
 21
27.51730711990109
 31
0.0
  0
ARC
  5
8F
330
2
100
AcDbEntity
  8
GAIKEI
  6
Continuous
 62
     1
100
AcDbCircle
 10
-21.93806459632668
 20
40.99480351990109
 30
0.0
 40
20.3554566
100
AcDbArc
 50
296.7168530000001
 51
297.5722670000006
  0
LINE
  5
90
330
2
100
AcDbEntity
  8
GAIKEI
  6
Continuous
 62
     1
100
AcDbLine
 10
-12.68518379632668
 20
23.15759031990109
 30
0.0
 11
-12.69380199632668
 21
23.17263551990107
 31
0.0
  0
LINE
  5
91
330
2
100
AcDbEntity
  8
GAIKEI
  6
Continuous
 62
     1
100
AcDbLine
 10
-12.66750039632667
 20
23.12316031990105
 30
0.0
 11
-12.68518379632668
 21
23.15759031990109
 31
0.0
  0
LWPOLYLINE
  5
92
330
2
100
AcDbEntity
  8
GAIKEI
  6
Continuous
 62
     1
100
AcDbPolyline
 90
        3
 70
     0
 43
0.0
 10
-12.60644539632666
 20
23.02695671990108
 10
-12.64395759632667
 20
23.0794469199011
 10
-12.66750039632667
 20
23.12316031990111
  0
LWPOLYLINE
  5
93
330
2
100
AcDbEntity
  8
GAIKEI
  6
Continuous
 62
     1
100
AcDbPolyline
 90
        5
 70
     0
 43
0.0
 10
-12.51624459632667
 20
22.95123051990112
 10
-12.52255859632667
 20
22.95983631990111
 10
-12.54082639632666
 20
22.97304431990108
 10
-12.58832099632666
 20
23.0079687199011
 10
-12.60644539632666
 20
23.02695671990108
  0
LINE
  5
94
330
2
100
AcDbEntity
  8
GAIKEI
  6
Continuous
 62
     7
100
AcDbLine
 10
-12.06534279632667
 20
22.21789311990108
 30
0.0
 11
-12.06577459632667
 21
22.21827151990106
 31
0.0
  0
ARC
  5
95
330
2
100
AcDbEntity
  8
GAIKEI
  6
Continuous
 62
     7
100
AcDbCircle
 10
-12.07751459632668
 20
30.92800051990105
 30
0.0
 40
0.24
100
AcDbArc
 50
27.40540599999916
 51
48.36329400000067
  0
LINE
  5
96
330
2
100
AcDbEntity
  8
GAIKEI
  6
Continuous
 62
     1
100
AcDbLine
 10
-11.00131539632666
 20
27.51791751990106
 30
0.0
 11
-12.59669959632667
 21
27.51730091990106
 31
0.0
  0
LWPOLYLINE
  5
97
330
2
100
AcDbEntity
  8
GAIKEI
  6
Continuous
 62
     1
100
AcDbPolyline
 90
        5
 70
     0
 43
0.0
 10
-12.51635739632665
 20
22.95107791990108
 10
-12.44177559632668
 20
22.9619603199011
 10
-12.30209039632667
 20
22.97673091990112
 10
-11.96991739632666
 20
23.01373051990112
 10
-11.39346919632667
 20
23.08586791990109
  0
ARC
  5
98
330
2
100
AcDbEntity
  8
GAIKEI
  6
Continuous
 62
     1
100
AcDbCircle
 10
-13.51593019632666
 20
39.49033571990105
 30
0.0
 40
16.5410934
100
AcDbArc
 50
277.3721530000009
 51
278.5597599999996
  0
LINE
  5
99
330
2
100
AcDbEntity
  8
GAIKEI
  6
Continuous
 62
     7
100
AcDbLine
 10
-12.06538379455264
 20
31.23824831990106
 30
0.0
 11
-12.10549779632667
 21
31.23824831990106
 31
0.0
  0
LINE
  5
9A
330
2
100
AcDbEntity
  8
GAIKEI
  6
Continuous
 62
     7
100
AcDbLine
 10
-11.91812139632667
 20
31.10729731990108
 30
0.0
 11
-12.06538379455264
 21
31.23824831990106
 31
0.0
  0
LINE
  5
9B
330
2
100
AcDbEntity
  8
GAIKEI
  6
Continuous
 62
     7
100
AcDbLine
 10
-12.06577459632667
 20
22.21789311990108
 30
0.0
 11
-12.17496179632668
 21
22.21789311990108
 31
0.0
  0
LWPOLYLINE
  5
9C
330
2
100
AcDbEntity
  8
GAIKEI
  6
Continuous
 62
     7
100
AcDbPolyline
 90
       13
 70
     0
 43
0.0
 10
-11.00131539632666
 20
27.51788691990112
 10
-11.00807499632667
 20
27.83490971990108
 10
-11.02810059632666
 20
28.15113271990112
 10
-11.05776979632667
 20
28.43828491990109
 10
-11.09816279632666
 20
28.72334951990109
 10
-11.15168299632667
 20
29.01902831990111
 10
-11.21651759632668
 20
29.31138671990107
 10
-11.29281319632666
 20
29.60094351990108
 10
-11.38059079632667
 20
29.88801031990113
 10
-11.48021239632668
 20
30.17328851990112
 10
-11.59520579632668
 20
30.46347411990109
 10
-11.73382579632665
 20
30.77353271990109
 10
-11.86445619632666
 20
31.03848011990113
  0
LINE
  5
9D
330
2
100
AcDbEntity
  8
GAIKEI
  6
Continuous
 62
     7
100
AcDbLine
 10
-11.00181579632668
 20
23.25223131990106
 30
0.0
 11
-11.00207519632668
 21
27.51789311990109
 31
0.0
  0
LINE
  5
9E
330
2
100
AcDbEntity
  8
GAIKEI
  6
Continuous
 62
     7
100
AcDbLine
 10
-11.05708619632666
 20
23.13078971990109
 30
0.0
 11
-12.06534119632668
 21
22.21774651990108
 31
0.0
  0
ARC
  5
9F
330
2
100
AcDbEntity
  8
GAIKEI
  6
Continuous
 62
     7
100
AcDbCircle
 10
-11.16136639632667
 20
23.25220091990104
 30
0.0
 40
0.1599164
100
AcDbArc
 50
312.1515799999993
 51
359.9897460000008
  0
LINE
  5
A0
330
2
100
AcDbEntity
  8
GAIKEI
  6
Continuous
 62
     7
100
AcDbLine
 10
-12.0645293963267
 20
21.19838011990106
 30
0.0
 11
-9.581252996326711
 21
19.27634031990107
 31
0.0
  0
ARC
  5
A1
330
2
100
AcDbEntity
  8
GAIKEI
  6
Continuous
 62
     1
100
AcDbCircle
 10
-9.007601996326698
 20
18.84498351990106
 30
0.0
 40
0.05
100
AcDbArc
 50
8.260358000000751
 51
52.26035500000019
  0
LINE
  5
A2
330
2
100
AcDbEntity
  8
GAIKEI
  6
Continuous
 62
     1
100
AcDbLine
 10
-8.948612996326701
 20
18.78667971990109
 30
0.0
 11
-8.958120796326696
 21
18.85216431990108
 31
0.0
  0
LINE
  5
A3
330
2
100
AcDbEntity
  8
GAIKEI
  6
Continuous
 62
     7
100
AcDbLine
 10
-8.948612996326701
 20
18.78667971990109
 30
0.0
 11
-9.005520596326689
 21
18.83064331990107
 31
0.0
  0
LINE
  5
A4
330
2
100
AcDbEntity
  8
GAIKEI
  6
Continuous
 62
     7
100
AcDbLine
 10
-9.005520596326689
 20
18.83064331990107
 30
0.0
 11
-9.541755796326711
 21
19.24568231990105
 31
0.0
  0
LINE
  5
A5
330
2
100
AcDbEntity
  8
GAIKEI
  6
Continuous
 62
     7
100
AcDbLine
 10
-9.541755796326711
 20
19.24568231990105
 30
0.0
 11
-9.581252996326711
 21
19.27634031990107
 31
0.0
  0
LINE
  5
A6
330
2
100
AcDbEntity
  8
GAIKEI
  6
Continuous
 62
     7
100
AcDbLine
 10
-8.404528796326715
 20
17.29838011990108
 30
0.0
 11
-8.504528796326709
 21
17.29838011990114
 31
0.0
  0
LINE
  5
A7
330
2
100
AcDbEntity
  8
GAIKEI
  6
Continuous
 62
     1
100
AcDbLine
 10
-9.038008196326714
 20
17.09838011990109
 30
0.0
 11
-9.030097996326688
 21
17.09838011990109
 31
0.0
  0
LINE
  5
A8
330
2
100
AcDbEntity
  8
GAIKEI
  6
Continuous
 62
     1
100
AcDbLine
 10
-9.5741515963267
 20
17.09838011990109
 30
0.0
 11
-9.038008196326714
 21
17.09838011990109
 31
0.0
  0
LINE
  5
A9
330
2
100
AcDbEntity
  8
GAIKEI
  6
Continuous
 62
     1
100
AcDbLine
 10
-9.504989596326723
 20
19.29318291990108
 30
0.0
 11
-8.976998996326713
 21
18.88452211990108
 31
0.0
  0
ARC
  5
AA
330
2
100
AcDbEntity
  8
GAIKEI
  6
Continuous
 62
     1
100
AcDbCircle
 10
-9.535592596326708
 20
19.25364431990107
 30
0.0
 40
0.05
100
AcDbArc
 50
52.26035500000019
 51
142.2603500000014
  0
LINE
  5
AB
330
2
100
AcDbEntity
  8
GAIKEI
  6
Continuous
 62
     1
100
AcDbLine
 10
-9.581252996326711
 20
19.27634031990107
 30
0.0
 11
-9.575132796326712
 21
19.28424731990105
 31
0.0
  0
ARC
  5
AC
330
2
100
AcDbEntity
  8
GAIKEI
  6
Continuous
 62
     7
100
AcDbCircle
 10
-12.3786163963267
 20
16.84380251990109
 30
0.0
 40
4.0000004
100
AcDbArc
 50
6.52542100000032
 51
26.97200199999985
  0
ARC
  5
AD
330
2
100
AcDbEntity
  8
GAIKEI
  6
Continuous
 62
     7
100
AcDbCircle
 10
-8.991949596326705
 20
18.56731311990109
 30
0.0
 40
0.2000018
100
AcDbArc
 50
26.97210999999867
 51
52.2602310000002
  0
LINE
  5
AE
330
2
100
AcDbEntity
  8
GAIKEI
  6
Continuous
 62
     7
100
AcDbLine
 10
-8.948612996326701
 20
18.78667971990109
 30
0.0
 11
-8.869534396326699
 21
18.72547351990107
 31
0.0
  0
LINE
  5
AF
330
2
100
AcDbEntity
  8
GAIKEI
  6
Continuous
 62
     1
100
AcDbLine
 10
-9.905367996326688
 20
17.09838011990109
 30
0.0
 11
-8.504528796326709
 21
17.09838011990115
 31
0.0
  0
LINE
  5
B0
330
2
100
AcDbEntity
  8
GAIKEI
  6
Continuous
 62
     7
100
AcDbLine
 10
-8.864529396326716
 20
15.95838071990107
 30
0.0
 11
-8.638624596326692
 21
15.95838071990107
 31
0.0
  0
ARC
  5
B1
330
2
100
AcDbEntity
  8
GAIKEI
  6
Continuous
 62
     7
100
AcDbCircle
 10
-12.6045287963267
 20
17.09838011990109
 30
0.0
 40
4.200000399999999
100
AcDbArc
 50
345.3058920000008
 51
0.0000050000005102
  0
ARC
  5
B2
330
2
100
AcDbEntity
  8
GAIKEI
  6
Continuous
 62
     7
100
AcDbCircle
 10
-8.638624596326692
 20
16.05838071990109
 30
0.0
 40
0.1
100
AcDbArc
 50
270.000003000001
 51
345.3058920000008
  0
LINE
  5
B3
330
2
100
AcDbEntity
  8
GAIKEI
  6
Continuous
 62
     7
100
AcDbLine
 10
-9.299421796326711
 20
13.81870791990104
 30
0.0
 11
-8.864529396326716
 21
15.95838071990107
 31
0.0
  0
ARC
  5
B4
330
2
100
AcDbEntity
  8
GAIKEI
  6
Continuous
 62
     7
100
AcDbCircle
 10
-9.691406196326695
 20
13.89838011990105
 30
0.0
 40
0.4
100
AcDbArc
 50
270.000003000001
 51
348.5110120000003
  0
LINE
  5
B5
330
2
100
AcDbEntity
  8
GAIKEI
  6
Continuous
 62
     7
100
AcDbLine
 10
-8.504528796326709
 20
17.09838011990115
 30
0.0
 11
-8.504528796326702
 21
17.29838011990114
 31
0.0
  0
LINE
  5
B6
330
2
100
AcDbEntity
  8
GAIKEI
  6
Continuous
 62
     7
100
AcDbLine
 10
-8.504528796326709
 20
17.09838011990103
 30
0.0
 11
-8.404528796326715
 21
17.09838011990109
 31
0.0
  0
LINE
  5
B7
330
2
100
AcDbEntity
  8
GAIKEI
  6
Continuous
 62
     1
100
AcDbLine
 10
-32.82452999632673
 20
17.29838011990108
 30
0.0
 11
-26.54228659632674
 21
17.29838011990108
 31
0.0
  0
LINE
  5
B8
330
2
100
AcDbEntity
  8
GAIKEI
  6
Continuous
 62
     7
100
AcDbLine
 10
-32.82452999632673
 20
17.09838011990103
 30
0.0
 11
-32.92452999632673
 21
17.09838011990109
 31
0.0
  0
DIMENSION
  5
B9
330
2
100
AcDbEntity
  8
SUNPO
100
AcDbDimension
  2
*D6
 10
38.16399645289829
 20
5.519181968406599
 30
0.0
 11
25.90399585289829
 21
7.269181968406599
 31
0.0
 70
    33
  1
φ122.6
 71
     5
 42
24.52000120000001
  3
STANDARD
100
AcDbAlignedDimension
 13
13.64399525289828
 23
13.5191819684066
 33
0.0
 14
38.16399645289829
 24
13.5191819684066
 34
0.0
1001
ACAD
1000
DSTYLE
1002
{
1070
    40
1040
1.0
1070
   140
1040
2.5
1070
   147
1040
0.5
1070
   172
1070
     1
1070
   279
1070
     0
1070
   288
1070
     0
1002
}
  0
DIMENSION
  5
C7
330
2
100
AcDbEntity
  8
SUNPO
100
AcDbDimension
  2
*D5
 10
-12.06452939632672
 20
47.39770871990105
 30
0.0
 11
-20.66452939632673
 21
49.14770871990106
 31
0.0
 70
    33
  1
φ86
 71
     5
 42
17.20000000000001
  3
STANDARD
100
AcDbAlignedDimension
 13
-29.26452939632675
 23
39.39770871990106
 33
0.0
 14
-12.06452939632672
 24
39.39770871990106
 34
0.0
1001
ACAD
1000
DSTYLE
1002
{
1070
    40
1040
1.0
1070
   140
1040
2.5
1070
   147
1040
0.5
1070
   172
1070
     1
1070
   279
1070
     0
1070
   288
1070
     0
1002
}
  0
DIMENSION
  5
D4
330
2
100
AcDbEntity
  8
SUNPO
100
AcDbDimension
  2
*D4
 10
-8.404528796326722
 20
5.519181968406599
 30
0.0
 11
-20.66452939632672
 21
7.269181968406599
 31
0.0
 70
    33
  1
φ122.6
 71
     5
 42
24.52000120000001
  3
STANDARD
100
AcDbAlignedDimension
 13
-32.92452999632673
 23
13.5191819684066
 33
0.0
 14
-8.404528796326722
 24
13.5191819684066
 34
0.0
1001
ACAD
1000
DSTYLE
1002
{
1070
    40
1040
1.0
1070
   140
1040
2.5
1070
   147
1040
0.5
1070
   172
1070
     1
1070
   279
1070
     0
1070
   288
1070
     0
1002
}
  0
ARC
  5
E1
330
2
100
AcDbEntity
  8
GAIKEI
  6
Continuous
 62
     7
100
AcDbCircle
 10
25.90409205289825
 20
33.19843511990109
 30
0.0
 40
8.3001114
100
AcDbArc
 50
208.4678680000007
 51
209.8026230000009
  0
LINE
  5
E2
330
2
100
AcDbEntity
  8
GAIKEI
  6
Continuous
 62
     7
100
AcDbLine
 10
18.60759245289824
 20
29.2420507199011
 30
0.0
 11
18.60819365289825
 21
29.24238031990109
 31
0.0
  0
LINE
  5
E3
330
2
100
AcDbEntity
  8
GAIKEI
  6
Continuous
 62
     7
100
AcDbLine
 10
18.70173005289825
 20
29.24238031990109
 30
0.0
 11
18.60819365289825
 21
29.24238031990109
 31
0.0
  0
LINE
  5
E4
330
2
100
AcDbEntity
  8
GAIKEI
  6
Continuous
 62
     7
100
AcDbLine
 10
17.64399385289826
 20
29.69838011990106
 30
0.0
 11
18.48650785289826
 21
29.69838011990106
 31
0.0
  0
LINE
  5
E5
330
2
100
AcDbEntity
  8
GAIKEI
  6
Continuous
 62
     7
100
AcDbLine
 10
17.64399385289826
 20
36.69838011990106
 30
0.0
 11
18.48650785289826
 21
36.69838011990106
 31
0.0
  0
LINE
  5
E6
330
2
100
AcDbEntity
  8
GAIKEI
  6
Continuous
 62
     7
100
AcDbLine
 10
17.64399385289826
 20
29.69838011990106
 30
0.0
 11
17.64399385289826
 21
30.16729491990105
 31
0.0
  0
LINE
  5
E7
330
2
100
AcDbEntity
  8
GAIKEI
  6
Continuous
 62
     7
100
AcDbLine
 10
17.64399385289826
 20
36.69838011990106
 30
0.0
 11
17.64399385289826
 21
30.16729491990105
 31
0.0
  0
ARC
  5
E8
330
2
100
AcDbEntity
  8
GAIKEI
  6
Continuous
 62
     7
100
AcDbCircle
 10
26.06507845289826
 20
33.33687491990105
 30
0.0
 40
8.4067688
100
AcDbArc
 50
205.6441169999998
 51
208.8503554863978
  0
LINE
  5
E9
330
2
100
AcDbEntity
  8
GAIKEI
  6
Continuous
 62
     7
100
AcDbLine
 10
34.12199365289826
 20
29.37837891990108
 30
0.0
 11
34.35926165289826
 21
29.97837891990111
 31
0.0
  0
LINE
  5
EA
330
2
100
AcDbEntity
  8
GAIKEI
  6
Continuous
 62
     7
100
AcDbLine
 10
33.10518465289826
 20
29.37837891990108
 30
0.0
 11
34.12199365289826
 21
29.37837891990108
 31
0.0
  0
LINE
  5
EB
330
2
100
AcDbEntity
  8
GAIKEI
  6
Continuous
 62
     7
100
AcDbLine
 10
34.50399445289827
 20
30.34438231990106
 30
0.0
 11
34.35926165289826
 21
29.97837891990111
 31
0.0
  0
LINE
  5
EC
330
2
100
AcDbEntity
  8
GAIKEI
  6
Continuous
 62
     1
100
AcDbLine
 10
34.35926165289826
 20
29.97837891990111
 30
0.0
 11
33.10625265289826
 21
29.97837891990111
 31
0.0
  0
ELLIPSE
  5
ED
330
2
100
AcDbEntity
  8
GAIKEI
  6
Continuous
 62
     1
100
AcDbEllipse
 10
25.31750145289826
 20
32.14112291990108
 30
0.0
 11
5.71544189453125
 21
-4.752517700195315
 31
0.0
210
0.0
220
0.0
230
1.0
 40
0.873121
 41
3.748564243316649
 42
4.127293109893798
  0
ELLIPSE
  5
EE
330
2
100
AcDbEntity
  8
GAIKEI
  6
Continuous
 62
     1
100
AcDbEllipse
 10
27.04143945289826
 20
32.38419551990109
 30
0.0
 11
-3.972863769531255
 21
-5.809320068359374
 31
0.0
210
0.0
220
0.0
230
1.0
 40
0.887892
 41
1.854884505271911
 42
2.236584663391113
  0
ELLIPSE
  5
EF
330
2
100
AcDbEntity
  8
GAIKEI
  6
Continuous
 62
     1
100
AcDbEllipse
 10
23.47287865289826
 20
32.84871571990112
 30
0.0
 11
10.1716552734375
 21
0.9735748291015632
 31
0.0
210
0.0
220
0.0
230
1.0
 40
0.8412829999999999
 41
5.866662979125976
 42
6.210511684417724
  0
LINE
  5
F0
330
2
100
AcDbEntity
  8
GAIKEI
  6
Continuous
 62
     1
100
AcDbLine
 10
33.67715725289827
 20
33.19838011990106
 30
0.0
 11
34.50399445289827
 21
33.19838011990106
 31
0.0
  0
LINE
  5
F1
330
2
100
AcDbEntity
  8
GAIKEI
  6
Continuous
 62
     1
100
AcDbLine
 10
33.55184585289825
 20
33.19838011990106
 30
0.0
 11
33.67715725289827
 21
33.19838011990106
 31
0.0
  0
LINE
  5
F2
330
2
100
AcDbEntity
  8
GAIKEI
  6
Continuous
 62
     1
100
AcDbLine
 10
33.55184585289825
 20
33.19838011990106
 30
0.0
 11
33.10625885289827
 21
33.19838011990106
 31
0.0
  0
LINE
  5
F3
330
2
100
AcDbEntity
  8
GAIKEI
  6
Continuous
 62
     1
100
AcDbLine
 10
18.70173005289825
 20
33.19838011990106
 30
0.0
 11
18.25614285289828
 21
33.19838011990106
 31
0.0
  0
LINE
  5
F4
330
2
100
AcDbEntity
  8
GAIKEI
  6
Continuous
 62
     1
100
AcDbLine
 10
18.04951125289827
 20
33.19838011990106
 30
0.0
 11
18.25614285289828
 21
33.19838011990106
 31
0.0
  0
LINE
  5
F5
330
2
100
AcDbEntity
  8
GAIKEI
  6
Continuous
 62
     1
100
AcDbLine
 10
18.04951125289827
 20
33.19838011990106
 30
0.0
 11
18.25614285289828
 21
33.19838011990106
 31
0.0
  0
LINE
  5
F6
330
2
100
AcDbEntity
  8
GAIKEI
  6
Continuous
 62
     1
100
AcDbLine
 10
33.55184585289825
 20
33.19838011990106
 30
0.0
 11
33.67715725289827
 21
33.19838011990106
 31
0.0
  0
ARC
  5
F7
330
2
100
AcDbEntity
  8
GAIKEI
  6
Continuous
 62
     1
100
AcDbCircle
 10
36.19786645289825
 20
37.91869251990107
 30
0.0
 40
3.5531292
100
AcDbArc
 50
198.9136359999997
 51
204.9755250000007
  0
LWPOLYLINE
  5
F8
330
2
100
AcDbEntity
  8
GAIKEI
  6
Continuous
 62
     1
100
AcDbPolyline
 90
        8
 70
     0
 43
0.0
 10
32.81786165289827
 20
37.0183813199011
 10
32.80664325289825
 20
37.01567751990109
 10
32.79822045289825
 20
37.00737671990112
 10
32.79283105289827
 20
36.9932897199011
 10
32.79080465289826
 20
36.96118531990112
 10
32.79626725289828
 20
36.9161901199011
 10
32.81493185289824
 20
36.8377233199011
 10
32.83673965289827
 20
36.76702631990111
  0
LINE
  5
F9
330
2
100
AcDbEntity
  8
GAIKEI
  6
Continuous
 62
     7
100
AcDbLine
 10
34.35926165289826
 20
36.41838131990108
 30
0.0
 11
34.12199365289826
 21
37.0183813199011
 31
0.0
  0
LINE
  5
FA
330
2
100
AcDbEntity
  8
GAIKEI
  6
Continuous
 62
     1
100
AcDbLine
 10
33.67715725289827
 20
33.19838011990106
 30
0.0
 11
34.50399445289827
 21
33.19838011990106
 31
0.0
  0
ELLIPSE
  5
FB
330
2
100
AcDbEntity
  8
GAIKEI
  6
Continuous
 62
     1
100
AcDbEllipse
 10
23.47336085289825
 20
33.54809331990111
 30
0.0
 11
10.17115478515625
 21
-0.9738311767578125
 31
0.0
210
0.0
220
0.0
230
1.0
 40
0.8413019999999999
 41
0.072700247168541
 42
0.4530980885028839
  0
LINE
  5
FC
330
2
100
AcDbEntity
  8
GAIKEI
  6
Continuous
 62
     1
100
AcDbLine
 10
34.35926165289826
 20
36.41838131990108
 30
0.0
 11
32.97683985289828
 21
36.41838131990108
 31
0.0
  0
LINE
  5
FD
330
2
100
AcDbEntity
  8
GAIKEI
  6
Continuous
 62
     7
100
AcDbLine
 10
34.50399445289827
 20
36.05237791990106
 30
0.0
 11
34.35926165289826
 21
36.41838131990108
 31
0.0
  0
LINE
  5
FE
330
2
100
AcDbEntity
  8
GAIKEI
  6
Continuous
 62
     7
100
AcDbLine
 10
34.50399445289827
 20
36.05237791990106
 30
0.0
 11
34.50399445289827
 21
30.34438231990106
 31
0.0
  0
LINE
  5
FF
330
2
100
AcDbEntity
  8
GAIKEI
  6
Continuous
 62
     1
100
AcDbLine
 10
18.70173005289825
 20
33.19838011990106
 30
0.0
 11
18.25614285289828
 21
33.19838011990106
 31
0.0
  0
LWPOLYLINE
  5
100
330
2
100
AcDbEntity
  8
GAIKEI
  6
Continuous
 62
     1
100
AcDbPolyline
 90
      132
 70
     0
 43
0.0
 10
33.55184585289825
 20
33.19838011990112
 10
33.55111965289825
 20
33.3816809199011
 10
33.54563245289828
 20
33.56485351990114
 10
33.53542745289826
 20
33.74778811990109
 10
33.52055925289827
 20
33.9303809199011
 10
33.50107085289827
 20
34.11253411990112
 10
33.47701065289826
 20
34.29413811990111
 10
33.44842805289827
 20
34.47509511990109
 10
33.41537125289827
 20
34.6553075199011
 10
33.37788965289826
 20
34.83466551990108
 10
33.33603785289827
 20
35.01307131990109
 10
33.28986465289828
 20
35.19042711990107
 10
33.23941925289825
 20
35.36663571990107
 10
33.18476225289825
 20
35.54160511990108
 10
33.12593045289828
 20
35.7152319199011
 10
33.06297865289824
 20
35.88743031990111
 10
32.99596825289828
 20
36.05809691990112
 10
32.92493545289827
 20
36.22713991990111
 10
32.84993545289825
 20
36.39447991990107
 10
32.77101105289825
 20
36.56001331990109
 10
32.68822285289824
 20
36.72365471990111
 10
32.60160185289826
 20
36.88531851990109
 10
32.51120865289826
 20
37.0449071199011
 10
32.41708025289828
 20
37.20234131990111
 10
32.31927145289825
 20
37.35751091990108
 10
32.21783105289825
 20
37.51033691990108
 10
32.11280165289827
 20
37.66072131990109
 10
32.00423245289826
 20
37.80856691990113
 10
31.89217185289826
 20
37.95378771990113
 10
31.77667505289824
 20
38.09628051990109
 10
31.65778465289827
 20
38.23594731990113
 10
31.53554945289827
 20
38.37270251990111
 10
31.41003065289826
 20
38.50644891990112
 10
31.28126485289826
 20
38.63708251990113
 10
31.14931905289828
 20
38.76452391990108
 10
31.01427265289826
 20
38.88872431990109
 10
30.87621725289825
 20
39.00962271990113
 10
30.73523225289824
 20
39.1271703199011
 10
30.59142725289826
 20
39.24131231990111
 10
30.44490005289825
 20
39.35199951990109
 10
30.29574245289828
 20
39.45917711990109
 10
30.14405785289827
 20
39.5627783199011
 10
29.98995625289825
 20
39.66275391990109
 10
29.83353545289825
 20
39.75905511990106
 10
29.67489285289824
 20
39.8516211199011
 10
29.51413845289827
 20
39.9404027199011
 10
29.35136385289823
 20
40.02533931990109
 10
29.18666645289827
 20
40.10638171990109
 10
29.02013205289828
 20
40.18348131990109
 10
28.85185805289825
 20
40.25658931990108
 10
28.68191185289825
 20
40.32566271990112
 10
28.51032365289825
 20
40.39067131990111
 10
28.33711805289826
 20
40.45157231990112
 10
28.16239885289827
 20
40.50831651990108
 10
27.98629425289826
 20
40.56081291990108
 10
27.80897485289827
 20
40.60898791990109
 10
27.63061185289826
 20
40.6527625199011
 10
27.45135765289826
 20
40.6920629199011
 10
27.27134065289826
 20
40.7268651199011
 10
27.09064605289828
 20
40.75714471990107
 10
26.90930445289828
 20
40.78293811990113
 10
26.72738905289825
 20
40.80426991990111
 10
26.54500385289825
 20
40.8211523199011
 10
26.36225245289828
 20
40.8336157199011
 10
26.17923845289823
 20
40.84167851990111
 10
25.99607205289826
 20
40.8453467199011
 10
25.81285065289825
 20
40.84465091990108
 10
25.62968405289826
 20
40.83961551990109
 10
25.44667005289824
 20
40.83024651990109
 10
25.26391865289827
 20
40.81657471990109
 10
25.08152725289827
 20
40.79860591990109
 10
24.89959985289826
 20
40.77637691990111
 10
24.71824005289827
 20
40.74990591990109
 10
24.53755145289824
 20
40.71919911990107
 10
24.35763205289826
 20
40.68428711990111
 10
24.17857925289826
 20
40.6451879199011
 10
24.00050325289825
 20
40.6019141199011
 10
23.82350125289827
 20
40.55449571990107
 10
23.64767105289826
 20
40.50293951990113
 10
23.47311065289827
 20
40.44727531990111
 10
23.29990505289825
 20
40.38750371990113
 10
23.12809105289824
 20
40.32362431990111
 10
22.95771745289826
 20
40.2556189199011
 10
22.78886985289827
 20
40.18349371990109
 10
22.62168245289826
 20
40.10727911990108
 10
22.45629545289824
 20
40.02699331990107
 10
22.29288605289824
 20
39.94267931990112
 10
22.13161285289826
 20
39.85439211990109
 10
21.97264665289825
 20
39.76216791990112
 10
21.81612825289824
 20
39.66607411990111
 10
21.66217925289826
 20
39.56615971990107
 10
21.51089125289826
 20
39.46247911990111
 10
21.36230125289825
 20
39.35508791990111
 10
21.21642105289826
 20
39.24404051990109
 10
21.07326925289826
 20
39.12940431990108
 10
20.93291285289826
 20
39.01128911990111
 10
20.79541285289827
 20
38.88976811990108
 10
20.66083025289825
 20
38.76495111990107
 10
20.52922025289825
 20
38.63692991990109
 10
20.40064965289827
 20
38.5057837199011
 10
20.27517365289825
 20
38.37162231990112
 10
20.15285305289825
 20
38.2345251199011
 10
20.03374285289826
 20
38.0945837199011
 10
19.91791045289824
 20
37.9518895199011
 10
19.80541645289824
 20
37.80654051990109
 10
19.69631605289825
 20
37.6586157199011
 10
19.59066425289825
 20
37.50820071990109
 10
19.48853425289826
 20
37.35539311990113
 10
19.38997465289824
 20
37.20027831990109
 10
19.29505265289825
 20
37.04294191990113
 10
19.20382965289826
 20
36.88346911990112
 10
19.11636305289824
 20
36.7219457199011
 10
19.03271445289826
 20
36.55845691990112
 10
18.95294465289825
 20
36.39308231990111
 10
18.87712065289827
 20
36.22591311990112
 10
18.80530365289826
 20
36.0570287199011
 10
18.73755765289826
 20
35.88651491990112
 10
18.67395285289825
 20
35.71446291990111
 10
18.61455345289823
 20
35.54096431990109
 10
18.55942645289826
 20
35.36610471990111
 10
18.50864525289825
 20
35.1899939199011
 10
18.46227685289824
 20
35.01271731990107
 10
18.42039145289823
 20
34.83437251990108
 10
18.38305325289826
 20
34.65506351990109
 10
18.35033525289825
 20
34.47488771990112
 10
18.32230185289825
 20
34.29395511990112
 10
18.29902305289823
 20
34.11236331990108
 10
18.28055985289825
 20
33.93022831990112
 10
18.26697965289824
 20
33.74765371990111
 10
18.25834305289825
 20
33.56474371990112
 10
18.25471145289825
 20
33.38161371990111
 10
18.25614285289825
 20
33.19838011990112
  0
LINE
  5
101
330
2
100
AcDbEntity
  8
GAIKEI
  6
Continuous
 62
     1
100
AcDbLine
 10
33.55184585289825
 20
33.19838011990106
 30
0.0
 11
33.10625885289827
 21
33.19838011990106
 31
0.0
  0
ARC
  5
102
330
2
100
AcDbEntity
  8
GAIKEI
  6
Continuous
 62
     1
100
AcDbCircle
 10
27.13000745289827
 20
33.19838011990106
 30
0.0
 40
9.572010799999999
100
AcDbArc
 50
180.0000089999995
 51
187.6848049999993
  0
ARC
  5
103
330
2
100
AcDbEntity
  8
GAIKEI
  6
Continuous
 62
     1
100
AcDbCircle
 10
27.12999525289826
 20
33.19838011990106
 30
0.0
 40
9.572000200000001
100
AcDbArc
 50
172.3151950000006
 51
180.0000050000005
  0
ELLIPSE
  5
104
330
2
100
AcDbEntity
  8
GAIKEI
  6
Continuous
 62
     1
100
AcDbEllipse
 10
22.61051905289827
 20
23.07843991990109
 30
0.0
 11
0.01915283203125
 21
-0.172296142578125
 31
0.0
210
0.0
220
0.0
230
1.0
 40
0.7211
 41
4.633162021636962
 42
5.453343868255615
  0
LINE
  5
105
330
2
100
AcDbEntity
  8
GAIKEI
  6
Continuous
 62
     1
100
AcDbLine
 10
22.28369271237312
 20
27.51828922432043
 30
0.0
 11
22.38092925289826
 21
27.51827751990106
 31
0.0
  0
LINE
  5
106
330
2
100
AcDbEntity
  8
GAIKEI
  6
Continuous
 62
     1
100
AcDbLine
 10
22.32991605289825
 20
23.17192751990109
 30
0.0
 11
22.38321185289826
 21
23.1731481199011
 31
0.0
  0
LINE
  5
107
330
2
100
AcDbEntity
  8
GAIKEI
  6
Continuous
 62
     1
100
AcDbLine
 10
22.45506245289826
 20
22.81429811990108
 30
0.0
 11
22.53180205289826
 21
22.95199951990105
 31
0.0
  0
LWPOLYLINE
  5
108
330
2
100
AcDbEntity
  8
GAIKEI
  6
Continuous
 62
     1
100
AcDbPolyline
 90
        3
 70
     0
 43
0.0
 10
22.71229505289827
 20
22.97464971990109
 10
22.60568505289825
 20
22.96374271990112
 10
22.53177765289826
 20
22.95195071990111
  0
LWPOLYLINE
  5
109
330
2
100
AcDbEntity
  8
GAIKEI
  6
Continuous
 62
     1
100
AcDbPolyline
 90
        9
 70
     0
 43
0.0
 10
27.65254785289827
 20
23.0874303199011
 10
27.07359885289824
 20
23.11332751990108
 10
26.46769685289826
 20
23.12953251990109
 10
25.84881865289825
 20
23.13456791990109
 10
25.23134425289825
 20
23.1275427199011
 10
24.62958025289825
 20
23.10937251990111
 10
24.05700945289826
 20
23.08154651990111
 10
23.39858665289828
 20
23.03633791990109
 10
22.71229505289827
 20
22.97464971990109
  0
LWPOLYLINE
  5
10A
330
2
100
AcDbEntity
  8
GAIKEI
  6
Continuous
 62
     1
100
AcDbPolyline
 90
        6
 70
     0
 43
0.0
 10
29.27620505289826
 20
22.95318971990111
 10
29.20857205289826
 20
22.96404791990108
 10
29.06423605289825
 20
22.97876951990111
 10
28.58303485289824
 20
23.02280631990107
 10
27.94718885289825
 20
23.06997431990112
 10
27.65254785289827
 20
23.0874303199011
  0
ELLIPSE
  5
10B
330
2
100
AcDbEntity
  8
GAIKEI
  6
Continuous
 62
     1
100
AcDbEllipse
 10
29.19754285289826
 20
23.07945311990113
 30
0.0
 11
-0.0191162109375001
 21
-0.171929931640625
 31
0.0
210
0.0
220
0.0
230
1.0
 40
0.721991
 41
0.8302415609359741
 42
1.650443911552429
  0
LINE
  5
10C
330
2
100
AcDbEntity
  8
GAIKEI
  6
Continuous
 62
     1
100
AcDbLine
 10
22.38308985289825
 20
23.1731481199011
 30
0.0
 11
22.38088645289827
 21
27.51827751990106
 31
0.0
  0
LWPOLYLINE
  5
10D
330
2
100
AcDbEntity
  8
GAIKEI
  6
Continuous
 62
     1
100
AcDbPolyline
 90
        6
 70
     0
 43
0.0
 10
29.42599145289825
 20
23.17419191990109
 10
29.42131005289823
 20
23.15452031990111
 10
29.40245625289825
 20
23.1236975199011
 10
29.36947285289824
 20
23.0966833199011
 10
29.33268085289825
 20
23.08163211990109
 10
29.32319605289825
 20
23.07949571990111
  0
LWPOLYLINE
  5
10E
330
2
100
AcDbEntity
  8
GAIKEI
  6
Continuous
 62
     1
100
AcDbPolyline
 90
        6
 70
     0
 43
0.0
 10
29.32317765289827
 20
23.07937371990113
 10
29.24767105289826
 20
23.08197991990107
 10
29.17009545289824
 20
23.0895789199011
 10
28.62184105289825
 20
23.14104971990111
 10
27.97715105289825
 20
23.18899891990111
 10
27.67840845289825
 20
23.20646111990112
  0
LWPOLYLINE
  5
10F
330
2
100
AcDbEntity
  8
GAIKEI
  6
Continuous
 62
     1
100
AcDbPolyline
 90
        9
 70
     0
 43
0.0
 10
27.67840845289825
 20
23.20646111990112
 10
27.08234525289825
 20
23.23263911990108
 10
26.46272845289826
 20
23.24853271990111
 10
25.75343285289827
 20
23.25286011990113
 10
25.17116365289826
 20
23.24509631990111
 10
24.54828145289824
 20
23.22563831990112
 10
23.95129665289827
 20
23.1957129199011
 10
23.28506745289826
 20
23.14838011990111
 10
22.67005885289825
 20
23.09176991990108
  0
LWPOLYLINE
  5
110
330
2
100
AcDbEntity
  8
GAIKEI
  6
Continuous
 62
     1
100
AcDbPolyline
 90
        3
 70
     0
 43
0.0
 10
22.67005885289825
 20
23.09176991990108
 10
22.56274685289824
 20
23.08090571990113
 10
22.48479265289825
 20
23.07830571990109
  0
LWPOLYLINE
  5
111
330
2
100
AcDbEntity
  8
GAIKEI
  6
Continuous
 62
     1
100
AcDbPolyline
 90
        5
 70
     0
 43
0.0
 10
22.48478665289827
 20
23.0784033199011
 10
22.44217805289824
 20
23.09358891990109
 10
22.40895045289827
 20
23.11954711990109
 10
22.39005385289826
 20
23.14729971990107
 10
22.38318745289825
 20
23.1690405199011
  0
LINE
  5
112
330
2
100
AcDbEntity
  8
GAIKEI
  6
Continuous
 62
     1
100
AcDbLine
 10
22.38318745289825
 20
23.16904051990105
 30
0.0
 11
22.38305925289825
 21
23.1731481199011
 31
0.0
  0
LINE
  5
113
330
2
100
AcDbEntity
  8
GAIKEI
  6
Continuous
 62
     1
100
AcDbLine
 10
22.38091085289827
 20
27.51827751990106
 30
0.0
 11
22.38100245289826
 21
27.54285631990109
 31
0.0
  0
LINE
  5
114
330
2
100
AcDbEntity
  8
GAIKEI
  6
Continuous
 62
     1
100
AcDbLine
 10
22.38091705289827
 20
27.51830811990107
 30
0.0
 11
29.52369498182887
 21
27.51947764040238
 31
0.0
  0
LWPOLYLINE
  5
115
330
2
100
AcDbEntity
  8
GAIKEI
  6
Continuous
 62
     1
100
AcDbPolyline
 90
       24
 70
     0
 43
0.0
 10
27.30198625289828
 20
30.75600331990108
 10
27.40933485289827
 20
30.70807251990107
 10
27.61651885289825
 20
30.60264031990107
 10
27.81319245289825
 20
30.48547111990109
 10
28.00092425289827
 20
30.35630851990112
 10
28.18122205289825
 20
30.2141089199011
 10
28.35340845289824
 20
30.05900631990107
 10
28.51491965289827
 20
29.89306391990112
 10
28.66471825289827
 20
29.71750231990109
 10
28.80246245289825
 20
29.53288931990107
 10
28.92792625289826
 20
29.33947511990107
 10
29.04075585289823
 20
29.13748531990109
 10
29.14031025289828
 20
28.92746951990108
 10
29.22611965289823
 20
28.70947011990109
 10
29.26388205289825
 20
28.5969945199011
 10
29.29802505289826
 20
28.48241931990111
 10
29.32834745289827
 20
28.3662207199011
 10
29.35467805289827
 20
28.24898431990113
 10
29.37690085289828
 20
28.1312903199011
 10
29.39497345289826
 20
28.01363271990112
 10
29.40891985289827
 20
27.89624991990109
 10
29.41881365289828
 20
27.77901371990112
 10
29.42467925289824
 20
27.66159411990111
 10
29.42686358646938
 20
27.51946178574428
  0
LWPOLYLINE
  5
116
330
2
100
AcDbEntity
  8
GAIKEI
  6
Continuous
 62
     1
100
AcDbPolyline
 90
        9
 70
     0
 43
0.0
 10
25.90316425289825
 20
31.03944451990111
 10
26.10867585289824
 20
31.03351191990112
 10
26.33902245289827
 20
31.01296751990111
 10
26.49942285289825
 20
30.98992671990107
 10
26.66545065289827
 20
30.95821291990109
 10
26.82907985289825
 20
30.91877191990113
 10
26.98905905289826
 20
30.87207391990109
 10
27.14618185289825
 20
30.81802731990109
 10
27.30198625289828
 20
30.75600331990108
  0
ARC
  5
117
330
2
100
AcDbEntity
  8
GAIKEI
  6
Continuous
 62
     1
100
AcDbCircle
 10
25.90531885289824
 20
27.40829211990109
 30
0.0
 40
3.6311618
100
AcDbArc
 50
90.03398300000029
 51
94.03656300000042
  0
ARC
  5
118
330
2
100
AcDbEntity
  8
GAIKEI
  6
Continuous
 62
     1
100
AcDbCircle
 10
25.90324365289826
 20
27.39563951990107
 30
0.0
 40
3.6436238
100
AcDbArc
 50
93.99003500000116
 51
100.9260720000001
  0
ARC
  5
119
330
2
100
AcDbEntity
  8
GAIKEI
  6
Continuous
 62
     1
100
AcDbCircle
 10
25.86791045289826
 20
27.5798865199011
 30
0.0
 40
3.455968
100
AcDbArc
 50
100.9298280000003
 51
112.4413190000013
  0
LWPOLYLINE
  5
11A
330
2
100
AcDbEntity
  8
GAIKEI
  6
Continuous
 62
     1
100
AcDbPolyline
 90
       25
 70
     0
 43
0.0
 10
22.38088045289825
 20
27.54285631990109
 10
22.38266865289828
 20
27.6613683199011
 10
22.38857085289826
 20
27.78022211990111
 10
22.39862325289826
 20
27.89935051990108
 10
22.41283225289826
 20
28.01838751990113
 10
22.43116105289826
 20
28.13683231990109
 10
22.45350605289826
 20
28.2541723199011
 10
22.47974505289827
 20
28.37003531990109
 10
22.50978045289824
 20
28.48432371990111
 10
22.54366105289824
 20
28.59742191990108
 10
22.58170425289825
 20
28.71028811990112
 10
22.62401385289826
 20
28.82291631990108
 10
22.67035185289825
 20
28.93437871990114
 10
22.72022365289826
 20
29.0435217199011
 10
22.82892105289827
 20
29.25261591990107
 10
22.95028345289825
 20
29.4521825199011
 10
23.08435945289827
 20
29.64286251990109
 10
23.23064225289826
 20
29.8240027199011
 10
23.38871125289825
 20
29.99507191990108
 10
23.55817525289825
 20
30.15550891990108
 10
23.73845485289826
 20
30.30469731990109
 10
23.92845125289827
 20
30.44169671990108
 10
24.12666285289825
 20
30.56555531990108
 10
24.33326685289825
 20
30.67638911990111
 10
24.54864765289827
 20
30.77410631990108
  0
LINE
  5
11B
330
2
100
AcDbEntity
  8
GAIKEI
  6
Continuous
 62
     1
100
AcDbLine
 10
22.28445085289826
 20
23.05838991990106
 30
0.0
 11
22.32991605289825
 21
23.17192131990106
 31
0.0
  0
LINE
  5
11C
330
2
100
AcDbEntity
  8
GAIKEI
  6
Continuous
 62
     1
100
AcDbLine
 10
22.28387725289826
 20
26.43468991990108
 30
0.0
 11
22.26399185289825
 21
26.43468371990105
 31
0.0
  0
LWPOLYLINE
  5
11D
330
2
100
AcDbEntity
  8
GAIKEI
  6
Continuous
 62
     1
100
AcDbPolyline
 90
        8
 70
     0
 43
0.0
 10
22.45506245289826
 20
22.81429811990108
 10
22.41156265289825
 20
22.83465331990112
 10
22.37263445289827
 20
22.86338871990108
 10
22.33931545289826
 20
22.89921011990111
 10
22.31263685289824
 20
22.94119631990111
 10
22.29392965289824
 20
22.98855951990112
 10
22.28493925289825
 20
23.04036611990108
 10
22.28445085289826
 20
23.05838991990112
  0
ARC
  5
11E
330
2
100
AcDbEntity
  8
GAIKEI
  6
Continuous
 62
     1
100
AcDbCircle
 10
25.90487945289826
 20
32.50650991990108
 30
0.0
 40
10.2878678
100
AcDbArc
 50
250.4074830000002
 51
261.2613160000009
  0
ARC
  5
11F
330
2
100
AcDbEntity
  8
GAIKEI
  6
Continuous
 62
     1
100
AcDbCircle
 10
25.90290785289827
 20
32.50094971990109
 30
0.0
 40
10.2820672
100
AcDbArc
 50
261.267478
 51
266.2604209999987
  0
ARC
  5
120
330
2
100
AcDbEntity
  8
GAIKEI
  6
Continuous
 62
     1
100
AcDbCircle
 10
25.90305445289829
 20
32.49870351990109
 30
0.0
 40
10.279834
100
AcDbArc
 50
266.2587890000007
 51
270.5103699999982
  0
ARC
  5
121
330
2
100
AcDbEntity
  8
GAIKEI
  6
Continuous
 62
     1
100
AcDbCircle
 10
25.90239525289826
 20
32.50367191990108
 30
0.0
 40
10.2848114
100
AcDbArc
 50
270.5137640000013
 51
280.3316969999999
  0
ARC
  5
122
330
2
100
AcDbEntity
  8
GAIKEI
  6
Continuous
 62
     1
100
AcDbCircle
 10
25.90129665289826
 20
32.50439211990107
 30
0.0
 40
10.2857216
100
AcDbArc
 50
280.3369969999984
 51
288.9049440000005
  0
LINE
  5
123
330
2
100
AcDbEntity
  8
GAIKEI
  6
Continuous
 62
     1
100
AcDbLine
 10
29.23386505289827
 20
22.77350831990105
 30
0.0
 11
29.35165665289827
 21
22.8146521199011
 31
0.0
  0
LINE
  5
124
330
2
100
AcDbEntity
  8
GAIKEI
  6
Continuous
 62
     1
100
AcDbLine
 10
29.35165665289827
 20
22.81464591990107
 30
0.0
 11
29.27616225289824
 21
22.95327511990109
 31
0.0
  0
LINE
  5
125
330
2
100
AcDbEntity
  8
GAIKEI
  6
Continuous
 62
     1
100
AcDbLine
 10
29.42580825289827
 20
23.17419191990109
 30
0.0
 11
29.47909805289825
 21
23.17425291990105
 31
0.0
  0
LWPOLYLINE
  5
126
330
2
100
AcDbEntity
  8
GAIKEI
  6
Continuous
 62
     1
100
AcDbPolyline
 90
        6
 70
     0
 43
0.0
 10
29.42650405289828
 20
27.51946171990108
 10
29.42618665289825
 20
25.14369251990109
 10
29.42601585289825
 20
24.48638051990111
 10
29.42582665289825
 20
23.8278479199011
 10
29.42469745289827
 20
23.39206911990107
 10
29.42597305289826
 20
23.17419191990109
  0
LINE
  5
127
330
2
100
AcDbEntity
  8
GAIKEI
  6
Continuous
 62
     1
100
AcDbLine
 10
22.28367585289825
 20
27.61825931990109
 30
0.0
 11
22.28444485289827
 21
23.05838991990106
 31
0.0
  0
ARC
  5
128
330
2
100
AcDbEntity
  8
GAIKEI
  6
Continuous
 62
     1
100
AcDbCircle
 10
29.26454125289826
 20
23.05953111990107
 30
0.0
 40
0.2598918
100
AcDbArc
 50
289.5821569999998
 51
0.0168409999992501
  0
LINE
  5
129
330
2
100
AcDbEntity
  8
GAIKEI
  6
Continuous
 62
     1
100
AcDbLine
 10
29.47909805289825
 20
23.17425291990105
 30
0.0
 11
29.52443505289824
 21
23.05961051990107
 31
0.0
  0
LWPOLYLINE
  5
12A
330
2
100
AcDbEntity
  8
GAIKEI
  6
Continuous
 62
     1
100
AcDbPolyline
 90
       11
 70
     0
 43
0.0
 10
29.52358045289825
 20
27.61943731990113
 10
29.51774565289827
 20
27.82288571990108
 10
29.50059465289826
 20
28.0256139199011
 10
29.47220725289824
 20
28.22688351990109
 10
29.43267485289826
 20
28.42597411990107
 10
29.38218645289826
 20
28.62215931990113
 10
29.32096205289827
 20
28.8147009199011
 10
29.24924585289827
 20
29.00287231990109
 10
29.16731225289826
 20
29.18607531990108
 10
29.07551545289826
 20
29.36392571990109
 10
29.02602805289826
 20
29.45072991990111
  0
LWPOLYLINE
  5
12B
330
2
100
AcDbEntity
  8
GAIKEI
  6
Continuous
 62
     1
100
AcDbPolyline
 90
       19
 70
     0
 43
0.0
 10
29.02602205289827
 20
29.45073611990108
 10
28.92766385289827
 20
29.6084325199011
 10
28.82150545289827
 20
29.76070311990111
 10
28.70782745289825
 20
29.90723631990113
 10
28.58692885289824
 20
30.04773311990112
 10
28.45909685289825
 20
30.18189451990111
 10
28.32461805289828
 20
30.30940911990109
 10
28.18378565289825
 20
30.42999011990111
 10
28.03688005289828
 20
30.54333251990113
 10
27.88419465289826
 20
30.64911871990108
 10
27.72602205289826
 20
30.7470679199011
 10
27.56264925289824
 20
30.83686271990109
 10
27.39436305289826
 20
30.91821031990111
 10
27.22148705289825
 20
30.99081791990108
 10
27.04452165289826
 20
31.05448971990109
 10
26.86404685289827
 20
31.10904291990107
 10
26.68063005289827
 20
31.1543127199011
 10
26.49483905289824
 20
31.1901221199011
 10
26.40122945289827
 20
31.2044287199011
  0
ARC
  5
12C
330
2
100
AcDbEntity
  8
GAIKEI
  6
Continuous
 62
     1
100
AcDbCircle
 10
25.90360985289826
 20
27.6363927199011
 30
0.0
 40
3.602651199999999
100
AcDbArc
 50
82.06035799999931
 51
104.5543369999983
  0
ARC
  5
12D
330
2
100
AcDbEntity
  8
GAIKEI
  6
Continuous
 62
     1
100
AcDbCircle
 10
25.90379905289825
 20
27.61852171990109
 30
0.0
 40
3.620324999999999
100
AcDbArc
 50
104.4861920000014
 51
148.1366940000005
  0
ARC
  5
12E
330
2
100
AcDbEntity
  8
GAIKEI
  6
Continuous
 62
     1
100
AcDbCircle
 10
25.91146505289825
 20
27.61675171990106
 30
0.0
 40
3.627940399999999
100
AcDbArc
 50
148.1768690000013
 51
179.9762219999998
  0
LINE
  5
12F
330
2
100
AcDbEntity
  8
GAIKEI
  6
Continuous
 62
     1
100
AcDbLine
 10
29.52444105289826
 20
23.05961051990107
 30
0.0
 11
29.52367825289826
 21
27.6194799199011
 31
0.0
  0
ARC
  5
130
330
2
100
AcDbEntity
  8
GAIKEI
  6
Continuous
 62
     7
100
AcDbCircle
 10
18.33834805289825
 20
25.96371211990106
 30
0.0
 40
0.0599998
100
AcDbArc
 50
119.9204990000014
 51
180.0001959999998
  0
ARC
  5
131
330
2
100
AcDbEntity
  8
GAIKEI
  6
Continuous
 62
     7
100
AcDbCircle
 10
33.46968045289827
 20
21.55836551990109
 30
0.0
 40
0.059956
100
AcDbArc
 50
314.9793169999987
 51
0.0121320000001073
  0
ARC
  5
132
330
2
100
AcDbEntity
  8
GAIKEI
  6
Continuous
 62
     1
100
AcDbCircle
 10
25.90399445289828
 20
33.19838011990106
 30
0.0
 40
7.202262199999999
100
AcDbArc
 50
0.0
 51
90.00000300000095
  0
ARC
  5
133
330
2
100
AcDbEntity
  8
GAIKEI
  6
Continuous
 62
     1
100
AcDbCircle
 10
25.90399445289828
 20
33.19838011990106
 30
0.0
 40
7.202262199999999
100
AcDbArc
 50
90.00000300000095
 51
180.0000050000005
  0
LWPOLYLINE
  5
134
330
2
100
AcDbEntity
  8
GAIKEI
  6
Continuous
 62
     7
100
AcDbPolyline
 90
        8
 70
     0
 43
0.0
 10
18.70173305289825
 20
27.19961911990111
 10
18.69447285289826
 20
26.90614371990108
 10
18.67641265289825
 20
26.65595451990112
 10
18.65215725289823
 20
26.4569373199011
 10
18.62659265289824
 20
26.31596431990113
 10
18.60325285289826
 20
26.2272559199011
 10
18.57875147962605
 20
26.1712921974277
 10
18.30841945289825
 20
26.01572011990112
  0
LINE
  5
135
330
2
100
AcDbEntity
  8
GAIKEI
  6
Continuous
 62
     7
100
AcDbLine
 10
18.70173305289825
 20
27.19961911990106
 30
0.0
 11
18.70173305289825
 21
29.28041018112265
 31
0.0
  0
LINE
  5
136
330
2
100
AcDbEntity
  8
GAIKEI
  6
Continuous
 62
     1
100
AcDbLine
 10
33.10518465289826
 20
33.19838011990106
 30
0.0
 11
33.10625885289827
 21
33.19838011990106
 31
0.0
  0
ARC
  5
137
330
2
100
AcDbEntity
  8
GAIKEI
  6
Continuous
 62
     7
100
AcDbCircle
 10
33.46961945289826
 20
21.55840211990108
 30
0.0
 40
0.0600254
100
AcDbArc
 50
270.023738999999
 51
359.9802459999994
  0
ARC
  5
138
330
2
100
AcDbEntity
  8
GAIKEI
  6
Continuous
 62
     7
100
AcDbCircle
 10
18.33834805289825
 20
25.96371211990106
 30
0.0
 40
0.0599998
100
AcDbArc
 50
119.9204990000014
 51
180.0001959999998
  0
LINE
  5
139
330
2
100
AcDbEntity
  8
GAIKEI
  6
Continuous
 62
     7
100
AcDbLine
 10
18.70173305289825
 20
27.19961911990106
 30
0.0
 11
18.70280425289826
 21
27.19961911990106
 31
0.0
  0
LINE
  5
13A
330
2
100
AcDbEntity
  8
GAIKEI
  6
Continuous
 62
     1
100
AcDbLine
 10
18.70173305289825
 20
33.19838011990106
 30
0.0
 11
18.70280425289826
 21
33.19838011990106
 31
0.0
  0
LINE
  5
13B
330
2
100
AcDbEntity
  8
GAIKEI
  6
Continuous
 62
     7
100
AcDbLine
 10
18.33834805289825
 20
21.49838011990107
 30
0.0
 11
33.46964385289826
 21
21.49838011990107
 31
0.0
  0
ARC
  5
13C
330
2
100
AcDbEntity
  8
GAIKEI
  6
Continuous
 62
     7
100
AcDbCircle
 10
18.33836945289826
 20
21.55840211990108
 30
0.0
 40
0.0600254
100
AcDbArc
 50
180.0235859999992
 51
269.9801009999989
  0
ARC
  5
13D
330
2
100
AcDbEntity
  8
GAIKEI
  6
Continuous
 62
     1
100
AcDbCircle
 10
25.90399445289828
 20
33.19838011990106
 30
0.0
 40
7.2011902
100
AcDbArc
 50
0.0
 51
180.0000050000005
  0
LINE
  5
13E
330
2
100
AcDbEntity
  8
GAIKEI
  6
Continuous
 62
     1
100
AcDbLine
 10
33.03979765289824
 20
33.19838011990106
 30
0.0
 11
33.10518465289826
 21
33.19838011990106
 31
0.0
  0
LINE
  5
13F
330
2
100
AcDbEntity
  8
GAIKEI
  6
Continuous
 62
     7
100
AcDbLine
 10
33.10518465289826
 20
27.19961911990106
 30
0.0
 11
33.10518465289826
 21
29.37837891990108
 31
0.0
  0
LWPOLYLINE
  5
140
330
2
100
AcDbEntity
  8
GAIKEI
  6
Continuous
 62
     7
100
AcDbPolyline
 90
       10
 70
     0
 43
0.0
 10
33.25398225289826
 20
26.12195191990111
 10
33.24397245289825
 20
26.13050291990112
 10
33.23393205289827
 20
26.14456531990112
 10
33.21404685289826
 20
26.18794911990108
 10
33.19484525289826
 20
26.2496129199011
 10
33.16831325289826
 20
26.37116451990107
 10
33.14544325289825
 20
26.52027331990109
 10
33.12210965289825
 20
26.7499853199011
 10
33.10839505289826
 20
27.00273791990111
 10
33.10518465289826
 20
27.19961911990111
  0
LINE
  5
141
330
2
100
AcDbEntity
  8
GAIKEI
  6
Continuous
 62
     7
100
AcDbLine
 10
33.25398225289826
 20
26.12195191990105
 30
0.0
 11
33.52964125289827
 21
25.96371211990106
 31
0.0
  0
LINE
  5
142
330
2
100
AcDbEntity
  8
GAIKEI
  6
Continuous
 62
     7
100
AcDbLine
 10
33.52964125289827
 20
21.5583777199011
 30
0.0
 11
33.52964125289827
 21
25.96371211990106
 31
0.0
  0
LINE
  5
143
330
2
100
AcDbEntity
  8
GAIKEI
  6
Continuous
 62
     7
100
AcDbLine
 10
18.27834745289826
 20
25.96371211990106
 30
0.0
 11
18.27834745289826
 21
21.5583777199011
 31
0.0
  0
LINE
  5
144
330
2
100
AcDbEntity
  8
GAIKEI
  6
Continuous
 62
     1
100
AcDbLine
 10
18.70280425289826
 20
33.19838011990106
 30
0.0
 11
18.76819425289827
 21
33.19838011990106
 31
0.0
  0
ARC
  5
145
330
2
100
AcDbEntity
  8
GAIKEI
  6
Continuous
 62
     1
100
AcDbCircle
 10
25.90399445289828
 20
33.19838011990106
 30
0.0
 40
7.135816199999999
100
AcDbArc
 50
359.999993
 51
180.0000319999993
  0
LINE
  5
146
330
2
100
AcDbEntity
  8
GAIKEI
  6
Continuous
 62
     1
100
AcDbLine
 10
33.03979765289824
 20
21.49838011990107
 30
0.0
 11
33.03979765289824
 21
33.19838011990106
 31
0.0
  0
LINE
  5
147
330
2
100
AcDbEntity
  8
GAIKEI
  6
Continuous
 62
     1
100
AcDbLine
 10
29.57843285289829
 20
27.61838131990106
 30
0.0
 11
29.57843285289829
 21
22.98823611990105
 31
0.0
  0
ARC
  5
148
330
2
100
AcDbEntity
  8
GAIKEI
  6
Continuous
 62
     1
100
AcDbCircle
 10
25.81532245289827
 20
27.61851551990105
 30
0.0
 40
3.7631112
100
AcDbArc
 50
359.9979190000005
 51
11.85426999999938
  0
ARC
  5
149
330
2
100
AcDbEntity
  8
GAIKEI
  6
Continuous
 62
     1
100
AcDbCircle
 10
25.84660905289826
 20
27.62837271990105
 30
0.0
 40
3.7303196
100
AcDbArc
 50
11.80485399999974
 51
43.90741600000085
  0
ARC
  5
14A
330
2
100
AcDbEntity
  8
GAIKEI
  6
Continuous
 62
     1
100
AcDbCircle
 10
25.89338045289827
 20
27.67173831990107
 30
0.0
 40
3.6663108
100
AcDbArc
 50
43.92602500000164
 51
72.13854599999911
  0
ARC
  5
14B
330
2
100
AcDbEntity
  8
GAIKEI
  6
Continuous
 62
     1
100
AcDbCircle
 10
25.90348785289825
 20
27.69655511990106
 30
0.0
 40
3.639505399999999
100
AcDbArc
 50
72.17018299999994
 51
85.63503399999826
  0
ARC
  5
14C
330
2
100
AcDbEntity
  8
GAIKEI
  6
Continuous
 62
     1
100
AcDbCircle
 10
25.90400665289826
 20
27.70068111990105
 30
0.0
 40
3.635345
100
AcDbArc
 50
85.63823700000005
 51
90.00020099999872
  0
ARC
  5
14D
330
2
100
AcDbEntity
  8
GAIKEI
  6
Continuous
 62
     1
100
AcDbCircle
 10
29.35881605289825
 20
22.98819331990109
 30
0.0
 40
0.2196154
100
AcDbArc
 50
291.2665839999989
 51
0.0108479999994128
  0
LINE
  5
14E
330
2
100
AcDbEntity
  8
GAIKEI
  6
Continuous
 62
     1
100
AcDbLine
 10
18.76819425289827
 20
21.49838011990107
 30
0.0
 11
18.76819425289827
 21
33.19838011990106
 31
0.0
  0
ARC
  5
14F
330
2
100
AcDbEntity
  8
GAIKEI
  6
Continuous
 62
     1
100
AcDbCircle
 10
25.90401885289825
 20
27.69995471990109
 30
0.0
 40
3.6360734
100
AcDbArc
 50
90.00042599999858
 51
98.37065200000111
  0
ARC
  5
150
330
2
100
AcDbEntity
  8
GAIKEI
  6
Continuous
 62
     1
100
AcDbCircle
 10
25.90728425289825
 20
27.68643551990107
 30
0.0
 40
3.6499706
100
AcDbArc
 50
98.39045900000105
 51
124.4187000000005
  0
ARC
  5
151
330
2
100
AcDbEntity
  8
GAIKEI
  6
Continuous
 62
     1
100
AcDbCircle
 10
25.94178725289825
 20
27.64100711990108
 30
0.0
 40
3.7071908
100
AcDbArc
 50
124.4616879999993
 51
158.6495030000007
  0
ARC
  5
152
330
2
100
AcDbEntity
  8
GAIKEI
  6
Continuous
 62
     1
100
AcDbCircle
 10
25.98842425289826
 20
27.61900991990109
 30
0.0
 40
3.7588498
100
AcDbArc
 50
158.5960489999995
 51
180.009622
  0
LINE
  5
153
330
2
100
AcDbEntity
  8
GAIKEI
  6
Continuous
 62
     1
100
AcDbLine
 10
22.22955585289827
 20
22.98823611990105
 30
0.0
 11
22.22955585289827
 21
27.61838131990106
 31
0.0
  0
ARC
  5
154
330
2
100
AcDbEntity
  8
GAIKEI
  6
Continuous
 62
     1
100
AcDbCircle
 10
25.90775405289827
 20
31.86194211990108
 30
0.0
 40
9.740811200000001
100
AcDbArc
 50
281.7696629999988
 51
291.2517560000003
  0
ARC
  5
155
330
2
100
AcDbEntity
  8
GAIKEI
  6
Continuous
 62
     1
100
AcDbCircle
 10
25.90426285289828
 20
31.87758531990108
 30
0.0
 40
9.756846600000001
100
AcDbArc
 50
272.4441469999991
 51
281.7709739999999
  0
ARC
  5
156
330
2
100
AcDbEntity
  8
GAIKEI
  6
Continuous
 62
     1
100
AcDbCircle
 10
25.90398225289826
 20
31.88127191990105
 30
0.0
 40
9.760540800000001
100
AcDbArc
 50
270.0000729999982
 51
272.4448769999995
  0
ARC
  5
157
330
2
100
AcDbEntity
  8
GAIKEI
  6
Continuous
 62
     1
100
AcDbCircle
 10
25.90393945289827
 20
31.87967291990105
 30
0.0
 40
9.758941599999999
100
AcDbArc
 50
261.5810169999991
 51
270.0003390000002
  0
ARC
  5
158
330
2
100
AcDbEntity
  8
GAIKEI
  6
Continuous
 62
     1
100
AcDbCircle
 10
25.90130265289827
 20
31.86543331990106
 30
0.0
 40
9.744461000000001
100
AcDbArc
 50
248.7498510000001
 51
261.5840839999997
  0
ARC
  5
159
330
2
100
AcDbEntity
  8
GAIKEI
  6
Continuous
 62
     1
100
AcDbCircle
 10
22.44917265289826
 20
22.98819331990109
 30
0.0
 40
0.2196152
100
AcDbArc
 50
179.989131
 51
248.7334680000003
  0
LINE
  5
15A
330
2
100
AcDbEntity
  8
GAIKEI
  6
Continuous
 62
     1
100
AcDbLine
 10
16.62399565289826
 20
13.29838011990108
 30
0.0
 11
15.62399565289826
 21
13.29838011990108
 31
0.0
  0
LINE
  5
15B
330
2
100
AcDbEntity
  8
GAIKEI
  6
Continuous
 62
     1
100
AcDbLine
 10
16.62399565289826
 20
13.49837711990108
 30
0.0
 11
16.62399565289826
 21
13.29838011990108
 31
0.0
  0
LINE
  5
15C
330
2
100
AcDbEntity
  8
GAIKEI
  6
Continuous
 62
     1
100
AcDbLine
 10
15.62399565289826
 20
13.49837711990108
 30
0.0
 11
15.62399565289826
 21
13.29838011990108
 31
0.0
  0
LINE
  5
15D
330
2
100
AcDbEntity
  8
GAIKEI
  6
Continuous
 62
     1
100
AcDbLine
 10
36.76399185289824
 20
13.29838011990108
 30
0.0
 11
35.76399185289825
 21
13.29838011990108
 31
0.0
  0
LINE
  5
15E
330
2
100
AcDbEntity
  8
GAIKEI
  6
Continuous
 62
     1
100
AcDbLine
 10
36.76399185289824
 20
13.49838011990107
 30
0.0
 11
36.76399185289824
 21
13.29838011990108
 31
0.0
  0
LINE
  5
15F
330
2
100
AcDbEntity
  8
GAIKEI
  6
Continuous
 62
     1
100
AcDbLine
 10
35.76399185289825
 20
13.49837711990108
 30
0.0
 11
35.76399185289825
 21
13.29838011990108
 31
0.0
  0
LINE
  5
160
330
2
100
AcDbEntity
  8
GAIKEI
  6
Continuous
 62
     1
100
AcDbLine
 10
26.90399445289827
 20
13.29838011990108
 30
0.0
 11
24.90399445289828
 21
13.29838011990108
 31
0.0
  0
LINE
  5
161
330
2
100
AcDbEntity
  8
GAIKEI
  6
Continuous
 62
     1
100
AcDbLine
 10
26.90399445289827
 20
13.49837711990108
 30
0.0
 11
26.90399445289827
 21
13.29838011990108
 31
0.0
  0
LINE
  5
162
330
2
100
AcDbEntity
  8
GAIKEI
  6
Continuous
 62
     1
100
AcDbLine
 10
24.90399445289828
 20
13.49837711990108
 30
0.0
 11
24.90399445289828
 21
13.29838011990108
 31
0.0
  0
LINE
  5
163
330
2
100
AcDbEntity
  8
GAIKEI
  6
Continuous
 62
     1
100
AcDbLine
 10
32.63399305289826
 20
15.95837151990105
 30
0.0
 11
32.63399305289826
 21
15.52837891990106
 31
0.0
  0
LINE
  5
164
330
2
100
AcDbEntity
  8
GAIKEI
  6
Continuous
 62
     1
100
AcDbLine
 10
32.63399305289826
 20
15.52837891990106
 30
0.0
 11
33.20608185289825
 21
15.52837891990106
 31
0.0
  0
LINE
  5
165
330
2
100
AcDbEntity
  8
GAIKEI
  6
Continuous
 62
     1
100
AcDbLine
 10
33.20608185289825
 20
15.52837891990106
 30
0.0
 11
33.20608185289825
 21
15.32837891990107
 31
0.0
  0
LINE
  5
166
330
2
100
AcDbEntity
  8
GAIKEI
  6
Continuous
 62
     1
100
AcDbLine
 10
33.20608185289825
 20
15.32837891990107
 30
0.0
 11
33.47399565289828
 21
15.32837891990107
 31
0.0
  0
LINE
  5
167
330
2
100
AcDbEntity
  8
GAIKEI
  6
Continuous
 62
     1
100
AcDbLine
 10
33.47399565289828
 20
15.32837891990107
 30
0.0
 11
33.47399565289828
 21
14.92837891990109
 31
0.0
  0
LINE
  5
168
330
2
100
AcDbEntity
  8
GAIKEI
  6
Continuous
 62
     1
100
AcDbLine
 10
33.47399565289828
 20
14.92837891990109
 30
0.0
 11
34.33399305289828
 21
14.92837891990109
 31
0.0
  0
LINE
  5
169
330
2
100
AcDbEntity
  8
GAIKEI
  6
Continuous
 62
     1
100
AcDbLine
 10
34.33399305289828
 20
14.92837891990109
 30
0.0
 11
34.33399305289828
 21
15.32837891990107
 31
0.0
  0
LINE
  5
16A
330
2
100
AcDbEntity
  8
GAIKEI
  6
Continuous
 62
     1
100
AcDbLine
 10
34.33399305289828
 20
15.32837891990107
 30
0.0
 11
34.60190705289827
 21
15.32837891990107
 31
0.0
  0
LINE
  5
16B
330
2
100
AcDbEntity
  8
GAIKEI
  6
Continuous
 62
     1
100
AcDbLine
 10
34.60190705289827
 20
15.32837891990107
 30
0.0
 11
34.60190705289827
 21
15.52837891990106
 31
0.0
  0
LINE
  5
16C
330
2
100
AcDbEntity
  8
GAIKEI
  6
Continuous
 62
     1
100
AcDbLine
 10
35.17399565289827
 20
15.52837891990106
 30
0.0
 11
35.17399565289827
 21
15.9583745199011
 31
0.0
  0
LINE
  5
16D
330
2
100
AcDbEntity
  8
GAIKEI
  6
Continuous
 62
     1
100
AcDbLine
 10
34.60190705289827
 20
15.52837891990106
 30
0.0
 11
35.17399565289827
 21
15.52837891990106
 31
0.0
  0
ARC
  5
16E
330
2
100
AcDbEntity
  8
GAIKEI
  6
Continuous
 62
     1
100
AcDbCircle
 10
29.70399445289826
 20
16.29838011990108
 30
0.0
 40
0.5900000000000001
100
AcDbArc
 50
215.1820660000001
 51
324.8310040000011
  0
ARC
  5
16F
330
2
100
AcDbEntity
  8
GAIKEI
  6
Continuous
 62
     7
100
AcDbCircle
 10
33.96399185289823
 20
17.09838011990109
 30
0.0
 40
4.2
100
AcDbArc
 50
356.8415119999998
 51
0.0
  0
ARC
  5
170
330
2
100
AcDbEntity
  8
GAIKEI
  6
Continuous
 62
     1
100
AcDbCircle
 10
35.64400285289825
 20
20.26542711990106
 30
0.0
 40
0.0400098
100
AcDbArc
 50
54.83904000000047
 51
177.421322
  0
LINE
  5
171
330
2
100
AcDbEntity
  8
GAIKEI
  6
Continuous
 62
     7
100
AcDbLine
 10
35.66847805289827
 20
20.29708011990107
 30
0.0
 11
37.69898945289826
 21
18.72547351990107
 31
0.0
  0
ARC
  5
172
330
2
100
AcDbEntity
  8
GAIKEI
  6
Continuous
 62
     7
100
AcDbCircle
 10
37.57657125289825
 20
18.56731011990109
 30
0.0
 40
0.2000026
100
AcDbArc
 50
26.9721729999988
 51
52.26018999999979
  0
ARC
  5
173
330
2
100
AcDbEntity
  8
GAIKEI
  6
Continuous
 62
     7
100
AcDbCircle
 10
34.18990745289824
 20
16.84380251990109
 30
0.0
 40
4.0
100
AcDbArc
 50
6.525426000000082
 51
26.9720010000006
  0
LINE
  5
174
330
2
100
AcDbEntity
  8
GAIKEI
  6
Continuous
 62
     1
100
AcDbLine
 10
38.16399185289825
 20
17.09838011990109
 30
0.0
 11
37.12027845289826
 21
17.09838011990109
 31
0.0
  0
LINE
  5
175
330
2
100
AcDbEntity
  8
GAIKEI
  6
Continuous
 62
     1
100
AcDbLine
 10
37.11941185289826
 20
17.09838011990109
 30
0.0
 11
37.12027845289826
 21
17.09838011990109
 31
0.0
  0
ARC
  5
176
330
2
100
AcDbEntity
  8
GAIKEI
  6
Continuous
 62
     7
100
AcDbCircle
 10
38.00046045289828
 20
16.87154911990109
 30
0.0
 40
0.040314
100
AcDbArc
 50
268.7845590000013
 51
344.9607920000007
  0
LINE
  5
177
330
2
100
AcDbEntity
  8
GAIKEI
  6
Continuous
 62
     1
100
AcDbLine
 10
37.08212545289825
 20
17.09838011990109
 30
0.0
 11
37.11941185289826
 21
17.09838011990109
 31
0.0
  0
LINE
  5
178
330
2
100
AcDbEntity
  8
GAIKEI
  6
Continuous
 62
     7
100
AcDbLine
 10
38.03937645289826
 20
16.86109371990108
 30
0.0
 11
38.04062765289828
 21
16.86902211990104
 31
0.0
  0
LINE
  5
179
330
2
100
AcDbEntity
  8
GAIKEI
  6
Continuous
 62
     1
100
AcDbLine
 10
37.08212545289825
 20
17.09838011990109
 30
0.0
 11
36.99999665289826
 21
17.09838011990109
 31
0.0
  0
LINE
  5
17A
330
2
100
AcDbEntity
  8
GAIKEI
  6
Continuous
 62
     7
100
AcDbLine
 10
38.03938245289828
 20
16.86109371990108
 30
0.0
 11
38.15721705289825
 21
16.86315051990107
 31
0.0
  0
ARC
  5
17B
330
2
100
AcDbEntity
  8
GAIKEI
  6
Continuous
 62
     7
100
AcDbCircle
 10
38.00046045289828
 20
16.87154911990109
 30
0.0
 40
0.0403142
100
AcDbArc
 50
268.7852619999995
 51
344.9815330000005
  0
LINE
  5
17C
330
2
100
AcDbEntity
  8
GAIKEI
  6
Continuous
 62
     1
100
AcDbLine
 10
35.60399445289827
 20
19.41557371990109
 30
0.0
 11
35.60399445289827
 21
20.26544551990105
 31
0.0
  0
LINE
  5
17D
330
2
100
AcDbEntity
  8
GAIKEI
  6
Continuous
 62
     1
100
AcDbLine
 10
35.60405545289828
 20
19.41416371990107
 30
0.0
 11
35.60399445289827
 21
19.41557371990109
 31
0.0
  0
LINE
  5
17E
330
2
100
AcDbEntity
  8
GAIKEI
  6
Continuous
 62
     1
100
AcDbLine
 10
37.08183865289826
 20
17.29838011990108
 30
0.0
 11
37.11946065289826
 21
17.29838011990108
 31
0.0
  0
LINE
  5
17F
330
2
100
AcDbEntity
  8
GAIKEI
  6
Continuous
 62
     1
100
AcDbLine
 10
37.08183865289826
 20
17.29838011990108
 30
0.0
 11
37.07109025289826
 21
17.29838011990108
 31
0.0
  0
LINE
  5
180
330
2
100
AcDbEntity
  8
GAIKEI
  6
Continuous
 62
     1
100
AcDbLine
 10
38.16399185289825
 20
17.29838011990108
 30
0.0
 11
37.12027845289826
 21
17.29838011990108
 31
0.0
  0
LINE
  5
181
330
2
100
AcDbEntity
  8
GAIKEI
  6
Continuous
 62
     1
100
AcDbLine
 10
37.11946065289826
 20
17.29838011990108
 30
0.0
 11
37.12027845289826
 21
17.29838011990108
 31
0.0
  0
LWPOLYLINE
  5
182
330
2
100
AcDbEntity
  8
GAIKEI
  6
Continuous
 62
     1
100
AcDbPolyline
 90
        6
 70
     0
 43
0.0
 10
37.76045185289826
 20
17.15838071990112
 10
37.76379045289826
 20
17.11902531990108
 10
37.76872205289826
 20
17.1031377199011
 10
37.77129165289824
 20
17.0995825199011
 10
37.77328765289826
 20
17.09845631990106
 10
37.77395905289826
 20
17.09838011990109
  0
LINE
  5
183
330
2
100
AcDbEntity
  8
GAIKEI
  6
Continuous
 62
     1
100
AcDbLine
 10
37.76045185289827
 20
17.23837951990106
 30
0.0
 11
37.76045185289827
 21
17.15838071990106
 31
0.0
  0
LWPOLYLINE
  5
184
330
2
100
AcDbEntity
  8
GAIKEI
  6
Continuous
 62
     1
100
AcDbPolyline
 90
        6
 70
     0
 43
0.0
 10
37.76045185289826
 20
17.23837951990111
 10
37.76379045289826
 20
17.27773491990109
 10
37.76872205289826
 20
17.29362231990109
 10
37.77129165289824
 20
17.29717771990113
 10
37.77328765289826
 20
17.29830371990113
 10
37.77395905289826
 20
17.29838011990108
  0
LWPOLYLINE
  5
185
330
2
100
AcDbEntity
  8
GAIKEI
  6
Continuous
 62
     1
100
AcDbPolyline
 90
        6
 70
     0
 43
0.0
 10
37.76045185289826
 20
17.15838071990112
 10
37.76379045289826
 20
17.11902531990108
 10
37.76872205289826
 20
17.1031377199011
 10
37.77129165289824
 20
17.0995825199011
 10
37.77328765289826
 20
17.09845631990106
 10
37.77395905289826
 20
17.09838011990109
  0
LINE
  5
186
330
2
100
AcDbEntity
  8
GAIKEI
  6
Continuous
 62
     1
100
AcDbLine
 10
37.76045185289827
 20
17.23837951990106
 30
0.0
 11
37.76045185289827
 21
17.15838071990106
 31
0.0
  0
LWPOLYLINE
  5
187
330
2
100
AcDbEntity
  8
GAIKEI
  6
Continuous
 62
     1
100
AcDbPolyline
 90
        6
 70
     0
 43
0.0
 10
37.76045185289826
 20
17.23837951990111
 10
37.76379045289826
 20
17.27773491990109
 10
37.76872205289826
 20
17.29362231990109
 10
37.77129165289824
 20
17.29717771990113
 10
37.77328765289826
 20
17.29830371990113
 10
37.77395905289826
 20
17.29838011990108
  0
LINE
  5
188
330
2
100
AcDbEntity
  8
GAIKEI
  6
Continuous
 62
     7
100
AcDbLine
 10
13.74399385289825
 20
17.09838011990109
 30
0.0
 11
13.74399385289825
 21
17.29838011990114
 31
0.0
  0
LWPOLYLINE
  5
189
330
2
100
AcDbEntity
  8
GAIKEI
  6
Continuous
 62
     1
100
AcDbPolyline
 90
        8
 70
     0
 43
0.0
 10
28.83402365289825
 20
13.49838011990107
 10
28.87726105289826
 20
13.5061925199011
 10
28.91462665289828
 20
13.52750611990109
 10
28.94460105289827
 20
13.5591437199011
 10
28.96897245289827
 20
13.60113591990108
 10
28.99160425289827
 20
13.6639745199011
 10
29.01043965289827
 20
13.7545141199011
 10
29.01882585289826
 20
13.83136051990107
  0
LINE
  5
18A
330
2
100
AcDbEntity
  8
GAIKEI
  6
Continuous
 62
     1
100
AcDbLine
 10
29.01882585289826
 20
13.83136051990107
 30
0.0
 11
29.17375145289824
 21
15.95838071990107
 31
0.0
  0
ARC
  5
18B
330
2
100
AcDbEntity
  8
GAIKEI
  6
Continuous
 62
     7
100
AcDbCircle
 10
14.93087125289827
 20
13.89838011990105
 30
0.0
 40
0.4
100
AcDbArc
 50
191.4889879999996
 51
269.9999969999991
  0
ARC
  5
18C
330
2
100
AcDbEntity
  8
GAIKEI
  6
Continuous
 62
     7
100
AcDbCircle
 10
36.87711445289827
 20
13.89838011990105
 30
0.0
 40
0.4
100
AcDbArc
 50
269.9999969999991
 51
348.5110189999999
  0
LINE
  5
18D
330
2
100
AcDbEntity
  8
GAIKEI
  6
Continuous
 62
     7
100
AcDbLine
 10
14.53888825289826
 20
13.81870791990104
 30
0.0
 11
14.10399445289835
 21
15.95838071990107
 31
0.0
  0
LINE
  5
18E
330
2
100
AcDbEntity
  8
GAIKEI
  6
Continuous
 62
     7
100
AcDbLine
 10
37.26910065289826
 20
13.81870791990104
 30
0.0
 11
37.70399445289829
 21
15.95838071990113
 31
0.0
  0
ARC
  5
18F
330
2
100
AcDbEntity
  8
GAIKEI
  6
Continuous
 62
     7
100
AcDbCircle
 10
13.87809105289824
 20
16.05838071990109
 30
0.0
 40
0.1
100
AcDbArc
 50
194.6941079999992
 51
269.9999969999991
  0
ARC
  5
190
330
2
100
AcDbEntity
  8
GAIKEI
  6
Continuous
 62
     7
100
AcDbCircle
 10
37.92989765289827
 20
16.05838071990109
 30
0.0
 40
0.1
100
AcDbArc
 50
269.9999969999991
 51
345.3058910000002
  0
ARC
  5
191
330
2
100
AcDbEntity
  8
GAIKEI
  6
Continuous
 62
     7
100
AcDbCircle
 10
33.96399185289823
 20
17.09838011990109
 30
0.0
 40
4.2000046
100
AcDbArc
 50
345.3058910000002
 51
348.8283369999995
  0
ARC
  5
192
330
2
100
AcDbEntity
  8
GAIKEI
  6
Continuous
 62
     7
100
AcDbCircle
 10
17.84399385289825
 20
17.09838011990109
 30
0.0
 40
4.200000399999999
100
AcDbArc
 50
179.9999949999995
 51
194.6941079999992
  0
LINE
  5
193
330
2
100
AcDbEntity
  8
GAIKEI
  6
Continuous
 62
     1
100
AcDbLine
 10
36.99554105289826
 20
17.09838011990109
 30
0.0
 11
36.99554105289826
 21
17.29838011990108
 31
0.0
  0
ARC
  5
194
330
2
100
AcDbEntity
  8
GAIKEI
  6
Continuous
 62
     1
100
AcDbCircle
 10
35.74226345289826
 20
13.59838011990109
 30
0.0
 40
0.1
100
AcDbArc
 50
180.9999989999995
 51
270.0000009999981
  0
LINE
  5
195
330
2
100
AcDbEntity
  8
GAIKEI
  6
Continuous
 62
     7
100
AcDbLine
 10
31.94572405289827
 20
13.49838011990107
 30
0.0
 11
35.74226345289826
 21
13.49838011990107
 31
0.0
  0
LINE
  5
196
330
2
100
AcDbEntity
  8
GAIKEI
  6
Continuous
 62
     7
100
AcDbLine
 10
35.74226345289826
 20
13.49838011990107
 30
0.0
 11
35.93356585289825
 21
13.49838011990107
 31
0.0
  0
LINE
  5
197
330
2
100
AcDbEntity
  8
GAIKEI
  6
Continuous
 62
     1
100
AcDbLine
 10
35.64228165289826
 20
13.59663451990104
 30
0.0
 11
35.60282865289828
 21
15.85663511990105
 31
0.0
  0
LINE
  5
198
330
2
100
AcDbEntity
  8
GAIKEI
  6
Continuous
 62
     7
100
AcDbLine
 10
28.83533585289825
 20
13.49838011990107
 30
0.0
 11
31.94572405289827
 21
13.49838011990107
 31
0.0
  0
LINE
  5
199
330
2
100
AcDbEntity
  8
GAIKEI
  6
Continuous
 62
     1
100
AcDbLine
 10
31.94572405289827
 20
13.59663451990104
 30
0.0
 11
31.94572405289827
 21
13.49838011990107
 31
0.0
  0
LINE
  5
19A
330
2
100
AcDbEntity
  8
GAIKEI
  6
Continuous
 62
     1
100
AcDbLine
 10
31.94572405289827
 20
13.59663451990104
 30
0.0
 11
31.98694725289823
 21
15.95837151990105
 31
0.0
  0
LINE
  5
19B
330
2
100
AcDbEntity
  8
GAIKEI
  6
Continuous
 62
     1
100
AcDbLine
 10
35.60282865289828
 20
15.85663511990105
 30
0.0
 11
35.60105245289826
 21
15.95838071990107
 31
0.0
  0
ELLIPSE
  5
19C
330
2
100
AcDbEntity
  8
GAIKEI
  6
Continuous
 62
     1
100
AcDbEllipse
 10
28.91908845289825
 20
13.83862671990107
 30
0.0
 11
0.099737548828125
 21
-0.0072662353515625
 31
0.0
210
0.0
220
0.0
230
1.0
 40
0.1868599999999999
 41
4.992037296295166
 42
6.28315019607544
  0
LINE
  5
19D
330
2
100
AcDbEntity
  8
GAIKEI
  6
Continuous
 62
     7
100
AcDbLine
 10
28.83401145289827
 20
13.49838011990107
 30
0.0
 11
14.93087125289827
 21
13.49838011990107
 31
0.0
  0
LINE
  5
19E
330
2
100
AcDbEntity
  8
GAIKEI
  6
Continuous
 62
     7
100
AcDbLine
 10
36.87711445289827
 20
13.49838011990107
 30
0.0
 11
35.93356585289825
 21
13.49838011990107
 31
0.0
  0
LINE
  5
19F
330
2
100
AcDbEntity
  8
GAIKEI
  6
Continuous
 62
     1
100
AcDbLine
 10
28.94531525289827
 20
13.81870791990104
 30
0.0
 11
14.53888825289826
 21
13.81870791990104
 31
0.0
  0
ARC
  5
1A0
330
2
100
AcDbEntity
  8
GAIKEI
  6
Continuous
 62
     1
100
AcDbCircle
 10
36.26595725289826
 20
15.91874751990104
 30
0.0
 40
0.4063434
100
AcDbArc
 50
348.6085480000005
 51
5.599413000000483
  0
LINE
  5
1A1
330
2
100
AcDbEntity
  8
GAIKEI
  6
Continuous
 62
     1
100
AcDbLine
 10
36.29074965289826
 20
13.81870791990104
 30
0.0
 11
36.66443745289825
 21
15.83846191990108
 31
0.0
  0
ELLIPSE
  5
1A2
330
2
100
AcDbEntity
  8
GAIKEI
  6
Continuous
 62
     1
100
AcDbEllipse
 10
35.93354765289826
 20
13.89840751990107
 30
0.0
 11
0.0001281738281248
 21
-0.4000274658203125
 31
0.0
210
0.0
220
0.0
230
1.0
 40
0.911208
 41
6.282896995544433
 42
7.653119087219238
  0
LINE
  5
1A3
330
2
100
AcDbEntity
  8
GAIKEI
  6
Continuous
 62
     1
100
AcDbLine
 10
31.66952165289826
 20
15.95838071990107
 30
0.0
 11
14.10399445289835
 21
15.95838071990107
 31
0.0
  0
LINE
  5
1A4
330
2
100
AcDbEntity
  8
GAIKEI
  6
Continuous
 62
     7
100
AcDbLine
 10
37.92989765289827
 20
15.95838071990107
 30
0.0
 11
37.70399445289829
 21
15.95838071990113
 31
0.0
  0
LINE
  5
1A5
330
2
100
AcDbEntity
  8
GAIKEI
  6
Continuous
 62
     1
100
AcDbLine
 10
35.40399445289827
 20
15.9583745199011
 30
0.0
 11
35.40399445289827
 21
14.99838011990107
 31
0.0
  0
LINE
  5
1A6
330
2
100
AcDbEntity
  8
GAIKEI
  6
Continuous
 62
     1
100
AcDbLine
 10
32.40399445289828
 20
15.95837151990105
 30
0.0
 11
32.40399445289828
 21
14.99838011990107
 31
0.0
  0
LWPOLYLINE
  5
1A7
330
2
100
AcDbEntity
  8
GAIKEI
  6
Continuous
 62
     1
100
AcDbPolyline
 90
        6
 70
     0
 43
0.0
 10
37.06685445289827
 20
16.91838131990107
 10
37.06991225289825
 20
16.85033631990109
 10
37.08117945289827
 20
16.80471851990108
 10
37.09665785289826
 20
16.77586111990109
 10
37.11285665289826
 20
16.76189931990109
 10
37.12717545289824
 20
16.75838071990108
  0
ARC
  5
1A8
330
2
100
AcDbEntity
  8
GAIKEI
  6
Continuous
 62
     1
100
AcDbCircle
 10
33.24508325289827
 20
17.09838611990108
 30
0.0
 40
3.8260078
100
AcDbArc
 50
357.30334
 51
359.9998970000004
  0
LINE
  5
1A9
330
2
100
AcDbEntity
  8
GAIKEI
  6
Continuous
 62
     1
100
AcDbLine
 10
37.12717545289824
 20
16.75838071990108
 30
0.0
 11
38.03297385289825
 21
16.75838071990108
 31
0.0
  0
LINE
  5
1AA
330
2
100
AcDbEntity
  8
GAIKEI
  6
Continuous
 62
     1
100
AcDbLine
 10
31.73381005289826
 20
17.29838011990108
 30
0.0
 11
28.33718525289828
 21
17.29838011990108
 31
0.0
  0
LINE
  5
1AB
330
2
100
AcDbEntity
  8
GAIKEI
  6
Continuous
 62
     1
100
AcDbLine
 10
36.96047025289826
 20
17.29838011990108
 30
0.0
 11
31.73381005289826
 21
17.29838011990108
 31
0.0
  0
ARC
  5
1AC
330
2
100
AcDbEntity
  8
GAIKEI
  6
Continuous
 62
     1
100
AcDbCircle
 10
29.70399445289826
 20
16.29838011990108
 30
0.0
 40
1.02
100
AcDbArc
 50
236.2133939999995
 51
340.5287310000002
  0
LINE
  5
1AD
330
2
100
AcDbEntity
  8
GAIKEI
  6
Continuous
 62
     1
100
AcDbLine
 10
32.40399445289828
 20
14.99838011990107
 30
0.0
 11
33.45399445289826
 21
14.99838011990107
 31
0.0
  0
LINE
  5
1AE
330
2
100
AcDbEntity
  8
GAIKEI
  6
Continuous
 62
     1
100
AcDbLine
 10
33.45399445289826
 20
14.99838011990107
 30
0.0
 11
33.45399445289826
 21
14.79838011990108
 31
0.0
  0
LINE
  5
1AF
330
2
100
AcDbEntity
  8
GAIKEI
  6
Continuous
 62
     1
100
AcDbLine
 10
33.45399445289826
 20
14.79838011990108
 30
0.0
 11
34.35399445289827
 21
14.79838011990108
 31
0.0
  0
LINE
  5
1B0
330
2
100
AcDbEntity
  8
GAIKEI
  6
Continuous
 62
     1
100
AcDbLine
 10
34.35399445289827
 20
14.99838011990107
 30
0.0
 11
34.35399445289827
 21
14.79838011990108
 31
0.0
  0
LINE
  5
1B1
330
2
100
AcDbEntity
  8
GAIKEI
  6
Continuous
 62
     1
100
AcDbLine
 10
34.35399445289827
 20
14.99838011990107
 30
0.0
 11
35.40399445289827
 21
14.99838011990107
 31
0.0
  0
LINE
  5
1B2
330
2
100
AcDbEntity
  8
GAIKEI
  6
Continuous
 62
     7
100
AcDbLine
 10
38.03282125289825
 20
16.75838071990108
 30
0.0
 11
37.98652605289826
 21
16.83145511990108
 31
0.0
  0
ARC
  5
1B3
330
2
100
AcDbEntity
  8
GAIKEI
  6
Continuous
 62
     7
100
AcDbCircle
 10
29.20676545289826
 20
15.56006531990107
 30
0.0
 40
8.907170200000001
100
AcDbArc
 50
4.665988000000839
 51
7.731658999999607
  0
LINE
  5
1B4
330
2
100
AcDbEntity
  8
GAIKEI
  6
Continuous
 62
     7
100
AcDbLine
 10
38.03282125289825
 20
16.75838071990108
 30
0.0
 11
37.98652605289826
 21
16.83145511990108
 31
0.0
  0
LINE
  5
1B5
330
2
100
AcDbEntity
  8
GAIKEI
  6
Continuous
 62
     1
100
AcDbLine
 10
31.78175325289826
 20
17.09838011990109
 30
0.0
 11
13.74399385289825
 21
17.09838011990109
 31
0.0
  0
LINE
  5
1B6
330
2
100
AcDbEntity
  8
GAIKEI
  6
Continuous
 62
     1
100
AcDbLine
 10
37.07109025289826
 20
17.09838011990109
 30
0.0
 11
31.78175325289826
 21
17.09838011990109
 31
0.0
  0
LINE
  5
1B7
330
2
100
AcDbEntity
  8
GAIKEI
  6
Continuous
 62
     1
100
AcDbLine
 10
35.50399445289827
 20
20.29793451990105
 30
0.0
 11
35.60399445289827
 21
20.2205297199011
 31
0.0
  0
LINE
  5
1B8
330
2
100
AcDbEntity
  8
GAIKEI
  6
Continuous
 62
     7
100
AcDbLine
 10
34.50399445289827
 20
21.19838011990106
 30
0.0
 11
35.50399445289827
 21
20.42438711990104
 31
0.0
  0
ARC
  5
1B9
330
2
100
AcDbEntity
  8
GAIKEI
  6
Continuous
 62
     7
100
AcDbCircle
 10
14.23141445289826
 20
18.56731311990109
 30
0.0
 40
0.2000016
100
AcDbArc
 50
127.7397540000006
 51
153.0279020000014
  0
ARC
  5
1BA
330
2
100
AcDbEntity
  8
GAIKEI
  6
Continuous
 62
     7
100
AcDbCircle
 10
17.61808125289826
 20
16.84380251990109
 30
0.0
 40
4.0
100
AcDbArc
 50
153.0279980000001
 51
173.4745789999997
  0
LINE
  5
1BB
330
2
100
AcDbEntity
  8
GAIKEI
  6
Continuous
 62
     7
100
AcDbLine
 10
17.30399445289828
 20
21.19838011990106
 30
0.0
 11
14.10899925289825
 21
18.72547351990107
 31
0.0
  0
LINE
  5
1BC
330
2
100
AcDbEntity
  8
GAIKEI
  6
Continuous
 62
     1
100
AcDbLine
 10
19.07999525289827
 20
21.49838011990107
 30
0.0
 11
19.07399565289827
 21
21.19838011990106
 31
0.0
  0
LINE
  5
1BD
330
2
100
AcDbEntity
  8
GAIKEI
  6
Continuous
 62
     1
100
AcDbLine
 10
32.72799345289826
 20
21.49838011990107
 30
0.0
 11
32.73399305289826
 21
21.19838011990106
 31
0.0
  0
ARC
  5
1BE
330
2
100
AcDbEntity
  8
GAIKEI
  6
Continuous
 62
     1
100
AcDbCircle
 10
25.90399445289828
 20
19.25364431990107
 30
0.0
 40
0.05
100
AcDbArc
 50
0.0041779999998161
 51
90.00000300000095
  0
ARC
  5
1BF
330
2
100
AcDbEntity
  8
GAIKEI
  6
Continuous
 62
     1
100
AcDbCircle
 10
25.90399445289828
 20
19.25364431990107
 30
0.0
 40
0.05
100
AcDbArc
 50
90.00000300000095
 51
179.9930790000002
  0
LINE
  5
1C0
330
2
100
AcDbEntity
  8
GAIKEI
  6
Continuous
 62
     1
100
AcDbLine
 10
35.50399445289827
 20
19.56115471990108
 30
0.0
 11
35.50399445289827
 21
20.42438711990104
 31
0.0
  0
LWPOLYLINE
  5
1C1
330
2
100
AcDbEntity
  8
GAIKEI
  6
Continuous
 62
     1
100
AcDbPolyline
 90
        8
 70
     0
 43
0.0
 10
35.80399445289827
 20
19.24933531990109
 10
35.70390885289825
 20
19.32433531990108
 10
35.61419325289825
 20
19.40395571990109
 10
35.56192885289823
 20
19.4594153199011
 10
35.52617445289826
 20
19.50654651990112
 10
35.51183745289826
 20
19.5321631199011
 10
35.50484885289825
 20
19.55276251990108
 10
35.50399445289827
 20
19.56115471990108
  0
ARC
  5
1C2
330
2
100
AcDbEntity
  8
GAIKEI
  6
Continuous
 62
     1
100
AcDbCircle
 10
-41.78929794710174
 20
-93.30752808009894
 30
0.0
 40
136.7105346
100
AcDbArc
 50
55.03383599999989
 51
55.41879800000085
  0
LINE
  5
1C3
330
2
100
AcDbEntity
  8
GAIKEI
  6
Continuous
 62
     1
100
AcDbLine
 10
35.60399445289827
 20
19.4141699199011
 30
0.0
 11
35.60399445289827
 21
20.2205297199011
 31
0.0
  0
ARC
  5
1C4
330
2
100
AcDbEntity
  8
GAIKEI
  6
Continuous
 62
     1
100
AcDbCircle
 10
36.44145765289827
 20
18.55606451990104
 30
0.0
 40
0.205872
100
AcDbArc
 50
29.69235899999937
 51
55.36124900000045
  0
LINE
  5
1C5
330
2
100
AcDbEntity
  8
GAIKEI
  6
Continuous
 62
     1
100
AcDbLine
 10
36.62026625289828
 20
18.65802371990105
 30
0.0
 11
36.30407365289825
 21
18.65802371990105
 31
0.0
  0
ARC
  5
1C6
330
2
100
AcDbEntity
  8
GAIKEI
  6
Continuous
 62
     1
100
AcDbCircle
 10
33.38661765289825
 20
16.83047551990108
 30
0.0
 40
3.714199
100
AcDbArc
 50
7.237482999999962
 51
29.47367300000016
  0
LINE
  5
1C7
330
2
100
AcDbEntity
  8
GAIKEI
  6
Continuous
 62
     1
100
AcDbLine
 10
14.05316725289828
 20
18.65802371990105
 30
0.0
 11
37.75482445289827
 21
18.65802371990105
 31
0.0
  0
LINE
  5
1C8
330
2
100
AcDbEntity
  8
GAIKEI
  6
Continuous
 62
     1
100
AcDbLine
 10
25.62566785289829
 20
17.09838011990109
 30
0.0
 11
25.82232325289826
 21
17.09838011990109
 31
0.0
  0
LINE
  5
1C9
330
2
100
AcDbEntity
  8
GAIKEI
  6
Continuous
 62
     7
100
AcDbLine
 10
13.64399385289826
 20
17.29838011990108
 30
0.0
 11
13.74399385289825
 21
17.29838011990108
 31
0.0
  0
LINE
  5
1CA
330
2
100
AcDbEntity
  8
GAIKEI
  6
Continuous
 62
     1
100
AcDbLine
 10
35.91050065289828
 20
17.29838011990108
 30
0.0
 11
36.66315565289827
 21
17.29838011990108
 31
0.0
  0
LINE
  5
1CB
330
2
100
AcDbEntity
  8
GAIKEI
  6
Continuous
 62
     1
100
AcDbLine
 10
36.66315565289827
 20
17.29838011990108
 30
0.0
 11
37.07109025289826
 21
17.29838011990108
 31
0.0
  0
LINE
  5
1CC
330
2
100
AcDbEntity
  8
GAIKEI
  6
Continuous
 62
     7
100
AcDbLine
 10
17.30399445289828
 20
21.19838011990106
 30
0.0
 11
34.50399445289827
 21
21.19838011990106
 31
0.0
  0
LINE
  5
1CD
330
2
100
AcDbEntity
  8
GAIKEI
  6
Continuous
 62
     1
100
AcDbLine
 10
35.72464265289827
 20
17.29838011990108
 30
0.0
 11
35.91050065289828
 21
17.29838011990108
 31
0.0
  0
ARC
  5
1CE
330
2
100
AcDbEntity
  8
GAIKEI
  6
Continuous
 62
     1
100
AcDbCircle
 10
29.99690825289827
 20
16.84997311990105
 30
0.0
 40
5.930564799999999
100
AcDbArc
 50
4.336242999999223
 51
6.276874
  0
LINE
  5
1CF
330
2
100
AcDbEntity
  8
GAIKEI
  6
Continuous
 62
     1
100
AcDbLine
 10
28.30704005289826
 20
17.49838011990107
 30
0.0
 11
35.89192165289826
 21
17.49838011990107
 31
0.0
  0
ARC
  5
1D0
330
2
100
AcDbEntity
  8
GAIKEI
  6
Continuous
 62
     1
100
AcDbCircle
 10
38.02522845289828
 20
16.85394651990106
 30
0.0
 40
9.739530999999999
100
AcDbArc
 50
176.2061490000006
 51
177.3845750000006
  0
LINE
  5
1D1
330
2
100
AcDbEntity
  8
GAIKEI
  6
Continuous
 62
     1
100
AcDbLine
 10
28.40823625289826
 20
17.29838011990108
 30
0.0
 11
28.29584005289826
 21
17.29838011990108
 31
0.0
  0
LWPOLYLINE
  5
1D2
330
2
100
AcDbEntity
  8
GAIKEI
  6
Continuous
 62
     1
100
AcDbPolyline
 90
        4
 70
     0
 43
0.0
 10
25.90399445289828
 20
18.78667971990109
 10
25.93026385289827
 20
18.79322271990111
 10
25.94851945289827
 20
18.81062071990107
 10
25.95399445289826
 20
18.83064331990112
  0
LINE
  5
1D3
330
2
100
AcDbEntity
  8
GAIKEI
  6
Continuous
 62
     1
100
AcDbLine
 10
25.95399445289826
 20
18.83064331990107
 30
0.0
 11
25.95399445289826
 21
18.84498351990106
 31
0.0
  0
LWPOLYLINE
  5
1D4
330
2
100
AcDbEntity
  8
GAIKEI
  6
Continuous
 62
     1
100
AcDbPolyline
 90
        4
 70
     0
 43
0.0
 10
25.90399445289828
 20
18.78667971990109
 10
25.87870745289825
 20
18.7927039199011
 10
25.86054345289827
 20
18.80887211990108
 10
25.85399445289827
 20
18.83064331990112
  0
LINE
  5
1D5
330
2
100
AcDbEntity
  8
GAIKEI
  6
Continuous
 62
     1
100
AcDbLine
 10
25.85399445289827
 20
18.84498351990106
 30
0.0
 11
25.85399445289827
 21
18.83064331990107
 31
0.0
  0
LINE
  5
1D6
330
2
100
AcDbEntity
  8
GAIKEI
  6
Continuous
 62
     1
100
AcDbLine
 10
25.95399445289826
 20
19.25364431990107
 30
0.0
 11
25.95399445289826
 21
18.84498351990106
 31
0.0
  0
LINE
  5
1D7
330
2
100
AcDbEntity
  8
GAIKEI
  6
Continuous
 62
     1
100
AcDbLine
 10
25.85399445289827
 20
19.25364431990107
 30
0.0
 11
25.85399445289827
 21
18.84498351990106
 31
0.0
  0
LINE
  5
1D8
330
2
100
AcDbEntity
  8
GAIKEI
  6
HIDDEN2
 62
     1
100
AcDbLine
 10
32.63399305289826
 20
16.92837891990109
 30
0.0
 11
32.63399305289826
 21
15.52837891990106
 31
0.0
  0
LINE
  5
1DA
330
2
100
AcDbEntity
  8
GAIKEI
  6
DASHED
 62
     1
100
AcDbLine
 10
32.63399305289826
 20
15.52837891990106
 30
0.0
 11
33.20608185289825
 21
15.52837891990106
 31
0.0
  0
LINE
  5
1DC
330
2
100
AcDbEntity
  8
GAIKEI
  6
DASHED
 62
     1
100
AcDbLine
 10
33.20608185289825
 20
15.52837891990106
 30
0.0
 11
33.20608185289825
 21
15.32837891990107
 31
0.0
  0
LINE
  5
1DD
330
2
100
AcDbEntity
  8
GAIKEI
  6
DASHED
 62
     1
100
AcDbLine
 10
33.20608185289825
 20
15.32837891990107
 30
0.0
 11
33.47399565289828
 21
15.32837891990107
 31
0.0
  0
LINE
  5
1DE
330
2
100
AcDbEntity
  8
GAIKEI
  6
DASHED
 62
     1
100
AcDbLine
 10
33.47399565289828
 20
15.32837891990107
 30
0.0
 11
33.47399565289828
 21
14.92837891990109
 31
0.0
  0
LINE
  5
1DF
330
2
100
AcDbEntity
  8
GAIKEI
  6
DASHED
 62
     1
100
AcDbLine
 10
33.47399565289828
 20
14.92837891990109
 30
0.0
 11
34.33399305289828
 21
14.92837891990109
 31
0.0
  0
LINE
  5
1E0
330
2
100
AcDbEntity
  8
GAIKEI
  6
DASHED
 62
     1
100
AcDbLine
 10
34.33399305289828
 20
14.92837891990109
 30
0.0
 11
34.33399305289828
 21
15.32837891990107
 31
0.0
  0
LINE
  5
1E1
330
2
100
AcDbEntity
  8
GAIKEI
  6
DASHED
 62
     1
100
AcDbLine
 10
34.33399305289828
 20
15.32837891990107
 30
0.0
 11
34.60190705289827
 21
15.32837891990107
 31
0.0
  0
LINE
  5
1E2
330
2
100
AcDbEntity
  8
GAIKEI
  6
HIDDEN2
 62
     1
100
AcDbLine
 10
35.17399565289827
 20
16.92837891990109
 30
0.0
 11
32.63399305289826
 21
16.92837891990109
 31
0.0
  0
LINE
  5
1E3
330
2
100
AcDbEntity
  8
GAIKEI
  6
HIDDEN2
 62
     1
100
AcDbLine
 10
32.30399445289828
 20
14.79838011990108
 30
0.0
 11
32.30399445289828
 21
17.45838071990107
 31
0.0
  0
LINE
  5
1E4
330
2
100
AcDbEntity
  8
GAIKEI
  6
HIDDEN2
 62
     1
100
AcDbLine
 10
32.30399445289828
 20
17.45838071990107
 30
0.0
 11
35.50399445289827
 21
17.45838071990107
 31
0.0
  0
LINE
  5
1E5
330
2
100
AcDbEntity
  8
GAIKEI
  6
HIDDEN2
 62
     1
100
AcDbLine
 10
35.50399445289827
 20
17.45838071990107
 30
0.0
 11
35.50399445289827
 21
14.79838011990108
 31
0.0
  0
LINE
  5
1E6
330
2
100
AcDbEntity
  8
GAIKEI
  6
HIDDEN2
 62
     1
100
AcDbLine
 10
35.50399445289827
 20
14.79838011990108
 30
0.0
 11
32.30399445289828
 21
14.79838011990108
 31
0.0
  0
LINE
  5
1E7
330
2
100
AcDbEntity
  8
GAIKEI
  6
DASHED
 62
     1
100
AcDbLine
 10
34.60190705289827
 20
15.32837891990107
 30
0.0
 11
34.60190705289827
 21
15.52837891990106
 31
0.0
  0
ARC
  5
1E8
330
2
100
AcDbEntity
  8
GAIKEI
  6
HIDDEN2
 62
     1
100
AcDbCircle
 10
33.90400045289826
 20
16.92837891990109
 30
0.0
 40
0.099995
100
AcDbArc
 50
179.9992670000004
 51
0.0026670000000331
  0
LINE
  5
1E9
330
2
100
AcDbEntity
  8
GAIKEI
  6
HIDDEN2
 62
     1
100
AcDbLine
 10
35.17399565289827
 20
15.52837891990106
 30
0.0
 11
35.17399565289827
 21
16.92837891990109
 31
0.0
  0
LINE
  5
1EA
330
2
100
AcDbEntity
  8
GAIKEI
  6
DASHED
 62
     1
100
AcDbLine
 10
34.60190705289827
 20
15.52837891990106
 30
0.0
 11
35.17399565289827
 21
15.52837891990106
 31
0.0
  0
LINE
  5
1EB
330
2
100
AcDbEntity
  8
GAIKEI
  6
HIDDEN2
 62
     1
100
AcDbLine
 10
28.50399445289827
 20
14.79838011990108
 30
0.0
 11
30.90399445289828
 21
14.79838011990108
 31
0.0
  0
LINE
  5
1EC
330
2
100
AcDbEntity
  8
GAIKEI
  6
HIDDEN2
 62
     1
100
AcDbLine
 10
28.50399445289827
 20
14.99838011990107
 30
0.0
 11
28.50399445289827
 21
14.79838011990108
 31
0.0
  0
LINE
  5
1ED
330
2
100
AcDbEntity
  8
GAIKEI
  6
HIDDEN2
 62
     1
100
AcDbLine
 10
30.90399445289828
 20
14.79838011990108
 30
0.0
 11
30.90399445289828
 21
14.99838011990107
 31
0.0
  0
CIRCLE
  5
1EE
330
2
100
AcDbEntity
  8
GAIKEI
  6
HIDDEN2
 62
     1
100
AcDbCircle
 10
29.70399445289826
 20
16.29838011990108
 30
0.0
 40
0.1050006
  0
CIRCLE
  5
1EF
330
2
100
AcDbEntity
  8
GAIKEI
  6
HIDDEN2
 62
     1
100
AcDbCircle
 10
29.70399445289826
 20
16.29838011990108
 30
0.0
 40
0.3
  0
CIRCLE
  5
1F0
330
2
100
AcDbEntity
  8
GAIKEI
  6
HIDDEN2
 62
     1
100
AcDbCircle
 10
29.70399445289826
 20
16.29838011990108
 30
0.0
 40
0.5900000000000001
  0
LINE
  5
1F1
330
2
100
AcDbEntity
  8
GAIKEI
  6
DASHED
 62
     1
100
AcDbLine
 10
28.50399445289827
 20
17.49838011990107
 30
0.0
 11
30.90399445289828
 21
17.49838011990107
 31
0.0
  0
LINE
  5
1F2
330
2
100
AcDbEntity
  8
GAIKEI
  6
HIDDEN2
 62
     1
100
AcDbLine
 10
28.50399445289827
 20
14.99838011990107
 30
0.0
 11
30.90399445289828
 21
14.99838011990107
 31
0.0
  0
LINE
  5
1F3
330
2
100
AcDbEntity
  8
GAIKEI
  6
HIDDEN2
 62
     1
100
AcDbLine
 10
30.90399445289828
 20
17.49838011990107
 30
0.0
 11
30.90399445289828
 21
14.99838011990107
 31
0.0
  0
LINE
  5
1F4
330
2
100
AcDbEntity
  8
GAIKEI
  6
HIDDEN2
 62
     1
100
AcDbLine
 10
28.50399445289827
 20
14.99838011990107
 30
0.0
 11
28.50399445289827
 21
17.49838011990107
 31
0.0
  0
LINE
  5
1F5
330
2
100
AcDbEntity
  8
GAIKEI
  6
Continuous
 62
     1
100
AcDbLine
 10
-20.71452939632672
 20
26.47171391990105
 30
0.0
 11
-20.61454459632674
 21
26.47171391990105
 31
0.0
  0
LINE
  5
1F6
330
2
100
AcDbEntity
  8
GAIKEI
  6
Continuous
 62
     1
100
AcDbLine
 10
-25.06452939632675
 20
27.4537145199011
 30
0.0
 11
-25.06452939632675
 21
28.76624511990105
 31
0.0
  0
ARC
  5
1F7
330
2
100
AcDbEntity
  8
GAIKEI
  6
Continuous
 62
     1
100
AcDbCircle
 10
-20.66452939632672
 20
55.78875491990107
 30
0.0
 40
27.5467804
100
AcDbArc
 50
269.6880079999995
 51
270.3119940000004
  0
ARC
  5
1F8
330
2
100
AcDbEntity
  8
GAIKEI
  6
Continuous
 62
     1
100
AcDbCircle
 10
-20.66452939632672
 20
63.75202991990107
 30
0.0
 40
34.50997620000001
100
AcDbArc
 50
269.7509620000002
 51
270.2490399999987
  0
LINE
  5
1F9
330
2
100
AcDbEntity
  8
GAIKEI
  6
Continuous
 62
     1
100
AcDbLine
 10
-20.81452939632672
 20
28.24238031990109
 30
0.0
 11
-20.81452939632672
 21
29.24238031990109
 31
0.0
  0
LINE
  5
1FA
330
2
100
AcDbEntity
  8
GAIKEI
  6
Continuous
 62
     1
100
AcDbLine
 10
-20.51452939632674
 20
28.24238031990109
 30
0.0
 11
-20.51452939632674
 21
29.24238031990109
 31
0.0
  0
CIRCLE
  5
1FB
330
2
100
AcDbEntity
  8
GAIKEI
  6
Continuous
 62
     1
100
AcDbCircle
 10
-20.66452619632674
 20
33.19837391990109
 30
0.0
 40
3.5000042
  0
CIRCLE
  5
1FC
330
2
100
AcDbEntity
  8
GAIKEI
  6
Continuous
 62
     1
100
AcDbCircle
 10
-20.66452939632672
 20
33.19838011990106
 30
0.0
 40
3.3
  0
LINE
  5
1FD
330
2
100
AcDbEntity
  8
GAIKEI
  6
Continuous
 62
     1
100
AcDbLine
 10
-21.67992239632673
 20
30.3118993199011
 30
0.0
 11
-21.67414839632673
 21
30.3098791199011
 31
0.0
  0
ARC
  5
1FE
330
2
100
AcDbEntity
  8
GAIKEI
  6
Continuous
 62
     1
100
AcDbCircle
 10
-20.67429199632673
 20
33.19583491990107
 30
0.0
 40
3.050172
100
AcDbArc
 50
179.9522480000007
 51
208.0439160000006
  0
ARC
  5
1FF
330
2
100
AcDbEntity
  8
GAIKEI
  6
Continuous
 62
     1
100
AcDbCircle
 10
-20.66447439632674
 20
33.19839231990107
 30
0.0
 40
3.2192948
100
AcDbArc
 50
180.0002409999995
 51
207.9997550000003
  0
ARC
  5
200
330
2
100
AcDbEntity
  8
GAIKEI
  6
Continuous
 62
     1
100
AcDbCircle
 10
-20.63912339632674
 20
33.16019651990109
 30
0.0
 40
3.014883
100
AcDbArc
 50
293.05164
 51
299.9446589999989
  0
LWPOLYLINE
  5
201
330
2
100
AcDbEntity
  8
GAIKEI
  6
Continuous
 62
     1
100
AcDbPolyline
 90
       12
 70
     0
 43
0.0
 10
-21.67414839632676
 20
30.3098791199011
 10
-21.46670519632676
 20
30.24562731990113
 10
-21.25512379632676
 20
30.19606071990108
 10
-21.04065239632675
 20
30.16159411990111
 10
-20.82454219632674
 20
30.1425635199011
 10
-20.60800779632675
 20
30.1389319199011
 10
-20.39226059632676
 20
30.15054691990111
 10
-20.17850339632673
 20
30.17726191990107
 10
-19.96787399632674
 20
30.21890611990114
 10
-19.76098919632673
 20
30.2751439199011
 10
-19.55823959632676
 20
30.34558471990113
 10
-19.45860899632674
 20
30.3860327199011
  0
ARC
  5
202
330
2
100
AcDbEntity
  8
GAIKEI
  6
Continuous
 62
     1
100
AcDbCircle
 10
-20.67354719632675
 20
33.18490351990107
 30
0.0
 40
3.0441456
100
AcDbArc
 50
231.9776120000008
 51
250.8104589999987
  0
ELLIPSE
  5
203
330
2
100
AcDbEntity
  8
GAIKEI
  6
Continuous
 62
     1
100
AcDbEllipse
 10
-20.91065659632676
 20
33.37646231990112
 30
0.0
 11
2.785632324218749
 21
-1.884854125976564
 31
0.0
210
0.0
220
0.0
230
1.0
 40
0.9447279999999999
 41
0.093502901494503
 42
0.5664887428283692
  0
LWPOLYLINE
  5
204
330
2
100
AcDbEntity
  8
GAIKEI
  6
Continuous
 62
     1
100
AcDbPolyline
 90
       10
 70
     0
 43
0.0
 10
-19.13421019632676
 20
30.5477881199011
 10
-18.96546019632674
 20
30.65287831990111
 10
-18.80385739632675
 20
30.76907711990112
 10
-18.65003039632674
 20
30.89565791990111
 10
-18.50460499632674
 20
31.0319189199011
 10
-18.36820679632674
 20
31.17712771990114
 10
-18.24146099632674
 20
31.33057611990108
 10
-18.12499679632674
 20
31.49155031990108
 10
-18.01943959632675
 20
31.65932971990111
 10
-17.97094099632676
 20
31.74554811990112
  0
ARC
  5
205
330
2
100
AcDbEntity
  8
GAIKEI
  6
Continuous
 62
     1
100
AcDbCircle
 10
-20.66452939632672
 20
33.19838011990106
 30
0.0
 40
3.219240999999999
100
AcDbArc
 50
232.0000019999983
 51
359.9999159999994
  0
LINE
  5
206
330
2
100
AcDbEntity
  8
GAIKEI
  6
Continuous
 62
     1
100
AcDbLine
 10
-16.46452939632672
 20
26.84354611990108
 30
0.0
 11
-16.46452939632672
 21
33.19838011990106
 31
0.0
  0
LINE
  5
207
330
2
100
AcDbEntity
  8
GAIKEI
  6
Continuous
 62
     1
100
AcDbLine
 10
-24.86452939632673
 20
26.84353991990105
 30
0.0
 11
-24.86452939632673
 21
33.19838011990106
 31
0.0
  0
LINE
  5
208
330
2
100
AcDbEntity
  8
GAIKEI
  6
Continuous
 62
     1
100
AcDbLine
 10
-23.36634819632672
 20
31.76179571990104
 30
0.0
 11
-23.50694879632673
 21
31.68703971990107
 31
0.0
  0
LINE
  5
209
330
2
100
AcDbEntity
  8
GAIKEI
  6
Continuous
 62
     1
100
AcDbLine
 10
-22.54539479632675
 20
30.79098271990108
 30
0.0
 11
-22.54845259632674
 21
30.78707031990109
 31
0.0
  0
LINE
  5
20A
330
2
100
AcDbEntity
  8
GAIKEI
  6
Continuous
 62
     1
100
AcDbLine
 10
-22.64649339632672
 20
30.6615819199011
 30
0.0
 11
-22.54845259632674
 21
30.78707031990109
 31
0.0
  0
LINE
  5
20B
330
2
100
AcDbEntity
  8
GAIKEI
  6
Continuous
 62
     1
100
AcDbLine
 10
-16.46452939632672
 20
29.90837771990107
 30
0.0
 11
-16.46452939632672
 21
33.19838011990106
 31
0.0
  0
LINE
  5
20C
330
2
100
AcDbEntity
  8
GAIKEI
  6
Continuous
 62
     1
100
AcDbLine
 10
-16.46452939632672
 20
26.84346071990109
 30
0.0
 11
-16.46452939632672
 21
29.90837771990107
 31
0.0
  0
LINE
  5
20D
330
2
100
AcDbEntity
  8
GAIKEI
  6
Continuous
 62
     1
100
AcDbLine
 10
-23.38768919632673
 20
34.59407711990105
 30
0.0
 11
-23.38445119632672
 21
34.6002539199011
 31
0.0
  0
ARC
  5
20E
330
2
100
AcDbEntity
  8
GAIKEI
  6
Continuous
 62
     7
100
AcDbCircle
 10
-20.66452939632672
 20
25.14641471990109
 30
0.0
 40
16.2512908
100
AcDbArc
 50
75.0224209999988
 51
104.9775770000007
  0
LINE
  5
20F
330
2
100
AcDbEntity
  8
GAIKEI
  6
Continuous
 62
     1
100
AcDbLine
 10
-18.78060599632673
 20
35.60968991990109
 30
0.0
 11
-18.78586119632672
 21
35.60296391990107
 31
0.0
  0
ARC
  5
210
330
2
100
AcDbEntity
  8
GAIKEI
  6
Continuous
 62
     1
100
AcDbCircle
 10
-20.66478879632672
 20
33.19799551990104
 30
0.0
 40
3.0604614
100
AcDbArc
 50
52.00060800000107
 51
59.99940099999982
  0
ARC
  5
211
330
2
100
AcDbEntity
  8
GAIKEI
  6
Continuous
 62
     1
100
AcDbCircle
 10
-20.66461479632673
 20
33.19822751990108
 30
0.0
 40
3.0601738
100
AcDbArc
 50
60.00002299999953
 51
66.81600400000006
  0
ARC
  5
212
330
2
100
AcDbEntity
  8
GAIKEI
  6
Continuous
 62
     1
100
AcDbCircle
 10
-20.66452939632672
 20
33.19836171990107
 30
0.0
 40
3.060022
100
AcDbArc
 50
66.81653700000039
 51
109.1631969999987
  0
ARC
  5
213
330
2
100
AcDbEntity
  8
GAIKEI
  6
Continuous
 62
     1
100
AcDbCircle
 10
-20.66451099632673
 20
33.19836171990107
 30
0.0
 40
3.060023
100
AcDbArc
 50
109.1635110000003
 51
152.8868860000004
  0
ARC
  5
214
330
2
100
AcDbEntity
  8
GAIKEI
  6
Continuous
 62
     1
100
AcDbCircle
 10
-20.66475819632675
 20
33.19844111990108
 30
0.0
 40
3.059769799999999
100
AcDbArc
 50
152.8860659999993
 51
180.0010980000005
  0
LINE
  5
215
330
2
100
AcDbEntity
  8
GAIKEI
  6
Continuous
 62
     1
100
AcDbLine
 10
-18.78060599632673
 20
35.60968991990109
 30
0.0
 11
-18.68256519632672
 21
35.7351781199011
 31
0.0
  0
ARC
  5
216
330
2
100
AcDbEntity
  8
GAIKEI
  6
Continuous
 62
     1
100
AcDbCircle
 10
-20.66458419632673
 20
33.19836791990105
 30
0.0
 40
3.219296599999999
100
AcDbArc
 50
0.0002419999992783
 51
27.99974899999963
  0
LINE
  5
217
330
2
100
AcDbEntity
  8
GAIKEI
  6
Continuous
 62
     1
100
AcDbLine
 10
-17.82210999632673
 20
34.70972051990106
 30
0.0
 11
-17.96271039632674
 21
34.63496451990108
 31
0.0
  0
ELLIPSE
  5
218
330
2
100
AcDbEntity
  8
GAIKEI
  6
Continuous
 62
     1
100
AcDbEllipse
 10
-20.91101059632675
 20
33.02022451990109
 30
0.0
 11
2.786575317382812
 21
1.8840576171875
 31
0.0
210
0.0
220
0.0
230
1.0
 40
0.944692
 41
5.717058658599853
 42
6.184291839599609
  0
ARC
  5
219
330
2
100
AcDbEntity
  8
GAIKEI
  6
Continuous
 62
     1
100
AcDbCircle
 10
-20.66452939632672
 20
33.19838011990106
 30
0.0
 40
3.219240999999999
100
AcDbArc
 50
51.99999699999963
 51
180.0000050000005
  0
LINE
  5
21A
330
2
100
AcDbEntity
  8
GAIKEI
  6
Continuous
 62
     1
100
AcDbLine
 10
-24.86452939632673
 20
33.19838011990106
 30
0.0
 11
-24.86452939632673
 21
40.84560291990107
 31
0.0
  0
LINE
  5
21B
330
2
100
AcDbEntity
  8
GAIKEI
  6
Continuous
 62
     1
100
AcDbLine
 10
-16.46452939632672
 20
33.19838011990106
 30
0.0
 11
-16.46452939632672
 21
40.84560291990107
 31
0.0
  0
LINE
  5
21C
330
2
100
AcDbEntity
  8
GAIKEI
  6
Continuous
 62
     1
100
AcDbLine
 10
-16.46452939632672
 20
39.77836671990104
 30
0.0
 11
-16.46452939632672
 21
39.89853271990109
 31
0.0
  0
LINE
  5
21D
330
2
100
AcDbEntity
  8
GAIKEI
  6
Continuous
 62
     1
100
AcDbLine
 10
-16.46452939632672
 20
33.19838011990106
 30
0.0
 11
-16.46452939632672
 21
39.77837891990106
 31
0.0
  0
LINE
  5
21E
330
2
100
AcDbEntity
  8
GAIKEI
  6
Continuous
 62
     1
100
AcDbLine
 10
-16.26452939632673
 20
39.57837891990107
 30
0.0
 11
-16.46452939632672
 21
39.77837891990106
 31
0.0
  0
LINE
  5
21F
330
2
100
AcDbEntity
  8
GAIKEI
  6
Continuous
 62
     1
100
AcDbLine
 10
-25.06452939632675
 20
39.57837891990107
 30
0.0
 11
-24.86452939632673
 21
39.77837891990106
 31
0.0
  0
CIRCLE
  5
220
330
2
100
AcDbEntity
  8
GAIKEI
  6
Continuous
 62
     1
100
AcDbCircle
 10
-20.66452939632672
 20
33.19838011990106
 30
0.0
 40
2.9
  0
ARC
  5
221
330
2
100
AcDbEntity
  8
GAIKEI
  6
Continuous
 62
     7
100
AcDbCircle
 10
-30.16769239632675
 20
23.25220091990104
 30
0.0
 40
0.1599164
100
AcDbArc
 50
180.0102539999992
 51
227.8484200000007
  0
LINE
  5
222
330
2
100
AcDbEntity
  8
GAIKEI
  6
Continuous
 62
     7
100
AcDbLine
 10
-30.27197259632675
 20
23.13078971990109
 30
0.0
 11
-29.26371759632673
 21
22.21774651990108
 31
0.0
  0
LINE
  5
223
330
2
100
AcDbEntity
  8
GAIKEI
  6
Continuous
 62
     7
100
AcDbLine
 10
-30.32724299632673
 20
23.25223131990106
 30
0.0
 11
-30.32698359632673
 21
27.51789311990109
 31
0.0
  0
LWPOLYLINE
  5
224
330
2
100
AcDbEntity
  8
GAIKEI
  6
Continuous
 62
     7
100
AcDbPolyline
 90
       13
 70
     0
 43
0.0
 10
-30.32774339632676
 20
27.51788691990112
 10
-30.32098379632675
 20
27.83490971990108
 10
-30.30095819632675
 20
28.15113271990112
 10
-30.27128899632675
 20
28.43828491990109
 10
-30.23089599632675
 20
28.72334951990109
 10
-30.17737579632675
 20
29.01902831990111
 10
-30.11254119632673
 20
29.31138671990107
 10
-30.03624559632675
 20
29.60094351990108
 10
-29.94846799632674
 20
29.88801031990113
 10
-29.84884639632674
 20
30.17328851990112
 10
-29.73385299632673
 20
30.46347411990109
 10
-29.59523299632676
 20
30.77353271990109
 10
-29.46460259632676
 20
31.03848011990113
  0
LINE
  5
225
330
2
100
AcDbEntity
  8
GAIKEI
  6
Continuous
 62
     7
100
AcDbLine
 10
-29.26328419632674
 20
22.21789311990108
 30
0.0
 11
-29.15409699632673
 21
22.21789311990108
 31
0.0
  0
LINE
  5
226
330
2
100
AcDbEntity
  8
GAIKEI
  6
Continuous
 62
     7
100
AcDbLine
 10
-29.41093739632675
 20
31.10729731990108
 30
0.0
 11
-29.26367499810077
 21
31.23824831990106
 31
0.0
  0
LINE
  5
227
330
2
100
AcDbEntity
  8
GAIKEI
  6
Continuous
 62
     7
100
AcDbLine
 10
-29.26367499810077
 20
31.23824831990106
 30
0.0
 11
-29.22356099632674
 21
31.23824831990106
 31
0.0
  0
ARC
  5
228
330
2
100
AcDbEntity
  8
GAIKEI
  6
Continuous
 62
     1
100
AcDbCircle
 10
-27.81312859632675
 20
39.49033571990105
 30
0.0
 40
16.5410934
100
AcDbArc
 50
261.4402400000003
 51
262.6278469999991
  0
LWPOLYLINE
  5
229
330
2
100
AcDbEntity
  8
GAIKEI
  6
Continuous
 62
     1
100
AcDbPolyline
 90
        5
 70
     0
 43
0.0
 10
-28.81270139632676
 20
22.95107791990108
 10
-28.88728319632674
 20
22.9619603199011
 10
-29.02696839632674
 20
22.97673091990112
 10
-29.35914139632675
 20
23.01373051990112
 10
-29.93558959632674
 20
23.08586791990109
  0
LINE
  5
22A
330
2
100
AcDbEntity
  8
GAIKEI
  6
Continuous
 62
     1
100
AcDbLine
 10
-30.32774339632676
 20
27.51791751990106
 30
0.0
 11
-28.73235919632674
 21
27.51730091990106
 31
0.0
  0
ARC
  5
22B
330
2
100
AcDbEntity
  8
GAIKEI
  6
Continuous
 62
     7
100
AcDbCircle
 10
-29.25154419632674
 20
30.92800051990105
 30
0.0
 40
0.24
100
AcDbArc
 50
131.6367059999993
 51
152.5945940000008
  0
LINE
  5
22C
330
2
100
AcDbEntity
  8
GAIKEI
  6
Continuous
 62
     7
100
AcDbLine
 10
-29.26371599632674
 20
22.21789311990108
 30
0.0
 11
-29.26328419632674
 21
22.21827151990106
 31
0.0
  0
LWPOLYLINE
  5
22D
330
2
100
AcDbEntity
  8
GAIKEI
  6
Continuous
 62
     1
100
AcDbPolyline
 90
        5
 70
     0
 43
0.0
 10
-28.81281419632674
 20
22.95123051990112
 10
-28.80650019632674
 20
22.95983631990111
 10
-28.78823239632675
 20
22.97304431990108
 10
-28.74073779632676
 20
23.0079687199011
 10
-28.72261339632675
 20
23.02695671990108
  0
LWPOLYLINE
  5
22E
330
2
100
AcDbEntity
  8
GAIKEI
  6
Continuous
 62
     1
100
AcDbPolyline
 90
        3
 70
     0
 43
0.0
 10
-28.72261339632675
 20
23.02695671990108
 10
-28.68510119632674
 20
23.0794469199011
 10
-28.66155839632674
 20
23.12316031990111
  0
LINE
  5
22F
330
2
100
AcDbEntity
  8
GAIKEI
  6
Continuous
 62
     1
100
AcDbLine
 10
-28.66155839632674
 20
23.12316031990105
 30
0.0
 11
-28.64387499632673
 21
23.15759031990109
 31
0.0
  0
LINE
  5
230
330
2
100
AcDbEntity
  8
GAIKEI
  6
Continuous
 62
     1
100
AcDbLine
 10
-28.64387499632673
 20
23.15759031990109
 30
0.0
 11
-28.63525679632673
 21
23.17263551990107
 31
0.0
  0
ARC
  5
231
330
2
100
AcDbEntity
  8
GAIKEI
  6
Continuous
 62
     1
100
AcDbCircle
 10
-19.39099419632674
 20
40.99480351990109
 30
0.0
 40
20.3554566
100
AcDbArc
 50
242.4277329999994
 51
243.2831469999999
  0
LINE
  5
232
330
2
100
AcDbEntity
  8
GAIKEI
  6
Continuous
 62
     1
100
AcDbLine
 10
-28.73235919632674
 20
27.51730091990106
 30
0.0
 11
-28.63591919632674
 21
27.51730711990109
 31
0.0
  0
LWPOLYLINE
  5
233
330
2
100
AcDbEntity
  8
GAIKEI
  6
Continuous
 62
     1
100
AcDbPolyline
 90
       12
 70
     0
 43
0.0
 10
-29.29960619632675
 20
30.81135011990108
 10
-29.15682979632675
 20
30.4125585199011
 10
-29.04809719632675
 20
30.07305051990113
 10
-28.96311339632675
 20
29.77770751990113
 10
-28.88009939632673
 20
29.45201171990106
 10
-28.80512379632674
 20
29.1080907199011
 10
-28.74055779632675
 20
28.74405271990111
 10
-28.70428159632675
 20
28.48698491990109
 10
-28.67474199632676
 20
28.22144531990108
 10
-28.65290519632674
 20
27.95127311990109
 10
-28.63932479632675
 20
27.67822011990109
 10
-28.63581219632676
 20
27.5411107199011
  0
LINE
  5
234
330
2
100
AcDbEntity
  8
GAIKEI
  6
Continuous
 62
     1
100
AcDbLine
 10
-29.29960619632675
 20
30.81135011990108
 30
0.0
 11
-29.37541199632673
 21
31.01212511990104
 31
0.0
  0
LINE
  5
235
330
2
100
AcDbEntity
  8
GAIKEI
  6
Continuous
 62
     1
100
AcDbLine
 10
-29.37541199632673
 20
31.01212511990104
 30
0.0
 11
-29.41067047155301
 21
31.10753467897211
 31
0.0
  0
LINE
  5
236
330
2
100
AcDbEntity
  8
GAIKEI
  6
Continuous
 62
     1
100
AcDbLine
 10
-28.54242539632674
 20
22.81251591990105
 30
0.0
 11
-28.48110959632675
 21
22.81251591990105
 31
0.0
  0
LINE
  5
237
330
2
100
AcDbEntity
  8
GAIKEI
  6
Continuous
 62
     1
100
AcDbLine
 10
-28.44003038549164
 20
27.6281761395814
 30
0.0
 11
-28.63583819632675
 21
27.5411107199011
 31
0.0
  0
LWPOLYLINE
  5
238
330
2
100
AcDbEntity
  8
GAIKEI
  6
Continuous
 62
     1
100
AcDbPolyline
 90
        6
 70
     0
 43
0.0
 10
-28.63591599632673
 20
27.51731311990113
 10
-28.63480519632674
 20
24.81009271990109
 10
-28.63455199632677
 20
24.30371451990112
 10
-28.63442059632675
 20
23.79933831990109
 10
-28.63289479632675
 20
23.38114991990108
 10
-28.63442379632676
 20
23.17207391990109
  0
LINE
  5
239
330
2
100
AcDbEntity
  8
GAIKEI
  6
Continuous
 62
     1
100
AcDbLine
 10
-28.63583819632675
 20
27.51730711990109
 30
0.0
 11
-28.63583819632675
 21
27.5411107199011
 31
0.0
  0
ARC
  5
23A
330
2
100
AcDbEntity
  8
GAIKEI
  6
Continuous
 62
     7
100
AcDbCircle
 10
-29.20452879632674
 20
21.5583777199011
 30
0.0
 40
0.06
100
AcDbArc
 50
181.6300060000001
 51
268.3699929999995
  0
LINE
  5
23B
330
2
100
AcDbEntity
  8
GAIKEI
  6
Continuous
 62
     1
100
AcDbLine
 10
-24.26452939632674
 20
26.12109371358235
 30
0.0
 11
-24.26452939632674
 21
26.53111931990105
 31
0.0
  0
LINE
  5
23C
330
2
100
AcDbEntity
  8
GAIKEI
  6
Continuous
 62
     1
100
AcDbLine
 10
-24.26452939632674
 20
26.53111931990105
 30
0.0
 11
-20.71452939632672
 21
26.53111931990105
 31
0.0
  0
LWPOLYLINE
  5
23D
330
2
100
AcDbEntity
  8
GAIKEI
  6
Continuous
 62
     1
100
AcDbPolyline
 90
       15
 70
     0
 43
0.0
 10
-25.06452939632675
 20
27.45414171990109
 10
-25.06053759632675
 20
27.36205811990112
 10
-25.04790639632674
 20
27.26695911990112
 10
-25.02574919632673
 20
27.17024291990111
 10
-24.99335619632674
 20
27.07354491990111
 10
-24.95027299632673
 20
26.97876951990111
 10
-24.89642019632674
 20
26.88807131990109
 10
-24.83223719632676
 20
26.80380611990108
 10
-24.75869599632677
 20
26.7282689199011
 10
-24.67718199632674
 20
26.66338871990109
 10
-24.58944079632676
 20
26.6106787199011
 10
-24.49751879632675
 20
26.57113391990112
 10
-24.40369259632675
 20
26.54519411990111
 10
-24.31033919632674
 20
26.53263911990109
 10
-24.26452939632674
 20
26.53111931990111
  0
LINE
  5
23E
330
2
100
AcDbEntity
  8
GAIKEI
  6
Continuous
 62
     1
100
AcDbLine
 10
-20.71452939632672
 20
26.4618933199011
 30
0.0
 11
-20.61452939632673
 21
26.4618933199011
 31
0.0
  0
LINE
  5
23F
330
2
100
AcDbEntity
  8
GAIKEI
  6
Continuous
 62
     1
100
AcDbLine
 10
-20.71452939632672
 20
25.9810217199011
 30
0.0
 11
-20.61452939632673
 21
25.9810217199011
 31
0.0
  0
LINE
  5
240
330
2
100
AcDbEntity
  8
GAIKEI
  6
Continuous
 62
     1
100
AcDbLine
 10
-20.61452939632673
 20
25.92901971990108
 30
0.0
 11
-20.61452939632673
 21
25.9810217199011
 31
0.0
  0
LINE
  5
241
330
2
100
AcDbEntity
  8
GAIKEI
  6
Continuous
 62
     1
100
AcDbLine
 10
-20.61452939632673
 20
25.92901971990108
 30
0.0
 11
-20.71452939632672
 21
25.92901971990108
 31
0.0
  0
LINE
  5
242
330
2
100
AcDbEntity
  8
GAIKEI
  6
Continuous
 62
     1
100
AcDbLine
 10
-20.61452939632673
 20
25.92901971990108
 30
0.0
 11
-20.61452939632673
 21
21.65837771990107
 31
0.0
  0
LINE
  5
243
330
2
100
AcDbEntity
  8
GAIKEI
  6
Continuous
 62
     1
100
AcDbLine
 10
-25.06452939632675
 20
33.19838011990106
 30
0.0
 11
-25.06452939632675
 21
40.34064091990109
 31
0.0
  0
ARC
  5
244
330
2
100
AcDbEntity
  8
GAIKEI
  6
Continuous
 62
     7
100
AcDbCircle
 10
-25.12452999632674
 20
40.34064091990109
 30
0.0
 40
0.06
100
AcDbArc
 50
0.0
 51
100.8469170000002
  0
LINE
  5
245
330
2
100
AcDbEntity
  8
GAIKEI
  6
Continuous
 62
     1
100
AcDbLine
 10
-25.13581999632675
 20
33.19838011990106
 30
0.0
 11
-25.13581999632675
 21
40.39957031990105
 31
0.0
  0
LINE
  5
246
330
2
100
AcDbEntity
  8
GAIKEI
  6
Continuous
 62
     1
100
AcDbLine
 10
-25.06452939632675
 20
27.19961911990106
 30
0.0
 11
-25.06452939632675
 21
33.19838011990106
 31
0.0
  0
LINE
  5
247
330
2
100
AcDbEntity
  8
GAIKEI
  6
Continuous
 62
     1
100
AcDbLine
 10
-25.13581999632675
 20
27.19961911990106
 30
0.0
 11
-25.06452939632675
 21
27.19961911990106
 31
0.0
  0
LINE
  5
248
330
2
100
AcDbEntity
  8
GAIKEI
  6
Continuous
 62
     1
100
AcDbLine
 10
-20.71452939632672
 20
25.96371211990106
 30
0.0
 11
-20.71440419632674
 21
26.01572011990106
 31
0.0
  0
LINE
  5
249
330
2
100
AcDbEntity
  8
GAIKEI
  6
Continuous
 62
     1
100
AcDbLine
 10
-20.71452939632672
 20
26.53111931990105
 30
0.0
 11
-20.71452939632672
 21
26.01572011990106
 31
0.0
  0
LINE
  5
24A
330
2
100
AcDbEntity
  8
GAIKEI
  6
Continuous
 62
     1
100
AcDbLine
 10
-20.71452939632672
 20
21.49838011990107
 30
0.0
 11
-20.71452939632672
 21
21.5583777199011
 31
0.0
  0
ARC
  5
24B
330
2
100
AcDbEntity
  8
GAIKEI
  6
Continuous
 62
     7
100
AcDbCircle
 10
-20.66452939632672
 20
17.06407831990105
 30
0.0
 40
23.7600006
100
AcDbArc
 50
100.8469170000002
 51
101.6551189999994
  0
LINE
  5
24C
330
2
100
AcDbEntity
  8
GAIKEI
  6
Continuous
 62
     1
100
AcDbLine
 10
-25.46454159632674
 20
33.19838011990106
 30
0.0
 11
-25.46454159632674
 21
40.33419551990107
 31
0.0
  0
LINE
  5
24D
330
2
100
AcDbEntity
  8
GAIKEI
  6
Continuous
 62
     1
100
AcDbLine
 10
-25.13581999632675
 20
27.19961911990106
 30
0.0
 11
-25.13581999632675
 21
33.19838011990106
 31
0.0
  0
LWPOLYLINE
  5
24E
330
2
100
AcDbEntity
  8
GAIKEI
  6
Continuous
 62
     1
100
AcDbPolyline
 90
       18
 70
     0
 43
0.0
 10
-24.27364339632675
 20
26.12195191990111
 10
-24.33820019632674
 20
26.13050291990112
 10
-24.40177599632673
 20
26.14456531990112
 10
-24.46400899632676
 20
26.16381591990109
 10
-24.52456359632674
 20
26.18794911990108
 10
-24.58312679632675
 20
26.21664171990108
 10
-24.63942399632674
 20
26.2496129199011
 10
-24.69323119632674
 20
26.28656971990108
 10
-24.74438159632675
 20
26.32719471990112
 10
-24.79275659632674
 20
26.37116451990107
 10
-24.83826279632675
 20
26.41818591990108
 10
-24.88081499632676
 20
26.46797851990112
 10
-24.95671979632675
 20
26.57483271990111
 10
-25.01989899632673
 20
26.68989011990106
 10
-25.06986679632675
 20
26.81152091990111
 10
-25.10615539632676
 20
26.93809571990107
 10
-25.12829879632673
 20
27.0680089199011
 10
-25.13581999632675
 20
27.19961911990111
  0
ARC
  5
24F
330
2
100
AcDbEntity
  8
GAIKEI
  6
Continuous
 62
     1
100
AcDbCircle
 10
-20.66881399632672
 20
67.11983391990106
 30
0.0
 40
41.15611580000001
100
AcDbArc
 50
264.9750680000002
 51
269.9363610000007
  0
LINE
  5
250
330
2
100
AcDbEntity
  8
GAIKEI
  6
Continuous
 62
     1
100
AcDbLine
 10
-20.71452939632672
 20
21.5583777199011
 30
0.0
 11
-20.71452939632672
 21
25.96371211990106
 31
0.0
  0
LINE
  5
251
330
2
100
AcDbEntity
  8
GAIKEI
  6
Continuous
 62
     7
100
AcDbLine
 10
-29.20452879632674
 20
21.49838011990107
 30
0.0
 11
-20.71440419632674
 21
21.49838011990107
 31
0.0
  0
ARC
  5
252
330
2
100
AcDbEntity
  8
GAIKEI
  6
Continuous
 62
     7
100
AcDbCircle
 10
-20.66452939632672
 20
33.19838011990106
 30
0.0
 40
8.599999999999999
100
AcDbArc
 50
123.9273200000001
 51
180.0000050000005
  0
LINE
  5
253
330
2
100
AcDbEntity
  8
GAIKEI
  6
Continuous
 62
     1
100
AcDbLine
 10
-25.46452939632672
 20
21.49838011990107
 30
0.0
 11
-25.46452939632672
 21
33.19838011990106
 31
0.0
  0
LINE
  5
254
330
2
100
AcDbEntity
  8
GAIKEI
  6
Continuous
 62
     7
100
AcDbLine
 10
-28.44003599632674
 20
27.61838131990106
 30
0.0
 11
-28.44003599632674
 21
22.98823611990105
 31
0.0
  0
ARC
  5
255
330
2
100
AcDbEntity
  8
GAIKEI
  6
Continuous
 62
     7
100
AcDbCircle
 10
-36.49709919632673
 20
27.6156165199011
 30
0.0
 40
8.0570786
100
AcDbArc
 50
0.0196609999997647
 51
5.526386999999371
  0
LWPOLYLINE
  5
256
330
2
100
AcDbEntity
  8
GAIKEI
  6
Continuous
 62
     7
100
AcDbPolyline
 90
        7
 70
     0
 43
0.0
 10
-28.85249619632674
 20
30.21522571990113
 10
-28.75504599632674
 20
29.88118031990109
 10
-28.66241439632674
 20
29.51410891990111
 10
-28.59963979632676
 20
29.22105471990107
 10
-28.54509879632676
 20
28.9163549199011
 10
-28.50068959632674
 20
28.6032995199011
 10
-28.47745959632675
 20
28.39154411990108
  0
ARC
  5
257
330
2
100
AcDbEntity
  8
GAIKEI
  6
Continuous
 62
     7
100
AcDbCircle
 10
-40.11297439632673
 20
26.70409911990106
 30
0.0
 40
11.795311
100
AcDbArc
 50
17.31796900000048
 51
22.20190400000005
  0
ARC
  5
258
330
2
100
AcDbEntity
  8
GAIKEI
  6
Continuous
 62
     7
100
AcDbCircle
 10
-40.77489159632674
 20
26.46282711990108
 30
0.0
 40
12.4994576
100
AcDbArc
 50
22.07937600000069
 51
22.89421099999977
  0
LINE
  5
259
330
2
100
AcDbEntity
  8
GAIKEI
  6
Continuous
 62
     7
100
AcDbLine
 10
-29.26008299632673
 20
31.32549791990107
 30
0.0
 11
-29.26451399632674
 21
31.33602651990106
 31
0.0
  0
LWPOLYLINE
  5
25A
330
2
100
AcDbEntity
  8
GAIKEI
  6
Continuous
 62
     7
100
AcDbPolyline
 90
        6
 70
     0
 43
0.0
 10
-28.44003599632674
 20
22.9882361199011
 10
-28.44528179632675
 20
22.9192847199011
 10
-28.46057119632675
 20
22.85662591990109
 10
-28.47841479632675
 20
22.8167699199011
 10
-28.49921859632673
 20
22.7886327199011
 10
-28.50465079632676
 20
22.78354251990112
  0
LINE
  5
25B
330
2
100
AcDbEntity
  8
GAIKEI
  6
Continuous
 62
     7
100
AcDbLine
 10
-29.26452939632674
 20
31.33603271990109
 30
0.0
 11
-29.26452939632674
 21
33.19838011990106
 31
0.0
  0
LINE
  5
25C
330
2
100
AcDbEntity
  8
GAIKEI
  6
Continuous
 62
     7
100
AcDbLine
 10
-29.24822679632672
 20
31.29729371990106
 30
0.0
 11
-29.25925139632673
 21
31.32355711990107
 31
0.0
  0
LINE
  5
25D
330
2
100
AcDbEntity
  8
GAIKEI
  6
Continuous
 62
     7
100
AcDbLine
 10
-29.22368759632673
 20
31.2383521199011
 30
0.0
 11
-29.24822679632672
 21
31.29729371990106
 31
0.0
  0
LINE
  5
25E
330
2
100
AcDbEntity
  8
GAIKEI
  6
Continuous
 62
     7
100
AcDbLine
 10
-29.26452939632674
 20
21.5583777199011
 30
0.0
 11
-29.26452939632674
 21
22.12075971566355
 31
0.0
  0
ARC
  5
25F
330
2
100
AcDbEntity
  8
GAIKEI
  6
Continuous
 62
     7
100
AcDbCircle
 10
32.29598100367326
 20
-47.6739098800989
 30
0.0
 40
93.06433099999999
100
AcDbArc
 50
130.7922609999997
 51
131.2216479999985
  0
LINE
  5
260
330
2
100
AcDbEntity
  8
GAIKEI
  6
Continuous
 62
     7
100
AcDbLine
 10
-29.26452939632674
 20
22.12075971566355
 30
0.0
 11
-29.03096619632675
 21
22.32591911990107
 31
0.0
  0
LINE
  5
261
330
2
100
AcDbEntity
  8
GAIKEI
  6
Continuous
 62
     1
100
AcDbLine
 10
-20.61452939632673
 20
26.53111931990105
 30
0.0
 11
-17.06452939632672
 21
26.53111931990105
 31
0.0
  0
LINE
  5
262
330
2
100
AcDbEntity
  8
GAIKEI
  6
Continuous
 62
     1
100
AcDbLine
 10
-17.06452939632672
 20
26.53111931990105
 30
0.0
 11
-17.06452939632672
 21
26.12109999693655
 31
0.0
  0
ELLIPSE
  5
263
330
2
100
AcDbEntity
  8
GAIKEI
  6
Continuous
 62
     1
100
AcDbEllipse
 10
-17.06453239632674
 20
27.45414171990109
 30
0.0
 11
0.000006103515625
 21
-0.9230194091796875
 31
0.0
210
0.0
220
0.0
230
1.0
 40
0.8667249999999999
 41
6.28318452835083
 42
7.851845741271972
  0
LINE
  5
264
330
2
100
AcDbEntity
  8
GAIKEI
  6
Continuous
 62
     1
100
AcDbLine
 10
-16.26452939632673
 20
33.19838011990106
 30
0.0
 11
-16.26452939632673
 21
40.34064091990109
 31
0.0
  0
ARC
  5
265
330
2
100
AcDbEntity
  8
GAIKEI
  6
Continuous
 62
     7
100
AcDbCircle
 10
-16.20452879632674
 20
40.34064091990109
 30
0.0
 40
0.06
100
AcDbArc
 50
79.15308199999902
 51
180.0000050000005
  0
LINE
  5
266
330
2
100
AcDbEntity
  8
GAIKEI
  6
Continuous
 62
     1
100
AcDbLine
 10
-20.61452939632673
 20
26.01572011990106
 30
0.0
 11
-20.61452939632673
 21
26.53111931990105
 31
0.0
  0
LINE
  5
267
330
2
100
AcDbEntity
  8
GAIKEI
  6
Continuous
 62
     1
100
AcDbLine
 10
-20.61452939632673
 20
25.96371211990106
 30
0.0
 11
-20.61465439632673
 21
26.01572011990106
 31
0.0
  0
LINE
  5
268
330
2
100
AcDbEntity
  8
GAIKEI
  6
Continuous
 62
     1
100
AcDbLine
 10
-16.26452939632673
 20
27.19961911990106
 30
0.0
 11
-16.19323719632672
 21
27.19961911990106
 31
0.0
  0
LINE
  5
269
330
2
100
AcDbEntity
  8
GAIKEI
  6
Continuous
 62
     1
100
AcDbLine
 10
-16.26452939632673
 20
33.19838011990106
 30
0.0
 11
-16.26452939632673
 21
27.19961911990106
 31
0.0
  0
LINE
  5
26A
330
2
100
AcDbEntity
  8
GAIKEI
  6
Continuous
 62
     1
100
AcDbLine
 10
-20.61452939632673
 20
21.49838011990107
 30
0.0
 11
-20.61452939632673
 21
21.5583777199011
 31
0.0
  0
LINE
  5
26B
330
2
100
AcDbEntity
  8
GAIKEI
  6
Continuous
 62
     1
100
AcDbLine
 10
-16.19323719632672
 20
33.19838011990106
 30
0.0
 11
-16.19323719632672
 21
40.39957031990105
 31
0.0
  0
ARC
  5
26C
330
2
100
AcDbEntity
  8
GAIKEI
  6
Continuous
 62
     7
100
AcDbCircle
 10
-20.66452939632672
 20
17.06407831990105
 30
0.0
 40
23.7600006
100
AcDbArc
 50
78.34487800000158
 51
79.15308199999902
  0
LINE
  5
26D
330
2
100
AcDbEntity
  8
GAIKEI
  6
Continuous
 62
     7
100
AcDbLine
 10
-12.06452939632667
 20
21.49838011990113
 30
0.0
 11
-20.61465439632673
 21
21.49838011990107
 31
0.0
  0
LINE
  5
26E
330
2
100
AcDbEntity
  8
GAIKEI
  6
Continuous
 62
     1
100
AcDbLine
 10
-20.61452939632673
 20
25.96371211990106
 30
0.0
 11
-20.61452939632673
 21
21.5583777199011
 31
0.0
  0
ARC
  5
26F
330
2
100
AcDbEntity
  8
GAIKEI
  6
Continuous
 62
     1
100
AcDbCircle
 10
-20.66005859632674
 20
67.11561651990104
 30
0.0
 40
41.151892
100
AcDbArc
 50
270.0633880000009
 51
275.0251929999998
  0
LWPOLYLINE
  5
270
330
2
100
AcDbEntity
  8
GAIKEI
  6
Continuous
 62
     1
100
AcDbPolyline
 90
       18
 70
     0
 43
0.0
 10
-16.19323719632675
 20
27.19961911990111
 10
-16.20073239632674
 20
27.06817991990113
 10
-16.22281799632674
 20
26.93841911990109
 10
-16.25903619632675
 20
26.81195431990114
 10
-16.30892639632674
 20
26.69039051990109
 10
-16.37203359632673
 20
26.57533931990111
 10
-16.44789419632673
 20
26.46841791990107
 10
-16.49043879632674
 20
26.41856451990111
 10
-16.53594359632674
 20
26.37148791990109
 10
-16.58430779632675
 20
26.32748771990112
 10
-16.63543999632674
 20
26.28685051990113
 10
-16.68924239632676
 20
26.24987551990108
 10
-16.74559919632673
 20
26.21684931990109
 10
-16.80425099632674
 20
26.18808351990111
 10
-16.86488019632674
 20
26.16389531990109
 10
-16.92716359632675
 20
26.1446021199011
 10
-16.99078359632673
 20
26.13051511990108
 10
-17.05541679632674
 20
26.12195191990111
  0
LINE
  5
271
330
2
100
AcDbEntity
  8
GAIKEI
  6
Continuous
 62
     1
100
AcDbLine
 10
-16.19323719632672
 20
27.19961911990106
 30
0.0
 11
-16.19323719632672
 21
33.19838011990106
 31
0.0
  0
LINE
  5
272
330
2
100
AcDbEntity
  8
GAIKEI
  6
Continuous
 62
     1
100
AcDbLine
 10
-15.86451719632674
 20
33.19838011990106
 30
0.0
 11
-15.86451719632674
 21
40.33419551990107
 31
0.0
  0
ARC
  5
273
330
2
100
AcDbEntity
  8
GAIKEI
  6
Continuous
 62
     7
100
AcDbCircle
 10
-20.66452939632672
 20
33.19838011990106
 30
0.0
 40
8.599999999999999
100
AcDbArc
 50
0.0
 51
56.0726729999993
  0
LINE
  5
274
330
2
100
AcDbEntity
  8
GAIKEI
  6
Continuous
 62
     1
100
AcDbLine
 10
-15.86452939632673
 20
21.49838011990107
 30
0.0
 11
-15.86452939632673
 21
33.19838011990106
 31
0.0
  0
LINE
  5
275
330
2
100
AcDbEntity
  8
GAIKEI
  6
Continuous
 62
     7
100
AcDbLine
 10
-12.06452939632672
 20
31.33603271990109
 30
0.0
 11
-12.06452939632672
 21
33.19838011990106
 31
0.0
  0
LINE
  5
276
330
2
100
AcDbEntity
  8
GAIKEI
  6
Continuous
 62
     1
100
AcDbLine
 10
-20.56452939632672
 20
13.29838011990108
 30
0.0
 11
-20.56452939632672
 21
13.49838011990107
 31
0.0
  0
LINE
  5
277
330
2
100
AcDbEntity
  8
GAIKEI
  6
Continuous
 62
     1
100
AcDbLine
 10
-19.56452939632672
 20
13.29838011990108
 30
0.0
 11
-19.56452939632672
 21
13.49838011990107
 31
0.0
  0
LINE
  5
278
330
2
100
AcDbEntity
  8
GAIKEI
  6
Continuous
 62
     1
100
AcDbLine
 10
-20.06452939632672
 20
13.29838011990108
 30
0.0
 11
-20.56452939632672
 21
13.29838011990108
 31
0.0
  0
LINE
  5
279
330
2
100
AcDbEntity
  8
GAIKEI
  6
Continuous
 62
     1
100
AcDbLine
 10
-19.56452939632672
 20
13.29838011990108
 30
0.0
 11
-20.06452939632672
 21
13.29838011990108
 31
0.0
  0
LINE
  5
27A
330
2
100
AcDbEntity
  8
GAIKEI
  6
Continuous
 62
     1
100
AcDbLine
 10
-21.16452939632671
 20
13.29838011990108
 30
0.0
 11
-21.16452939632671
 21
13.49838011990107
 31
0.0
  0
LINE
  5
27B
330
2
100
AcDbEntity
  8
GAIKEI
  6
Continuous
 62
     1
100
AcDbLine
 10
-20.66452939632672
 20
13.29838011990108
 30
0.0
 11
-21.16452939632671
 21
13.29838011990108
 31
0.0
  0
LINE
  5
27C
330
2
100
AcDbEntity
  8
GAIKEI
  6
Continuous
 62
     1
100
AcDbLine
 10
-20.56451719632673
 20
13.29838011990108
 30
0.0
 11
-20.66452939632672
 21
13.29838011990108
 31
0.0
  0
LINE
  5
27D
330
2
100
AcDbEntity
  8
GAIKEI
  6
Continuous
 62
     1
100
AcDbLine
 10
-28.06452939632675
 20
13.29838011990108
 30
0.0
 11
-28.06452939632675
 21
13.4983739199011
 31
0.0
  0
LINE
  5
27E
330
2
100
AcDbEntity
  8
GAIKEI
  6
Continuous
 62
     1
100
AcDbLine
 10
-26.06452939632675
 20
13.29838011990108
 30
0.0
 11
-26.06452939632675
 21
13.4983739199011
 31
0.0
  0
LINE
  5
27F
330
2
100
AcDbEntity
  8
GAIKEI
  6
Continuous
 62
     1
100
AcDbLine
 10
-27.06452939632675
 20
13.29838011990108
 30
0.0
 11
-28.06452939632675
 21
13.29838011990108
 31
0.0
  0
LINE
  5
280
330
2
100
AcDbEntity
  8
GAIKEI
  6
Continuous
 62
     1
100
AcDbLine
 10
-26.06452939632675
 20
13.29838011990108
 30
0.0
 11
-27.06452939632675
 21
13.29838011990108
 31
0.0
  0
LINE
  5
281
330
2
100
AcDbEntity
  8
GAIKEI
  6
Continuous
 62
     1
100
AcDbLine
 10
-15.26452939632673
 20
13.29838011990108
 30
0.0
 11
-15.26452939632673
 21
13.4983739199011
 31
0.0
  0
LINE
  5
282
330
2
100
AcDbEntity
  8
GAIKEI
  6
Continuous
 62
     1
100
AcDbLine
 10
-13.26452939632673
 20
13.29838011990108
 30
0.0
 11
-13.26452939632673
 21
13.4983739199011
 31
0.0
  0
LINE
  5
283
330
2
100
AcDbEntity
  8
GAIKEI
  6
Continuous
 62
     1
100
AcDbLine
 10
-14.26452939632673
 20
13.29838011990108
 30
0.0
 11
-15.26452939632673
 21
13.29838011990108
 31
0.0
  0
LINE
  5
284
330
2
100
AcDbEntity
  8
GAIKEI
  6
Continuous
 62
     1
100
AcDbLine
 10
-13.26452939632673
 20
13.29838011990108
 30
0.0
 11
-14.26452939632673
 21
13.29838011990108
 31
0.0
  0
LINE
  5
285
330
2
100
AcDbEntity
  8
GAIKEI
  6
Continuous
 62
     7
100
AcDbLine
 10
-32.82452999632673
 20
17.09838011990115
 30
0.0
 11
-32.82452999632673
 21
17.29838011990108
 31
0.0
  0
ARC
  5
286
330
2
100
AcDbEntity
  8
GAIKEI
  6
Continuous
 62
     7
100
AcDbCircle
 10
-31.63765259632675
 20
13.89838011990105
 30
0.0
 40
0.4
100
AcDbArc
 50
191.4889879999996
 51
269.9999969999991
  0
LINE
  5
287
330
2
100
AcDbEntity
  8
GAIKEI
  6
Continuous
 62
     7
100
AcDbLine
 10
-32.02963699632673
 20
13.81870791990104
 30
0.0
 11
-32.46452939632673
 21
15.95838071990107
 31
0.0
  0
ARC
  5
288
330
2
100
AcDbEntity
  8
GAIKEI
  6
Continuous
 62
     7
100
AcDbCircle
 10
-32.69043419632675
 20
16.05838071990109
 30
0.0
 40
0.1
100
AcDbArc
 50
194.6941079999992
 51
269.9999969999991
  0
ARC
  5
289
330
2
100
AcDbEntity
  8
GAIKEI
  6
Continuous
 62
     7
100
AcDbCircle
 10
-28.72452999632674
 20
17.09838011990109
 30
0.0
 40
4.200000399999999
100
AcDbArc
 50
179.9999949999995
 51
194.6941079999992
  0
LINE
  5
28A
330
2
100
AcDbEntity
  8
GAIKEI
  6
Continuous
 62
     7
100
AcDbLine
 10
-9.691406196326738
 20
13.49838011990107
 30
0.0
 11
-31.63765259632675
 21
13.49838011990107
 31
0.0
  0
LINE
  5
28B
330
2
100
AcDbEntity
  8
GAIKEI
  6
Continuous
 62
     1
100
AcDbLine
 10
-9.299423196326728
 20
13.81870791990104
 30
0.0
 11
-32.02963699632673
 21
13.81870791990104
 31
0.0
  0
LINE
  5
28C
330
2
100
AcDbEntity
  8
GAIKEI
  6
Continuous
 62
     1
100
AcDbLine
 10
-8.864529396326716
 20
15.95838071990107
 30
0.0
 11
-32.46452939632674
 21
15.95838071990107
 31
0.0
  0
LINE
  5
28D
330
2
100
AcDbEntity
  8
GAIKEI
  6
Continuous
 62
     7
100
AcDbLine
 10
-32.46452939632673
 20
15.95838071990107
 30
0.0
 11
-32.69043419632675
 21
15.95838071990107
 31
0.0
  0
LINE
  5
28E
330
2
100
AcDbEntity
  8
GAIKEI
  6
Continuous
 62
     1
100
AcDbLine
 10
-31.42369079632675
 20
17.09838011990109
 30
0.0
 11
-32.82452999632673
 21
17.09838011990115
 31
0.0
  0
LINE
  5
28F
330
2
100
AcDbEntity
  8
GAIKEI
  6
Continuous
 62
     1
100
AcDbLine
 10
-8.724072495544049
 20
17.09838011990109
 30
0.0
 11
-31.42369079632675
 21
17.09838011990109
 31
0.0
  0
LINE
  5
290
330
2
100
AcDbEntity
  8
GAIKEI
  6
Continuous
 62
     7
100
AcDbLine
 10
-32.38044579632674
 20
18.78667971990109
 30
0.0
 11
-32.45952439632674
 21
18.72547351990107
 31
0.0
  0
LINE
  5
291
330
2
100
AcDbEntity
  8
GAIKEI
  6
Continuous
 62
     7
100
AcDbLine
 10
-29.26452939632674
 20
21.19838011990106
 30
0.0
 11
-31.74780579632673
 21
19.27634031990107
 31
0.0
  0
ARC
  5
292
330
2
100
AcDbEntity
  8
GAIKEI
  6
Continuous
 62
     7
100
AcDbCircle
 10
-32.33710919632674
 20
18.56731311990109
 30
0.0
 40
0.2000018
100
AcDbArc
 50
127.7397689999998
 51
153.0278900000013
  0
ARC
  5
293
330
2
100
AcDbEntity
  8
GAIKEI
  6
Continuous
 62
     7
100
AcDbCircle
 10
-28.95044239632674
 20
16.84380251990109
 30
0.0
 40
4.0000004
100
AcDbArc
 50
153.0279980000001
 51
173.4745789999997
  0
LINE
  5
294
330
2
100
AcDbEntity
  8
GAIKEI
  6
Continuous
 62
     1
100
AcDbLine
 10
-13.84053039632673
 20
21.4983739199011
 30
0.0
 11
-13.83453059632671
 21
21.19838011990106
 31
0.0
  0
LINE
  5
295
330
2
100
AcDbEntity
  8
GAIKEI
  6
Continuous
 62
     1
100
AcDbLine
 10
-27.48852839632673
 20
21.4983739199011
 30
0.0
 11
-27.49452959632674
 21
21.19838011990106
 31
0.0
  0
LINE
  5
296
330
2
100
AcDbEntity
  8
GAIKEI
  6
Continuous
 62
     1
100
AcDbLine
 10
-31.74780579632673
 20
19.27634031990107
 30
0.0
 11
-31.75392599632673
 21
19.28424731990105
 31
0.0
  0
ARC
  5
297
330
2
100
AcDbEntity
  8
GAIKEI
  6
Continuous
 62
     1
100
AcDbCircle
 10
-31.79346619632673
 20
19.25364431990107
 30
0.0
 40
0.05
100
AcDbArc
 50
37.73964999999859
 51
127.7396449999998
  0
LINE
  5
298
330
2
100
AcDbEntity
  8
GAIKEI
  6
Continuous
 62
     1
100
AcDbLine
 10
-31.82406919632672
 20
19.29318291990108
 30
0.0
 11
-32.35205979632673
 21
18.88452211990108
 31
0.0
  0
LINE
  5
299
330
2
100
AcDbEntity
  8
GAIKEI
  6
Continuous
 62
     1
100
AcDbLine
 10
-32.51535639632673
 20
18.65802371990105
 30
0.0
 11
-26.34611799632674
 21
18.65802371990105
 31
0.0
  0
LINE
  5
29A
330
2
100
AcDbEntity
  8
GAIKEI
  6
Continuous
 62
     1
100
AcDbLine
 10
-8.813702396326732
 20
18.65802371990105
 30
0.0
 11
-26.34611799632674
 21
18.65802371990105
 31
0.0
  0
LINE
  5
29B
330
2
100
AcDbEntity
  8
GAIKEI
  6
Continuous
 62
     1
100
AcDbLine
 10
-31.75490719632674
 20
17.09838011990109
 30
0.0
 11
-32.29105059632673
 21
17.09838011990109
 31
0.0
  0
LINE
  5
29C
330
2
100
AcDbEntity
  8
GAIKEI
  6
Continuous
 62
     1
100
AcDbLine
 10
-32.29105059632673
 20
17.09838011990109
 30
0.0
 11
-32.29896079632676
 21
17.09838011990109
 31
0.0
  0
LINE
  5
29D
330
2
100
AcDbEntity
  8
GAIKEI
  6
Continuous
 62
     7
100
AcDbLine
 10
-32.92452999632673
 20
17.29838011990108
 30
0.0
 11
-32.82452999632673
 21
17.29838011990114
 31
0.0
  0
LINE
  5
29E
330
2
100
AcDbEntity
  8
GAIKEI
  6
Continuous
 62
     1
100
AcDbLine
 10
-26.54228659632674
 20
17.29838011990108
 30
0.0
 11
-8.504528796326702
 21
17.29838011990114
 31
0.0
  0
LINE
  5
29F
330
2
100
AcDbEntity
  8
GAIKEI
  6
Continuous
 62
     7
100
AcDbLine
 10
-29.26452939632674
 20
21.19838011990106
 30
0.0
 11
-12.06452939632672
 21
21.19838011990106
 31
0.0
  0
LINE
  5
2A0
330
2
100
AcDbEntity
  8
GAIKEI
  6
Continuous
 62
     7
100
AcDbLine
 10
-31.78730299632673
 20
19.24568231990105
 30
0.0
 11
-31.74780579632673
 21
19.27634031990107
 31
0.0
  0
LINE
  5
2A1
330
2
100
AcDbEntity
  8
GAIKEI
  6
Continuous
 62
     7
100
AcDbLine
 10
-32.32353819632675
 20
18.83064331990107
 30
0.0
 11
-31.78730299632673
 21
19.24568231990105
 31
0.0
  0
LINE
  5
2A2
330
2
100
AcDbEntity
  8
GAIKEI
  6
Continuous
 62
     7
100
AcDbLine
 10
-32.38044579632674
 20
18.78667971990109
 30
0.0
 11
-32.32353819632675
 21
18.83064331990107
 31
0.0
  0
LINE
  5
2A3
330
2
100
AcDbEntity
  8
GAIKEI
  6
Continuous
 62
     1
100
AcDbLine
 10
-32.38044579632674
 20
18.78667971990109
 30
0.0
 11
-32.37093799632674
 21
18.85216431990108
 31
0.0
  0
ARC
  5
2A4
330
2
100
AcDbEntity
  8
GAIKEI
  6
Continuous
 62
     1
100
AcDbCircle
 10
-32.32145679632675
 20
18.84498351990106
 30
0.0
 40
0.05
100
AcDbArc
 50
127.7396449999998
 51
171.7396419999992
  0
POINT
  5
2A5
330
2
100
AcDbEntity
  8
GAIKEI
  6
Continuous
 62
     7
100
AcDbPoint
 10
-30.32774339632676
 20
27.51788691990106
 30
0.0
  0
POINT
  5
2A6
330
2
100
AcDbEntity
  8
GAIKEI
  6
Continuous
 62
     1
100
AcDbPoint
 10
-20.66452939632672
 20
41.39770871990106
 30
0.0
  0
TEXT
  5
2A7
330
2
100
AcDbEntity
  8
TOUROKU
100
AcDbText
 10
44.47925936445601
 20
51.68079990041952
 30
0.0
 40
2.0
  1
ＢＢＨＣＭ５８１
 72
     2
 11
62.34592603112268
 21
51.68079990041952
 31
0.0
100
AcDbText
  0
TEXT
  5
2A9
330
2
100
AcDbEntity
  8
MOJI1
100
AcDbText
 10
-35.6540240018046
 20
57.68079990041968
 30
0.0
 40
4.0
  1
ネットワークカメラ
100
AcDbText
  0
TEXT
  5
2AB
330
2
100
AcDbEntity
  8
MOJI1
100
AcDbText
 10
-20.1540240018046
 20
-51.03516560638439
 30
0.0
 40
3.0
  1
ＭＰＥＧ－４／ＪＰＥＧ　デュアル通信
100
AcDbText
  0
TEXT
  5
2AC
330
2
100
AcDbEntity
  8
MOJI1
100
AcDbText
 10
-19.1540240018046
 20
-11.03516560638439
 30
0.0
 40
3.0
  1
ＰｏＥ給電（ＩＥＥＥ８０２．３ａｆ－２００３準拠）
 41
0.9
100
AcDbText
  0
TEXT
  5
2AD
330
2
100
AcDbEntity
  8
MOJI1
100
AcDbText
 10
-60.1540240018046
 20
-51.03516560638439
 30
0.0
 40
3.0
  1
画像圧縮方式
100
AcDbText
  0
LINE
  5
2AE
330
2
100
AcDbEntity
  8
WAKU
 62
     1
100
AcDbLine
 10
62.3459759981954
 20
-47.0351656063844
 30
0.0
 11
-62.6540240018046
 21
-47.0351656063844
 31
0.0
  0
LINE
  5
2B0
330
2
100
AcDbEntity
  8
WAKU
 62
     1
100
AcDbLine
 10
62.3459759981954
 20
-42.0351656063844
 30
0.0
 11
-62.6540240018046
 21
-42.0351656063844
 31
0.0
  0
LINE
  5
2B1
330
2
100
AcDbEntity
  8
WAKU
 62
     4
100
AcDbLine
 10
-22.44844277128618
 20
-52.03516560638417
 30
0.0
 11
-22.44844277128618
 21
-2.035165606384168
 31
0.0
  0
LINE
  5
2B2
330
2
100
AcDbEntity
  8
WAKU
 62
     4
100
AcDbLine
 10
62.3459759981954
 20
-52.0351656063844
 30
0.0
 11
62.3459759981954
 21
-2.035165606384396
 31
0.0
  0
LINE
  5
2B3
330
2
100
AcDbEntity
  8
WAKU
 62
     4
100
AcDbLine
 10
-62.6540240018046
 20
-2.035165606384396
 30
0.0
 11
-62.6540240018046
 21
-52.0351656063844
 31
0.0
  0
LINE
  5
2B4
330
2
100
AcDbEntity
  8
WAKU
 62
     1
100
AcDbLine
 10
62.3459759981954
 20
-7.035165606384396
 30
0.0
 11
-62.6540240018046
 21
-7.035165606384396
 31
0.0
  0
LINE
  5
2B5
330
2
100
AcDbEntity
  8
WAKU
 62
     4
100
AcDbLine
 10
62.3459759981954
 20
-2.035165606384396
 30
0.0
 11
-62.6540240018046
 21
-2.035165606384396
 31
0.0
  0
LINE
  5
2B6
330
2
100
AcDbEntity
  8
WAKU
 62
     1
100
AcDbLine
 10
62.3459759981954
 20
-12.03516560638439
 30
0.0
 11
-62.6540240018046
 21
-12.03516560638439
 31
0.0
  0
LINE
  5
2B7
330
2
100
AcDbEntity
  8
WAKU
 62
     1
100
AcDbLine
 10
62.3459759981954
 20
-17.03516560638439
 30
0.0
 11
-62.6540240018046
 21
-17.03516560638439
 31
0.0
  0
LINE
  5
2B8
330
2
100
AcDbEntity
  8
WAKU
 62
     1
100
AcDbLine
 10
62.3459759981954
 20
-22.0351656063844
 30
0.0
 11
-62.6540240018046
 21
-22.0351656063844
 31
0.0
  0
LINE
  5
2B9
330
2
100
AcDbEntity
  8
WAKU
 62
     1
100
AcDbLine
 10
62.3459759981954
 20
-27.0351656063844
 30
0.0
 11
-62.6540240018046
 21
-27.0351656063844
 31
0.0
  0
LINE
  5
2BA
330
2
100
AcDbEntity
  8
WAKU
 62
     1
100
AcDbLine
 10
62.3459759981954
 20
-32.0351656063844
 30
0.0
 11
-62.6540240018046
 21
-32.0351656063844
 31
0.0
  0
LINE
  5
2BB
330
2
100
AcDbEntity
  8
WAKU
 62
     4
100
AcDbLine
 10
-62.6540240018046
 20
-52.0351656063844
 30
0.0
 11
62.3459759981954
 21
-52.0351656063844
 31
0.0
  0
TEXT
  5
2BC
330
2
100
AcDbEntity
  8
MOJI1
100
AcDbText
 10
-60.1540240018046
 20
-6.035165606384396
 30
0.0
 40
3.0
  1
電　源
100
AcDbText
  0
TEXT
  5
2BD
330
2
100
AcDbEntity
  8
MOJI1
100
AcDbText
 10
-20.1540240018046
 20
-26.0351656063844
 30
0.0
 40
3.0
  1
４２倍（光学２１倍 デジタル２倍）
100
AcDbText
  0
TEXT
  5
2BE
330
2
100
AcDbEntity
  8
MOJI1
100
AcDbText
 10
-20.1540240018046
 20
-31.0351656063844
 30
0.0
 40
3.0
  1
２ルクス(カラーナイトビューモー時：０．０９ルクス)
 41
0.9
100
AcDbText
  0
TEXT
  5
2BF
330
2
100
AcDbEntity
  8
MOJI1
100
AcDbText
 10
-60.1540240018046
 20
-41.03516560638439
 30
0.0
 40
3.0
  1
チルト
100
AcDbText
  0
TEXT
  5
2C0
330
2
100
AcDbEntity
  8
MOJI1
100
AcDbText
 10
-60.1540240018046
 20
-31.0351656063844
 30
0.0
 40
3.0
  1
最低照度
100
AcDbText
  0
TEXT
  5
2C1
330
2
100
AcDbEntity
  8
MOJI1
100
AcDbText
 10
-60.1540240018046
 20
-16.03516560638439
 30
0.0
 40
3.0
  1
撮像素子
100
AcDbText
  0
TEXT
  5
2C2
330
2
100
AcDbEntity
  8
MOJI1
100
AcDbText
 10
-60.1540240018046
 20
-21.0351656063844
 30
0.0
 40
3.0
  1
解像度
100
AcDbText
  0
TEXT
  5
2C3
330
2
100
AcDbEntity
  8
MOJI1
100
AcDbText
 10
-60.1540240018046
 20
-26.0351656063844
 30
0.0
 40
3.0
  1
ズーム
100
AcDbText
  0
TEXT
  5
2C4
330
2
100
AcDbEntity
  8
MOJI1
100
AcDbText
 10
-20.1540240018046
 20
-36.0351656063844
 30
0.0
 40
3.0
  1
(卓上)：－１７５°～＋１７５°（天井）：－１７５°～＋１７５°
 41
0.73
100
AcDbText
  0
TEXT
  5
2C5
330
2
100
AcDbEntity
  8
MOJI1
100
AcDbText
 10
-20.1540240018046
 20
-16.03516560638439
 30
0.0
 40
3.0
  1
１／４インチ ３２万画素 ＣＣＤ（プログレッシブ方式）
 41
0.88
100
AcDbText
  0
TEXT
  5
2C6
330
2
100
AcDbEntity
  8
MOJI1
100
AcDbText
 10
-19.1540240018046
 20
-6.035165606384396
 30
0.0
 40
3.0
  1
ＡＣ１００Ｖ　５０／６０Ｈｚ
100
AcDbText
  0
TEXT
  5
2C7
330
2
100
AcDbEntity
  8
MOJI1
100
AcDbText
 10
-20.1540240018046
 20
-41.03516560638439
 30
0.0
 40
3.0
  1
(卓上)：－１２０°～０°（天井）：０°～＋９０°
 41
0.95
100
AcDbText
  0
TEXT
  5
2C8
330
2
100
AcDbEntity
  8
MOJI1
100
AcDbText
 10
-60.1540240018046
 20
-36.0351656063844
 30
0.0
 40
3.0
  1
パ　ン
100
AcDbText
  0
TEXT
  5
2C9
330
2
100
AcDbEntity
  8
MOJI1
100
AcDbText
 10
-20.1540240018046
 20
-21.0351656063844
 30
0.0
 40
3.0
  1
６４０×４８０、３２０×２４０、１９２×１４４
 41
0.8699999999999999
100
AcDbText
  0
TEXT
  5
2CA
330
2
100
AcDbEntity
  8
MOJI1
100
AcDbText
 10
-60.1540240018046
 20
-46.03516560638439
 30
0.0
 40
3.0
  1
回転速度
100
AcDbText
  0
LINE
  5
2CB
330
2
100
AcDbEntity
  8
WAKU
 62
     1
100
AcDbLine
 10
62.3459759981954
 20
-37.0351656063844
 30
0.0
 11
-62.6540240018046
 21
-37.0351656063844
 31
0.0
  0
TEXT
  5
2CC
330
2
100
AcDbEntity
  8
MOJI1
100
AcDbText
 10
-20.1540240018046
 20
-46.03516560638439
 30
0.0
 40
3.0
  1
パン：最大３００°／秒　チルト：最大２００°／秒
 41
0.95
100
AcDbText
  0
ENDSEC
  0
SECTION
  2
OBJECTS
  0
DICTIONARY
  5
7
330
0
100
AcDbDictionary
281
     1
  3
ACAD_COLOR
350
2C
  3
ACAD_GROUP
350
28
  3
ACAD_LAYOUT
350
B
  3
ACAD_MATERIAL
350
2B
  3
ACAD_MLINESTYLE
350
29
  3
ACAD_PLOTSETTINGS
350
2A
  3
ACAD_PLOTSTYLENAME
350
6
  3
ACDBHEADERROUNDTRIPXREC
350
30D
  3
AcDbVariableDictionary
350
308
  3
ASE_INDEX_DICTIONARY
350
2D5
  0
DICTIONARY
  5
11
330
10
100
AcDbDictionary
280
     1
281
     1
  3
ACAD_LAYERSTATES
360
12
  0
DICTIONARY
  5
2C
102
{ACAD_REACTORS
330
7
102
}
330
7
100
AcDbDictionary
281
     1
  0
DICTIONARY
  5
28
102
{ACAD_REACTORS
330
7
102
}
330
7
100
AcDbDictionary
281
     1
  0
DICTIONARY
  5
B
102
{ACAD_REACTORS
330
7
102
}
330
7
100
AcDbDictionary
281
     1
  3
Model
350
A
  3
レイアウト1
350
F
  0
DICTIONARY
  5
2B
102
{ACAD_REACTORS
330
7
102
}
330
7
100
AcDbDictionary
281
     1
  0
DICTIONARY
  5
29
102
{ACAD_REACTORS
330
7
102
}
330
7
100
AcDbDictionary
281
     1
  3
Standard
350
2E
  0
DICTIONARY
  5
2A
102
{ACAD_REACTORS
330
7
102
}
330
7
100
AcDbDictionary
281
     1
  0
ACDBDICTIONARYWDFLT
  5
6
102
{ACAD_REACTORS
330
7
102
}
330
7
100
AcDbDictionary
281
     1
  3
Normal
350
5
100
AcDbDictionaryWithDefault
340
5
  0
DICTIONARY
  5
30D
102
{ACAD_REACTORS
330
7
102
}
330
7
100
AcDbDictionary
281
     1
  3
COLORDICT
350
30F
  3
MATERIALDICT
350
30E
  0
DICTIONARY
  5
308
102
{ACAD_REACTORS
330
7
102
}
330
7
100
AcDbDictionary
281
     1
  3
DIMASSOC
350
30A
  3
HIDETEXT
350
309
  3
PROJECTNAME
350
30B
  0
DICTIONARY
  5
2D5
102
{ACAD_REACTORS
330
7
102
}
330
7
100
AcDbDictionary
281
     1
  3
ASEBlockHierarchyIndexRecord
350
2D7
1001
DCO15
1040
1629188798.527
  0
DICTIONARY
  5
12
102
{ACAD_REACTORS
330
11
102
}
330
11
100
AcDbDictionary
281
     1
  0
LAYOUT
  5
A
102
{ACAD_XDICTIONARY
360
310
102
}
102
{ACAD_REACTORS
330
B
102
}
330
B
100
AcDbPlotSettings
  1

  2
Ａ４－縦3FRIM01.pc3
  4
A4
  6

 40
5.873749732971191
 41
5.873747825622558
 42
5.873748779296875
 43
5.873748779296875
 44
209.9733276367187
 45
296.9259948730469
 46
5.419999999999999
 47
0.0
 48
-315.5349153359857
 49
224.8191642733469
140
-12.83102128827022
141
423.9755221004062
142
1.0
143
1.382434615292221
 70
 11956
 72
     1
 73
     0
 74
     1
  7
tmsacad.ctb
 75
     0
147
0.7233615166592297
148
0.0148158059998878
149
0.0097886928209618
100
AcDbLayout
  1
Model
 70
     1
 71
     0
 10
0.0
 20
0.0
 11
12.0
 21
9.0
 12
0.0
 22
0.0
 32
0.0
 14
0.0
 24
0.0
 34
0.0
 15
0.0
 25
0.0
 35
0.0
146
0.0
 13
0.0
 23
0.0
 33
0.0
 16
1.0
 26
0.0
 36
0.0
 17
0.0
 27
1.0
 37
0.0
 76
     0
330
2
  0
LAYOUT
  5
F
102
{ACAD_XDICTIONARY
360
312
102
}
102
{ACAD_REACTORS
330
B
102
}
330
B
100
AcDbPlotSettings
  1

  2
None
  4

  6

 40
0.0
 41
0.0
 42
0.0
 43
0.0
 44
0.0
 45
0.0
 46
0.0
 47
0.0
 48
0.0
 49
0.0
140
0.0
141
0.0
142
1.0
143
1.0
 70
   688
 72
     0
 73
     0
 74
     5
  7
tmsacad.ctb
 75
    16
147
1.0
148
0.0
149
0.0
100
AcDbLayout
  1
レイアウト1
 70
     1
 71
     1
 10
0.0
 20
0.0
 11
12.0
 21
9.0
 12
0.0
 22
0.0
 32
0.0
 14
0.0
 24
0.0
 34
0.0
 15
0.0
 25
0.0
 35
0.0
146
0.0
 13
0.0
 23
0.0
 33
0.0
 16
1.0
 26
0.0
 36
0.0
 17
0.0
 27
1.0
 37
0.0
 76
     0
330
C
  0
MLINESTYLE
  5
2E
102
{ACAD_REACTORS
330
29
102
}
330
29
100
AcDbMlineStyle
  2
STANDARD
 70
     0
  3

 62
   256
 51
90.0
 52
90.0
 71
     2
 49
0.5
 62
   256
  6
BYLAYER
 49
-0.5
 62
   256
  6
BYLAYER
  0
ACDBPLACEHOLDER
  5
5
102
{ACAD_REACTORS
330
6
102
}
330
6
  0
XRECORD
  5
30F
102
{ACAD_REACTORS
330
30D
102
}
330
30D
100
AcDbXrecord
280
     1
340
2C
  0
XRECORD
  5
30E
102
{ACAD_REACTORS
330
30D
102
}
330
30D
100
AcDbXrecord
280
     1
340
2B
  0
DICTIONARYVAR
  5
30A
102
{ACAD_REACTORS
330
308
102
}
330
308
100
DictionaryVariables
280
     0
  1
1
  0
DICTIONARYVAR
  5
309
102
{ACAD_REACTORS
330
308
102
}
330
308
100
DictionaryVariables
280
     0
  1
1
  0
DICTIONARYVAR
  5
30B
102
{ACAD_REACTORS
330
308
102
}
330
308
100
DictionaryVariables
280
     0
  1

  0
XRECORD
  5
2D7
102
{ACAD_REACTORS
330
2D5
102
}
330
2D5
100
AcDbXrecord
280
     1
330
DA
330
DB
330
CD
330
CE
330
BF
330
C0
330
2E8
330
2E9
330
2F4
330
2F5
330
300
330
301
  0
DICTIONARY
  5
310
330
A
100
AcDbDictionary
280
     1
281
     1
  3
ACAD_XREC_ROUNDTRIP
360
311
  0
DICTIONARY
  5
312
330
F
100
AcDbDictionary
280
     1
281
     1
  3
ACAD_XREC_ROUNDTRIP
360
313
  0
XRECORD
  5
311
102
{ACAD_REACTORS
330
310
102
}
330
310
100
AcDbXrecord
280
     1
102
SHADEPLOT
 70
     0
102
SHADEPLOTRESLEVEL
 70
     2
102
SHADEPLOTCUSTOMDPI
 70
   300
  0
XRECORD
  5
313
102
{ACAD_REACTORS
330
312
102
}
330
312
100
AcDbXrecord
280
     1
102
SHADEPLOT
 70
     0
102
SHADEPLOTRESLEVEL
 70
     2
102
SHADEPLOTCUSTOMDPI
 70
   300
  0
ENDSEC
  0
EOF
