  0
SECTION
  2
HEADER
  9
$ACADVER
  1
AC1015
  9
$ACADMAINTVER
 70
    20
  9
$DWGCODEPAGE
  3
ANSI_932
  9
$INSBASE
 10
0.4999999440410648
 20
246.5008351249344
 30
0.0
  9
$EXTMIN
 10
-59.19708161055701
 20
-58.60601744312567
 30
-0.0015258207003583
  9
$EXTMAX
 10
65.8364873819944
 20
54.84910624456722
 30
0.0000000349246037
  9
$LIMMIN
 10
0.0
 20
0.0
  9
$LIMMAX
 10
420.0
 20
297.0
  9
$ORTHOMODE
 70
     1
  9
$REGENMODE
 70
     0
  9
$FILLMODE
 70
     1
  9
$QTEXTMODE
 70
     0
  9
$MIRRTEXT
 70
     0
  9
$LTSCALE
 40
1.0
  9
$ATTMODE
 70
     1
  9
$TEXTSIZE
 40
2.5
  9
$TRACEWID
 40
1.0
  9
$TEXTSTYLE
  7
Standard
  9
$CLAYER
  8
GAIKEI
  9
$CELTYPE
  6
ByLayer
  9
$CECOLOR
 62
   256
  9
$CELTSCALE
 40
1.0
  9
$DISPSILH
 70
     0
  9
$DIMSCALE
 40
1.0
  9
$DIMASZ
 40
2.0
  9
$DIMEXO
 40
2.0
  9
$DIMDLI
 40
8.0
  9
$DIMRND
 40
0.0
  9
$DIMDLE
 40
0.0
  9
$DIMEXE
 40
2.0
  9
$DIMTP
 40
0.0
  9
$DIMTM
 40
0.0
  9
$DIMTXT
 40
2.5
  9
$DIMCEN
 40
0.0
  9
$DIMTSZ
 40
0.0
  9
$DIMTOL
 70
     0
  9
$DIMLIM
 70
     0
  9
$DIMTIH
 70
     0
  9
$DIMTOH
 70
     0
  9
$DIMSE1
 70
     0
  9
$DIMSE2
 70
     0
  9
$DIMTAD
 70
     3
  9
$DIMZIN
 70
     0
  9
$DIMBLK
  1

  9
$DIMASO
 70
     1
  9
$DIMSHO
 70
     1
  9
$DIMPOST
  1

  9
$DIMAPOST
  1

  9
$DIMALT
 70
     0
  9
$DIMALTD
 70
     2
  9
$DIMALTF
 40
25.4
  9
$DIMLFAC
 40
1.0
  9
$DIMTOFL
 70
     1
  9
$DIMTVP
 40
0.0
  9
$DIMTIX
 70
     0
  9
$DIMSOXD
 70
     0
  9
$DIMSAH
 70
     1
  9
$DIMBLK1
  1
OPEN30
  9
$DIMBLK2
  1
OPEN30
  9
$DIMSTYLE
  2
STANDARD
  9
$DIMCLRD
 70
     0
  9
$DIMCLRE
 70
     0
  9
$DIMCLRT
 70
     0
  9
$DIMTFAC
 40
1.0
  9
$DIMGAP
 40
0.5
  9
$DIMJUST
 70
     0
  9
$DIMSD1
 70
     0
  9
$DIMSD2
 70
     0
  9
$DIMTOLJ
 70
     1
  9
$DIMTZIN
 70
     0
  9
$DIMALTZ
 70
     0
  9
$DIMALTTZ
 70
     0
  9
$DIMUPT
 70
     0
  9
$DIMDEC
 70
     4
  9
$DIMTDEC
 70
     4
  9
$DIMALTU
 70
     2
  9
$DIMALTTD
 70
     2
  9
$DIMTXSTY
  7
Standard
  9
$DIMAUNIT
 70
     0
  9
$DIMADEC
 70
     0
  9
$DIMALTRND
 40
0.0
  9
$DIMAZIN
 70
     0
  9
$DIMDSEP
 70
    46
  9
$DIMATFIT
 70
     3
  9
$DIMFRAC
 70
     0
  9
$DIMLDRBLK
  1
OPEN30
  9
$DIMLUNIT
 70
     2
  9
$DIMLWD
 70
    -2
  9
$DIMLWE
 70
    -2
  9
$DIMTMOVE
 70
     0
  9
$LUNITS
 70
     2
  9
$LUPREC
 70
     4
  9
$SKETCHINC
 40
1.0
  9
$FILLETRAD
 40
0.0
  9
$AUNITS
 70
     0
  9
$AUPREC
 70
     0
  9
$MENU
  1
.
  9
$ELEVATION
 40
0.0
  9
$PELEVATION
 40
0.0
  9
$THICKNESS
 40
0.0
  9
$LIMCHECK
 70
     0
  9
$CHAMFERA
 40
0.0
  9
$CHAMFERB
 40
0.0
  9
$CHAMFERC
 40
0.0
  9
$CHAMFERD
 40
0.0
  9
$SKPOLY
 70
     0
  9
$TDCREATE
 40
2454349.434269746
  9
$TDUCREATE
 40
2454349.059269746
  9
$TDUPDATE
 40
2455737.696993380
  9
$TDUUPDATE
 40
2455737.321993380
  9
$TDINDWG
 40
0.1552608449
  9
$TDUSRTIMER
 40
0.1552608449
  9
$USRTIMER
 70
     1
  9
$ANGBASE
 50
0.0
  9
$ANGDIR
 70
     0
  9
$PDMODE
 70
     0
  9
$PDSIZE
 40
0.0
  9
$PLINEWID
 40
0.0
  9
$SPLFRAME
 70
     0
  9
$SPLINETYPE
 70
     6
  9
$SPLINESEGS
 70
     8
  9
$HANDSEED
  5
128
  9
$SURFTAB1
 70
     6
  9
$SURFTAB2
 70
     6
  9
$SURFTYPE
 70
     6
  9
$SURFU
 70
     6
  9
$SURFV
 70
     6
  9
$UCSBASE
  2

  9
$UCSNAME
  2

  9
$UCSORG
 10
0.0
 20
0.0
 30
0.0
  9
$UCSXDIR
 10
1.0
 20
0.0
 30
0.0
  9
$UCSYDIR
 10
0.0
 20
1.0
 30
0.0
  9
$UCSORTHOREF
  2

  9
$UCSORTHOVIEW
 70
     0
  9
$UCSORGTOP
 10
0.0
 20
0.0
 30
0.0
  9
$UCSORGBOTTOM
 10
0.0
 20
0.0
 30
0.0
  9
$UCSORGLEFT
 10
0.0
 20
0.0
 30
0.0
  9
$UCSORGRIGHT
 10
0.0
 20
0.0
 30
0.0
  9
$UCSORGFRONT
 10
0.0
 20
0.0
 30
0.0
  9
$UCSORGBACK
 10
0.0
 20
0.0
 30
0.0
  9
$PUCSBASE
  2

  9
$PUCSNAME
  2

  9
$PUCSORG
 10
0.0
 20
0.0
 30
0.0
  9
$PUCSXDIR
 10
1.0
 20
0.0
 30
0.0
  9
$PUCSYDIR
 10
0.0
 20
1.0
 30
0.0
  9
$PUCSORTHOREF
  2

  9
$PUCSORTHOVIEW
 70
     0
  9
$PUCSORGTOP
 10
0.0
 20
0.0
 30
0.0
  9
$PUCSORGBOTTOM
 10
0.0
 20
0.0
 30
0.0
  9
$PUCSORGLEFT
 10
0.0
 20
0.0
 30
0.0
  9
$PUCSORGRIGHT
 10
0.0
 20
0.0
 30
0.0
  9
$PUCSORGFRONT
 10
0.0
 20
0.0
 30
0.0
  9
$PUCSORGBACK
 10
0.0
 20
0.0
 30
0.0
  9
$USERI1
 70
     0
  9
$USERI2
 70
     0
  9
$USERI3
 70
     0
  9
$USERI4
 70
     0
  9
$USERI5
 70
     0
  9
$USERR1
 40
0.0
  9
$USERR2
 40
0.0
  9
$USERR3
 40
0.0
  9
$USERR4
 40
0.0
  9
$USERR5
 40
0.0
  9
$WORLDVIEW
 70
     1
  9
$SHADEDGE
 70
     3
  9
$SHADEDIF
 70
    70
  9
$TILEMODE
 70
     1
  9
$MAXACTVP
 70
    64
  9
$PINSBASE
 10
0.0
 20
0.0
 30
0.0
  9
$PLIMCHECK
 70
     0
  9
$PEXTMIN
 10
0.0
 20
0.0
 30
0.0
  9
$PEXTMAX
 10
0.0
 20
0.0
 30
0.0
  9
$PLIMMIN
 10
0.0
 20
0.0
  9
$PLIMMAX
 10
12.0
 20
9.0
  9
$UNITMODE
 70
     0
  9
$VISRETAIN
 70
     1
  9
$PLINEGEN
 70
     0
  9
$PSLTSCALE
 70
     1
  9
$TREEDEPTH
 70
  3020
  9
$CMLSTYLE
  2
Standard
  9
$CMLJUST
 70
     0
  9
$CMLSCALE
 40
20.0
  9
$PROXYGRAPHICS
 70
     1
  9
$MEASUREMENT
 70
     1
  9
$CELWEIGHT
370
    -1
  9
$ENDCAPS
280
     0
  9
$JOINSTYLE
280
     0
  9
$LWDISPLAY
290
     0
  9
$INSUNITS
 70
     4
  9
$HYPERLINKBASE
  1

  9
$STYLESHEET
  1

  9
$XEDIT
290
     1
  9
$CEPSNTYPE
380
     0
  9
$PSTYLEMODE
290
     1
  9
$FINGERPRINTGUID
  2
{FDEAD578-A652-11D2-9A35-0060089B3A3F}
  9
$VERSIONGUID
  2
{85B82FBB-7164-4285-AA4C-2684BCCFDD82}
  9
$EXTNAMES
290
     1
  9
$PSVPSCALE
 40
0.0
  9
$OLESTARTUP
290
     0
  0
ENDSEC
  0
SECTION
  2
CLASSES
  0
CLASS
  1
ACDBDICTIONARYWDFLT
  2
AcDbDictionaryWithDefault
  3
ObjectDBX Classes
 90
        0
280
     0
281
     0
  0
CLASS
  1
ACDBPLACEHOLDER
  2
AcDbPlaceHolder
  3
ObjectDBX Classes
 90
        0
280
     0
281
     0
  0
CLASS
  1
LAYOUT
  2
AcDbLayout
  3
ObjectDBX Classes
 90
        0
280
     0
281
     0
  0
CLASS
  1
DICTIONARYVAR
  2
AcDbDictionaryVar
  3
ObjectDBX Classes
 90
        0
280
     0
281
     0
  0
CLASS
  1
MATERIAL
  2
AcDbMaterial
  3
ObjectDBX Classes
 90
    32768
280
     0
281
     0
  0
CLASS
  1
DIMASSOC
  2
AcDbDimAssoc
  3
"AcDbDimAssoc|Product Desc:     AcDim ARX App For Dimension|Company:          Autodesk, Inc.|WEB Address:      www.autodesk.com"
 90
    32768
280
     0
281
     0
  0
CLASS
  1
SORTENTSTABLE
  2
AcDbSortentsTable
  3
ObjectDBX Classes
 90
    32768
280
     0
281
     0
  0
ENDSEC
  0
SECTION
  2
TABLES
  0
TABLE
  2
VPORT
  5
1B
330
0
100
AcDbSymbolTable
 70
     3
  0
VPORT
  5
120
330
1B
100
AcDbSymbolTableRecord
100
AcDbViewportTableRecord
  2
*Active
 70
     0
 10
0.0
 20
0.0
 11
1.0
 21
1.0
 12
3.31970288571869
 22
-1.87845559927922
 13
0.0
 23
0.0
 14
10.0
 24
10.0
 15
10.0
 25
10.0
 16
0.0
 26
0.0
 36
1.0
 17
0.0
 27
0.0
 37
0.0
 40
114.3113887721283
 41
2.164987405541561
 42
50.0
 43
0.0
 44
0.0
 50
0.0
 51
0.0
 71
     0
 72
  1000
 73
     1
 74
     2
 75
     0
 76
     0
 77
     0
 78
     0
281
     0
 65
     1
110
0.0
120
0.0
130
0.0
111
1.0
121
0.0
131
0.0
112
0.0
122
1.0
132
0.0
 79
     0
146
0.0
  0
ENDTAB
  0
TABLE
  2
LTYPE
  5
16
330
0
100
AcDbSymbolTable
 70
     1
  0
LTYPE
  5
17
330
16
100
AcDbSymbolTableRecord
100
AcDbLinetypeTableRecord
  2
ByBlock
 70
     0
  3

 72
    65
 73
     0
 40
0.0
  0
LTYPE
  5
18
330
16
100
AcDbSymbolTableRecord
100
AcDbLinetypeTableRecord
  2
ByLayer
 70
     0
  3

 72
    65
 73
     0
 40
0.0
  0
LTYPE
  5
8
330
16
100
AcDbSymbolTableRecord
100
AcDbLinetypeTableRecord
  2
Continuous
 70
     0
  3
Solid line
 72
    65
 73
     0
 40
0.0
  0
ENDTAB
  0
TABLE
  2
LAYER
  5
10
102
{ACAD_XDICTIONARY
360
11
102
}
330
0
100
AcDbSymbolTable
 70
     8
  0
LAYER
  5
4
330
10
100
AcDbSymbolTableRecord
100
AcDbLayerTableRecord
  2
0
 70
     0
 62
     7
  6
Continuous
370
    -3
390
5
  0
LAYER
  5
DC
330
10
100
AcDbSymbolTableRecord
100
AcDbLayerTableRecord
  2
WAKU
 70
     0
 62
     4
  6
Continuous
370
    -3
390
5
  0
LAYER
  5
30
330
10
100
AcDbSymbolTableRecord
100
AcDbLayerTableRecord
  2
MOJI1
 70
     0
 62
     2
  6
Continuous
370
    -3
390
5
  0
LAYER
  5
32
330
10
100
AcDbSymbolTableRecord
100
AcDbLayerTableRecord
  2
TOUROKU
 70
     0
 62
     1
  6
Continuous
370
    -3
390
5
  0
LAYER
  5
43
330
10
100
AcDbSymbolTableRecord
100
AcDbLayerTableRecord
  2
Defpoints
 70
     0
 62
     7
  6
Continuous
290
     0
370
    -3
390
5
  0
LAYER
  5
2D
330
10
100
AcDbSymbolTableRecord
100
AcDbLayerTableRecord
  2
GAIKEI
 70
     0
 62
     7
  6
Continuous
370
    -3
390
5
  0
LAYER
  5
34
330
10
100
AcDbSymbolTableRecord
100
AcDbLayerTableRecord
  2
SUNPO
 70
     0
 62
     3
  6
Continuous
370
    -3
390
5
  0
LAYER
  5
C3
330
10
100
AcDbSymbolTableRecord
100
AcDbLayerTableRecord
  2
S1
 70
     0
 62
     1
  6
Continuous
370
    -3
390
5
  0
ENDTAB
  0
TABLE
  2
STYLE
  5
13
330
0
100
AcDbSymbolTable
 70
     1
  0
STYLE
  5
14
330
13
100
AcDbSymbolTableRecord
100
AcDbTextStyleTableRecord
  2
Standard
 70
     0
 40
0.0
 41
1.0
 50
0.0
 71
     0
 42
2.5
  3
MONOTXT.shx
  4
BIGFONT.shx
  0
ENDTAB
  0
TABLE
  2
VIEW
  5
19
330
0
100
AcDbSymbolTable
 70
     0
  0
ENDTAB
  0
TABLE
  2
UCS
  5
1A
330
0
100
AcDbSymbolTable
 70
     0
  0
ENDTAB
  0
TABLE
  2
APPID
  5
1D
330
0
100
AcDbSymbolTable
 70
     1
  0
APPID
  5
1E
330
1D
100
AcDbSymbolTableRecord
100
AcDbRegAppTableRecord
  2
ACAD
 70
     0
  0
ENDTAB
  0
TABLE
  2
DIMSTYLE
  5
1F
330
0
100
AcDbSymbolTable
 70
     1
100
AcDbDimStyleTable
 71
     1
340
20
  0
DIMSTYLE
105
20
102
{ACAD_REACTORS
330
39
102
}
330
1F
100
AcDbSymbolTableRecord
100
AcDbDimStyleTableRecord
  2
STANDARD
 70
     0
 40
0.0
 41
2.0
 42
2.0
 43
8.0
 44
2.0
 73
     0
 74
     0
 77
     3
140
3.0
141
0.0
173
     1
279
     2
288
     1
340
14
341
21
343
21
344
21
  0
ENDTAB
  0
TABLE
  2
BLOCK_RECORD
  5
1
330
0
100
AcDbSymbolTable
 70
     3
  0
BLOCK_RECORD
  5
2
330
1
100
AcDbSymbolTableRecord
100
AcDbBlockTableRecord
  2
*Model_Space
340
A
  0
BLOCK_RECORD
  5
C
330
1
100
AcDbSymbolTableRecord
100
AcDbBlockTableRecord
  2
*Paper_Space
340
F
  0
BLOCK_RECORD
  5
21
330
1
100
AcDbSymbolTableRecord
100
AcDbBlockTableRecord
  2
_OPEN30
340
0
102
{BLKREFS
331
72
331
35
331
3F
331
40
331
114
331
115
102
}
  0
BLOCK_RECORD
  5
3A
330
1
100
AcDbSymbolTableRecord
100
AcDbBlockTableRecord
  2
*D1
340
0
  0
BLOCK_RECORD
  5
110
330
1
100
AcDbSymbolTableRecord
100
AcDbBlockTableRecord
  2
*D2
340
0
  0
ENDTAB
  0
ENDSEC
  0
SECTION
  2
BLOCKS
  0
BLOCK
  5
3
330
2
100
AcDbEntity
  8
0
100
AcDbBlockBegin
  2
*Model_Space
 70
     0
 10
0.0
 20
0.0
 30
0.0
  3
*Model_Space
  1

  0
ENDBLK
  5
9
330
2
100
AcDbEntity
  8
0
100
AcDbBlockEnd
  0
BLOCK
  5
D
330
C
100
AcDbEntity
 67
     1
  8
0
100
AcDbBlockBegin
  2
*Paper_Space
 70
     0
 10
0.0
 20
0.0
 30
0.0
  3
*Paper_Space
  1

  0
ENDBLK
  5
E
330
C
100
AcDbEntity
 67
     1
  8
0
100
AcDbBlockEnd
  0
BLOCK
  5
22
330
21
100
AcDbEntity
  8
0
100
AcDbBlockBegin
  2
_OPEN30
 70
     0
 10
0.0
 20
0.0
 30
0.0
  3
_OPEN30
  1

  0
LINE
  5
23
330
21
100
AcDbEntity
  8
0
  6
ByBlock
 62
     0
100
AcDbLine
 10
-1.0
 20
0.26794919
 30
0.0
 11
0.0
 21
0.0
 31
0.0
  0
LINE
  5
24
330
21
100
AcDbEntity
  8
0
  6
ByBlock
 62
     0
100
AcDbLine
 10
0.0
 20
0.0
 30
0.0
 11
-1.0
 21
-0.26794919
 31
0.0
  0
LINE
  5
25
330
21
100
AcDbEntity
  8
0
  6
ByBlock
 62
     0
100
AcDbLine
 10
0.0
 20
0.0
 30
0.0
 11
-1.0
 21
0.0
 31
0.0
  0
ENDBLK
  5
26
330
21
100
AcDbEntity
  8
0
100
AcDbBlockEnd
  0
BLOCK
  5
3B
330
3A
100
AcDbEntity
  8
0
100
AcDbBlockBegin
  2
*D1
 70
     1
 10
0.0
 20
0.0
 30
0.0
  3
*D1
  1

  0
LINE
  5
3C
330
3A
100
AcDbEntity
  8
SUNPO
 62
     0
370
    -2
100
AcDbLine
 10
75.38357983115464
 20
193.1010281655056
 30
0.0
 11
83.38357983115463
 21
193.1010281655056
 31
0.0
  0
LINE
  5
3D
330
3A
100
AcDbEntity
  8
SUNPO
 62
     0
370
    -2
100
AcDbLine
 10
75.38357983115464
 20
213.5010281338177
 30
0.0
 11
83.38357983115463
 21
213.5010281338177
 31
0.0
  0
LINE
  5
3E
330
3A
100
AcDbEntity
  8
SUNPO
 62
     0
370
    -2
100
AcDbLine
 10
81.38357983115463
 20
195.1010281655056
 30
0.0
 11
81.38357983115463
 21
211.5010281338177
 31
0.0
  0
INSERT
  5
3F
330
3A
100
AcDbEntity
  8
SUNPO
 62
     0
370
    -2
100
AcDbBlockReference
  2
_OPEN30
 10
81.38357983115463
 20
193.1010281655056
 30
0.0
 41
2.0
 42
2.0
 43
2.0
 50
270.0
  0
INSERT
  5
40
330
3A
100
AcDbEntity
  8
SUNPO
 62
     0
370
    -2
100
AcDbBlockReference
  2
_OPEN30
 10
81.38357983115463
 20
213.5010281338177
 30
0.0
 41
2.0
 42
2.0
 43
2.0
 50
90.0
  0
MTEXT
  5
41
330
3A
100
AcDbEntity
  8
SUNPO
 62
     0
100
AcDbMText
 10
79.63357983115461
 20
203.3010281496617
 30
0.0
 40
2.5
 41
0.0
 71
     5
 72
     1
  1
\A1;φ204
 11
0.0000000000000001
 21
1.0
 31
0.0
 73
     1
 44
1.0
1001
ACAD
1000
MTEXTBEGIN
1070
    73
1070
     1
1070
    44
1040
1.0
1070
    74
1070
     0
1000
MTEXTEND
  0
POINT
  5
42
330
3A
100
AcDbEntity
  8
Defpoints
 62
     0
100
AcDbPoint
 10
73.38357983115463
 20
193.1010281655056
 30
0.0
  0
POINT
  5
44
330
3A
100
AcDbEntity
  8
Defpoints
 62
     0
100
AcDbPoint
 10
73.38357983115463
 20
213.5010281338177
 30
0.0
  0
POINT
  5
45
330
3A
100
AcDbEntity
  8
Defpoints
 62
     0
100
AcDbPoint
 10
81.38357983115463
 20
213.5010281338177
 30
0.0
  0
ENDBLK
  5
46
330
3A
100
AcDbEntity
  8
0
100
AcDbBlockEnd
  0
BLOCK
  5
11A
330
110
100
AcDbEntity
  8
0
100
AcDbBlockBegin
  2
*D2
 70
     1
 10
0.0
 20
0.0
 30
0.0
  3
*D2
  1

  0
LINE
  5
111
330
110
100
AcDbEntity
  8
SUNPO
 62
     0
370
    -2
100
AcDbLine
 10
13.69315675113114
 20
3.714695852314121
 30
0.0
 11
21.69315675113113
 21
3.714695852314119
 31
0.0
  0
LINE
  5
112
330
110
100
AcDbEntity
  8
SUNPO
 62
     0
370
    -2
100
AcDbLine
 10
13.69315675113114
 20
24.11469582062617
 30
0.0
 11
21.69315675113114
 21
24.11469582062617
 31
0.0
  0
LINE
  5
113
330
110
100
AcDbEntity
  8
SUNPO
 62
     0
370
    -2
100
AcDbLine
 10
19.69315675113113
 20
5.714695852314119
 30
0.0
 11
19.69315675113113
 21
22.11469582062617
 31
0.0
  0
INSERT
  5
114
330
110
100
AcDbEntity
  8
SUNPO
 62
     0
370
    -2
100
AcDbBlockReference
  2
_OPEN30
 10
19.69315675113113
 20
3.71469585231412
 30
0.0
 41
2.0
 42
2.0
 43
2.0
 50
270.0
  0
INSERT
  5
115
330
110
100
AcDbEntity
  8
SUNPO
 62
     0
370
    -2
100
AcDbBlockReference
  2
_OPEN30
 10
19.69315675113114
 20
24.11469582062617
 30
0.0
 41
2.0
 42
2.0
 43
2.0
 50
90.0
  0
MTEXT
  5
116
330
110
100
AcDbEntity
  8
SUNPO
 62
     0
100
AcDbMText
 10
17.94315675113113
 20
13.91469583647015
 30
0.0
 40
2.5
 41
0.0
 71
     5
 72
     1
  1
\A1;φ204
 11
0.0000000000000001
 21
1.0
 31
0.0
 73
     1
 44
1.0
1001
ACAD
1000
MTEXTBEGIN
1070
    73
1070
     1
1070
    44
1040
1.0
1070
    74
1070
     0
1000
MTEXTEND
  0
POINT
  5
117
330
110
100
AcDbEntity
  8
Defpoints
 62
     0
100
AcDbPoint
 10
11.69315675113114
 20
3.714695852314122
 30
0.0
  0
POINT
  5
118
330
110
100
AcDbEntity
  8
Defpoints
 62
     0
100
AcDbPoint
 10
11.69315675113114
 20
24.11469582062617
 30
0.0
  0
POINT
  5
119
330
110
100
AcDbEntity
  8
Defpoints
 62
     0
100
AcDbPoint
 10
19.69315675113114
 20
24.11469582062617
 30
0.0
  0
ENDBLK
  5
11B
330
110
100
AcDbEntity
  8
0
100
AcDbBlockEnd
  0
ENDSEC
  0
SECTION
  2
ENTITIES
  0
TEXT
  5
2F
330
2
100
AcDbEntity
  8
MOJI1
100
AcDbText
 10
-32.1904231359822
 20
51.11450281174279
 30
0.0
 40
4.0
  1
ネットワークカメラ
100
AcDbText
  0
TEXT
  5
31
330
2
100
AcDbEntity
  8
TOUROKU
100
AcDbText
 10
28.74286023027843
 20
45.11450281174314
 30
0.0
 40
2.0
  1
ＢＢＨＣＭ７０１＋ＢＢＨＣＡ１１
 72
     2
 11
65.80952689694507
 21
45.11450281174314
 31
0.0
100
AcDbText
  0
MTEXT
  5
33
330
2
100
AcDbEntity
  8
SUNPO
100
AcDbMText
 10
24.65325667929943
 20
37.54647285279086
 30
0.0
 40
2.5
 41
0.0
 71
     5
 72
     1
  1
\A1;77.5
 11
0.0000000000000001
 21
1.0
 31
0.0
 73
     1
 44
1.0
1001
ACAD
1000
MTEXTBEGIN
1070
    73
1070
     1
1070
    44
1040
1.0
1070
    74
1070
     0
1000
MTEXTEND
  0
INSERT
  5
35
330
2
100
AcDbEntity
  8
SUNPO
100
AcDbBlockReference
  2
_OPEN30
 10
19.69315675113113
 20
33.25044459045606
 30
0.0
 41
2.0
 42
2.0
 43
2.0
 50
270.0
  0
LINE
  5
36
330
2
100
AcDbEntity
  8
SUNPO
100
AcDbLine
 10
19.69315675113113
 20
35.25044459045606
 30
0.0
 11
19.69315675113114
 21
39.00044647330688
 31
0.0
  0
LINE
  5
37
330
2
100
AcDbEntity
  8
SUNPO
100
AcDbLine
 10
13.69315675113114
 20
33.25044459045606
 30
0.0
 11
21.69315675113113
 21
33.25044459045606
 31
0.0
  0
LINE
  5
38
330
2
100
AcDbEntity
  8
SUNPO
100
AcDbLine
 10
4.070349570461175
 20
33.25044459045606
 30
0.0
 11
22.37248293256846
 21
33.25044459045606
 31
0.0
  0
DIMENSION
  5
39
330
2
100
AcDbEntity
  8
SUNPO
100
AcDbDimension
  2
*D2
 10
19.69315675113114
 20
24.11469582062617
 30
0.0
 11
17.94315675113113
 21
13.91469583647015
 31
0.0
 70
    33
  1
φ204
 71
     5
 42
20.39999996831205
  3
STANDARD
100
AcDbAlignedDimension
 13
11.69315675113114
 23
3.714695852314122
 33
0.0
 14
11.69315675113114
 24
24.11469582062617
 34
0.0
1001
ACAD
1000
DSTYLE
1002
{
1070
    40
1040
1.0
1070
   140
1040
2.5
1070
   147
1040
0.5
1070
   172
1070
     1
1070
   279
1070
     0
1070
   288
1070
     0
1002
}
  0
LINE
  5
47
330
2
100
AcDbEntity
  8
GAIKEI
 62
     1
100
AcDbLine
 10
6.998858382279024
 20
38.90835732284407
 30
0.0
 11
6.998858382278967
 21
35.95585998553762
 31
0.0
  0
LINE
  5
48
330
2
100
AcDbEntity
  8
GAIKEI
 62
     1
100
AcDbLine
 10
6.817496324476906
 20
35.95585998553762
 30
0.0
 11
7.191555458332629
 21
35.95585998553762
 31
0.0
  0
LINE
  5
49
330
2
100
AcDbEntity
  8
GAIKEI
 62
     1
100
AcDbLine
 10
7.191555458332629
 20
36.55595870675635
 30
0.0
 11
7.191555458332629
 21
35.95585998553767
 31
0.0
  0
LINE
  5
4A
330
2
100
AcDbEntity
  8
GAIKEI
 62
     1
100
AcDbLine
 10
6.817496324476906
 20
40.27897886297816
 30
0.0
 11
6.817496324476906
 21
34.86842471306338
 31
0.0
  0
LINE
  5
4B
330
2
100
AcDbEntity
  8
GAIKEI
 62
     1
100
AcDbLine
 10
9.209207373897527
 20
40.62538364473314
 30
0.0
 11
9.209207373897527
 21
36.05345871809462
 31
0.0
  0
LINE
  5
4C
330
2
100
AcDbEntity
  8
GAIKEI
 62
     1
100
AcDbLine
 10
8.200381416115192
 20
40.75844839969684
 30
0.0
 11
8.200381416115192
 21
36.05345871809462
 31
0.0
  0
LINE
  5
4D
330
2
100
AcDbEntity
  8
GAIKEI
 62
     1
100
AcDbLine
 10
7.74697639773683
 20
40.75844839969684
 30
0.0
 11
7.74697639773683
 21
36.55595870675635
 31
0.0
  0
LINE
  5
4E
330
2
100
AcDbEntity
  8
GAIKEI
 62
     1
100
AcDbLine
 10
5.559297442621584
 20
40.16095818441343
 30
0.0
 11
5.559297442621584
 21
35.13397980369169
 31
0.0
  0
LINE
  5
4F
330
2
100
AcDbEntity
  8
GAIKEI
 62
     1
100
AcDbLine
 10
5.740659500423589
 20
40.16095818441343
 30
0.0
 11
5.740659500423589
 21
35.13397980369169
 31
0.0
  0
LINE
  5
50
330
2
100
AcDbEntity
  8
GAIKEI
 62
     1
100
AcDbLine
 10
6.318750728584689
 20
35.13397980369169
 30
0.0
 11
6.318750728584689
 21
34.86842471306338
 31
0.0
  0
LINE
  5
51
330
2
100
AcDbEntity
  8
GAIKEI
 62
     1
100
AcDbLine
 10
4.958535925703472
 20
35.13397980369169
 30
0.0
 11
6.318750728584689
 21
35.13397980369169
 31
0.0
  0
LINE
  5
52
330
2
100
AcDbEntity
  8
GAIKEI
 62
     1
100
AcDbLine
 10
4.958535925703472
 20
39.07070464540621
 30
0.0
 11
4.958535925703472
 21
35.13397980369169
 31
0.0
  0
LINE
  5
53
330
2
100
AcDbEntity
  8
GAIKEI
 62
     1
100
AcDbLine
 10
11.59322897497344
 20
34.86842471306338
 30
0.0
 11
11.59322897497344
 21
36.05345871809462
 31
0.0
  0
LINE
  5
54
330
2
100
AcDbEntity
  8
GAIKEI
 62
     1
100
AcDbLine
 10
11.59322897497344
 20
36.05345871809462
 30
0.0
 11
8.200381416115192
 21
36.05345871809462
 31
0.0
  0
LINE
  5
55
330
2
100
AcDbEntity
  8
GAIKEI
 62
     1
100
AcDbLine
 10
8.726431705021866
 20
36.3292187812007
 30
0.0
 11
8.726431705021866
 21
36.55595870675629
 31
0.0
  0
LINE
  5
56
330
2
100
AcDbEntity
  8
GAIKEI
 62
     1
100
AcDbLine
 10
8.726431705021866
 20
36.55595870675629
 30
0.0
 11
7.191555458332629
 21
36.55595870675635
 31
0.0
  0
LINE
  5
57
330
2
100
AcDbEntity
  8
GAIKEI
 62
     1
100
AcDbLine
 10
8.726431705021866
 20
36.3292187812007
 30
0.0
 11
7.191555458332629
 21
36.3292187812007
 31
0.0
  0
LINE
  5
58
330
2
100
AcDbEntity
  8
GAIKEI
 62
     1
100
AcDbLine
 10
11.59322897497344
 20
35.04839983371991
 30
0.0
 11
8.406445665912428
 21
35.04839983371991
 31
0.0
  0
LINE
  5
59
330
2
100
AcDbEntity
  8
GAIKEI
 62
     1
100
AcDbLine
 10
8.406445665912428
 20
35.04839983371991
 30
0.0
 11
8.406445665912428
 21
34.86842471306338
 31
0.0
  0
LINE
  5
5A
330
2
100
AcDbEntity
  8
GAIKEI
 62
     1
100
AcDbLine
 10
-8.143647617526994
 20
35.76077996761515
 30
0.0
 11
-8.143647617526994
 21
35.57693992554445
 31
0.0
  0
LINE
  5
5B
330
2
100
AcDbEntity
  8
GAIKEI
 62
     1
100
AcDbLine
 10
-8.200613557256247
 20
35.32415989682599
 30
0.0
 11
-8.200613557256247
 21
34.86842471306338
 31
0.0
  0
LINE
  5
5C
330
2
100
AcDbEntity
  8
GAIKEI
 62
     1
100
AcDbLine
 10
-8.729511537740791
 20
38.72213990726837
 30
0.0
 11
-7.740702412456528
 21
38.72213990726837
 31
0.0
  0
LINE
  5
5D
330
2
100
AcDbEntity
  8
GAIKEI
 62
     1
100
AcDbLine
 10
-7.740702412456528
 20
35.76077996761515
 30
0.0
 11
-7.740702412456528
 21
38.72213990726837
 31
0.0
  0
LINE
  5
5E
330
2
100
AcDbEntity
  8
GAIKEI
 62
     1
100
AcDbLine
 10
-8.143647617526994
 20
35.76077996761515
 30
0.0
 11
4.958535925703472
 21
35.76077996761515
 31
0.0
  0
LINE
  5
5F
330
2
100
AcDbEntity
  8
GAIKEI
 62
     1
100
AcDbLine
 10
-8.729511537740791
 20
35.57693992554445
 30
0.0
 11
4.958535925703472
 21
35.57693992554445
 31
0.0
  0
LINE
  5
60
330
2
100
AcDbEntity
  8
GAIKEI
 62
     1
100
AcDbLine
 10
-8.729511537740791
 20
35.32415989682599
 30
0.0
 11
4.958535925703472
 21
35.32415989682599
 31
0.0
  0
LINE
  5
61
330
2
100
AcDbEntity
  8
GAIKEI
 62
     1
100
AcDbLine
 10
-8.803039443828879
 20
35.04839983371991
 30
0.0
 11
-8.803039443828879
 21
34.86842471306338
 31
0.0
  0
LINE
  5
62
330
2
100
AcDbEntity
  8
GAIKEI
 62
     1
100
AcDbLine
 10
-9.464733337039831
 20
35.04839983371991
 30
0.0
 11
-9.464733337039831
 21
34.86842471306338
 31
0.0
  0
LINE
  5
63
330
2
100
AcDbEntity
  8
GAIKEI
 62
     1
100
AcDbLine
 10
-9.995627148489234
 20
35.04839983371991
 30
0.0
 11
-9.995627148489234
 21
34.86842471306338
 31
0.0
  0
LINE
  5
64
330
2
100
AcDbEntity
  8
GAIKEI
 62
     1
100
AcDbLine
 10
-10.98307687879497
 20
35.04839983371991
 30
0.0
 11
-10.98307687879497
 21
34.86842471306338
 31
0.0
  0
LINE
  5
65
330
2
100
AcDbEntity
  8
GAIKEI
 62
     1
100
AcDbLine
 10
-14.54738932307083
 20
35.04839983371991
 30
0.0
 11
-10.98307687879497
 21
35.04839983371991
 31
0.0
  0
LINE
  5
66
330
2
100
AcDbEntity
  8
GAIKEI
 62
     1
100
AcDbLine
 10
-10.84510345967896
 20
36.45017983409261
 30
0.0
 11
-10.84510345967896
 21
40.61233861740416
 31
0.0
  0
LINE
  5
67
330
2
100
AcDbEntity
  8
GAIKEI
 62
     1
100
AcDbLine
 10
-11.16704143761632
 20
36.26633990853699
 30
0.0
 11
-10.17823231233205
 21
36.26633990853699
 31
0.0
  0
LINE
  5
68
330
2
100
AcDbEntity
  8
GAIKEI
 62
     1
100
AcDbLine
 10
-8.729511537740791
 20
35.04839983371991
 30
0.0
 11
-10.17823231233205
 21
35.04839983371991
 31
0.0
  0
LINE
  5
69
330
2
100
AcDbEntity
  8
GAIKEI
 62
     1
100
AcDbLine
 10
-8.729511537740791
 20
38.90597983282399
 30
0.0
 11
-8.729511537740791
 21
35.04839983371991
 31
0.0
  0
LINE
  5
6A
330
2
100
AcDbEntity
  8
GAIKEI
 62
     1
100
AcDbLine
 10
-10.17823231233205
 20
35.04839983371991
 30
0.0
 11
-10.17823231233205
 21
40.67543968430792
 31
0.0
  0
LINE
  5
6B
330
2
100
AcDbEntity
  8
GAIKEI
 62
     1
100
AcDbLine
 10
-10.40818775860509
 20
34.86842471306338
 30
0.0
 11
-10.40818775860509
 21
40.75844839969684
 31
0.0
  0
LINE
  5
6C
330
2
100
AcDbEntity
  8
GAIKEI
 62
     1
100
AcDbLine
 10
-11.16704143761632
 20
36.45017983409261
 30
0.0
 11
-10.17823231233205
 21
36.45017983409261
 31
0.0
  0
LINE
  5
6D
330
2
100
AcDbEntity
  8
GAIKEI
 62
     1
100
AcDbLine
 10
-11.16704143761632
 20
35.99057984543092
 30
0.0
 11
-11.16704143761632
 21
36.45017983409261
 31
0.0
  0
LINE
  5
6E
330
2
100
AcDbEntity
  8
GAIKEI
 62
     1
100
AcDbLine
 10
-14.54738932307083
 20
35.99057984543092
 30
0.0
 11
-11.16704143761632
 21
35.99057984543092
 31
0.0
  0
LINE
  5
6F
330
2
100
AcDbEntity
  8
GAIKEI
 62
     1
100
AcDbLine
 10
-14.54738932307083
 20
34.86842471306338
 30
0.0
 11
-14.54738932307083
 21
35.99057984543092
 31
0.0
  0
LINE
  5
70
330
2
100
AcDbEntity
  8
GAIKEI
 62
     1
100
AcDbLine
 10
-16.33245510125414
 20
34.86842471306338
 30
0.0
 11
14.56113398519517
 21
34.86842471306338
 31
0.0
  0
LINE
  5
71
330
2
100
AcDbEntity
  8
GAIKEI
 62
     1
100
AcDbLine
 10
-16.33245510125414
 20
34.50796693210183
 30
0.0
 11
14.56113398519517
 21
34.50796693210183
 31
0.0
  0
INSERT
  5
72
330
2
100
AcDbEntity
  8
SUNPO
100
AcDbBlockReference
  2
_OPEN30
 10
19.69315675113114
 20
41.00044647330688
 30
0.0
 41
2.0
 42
2.0
 43
2.0
 50
90.0
  0
LINE
  5
73
330
2
100
AcDbEntity
  8
SUNPO
100
AcDbLine
 10
13.69315675113114
 20
41.00044647330688
 30
0.0
 11
21.69315675113114
 21
41.00044647330688
 31
0.0
  0
LINE
  5
74
330
2
100
AcDbEntity
  8
GAIKEI
 62
     1
100
AcDbLine
 10
-0.841322623868848
 20
40.66854385635659
 30
0.0
 11
-0.841322623868848
 21
46.15417277789814
 31
0.0
  0
LINE
  5
75
330
2
100
AcDbEntity
  8
GAIKEI
 62
     1
100
AcDbLine
 10
-1.729579908375001
 20
40.66854385635659
 30
0.0
 11
-1.729579908375001
 21
46.15417277789814
 31
0.0
  0
LINE
  5
76
330
2
100
AcDbEntity
  8
GAIKEI
 62
     1
100
AcDbLine
 10
-0.841322623868848
 20
39.33633383961953
 30
0.0
 11
-0.841322623868848
 21
40.47309367005405
 31
0.0
  0
LINE
  5
77
330
2
100
AcDbEntity
  8
GAIKEI
 62
     1
100
AcDbLine
 10
-1.729579908375001
 20
39.33633383961953
 30
0.0
 11
-1.729579908375001
 21
40.47309367005405
 31
0.0
  0
LINE
  5
78
330
2
100
AcDbEntity
  8
GAIKEI
 62
     1
100
AcDbLine
 10
-0.3762130356257103
 20
41.46184137663456
 30
0.0
 11
-0.3762130356257103
 21
40.99046171431299
 31
0.0
  0
LINE
  5
79
330
2
100
AcDbEntity
  8
GAIKEI
 62
     1
100
AcDbLine
 10
0.2335440990930238
 20
41.46184137663456
 30
0.0
 11
-0.3762130356257103
 21
41.46184137663456
 31
0.0
  0
LINE
  5
7A
330
2
100
AcDbEntity
  8
GAIKEI
 62
     1
100
AcDbLine
 10
0.2335440990930238
 20
40.99046171431299
 30
0.0
 11
0.2335440990930238
 21
41.46184137663456
 31
0.0
  0
LINE
  5
7B
330
2
100
AcDbEntity
  8
GAIKEI
 62
     1
100
AcDbLine
 10
-0.4797568570755289
 20
40.79501152801052
 30
0.0
 11
-0.4797568570755289
 21
40.66854385635659
 31
0.0
  0
LINE
  5
7C
330
2
100
AcDbEntity
  8
GAIKEI
 62
     1
100
AcDbLine
 10
0.2450488840584057
 20
40.79501152801052
 30
0.0
 11
-0.4797568570755289
 21
40.79501152801052
 31
0.0
  0
LINE
  5
7D
330
2
100
AcDbEntity
  8
GAIKEI
 62
     1
100
AcDbLine
 10
0.2450488840584057
 20
40.66854385635659
 30
0.0
 11
0.2450488840584057
 21
40.79501152801052
 31
0.0
  0
LINE
  5
7E
330
2
100
AcDbEntity
  8
GAIKEI
 62
     1
100
AcDbLine
 10
1.303495659472559
 20
40.10227243850173
 30
0.0
 11
1.303495659472559
 21
39.33633383961953
 31
0.0
  0
LINE
  5
7F
330
2
100
AcDbEntity
  8
GAIKEI
 62
     1
100
AcDbLine
 10
-3.010824684688429
 20
40.66854385635659
 30
0.0
 11
-3.010824684688429
 21
40.99046171431299
 31
0.0
  0
LINE
  5
80
330
2
100
AcDbEntity
  8
GAIKEI
 62
     1
100
AcDbLine
 10
1.303495659472559
 20
40.99046171431299
 30
0.0
 11
1.303495659472559
 21
40.29772262480427
 31
0.0
  0
LINE
  5
81
330
2
100
AcDbEntity
  8
GAIKEI
 62
     1
100
AcDbLine
 10
-3.010824684688429
 20
40.99046171431299
 30
0.0
 11
1.303495659472559
 21
40.99046171431299
 31
0.0
  0
LINE
  5
82
330
2
100
AcDbEntity
  8
GAIKEI
 62
     1
100
AcDbLine
 10
-3.010824684688429
 20
39.33633383961953
 30
0.0
 11
-3.010824684688429
 21
40.47309367005405
 31
0.0
  0
LINE
  5
83
330
2
100
AcDbEntity
  8
GAIKEI
 62
     1
100
AcDbLine
 10
-3.332960681749511
 20
40.47309367005405
 30
0.0
 11
0.6822337397883871
 21
40.47309367005405
 31
0.0
  0
LINE
  5
84
330
2
100
AcDbEntity
  8
GAIKEI
 62
     1
100
AcDbLine
 10
2.914175392524668
 20
39.33633383961953
 30
0.0
 11
0.6822337397883871
 21
40.66854385635659
 31
0.0
  0
LINE
  5
85
330
2
100
AcDbEntity
  8
GAIKEI
 62
     1
100
AcDbLine
 10
2.586724460341997
 20
39.33633383961953
 30
0.0
 11
0.6822337397883871
 21
40.47309367005405
 31
0.0
  0
LINE
  5
86
330
2
100
AcDbEntity
  8
GAIKEI
 62
     1
100
AcDbLine
 10
-5.237451402303122
 20
39.33633383961953
 30
0.0
 11
-3.332960681749511
 21
40.47309367005405
 31
0.0
  0
LINE
  5
87
330
2
100
AcDbEntity
  8
GAIKEI
 62
     1
100
AcDbLine
 10
-3.332960681749511
 20
40.66854385635659
 30
0.0
 11
0.6822337397883871
 21
40.66854385635659
 31
0.0
  0
LINE
  5
88
330
2
100
AcDbEntity
  8
GAIKEI
 62
     1
100
AcDbLine
 10
-5.564902334485793
 20
39.33633383961953
 30
0.0
 11
-3.332960681749511
 21
40.66854385635659
 31
0.0
  0
LINE
  5
89
330
2
100
AcDbEntity
  8
GAIKEI
 62
     1
100
AcDbLine
 10
7.74697639773683
 20
38.90835732284407
 30
0.0
 11
6.817496324476906
 21
38.90835732284407
 31
0.0
  0
LINE
  5
8A
330
2
100
AcDbEntity
  8
GAIKEI
 62
     1
100
AcDbLine
 10
7.191555458332629
 20
40.27897886297816
 30
0.0
 11
7.191555458332629
 21
38.90835732284407
 31
0.0
  0
LINE
  5
8B
330
2
100
AcDbEntity
  8
GAIKEI
 62
     1
100
AcDbLine
 10
8.200381416115135
 20
40.62538364473314
 30
0.0
 11
9.209207373897527
 21
40.62538364473314
 31
0.0
  0
LINE
  5
8C
330
2
100
AcDbEntity
  8
GAIKEI
 62
     1
100
AcDbLine
 10
5.808670366694514
 20
40.35352485574335
 30
0.0
 11
5.808670366694514
 21
40.16095818441343
 31
0.0
  0
LINE
  5
8D
330
2
100
AcDbEntity
  8
GAIKEI
 62
     1
100
AcDbLine
 10
5.615973290640795
 20
40.35352485574335
 30
0.0
 11
5.808670366694514
 21
40.35352485574335
 31
0.0
  0
LINE
  5
8E
330
2
100
AcDbEntity
  8
GAIKEI
 62
     1
100
AcDbLine
 10
5.615973290640795
 20
40.87944743650186
 30
0.0
 11
5.615973290640795
 21
40.35352485574335
 31
0.0
  0
LINE
  5
8F
330
2
100
AcDbEntity
  8
GAIKEI
 62
     1
100
AcDbLine
 10
5.060552098983009
 20
40.16095818441343
 30
0.0
 11
5.808670366694514
 21
40.16095818441343
 31
0.0
  0
LINE
  5
90
330
2
100
AcDbEntity
  8
GAIKEI
 62
     1
100
AcDbLine
 10
5.060552098983009
 20
39.07070464540621
 30
0.0
 11
5.060552098983009
 21
40.87944743650186
 31
0.0
  0
LINE
  5
91
330
2
100
AcDbEntity
  8
GAIKEI
 62
     1
100
AcDbLine
 10
4.913195600443259
 20
39.33633383961953
 30
0.0
 11
4.913195600443259
 21
41.00044647330688
 31
0.0
  0
LINE
  5
92
330
2
100
AcDbEntity
  8
GAIKEI
 62
     1
100
AcDbLine
 10
7.74697639773683
 20
40.27897886297816
 30
0.0
 11
6.817496324476906
 21
40.27897886297816
 31
0.0
  0
LINE
  5
93
330
2
100
AcDbEntity
  8
GAIKEI
 62
     1
100
AcDbLine
 10
9.015552742947022
 20
41.00044647330688
 30
0.0
 11
4.913195600443259
 21
41.00044647330688
 31
0.0
  0
LINE
  5
94
330
2
100
AcDbEntity
  8
GAIKEI
 62
     1
100
AcDbLine
 10
9.015552742947022
 20
40.75844839969684
 30
0.0
 11
9.015552742947022
 21
41.00044647330688
 31
0.0
  0
LINE
  5
95
330
2
100
AcDbEntity
  8
GAIKEI
 62
     1
100
AcDbLine
 10
9.015552742947022
 20
40.87944743650186
 30
0.0
 11
5.060552098983009
 21
40.87944743650186
 31
0.0
  0
LINE
  5
96
330
2
100
AcDbEntity
  8
GAIKEI
 62
     1
100
AcDbLine
 10
9.015552742947022
 20
40.75844839969684
 30
0.0
 11
5.727187136903239
 21
40.75844839969684
 31
0.0
  0
LINE
  5
97
330
2
100
AcDbEntity
  8
GAIKEI
 62
     1
100
AcDbLine
 10
8.137070792307326
 20
41.00044647330688
 30
0.0
 11
8.137070792307326
 21
41.25175223683422
 31
0.0
  0
LINE
  5
98
330
2
100
AcDbEntity
  8
GAIKEI
 62
     1
100
AcDbLine
 10
7.792455462510474
 20
41.00044647330688
 30
0.0
 11
7.792455462510531
 21
41.25175223683422
 31
0.0
  0
LINE
  5
99
330
2
100
AcDbEntity
  8
GAIKEI
 62
     1
100
AcDbLine
 10
8.369918831309746
 20
41.25175223683422
 30
0.0
 11
7.596863018937199
 21
41.25175223683422
 31
0.0
  0
LINE
  5
9A
330
2
100
AcDbEntity
  8
GAIKEI
 62
     1
100
AcDbLine
 10
8.369918831309746
 20
41.49375042695933
 30
0.0
 11
7.596863018937199
 21
41.49375042695933
 31
0.0
  0
LINE
  5
9B
330
2
100
AcDbEntity
  8
GAIKEI
 62
     1
100
AcDbLine
 10
8.369918831309746
 20
41.25175223683422
 30
0.0
 11
8.369918831309746
 21
41.49375042695933
 31
0.0
  0
LINE
  5
9C
330
2
100
AcDbEntity
  8
GAIKEI
 62
     1
100
AcDbLine
 10
7.596863018937199
 20
41.25175223683422
 30
0.0
 11
7.596863018937199
 21
41.49375042695933
 31
0.0
  0
LINE
  5
9D
330
2
100
AcDbEntity
  8
GAIKEI
 62
     1
100
AcDbLine
 10
7.978734196416723
 20
41.25175223683422
 30
0.0
 11
7.978734196416723
 21
41.49375042695933
 31
0.0
  0
LINE
  5
9E
330
2
100
AcDbEntity
  8
GAIKEI
 62
     1
100
AcDbLine
 10
8.304721350118541
 20
41.49375042695933
 30
0.0
 11
8.304721350118541
 21
41.69202284130725
 31
0.0
  0
LINE
  5
9F
330
2
100
AcDbEntity
  8
GAIKEI
 62
     1
100
AcDbLine
 10
8.304721350118541
 20
41.69202284130725
 30
0.0
 11
7.662060500128404
 21
41.69202284130725
 31
0.0
  0
LINE
  5
A0
330
2
100
AcDbEntity
  8
GAIKEI
 62
     1
100
AcDbLine
 10
7.662060500128404
 20
41.49375042695933
 30
0.0
 11
7.662060500128404
 21
41.69202284130725
 31
0.0
  0
ARC
  5
A1
330
2
100
AcDbEntity
  8
GAIKEI
 62
     1
100
AcDbCircle
 10
7.997361868004418
 20
41.62388868039559
 30
0.0
 40
0.2785648461050061
100
AcDbArc
 50
14.15760216672027
 51
165.8423978332796
  0
ARC
  5
A2
330
2
100
AcDbEntity
  8
GAIKEI
 62
     1
100
AcDbCircle
 10
7.071527013168577
 20
40.27641655755317
 30
0.0
 40
0.9130535118036609
100
AcDbArc
 50
52.46454018644211
 51
128.0906659990395
  0
ARC
  5
A3
330
2
100
AcDbEntity
  8
GAIKEI
 62
     1
100
AcDbCircle
 10
7.088476506244319
 20
41.11841030835219
 30
0.0
 40
0.3475572849578024
100
AcDbArc
 50
359.2020564611207
 51
178.4915053419988
  0
LINE
  5
A4
330
2
100
AcDbEntity
  8
GAIKEI
 62
     1
100
AcDbLine
 10
-7.967939068772523
 20
39.33633383961953
 30
0.0
 11
4.913195600443259
 21
39.33633383961953
 31
0.0
  0
LINE
  5
A5
330
2
100
AcDbEntity
  8
GAIKEI
 62
     1
100
AcDbLine
 10
-9.120436351363025
 20
39.19144513526899
 30
0.0
 11
5.060552098983009
 21
39.19144513526899
 31
0.0
  0
ARC
  5
A6
330
2
100
AcDbEntity
  8
GAIKEI
 62
     1
100
AcDbCircle
 10
-10.94870627434989
 20
41.11841030835219
 30
0.0
 40
0.3475572849578024
100
AcDbArc
 50
1.508494658001167
 51
180.7979435388793
  0
ARC
  5
A7
330
2
100
AcDbEntity
  8
GAIKEI
 62
     1
100
AcDbCircle
 10
-10.9317567812742
 20
40.27641655755317
 30
0.0
 40
0.9130535118036609
100
AcDbArc
 50
51.9093340009605
 51
127.5354598135579
  0
ARC
  5
A8
330
2
100
AcDbEntity
  8
GAIKEI
 62
     1
100
AcDbCircle
 10
-10.23421698532053
 20
41.62388868039559
 30
0.0
 40
0.2785648461050061
100
AcDbArc
 50
14.15760216672034
 51
165.8423978332797
  0
LINE
  5
A9
330
2
100
AcDbEntity
  8
GAIKEI
 62
     1
100
AcDbLine
 10
-9.898915617444458
 20
41.49375042695933
 30
0.0
 11
-9.898915617444458
 21
41.69202284130725
 31
0.0
  0
LINE
  5
AA
330
2
100
AcDbEntity
  8
GAIKEI
 62
     1
100
AcDbLine
 10
-10.54157646743459
 20
41.69202284130725
 30
0.0
 11
-9.898915617444458
 21
41.69202284130725
 31
0.0
  0
LINE
  5
AB
330
2
100
AcDbEntity
  8
GAIKEI
 62
     1
100
AcDbLine
 10
-10.54157646743459
 20
41.49375042695933
 30
0.0
 11
-10.54157646743459
 21
41.69202284130725
 31
0.0
  0
LINE
  5
AC
330
2
100
AcDbEntity
  8
GAIKEI
 62
     1
100
AcDbLine
 10
-10.21558931373278
 20
41.25175223683422
 30
0.0
 11
-10.21558931373278
 21
41.49375042695933
 31
0.0
  0
LINE
  5
AD
330
2
100
AcDbEntity
  8
GAIKEI
 62
     1
100
AcDbLine
 10
-9.83371813625331
 20
41.25175223683422
 30
0.0
 11
-9.83371813625331
 21
41.49375042695933
 31
0.0
  0
LINE
  5
AE
330
2
100
AcDbEntity
  8
GAIKEI
 62
     1
100
AcDbLine
 10
-10.6067739486258
 20
41.25175223683422
 30
0.0
 11
-10.6067739486258
 21
41.49375042695933
 31
0.0
  0
LINE
  5
AF
330
2
100
AcDbEntity
  8
GAIKEI
 62
     1
100
AcDbLine
 10
-10.6067739486258
 20
41.49375042695933
 30
0.0
 11
-9.83371813625331
 21
41.49375042695933
 31
0.0
  0
LINE
  5
B0
330
2
100
AcDbEntity
  8
GAIKEI
 62
     1
100
AcDbLine
 10
-10.6067739486258
 20
41.25175223683422
 30
0.0
 11
-9.83371813625331
 21
41.25175223683422
 31
0.0
  0
LINE
  5
B1
330
2
100
AcDbEntity
  8
GAIKEI
 62
     1
100
AcDbLine
 10
-10.02931057982653
 20
41.00044647330688
 30
0.0
 11
-10.02931057982658
 21
41.25175223683422
 31
0.0
  0
LINE
  5
B2
330
2
100
AcDbEntity
  8
GAIKEI
 62
     1
100
AcDbLine
 10
-10.37392590962338
 20
41.00044647330688
 30
0.0
 11
-10.37392590962338
 21
41.25175223683422
 31
0.0
  0
LINE
  5
B3
330
2
100
AcDbEntity
  8
GAIKEI
 62
     1
100
AcDbLine
 10
-7.967939068772523
 20
39.07070464540621
 30
0.0
 11
-7.967939068772523
 21
41.00044647330688
 31
0.0
  0
LINE
  5
B4
330
2
100
AcDbEntity
  8
GAIKEI
 62
     1
100
AcDbLine
 10
-8.116961954996099
 20
39.07070464540621
 30
0.0
 11
-8.116961954996099
 21
40.87944743650186
 31
0.0
  0
LINE
  5
B5
330
2
100
AcDbEntity
  8
GAIKEI
 62
     1
100
AcDbLine
 10
-10.65334350597544
 20
40.61233861740416
 30
0.0
 11
-10.65334350597544
 21
40.75844839969684
 31
0.0
  0
LINE
  5
B6
330
2
100
AcDbEntity
  8
GAIKEI
 62
     1
100
AcDbLine
 10
-11.25874876053666
 20
40.61233861740416
 30
0.0
 11
-10.65334350597544
 21
40.61233861740416
 31
0.0
  0
LWPOLYLINE
  5
B7
330
2
100
AcDbEntity
  8
GAIKEI
 62
     1
100
AcDbPolyline
 90
        4
 70
     1
 43
0.0
 10
-11.26806272245733
 20
40.75844839969684
 10
-11.25874876053666
 20
40.75844839969684
 10
-11.25874876053666
 20
40.61233861740416
 10
-11.26806272245733
 20
40.61233861740416
  0
LINE
  5
B8
330
2
100
AcDbEntity
  8
GAIKEI
 62
     1
100
AcDbLine
 10
-11.99488170005873
 20
40.71554839969687
 30
0.0
 11
-8.706516094014943
 21
40.75844839969684
 31
0.0
  0
LINE
  5
B9
330
2
100
AcDbEntity
  8
GAIKEI
 62
     1
100
AcDbLine
 10
-11.99488170005873
 20
40.83654743650188
 30
0.0
 11
-8.116961954996099
 21
40.87944743650186
 31
0.0
  0
LINE
  5
BA
330
2
100
AcDbEntity
  8
GAIKEI
 62
     1
100
AcDbLine
 10
-11.99488170005873
 20
40.71554839969687
 30
0.0
 11
-11.99488170005873
 21
40.95754647330685
 31
0.0
  0
LINE
  5
BB
330
2
100
AcDbEntity
  8
GAIKEI
 62
     1
100
AcDbLine
 10
-11.99488170005873
 20
40.95754647330685
 30
0.0
 11
-7.967939068772523
 21
41.00044647330688
 31
0.0
  0
LINE
  5
BC
330
2
100
AcDbEntity
  8
GAIKEI
 62
     1
100
AcDbLine
 10
-9.120436351363025
 20
39.07070464540621
 30
0.0
 11
5.060552098983009
 21
39.07070464540621
 31
0.0
  0
LINE
  5
BD
330
2
100
AcDbEntity
  8
GAIKEI
 62
     1
100
AcDbLine
 10
-9.120436351363025
 20
38.90597983282399
 30
0.0
 11
-8.729511537740791
 21
38.90597983282399
 31
0.0
  0
LINE
  5
BE
330
2
100
AcDbEntity
  8
GAIKEI
 62
     1
100
AcDbLine
 10
-9.120436351363025
 20
40.26179976442145
 30
0.0
 11
-9.120436351363025
 21
38.90597983282399
 31
0.0
  0
LINE
  5
BF
330
2
100
AcDbEntity
  8
GAIKEI
 62
     1
100
AcDbLine
 10
-8.706516094014943
 20
40.26179976442145
 30
0.0
 11
-9.120436351363025
 21
40.26179976442145
 31
0.0
  0
LINE
  5
C0
330
2
100
AcDbEntity
  8
GAIKEI
 62
     1
100
AcDbLine
 10
-8.706516094014943
 20
40.87944743650186
 30
0.0
 11
-8.706516094014943
 21
40.26179976442145
 31
0.0
  0
LINE
  5
C1
330
2
100
AcDbEntity
  8
GAIKEI
 62
     1
100
AcDbLine
 10
-10.17823231233205
 20
40.67543968430792
 30
0.0
 11
-8.706516094014943
 21
40.67543968430792
 31
0.0
  0
LINE
  5
C2
330
2
100
AcDbEntity
  8
S1
 62
     7
100
AcDbLine
 10
-11.5141287077152
 20
34.40078170485342
 30
0.0
 11
-11.5141287077152
 21
34.05778902246422
 31
0.0
  0
LINE
  5
C4
330
2
100
AcDbEntity
  8
S1
 62
     7
100
AcDbLine
 10
8.885871260596957
 20
34.50796693210183
 30
0.0
 11
8.885871260596957
 21
34.05778902246428
 31
0.0
  0
LINE
  5
C5
330
2
100
AcDbEntity
  8
S1
 62
     7
100
AcDbLine
 10
-4.574518392912239
 20
32.93394875727356
 30
0.0
 11
1.946260945793881
 21
32.93394875727356
 31
0.0
  0
ARC
  5
C6
330
2
100
AcDbEntity
  8
S1
 62
     7
100
AcDbCircle
 10
-1.307761707884594
 20
33.99053067264001
 30
0.0
 40
3.143557981248435
100
AcDbArc
 50
199.6400630370933
 51
340.3599369629067
  0
LINE
  5
C7
330
2
100
AcDbEntity
  8
S1
100
AcDbLine
 10
-5.290247587872784
 20
33.2279941075424
 30
0.0
 11
2.661990140754426
 21
33.2279941075424
 31
0.0
  0
ARC
  5
C8
330
2
100
AcDbEntity
  8
S1
 62
     7
100
AcDbCircle
 10
-5.587011440493654
 20
31.48755499796735
 30
0.0
 40
1.765558574038435
100
AcDbArc
 50
55.00751678388754
 51
92.21345000163768
  0
LINE
  5
C9
330
2
100
AcDbEntity
  8
S1
 62
     7
100
AcDbLine
 10
-5.655201517852617
 20
33.25179624896177
 30
0.0
 11
-5.655201517852617
 21
33.39372877852051
 31
0.0
  0
LINE
  5
CA
330
2
100
AcDbEntity
  8
S1
100
AcDbLine
 10
-5.655201517852617
 20
33.39372877852051
 30
0.0
 11
3.028193274756688
 21
33.39372877852051
 31
0.0
  0
LINE
  5
CB
330
2
100
AcDbEntity
  8
S1
 62
     7
100
AcDbLine
 10
3.026944070734373
 20
33.25179624896177
 30
0.0
 11
3.026944070734373
 21
33.39372877852051
 31
0.0
  0
ARC
  5
CC
330
2
100
AcDbEntity
  8
S1
 62
     7
100
AcDbCircle
 10
2.958753993375296
 20
31.48755499796735
 30
0.0
 40
1.765558574038435
100
AcDbArc
 50
87.78654999836232
 51
124.9924832161124
  0
LINE
  5
CD
330
2
100
AcDbEntity
  8
S1
100
AcDbLine
 10
-11.34651401754098
 20
33.88905771244831
 30
0.0
 11
8.718256570422624
 21
33.88905771244831
 31
0.0
  0
LINE
  5
CE
330
2
100
AcDbEntity
  8
S1
100
AcDbLine
 10
-11.5141287077152
 20
34.05778902246422
 30
0.0
 11
8.885871260596957
 21
34.05778902246422
 31
0.0
  0
ARC
  5
CF
330
2
100
AcDbEntity
  8
S1
 62
     7
100
AcDbCircle
 10
-11.28051218188142
 20
34.12224115008198
 30
0.0
 40
0.24234429619262
100
AcDbArc
 50
195.4235719583287
 51
254.1960021161457
  0
LINE
  5
D0
330
2
100
AcDbEntity
  8
S1
 62
     7
100
AcDbLine
 10
-11.5141287077152
 20
34.40078170485342
 30
0.0
 11
-11.24138658793327
 21
34.40078170485342
 31
0.0
  0
LINE
  5
D1
330
2
100
AcDbEntity
  8
S1
 62
     7
100
AcDbLine
 10
-11.24138658793327
 20
34.50796693210183
 30
0.0
 11
-11.24138658793327
 21
34.40078170485342
 31
0.0
  0
ARC
  5
D2
330
2
100
AcDbEntity
  8
S1
 62
     7
100
AcDbCircle
 10
-6.108585677713392
 20
58.88046149444332
 30
0.0
 40
25.4907650283255
100
AcDbArc
 50
258.6403446577851
 51
271.019128639674
  0
ARC
  5
D3
330
2
100
AcDbEntity
  8
S1
 62
     7
100
AcDbCircle
 10
3.480328230595034
 20
58.88046149444332
 30
0.0
 40
25.4907650283255
100
AcDbArc
 50
268.980871360326
 51
281.3596553422149
  0
ARC
  5
D4
330
2
100
AcDbEntity
  8
S1
 62
     7
100
AcDbCircle
 10
8.652254734763175
 20
34.12224115008198
 30
0.0
 40
0.24234429619262
100
AcDbArc
 50
285.8039978838543
 51
344.5764280416713
  0
LINE
  5
D5
330
2
100
AcDbEntity
  8
S1
 62
     7
100
AcDbLine
 10
8.885871260596957
 20
34.40078170485342
 30
0.0
 11
8.885871260596957
 21
34.05778902246422
 31
0.0
  0
CIRCLE
  5
D6
330
2
100
AcDbEntity
  8
S1
 62
     7
100
AcDbCircle
 10
-1.314128723559122
 20
13.91469583647014
 30
0.0
 40
2.954307136877773
  0
CIRCLE
  5
D7
330
2
100
AcDbEntity
  8
S1
100
AcDbCircle
 10
-1.314128723559122
 20
13.91469583647014
 30
0.0
 40
3.260389669353131
  0
CIRCLE
  5
D8
330
2
100
AcDbEntity
  8
S1
100
AcDbCircle
 10
-1.314128723559122
 20
13.91469583647014
 30
0.0
 40
4.34107279429358
  0
CIRCLE
  5
D9
330
2
100
AcDbEntity
  8
S1
 62
     7
100
AcDbCircle
 10
-1.314128723559122
 20
13.91469583647014
 30
0.0
 40
10.19999998415605
  0
CIRCLE
  5
DA
330
2
100
AcDbEntity
  8
S1
100
AcDbCircle
 10
-1.314128723559122
 20
13.91469583647014
 30
0.0
 40
10.04999998415605
  0
LINE
  5
DB
330
2
100
AcDbEntity
  8
WAKU
 62
     1
100
AcDbLine
 10
65.80957686401688
 20
-33.60146269506115
 30
0.0
 11
-59.19042313598311
 21
-33.60146269506115
 31
0.0
  0
TEXT
  5
DD
330
2
100
AcDbEntity
  8
MOJI1
100
AcDbText
 10
-15.69042313598311
 20
-7.601462695061144
 30
0.0
 40
3.0
  1
専用ＡＣアダプタ　ＤＣ１２Ｖ
100
AcDbText
  0
TEXT
  5
DE
330
2
100
AcDbEntity
  8
MOJI1
100
AcDbText
 10
-16.69042313598311
 20
-17.60146269506114
 30
0.0
 40
3.0
  1
１／５インチ 約３２万画素 ＣＭＯＳ
 41
0.9
100
AcDbText
  0
TEXT
  5
DF
330
2
100
AcDbEntity
  8
MOJI1
100
AcDbText
 10
-56.69042313598311
 20
-17.60146269506114
 30
0.0
 40
3.0
  1
撮像素子
100
AcDbText
  0
TEXT
  5
E0
330
2
100
AcDbEntity
  8
MOJI1
100
AcDbText
 10
-56.69042313598311
 20
-27.60146269506114
 30
0.0
 40
3.0
  1
対応照度
100
AcDbText
  0
TEXT
  5
E1
330
2
100
AcDbEntity
  8
MOJI1
100
AcDbText
 10
-16.69042313598311
 20
-27.60146269506114
 30
0.0
 40
3.0
  1
１．５～１０００００ルクス
100
AcDbText
  0
TEXT
  5
E2
330
2
100
AcDbEntity
  8
MOJI1
100
AcDbText
 10
-56.69042313598311
 20
-7.601462695061144
 30
0.0
 40
3.0
  1
電　源
100
AcDbText
  0
LINE
  5
E3
330
2
100
AcDbEntity
  8
WAKU
 62
     1
100
AcDbLine
 10
65.80957686401688
 20
-28.60146269506115
 30
0.0
 11
-59.19042313598311
 21
-28.60146269506115
 31
0.0
  0
LINE
  5
E4
330
2
100
AcDbEntity
  8
WAKU
 62
     1
100
AcDbLine
 10
65.80957686401688
 20
-23.60146269506115
 30
0.0
 11
-59.19042313598311
 21
-23.60146269506115
 31
0.0
  0
LINE
  5
E5
330
2
100
AcDbEntity
  8
WAKU
 62
     1
100
AcDbLine
 10
65.80957686401688
 20
-18.60146269506114
 30
0.0
 11
-59.19042313598311
 21
-18.60146269506114
 31
0.0
  0
LINE
  5
E6
330
2
100
AcDbEntity
  8
WAKU
 62
     1
100
AcDbLine
 10
65.80957686401688
 20
-13.60146269506114
 30
0.0
 11
-59.19042313598311
 21
-13.60146269506114
 31
0.0
  0
LINE
  5
E7
330
2
100
AcDbEntity
  8
WAKU
 62
     4
100
AcDbLine
 10
65.80957686401688
 20
-3.601462695061144
 30
0.0
 11
-59.19042313598311
 21
-3.601462695061144
 31
0.0
  0
LINE
  5
E8
330
2
100
AcDbEntity
  8
WAKU
 62
     1
100
AcDbLine
 10
65.80957686401688
 20
-8.601462695061144
 30
0.0
 11
-59.19042313598311
 21
-8.601462695061144
 31
0.0
  0
LINE
  5
E9
330
2
100
AcDbEntity
  8
WAKU
 62
     4
100
AcDbLine
 10
-59.19042313598311
 20
-3.601462695061144
 30
0.0
 11
-59.19042313598311
 21
-58.60146269506114
 31
0.0
  0
LINE
  5
EA
330
2
100
AcDbEntity
  8
WAKU
 62
     4
100
AcDbLine
 10
65.80957686401688
 20
-58.60146269506114
 30
0.0
 11
65.80957686401688
 21
-3.601462695061144
 31
0.0
  0
LINE
  5
EB
330
2
100
AcDbEntity
  8
WAKU
 62
     4
100
AcDbLine
 10
-18.98484190546469
 20
-58.60146269506092
 30
0.0
 11
-18.98484190546469
 21
-3.601462695060916
 31
0.0
  0
TEXT
  5
EC
330
2
100
AcDbEntity
  8
MOJI1
100
AcDbText
 10
-15.69042313598311
 20
-12.60146269506114
 30
0.0
 40
3.0
  1
ＰｏＥ給電（ＩＥＥＥ８０２．３ａｆ準拠）
 41
0.9
100
AcDbText
  0
TEXT
  5
ED
330
2
100
AcDbEntity
  8
MOJI1
100
AcDbText
 10
-16.69042313598311
 20
-37.60146269506114
 30
0.0
 40
3.0
  1
パン：－５２°～＋５２°(壁設置時)
 41
0.8
100
AcDbText
  0
TEXT
  5
EE
330
2
100
AcDbEntity
  8
MOJI1
100
AcDbText
 10
-56.69042313598311
 20
-37.60146269506114
 30
0.0
 40
3.0
  1
パン・チルト角度
100
AcDbText
  0
TEXT
  5
EF
330
2
100
AcDbEntity
  8
MOJI1
100
AcDbText
 10
-16.69042313598311
 20
-47.60146269506114
 30
0.0
 40
3.0
  1
専用ＳＤ／ＳＤＨＣメモリーカードとして
100
AcDbText
  0
TEXT
  5
F0
330
2
100
AcDbEntity
  8
MOJI1
100
AcDbText
 10
-56.69042313598311
 20
-47.60146269506114
 30
0.0
 40
3.0
  1
ＳＤ／ＳＤＨＣスロット
 41
0.9
100
AcDbText
  0
LINE
  5
F1
330
2
100
AcDbEntity
  8
WAKU
 62
     4
100
AcDbLine
 10
-59.19042313598311
 20
-58.60146269506114
 30
0.0
 11
65.80957686401688
 21
-58.60146269506114
 31
0.0
  0
LINE
  5
F2
330
2
100
AcDbEntity
  8
WAKU
 62
     1
100
AcDbLine
 10
65.80957686401688
 20
-43.60146269506114
 30
0.0
 11
-59.19042313598311
 21
-43.60146269506114
 31
0.0
  0
LINE
  5
F3
330
2
100
AcDbEntity
  8
WAKU
 62
     1
100
AcDbLine
 10
65.80957686401688
 20
-48.60146269506114
 30
0.0
 11
-59.19042313598311
 21
-48.60146269506114
 31
0.0
  0
TEXT
  5
F4
330
2
100
AcDbEntity
  8
MOJI1
100
AcDbText
 10
-56.69042313598311
 20
-57.60146269506114
 30
0.0
 40
3.0
  1
画像圧縮方式
100
AcDbText
  0
LINE
  5
F5
330
2
100
AcDbEntity
  8
WAKU
 62
     1
100
AcDbLine
 10
65.80957686401688
 20
-38.60146269506115
 30
0.0
 11
-59.19042313598311
 21
-38.60146269506115
 31
0.0
  0
TEXT
  5
F6
330
2
100
AcDbEntity
  8
MOJI1
100
AcDbText
 10
-16.69042313598311
 20
-32.60146269506114
 30
0.0
 40
3.0
  1
(カラーナイトビューモー時：０．４～１０００００ルクス)
 41
0.8
100
AcDbText
  0
TEXT
  5
F7
330
2
100
AcDbEntity
  8
MOJI1
100
AcDbText
 10
-16.69042313598311
 20
-22.60146269506114
 30
0.0
 40
3.0
  1
デジタルズーム３倍
100
AcDbText
  0
TEXT
  5
F8
330
2
100
AcDbEntity
  8
MOJI1
100
AcDbText
 10
-56.69042313598311
 20
-22.60146269506114
 30
0.0
 40
3.0
  1
ズーム
100
AcDbText
  0
TEXT
  5
F9
330
2
100
AcDbEntity
  8
MOJI1
100
AcDbText
 10
-16.69042313598311
 20
-42.60146269506114
 30
0.0
 40
3.0
  1
チルト：－５７°～＋５７°レンズ固定：設置時に設定
 41
0.8
100
AcDbText
  0
LINE
  5
FA
330
2
100
AcDbEntity
  8
WAKU
 62
     1
100
AcDbLine
 10
65.80957686401688
 20
-53.60146269506114
 30
0.0
 11
-59.19042313598311
 21
-53.60146269506114
 31
0.0
  0
TEXT
  5
FB
330
2
100
AcDbEntity
  8
MOJI1
100
AcDbText
 10
-16.69042313598311
 20
-57.60146269506114
 30
0.0
 40
3.0
  1
Ｈ．２６４、ＭＰＥＧ－４、ＪＰＥＧ
100
AcDbText
  0
TEXT
  5
FC
330
2
100
AcDbEntity
  8
MOJI1
100
AcDbText
 10
-16.69042313598311
 20
-52.60146269506114
 30
0.0
 40
3.0
  1
ＢＢ－ＨＣＣ０２、０４、０８
100
AcDbText
  0
ENDSEC
  0
SECTION
  2
OBJECTS
  0
DICTIONARY
  5
7
330
0
100
AcDbDictionary
281
     1
  3
ACAD_COLOR
350
2C
  3
ACAD_GROUP
350
28
  3
ACAD_LAYOUT
350
B
  3
ACAD_MATERIAL
350
2B
  3
ACAD_MLINESTYLE
350
29
  3
ACAD_PLOTSETTINGS
350
2A
  3
ACAD_PLOTSTYLENAME
350
6
  3
ACDBHEADERROUNDTRIPXREC
350
121
  3
AcDbVariableDictionary
350
11C
  0
DICTIONARY
  5
11
330
10
100
AcDbDictionary
280
     1
281
     1
  3
ACAD_LAYERSTATES
360
12
  0
DICTIONARY
  5
2C
102
{ACAD_REACTORS
330
7
102
}
330
7
100
AcDbDictionary
281
     1
  0
DICTIONARY
  5
28
102
{ACAD_REACTORS
330
7
102
}
330
7
100
AcDbDictionary
281
     1
  0
DICTIONARY
  5
B
102
{ACAD_REACTORS
330
7
102
}
330
7
100
AcDbDictionary
281
     1
  3
Model
350
A
  3
レイアウト1
350
F
  0
DICTIONARY
  5
2B
102
{ACAD_REACTORS
330
7
102
}
330
7
100
AcDbDictionary
281
     1
  0
DICTIONARY
  5
29
102
{ACAD_REACTORS
330
7
102
}
330
7
100
AcDbDictionary
281
     1
  3
Standard
350
2E
  0
DICTIONARY
  5
2A
102
{ACAD_REACTORS
330
7
102
}
330
7
100
AcDbDictionary
281
     1
  0
ACDBDICTIONARYWDFLT
  5
6
102
{ACAD_REACTORS
330
7
102
}
330
7
100
AcDbDictionary
281
     1
  3
Normal
350
5
100
AcDbDictionaryWithDefault
340
5
  0
DICTIONARY
  5
121
102
{ACAD_REACTORS
330
7
102
}
330
7
100
AcDbDictionary
281
     1
  3
COLORDICT
350
123
  3
MATERIALDICT
350
122
  0
DICTIONARY
  5
11C
102
{ACAD_REACTORS
330
7
102
}
330
7
100
AcDbDictionary
281
     1
  3
DIMASSOC
350
11E
  3
HIDETEXT
350
11D
  3
PROJECTNAME
350
11F
  0
DICTIONARY
  5
12
102
{ACAD_REACTORS
330
11
102
}
330
11
100
AcDbDictionary
281
     1
  0
LAYOUT
  5
A
102
{ACAD_XDICTIONARY
360
124
102
}
102
{ACAD_REACTORS
330
B
102
}
330
B
100
AcDbPlotSettings
  1

  2
10F06M_RICOH_SP-8100
  4
A4
  6

 40
5.873749732971191
 41
5.873747825622558
 42
5.873748779296875
 43
5.873748779296875
 44
209.9733276367187
 45
296.9259948730469
 46
5.419999999999999
 47
0.0
 48
-15.736162
 49
177.122626
140
415.2853679999999
141
384.991592
142
1.0
143
1.382460692026798
 70
 11956
 72
     1
 73
     0
 74
     1
  7
SSC.ctb
 75
     0
147
0.7233478722161132
148
0.0139355835545985
149
0.013135255979023
100
AcDbLayout
  1
Model
 70
     1
 71
     0
 10
0.0
 20
0.0
 11
12.0
 21
9.0
 12
0.0
 22
0.0
 32
0.0
 14
0.0
 24
0.0
 34
0.0
 15
0.0
 25
0.0
 35
0.0
146
0.0
 13
0.0
 23
0.0
 33
0.0
 16
1.0
 26
0.0
 36
0.0
 17
0.0
 27
1.0
 37
0.0
 76
     0
330
2
  0
LAYOUT
  5
F
102
{ACAD_XDICTIONARY
360
126
102
}
102
{ACAD_REACTORS
330
B
102
}
330
B
100
AcDbPlotSettings
  1

  2
None
  4

  6

 40
0.0
 41
0.0
 42
0.0
 43
0.0
 44
0.0
 45
0.0
 46
0.0
 47
0.0
 48
0.0
 49
0.0
140
0.0
141
0.0
142
1.0
143
1.0
 70
   688
 72
     0
 73
     0
 74
     5
  7

 75
    16
147
1.0
148
0.0
149
0.0
100
AcDbLayout
  1
レイアウト1
 70
     1
 71
     1
 10
0.0
 20
0.0
 11
12.0
 21
9.0
 12
0.0
 22
0.0
 32
0.0
 14
0.0
 24
0.0
 34
0.0
 15
0.0
 25
0.0
 35
0.0
146
0.0
 13
0.0
 23
0.0
 33
0.0
 16
1.0
 26
0.0
 36
0.0
 17
0.0
 27
1.0
 37
0.0
 76
     0
330
C
  0
MLINESTYLE
  5
2E
102
{ACAD_REACTORS
330
29
102
}
330
29
100
AcDbMlineStyle
  2
STANDARD
 70
     0
  3

 62
   256
 51
90.0
 52
90.0
 71
     2
 49
0.5
 62
   256
  6
BYLAYER
 49
-0.5
 62
   256
  6
BYLAYER
  0
ACDBPLACEHOLDER
  5
5
102
{ACAD_REACTORS
330
6
102
}
330
6
  0
XRECORD
  5
123
102
{ACAD_REACTORS
330
121
102
}
330
121
100
AcDbXrecord
280
     1
340
2C
  0
XRECORD
  5
122
102
{ACAD_REACTORS
330
121
102
}
330
121
100
AcDbXrecord
280
     1
340
2B
  0
DICTIONARYVAR
  5
11E
102
{ACAD_REACTORS
330
11C
102
}
330
11C
100
DictionaryVariables
280
     0
  1
1
  0
DICTIONARYVAR
  5
11D
102
{ACAD_REACTORS
330
11C
102
}
330
11C
100
DictionaryVariables
280
     0
  1
1
  0
DICTIONARYVAR
  5
11F
102
{ACAD_REACTORS
330
11C
102
}
330
11C
100
DictionaryVariables
280
     0
  1

  0
DICTIONARY
  5
124
330
A
100
AcDbDictionary
280
     1
281
     1
  3
ACAD_XREC_ROUNDTRIP
360
125
  0
DICTIONARY
  5
126
330
F
100
AcDbDictionary
280
     1
281
     1
  3
ACAD_XREC_ROUNDTRIP
360
127
  0
XRECORD
  5
125
102
{ACAD_REACTORS
330
124
102
}
330
124
100
AcDbXrecord
280
     1
102
SHADEPLOT
 70
     1
102
SHADEPLOTRESLEVEL
 70
     2
102
SHADEPLOTCUSTOMDPI
 70
   300
  0
XRECORD
  5
127
102
{ACAD_REACTORS
330
126
102
}
330
126
100
AcDbXrecord
280
     1
102
SHADEPLOT
 70
     0
102
SHADEPLOTRESLEVEL
 70
     2
102
SHADEPLOTCUSTOMDPI
 70
   300
  0
ENDSEC
  0
EOF
