  0
SECTION
  2
HEADER
  9
$ACADVER
  1
AC1015
  9
$ACADMAINTVER
 70
    20
  9
$DWGCODEPAGE
  3
ANSI_932
  9
$INSBASE
 10
0.4999999440410648
 20
372.5008351249344
 30
0.0
  9
$EXTMIN
 10
-61.11968903467015
 20
-62.9792626874746
 30
-0.0015258207003583
  9
$EXTMAX
 10
63.91387995788114
 20
50.49852030200248
 30
0.0000000349246037
  9
$LIMMIN
 10
0.0
 20
0.0
  9
$LIMMAX
 10
420.0
 20
297.0
  9
$ORTHOMODE
 70
     1
  9
$REGENMODE
 70
     0
  9
$FILLMODE
 70
     1
  9
$QTEXTMODE
 70
     0
  9
$MIRRTEXT
 70
     0
  9
$LTSCALE
 40
1.0
  9
$ATTMODE
 70
     1
  9
$TEXTSIZE
 40
2.5
  9
$TRACEWID
 40
1.0
  9
$TEXTSTYLE
  7
Standard
  9
$CLAYER
  8
GAIKEI
  9
$CELTYPE
  6
ByLayer
  9
$CECOLOR
 62
   256
  9
$CELTSCALE
 40
1.0
  9
$DISPSILH
 70
     0
  9
$DIMSCALE
 40
1.0
  9
$DIMASZ
 40
2.0
  9
$DIMEXO
 40
2.0
  9
$DIMDLI
 40
8.0
  9
$DIMRND
 40
0.0
  9
$DIMDLE
 40
0.0
  9
$DIMEXE
 40
2.0
  9
$DIMTP
 40
0.0
  9
$DIMTM
 40
0.0
  9
$DIMTXT
 40
2.5
  9
$DIMCEN
 40
0.0
  9
$DIMTSZ
 40
0.0
  9
$DIMTOL
 70
     0
  9
$DIMLIM
 70
     0
  9
$DIMTIH
 70
     0
  9
$DIMTOH
 70
     0
  9
$DIMSE1
 70
     0
  9
$DIMSE2
 70
     0
  9
$DIMTAD
 70
     3
  9
$DIMZIN
 70
     0
  9
$DIMBLK
  1

  9
$DIMASO
 70
     1
  9
$DIMSHO
 70
     1
  9
$DIMPOST
  1

  9
$DIMAPOST
  1

  9
$DIMALT
 70
     0
  9
$DIMALTD
 70
     2
  9
$DIMALTF
 40
25.4
  9
$DIMLFAC
 40
1.0
  9
$DIMTOFL
 70
     1
  9
$DIMTVP
 40
0.0
  9
$DIMTIX
 70
     0
  9
$DIMSOXD
 70
     0
  9
$DIMSAH
 70
     1
  9
$DIMBLK1
  1
OPEN30
  9
$DIMBLK2
  1
OPEN30
  9
$DIMSTYLE
  2
STANDARD
  9
$DIMCLRD
 70
     0
  9
$DIMCLRE
 70
     0
  9
$DIMCLRT
 70
     0
  9
$DIMTFAC
 40
1.0
  9
$DIMGAP
 40
0.5
  9
$DIMJUST
 70
     0
  9
$DIMSD1
 70
     0
  9
$DIMSD2
 70
     0
  9
$DIMTOLJ
 70
     1
  9
$DIMTZIN
 70
     0
  9
$DIMALTZ
 70
     0
  9
$DIMALTTZ
 70
     0
  9
$DIMUPT
 70
     0
  9
$DIMDEC
 70
     4
  9
$DIMTDEC
 70
     4
  9
$DIMALTU
 70
     2
  9
$DIMALTTD
 70
     2
  9
$DIMTXSTY
  7
Standard
  9
$DIMAUNIT
 70
     0
  9
$DIMADEC
 70
     0
  9
$DIMALTRND
 40
0.0
  9
$DIMAZIN
 70
     0
  9
$DIMDSEP
 70
    46
  9
$DIMATFIT
 70
     3
  9
$DIMFRAC
 70
     0
  9
$DIMLDRBLK
  1
OPEN30
  9
$DIMLUNIT
 70
     2
  9
$DIMLWD
 70
    -2
  9
$DIMLWE
 70
    -2
  9
$DIMTMOVE
 70
     0
  9
$LUNITS
 70
     2
  9
$LUPREC
 70
     4
  9
$SKETCHINC
 40
1.0
  9
$FILLETRAD
 40
0.0
  9
$AUNITS
 70
     0
  9
$AUPREC
 70
     0
  9
$MENU
  1
.
  9
$ELEVATION
 40
0.0
  9
$PELEVATION
 40
0.0
  9
$THICKNESS
 40
0.0
  9
$LIMCHECK
 70
     0
  9
$CHAMFERA
 40
0.0
  9
$CHAMFERB
 40
0.0
  9
$CHAMFERC
 40
0.0
  9
$CHAMFERD
 40
0.0
  9
$SKPOLY
 70
     0
  9
$TDCREATE
 40
2454349.434269746
  9
$TDUCREATE
 40
2454349.059269746
  9
$TDUPDATE
 40
2455631.674033137
  9
$TDUUPDATE
 40
2455631.299033137
  9
$TDINDWG
 40
0.3891712731
  9
$TDUSRTIMER
 40
0.3891712731
  9
$USRTIMER
 70
     1
  9
$ANGBASE
 50
0.0
  9
$ANGDIR
 70
     0
  9
$PDMODE
 70
     0
  9
$PDSIZE
 40
0.0
  9
$PLINEWID
 40
0.0
  9
$SPLFRAME
 70
     0
  9
$SPLINETYPE
 70
     6
  9
$SPLINESEGS
 70
     8
  9
$HANDSEED
  5
1DF
  9
$SURFTAB1
 70
     6
  9
$SURFTAB2
 70
     6
  9
$SURFTYPE
 70
     6
  9
$SURFU
 70
     6
  9
$SURFV
 70
     6
  9
$UCSBASE
  2

  9
$UCSNAME
  2

  9
$UCSORG
 10
0.0
 20
0.0
 30
0.0
  9
$UCSXDIR
 10
1.0
 20
0.0
 30
0.0
  9
$UCSYDIR
 10
0.0
 20
1.0
 30
0.0
  9
$UCSORTHOREF
  2

  9
$UCSORTHOVIEW
 70
     0
  9
$UCSORGTOP
 10
0.0
 20
0.0
 30
0.0
  9
$UCSORGBOTTOM
 10
0.0
 20
0.0
 30
0.0
  9
$UCSORGLEFT
 10
0.0
 20
0.0
 30
0.0
  9
$UCSORGRIGHT
 10
0.0
 20
0.0
 30
0.0
  9
$UCSORGFRONT
 10
0.0
 20
0.0
 30
0.0
  9
$UCSORGBACK
 10
0.0
 20
0.0
 30
0.0
  9
$PUCSBASE
  2

  9
$PUCSNAME
  2

  9
$PUCSORG
 10
0.0
 20
0.0
 30
0.0
  9
$PUCSXDIR
 10
1.0
 20
0.0
 30
0.0
  9
$PUCSYDIR
 10
0.0
 20
1.0
 30
0.0
  9
$PUCSORTHOREF
  2

  9
$PUCSORTHOVIEW
 70
     0
  9
$PUCSORGTOP
 10
0.0
 20
0.0
 30
0.0
  9
$PUCSORGBOTTOM
 10
0.0
 20
0.0
 30
0.0
  9
$PUCSORGLEFT
 10
0.0
 20
0.0
 30
0.0
  9
$PUCSORGRIGHT
 10
0.0
 20
0.0
 30
0.0
  9
$PUCSORGFRONT
 10
0.0
 20
0.0
 30
0.0
  9
$PUCSORGBACK
 10
0.0
 20
0.0
 30
0.0
  9
$USERI1
 70
     0
  9
$USERI2
 70
     0
  9
$USERI3
 70
     0
  9
$USERI4
 70
     0
  9
$USERI5
 70
     0
  9
$USERR1
 40
0.0
  9
$USERR2
 40
0.0
  9
$USERR3
 40
0.0
  9
$USERR4
 40
0.0
  9
$USERR5
 40
0.0
  9
$WORLDVIEW
 70
     1
  9
$SHADEDGE
 70
     3
  9
$SHADEDIF
 70
    70
  9
$TILEMODE
 70
     1
  9
$MAXACTVP
 70
    64
  9
$PINSBASE
 10
0.0
 20
0.0
 30
0.0
  9
$PLIMCHECK
 70
     0
  9
$PEXTMIN
 10
0.0
 20
0.0
 30
0.0
  9
$PEXTMAX
 10
0.0
 20
0.0
 30
0.0
  9
$PLIMMIN
 10
0.0
 20
0.0
  9
$PLIMMAX
 10
12.0
 20
9.0
  9
$UNITMODE
 70
     0
  9
$VISRETAIN
 70
     1
  9
$PLINEGEN
 70
     0
  9
$PSLTSCALE
 70
     1
  9
$TREEDEPTH
 70
  3020
  9
$CMLSTYLE
  2
Standard
  9
$CMLJUST
 70
     0
  9
$CMLSCALE
 40
20.0
  9
$PROXYGRAPHICS
 70
     1
  9
$MEASUREMENT
 70
     1
  9
$CELWEIGHT
370
    -1
  9
$ENDCAPS
280
     0
  9
$JOINSTYLE
280
     0
  9
$LWDISPLAY
290
     0
  9
$INSUNITS
 70
     4
  9
$HYPERLINKBASE
  1

  9
$STYLESHEET
  1

  9
$XEDIT
290
     1
  9
$CEPSNTYPE
380
     0
  9
$PSTYLEMODE
290
     1
  9
$FINGERPRINTGUID
  2
{FDEAD578-A652-11D2-9A35-0060089B3A3F}
  9
$VERSIONGUID
  2
{97D5D55F-173F-48E7-9EA6-9D17A8CB1DAB}
  9
$EXTNAMES
290
     1
  9
$PSVPSCALE
 40
0.0
  9
$OLESTARTUP
290
     0
  0
ENDSEC
  0
SECTION
  2
CLASSES
  0
CLASS
  1
ACDBDICTIONARYWDFLT
  2
AcDbDictionaryWithDefault
  3
ObjectDBX Classes
 90
        0
280
     0
281
     0
  0
CLASS
  1
ACDBPLACEHOLDER
  2
AcDbPlaceHolder
  3
ObjectDBX Classes
 90
        0
280
     0
281
     0
  0
CLASS
  1
LAYOUT
  2
AcDbLayout
  3
ObjectDBX Classes
 90
        0
280
     0
281
     0
  0
CLASS
  1
DICTIONARYVAR
  2
AcDbDictionaryVar
  3
ObjectDBX Classes
 90
        0
280
     0
281
     0
  0
CLASS
  1
DIMASSOC
  2
AcDbDimAssoc
  3
"AcDbDimAssoc|Product Desc:     AcDim ARX App For Dimension|Company:          Autodesk, Inc.|WEB Address:      www.autodesk.com"
 90
    32768
280
     1
281
     0
  0
ENDSEC
  0
SECTION
  2
TABLES
  0
TABLE
  2
VPORT
  5
1B
330
0
100
AcDbSymbolTable
 70
     3
  0
VPORT
  5
1D7
330
1B
100
AcDbSymbolTableRecord
100
AcDbViewportTableRecord
  2
*Active
 70
     0
 10
0.0
 20
0.0
 11
1.0
 21
1.0
 12
1.397095461605495
 22
-6.240371192736063
 13
0.0
 23
0.0
 14
10.0
 24
10.0
 15
10.0
 25
10.0
 16
0.0
 26
0.0
 36
1.0
 17
0.0
 27
0.0
 37
0.0
 40
114.3320699379549
 41
2.170854271356783
 42
50.0
 43
0.0
 44
0.0
 50
0.0
 51
0.0
 71
     0
 72
  1000
 73
     1
 74
     2
 75
     0
 76
     0
 77
     0
 78
     0
281
     0
 65
     1
110
0.0
120
0.0
130
0.0
111
1.0
121
0.0
131
0.0
112
0.0
122
1.0
132
0.0
 79
     0
146
0.0
  0
ENDTAB
  0
TABLE
  2
LTYPE
  5
16
330
0
100
AcDbSymbolTable
 70
     1
  0
LTYPE
  5
17
330
16
100
AcDbSymbolTableRecord
100
AcDbLinetypeTableRecord
  2
ByBlock
 70
     0
  3

 72
    65
 73
     0
 40
0.0
  0
LTYPE
  5
18
330
16
100
AcDbSymbolTableRecord
100
AcDbLinetypeTableRecord
  2
ByLayer
 70
     0
  3

 72
    65
 73
     0
 40
0.0
  0
LTYPE
  5
8
330
16
100
AcDbSymbolTableRecord
100
AcDbLinetypeTableRecord
  2
Continuous
 70
     0
  3
Solid line
 72
    65
 73
     0
 40
0.0
  0
ENDTAB
  0
TABLE
  2
LAYER
  5
10
102
{ACAD_XDICTIONARY
360
11
102
}
330
0
100
AcDbSymbolTable
 70
     7
  0
LAYER
  5
4
330
10
100
AcDbSymbolTableRecord
100
AcDbLayerTableRecord
  2
0
 70
     0
 62
     7
  6
Continuous
370
    -3
390
5
  0
LAYER
  5
189
330
10
100
AcDbSymbolTableRecord
100
AcDbLayerTableRecord
  2
WAKU
 70
     0
 62
     4
  6
Continuous
370
    -3
390
5
  0
LAYER
  5
30
330
10
100
AcDbSymbolTableRecord
100
AcDbLayerTableRecord
  2
MOJI1
 70
     0
 62
     2
  6
Continuous
370
    -3
390
5
  0
LAYER
  5
32
330
10
100
AcDbSymbolTableRecord
100
AcDbLayerTableRecord
  2
TOUROKU
 70
     0
 62
     1
  6
Continuous
370
    -3
390
5
  0
LAYER
  5
3E
330
10
100
AcDbSymbolTableRecord
100
AcDbLayerTableRecord
  2
Defpoints
 70
     0
 62
     7
  6
Continuous
290
     0
370
    -3
390
5
  0
LAYER
  5
2D
330
10
100
AcDbSymbolTableRecord
100
AcDbLayerTableRecord
  2
GAIKEI
 70
     0
 62
     7
  6
Continuous
370
    -3
390
5
  0
LAYER
  5
34
330
10
100
AcDbSymbolTableRecord
100
AcDbLayerTableRecord
  2
SUNPO
 70
     0
 62
     3
  6
Continuous
370
    -3
390
5
  0
ENDTAB
  0
TABLE
  2
STYLE
  5
13
330
0
100
AcDbSymbolTable
 70
     1
  0
STYLE
  5
14
330
13
100
AcDbSymbolTableRecord
100
AcDbTextStyleTableRecord
  2
Standard
 70
     0
 40
0.0
 41
1.0
 50
0.0
 71
     0
 42
2.5
  3
MONOTXT.shx
  4
BIGFONT.shx
  0
ENDTAB
  0
TABLE
  2
VIEW
  5
19
330
0
100
AcDbSymbolTable
 70
     0
  0
ENDTAB
  0
TABLE
  2
UCS
  5
1A
330
0
100
AcDbSymbolTable
 70
     0
  0
ENDTAB
  0
TABLE
  2
APPID
  5
1D
330
0
100
AcDbSymbolTable
 70
     1
  0
APPID
  5
1E
330
1D
100
AcDbSymbolTableRecord
100
AcDbRegAppTableRecord
  2
ACAD
 70
     0
  0
ENDTAB
  0
TABLE
  2
DIMSTYLE
  5
1F
330
0
100
AcDbSymbolTable
 70
     1
100
AcDbDimStyleTable
 71
     1
340
20
  0
DIMSTYLE
105
20
102
{ACAD_REACTORS
330
42
330
33
102
}
330
1F
100
AcDbSymbolTableRecord
100
AcDbDimStyleTableRecord
  2
STANDARD
 70
     0
 40
0.0
 41
2.0
 42
2.0
 43
8.0
 44
2.0
 73
     0
 74
     0
 77
     3
140
3.0
141
0.0
173
     1
279
     2
288
     1
340
14
341
21
343
21
344
21
  0
ENDTAB
  0
TABLE
  2
BLOCK_RECORD
  5
1
330
0
100
AcDbSymbolTable
 70
     5
  0
BLOCK_RECORD
  5
2
330
1
100
AcDbSymbolTableRecord
100
AcDbBlockTableRecord
  2
*Model_Space
340
A
  0
BLOCK_RECORD
  5
C
330
1
100
AcDbSymbolTableRecord
100
AcDbBlockTableRecord
  2
*Paper_Space
340
F
  0
BLOCK_RECORD
  5
21
330
1
100
AcDbSymbolTableRecord
100
AcDbBlockTableRecord
  2
_OPEN30
340
0
102
{BLKREFS
331
3A
331
3B
331
48
331
49
331
1BF
331
1C0
331
1CB
331
1CC
102
}
  0
BLOCK_RECORD
  5
43
330
1
100
AcDbSymbolTableRecord
100
AcDbBlockTableRecord
  2
*D1
340
0
  0
BLOCK_RECORD
  5
35
330
1
100
AcDbSymbolTableRecord
100
AcDbBlockTableRecord
  2
*D2
340
0
  0
BLOCK_RECORD
  5
1BB
330
1
100
AcDbSymbolTableRecord
100
AcDbBlockTableRecord
  2
*D3
340
0
  0
BLOCK_RECORD
  5
1C7
330
1
100
AcDbSymbolTableRecord
100
AcDbBlockTableRecord
  2
*D4
340
0
  0
ENDTAB
  0
ENDSEC
  0
SECTION
  2
BLOCKS
  0
BLOCK
  5
3
330
2
100
AcDbEntity
  8
0
100
AcDbBlockBegin
  2
*Model_Space
 70
     0
 10
0.0
 20
0.0
 30
0.0
  3
*Model_Space
  1

  0
ENDBLK
  5
9
330
2
100
AcDbEntity
  8
0
100
AcDbBlockEnd
  0
BLOCK
  5
D
330
C
100
AcDbEntity
 67
     1
  8
0
100
AcDbBlockBegin
  2
*Paper_Space
 70
     0
 10
0.0
 20
0.0
 30
0.0
  3
*Paper_Space
  1

  0
ENDBLK
  5
E
330
C
100
AcDbEntity
 67
     1
  8
0
100
AcDbBlockEnd
  0
BLOCK
  5
22
330
21
100
AcDbEntity
  8
0
100
AcDbBlockBegin
  2
_OPEN30
 70
     0
 10
0.0
 20
0.0
 30
0.0
  3
_OPEN30
  1

  0
LINE
  5
23
330
21
100
AcDbEntity
  8
0
  6
ByBlock
 62
     0
100
AcDbLine
 10
-1.0
 20
0.26794919
 30
0.0
 11
0.0
 21
0.0
 31
0.0
  0
LINE
  5
24
330
21
100
AcDbEntity
  8
0
  6
ByBlock
 62
     0
100
AcDbLine
 10
0.0
 20
0.0
 30
0.0
 11
-1.0
 21
-0.26794919
 31
0.0
  0
LINE
  5
25
330
21
100
AcDbEntity
  8
0
  6
ByBlock
 62
     0
100
AcDbLine
 10
0.0
 20
0.0
 30
0.0
 11
-1.0
 21
0.0
 31
0.0
  0
ENDBLK
  5
26
330
21
100
AcDbEntity
  8
0
100
AcDbBlockEnd
  0
BLOCK
  5
44
330
43
100
AcDbEntity
  8
0
100
AcDbBlockBegin
  2
*D1
 70
     1
 10
0.0
 20
0.0
 30
0.0
  3
*D1
  1

  0
LINE
  5
45
330
43
100
AcDbEntity
  8
SUNPO
 62
     0
370
    -2
100
AcDbLine
 10
31.4473293609579
 20
347.1333675685286
 30
0.0
 11
31.4473293609579
 21
355.1333675685286
 31
0.0
  0
LINE
  5
46
330
43
100
AcDbEntity
  8
SUNPO
 62
     0
370
    -2
100
AcDbLine
 10
53.64732936095791
 20
347.1333675685286
 30
0.0
 11
53.64732936095791
 21
355.1333675685286
 31
0.0
  0
LINE
  5
47
330
43
100
AcDbEntity
  8
SUNPO
 62
     0
370
    -2
100
AcDbLine
 10
33.4473293609579
 20
353.1333675685286
 30
0.0
 11
51.6473293609579
 21
353.1333675685286
 31
0.0
  0
INSERT
  5
48
330
43
100
AcDbEntity
  8
SUNPO
 62
     0
370
    -2
100
AcDbBlockReference
  2
_OPEN30
 10
31.4473293609579
 20
353.1333675685286
 30
0.0
 41
2.0
 42
2.0
 43
2.0
 50
180.0
  0
INSERT
  5
49
330
43
100
AcDbEntity
  8
SUNPO
 62
     0
370
    -2
100
AcDbBlockReference
  2
_OPEN30
 10
53.64732936095791
 20
353.1333675685286
 30
0.0
 41
2.0
 42
2.0
 43
2.0
  0
MTEXT
  5
4A
330
43
100
AcDbEntity
  8
SUNPO
 62
     0
100
AcDbMText
 10
42.5473293609579
 20
354.8833675685286
 30
0.0
 40
2.5
 41
0.0
 71
     5
 72
     1
  1
\A1;φ111
 73
     1
 44
1.0
1001
ACAD
1000
MTEXTBEGIN
1070
    73
1070
     1
1070
    44
1040
1.0
1070
    74
1070
     0
1000
MTEXTEND
  0
POINT
  5
4B
330
43
100
AcDbEntity
  8
Defpoints
 62
     0
100
AcDbPoint
 10
31.4473293609579
 20
345.1333675685286
 30
0.0
  0
POINT
  5
4C
330
43
100
AcDbEntity
  8
Defpoints
 62
     0
100
AcDbPoint
 10
53.64732936095791
 20
345.1333675685286
 30
0.0
  0
POINT
  5
4D
330
43
100
AcDbEntity
  8
Defpoints
 62
     0
100
AcDbPoint
 10
53.64732936095791
 20
353.1333675685286
 30
0.0
  0
ENDBLK
  5
4E
330
43
100
AcDbEntity
  8
0
100
AcDbBlockEnd
  0
BLOCK
  5
36
330
35
100
AcDbEntity
  8
0
100
AcDbBlockBegin
  2
*D2
 70
     1
 10
0.0
 20
0.0
 30
0.0
  3
*D2
  1

  0
LINE
  5
37
330
35
100
AcDbEntity
  8
SUNPO
 62
     0
370
    -2
100
AcDbLine
 10
73.37421134663649
 20
347.1326694670871
 30
0.0
 11
73.3741420071417
 21
355.1326694664862
 31
0.0
  0
LINE
  5
38
330
35
100
AcDbEntity
  8
SUNPO
 62
     0
370
    -2
100
AcDbLine
 10
87.97416292784511
 20
347.1327960112455
 30
0.0
 11
87.97409358835032
 21
355.1327960106445
 31
0.0
  0
LINE
  5
39
330
35
100
AcDbEntity
  8
SUNPO
 62
     0
370
    -2
100
AcDbLine
 10
75.37415934194028
 20
353.132686801435
 30
0.0
 11
85.97411092329917
 21
353.1327786758459
 31
0.0
  0
INSERT
  5
3A
330
35
100
AcDbEntity
  8
SUNPO
 62
     0
370
    -2
100
AcDbBlockReference
  2
_OPEN30
 10
73.37415934201541
 20
353.1326694665613
 30
0.0
 41
2.0
 42
2.0
 43
2.0
 50
180.0004966075506
  0
INSERT
  5
3B
330
35
100
AcDbEntity
  8
SUNPO
 62
     0
370
    -2
100
AcDbBlockReference
  2
_OPEN30
 10
87.97411092322404
 20
353.1327960107196
 30
0.0
 41
2.0
 42
2.0
 43
2.0
 50
0.0004966075506004
  0
MTEXT
  5
3C
330
35
100
AcDbEntity
  8
SUNPO
 62
     0
100
AcDbMText
 10
80.67411996460524
 20
354.8827327385748
 30
0.0
 40
2.5
 41
0.0
 71
     5
 72
     1
  1
\A1;73
 11
0.9999999999624378
 21
0.0000086674368481
 31
0.0
 73
     1
 44
1.0
1001
ACAD
1000
MTEXTBEGIN
1070
    73
1070
     1
1070
    44
1040
1.0
1070
    74
1070
     0
1000
MTEXTEND
  0
POINT
  5
3D
330
35
100
AcDbEntity
  8
Defpoints
 62
     0
100
AcDbPoint
 10
73.37422868151017
 20
345.1326694671622
 30
0.0
  0
POINT
  5
3F
330
35
100
AcDbEntity
  8
Defpoints
 62
     0
100
AcDbPoint
 10
87.97418026271881
 20
345.1327960113206
 30
0.0
  0
POINT
  5
40
330
35
100
AcDbEntity
  8
Defpoints
 62
     0
100
AcDbPoint
 10
87.97411092322404
 20
353.1327960107196
 30
0.0
  0
ENDBLK
  5
41
330
35
100
AcDbEntity
  8
0
100
AcDbBlockEnd
  0
BLOCK
  5
1C5
330
1BB
100
AcDbEntity
  8
0
100
AcDbBlockBegin
  2
*D3
 70
     1
 10
0.0
 20
0.0
 30
0.0
  3
*D3
  1

  0
LINE
  5
1BC
330
1BB
100
AcDbEntity
  8
SUNPO
 62
     0
370
    -2
100
AcDbLine
 10
-32.15554673912964
 20
27.37628053876
 30
0.0
 11
-32.15554673912964
 21
35.37628053876
 31
0.0
  0
LINE
  5
1BD
330
1BB
100
AcDbEntity
  8
SUNPO
 62
     0
370
    -2
100
AcDbLine
 10
-9.955546739129637
 20
27.37628053876
 30
0.0
 11
-9.955546739129637
 21
35.37628053876
 31
0.0
  0
LINE
  5
1BE
330
1BB
100
AcDbEntity
  8
SUNPO
 62
     0
370
    -2
100
AcDbLine
 10
-30.15554673912964
 20
33.37628053876
 30
0.0
 11
-11.95554673912964
 21
33.37628053876
 31
0.0
  0
INSERT
  5
1BF
330
1BB
100
AcDbEntity
  8
SUNPO
 62
     0
370
    -2
100
AcDbBlockReference
  2
_OPEN30
 10
-32.15554673912964
 20
33.37628053876
 30
0.0
 41
2.0
 42
2.0
 43
2.0
 50
180.0
  0
INSERT
  5
1C0
330
1BB
100
AcDbEntity
  8
SUNPO
 62
     0
370
    -2
100
AcDbBlockReference
  2
_OPEN30
 10
-9.955546739129637
 20
33.37628053876
 30
0.0
 41
2.0
 42
2.0
 43
2.0
  0
MTEXT
  5
1C1
330
1BB
100
AcDbEntity
  8
SUNPO
 62
     0
100
AcDbMText
 10
-21.05554673912964
 20
35.12628053876
 30
0.0
 40
2.5
 41
0.0
 71
     5
 72
     1
  1
\A1;φ111
 73
     1
 44
1.0
1001
ACAD
1000
MTEXTBEGIN
1070
    73
1070
     1
1070
    44
1040
1.0
1070
    74
1070
     0
1000
MTEXTEND
  0
POINT
  5
1C2
330
1BB
100
AcDbEntity
  8
Defpoints
 62
     0
100
AcDbPoint
 10
-32.15554673912964
 20
25.37628053876
 30
0.0
  0
POINT
  5
1C3
330
1BB
100
AcDbEntity
  8
Defpoints
 62
     0
100
AcDbPoint
 10
-9.955546739129637
 20
25.37628053876
 30
0.0
  0
POINT
  5
1C4
330
1BB
100
AcDbEntity
  8
Defpoints
 62
     0
100
AcDbPoint
 10
-9.955546739129637
 20
33.37628053876
 30
0.0
  0
ENDBLK
  5
1C6
330
1BB
100
AcDbEntity
  8
0
100
AcDbBlockEnd
  0
BLOCK
  5
1D1
330
1C7
100
AcDbEntity
  8
0
100
AcDbBlockBegin
  2
*D4
 70
     1
 10
0.0
 20
0.0
 30
0.0
  3
*D4
  1

  0
LINE
  5
1C8
330
1C7
100
AcDbEntity
  8
SUNPO
 62
     0
370
    -2
100
AcDbLine
 10
9.771335246548938
 20
27.37558243731845
 30
0.0
 11
9.771265907054155
 21
35.37558243671757
 31
0.0
  0
LINE
  5
1C9
330
1C7
100
AcDbEntity
  8
SUNPO
 62
     0
370
    -2
100
AcDbLine
 10
24.37128682775758
 20
27.37570898147677
 30
0.0
 11
24.3712174882628
 21
35.37570898087589
 31
0.0
  0
LINE
  5
1CA
330
1C7
100
AcDbEntity
  8
SUNPO
 62
     0
370
    -2
100
AcDbLine
 10
11.77128324185273
 20
33.37559977166639
 30
0.0
 11
22.37123482321162
 21
33.37569164607732
 31
0.0
  0
INSERT
  5
1CB
330
1C7
100
AcDbEntity
  8
SUNPO
 62
     0
370
    -2
100
AcDbBlockReference
  2
_OPEN30
 10
9.771283241927852
 20
33.37558243679269
 30
0.0
 41
2.0
 42
2.0
 43
2.0
 50
180.0004966075506
  0
INSERT
  5
1CC
330
1C7
100
AcDbEntity
  8
SUNPO
 62
     0
370
    -2
100
AcDbBlockReference
  2
_OPEN30
 10
24.3712348231365
 20
33.37570898095101
 30
0.0
 41
2.0
 42
2.0
 43
2.0
 50
0.0004966075506004
  0
MTEXT
  5
1CD
330
1C7
100
AcDbEntity
  8
SUNPO
 62
     0
100
AcDbMText
 10
17.07124386451769
 20
35.12564570880611
 30
0.0
 40
2.5
 41
0.0
 71
     5
 72
     1
  1
\A1;73
 11
0.9999999999624378
 21
0.0000086674368481
 31
0.0
 73
     1
 44
1.0
1001
ACAD
1000
MTEXTBEGIN
1070
    73
1070
     1
1070
    44
1040
1.0
1070
    74
1070
     0
1000
MTEXTEND
  0
POINT
  5
1CE
330
1C7
100
AcDbEntity
  8
Defpoints
 62
     0
100
AcDbPoint
 10
9.771352581422634
 20
25.37558243739358
 30
0.0
  0
POINT
  5
1CF
330
1C7
100
AcDbEntity
  8
Defpoints
 62
     0
100
AcDbPoint
 10
24.37130416263128
 20
25.3757089815519
 30
0.0
  0
POINT
  5
1D0
330
1C7
100
AcDbEntity
  8
Defpoints
 62
     0
100
AcDbPoint
 10
24.3712348231365
 20
33.37570898095101
 30
0.0
  0
ENDBLK
  5
1D2
330
1C7
100
AcDbEntity
  8
0
100
AcDbBlockEnd
  0
ENDSEC
  0
SECTION
  2
ENTITIES
  0
TEXT
  5
2F
330
2
100
AcDbEntity
  8
MOJI1
100
AcDbText
 10
-34.10287615604648
 20
46.74374809516542
 30
0.0
 40
4.0
  1
ネットワークカメラ
100
AcDbText
  0
TEXT
  5
31
330
2
100
AcDbEntity
  8
TOUROKU
100
AcDbText
 10
46.03040721021413
 20
40.74374809516576
 30
0.0
 40
2.0
  1
ＢＢＨＣＭ７０１
 72
     2
 11
63.8970738768808
 21
40.74374809516576
 31
0.0
100
AcDbText
  0
DIMENSION
  5
33
330
2
100
AcDbEntity
  8
SUNPO
100
AcDbDimension
  2
*D4
 10
24.3712348231365
 20
33.37570898095101
 30
0.0
 11
17.07124386451769
 21
35.12564570880611
 31
0.0
 70
    33
  1
73
 71
     5
 42
14.59995158175705
  3
STANDARD
100
AcDbAlignedDimension
 13
9.771352581422632
 23
25.37558243739358
 33
0.0
 14
24.37130416263128
 24
25.3757089815519
 34
0.0
1001
ACAD
1000
DSTYLE
1002
{
1070
    40
1040
1.0
1070
   140
1040
2.5
1070
   147
1040
0.5
1070
   172
1070
     1
1070
   279
1070
     0
1070
   288
1070
     0
1002
}
  0
DIMENSION
  5
42
330
2
100
AcDbEntity
  8
SUNPO
100
AcDbDimension
  2
*D3
 10
-9.955546739129637
 20
33.37628053876
 30
0.0
 11
-21.05554673912964
 21
35.12628053876
 31
0.0
 70
    33
  1
φ111
 71
     5
 42
22.2
  3
STANDARD
100
AcDbAlignedDimension
 13
-32.15554673912964
 23
25.37628053876
 33
0.0
 14
-9.955546739129637
 24
25.37628053876
 34
0.0
1001
ACAD
1000
DSTYLE
1002
{
1070
    40
1040
1.0
1070
   140
1040
2.5
1070
   147
1040
0.5
1070
   172
1070
     1
1070
   279
1070
     0
1070
   288
1070
     0
1002
}
  0
LINE
  5
4F
330
2
100
AcDbEntity
  8
GAIKEI
 62
     1
 48
0.00006
370
    40
100
AcDbLine
 10
-11.25711313912964
 20
9.954823897500261
 30
0.0
 11
-11.25669653912963
 21
9.954583697500254
 31
0.0
  0
ARC
  5
50
330
2
100
AcDbEntity
  8
GAIKEI
 62
     1
370
    13
100
AcDbCircle
 10
-21.05554673912964
 20
14.36487569750028
 30
0.0
 40
10.5798432
100
AcDbArc
 50
83.98454299388475
 51
96.01545700611522
  0
LINE
  5
51
330
2
100
AcDbEntity
  8
GAIKEI
 62
     1
 48
0.005001
370
    40
100
AcDbLine
 10
-21.15554673912964
 20
8.765768697500277
 30
0.0
 11
-21.19554673912964
 21
8.766625897500261
 31
0.0
  0
LINE
  5
52
330
2
100
AcDbEntity
  8
GAIKEI
 62
     1
 48
0.004904
370
    40
100
AcDbLine
 10
-21.11554673912964
 20
8.765197297500264
 30
0.0
 11
-21.15477713912964
 21
8.765754897500301
 31
0.0
  0
ARC
  5
53
330
2
100
AcDbEntity
  8
GAIKEI
 62
     1
370
    40
100
AcDbCircle
 10
-21.05554673912964
 20
14.36487569750028
 30
0.0
 40
5.6
100
AcDbArc
 50
269.3861030000003
 51
270.6138979999999
  0
LINE
  5
54
330
2
100
AcDbEntity
  8
GAIKEI
 62
     1
 48
0.004904
370
    40
100
AcDbLine
 10
-20.99554673912964
 20
8.765197297500264
 30
0.0
 11
-20.95631633912964
 21
8.765754897500301
 31
0.0
  0
LINE
  5
55
330
2
100
AcDbEntity
  8
GAIKEI
 62
     1
 48
0.005001
370
    40
100
AcDbLine
 10
-20.95554673912963
 20
8.765768697500277
 30
0.0
 11
-20.91554673912964
 21
8.766625897500261
 31
0.0
  0
ARC
  5
56
330
2
100
AcDbEntity
  8
GAIKEI
 62
     1
370
    40
100
AcDbCircle
 10
-21.05554673912964
 20
14.36487569750028
 30
0.0
 40
5.6
100
AcDbArc
 50
207.0348089999991
 51
268.5674639999996
  0
LINE
  5
57
330
2
100
AcDbEntity
  8
GAIKEI
 62
     1
 48
0.075021
370
    13
100
AcDbLine
 10
-21.19554673912964
 20
8.166456097500258
 30
0.0
 11
-21.19554673912964
 21
8.766625897500261
 31
0.0
  0
LINE
  5
58
330
2
100
AcDbEntity
  8
GAIKEI
 62
     1
 48
0.075021
370
    13
100
AcDbLine
 10
-20.91554673912964
 20
8.766625897500261
 30
0.0
 11
-20.91554673912964
 21
8.166456097500258
 31
0.0
  0
ARC
  5
59
330
2
100
AcDbEntity
  8
GAIKEI
 62
     1
370
    40
100
AcDbCircle
 10
-21.05554673912964
 20
14.36487569750028
 30
0.0
 40
5.6
100
AcDbArc
 50
271.432537
 51
332.9651929999994
  0
LINE
  5
5A
330
2
100
AcDbEntity
  8
GAIKEI
 62
     1
 48
0.0325
370
    40
100
AcDbLine
 10
-26.04363753912963
 20
11.81949729750027
 30
0.0
 11
-25.77641839744919
 21
11.95585706210636
 31
0.0
  0
LINE
  5
5B
330
2
100
AcDbEntity
  8
GAIKEI
 62
     1
 48
0.058033
370
    13
100
AcDbLine
 10
-15.73502253912963
 20
16.59562709750025
 30
0.0
 11
-15.27076133912963
 21
16.59562709750025
 31
0.0
  0
ARC
  5
5C
330
2
100
AcDbEntity
  8
GAIKEI
 62
     1
370
    13
100
AcDbCircle
 10
-21.05554673912964
 20
14.36487569750028
 30
0.0
 40
5.7692486
100
AcDbArc
 50
337.2530210000003
 51
22.74697100000112
  0
LINE
  5
5D
330
2
100
AcDbEntity
  8
GAIKEI
 62
     1
 48
0.058033
370
    13
100
AcDbLine
 10
-15.27076093912964
 20
12.13412429750031
 30
0.0
 11
-15.73502253912963
 21
12.13412429750031
 31
0.0
  0
LINE
  5
5E
330
2
100
AcDbEntity
  8
GAIKEI
 62
     1
 48
0.058033
370
    13
100
AcDbLine
 10
-26.37607093912965
 20
12.13412429750031
 30
0.0
 11
-26.84033293912964
 21
12.13412429750031
 31
0.0
  0
ARC
  5
5F
330
2
100
AcDbEntity
  8
GAIKEI
 62
     1
370
    13
100
AcDbCircle
 10
-21.05554673912964
 20
14.36487569750028
 30
0.0
 40
5.7692486
100
AcDbArc
 50
157.2530149999995
 51
202.746979999999
  0
LINE
  5
60
330
2
100
AcDbEntity
  8
GAIKEI
 62
     1
 48
0.058033
370
    13
100
AcDbLine
 10
-26.84033293912964
 20
16.59562709750025
 30
0.0
 11
-26.37607093912965
 21
16.59562709750025
 31
0.0
  0
LINE
  5
61
330
2
100
AcDbEntity
  8
GAIKEI
 62
     1
 48
0.0325
370
    40
100
AcDbLine
 10
-16.33467508081009
 20
11.95585706210636
 30
0.0
 11
-16.06745593912964
 21
11.81949729750027
 31
0.0
  0
LINE
  5
62
330
2
100
AcDbEntity
  8
GAIKEI
 62
     1
 48
0.0325
370
    40
100
AcDbLine
 10
-25.77641839744919
 20
16.7738943328942
 30
0.0
 11
-26.04363753912963
 21
16.91025409750028
 31
0.0
  0
LINE
  5
63
330
2
100
AcDbEntity
  8
GAIKEI
 62
     1
 48
0.0325
370
    40
100
AcDbLine
 10
-16.06745593912964
 20
16.91025409750028
 30
0.0
 11
-16.33467508081009
 21
16.7738943328942
 31
0.0
  0
ARC
  5
64
330
2
100
AcDbEntity
  8
GAIKEI
 62
     1
370
    40
100
AcDbCircle
 10
-21.05554673912964
 20
14.36487569750028
 30
0.0
 40
5.6
100
AcDbArc
 50
27.03481599999887
 51
88.56745899999969
  0
LINE
  5
65
330
2
100
AcDbEntity
  8
GAIKEI
 62
     1
 48
0.005001
370
    40
100
AcDbLine
 10
-20.95554673912963
 20
19.96398269750028
 30
0.0
 11
-20.91554673912964
 21
19.9631254975003
 31
0.0
  0
LINE
  5
66
330
2
100
AcDbEntity
  8
GAIKEI
 62
     1
 48
0.004904
370
    40
100
AcDbLine
 10
-20.99554673912964
 20
19.9645540975003
 30
0.0
 11
-20.95631633912964
 21
19.96399649750026
 31
0.0
  0
ARC
  5
67
330
2
100
AcDbEntity
  8
GAIKEI
 62
     1
370
    40
100
AcDbCircle
 10
-21.05554673912964
 20
14.36487569750028
 30
0.0
 40
5.6
100
AcDbArc
 50
89.38610500000063
 51
90.61389300000062
  0
LINE
  5
68
330
2
100
AcDbEntity
  8
GAIKEI
 62
     1
 48
0.004904
370
    40
100
AcDbLine
 10
-21.11554673912964
 20
19.9645540975003
 30
0.0
 11
-21.15477713912964
 21
19.96399649750026
 31
0.0
  0
LINE
  5
69
330
2
100
AcDbEntity
  8
GAIKEI
 62
     1
 48
0.005001
370
    40
100
AcDbLine
 10
-21.15554673912964
 20
19.96398269750028
 30
0.0
 11
-21.19554673912964
 21
19.9631254975003
 31
0.0
  0
ARC
  5
6A
330
2
100
AcDbEntity
  8
GAIKEI
 62
     1
370
    40
100
AcDbCircle
 10
-21.05554673912964
 20
14.36487569750028
 30
0.0
 40
5.6
100
AcDbArc
 50
91.43254600000025
 51
152.9651869999986
  0
LINE
  5
6B
330
2
100
AcDbEntity
  8
GAIKEI
 62
     1
 48
0.002772
370
    40
100
AcDbLine
 10
-15.12936413912963
 20
12.56487549750028
 30
0.0
 11
-15.12936413912963
 21
12.54269669750027
 31
0.0
  0
ARC
  5
6C
330
2
100
AcDbEntity
  8
GAIKEI
 62
     1
370
    40
100
AcDbCircle
 10
-21.05554673912964
 20
14.36487569750028
 30
0.0
 40
5.3
100
AcDbArc
 50
118.6478839999999
 51
261.8507929999996
  0
ARC
  5
6D
330
2
100
AcDbEntity
  8
GAIKEI
 62
     1
370
    40
100
AcDbCircle
 10
-21.05554673912964
 20
14.36487549750029
 30
0.0
 40
5.3
100
AcDbArc
 50
98.14921700000049
 51
118.6478839999999
  0
ARC
  5
6E
330
2
100
AcDbEntity
  8
GAIKEI
 62
     1
370
    40
100
AcDbCircle
 10
-21.53433973912964
 20
11.01711189750028
 30
0.0
 40
1.918167399999999
100
AcDbArc
 50
261.8330860000007
 51
269.9884069999992
  0
LINE
  5
6F
330
2
100
AcDbEntity
  8
GAIKEI
 62
     1
370
    13
100
AcDbLine
 10
-23.13913453912963
 20
10.58410709750029
 30
0.0
 11
-23.13874783594235
 21
18.1781497270739
 31
0.0
  0
LINE
  5
70
330
2
100
AcDbEntity
  8
GAIKEI
 62
     1
 48
0.047398
370
    40
100
AcDbLine
 10
-21.53472793912964
 20
9.098947497500262
 30
0.0
 11
-21.15554673912964
 21
9.098947497500262
 31
0.0
  0
ARC
  5
71
330
2
100
AcDbEntity
  8
GAIKEI
 62
     1
370
    40
100
AcDbCircle
 10
-21.05554673912964
 20
8.964875697500303
 30
0.0
 40
0.1
100
AcDbArc
 50
180.0000050000005
 51
270.0000009999998
  0
SPLINE
  5
72
330
2
100
AcDbEntity
  8
GAIKEI
 62
     1
370
    40
100
AcDbSpline
210
0.0
220
0.0
230
1.0
 70
     8
 71
     5
 72
    15
 73
     9
 74
     0
 42
0.0000000001
 43
0.0000000001
 40
0.0
 40
0.0
 40
0.0
 40
0.0
 40
0.0
 40
0.0
 40
0.9089640881803839
 40
0.9089640881803839
 40
0.9089640881803839
 40
1.242624807131569
 40
1.242624807131569
 40
1.242624807131569
 40
1.242624807131569
 40
1.242624807131569
 40
1.242624807131569
 10
-21.05554673912921
 20
9.131865091739939
 30
0.0
 10
-21.07644879536312
 20
9.131865091739996
 30
0.0
 10
-21.09735063685312
 20
9.131092823497965
 30
0.0
 10
-21.11775384273906
 20
9.129509997252057
 30
0.0
 10
-21.14067068544733
 20
9.126152322661425
 30
0.0
 10
-21.1522981829704
 20
9.121645131286072
 30
0.0
 10
-21.15446569622455
 20
9.12036658362058
 30
0.0
 10
-21.15554673912971
 20
9.11905467094175
 30
0.0
 10
-21.15554673912968
 20
9.117743147239877
 30
0.0
  0
LINE
  5
73
330
2
100
AcDbEntity
  8
GAIKEI
 62
     1
 48
0.019108
370
    40
100
AcDbLine
 10
-21.15554673912964
 20
9.117743297500283
 30
0.0
 11
-21.15554673912964
 21
8.964875697500303
 31
0.0
  0
SPLINE
  5
74
330
2
100
AcDbEntity
  8
GAIKEI
 62
     1
370
    13
100
AcDbSpline
210
0.0
220
0.0
230
1.0
 70
     8
 71
     5
 72
    18
 73
    12
 74
     0
 42
0.0000000001
 43
0.0000000001
 40
0.0
 40
0.0
 40
0.0
 40
0.0
 40
0.0
 40
0.0
 40
12.18240722208649
 40
12.18240722208649
 40
12.18240722208649
 40
23.8305798384753
 40
23.8305798384753
 40
23.8305798384753
 40
29.33502353269351
 40
29.33502353269351
 40
29.33502353269351
 40
29.33502353269351
 40
29.33502353269351
 40
29.33502353269351
 10
-23.13912740212519
 20
10.58410481961243
 30
0.0
 10
-23.13912634249033
 20
10.38514681741571
 30
0.0
 10
-23.10323055910277
 20
10.19301878040414
 30
0.0
 10
-23.02689903371161
 20
10.01132595960689
 30
0.0
 10
-22.79235581598856
 20
9.686268698825188
 30
0.0
 10
-22.40750651446498
 20
9.438233620993628
 30
0.0
 10
-22.18726332730817
 20
9.339433029072267
 30
0.0
 10
-21.82810613948163
 20
9.230057424109304
 30
0.0
 10
-21.43890430722831
 20
9.175847563329512
 30
0.0
 10
-21.31158981039675
 20
9.164198145790749
 30
0.0
 10
-21.18356909201917
 20
9.158391247164388
 30
0.0
 10
-21.05554673912967
 20
9.158391250939189
 30
0.0
  0
LINE
  5
75
330
2
100
AcDbEntity
  8
GAIKEI
 62
     1
 48
0.019108
370
    40
100
AcDbLine
 10
-21.15554673912964
 20
19.61200809750028
 30
0.0
 11
-21.15554673912964
 21
19.76487569750026
 31
0.0
  0
ARC
  5
76
330
2
100
AcDbEntity
  8
GAIKEI
 62
     1
370
    40
100
AcDbCircle
 10
-21.05554673912964
 20
19.76487569750026
 30
0.0
 40
0.1
100
AcDbArc
 50
90.00000299999932
 51
180.0000050000005
  0
LINE
  5
77
330
2
100
AcDbEntity
  8
GAIKEI
 62
     1
 48
0.0125
370
    40
100
AcDbLine
 10
-21.05554673912964
 20
19.86487569750028
 30
0.0
 11
-21.05554673912964
 21
19.96487529750027
 31
0.0
  0
SPLINE
  5
78
330
2
100
AcDbEntity
  8
GAIKEI
 62
     1
370
    13
100
AcDbSpline
210
0.0
220
0.0
230
1.0
 70
     8
 71
     5
 72
    18
 73
    12
 74
     0
 42
0.0000000001
 43
0.0000000001
 40
0.0
 40
0.0
 40
0.0
 40
0.0
 40
0.0
 40
0.0
 40
6.203785437038565
 40
6.203785437038565
 40
6.203785437038565
 40
18.93525831308087
 40
18.93525831308087
 40
18.93525831308087
 40
28.93888693972249
 40
28.93888693972249
 40
28.93888693972249
 40
28.93888693972249
 40
28.93888693972249
 40
28.93888693972249
 10
-21.05554673912967
 20
19.57136013478777
 30
0.0
 10
-21.19983874308933
 20
19.5713601415282
 30
0.0
 10
-21.34412278475384
 20
19.56398359146152
 30
0.0
 10
-21.48693669708675
 20
19.54923070531714
 30
0.0
 10
-21.91368454739933
 20
19.48186970552024
 30
0.0
 10
-22.29941830980338
 20
19.3476883555503
 30
0.0
 10
-22.52737914349291
 20
19.22862473093801
 30
0.0
 10
-22.86008175656649
 20
18.97058207652651
 30
0.0
 10
-23.05114457389946
 20
18.64939573393184
 30
0.0
 10
-23.10647820264049
 20
18.49849764198689
 30
0.0
 10
-23.13486238541546
 20
18.34074608794452
 30
0.0
 10
-23.13874783594238
 20
18.1781497270739
 30
0.0
  0
LINE
  5
79
330
2
100
AcDbEntity
  8
GAIKEI
 62
     1
 48
0.003316
370
    40
100
AcDbLine
 10
-21.05554673912964
 20
19.57135949750028
 30
0.0
 11
-21.05554673912964
 21
19.59788549750027
 31
0.0
  0
SPLINE
  5
7A
330
2
100
AcDbEntity
  8
GAIKEI
 62
     1
370
    40
100
AcDbSpline
210
0.0
220
0.0
230
1.0
 70
     8
 71
     5
 72
    15
 73
     9
 74
     0
 42
0.0000000001
 43
0.0000000001
 40
0.0
 40
0.0
 40
0.0
 40
0.0
 40
0.0
 40
0.0
 40
0.9089640885502445
 40
0.9089640885502445
 40
0.9089640885502445
 40
1.242624807514707
 40
1.242624807514707
 40
1.242624807514707
 40
1.242624807514707
 40
1.242624807514707
 40
1.242624807514707
 10
-21.05554673912948
 20
19.59788630326056
 30
0.0
 10
-21.07644879537193
 20
19.59788630326056
 30
0.0
 10
-21.09735063687049
 20
19.59865857150328
 30
0.0
 10
-21.11775384271765
 20
19.60024139774589
 30
0.0
 10
-21.14067068543841
 20
19.60359907233612
 30
0.0
 10
-21.15229818297053
 20
19.6081062637142
 30
0.0
 10
-21.15446569622438
 20
19.60938481137975
 30
0.0
 10
-21.15554673912968
 20
19.61069672405864
 30
0.0
 10
-21.15554673912968
 20
19.6120082477604
 30
0.0
  0
LINE
  5
7B
330
2
100
AcDbEntity
  8
GAIKEI
 62
     1
 48
0.047398
370
    40
100
AcDbLine
 10
-21.53472793912964
 20
19.6308038975003
 30
0.0
 11
-21.15554673912964
 21
19.6308038975003
 31
0.0
  0
ARC
  5
7C
330
2
100
AcDbEntity
  8
GAIKEI
 62
     1
370
    40
100
AcDbCircle
 10
-21.53433973912964
 20
17.71263949750028
 30
0.0
 40
1.918167399999999
100
AcDbArc
 50
90.01159300000074
 51
98.16691399999932
  0
LINE
  5
7D
330
2
100
AcDbEntity
  8
GAIKEI
 62
     1
 48
0.0125
370
    40
100
AcDbLine
 10
-21.05554673912964
 20
8.764875297500282
 30
0.0
 11
-21.05554673912964
 21
8.864875697500281
 31
0.0
  0
LINE
  5
7E
330
2
100
AcDbEntity
  8
GAIKEI
 62
     1
 48
0.003316
370
    40
100
AcDbLine
 10
-21.05554673912964
 20
9.15839189750028
 30
0.0
 11
-21.05554673912964
 21
9.13186589750029
 31
0.0
  0
LINE
  5
7F
330
2
100
AcDbEntity
  8
GAIKEI
 62
     1
 48
0.007368
370
    40
100
AcDbLine
 10
-21.05554673912964
 20
9.15839189750028
 30
0.0
 11
-21.05554673912964
 21
9.217332297500263
 31
0.0
  0
ARC
  5
80
330
2
100
AcDbEntity
  8
GAIKEI
 62
     1
370
    40
100
AcDbCircle
 10
-21.05554673912964
 20
14.36487569750028
 30
0.0
 40
5.3
100
AcDbArc
 50
278.1492189999994
 51
81.85078100000055
  0
ARC
  5
81
330
2
100
AcDbEntity
  8
GAIKEI
 62
     1
370
    40
100
AcDbCircle
 10
-20.57675373912963
 20
11.01711189750028
 30
0.0
 40
1.918167399999999
100
AcDbArc
 50
270.0115950000003
 51
278.1669159999997
  0
ARC
  5
82
330
2
100
AcDbEntity
  8
GAIKEI
 62
     1
370
    40
100
AcDbCircle
 10
-20.57675373912963
 20
17.71263949750028
 30
0.0
 40
1.918167399999999
100
AcDbArc
 50
81.83308400000028
 51
89.98840499999966
  0
LINE
  5
83
330
2
100
AcDbEntity
  8
GAIKEI
 62
     1
 48
0.047398
370
    40
100
AcDbLine
 10
-20.95554653912964
 20
9.098947497500262
 30
0.0
 11
-20.57636553912964
 21
9.098947497500262
 31
0.0
  0
ARC
  5
84
330
2
100
AcDbEntity
  8
GAIKEI
 62
     1
370
    40
100
AcDbCircle
 10
-21.05554673912964
 20
8.964875697500303
 30
0.0
 40
0.1
100
AcDbArc
 50
270.0000009999998
 51
0.0000100000010064
  0
SPLINE
  5
85
330
2
100
AcDbEntity
  8
GAIKEI
 62
     1
370
    40
100
AcDbSpline
210
0.0
220
0.0
230
1.0
 70
     8
 71
     5
 72
    15
 73
     9
 74
     0
 42
0.0000000001
 43
0.0000000001
 40
0.0
 40
0.0
 40
0.0
 40
0.0
 40
0.0
 40
0.0
 40
0.9089640882249904
 40
0.9089640882249904
 40
0.9089640882249904
 40
1.242624807181671
 40
1.242624807181671
 40
1.242624807181671
 40
1.242624807181671
 40
1.242624807181671
 40
1.242624807181671
 10
-21.0555467391298
 20
9.131865091739939
 30
0.0
 10
-21.03464468289485
 20
9.131865091739939
 30
0.0
 10
-21.01374284140385
 20
9.131092823497851
 30
0.0
 10
-20.99333963552304
 20
9.129509997252341
 30
0.0
 10
-20.97042279281319
 20
9.126152322661823
 30
0.0
 10
-20.95879529528921
 20
9.121645131286186
 30
0.0
 10
-20.95662778203487
 20
9.120366583620693
 30
0.0
 10
-20.95554673912966
 20
9.11905467094175
 30
0.0
 10
-20.95554673912966
 20
9.117743147240048
 30
0.0
  0
LINE
  5
86
330
2
100
AcDbEntity
  8
GAIKEI
 62
     1
 48
0.019108
370
    40
100
AcDbLine
 10
-20.95554673912963
 20
9.117743297500283
 30
0.0
 11
-20.95554673912963
 21
8.964875697500303
 31
0.0
  0
SPLINE
  5
87
330
2
100
AcDbEntity
  8
GAIKEI
 62
     1
370
    13
100
AcDbSpline
210
0.0
220
0.0
230
1.0
 70
     8
 71
     5
 72
    18
 73
    12
 74
     0
 42
0.0000000001
 43
0.0000000001
 40
0.0
 40
0.0
 40
0.0
 40
0.0
 40
0.0
 40
0.0
 40
12.18311324750409
 40
12.18311324750409
 40
12.18311324750409
 40
23.8308667994266
 40
23.8308667994266
 40
23.8308667994266
 40
29.33594513063976
 40
29.33594513063976
 40
29.33594513063976
 40
29.33594513063976
 40
29.33594513063976
 40
29.33594513063976
 10
-18.97196165192028
 20
10.58410628710408
 30
0.0
 10
-18.97195810903541
 20
10.38515931416879
 30
0.0
 10
-19.00785342900772
 20
10.19305507698101
 30
0.0
 10
-19.08419086798368
 20
10.01134989462042
 30
0.0
 10
-19.3186786741453
 20
9.686316235389142
 30
0.0
 10
-19.70359663278523
 20
9.438218455677656
 30
0.0
 10
-19.92377836611627
 20
9.339444877964695
 30
0.0
 10
-20.2830074393357
 20
9.230054665054922
 30
0.0
 10
-20.67216847370921
 20
9.175850041737135
 30
0.0
 10
-20.79946093421023
 20
9.164199898685524
 30
0.0
 10
-20.9275049533928
 20
9.15839126206265
 30
0.0
 10
-21.05554673912967
 20
9.158391260919529
 30
0.0
  0
LINE
  5
88
330
2
100
AcDbEntity
  8
GAIKEI
 62
     1
370
    13
100
AcDbLine
 10
-18.97195893912963
 20
10.58410669750026
 30
0.0
 11
-18.97195893912963
 21
18.14564429750027
 31
0.0
  0
SPLINE
  5
89
330
2
100
AcDbEntity
  8
GAIKEI
 62
     1
370
    13
100
AcDbSpline
210
0.0
220
0.0
230
1.0
 70
     8
 71
     5
 72
    18
 73
    12
 74
     0
 42
0.0000000001
 43
0.0000000001
 40
0.0
 40
0.0
 40
0.0
 40
0.0
 40
0.0
 40
0.0
 40
9.384816584735823
 40
9.384816584735823
 40
9.384816584735823
 40
21.98289686161571
 40
21.98289686161571
 40
21.98289686161571
 40
29.33765705264348
 40
29.33765705264348
 40
29.33765705264348
 40
29.33765705264348
 40
29.33765705264348
 40
29.33765705264348
 10
-21.05554673912967
 20
19.57136013487058
 30
0.0
 10
-20.83726822385484
 20
19.57136012625307
 30
0.0
 10
-20.61897447615312
 20
19.55447935086352
 30
0.0
 10
-20.40551262307915
 20
19.52066590055511
 30
0.0
 10
-19.93057889008342
 20
19.40265784331694
 30
0.0
 10
-19.53767831503674
 20
19.19862594249889
 30
0.0
 10
-19.35121091885637
 20
19.05603907927627
 30
0.0
 10
-19.12635798456391
 20
18.79642918858315
 30
0.0
 10
-19.0121993381517
 20
18.49771005027725
 30
0.0
 10
-18.98504125759265
 20
18.38334753044739
 30
0.0
 10
-18.97195895287015
 20
18.26574086710786
 30
0.0
 10
-18.97195895287015
 20
18.14564421258456
 30
0.0
  0
SPLINE
  5
8A
330
2
100
AcDbEntity
  8
GAIKEI
 62
     1
370
    40
100
AcDbSpline
210
0.0
220
0.0
230
1.0
 70
     8
 71
     5
 72
    15
 73
     9
 74
     0
 42
0.0000000001
 43
0.0000000001
 40
0.0
 40
0.0
 40
0.0
 40
0.0
 40
0.0
 40
0.0
 40
0.9089640886352871
 40
0.9089640886352871
 40
0.9089640886352871
 40
1.242624807600628
 40
1.242624807600628
 40
1.242624807600628
 40
1.242624807600628
 40
1.242624807600628
 40
1.242624807600628
 10
-21.05554673913012
 20
19.59788630326056
 30
0.0
 10
-21.03464468288576
 20
19.59788630326056
 30
0.0
 10
-21.01374284138524
 20
19.59865857150345
 30
0.0
 10
-20.99333963554181
 20
19.60024139774566
 30
0.0
 10
-20.9704227928195
 20
19.60359907233652
 30
0.0
 10
-20.9587952952889
 20
19.60810626371437
 30
0.0
 10
-20.95662778203483
 20
19.60938481137981
 30
0.0
 10
-20.95554673912957
 20
19.61069672405864
 30
0.0
 10
-20.95554673912966
 20
19.61200824776051
 30
0.0
  0
LINE
  5
8B
330
2
100
AcDbEntity
  8
GAIKEI
 62
     1
 48
0.019108
370
    40
100
AcDbLine
 10
-20.95554673912963
 20
19.61200809750028
 30
0.0
 11
-20.95554673912963
 21
19.76487569750026
 31
0.0
  0
ARC
  5
8C
330
2
100
AcDbEntity
  8
GAIKEI
 62
     1
370
    40
100
AcDbCircle
 10
-21.05554673912964
 20
19.76487569750026
 30
0.0
 40
0.1
100
AcDbArc
 50
0.0
 51
90.00000299999932
  0
LINE
  5
8D
330
2
100
AcDbEntity
  8
GAIKEI
 62
     1
 48
0.047398
370
    40
100
AcDbLine
 10
-20.95554653912964
 20
19.6308038975003
 30
0.0
 11
-20.57636553912964
 21
19.6308038975003
 31
0.0
  0
LINE
  5
8E
330
2
100
AcDbEntity
  8
GAIKEI
 62
     1
 48
0.003316
370
    40
100
AcDbLine
 10
-21.05554673912964
 20
9.15839189750028
 30
0.0
 11
-21.05554673912964
 21
9.13186589750029
 31
0.0
  0
LINE
  5
8F
330
2
100
AcDbEntity
  8
GAIKEI
 62
     1
 48
0.0125
370
    40
100
AcDbLine
 10
-21.05554673912964
 20
8.764875297500282
 30
0.0
 11
-21.05554673912964
 21
8.864875697500281
 31
0.0
  0
LINE
  5
90
330
2
100
AcDbEntity
  8
GAIKEI
 62
     1
 48
0.007368
370
    40
100
AcDbLine
 10
-21.05554673912964
 20
9.217332697500296
 30
0.0
 11
-21.05554673912964
 21
9.15839189750028
 31
0.0
  0
LINE
  5
91
330
2
100
AcDbEntity
  8
GAIKEI
 62
     1
 48
0.0125
370
    40
100
AcDbLine
 10
-21.05554673912964
 20
19.86487569750028
 30
0.0
 11
-21.05554673912964
 21
19.96487529750027
 31
0.0
  0
LINE
  5
92
330
2
100
AcDbEntity
  8
GAIKEI
 62
     1
 48
0.003316
370
    40
100
AcDbLine
 10
-21.05554673912964
 20
19.57135949750028
 30
0.0
 11
-21.05554673912964
 21
19.59788549750027
 31
0.0
  0
ELLIPSE
  5
93
330
2
100
AcDbEntity
  8
GAIKEI
 62
     1
370
    13
100
AcDbEllipse
 10
-21.05554673912967
 20
10.23068409750021
 30
0.0
 11
1.056612110137939
 21
0.0
 31
0.0
210
0.0
220
0.0
230
1.0
 40
0.4694720000000001
 41
4.21239185333252
 42
10.49557399749756
  0
ELLIPSE
  5
94
330
2
100
AcDbEntity
  8
GAIKEI
 62
     1
370
    13
100
AcDbEllipse
 10
-21.05554673912967
 20
18.49906729750017
 30
0.0
 11
1.056612110137939
 21
0.0
 31
0.0
210
0.0
220
0.0
230
1.0
 40
0.4694720000000001
 41
2.070796251296996
 42
8.353979110717773
  0
CIRCLE
  5
95
330
2
100
AcDbEntity
  8
GAIKEI
 62
     1
370
    40
100
AcDbCircle
 10
-21.05554673912964
 20
14.36487569750028
 30
0.0
 40
1.7380332
  0
CIRCLE
  5
96
330
2
100
AcDbEntity
  8
GAIKEI
 62
     1
370
    40
100
AcDbCircle
 10
-21.05554673912964
 20
14.36487569750028
 30
0.0
 40
1.3
  0
CIRCLE
  5
97
330
2
100
AcDbEntity
  8
GAIKEI
 62
     1
370
    40
100
AcDbCircle
 10
-21.05554673912964
 20
14.36487569750028
 30
0.0
 40
0.8199999999999999
  0
CIRCLE
  5
98
330
2
100
AcDbEntity
  8
GAIKEI
 62
     1
370
    40
100
AcDbCircle
 10
-21.05554673912964
 20
14.36487569750028
 30
0.0
 40
1.0
  0
SPLINE
  5
99
330
2
100
AcDbEntity
  8
GAIKEI
 62
     7
370
    40
100
AcDbSpline
210
0.0
220
0.0
230
1.0
 70
     8
 71
     5
 72
    18
 73
    12
 74
     0
 42
0.0000000001
 43
0.0000000001
 40
0.0
 40
0.0
 40
0.0
 40
0.0
 40
0.0
 40
0.0
 40
0.952318772422036
 40
0.952318772422036
 40
0.952318772422036
 40
2.769555880691061
 40
2.769555880691061
 40
2.769555880691061
 40
2.9552374831965
 40
2.9552374831965
 40
2.9552374831965
 40
2.9552374831965
 40
2.9552374831965
 40
2.9552374831965
 10
-9.984214738133104
 20
13.72684415023997
 30
0.0
 10
-9.982777413049021
 20
13.7273130903506
 30
0.0
 10
-9.98109303713214
 20
13.73229082882682
 30
0.0
 10
-9.979291667543535
 20
13.74171386142336
 30
0.0
 10
-9.974398145474893
 20
13.77437312962195
 30
0.0
 10
-9.970256912757946
 20
13.81943275435316
 30
0.0
 10
-9.968178846663576
 20
13.84751139799766
 30
0.0
 10
-9.96612091475005
 20
13.88217243446672
 30
0.0
 10
-9.96459191457572
 20
13.91709466897509
 30
0.0
 10
-9.964454734523783
 20
13.92033370782803
 30
0.0
 10
-9.964322145795776
 20
13.92357360739413
 30
0.0
 10
-9.964194176121566
 20
13.92681368927117
 30
0.0
  0
LINE
  5
9A
330
2
100
AcDbEntity
  8
GAIKEI
 62
     7
 48
0.00484
370
    40
100
AcDbLine
 10
-10.02102453912964
 20
13.71483769750028
 30
0.0
 11
-9.984214939129643
 21
13.7268440975003
 31
0.0
  0
SPLINE
  5
9B
330
2
100
AcDbEntity
  8
GAIKEI
 62
     7
370
    40
100
AcDbSpline
210
0.0
220
0.0
230
1.0
 70
     8
 71
     5
 72
    18
 73
    12
 74
     0
 42
0.0000000001
 43
0.0000000001
 40
0.0
 40
0.0
 40
0.0
 40
0.0
 40
0.0
 40
0.0
 40
1.836461073086991
 40
1.836461073086991
 40
1.836461073086991
 40
2.895070113664972
 40
2.895070113664972
 40
2.895070113664972
 40
2.950773566801857
 40
2.950773566801857
 40
2.950773566801857
 40
2.950773566801857
 40
2.950773566801857
 40
2.950773566801857
 10
-10.03941652445938
 20
13.00293770572932
 30
0.0
 10
-10.03548155232798
 20
13.03476600162287
 30
0.0
 10
-10.03199086020646
 20
13.06664923601863
 30
0.0
 10
-10.02924977632958
 20
13.09540529043806
 30
0.0
 10
-10.0254535614679
 20
13.14364592951278
 30
0.0
 10
-10.02432382670041
 20
13.18130979853487
 30
0.0
 10
-10.02434624260151
 20
13.19370913619411
 30
0.0
 10
-10.02515490517454
 20
13.20130458542826
 30
0.0
 10
-10.02665347498374
 20
13.2027786042953
 30
0.0
 10
-10.02673010388922
 20
13.20283692274086
 30
0.0
 10
-10.02680840083187
 20
13.20287980542298
 30
0.0
 10
-10.02688835080208
 20
13.20290724476052
 30
0.0
  0
LINE
  5
9C
330
2
100
AcDbEntity
  8
GAIKEI
 62
     7
 48
0.004624
370
    40
100
AcDbLine
 10
-10.02688853912963
 20
13.2029072975003
 30
0.0
 11
-10.06187453912963
 21
13.21491369750026
 31
0.0
  0
SPLINE
  5
9D
330
2
100
AcDbEntity
  8
GAIKEI
 62
     7
370
    40
100
AcDbSpline
210
0.0
220
0.0
230
1.0
 70
     8
 71
     5
 72
    24
 73
    18
 74
     0
 42
0.0000000001
 43
0.0000000001
 40
0.0
 40
0.0
 40
0.0
 40
0.0
 40
0.0
 40
0.0
 40
0.9983907330150442
 40
0.9983907330150442
 40
0.9983907330150442
 40
3.26081077171769
 40
3.26081077171769
 40
3.26081077171769
 40
5.610772698174343
 40
5.610772698174343
 40
5.610772698174343
 40
7.259977017849387
 40
7.259977017849387
 40
7.259977017849387
 40
7.424076899045846
 40
7.424076899045846
 40
7.424076899045846
 40
7.424076899045846
 40
7.424076899045846
 40
7.424076899045846
 10
-10.06187487633752
 20
13.21491377371114
 30
0.0
 10
-10.06330809782103
 20
13.21540557672671
 30
0.0
 10
-10.06431948762039
 20
13.21986623312733
 30
0.0
 10
-10.06480996060696
 20
13.22826747788548
 30
0.0
 10
-10.06518196510362
 20
13.2627448920349
 30
0.0
 10
-10.06247070237538
 20
13.31478785574472
 30
0.0
 10
-10.06031428995017
 20
13.34876977875456
 30
0.0
 10
-10.05472999363388
 20
13.42755814963254
 30
0.0
 10
-10.04800183236058
 20
13.5081681808316
 30
0.0
 10
-10.0449709907102
 20
13.5423327524818
 30
0.0
 10
-10.03852528517133
 20
13.6105200764303
 30
0.0
 10
-10.03145371761613
 20
13.66916518015222
 30
0.0
 10
-10.02817112161685
 20
13.69296066466177
 30
0.0
 10
-10.02470592507498
 20
13.7098605442078
 30
0.0
 10
-10.02178549661927
 20
13.71427412445047
 30
0.0
 10
-10.02152596228799
 20
13.71456890901015
 30
0.0
 10
-10.02127216265154
 20
13.71475681582359
 30
0.0
 10
-10.02102436829783
 20
13.71483762128935
 30
0.0
  0
ARC
  5
9E
330
2
100
AcDbEntity
  8
GAIKEI
 62
     7
370
    40
100
AcDbCircle
 10
-21.05554673912964
 20
14.36487569750028
 30
0.0
 40
11.1
100
AcDbArc
 50
357.7382339999987
 51
352.9521939999993
  0
LINE
  5
9F
330
2
100
AcDbEntity
  8
GAIKEI
 62
     1
 48
0.001002
370
    40
100
AcDbLine
 10
-11.22190113912964
 20
9.957588497500296
 30
0.0
 11
-11.21651173912963
 21
9.951651297500291
 31
0.0
  0
LINE
  5
A0
330
2
100
AcDbEntity
  8
GAIKEI
 62
     1
 48
0.000654
370
    40
100
AcDbLine
 10
-11.22190113912964
 20
9.957588497500296
 30
0.0
 11
-11.22542053912963
 21
9.961464897500263
 31
0.0
  0
LINE
  5
A1
330
2
100
AcDbEntity
  8
GAIKEI
 62
     1
 48
0.001002
370
    40
100
AcDbLine
 10
-29.78919233912964
 20
8.052332497500287
 30
0.0
 11
-29.79702853912966
 21
8.050633497500257
 31
0.0
  0
LINE
  5
A2
330
2
100
AcDbEntity
  8
GAIKEI
 62
     1
 48
0.000654
370
    40
100
AcDbLine
 10
-29.78919233912964
 20
8.052332497500287
 30
0.0
 11
-29.78407533912963
 21
8.053441897500306
 31
0.0
  0
LINE
  5
A3
330
2
100
AcDbEntity
  8
GAIKEI
 62
     1
 48
0.001002
370
    40
100
AcDbLine
 10
-22.15554673912963
 20
25.08470609750026
 30
0.0
 11
-22.15309973912963
 21
25.0923422975003
 31
0.0
  0
LINE
  5
A4
330
2
100
AcDbEntity
  8
GAIKEI
 62
     1
 48
0.000654
370
    40
100
AcDbLine
 10
-22.15554673912963
 20
25.08470609750026
 30
0.0
 11
-22.15714413912964
 21
25.07972029750027
 31
0.0
  0
LINE
  5
A5
330
2
100
AcDbEntity
  8
GAIKEI
 62
     1
 48
0.000137
370
    40
100
AcDbLine
 10
-21.10554673912964
 20
6.924006497500272
 30
0.0
 11
-21.10554673912964
 21
6.925101297500305
 31
0.0
  0
LINE
  5
A6
330
2
100
AcDbEntity
  8
GAIKEI
 62
     1
 48
0.000133
370
    40
100
AcDbLine
 10
-21.10554673912964
 20
6.405006297500278
 30
0.0
 11
-21.10554673912964
 21
6.40607289750028
 31
0.0
  0
LINE
  5
A7
330
2
100
AcDbEntity
  8
GAIKEI
 62
     1
 48
0.000654
370
    40
100
AcDbLine
 10
-30.88919233912964
 20
9.957588497500296
 30
0.0
 11
-30.88567293912965
 21
9.961464897500263
 31
0.0
  0
LINE
  5
A8
330
2
100
AcDbEntity
  8
GAIKEI
 62
     1
 48
0.001002
370
    40
100
AcDbLine
 10
-30.88919233912964
 20
9.957588497500296
 30
0.0
 11
-30.89458173912965
 21
9.951651297500291
 31
0.0
  0
SPLINE
  5
A9
330
2
100
AcDbEntity
  8
GAIKEI
 62
     1
370
    40
100
AcDbSpline
210
0.0
220
0.0
230
1.0
 70
     8
 71
     5
 72
    18
 73
    12
 74
     0
 42
0.0000000001
 43
0.0000000001
 40
0.0
 40
0.0
 40
0.0
 40
0.0
 40
0.0
 40
0.0
 40
0.3902357788453564
 40
0.3902357788453564
 40
0.3902357788453564
 40
0.6769470708897821
 40
0.6769470708897821
 40
0.6769470708897821
 40
0.7080042265762817
 40
0.7080042265762817
 40
0.7080042265762817
 40
0.7080042265762817
 40
0.7080042265762817
 40
0.7080042265762817
 10
-11.21651174164573
 20
9.951651199212506
 30
0.0
 10
-11.21610795520806
 20
9.951206367950021
 30
0.0
 10
-11.21642368404401
 20
9.949178835714064
 30
0.0
 10
-11.21744485216533
 20
9.945652726476851
 30
0.0
 10
-11.22012162661677
 20
9.937902045245209
 30
0.0
 10
-11.22403201387971
 20
9.928068959992856
 30
0.0
 10
-11.22628110412566
 20
9.922649203969399
 30
0.0
 10
-11.22855839469159
 20
9.917375720166091
 30
0.0
 10
-11.23092326538099
 20
9.912102626270439
 30
0.0
 10
-11.23115515395486
 20
9.91158745355824
 30
0.0
 10
-11.23138777843311
 20
9.911072532781702
 30
0.0
 10
-11.23162122425002
 20
9.910557671852814
 30
0.0
  0
SPLINE
  5
AA
330
2
100
AcDbEntity
  8
GAIKEI
 62
     1
370
    40
100
AcDbSpline
210
0.0
220
0.0
230
1.0
 70
     8
 71
     5
 72
    18
 73
    12
 74
     0
 42
0.0000000001
 43
0.0000000001
 40
0.0
 40
0.0
 40
0.0
 40
0.0
 40
0.0
 40
0.0
 40
0.3902357788575103
 40
0.3902357788575103
 40
0.3902357788575103
 40
0.6769470676275392
 40
0.6769470676275392
 40
0.6769470676275392
 40
0.7080042233140254
 40
0.7080042233140254
 40
0.7080042233140254
 40
0.7080042233140254
 40
0.7080042233140254
 40
0.7080042233140254
 10
-22.15309970975055
 20
25.09234220318939
 30
0.0
 10
-22.15291636779577
 20
25.09291430813334
 30
0.0
 10
-22.15100260895426
 20
25.09365464505879
 30
0.0
 10
-22.1474383247181
 20
25.09453334214266
 30
0.0
 10
-22.13938765068798
 20
25.09609052807582
 30
0.0
 10
-22.12891675549256
 20
25.09762057598635
 30
0.0
 10
-22.12309856375201
 20
25.09838268473823
 30
0.0
 10
-22.11739294758728
 20
25.09904723515047
 30
0.0
 10
-22.11164387903169
 20
25.09963574399842
 30
0.0
 10
-22.11108178208866
 20
25.09969250895864
 30
0.0
 10
-22.11051953537604
 20
25.09974851063925
 30
0.0
 10
-22.10995692982371
 20
25.09980377109594
 30
0.0
  0
ARC
  5
AB
330
2
100
AcDbEntity
  8
GAIKEI
 62
     1
370
    40
100
AcDbCircle
 10
-21.05554673912964
 20
14.36487569750028
 30
0.0
 40
10.7865868
100
AcDbArc
 50
204.390268999999
 51
215.609728
  0
CIRCLE
  5
AC
330
2
100
AcDbEntity
  8
GAIKEI
 62
     1
370
    40
100
AcDbCircle
 10
-21.05554673912964
 20
14.36487569750028
 30
0.0
 40
6.2
  0
LINE
  5
AD
330
2
100
AcDbEntity
  8
GAIKEI
 62
     1
 48
0.037037
370
    40
100
AcDbLine
 10
-16.49101853912964
 20
20.00343689750031
 30
0.0
 11
-16.30095273912964
 21
20.23074069750027
 31
0.0
  0
ARC
  5
AE
330
2
100
AcDbEntity
  8
GAIKEI
 62
     1
370
    40
100
AcDbCircle
 10
-16.62322433912963
 20
20.11377589750026
 30
0.0
 40
0.172182
100
AcDbArc
 50
139.8466340000003
 51
320.1515400000009
  0
LINE
  5
AF
330
2
100
AcDbEntity
  8
GAIKEI
 62
     1
 48
0.037037
370
    40
100
AcDbLine
 10
-16.56401533912964
 20
20.45148189750029
 30
0.0
 11
-16.75484753912964
 21
20.22482249750027
 31
0.0
  0
ARC
  5
B0
330
2
100
AcDbEntity
  8
GAIKEI
 62
     1
370
    40
100
AcDbCircle
 10
-16.43258833912964
 20
20.34099069750027
 30
0.0
 40
0.1716884
100
AcDbArc
 50
320.0524359999999
 51
139.9460970000008
  0
LINE
  5
B1
330
2
100
AcDbEntity
  8
GAIKEI
 62
     1
 48
0.037037
370
    40
100
AcDbLine
 10
-16.29526993912964
 20
19.83918409750026
 30
0.0
 11
-16.10442413912963
 21
20.06583349750031
 31
0.0
  0
ARC
  5
B2
330
2
100
AcDbEntity
  8
GAIKEI
 62
     1
370
    40
100
AcDbCircle
 10
-15.97299093912963
 20
19.9553420975003
 30
0.0
 40
0.1716884
100
AcDbArc
 50
320.0540940000008
 51
139.947379999999
  0
LINE
  5
B3
330
2
100
AcDbEntity
  8
GAIKEI
 62
     1
 48
0.037037
370
    40
100
AcDbLine
 10
-15.84135573912964
 20
19.8450986975003
 30
0.0
 11
-16.03143393912964
 21
19.61780689750026
 31
0.0
  0
ARC
  5
B4
330
2
100
AcDbEntity
  8
GAIKEI
 62
     1
370
    40
100
AcDbCircle
 10
-16.16364913912963
 20
19.72814769750027
 30
0.0
 40
0.1721824
100
AcDbArc
 50
139.8488080000001
 51
320.1530139999995
  0
SPLINE
  5
B5
330
2
100
AcDbEntity
  8
GAIKEI
 62
     1
370
    40
100
AcDbSpline
210
0.0
220
0.0
230
1.0
 70
     8
 71
     5
 72
    18
 73
    12
 74
     0
 42
0.0000000001
 43
0.0000000001
 40
0.0
 40
0.0
 40
0.0
 40
0.0
 40
0.0
 40
0.0
 40
0.3902297549916195
 40
0.3902297549916195
 40
0.3902297549916195
 40
0.6769371488779081
 40
0.6769371488779081
 40
0.6769371488779081
 40
0.7079937734812168
 40
0.7079937734812168
 40
0.7079937734812168
 40
0.7079937734812168
 40
0.7079937734812168
 40
0.7079937734812168
 10
-30.89458173695937
 20
9.951651198831427
 30
0.0
 10
-30.89498552789056
 20
9.9512063626197
 30
0.0
 10
-30.89466978741914
 20
9.949178790260589
 30
0.0
 10
-30.89364859069267
 20
9.945652611964931
 30
0.0
 10
-30.8909717876692
 20
9.937901874730243
 30
0.0
 10
-30.88706141460511
 20
9.928068838428032
 30
0.0
 10
-30.88481234948805
 20
9.922649149112089
 30
0.0
 10
-30.8825350993915
 20
9.91737575435502
 30
0.0
 10
-30.88017026242335
 20
9.912102735451128
 30
0.0
 10
-30.87993837781002
 20
9.911587571543179
 30
0.0
 10
-30.87970575725297
 20
9.911072659456749
 30
0.0
 10
-30.87947231539988
 20
9.910557807248665
 30
0.0
  0
SPLINE
  5
B6
330
2
100
AcDbEntity
  8
GAIKEI
 62
     1
370
    40
100
AcDbSpline
210
0.0
220
0.0
230
1.0
 70
     8
 71
     5
 72
    18
 73
    12
 74
     0
 42
0.0000000001
 43
0.0000000001
 40
0.0
 40
0.0
 40
0.0
 40
0.0
 40
0.0
 40
0.0
 40
0.3902357788163332
 40
0.3902357788163332
 40
0.3902357788163332
 40
0.6769470782133798
 40
0.6769470782133798
 40
0.6769470782133798
 40
0.7080042338998323
 40
0.7080042338998323
 40
0.7080042338998323
 40
0.7080042338998323
 40
0.7080042338998323
 40
0.7080042338998323
 10
-29.79702876599268
 20
8.050633690098948
 30
0.0
 10
-29.79761589438513
 20
8.050506416417363
 30
0.0
 10
-29.79921392439038
 20
8.05179361172793
 30
0.0
 10
-29.80175704050626
 20
8.054441023881736
 30
0.0
 10
-29.80713094018199
 20
8.06063451923984
 30
0.0
 10
-29.81369144826044
 20
8.06893755668716
 30
0.0
 10
-29.81726054923499
 20
8.073595203593527
 30
0.0
 10
-29.82068887497255
 20
8.078204137081968
 30
0.0
 10
-29.82407307297626
 20
8.082888722231928
 30
0.0
 10
-29.82440328134541
 20
8.083347129983735
 30
0.0
 10
-29.82473290357973
 20
8.083806049079782
 30
0.0
 10
-29.82506206331516
 20
8.084265649552094
 30
0.0
  0
ARC
  5
B7
330
2
100
AcDbEntity
  8
GAIKEI
 62
     1
370
    40
100
AcDbCircle
 10
-21.05554673912964
 20
14.36487569750028
 30
0.0
 40
10.7865868
100
AcDbArc
 50
84.39026599999985
 51
95.60973199999905
  0
ARC
  5
B8
330
2
100
AcDbEntity
  8
GAIKEI
 62
     1
370
    40
100
AcDbCircle
 10
-21.05554673912964
 20
14.36487569750028
 30
0.0
 40
10.7865868
100
AcDbArc
 50
324.390272
 51
335.6097329999994
  0
SPLINE
  5
B9
330
2
100
AcDbEntity
  8
GAIKEI
 62
     1
370
    40
100
AcDbSpline
210
0.0
220
0.0
230
1.0
 70
     8
 71
     5
 72
    18
 73
    12
 74
     0
 42
0.0000000001
 43
0.0000000001
 40
0.0
 40
0.0
 40
0.0
 40
0.0
 40
0.0
 40
0.0
 40
0.390229754997295
 40
0.390229754997295
 40
0.390229754997295
 40
0.676937151840771
 40
0.676937151840771
 40
0.676937151840771
 40
0.7079937764434958
 40
0.7079937764434958
 40
0.7079937764434958
 40
0.7079937764434958
 40
0.7079937764434958
 40
0.7079937764434958
 10
-19.95799376866571
 20
25.09234220367944
 30
0.0
 10
-19.95817711266005
 20
25.09291431498951
 30
0.0
 10
-19.96009091206699
 20
25.09365466189974
 30
0.0
 10
-19.96365527041186
 20
25.09453336874003
 30
0.0
 10
-19.97170600730214
 20
25.0960905579451
 30
0.0
 10
-19.9821768531244
 20
25.09762059369086
 30
0.0
 10
-19.98799497411311
 20
25.098382690797
 30
0.0
 10
-19.99370049303775
 20
25.09904723174805
 30
0.0
 10
-19.9994494799007
 20
25.09963573231528
 30
0.0
 10
-20.00001156723884
 20
25.0996924963033
 30
0.0
 10
-20.00057380446479
 20
25.09974849703468
 30
0.0
 10
-20.00113640048276
 20
25.09980375656358
 30
0.0
  0
LINE
  5
BA
330
2
100
AcDbEntity
  8
GAIKEI
 62
     1
 48
0.064742
370
    40
100
AcDbLine
 10
-21.10554673912964
 20
6.924006497500272
 30
0.0
 11
-21.10554673912964
 21
6.40607289750028
 31
0.0
  0
SPLINE
  5
BB
330
2
100
AcDbEntity
  8
GAIKEI
 62
     1
370
    40
100
AcDbSpline
210
0.0
220
0.0
230
1.0
 70
     8
 71
     5
 72
    18
 73
    12
 74
     0
 42
0.0000000001
 43
0.0000000001
 40
0.0
 40
0.0
 40
0.0
 40
0.0
 40
0.0
 40
0.0
 40
0.3902297549866924
 40
0.3902297549866924
 40
0.3902297549866924
 40
0.6769371501553621
 40
0.6769371501553621
 40
0.6769371501553621
 40
0.7079937747584437
 40
0.7079937747584437
 40
0.7079937747584437
 40
0.7079937747584437
 40
0.7079937747584437
 40
0.7079937747584437
 10
-12.31406471176389
 20
8.050633689989922
 30
0.0
 10
-12.31347757683839
 20
8.050506414891515
 30
0.0
 10
-12.31187951790322
 20
8.051793640340292
 30
0.0
 10
-12.30933635628432
 20
8.054441111795313
 30
0.0
 10
-12.30396242244261
 20
8.060634659843344
 30
0.0
 10
-12.29740194972629
 20
8.06893766042549
 30
0.0
 10
-12.29383289370918
 20
8.073595252540883
 30
0.0
 10
-12.29040462491967
 20
8.07820410637197
 30
0.0
 10
-12.28702047506473
 20
8.082888624732902
 30
0.0
 10
-12.28669027233992
 20
8.08334702465288
 30
0.0
 10
-12.28636065567099
 20
8.083805936007763
 30
0.0
 10
-12.28603150150617
 20
8.084265528686955
 30
0.0
  0
SPLINE
  5
BC
330
2
100
AcDbEntity
  8
GAIKEI
 62
     1
370
    40
100
AcDbSpline
210
0.0
220
0.0
230
1.0
 70
     8
 71
     5
 72
    15
 73
     9
 74
     0
 42
0.0000000001
 43
0.0000000001
 40
0.0
 40
0.0
 40
0.0
 40
0.0
 40
0.0
 40
0.0
 40
1.983578262794686
 40
1.983578262794686
 40
1.983578262794686
 40
3.305171244337071
 40
3.305171244337071
 40
3.305171244337071
 40
3.305171244337071
 40
3.305171244337071
 40
3.305171244337071
 10
-19.95394921622412
 20
25.07972016357252
 30
0.0
 10
-19.9529715007589
 20
25.07666863907991
 30
0.0
 10
-19.95200002624816
 20
25.06703842424741
 30
0.0
 10
-19.9510527296855
 20
25.0508903834351
 30
0.0
 10
-19.94954401197115
 20
25.01365036522418
 30
0.0
 10
-19.94819384288949
 20
24.96064714037073
 30
0.0
 10
-19.94768383945903
 20
24.93708767411806
 30
0.0
 10
-19.9472077872928
 20
24.91135782767634
 30
0.0
 10
-19.94676912772898
 20
24.88368192348764
 30
0.0
  0
LINE
  5
BD
330
2
100
AcDbEntity
  8
GAIKEI
 62
     1
 48
0.000654
370
    40
100
AcDbLine
 10
-19.95554673912963
 20
25.08470609750026
 30
0.0
 11
-19.95394933912963
 21
25.07972029750027
 31
0.0
  0
LINE
  5
BE
330
2
100
AcDbEntity
  8
GAIKEI
 62
     1
 48
0.001002
370
    40
100
AcDbLine
 10
-19.95554673912963
 20
25.08470609750026
 30
0.0
 11
-19.95799373912963
 21
25.0923422975003
 31
0.0
  0
SPLINE
  5
BF
330
2
100
AcDbEntity
  8
GAIKEI
 62
     1
370
    40
100
AcDbSpline
210
0.0
220
0.0
230
1.0
 70
     8
 71
     5
 72
    15
 73
     9
 74
     0
 42
0.0000000001
 43
0.0000000001
 40
0.0
 40
0.0
 40
0.0
 40
0.0
 40
0.0
 40
0.0
 40
1.983578262794425
 40
1.983578262794425
 40
1.983578262794425
 40
3.30517124433616
 40
3.30517124433616
 40
3.30517124433616
 40
3.30517124433616
 40
3.30517124433616
 40
3.30517124433616
 10
-30.88567300580013
 20
9.961464904046351
 30
0.0
 10
-30.88351916580189
 20
9.963837392723235
 30
0.0
 10
-30.87566489236835
 20
9.96949382174489
 30
0.0
 10
-30.86215392708465
 20
9.978388225039338
 30
0.0
 10
-30.83065748413375
 20
9.998314822012616
 30
0.0
 10
-30.78543042946888
 20
10.02598571516353
 30
0.0
 10
-30.76528233490956
 20
10.03820712421668
 30
0.0
 10
-30.74323766033851
 20
10.05148432070712
 30
0.0
 10
-30.71948895402034
 20
10.06570216312741
 30
0.0
  0
ARC
  5
C0
330
2
100
AcDbEntity
  8
GAIKEI
 62
     1
370
    13
100
AcDbCircle
 10
-21.05554673912964
 20
14.36487569750028
 30
0.0
 40
10.7713234
100
AcDbArc
 50
95.86997700000052
 51
204.1300249999998
  0
SPLINE
  5
C1
330
2
100
AcDbEntity
  8
GAIKEI
 62
     1
370
    40
100
AcDbSpline
210
0.0
220
0.0
230
1.0
 70
     8
 71
     5
 72
    15
 73
     9
 74
     0
 42
0.0000000001
 43
0.0000000001
 40
0.0
 40
0.0
 40
0.0
 40
0.0
 40
0.0
 40
0.0
 40
1.983578262826331
 40
1.983578262826331
 40
1.983578262826331
 40
3.305171244398335
 40
3.305171244398335
 40
3.305171244398335
 40
3.305171244398335
 40
3.305171244398335
 40
3.305171244398335
 10
-22.15714426203522
 20
25.07972016357252
 30
0.0
 10
-22.15812197750043
 20
25.07666863907991
 30
0.0
 10
-22.15909345201118
 20
25.06703842424713
 30
0.0
 10
-22.16004074857379
 20
25.05089038343567
 30
0.0
 10
-22.16154946628818
 20
25.01365036522429
 30
0.0
 10
-22.16289963536988
 20
24.96064714036959
 30
0.0
 10
-22.16340963880026
 20
24.93708767411897
 30
0.0
 10
-22.16388569096648
 20
24.91135782767651
 30
0.0
 10
-22.16432435053035
 20
24.88368192348719
 30
0.0
  0
SPLINE
  5
C2
330
2
100
AcDbEntity
  8
GAIKEI
 62
     1
370
    40
100
AcDbSpline
210
0.0
220
0.0
230
1.0
 70
     8
 71
     5
 72
    15
 73
     9
 74
     0
 42
0.0000000001
 43
0.0000000001
 40
0.0
 40
0.0
 40
0.0
 40
0.0
 40
0.0
 40
0.0
 40
1.983578262701172
 40
1.983578262701172
 40
1.983578262701172
 40
3.305171244241414
 40
3.305171244241414
 40
3.305171244241414
 40
3.305171244241414
 40
3.305171244241414
 40
3.305171244241414
 10
-11.22542047245916
 20
9.961464904046351
 30
0.0
 10
-11.22757431245728
 20
9.963837392723121
 30
0.0
 10
-11.23542858589027
 20
9.969493821744322
 30
0.0
 10
-11.24893955117633
 20
9.978388225040362
 30
0.0
 10
-11.28043599412669
 20
9.998314822013355
 30
0.0
 10
-11.3256630487902
 20
10.02598571516336
 30
0.0
 10
-11.34581114334948
 20
10.03820712421657
 30
0.0
 10
-11.36785581792057
 20
10.051484320707
 30
0.0
 10
-11.39160452423867
 20
10.06570216312718
 30
0.0
  0
ARC
  5
C3
330
2
100
AcDbEntity
  8
GAIKEI
 62
     1
370
    13
100
AcDbCircle
 10
-21.05554673912964
 20
14.36487569750028
 30
0.0
 40
10.7713234
100
AcDbArc
 50
335.8699900000008
 51
84.13001799999952
  0
ARC
  5
C4
330
2
100
AcDbEntity
  8
GAIKEI
 62
     1
370
    13
100
AcDbCircle
 10
-21.05554673912964
 20
14.36487569750028
 30
0.0
 40
10.7713234
100
AcDbArc
 50
215.8699729999999
 51
324.1300139999997
  0
SPLINE
  5
C5
330
2
100
AcDbEntity
  8
GAIKEI
 62
     1
370
    40
100
AcDbSpline
210
0.0
220
0.0
230
1.0
 70
     8
 71
     5
 72
    15
 73
     9
 74
     0
 42
0.0000000001
 43
0.0000000001
 40
0.0
 40
0.0
 40
0.0
 40
0.0
 40
0.0
 40
0.0
 40
1.983578262852321
 40
1.983578262852321
 40
1.983578262852321
 40
3.30517124440328
 40
3.30517124440328
 40
3.30517124440328
 40
3.30517124440328
 40
3.30517124440328
 40
3.30517124440328
 10
-29.78407548289462
 20
8.05344202488186
 30
0.0
 10
-29.78094392743106
 20
8.054121060697639
 30
0.0
 10
-29.77211817948637
 20
8.058094846508708
 30
0.0
 10
-29.75765991764183
 20
8.065348484025889
 30
0.0
 10
-29.72465475697618
 20
8.082661905263762
 30
0.0
 10
-29.6780775332287
 20
8.107994236966987
 30
0.0
 10
-29.65741943523949
 20
8.11933229416627
 30
0.0
 10
-29.63489870850214
 20
8.131784944117839
 30
0.0
 10
-29.61071134261994
 20
8.1452430058863
 30
0.0
  0
SPLINE
  5
C6
330
2
100
AcDbEntity
  8
GAIKEI
 62
     1
370
    40
100
AcDbSpline
210
0.0
220
0.0
230
1.0
 70
     8
 71
     5
 72
    15
 73
     9
 74
     0
 42
0.0000000001
 43
0.0000000001
 40
0.0
 40
0.0
 40
0.0
 40
0.0
 40
0.0
 40
0.0
 40
1.983578262866652
 40
1.983578262866652
 40
1.983578262866652
 40
3.30517124438094
 40
3.30517124438094
 40
3.30517124438094
 40
3.30517124438094
 40
3.30517124438094
 40
3.30517124438094
 10
-12.32701799536477
 20
8.05344202488186
 30
0.0
 10
-12.33014955082832
 20
8.054121060697639
 30
0.0
 10
-12.33897529877309
 20
8.058094846508708
 30
0.0
 10
-12.35343356061736
 20
8.065348484025889
 30
0.0
 10
-12.38643872128283
 20
8.082661905263648
 30
0.0
 10
-12.43301594502988
 20
8.107994236966533
 30
0.0
 10
-12.45367404302134
 20
8.119332294167179
 30
0.0
 10
-12.47619476975816
 20
8.131784944118408
 30
0.0
 10
-12.50038213563968
 20
8.145243005886527
 30
0.0
  0
LINE
  5
C7
330
2
100
AcDbEntity
  8
GAIKEI
 62
     1
 48
0.000654
370
    40
100
AcDbLine
 10
-12.32190113912963
 20
8.052332497500287
 30
0.0
 11
-12.32701813912963
 21
8.053441897500306
 31
0.0
  0
LINE
  5
C8
330
2
100
AcDbEntity
  8
GAIKEI
 62
     1
 48
0.001002
370
    40
100
AcDbLine
 10
-12.32190113912963
 20
8.052332497500287
 30
0.0
 11
-12.31406493912963
 21
8.050633497500257
 31
0.0
  0
LINE
  5
C9
330
2
100
AcDbEntity
  8
GAIKEI
 62
     1
 48
0.022146
370
    40
100
AcDbLine
 10
-19.94676913912963
 20
24.8836820975003
 30
0.0
 11
-19.94391313912963
 21
24.7065390975003
 31
0.0
  0
LINE
  5
CA
330
2
100
AcDbEntity
  8
GAIKEI
 62
     1
 48
0.000436
370
    40
100
AcDbLine
 10
-19.94391313912963
 20
24.7065390975003
 30
0.0
 11
-19.94385593912963
 21
24.70305309750029
 31
0.0
  0
ARC
  5
CB
330
2
100
AcDbEntity
  8
GAIKEI
 62
     1
370
    40
100
AcDbCircle
 10
201.5611768608704
 20
28.20161589750029
 30
0.0
 40
221.532544
100
AcDbArc
 50
180.9048860000009
 51
181.4288709999989
  0
ARC
  5
CC
330
2
100
AcDbEntity
  8
GAIKEI
 62
     1
370
    40
100
AcDbCircle
 10
-19.94181233912964
 20
22.6754240975003
 30
0.0
 40
0.0393252
100
AcDbArc
 50
263.1601639999995
 51
3.043975999999016
  0
LINE
  5
CD
330
2
100
AcDbEntity
  8
GAIKEI
 62
     1
 48
0.001143
370
    40
100
AcDbLine
 10
-19.95554673912963
 20
22.6376928975003
 30
0.0
 11
-19.94648333912962
 21
22.63648289750029
 31
0.0
  0
ARC
  5
CE
330
2
100
AcDbEntity
  8
GAIKEI
 62
     1
370
    40
100
AcDbCircle
 10
-21.05554673912964
 20
14.36487569750028
 30
0.0
 40
8.3456276
100
AcDbArc
 50
82.4260600000006
 51
97.57393699999935
  0
LINE
  5
CF
330
2
100
AcDbEntity
  8
GAIKEI
 62
     1
 48
0.001143
370
    40
100
AcDbLine
 10
-22.15554673912963
 20
22.6376928975003
 30
0.0
 11
-22.16461013912963
 21
22.63648289750029
 31
0.0
  0
ARC
  5
D0
330
2
100
AcDbEntity
  8
GAIKEI
 62
     1
370
    40
100
AcDbCircle
 10
-22.16928113912964
 20
22.6754240975003
 30
0.0
 40
0.0393252
100
AcDbArc
 50
176.956022
 51
276.8398339999999
  0
ARC
  5
D1
330
2
100
AcDbEntity
  8
GAIKEI
 62
     1
370
    40
100
AcDbCircle
 10
-243.6722703391296
 20
28.20161589750029
 30
0.0
 40
221.532544
100
AcDbArc
 50
358.5711339999996
 51
359.0951169999996
  0
LINE
  5
D2
330
2
100
AcDbEntity
  8
GAIKEI
 62
     1
 48
0.000436
370
    40
100
AcDbLine
 10
-22.16718033912963
 20
24.7065390975003
 30
0.0
 11
-22.16723753912964
 21
24.70305309750029
 31
0.0
  0
LINE
  5
D3
330
2
100
AcDbEntity
  8
GAIKEI
 62
     1
 48
0.022146
370
    40
100
AcDbLine
 10
-22.16432433912963
 20
24.8836820975003
 30
0.0
 11
-22.16718033912963
 21
24.7065390975003
 31
0.0
  0
ARC
  5
D4
330
2
100
AcDbEntity
  8
GAIKEI
 62
     1
370
    13
100
AcDbCircle
 10
-21.05554673912964
 20
14.36487569750028
 30
0.0
 40
10.577082
100
AcDbArc
 50
96.01727599999925
 51
203.982724999999
  0
LINE
  5
D5
330
2
100
AcDbEntity
  8
GAIKEI
 62
     1
 48
0.022146
370
    40
100
AcDbLine
 10
-30.71948873912965
 20
10.06570229750031
 30
0.0
 11
-30.56750653912962
 21
10.15674689750028
 31
0.0
  0
ARC
  5
D6
330
2
100
AcDbEntity
  8
GAIKEI
 62
     1
370
    40
100
AcDbCircle
 10
-144.5520433391296
 20
200.5785352975002
 30
0.0
 40
221.9299072
100
AcDbArc
 50
300.9052110000001
 51
301.4262220000001
  0
LINE
  5
D7
330
2
100
AcDbEntity
  8
GAIKEI
 62
     1
 48
0.000982
370
    40
100
AcDbLine
 10
-28.83778393912962
 20
11.20310709750026
 30
0.0
 11
-28.83108233912964
 21
11.20720969750027
 31
0.0
  0
ARC
  5
D8
330
2
100
AcDbEntity
  8
GAIKEI
 62
     1
370
    40
100
AcDbCircle
 10
-28.80955973912964
 20
11.17412389750029
 30
0.0
 40
0.0393252
100
AcDbArc
 50
23.16016300000006
 51
123.0439860000002
  0
LINE
  5
D9
330
2
100
AcDbEntity
  8
GAIKEI
 62
     1
 48
0.001143
370
    40
100
AcDbLine
 10
-14.44107673912964
 20
9.275839097500295
 30
0.0
 11
-14.44665693912964
 21
9.268595097500281
 31
0.0
  0
ARC
  5
DA
330
2
100
AcDbEntity
  8
GAIKEI
 62
     1
370
    40
100
AcDbCircle
 10
-21.05554673912964
 20
14.36487569750028
 30
0.0
 40
8.3456276
100
AcDbArc
 50
322.4260610000001
 51
337.636715000001
  0
ARC
  5
DB
330
2
100
AcDbEntity
  8
GAIKEI
 62
     1
370
    40
100
AcDbCircle
 10
-13.30153373912964
 20
11.17412389750029
 30
0.0
 40
0.0393252
100
AcDbArc
 50
56.9560179999998
 51
156.8398300000009
  0
LINE
  5
DC
330
2
100
AcDbEntity
  8
GAIKEI
 62
     1
 48
0.000982
370
    40
100
AcDbLine
 10
-13.27330953912964
 20
11.20310709750026
 30
0.0
 11
-13.28001113912964
 21
11.20720969750027
 31
0.0
  0
ARC
  5
DD
330
2
100
AcDbEntity
  8
GAIKEI
 62
     1
370
    40
100
AcDbCircle
 10
102.4409498608704
 20
200.5785352975002
 30
0.0
 40
221.9299072
100
AcDbArc
 50
238.5737699999996
 51
239.0947919999999
  0
LINE
  5
DE
330
2
100
AcDbEntity
  8
GAIKEI
 62
     1
 48
0.000436
370
    40
100
AcDbLine
 10
-11.54358693912964
 20
10.15674689750028
 30
0.0
 11
-11.54657693912963
 21
10.15853909750029
 31
0.0
  0
LINE
  5
DF
330
2
100
AcDbEntity
  8
GAIKEI
 62
     1
 48
0.022146
370
    40
100
AcDbLine
 10
-11.39160473912963
 20
10.06570229750031
 30
0.0
 11
-11.54358693912964
 21
10.15674689750028
 31
0.0
  0
ARC
  5
E0
330
2
100
AcDbEntity
  8
GAIKEI
 62
     1
370
    13
100
AcDbCircle
 10
-21.05554673912964
 20
14.36487569750028
 30
0.0
 40
10.577082
100
AcDbArc
 50
336.0172750000011
 51
83.98273200000074
  0
ARC
  5
E1
330
2
100
AcDbEntity
  8
GAIKEI
 62
     1
370
    40
100
AcDbCircle
 10
-21.05554673912964
 20
14.36487569750028
 30
0.0
 40
8.3456276
100
AcDbArc
 50
202.3632769999987
 51
217.5739439999988
  0
LINE
  5
E2
330
2
100
AcDbEntity
  8
GAIKEI
 62
     1
 48
0.001143
370
    40
100
AcDbLine
 10
-27.67001673912964
 20
9.275839097500295
 30
0.0
 11
-27.66443653912964
 21
9.268595097500281
 31
0.0
  0
ARC
  5
E3
330
2
100
AcDbEntity
  8
GAIKEI
 62
     1
370
    40
100
AcDbCircle
 10
-27.69582533912964
 20
9.245079297500296
 30
0.0
 40
0.0393252
100
AcDbArc
 50
296.9560219999996
 51
36.83983499999958
  0
ARC
  5
E4
330
2
100
AcDbEntity
  8
GAIKEI
 62
     1
370
    40
100
AcDbCircle
 10
78.26984386087037
 20
-185.3452317024997
 30
0.0
 40
221.532544
100
AcDbArc
 50
118.571127999999
 51
119.0951119999994
  0
LINE
  5
E5
330
2
100
AcDbEntity
  8
GAIKEI
 62
     1
 48
0.000436
370
    40
100
AcDbLine
 10
-29.45587333912965
 20
8.231341097500262
 30
0.0
 11
-29.45282613912963
 21
8.233034497500284
 31
0.0
  0
LINE
  5
E6
330
2
100
AcDbEntity
  8
GAIKEI
 62
     1
 48
0.022146
370
    40
100
AcDbLine
 10
-29.61071113912965
 20
8.145242897500281
 30
0.0
 11
-29.45587333912965
 21
8.231341097500262
 31
0.0
  0
ARC
  5
E7
330
2
100
AcDbEntity
  8
GAIKEI
 62
     1
370
    13
100
AcDbCircle
 10
-21.05554673912964
 20
14.36487569750028
 30
0.0
 40
10.577082
100
AcDbArc
 50
216.0172749999998
 51
323.9827299999999
  0
LINE
  5
E8
330
2
100
AcDbEntity
  8
GAIKEI
 62
     1
 48
0.022146
370
    40
100
AcDbLine
 10
-12.50038233912963
 20
8.145242897500281
 30
0.0
 11
-12.65522013912964
 21
8.231341097500262
 31
0.0
  0
ARC
  5
E9
330
2
100
AcDbEntity
  8
GAIKEI
 62
     1
370
    40
100
AcDbCircle
 10
-120.3809373391296
 20
-185.3452317024997
 30
0.0
 40
221.532544
100
AcDbArc
 50
60.90488599999927
 51
61.42886399999994
  0
ARC
  5
EA
330
2
100
AcDbEntity
  8
GAIKEI
 62
     1
370
    40
100
AcDbCircle
 10
-14.41526813912964
 20
9.245079297500296
 30
0.0
 40
0.0393252
100
AcDbArc
 50
143.1601629999999
 51
243.0439770000002
  0
LINE
  5
EB
330
2
100
AcDbEntity
  8
GAIKEI
 62
     1
 48
0.000133
370
    40
100
AcDbLine
 10
-21.00554673912964
 20
6.405006297500278
 30
0.0
 11
-21.00554673912964
 21
6.40607289750028
 31
0.0
  0
LINE
  5
EC
330
2
100
AcDbEntity
  8
GAIKEI
 62
     1
 48
0.000137
370
    40
100
AcDbLine
 10
-21.00554673912964
 20
6.924006497500272
 30
0.0
 11
-21.00554673912964
 21
6.925101297500305
 31
0.0
  0
LINE
  5
ED
330
2
100
AcDbEntity
  8
GAIKEI
 62
     1
 48
0.064742
370
    40
100
AcDbLine
 10
-21.00554673912964
 20
6.40607289750028
 30
0.0
 11
-21.00554673912964
 21
6.924006497500272
 31
0.0
  0
CIRCLE
  5
EE
330
2
100
AcDbEntity
  8
GAIKEI
 62
     1
370
    13
100
AcDbCircle
 10
-21.05554673912964
 20
14.36487569750028
 30
0.0
 40
8.225386
  0
ARC
  5
EF
330
2
100
AcDbEntity
  8
GAIKEI
 62
     1
370
    40
100
AcDbCircle
 10
-21.06547633912963
 20
6.404933097500304
 30
0.0
 40
0.0400604
100
AcDbArc
 50
179.8956529999994
 51
269.8273610000005
  0
ARC
  5
F0
330
2
100
AcDbEntity
  8
GAIKEI
 62
     1
370
    40
100
AcDbCircle
 10
-21.06567353912963
 20
6.92497549750027
 30
0.0
 40
0.0398902
100
AcDbArc
 50
89.74091999999929
 51
179.8193600000014
  0
ARC
  5
F1
330
2
100
AcDbEntity
  8
GAIKEI
 62
     1
370
    40
100
AcDbCircle
 10
-21.05554673912964
 20
14.36487569750028
 30
0.0
 40
7.4
100
AcDbArc
 50
269.9229829999998
 51
270.0770179999993
  0
ARC
  5
F2
330
2
100
AcDbEntity
  8
GAIKEI
 62
     1
370
    40
100
AcDbCircle
 10
-21.04541993912963
 20
6.92497549750027
 30
0.0
 40
0.0398902
100
AcDbArc
 50
0.1806420000015032
 51
90.25908500000022
  0
ARC
  5
F3
330
2
100
AcDbEntity
  8
GAIKEI
 62
     1
370
    40
100
AcDbCircle
 10
-21.04561713912963
 20
6.404933097500304
 30
0.0
 40
0.0400604
100
AcDbArc
 50
270.1726370000006
 51
0.1043440000011656
  0
ARC
  5
F4
330
2
100
AcDbEntity
  8
GAIKEI
 62
     1
370
    40
100
AcDbCircle
 10
-21.05554673912964
 20
14.36487569750028
 30
0.0
 40
8.0
100
AcDbArc
 50
269.92801
 51
270.0719910000005
  0
CIRCLE
  5
F5
330
2
100
AcDbEntity
  8
GAIKEI
 62
     1
370
    13
100
AcDbCircle
 10
-21.05554673912964
 20
14.36487569750028
 30
0.0
 40
6.5475196
  0
CIRCLE
  5
F6
330
2
100
AcDbEntity
  8
GAIKEI
 62
     1
370
    40
100
AcDbCircle
 10
-14.64695913912963
 20
18.06487569750027
 30
0.0
 40
0.27
  0
LINE
  5
F7
330
2
100
AcDbEntity
  8
GAIKEI
 62
     1
 48
0.005257
370
    40
100
AcDbLine
 10
17.8912828715091
 20
25.11099529750027
 30
0.0
 11
17.86128747150911
 21
25.14047229750025
 31
0.0
  0
LINE
  5
F8
330
2
100
AcDbEntity
  8
GAIKEI
 62
     1
 48
0.004746
370
    40
100
AcDbLine
 10
17.82332367150911
 20
25.13980929750028
 30
0.0
 11
17.86128747150911
 21
25.14047229750025
 31
0.0
  0
ARC
  5
F9
330
2
100
AcDbEntity
  8
GAIKEI
 62
     1
370
    40
100
AcDbCircle
 10
17.83379527150912
 20
24.53990089750027
 30
0.0
 40
0.6000000000000001
100
AcDbArc
 50
90.99999699999985
 51
137.5693540000006
  0
ARC
  5
FA
330
2
100
AcDbEntity
  8
GAIKEI
 62
     1
370
    40
100
AcDbCircle
 10
7.057613671509116
 20
34.39047989750026
 30
0.0
 40
14.0
100
AcDbArc
 50
304.5197729999993
 51
317.5693540000007
  0
LINE
  5
FB
330
2
100
AcDbEntity
  8
GAIKEI
 62
     1
 48
0.003297
370
    40
100
AcDbLine
 10
17.8912828715091
 20
25.11099529750027
 30
0.0
 11
17.8912828715091
 21
25.08461589750027
 31
0.0
  0
LINE
  5
FC
330
2
100
AcDbEntity
  8
GAIKEI
 62
     1
 48
0.008149
370
    40
100
AcDbLine
 10
14.99128287150911
 20
22.79025649750031
 30
0.0
 11
14.99128287150911
 21
22.85545109750029
 31
0.0
  0
LINE
  5
FD
330
2
100
AcDbEntity
  8
GAIKEI
 62
     1
 48
0.001641
370
    40
100
AcDbLine
 10
14.99128287150911
 20
22.79025649750031
 30
0.0
 11
14.99128287150911
 21
22.77712549750027
 31
0.0
  0
LINE
  5
FE
330
2
100
AcDbEntity
  8
GAIKEI
 62
     1
 48
0.000329
370
    40
100
AcDbLine
 10
24.37128327150912
 20
6.639711697500274
 30
0.0
 11
24.37128327150912
 21
6.642346097500308
 31
0.0
  0
LINE
  5
FF
330
2
100
AcDbEntity
  8
GAIKEI
 62
     1
 48
0.004044
370
    40
100
AcDbLine
 10
24.37128327150912
 20
4.144876097500286
 30
0.0
 11
24.37128327150912
 21
4.177228497500266
 31
0.0
  0
LINE
  5
100
330
2
100
AcDbEntity
  8
GAIKEI
 62
     1
 48
0.008764
370
    40
100
AcDbLine
 10
24.37128327150912
 20
4.247341897500291
 30
0.0
 11
24.37128327150912
 21
4.177228497500266
 31
0.0
  0
LINE
  5
101
330
2
100
AcDbEntity
  8
GAIKEI
 62
     1
 48
0.0066
370
    40
100
AcDbLine
 10
24.37128327150912
 20
4.247342497500255
 30
0.0
 11
24.37128327150912
 21
4.300140297500263
 31
0.0
  0
LINE
  5
102
330
2
100
AcDbEntity
  8
GAIKEI
 62
     1
 48
0.050934
370
    40
100
AcDbLine
 10
24.37128327150912
 20
4.300140297500263
 30
0.0
 11
24.37128327150912
 21
4.707614097500254
 31
0.0
  0
LINE
  5
103
330
2
100
AcDbEntity
  8
GAIKEI
 62
     1
 48
0.017096
370
    40
100
AcDbLine
 10
24.37128327150912
 20
4.844380897500286
 30
0.0
 11
24.37128327150912
 21
4.707614097500254
 31
0.0
  0
LINE
  5
104
330
2
100
AcDbEntity
  8
GAIKEI
 62
     1
 48
0.003047
370
    40
100
AcDbLine
 10
24.37128327150912
 20
6.615441097500308
 30
0.0
 11
24.37128327150912
 21
6.639820097500262
 31
0.0
  0
LINE
  5
105
330
2
100
AcDbEntity
  8
GAIKEI
 62
     1
 48
0.3598
370
    40
100
AcDbLine
 10
24.37128327150912
 20
22.94598369750031
 30
0.0
 11
24.37128327150912
 21
6.639820097500262
 31
0.0
  0
LINE
  5
106
330
2
100
AcDbEntity
  8
GAIKEI
 62
     1
 48
0.002002
370
    40
100
AcDbLine
 10
24.37128327150912
 20
22.96199869750029
 30
0.0
 11
24.37128327150912
 21
22.94598369750031
 31
0.0
  0
LINE
  5
107
330
2
100
AcDbEntity
  8
GAIKEI
 62
     1
 48
0.015924
370
    40
100
AcDbLine
 10
24.37128327150912
 20
24.26622769750025
 30
0.0
 11
24.37128327150912
 21
24.39361789750029
 31
0.0
  0
LINE
  5
108
330
2
100
AcDbEntity
  8
GAIKEI
 62
     1
 48
0.017819
370
    40
100
AcDbLine
 10
24.37128327150912
 20
24.39361789750029
 30
0.0
 11
24.37128327150912
 21
24.53617389750031
 31
0.0
  0
LINE
  5
109
330
2
100
AcDbEntity
  8
GAIKEI
 62
     1
 48
0.064164
370
    40
100
AcDbLine
 10
24.37128327150912
 20
5.357690297500255
 30
0.0
 11
24.37128327150912
 21
4.844380897500286
 31
0.0
  0
LINE
  5
10A
330
2
100
AcDbEntity
  8
GAIKEI
 62
     1
 48
0.156149
370
    40
100
AcDbLine
 10
24.37128327150912
 20
5.357690297500255
 30
0.0
 11
24.37128327150912
 21
6.606880897500275
 31
0.0
  0
LINE
  5
10B
330
2
100
AcDbEntity
  8
GAIKEI
 62
     1
 48
0.00106
370
    40
100
AcDbLine
 10
24.37128327150912
 20
6.606880897500275
 30
0.0
 11
24.37128327150912
 21
6.615364697500297
 31
0.0
  0
LINE
  5
10C
330
2
100
AcDbEntity
  8
GAIKEI
 62
     1
 48
0.097334
370
    40
100
AcDbLine
 10
24.37128327150912
 20
22.94592649750029
 30
0.0
 11
24.37128327150912
 21
23.72460009750029
 31
0.0
  0
LINE
  5
10D
330
2
100
AcDbEntity
  8
GAIKEI
 62
     1
 48
0.067703
370
    40
100
AcDbLine
 10
24.37128327150912
 20
23.72460009750029
 30
0.0
 11
24.37128327150912
 21
24.26622769750025
 31
0.0
  0
LINE
  5
10E
330
2
100
AcDbEntity
  8
GAIKEI
 62
     1
 48
0.012954
370
    40
100
AcDbLine
 10
24.07128007150911
 20
24.81898649750031
 30
0.0
 11
24.17477367150912
 21
24.8242880975003
 31
0.0
  0
SPLINE
  5
10F
330
2
100
AcDbEntity
  8
GAIKEI
 62
     1
370
    40
100
AcDbSpline
210
0.0
220
0.0
230
1.0
 70
     8
 71
     5
 72
    15
 73
     9
 74
     0
 42
0.0000000001
 43
0.0000000001
 40
0.0
 40
0.0
 40
0.0
 40
0.0
 40
0.0
 40
0.0
 40
1.69805785340463
 40
1.69805785340463
 40
1.69805785340463
 40
3.034965840379039
 40
3.034965840379039
 40
3.034965840379039
 40
3.034965840379039
 40
3.034965840379039
 40
3.034965840379039
 10
24.37128287150908
 20
24.81747868045932
 30
0.0
 10
24.37128287150908
 20
24.82047227683995
 30
0.0
 10
24.36512080107458
 20
24.82302732419231
 30
0.0
 10
24.3527230289309
 20
24.8250617320515
 30
0.0
 10
24.3185547310113
 20
24.82751904684164
 30
0.0
 10
24.26376678341907
 20
24.82751248972284
 30
0.0
 10
24.23631360697418
 20
24.82698836732089
 30
0.0
 10
24.20560189546258
 20
24.82586761734655
 30
0.0
 10
24.17477335279654
 20
24.82428826500791
 30
0.0
  0
LINE
  5
110
330
2
100
AcDbEntity
  8
GAIKEI
 62
     1
 48
0.037551
370
    13
100
AcDbLine
 10
24.37128327150912
 20
3.705586097500258
 30
0.0
 11
24.07128167150911
 21
3.721241697500261
 31
0.0
  0
LINE
  5
111
330
2
100
AcDbEntity
  8
GAIKEI
 62
     1
 48
0.000116
370
    40
100
AcDbLine
 10
24.37128327150912
 20
3.704656097500276
 30
0.0
 11
24.37128327150912
 21
3.705586097500258
 31
0.0
  0
LINE
  5
112
330
2
100
AcDbEntity
  8
GAIKEI
 62
     1
 48
0.007503
370
    40
100
AcDbLine
 10
24.37128327150912
 20
3.765608097500262
 30
0.0
 11
24.37128327150912
 21
3.705586097500258
 31
0.0
  0
LINE
  5
113
330
2
100
AcDbEntity
  8
GAIKEI
 62
     1
 48
0.012647
370
    40
100
AcDbLine
 10
24.37128327150912
 20
3.765608097500262
 30
0.0
 11
24.37128327150912
 21
3.866780697500303
 31
0.0
  0
LINE
  5
114
330
2
100
AcDbEntity
  8
GAIKEI
 62
     1
 48
0.075313
370
    40
100
AcDbLine
 10
24.37128327150912
 20
3.866780697500303
 30
0.0
 11
24.37128327150912
 21
4.469281697500264
 31
0.0
  0
LINE
  5
115
330
2
100
AcDbEntity
  8
GAIKEI
 62
     1
 48
0.238396
370
    40
100
AcDbLine
 10
24.37128327150912
 20
6.376451697500272
 30
0.0
 11
24.37128327150912
 21
4.469281697500264
 31
0.0
  0
LINE
  5
116
330
2
100
AcDbEntity
  8
GAIKEI
 62
     1
 48
0.033391
370
    40
100
AcDbLine
 10
24.37128327150912
 20
6.376451697500272
 30
0.0
 11
24.37128327150912
 21
6.643583497500287
 31
0.0
  0
LINE
  5
117
330
2
100
AcDbEntity
  8
GAIKEI
 62
     1
 48
0.280046
370
    40
100
AcDbLine
 10
24.37128327150912
 20
6.643583497500287
 30
0.0
 11
24.37128327150912
 21
8.883948497500284
 31
0.0
  0
LINE
  5
118
330
2
100
AcDbEntity
  8
GAIKEI
 62
     1
 48
0.4259300000000001
370
    40
100
AcDbLine
 10
24.37128327150912
 20
19.81649009750026
 30
0.0
 11
24.37128327150912
 21
23.22392789750029
 31
0.0
  0
LINE
  5
119
330
2
100
AcDbEntity
  8
GAIKEI
 62
     1
 48
0.044446
370
    40
100
AcDbLine
 10
24.37128327150912
 20
23.22392789750029
 30
0.0
 11
24.37128327150912
 21
23.5794928975003
 31
0.0
  0
LINE
  5
11A
330
2
100
AcDbEntity
  8
GAIKEI
 62
     1
 48
0.134164
370
    40
100
AcDbLine
 10
24.37128327150912
 20
23.5794928975003
 30
0.0
 11
24.37128327150912
 21
24.65280529750027
 31
0.0
  0
LINE
  5
11B
330
2
100
AcDbEntity
  8
GAIKEI
 62
     1
 48
0.020584
370
    40
100
AcDbLine
 10
24.37128327150912
 20
24.65280529750027
 30
0.0
 11
24.37128327150912
 21
24.81747889750028
 31
0.0
  0
LINE
  5
11C
330
2
100
AcDbEntity
  8
GAIKEI
 62
     1
370
    40
100
AcDbLine
 10
24.37128327150912
 20
18.53127769750028
 30
0.0
 11
24.37128327150912
 21
10.19847369750027
 31
0.0
  0
ARC
  5
11D
330
2
100
AcDbEntity
  8
GAIKEI
 62
     1
370
    40
100
AcDbCircle
 10
23.19090067150911
 20
13.46487609750028
 30
0.0
 40
0.27721
100
AcDbArc
 50
294.6011630000007
 51
65.39768199999994
  0
ARC
  5
11E
330
2
100
AcDbEntity
  8
GAIKEI
 62
     1
370
    40
100
AcDbCircle
 10
22.02421127150912
 20
21.66502369750026
 30
0.0
 40
14.2600402
100
AcDbArc
 50
231.0168650000003
 51
235.5206619999994
  0
ARC
  5
11F
330
2
100
AcDbEntity
  8
GAIKEI
 62
     1
370
    40
100
AcDbCircle
 10
16.13128287150911
 20
14.36487569750028
 30
0.0
 40
4.878091
100
AcDbArc
 50
129.1206419999993
 51
230.8793549999995
  0
ARC
  5
120
330
2
100
AcDbEntity
  8
GAIKEI
 62
     1
370
    40
100
AcDbCircle
 10
22.02483227150911
 20
7.063891497500264
 30
0.0
 40
14.2610794
100
AcDbArc
 50
124.4795690000001
 51
128.9829729999996
  0
ARC
  5
121
330
2
100
AcDbEntity
  8
GAIKEI
 62
     1
370
    40
100
AcDbCircle
 10
11.03128307150911
 20
12.75977229750026
 30
0.0
 40
0.1
100
AcDbArc
 50
179.9999949999995
 51
267.0000009999999
  0
ARC
  5
122
330
2
100
AcDbEntity
  8
GAIKEI
 62
     1
370
    40
100
AcDbCircle
 10
11.03128307150911
 20
15.9699790975003
 30
0.0
 40
0.1
100
AcDbArc
 50
92.99999900000004
 51
180.0000050000005
  0
LINE
  5
123
330
2
100
AcDbEntity
  8
GAIKEI
 62
     1
 48
0.06829
370
    40
100
AcDbLine
 10
11.02604927150911
 20
16.06984229750026
 30
0.0
 11
11.5716168715091
 21
16.09843409750027
 31
0.0
  0
LINE
  5
124
330
2
100
AcDbEntity
  8
GAIKEI
 62
     1
 48
0.068289
370
    40
100
AcDbLine
 10
11.02604927150911
 20
12.6599090975003
 30
0.0
 11
11.57161587150911
 21
12.63131729750029
 31
0.0
  0
SPLINE
  5
125
330
2
100
AcDbEntity
  8
GAIKEI
 62
     1
370
    40
100
AcDbSpline
210
0.0
220
0.0
230
1.0
 70
     8
 71
     5
 72
    27
 73
    21
 74
     0
 42
0.0000000001
 43
0.0000000001
 40
0.0
 40
0.0
 40
0.0
 40
0.0
 40
0.0
 40
0.0
 40
0.6491045246979616
 40
0.6491045246979616
 40
0.6491045246979616
 40
1.299916552474964
 40
1.299916552474964
 40
1.299916552474964
 40
1.95663630838835
 40
1.95663630838835
 40
1.95663630838835
 40
2.286615842998456
 40
2.286615842998456
 40
2.286615842998456
 40
2.930272395890728
 40
2.930272395890728
 40
2.930272395890728
 40
3.234437775411331
 40
3.234437775411331
 40
3.234437775411331
 40
3.234437775411331
 40
3.234437775411331
 40
3.234437775411331
 10
12.93128218051528
 20
16.36829188135215
 30
0.0
 10
12.93128218051528
 20
16.38322189157145
 30
0.0
 10
12.93173249463524
 20
16.39818109219129
 30
0.0
 10
12.9326419561013
 20
16.41311834685302
 30
0.0
 10
12.9354153605834
 20
16.44298451777524
 30
0.0
 10
12.94035807501649
 20
16.47274451628908
 30
0.0
 10
12.94346234813787
 20
16.48769148108977
 30
0.0
 10
12.95111098170659
 20
16.51749173228734
 30
0.0
 10
12.96256405856401
 20
16.54639954750757
 30
0.0
 10
12.96962896850685
 20
16.56087604511367
 30
0.0
 10
12.98265846144922
 20
16.58069620367576
 30
0.0
 10
12.9993310863981
 20
16.59644269215459
 30
0.0
 10
13.00542697922945
 20
16.60124872634651
 30
0.0
 10
13.02384461497867
 20
16.61332079771017
 30
0.0
 10
13.04417971852112
 20
16.62046918527449
 30
0.0
 10
13.05816303078076
 20
16.62338230692893
 30
0.0
 10
13.07899485046931
 20
16.62558348013454
 30
0.0
 10
13.10023790703147
 20
16.62515934192725
 30
0.0
 10
13.10709337024372
 20
16.62477406228663
 30
0.0
 10
13.11395129071106
 20
16.62415678958302
 30
0.0
 10
13.12081568026036
 20
16.62332073867662
 30
0.0
  0
SPLINE
  5
126
330
2
100
AcDbEntity
  8
GAIKEI
 62
     1
370
    13
100
AcDbSpline
210
0.0
220
0.0
230
1.0
 70
     8
 71
     5
 72
    12
 73
     6
 74
     0
 42
0.0000000001
 43
0.0000000001
 40
0.0
 40
0.0
 40
0.0
 40
0.0
 40
0.0
 40
0.0
 40
1.109210042125081
 40
1.109210042125081
 40
1.109210042125081
 40
1.109210042125081
 40
1.109210042125081
 40
1.109210042125081
 10
13.01812137100818
 20
16.66489241789247
 30
0.0
 10
13.03508543450192
 20
16.65977824323215
 30
0.0
 10
13.05461482197883
 20
16.65241919849461
 30
0.0
 10
13.07593442269703
 20
16.64347959689365
 30
0.0
 10
13.09809247497672
 20
16.6336628997343
 30
0.0
 10
13.12081608252968
 20
16.62332076838902
 30
0.0
  0
ELLIPSE
  5
127
330
2
100
AcDbEntity
  8
GAIKEI
 62
     1
370
    13
100
AcDbEllipse
 10
15.97439387150906
 20
14.36487569750022
 30
0.0
 11
0.0000000447041941
 21
-3.748817062377929
 31
0.0
210
0.0
220
0.0
230
1.0
 40
0.9986299999999999
 41
3.712525844573975
 42
4.051864147186279
  0
ARC
  5
128
330
2
100
AcDbEntity
  8
GAIKEI
 62
     1
370
    40
100
AcDbCircle
 10
13.16589387150911
 20
17.01174869750031
 30
0.0
 40
0.3910502
100
AcDbArc
 50
263.3802599999998
 51
271.824771
  0
LINE
  5
129
330
2
100
AcDbEntity
  8
GAIKEI
 62
     1
 48
0.056677
370
    40
100
AcDbLine
 10
12.93128287150911
 20
16.36829109750027
 30
0.0
 11
12.93128287150911
 21
15.91487569750029
 31
0.0
  0
LINE
  5
12A
330
2
100
AcDbEntity
  8
GAIKEI
 62
     1
 48
0.0675
370
    40
100
AcDbLine
 10
12.93128287150911
 20
15.37487569750027
 30
0.0
 11
12.93128287150911
 21
15.91487569750029
 31
0.0
  0
LINE
  5
12B
330
2
100
AcDbEntity
  8
GAIKEI
 62
     1
 48
0.055755
370
    40
100
AcDbLine
 10
12.93128287150911
 20
15.37487569750027
 30
0.0
 11
12.93128287150911
 21
14.92883709750026
 31
0.0
  0
LINE
  5
12C
330
2
100
AcDbEntity
  8
GAIKEI
 62
     1
 48
0.103844
370
    40
100
AcDbLine
 10
13.1208156715091
 20
14.6704096975003
 30
0.0
 11
13.95127847150911
 21
14.64850869750029
 31
0.0
  0
SPLINE
  5
12D
330
2
100
AcDbEntity
  8
GAIKEI
 62
     1
370
    40
100
AcDbSpline
210
0.0
220
0.0
230
1.0
 70
     8
 71
     5
 72
    21
 73
    15
 74
     0
 42
0.0000000001
 43
0.0000000001
 40
0.0
 40
0.0
 40
0.0
 40
0.0
 40
0.0
 40
0.0
 40
0.9037025459323484
 40
0.9037025459323484
 40
0.9037025459323484
 40
1.656549247392517
 40
1.656549247392517
 40
1.656549247392517
 40
2.328891567525836
 40
2.328891567525836
 40
2.328891567525836
 40
2.485924463110075
 40
2.485924463110075
 40
2.485924463110075
 40
2.485924463110075
 40
2.485924463110075
 40
2.485924463110075
 10
12.93128287150833
 20
14.9288367744715
 30
0.0
 10
12.93128287150833
 20
14.90327620653534
 30
0.0
 10
12.93309513343614
 20
14.87748969897654
 30
0.0
 10
12.93710023133884
 20
14.85167388062763
 30
0.0
 10
12.94926724507522
 20
14.80511443628302
 30
0.0
 10
12.97116675490431
 20
14.76231089862375
 30
0.0
 10
12.98328374285064
 20
14.74403403253825
 30
0.0
 10
13.01036737494918
 20
14.71280271258445
 30
0.0
 10
13.04433540378758
 20
14.68997277464785
 30
0.0
 10
13.06169721689801
 20
14.68148086036979
 30
0.0
 10
13.08427807257088
 20
14.67425951043981
 30
0.0
 10
13.10752271774062
 20
14.67122342200656
 30
0.0
 10
13.11195181423599
 20
14.67079928111417
 30
0.0
 10
13.11638146943495
 20
14.67052835987863
 30
0.0
 10
13.12081568025972
 20
14.67040960429841
 30
0.0
  0
ELLIPSE
  5
12E
330
2
100
AcDbEntity
  8
GAIKEI
 62
     1
370
    13
100
AcDbEllipse
 10
15.97046387150907
 20
14.36487569750022
 30
0.0
 11
0.0000000428415206
 21
-3.592616271972656
 31
0.0
210
0.0
220
0.0
230
1.0
 40
0.9986299999999998
 41
3.739371061325072
 42
4.033464908599853
  0
LINE
  5
12F
330
2
100
AcDbEntity
  8
GAIKEI
 62
     1
 48
0.096638
370
    40
100
AcDbLine
 10
13.95118027150912
 20
16.6412402975003
 30
0.0
 11
13.1783466715091
 21
16.62088109750027
 31
0.0
  0
ELLIPSE
  5
130
330
2
100
AcDbEntity
  8
GAIKEI
 62
     1
370
    13
100
AcDbEllipse
 10
15.97439387150906
 20
14.36487569750022
 30
0.0
 11
0.0000000447041941
 21
-3.748817062377929
 31
0.0
210
0.0
220
0.0
230
1.0
 40
0.9986299999999999
 41
4.051864147186279
 42
5.712258338928223
  0
ELLIPSE
  5
131
330
2
100
AcDbEntity
  8
GAIKEI
 62
     1
370
    13
100
AcDbEllipse
 10
15.97046387150907
 20
14.36487569750022
 30
0.0
 11
0.0000000428415206
 21
-3.592616271972656
 31
0.0
210
0.0
220
0.0
230
1.0
 40
0.9986299999999998
 41
4.152121543884276
 42
5.685408592224121
  0
LINE
  5
132
330
2
100
AcDbEntity
  8
GAIKEI
 62
     1
 48
0.200638
370
    40
100
AcDbLine
 10
10.93128307150911
 20
14.36487569750028
 30
0.0
 11
10.93128307150911
 21
12.75977229750026
 31
0.0
  0
LINE
  5
133
330
2
100
AcDbEntity
  8
GAIKEI
 62
     1
 48
0.200638
370
    40
100
AcDbLine
 10
10.93128307150911
 20
15.9699790975003
 30
0.0
 11
10.93128307150911
 21
14.36487569750028
 31
0.0
  0
LINE
  5
134
330
2
100
AcDbEntity
  8
GAIKEI
 62
     7
370
    40
100
AcDbLine
 10
17.79976087150911
 20
3.593552297500252
 30
0.0
 11
24.07128327150912
 21
3.264875697500258
 31
0.0
  0
LINE
  5
135
330
2
100
AcDbEntity
  8
GAIKEI
 62
     7
370
    40
100
AcDbLine
 10
18.09100887150911
 20
25.15146249750029
 30
0.0
 11
24.07128327150912
 21
25.46487569750031
 31
0.0
  0
ARC
  5
136
330
2
100
AcDbEntity
  8
GAIKEI
 62
     7
370
    40
100
AcDbCircle
 10
10.57634187150911
 20
23.01191389750028
 30
0.0
 40
4.0
100
AcDbArc
 50
328.339859
 51
352.9116380000004
  0
ARC
  5
137
330
2
100
AcDbEntity
  8
GAIKEI
 62
     7
370
    40
100
AcDbCircle
 10
14.15128287150911
 20
7.922331897500271
 30
0.0
 40
0.2
100
AcDbArc
 50
180.0000050000005
 51
211.6601440000013
  0
LINE
  5
138
330
2
100
AcDbEntity
  8
GAIKEI
 62
     1
 48
0.015202
370
    40
100
AcDbLine
 10
14.77630167150912
 20
22.71050329750028
 30
0.0
 11
14.89789527150911
 21
22.7126256975003
 31
0.0
  0
ARC
  5
139
330
2
100
AcDbEntity
  8
GAIKEI
 62
     7
370
    40
100
AcDbCircle
 10
14.15128287150911
 20
20.80741949750029
 30
0.0
 40
0.2
100
AcDbArc
 50
148.3398629999993
 51
180.0000050000005
  0
ARC
  5
13A
330
2
100
AcDbEntity
  8
GAIKEI
 62
     7
370
    40
100
AcDbCircle
 10
17.83116247150912
 20
4.192729897500271
 30
0.0
 40
0.6000000000000001
100
AcDbArc
 50
222.4459599999994
 51
267.0000009999999
  0
ARC
  5
13B
330
2
100
AcDbEntity
  8
GAIKEI
 62
     7
370
    40
100
AcDbCircle
 10
7.057631871509116
 20
34.39045249750029
 30
0.0
 40
13.9999664
100
AcDbArc
 50
302.5552659999994
 51
303.4586379999993
  0
ARC
  5
13C
330
2
100
AcDbEntity
  8
GAIKEI
 62
     7
370
    40
100
AcDbCircle
 10
7.057614271509109
 20
-5.660728502499694
 30
0.0
 40
14.0
100
AcDbArc
 50
42.44595500000084
 51
57.44473400000051
  0
ARC
  5
13D
330
2
100
AcDbEntity
  8
GAIKEI
 62
     7
370
    40
100
AcDbCircle
 10
14.64500547150911
 20
22.50597449750029
 30
0.0
 40
0.1
100
AcDbArc
 50
122.5552740000006
 51
172.911634999999
  0
LINE
  5
13E
330
2
100
AcDbEntity
  8
GAIKEI
 62
     1
 48
0.008576
370
    40
100
AcDbLine
 10
14.45506887150911
 20
6.366072697500271
 30
0.0
 11
14.52366267150911
 21
6.364875697500281
 31
0.0
  0
ARC
  5
13F
330
2
100
AcDbEntity
  8
GAIKEI
 62
     7
370
    40
100
AcDbCircle
 10
14.64500547150911
 20
6.223776897500272
 30
0.0
 40
0.1
100
AcDbArc
 50
187.088365000001
 51
237.4447259999994
  0
ARC
  5
140
330
2
100
AcDbEntity
  8
GAIKEI
 62
     7
370
    40
100
AcDbCircle
 10
10.57634267150911
 20
5.717837497500283
 30
0.0
 40
3.999999199999999
100
AcDbArc
 50
7.088361999999562
 51
9.309039999999319
  0
ARC
  5
141
330
2
100
AcDbEntity
  8
GAIKEI
 62
     7
370
    40
100
AcDbCircle
 10
10.57634187150911
 20
5.717837497500283
 30
0.0
 40
3.9999996
100
AcDbArc
 50
18.16529800000122
 51
31.66014100000009
  0
ARC
  5
142
330
2
100
AcDbEntity
  8
GAIKEI
 62
     1
370
    40
100
AcDbCircle
 10
23.87128327150911
 20
13.92681369750028
 30
0.0
 40
0.2
100
AcDbArc
 50
270.9999990000004
 51
0.0
  0
LINE
  5
143
330
2
100
AcDbEntity
  8
GAIKEI
 62
     7
370
    40
100
AcDbLine
 10
24.07128327150912
 20
13.00293769750027
 30
0.0
 11
24.07128327150912
 21
3.264875697500258
 31
0.0
  0
LINE
  5
144
330
2
100
AcDbEntity
  8
GAIKEI
 62
     1
 48
0.006867
370
    40
100
AcDbLine
 10
24.07128327150912
 20
3.720363497500272
 30
0.0
 11
24.07128327150912
 21
3.665425097500303
 31
0.0
  0
LINE
  5
145
330
2
100
AcDbEntity
  8
GAIKEI
 62
     1
 48
0.085995
370
    40
100
AcDbLine
 10
23.18691967150912
 20
13.71483769750028
 30
0.0
 11
23.87477367150911
 21
13.7268440975003
 31
0.0
  0
ARC
  5
146
330
2
100
AcDbEntity
  8
GAIKEI
 62
     1
370
    40
100
AcDbCircle
 10
23.87128327150911
 20
13.00293769750027
 30
0.0
 40
0.2
100
AcDbArc
 50
0.0
 51
89.00000099999965
  0
LINE
  5
147
330
2
100
AcDbEntity
  8
GAIKEI
 62
     1
 48
0.085995
370
    40
100
AcDbLine
 10
23.87477367150911
 20
13.2029072975003
 30
0.0
 11
23.18691967150912
 21
13.21491369750026
 31
0.0
  0
ARC
  5
148
330
2
100
AcDbEntity
  8
GAIKEI
 62
     1
370
    40
100
AcDbCircle
 10
23.19128287150912
 20
13.4648756975003
 30
0.0
 40
0.25
100
AcDbArc
 50
90.99999699999985
 51
269.0000059999996
  0
LINE
  5
149
330
2
100
AcDbEntity
  8
GAIKEI
 62
     7
370
    40
100
AcDbLine
 10
24.07128327150912
 20
25.46487569750031
 30
0.0
 11
24.07128327150912
 21
13.92681369750028
 31
0.0
  0
LINE
  5
14A
330
2
100
AcDbEntity
  8
GAIKEI
 62
     1
 48
0.017539
370
    40
100
AcDbLine
 10
17.8912828715091
 20
9.957588497500296
 30
0.0
 11
18.03147307150911
 21
9.951651297500291
 31
0.0
  0
LINE
  5
14B
330
2
100
AcDbEntity
  8
GAIKEI
 62
     1
 48
0.011451
370
    40
100
AcDbLine
 10
17.8912828715091
 20
9.957588497500296
 30
0.0
 11
17.79976087150911
 21
9.961464897500263
 31
0.0
  0
LINE
  5
14C
330
2
100
AcDbEntity
  8
GAIKEI
 62
     7
 48
0.01755
370
    40
100
AcDbLine
 10
17.8912828715091
 20
25.08470609750026
 30
0.0
 11
18.03147307150911
 21
25.0923422975003
 31
0.0
  0
LINE
  5
14D
330
2
100
AcDbEntity
  8
GAIKEI
 62
     1
 48
0.006314
370
    40
100
AcDbLine
 10
14.32647987150911
 20
6.964000697500296
 30
0.0
 11
14.3769858715091
 21
6.964882497500298
 31
0.0
  0
LINE
  5
14E
330
2
100
AcDbEntity
  8
GAIKEI
 62
     1
 48
0.006314
370
    40
100
AcDbLine
 10
14.32647987150911
 20
6.964000697500296
 30
0.0
 11
14.3769858715091
 21
6.964882497500298
 31
0.0
  0
SPLINE
  5
14F
330
2
100
AcDbEntity
  8
GAIKEI
 62
     1
370
    40
100
AcDbSpline
210
0.0
220
0.0
230
1.0
 70
     8
 71
     5
 72
    15
 73
     9
 74
     0
 42
0.0000000001
 43
0.0000000001
 40
0.0
 40
0.0
 40
0.0
 40
0.0
 40
0.0
 40
0.0
 40
0.3435906583596567
 40
0.3435906583596567
 40
0.3435906583596567
 40
0.4259627485810597
 40
0.4259627485810597
 40
0.4259627485810597
 40
0.4259627485810597
 40
0.4259627485810597
 40
0.4259627485810597
 10
18.06890521678555
 20
9.941250163895176
 30
0.0
 10
18.07502600384235
 20
9.937735481584979
 30
0.0
 10
18.08050014834819
 20
9.933513308565125
 30
0.0
 10
18.08512112798225
 20
9.928582218310225
 30
0.0
 10
18.08913840557383
 20
9.92188610636748
 30
0.0
 10
18.09070058876622
 20
9.91473477807267
 30
0.0
 10
18.09090641032024
 20
9.913338263250977
 30
0.0
 10
18.09100877846275
 20
9.911947992667762
 30
0.0
 10
18.09100877846002
 20
9.910557671852814
 30
0.0
  0
ARC
  5
150
330
2
100
AcDbEntity
  8
GAIKEI
 62
     1
370
    40
100
AcDbCircle
 10
18.0285578715091
 20
9.868111297500263
 30
0.0
 40
0.083565
100
AcDbArc
 50
61.11649200000055
 51
88.00142100000014
  0
LINE
  5
151
330
2
100
AcDbEntity
  8
GAIKEI
 62
     1
 48
0.000857
370
    40
100
AcDbLine
 10
18.03147307150911
 20
25.0923422975003
 30
0.0
 11
18.0383140715091
 21
25.09274509750026
 31
0.0
  0
LINE
  5
152
330
2
100
AcDbEntity
  8
GAIKEI
 62
     7
370
    40
100
AcDbLine
 10
13.9512828715091
 20
7.922331897500271
 30
0.0
 11
13.9512828715091
 21
20.80741949750029
 31
0.0
  0
LINE
  5
153
330
2
100
AcDbEntity
  8
GAIKEI
 62
     7
 48
0.006457
370
    40
100
AcDbLine
 10
18.09100887150911
 20
25.15146249750029
 30
0.0
 11
18.09100887150911
 21
25.0998038975003
 31
0.0
  0
LINE
  5
154
330
2
100
AcDbEntity
  8
GAIKEI
 62
     1
 48
0.228287
370
    40
100
AcDbLine
 10
18.09100887150911
 20
9.910557897500268
 30
0.0
 11
18.09100887150911
 21
8.084265497500268
 31
0.0
  0
SPLINE
  5
155
330
2
100
AcDbEntity
  8
GAIKEI
 62
     7
370
    40
100
AcDbSpline
210
0.0
220
0.0
230
1.0
 70
     8
 71
     5
 72
    18
 73
    12
 74
     0
 42
0.0000000001
 43
0.0000000001
 40
0.0
 40
0.0
 40
0.0
 40
0.0
 40
0.0
 40
0.0
 40
0.3227800529067355
 40
0.3227800529067355
 40
0.3227800529067355
 40
0.6820042317357037
 40
0.6820042317357037
 40
0.6820042317357037
 40
0.7417160371391733
 40
0.7417160371391733
 40
0.7417160371391733
 40
0.7417160371391733
 40
0.7417160371391733
 40
0.7417160371391733
 10
18.03147309974091
 20
25.09234220367944
 30
0.0
 10
18.03868161143795
 20
25.09273483136428
 30
0.0
 10
18.04584038616325
 20
25.09320827313411
 30
0.0
 10
18.05175753531033
 20
25.0936634472497
 30
0.0
 10
18.06599832809719
 20
25.09492624519698
 30
0.0
 10
18.07793417769633
 20
25.09640161037186
 30
0.0
 10
18.08343605465065
 20
25.09722977005356
 30
0.0
 10
18.08826749362914
 20
25.09822395334413
 30
0.0
 10
18.09035833627749
 20
25.09915533670517
 30
0.0
 10
18.0905979460514
 20
25.09928653759943
 30
0.0
 10
18.09077452757705
 20
25.09941470102183
 30
0.0
 10
18.0908869107553
 20
25.09953967922149
 30
0.0
  0
LINE
  5
156
330
2
100
AcDbEntity
  8
GAIKEI
 62
     7
 48
0.000036
370
    40
100
AcDbLine
 10
18.09088687150911
 20
25.09953989750028
 30
0.0
 11
18.09100887150911
 21
25.0998038975003
 31
0.0
  0
ELLIPSE
  5
157
330
2
100
AcDbEntity
  8
GAIKEI
 62
     1
370
    40
100
AcDbEllipse
 10
14.32717787150908
 20
6.924006497500272
 30
0.0
 11
-0.0400000005960465
 21
-0.0000000034969112
 31
0.0
210
0.0
220
0.0
230
1.0
 40
0.999999
 41
6.283030033111572
 42
6.594313144683837
  0
SPLINE
  5
158
330
2
100
AcDbEntity
  8
GAIKEI
 62
     1
370
    40
100
AcDbSpline
210
0.0
220
0.0
230
1.0
 70
     8
 71
     5
 72
    18
 73
    12
 74
     0
 42
0.0000000001
 43
0.0000000001
 40
0.0
 40
0.0
 40
0.0
 40
0.0
 40
0.0
 40
0.0
 40
0.164272954234309
 40
0.164272954234309
 40
0.164272954234309
 40
0.4845286083746689
 40
0.4845286083746689
 40
0.4845286083746689
 40
0.7820608726986804
 40
0.7820608726986804
 40
0.7820608726986804
 40
0.7820608726986804
 40
0.7820608726986804
 40
0.7820608726986804
 10
18.03147309973923
 20
8.050633689989922
 30
0.0
 10
18.03514335222134
 20
8.050589217221954
 30
0.0
 10
18.03880171645667
 20
8.050717347149202
 30
0.0
 10
18.0424743330538
 20
8.051017937841947
 30
0.0
 10
18.05300327073463
 20
8.052377499377882
 30
0.0
 10
18.06288031101911
 20
8.055132577573317
 30
0.0
 10
18.06889608255287
 20
8.057500405708935
 30
0.0
 10
18.07955939875236
 20
8.063280336211846
 30
0.0
 10
18.08696744506022
 20
8.071035143977496
 30
0.0
 10
18.0896230628862
 20
8.075195515145765
 30
0.0
 10
18.09100877828213
 20
8.079699281727528
 30
0.0
 10
18.09100877846002
 20
8.084265528686955
 30
0.0
  0
LINE
  5
159
330
2
100
AcDbEntity
  8
GAIKEI
 62
     1
370
    13
100
AcDbLine
 10
17.79976087150911
 20
25.07972029750027
 30
0.0
 11
17.79976087150911
 21
19.52892329750028
 31
0.0
  0
ARC
  5
15A
330
2
100
AcDbEntity
  8
GAIKEI
 62
     7
370
    40
100
AcDbCircle
 10
17.83286467150911
 20
24.48085769750026
 30
0.0
 40
0.5998052
100
AcDbArc
 50
93.16395100000031
 51
137.8126729999992
  0
LINE
  5
15B
330
2
100
AcDbEntity
  8
GAIKEI
 62
     7
 48
0.011457
370
    40
100
AcDbLine
 10
17.8912828715091
 20
25.08470609750026
 30
0.0
 11
17.79976087150911
 21
25.07972029750027
 31
0.0
  0
LINE
  5
15C
330
2
100
AcDbEntity
  8
GAIKEI
 62
     1
 48
0.01755
370
    40
100
AcDbLine
 10
17.8912828715091
 20
25.08470609750026
 30
0.0
 11
18.03147327150911
 21
25.0923422975003
 31
0.0
  0
LINE
  5
15D
330
2
100
AcDbEntity
  8
GAIKEI
 62
     7
 48
0.000283
370
    13
100
AcDbLine
 10
14.77856467150911
 20
22.63652789750029
 30
0.0
 11
14.77630167150912
 21
22.63648289750029
 31
0.0
  0
ELLIPSE
  5
15E
330
2
100
AcDbEntity
  8
GAIKEI
 62
     1
370
    40
100
AcDbEllipse
 10
14.32717787150908
 20
6.924006497500272
 30
0.0
 11
0.0400000005960465
 21
0.0000000000014804
 31
0.0
210
0.0
220
0.0
230
1.0
 40
0.9999990000000002
 41
1.588249564170837
 42
3.141437292098998
  0
ELLIPSE
  5
15F
330
2
100
AcDbEntity
  8
GAIKEI
 62
     1
370
    40
100
AcDbEllipse
 10
17.83139727150909
 20
10.26228169750027
 30
0.0
 11
0.6001574039459232
 21
-0.0127072095870972
 31
0.0
210
0.0
220
0.0
230
1.0
 40
0.502566
 41
3.892823457717895
 42
4.670294284820556
  0
LINE
  5
160
330
2
100
AcDbEntity
  8
GAIKEI
 62
     1
370
    13
100
AcDbLine
 10
17.79976087150911
 20
19.52892329750028
 30
0.0
 11
17.79976087150911
 21
9.961464897500263
 31
0.0
  0
LINE
  5
161
330
2
100
AcDbEntity
  8
GAIKEI
 62
     1
370
    13
100
AcDbLine
 10
17.79976087150911
 20
8.053441897500306
 30
0.0
 11
17.79976087150911
 21
3.593552297500252
 31
0.0
  0
ELLIPSE
  5
162
330
2
100
AcDbEntity
  8
GAIKEI
 62
     1
370
    40
100
AcDbEllipse
 10
17.83139727150909
 20
8.355215297500308
 30
0.0
 11
0.6001632213592531
 21
0.0115720324218273
 31
0.0
210
0.0
220
0.0
230
1.0
 40
0.5025949999999999
 41
3.872492551803588
 42
4.64996337890625
  0
LINE
  5
163
330
2
100
AcDbEntity
  8
GAIKEI
 62
     1
 48
0.011441
370
    40
100
AcDbLine
 10
17.8912828715091
 20
8.052332497500287
 30
0.0
 11
17.79976087150911
 21
8.053441897500306
 31
0.0
  0
LINE
  5
164
330
2
100
AcDbEntity
  8
GAIKEI
 62
     1
 48
0.017525
370
    40
100
AcDbLine
 10
17.8912828715091
 20
8.052332497500287
 30
0.0
 11
18.03147327150911
 21
8.050633497500257
 31
0.0
  0
LINE
  5
165
330
2
100
AcDbEntity
  8
GAIKEI
 62
     1
370
    13
100
AcDbLine
 10
17.38841387150911
 20
24.8836820975003
 30
0.0
 11
17.38841387150911
 21
19.43579929750029
 31
0.0
  0
ARC
  5
166
330
2
100
AcDbEntity
  8
GAIKEI
 62
     7
370
    40
100
AcDbCircle
 10
6.881871271509112
 20
34.42403709750028
 30
0.0
 40
14.191751
100
AcDbArc
 50
316.7857349999993
 51
317.7593149999991
  0
LINE
  5
167
330
2
100
AcDbEntity
  8
GAIKEI
 62
     1
 48
0.000598
370
    40
100
AcDbLine
 10
17.2247936715091
 20
24.7065390975003
 30
0.0
 11
17.22151787150911
 21
24.70305309750029
 31
0.0
  0
ARC
  5
168
330
2
100
AcDbEntity
  8
GAIKEI
 62
     7
370
    40
100
AcDbCircle
 10
6.870476071509102
 20
34.43540029750028
 30
0.0
 40
14.207843
100
AcDbArc
 50
304.1508509999997
 51
316.7645149999991
  0
LINE
  5
169
330
2
100
AcDbEntity
  8
GAIKEI
 62
     7
 48
0.000082
370
    40
100
AcDbLine
 10
14.77685687150911
 20
22.6361388975003
 30
0.0
 11
14.77630167150912
 21
22.63648289750029
 31
0.0
  0
SPLINE
  5
16A
330
2
100
AcDbEntity
  8
GAIKEI
 62
     7
370
    40
100
AcDbSpline
210
0.0
220
0.0
230
1.0
 70
     8
 71
     5
 72
    18
 73
    12
 74
     0
 42
0.0000000001
 43
0.0000000001
 40
0.0
 40
0.0
 40
0.0
 40
0.0
 40
0.0
 40
0.0
 40
0.2014246376529217
 40
0.2014246376529217
 40
0.2014246376529217
 40
0.6292029230907975
 40
0.6292029230907975
 40
0.6292029230907975
 40
0.9802961000403191
 40
0.9802961000403191
 40
0.9802961000403191
 40
0.9802961000403191
 40
0.9802961000403191
 40
0.9802961000403191
 10
14.84638708759374
 20
22.67752003980604
 30
0.0
 10
14.84284757927607
 20
22.67511900218488
 30
0.0
 10
14.8392812108307
 20
22.67272522711062
 30
0.0
 10
14.83567044733939
 20
22.67032727856076
 30
0.0
 10
14.82443769940158
 20
22.66294629575384
 30
0.0
 10
14.81341569149153
 20
22.65595657422773
 30
0.0
 10
14.80880969874774
 20
22.65309474248068
 30
0.0
 10
14.7956826201484
 20
22.64518494358799
 30
0.0
 10
14.7850834400318
 20
22.63939285614378
 30
0.0
 10
14.78075462893815
 20
22.63722654130362
 30
0.0
 10
14.77803735343085
 20
22.63616237704025
 30
0.0
 10
14.77685683174208
 20
22.63613911890309
 30
0.0
  0
LINE
  5
16B
330
2
100
AcDbEntity
  8
GAIKEI
 62
     7
 48
0.000151
370
    40
100
AcDbLine
 10
14.77630167150912
 20
22.6376928975003
 30
0.0
 11
14.77630167150912
 21
22.63648289750029
 31
0.0
  0
LINE
  5
16C
330
2
100
AcDbEntity
  8
GAIKEI
 62
     7
 48
0.009101
370
    40
100
AcDbLine
 10
14.77630167150912
 20
22.71050329750028
 30
0.0
 11
14.77630167150912
 21
22.6376928975003
 31
0.0
  0
ARC
  5
16D
330
2
100
AcDbEntity
  8
GAIKEI
 62
     1
370
    40
100
AcDbCircle
 10
10.5763350715091
 20
5.717843497500268
 30
0.0
 40
3.900006799999999
100
AcDbArc
 50
10.05988200000008
 51
17.82630399999852
  0
ELLIPSE
  5
16E
330
2
100
AcDbEntity
  8
GAIKEI
 62
     1
370
    40
100
AcDbEllipse
 10
14.45576707150907
 20
6.406072897500223
 30
0.0
 11
0.0400000005960465
 21
0.000000000094779
 31
0.0
210
0.0
220
0.0
230
1.0
 40
0.9999990000000002
 41
3.317170858383178
 42
4.69493579864502
  0
LINE
  5
16F
330
2
100
AcDbEntity
  8
GAIKEI
 62
     1
 48
0.000906
370
    40
100
AcDbLine
 10
14.77630167150912
 20
9.275839097500295
 30
0.0
 11
14.77630167150912
 21
9.268595097500281
 31
0.0
  0
LINE
  5
170
330
2
100
AcDbEntity
  8
GAIKEI
 62
     1
 48
0.239214
370
    40
100
AcDbLine
 10
14.77630167150912
 20
11.18954929750026
 30
0.0
 11
14.77630167150912
 21
9.275839097500295
 31
0.0
  0
ARC
  5
171
330
2
100
AcDbEntity
  8
GAIKEI
 62
     1
370
    40
100
AcDbCircle
 10
14.81083467150911
 20
11.10951989750026
 30
0.0
 40
0.1039384
100
AcDbArc
 50
70.00194600000026
 51
87.81949899999974
  0
SPLINE
  5
172
330
2
100
AcDbEntity
  8
GAIKEI
 62
     1
370
    40
100
AcDbSpline
210
0.0
220
0.0
230
1.0
 70
     8
 71
     5
 72
    18
 73
    12
 74
     0
 42
0.0000000001
 43
0.0000000001
 40
0.0
 40
0.0
 40
0.0
 40
0.0
 40
0.0
 40
0.0
 40
0.2699074281961926
 40
0.2699074281961926
 40
0.2699074281961926
 40
0.6003513347981017
 40
0.6003513347981017
 40
0.6003513347981017
 40
0.6632073673092242
 40
0.6632073673092242
 40
0.6632073673092242
 40
0.6632073673092242
 40
0.6632073673092242
 40
0.6632073673092242
 10
14.81478834759113
 20
11.21336022422201
 30
0.0
 10
14.80992155714142
 20
11.21348258642763
 30
0.0
 10
14.80516768217066
 20
11.21324263443165
 30
0.0
 10
14.80042198434275
 20
11.21257155678131
 30
0.0
 10
14.7907885154117
 20
11.21014384059236
 30
0.0
 10
14.78326092144905
 20
11.20550050525025
 30
0.0
 10
14.779871419478
 20
11.20220565788168
 30
0.0
 10
14.77728075623352
 20
11.19749255118859
 30
0.0
 10
14.77643597236069
 20
11.19216734699074
 30
0.0
 10
14.77634598872791
 20
11.19130272072425
 30
0.0
 10
14.7763016591209
 20
11.19043079366184
 30
0.0
 10
14.77630165912077
 20
11.18954933296254
 30
0.0
  0
LINE
  5
173
330
2
100
AcDbEntity
  8
GAIKEI
 62
     1
 48
0.001534
370
    40
100
AcDbLine
 10
14.8579546715091
 20
11.20310709750026
 30
0.0
 11
14.84638707150911
 21
11.20720969750027
 31
0.0
  0
ELLIPSE
  5
174
330
2
100
AcDbEntity
  8
GAIKEI
 62
     1
370
    40
100
AcDbEllipse
 10
7.214663871509074
 20
5.660846697500232
 30
0.0
 11
13.82178649902344
 21
-0.4555298805236814
 31
0.0
210
0.0
220
0.0
230
1.0
 40
0.4972180000000001
 41
0.777751624584198
 42
1.00132393836975
  0
LINE
  5
175
330
2
100
AcDbEntity
  8
GAIKEI
 62
     1
 48
0.000467
370
    40
100
AcDbLine
 10
17.2247936715091
 20
10.15674689750028
 30
0.0
 11
17.22151787150911
 21
10.15853909750029
 31
0.0
  0
ARC
  5
176
330
2
100
AcDbEntity
  8
GAIKEI
 62
     1
370
    40
100
AcDbCircle
 10
10.84580787150911
 20
-1.499842902499722
 30
0.0
 40
13.2878708
100
AcDbArc
 50
60.50324300000013
 51
61.31062700000009
  0
LINE
  5
177
330
2
100
AcDbEntity
  8
GAIKEI
 62
     1
370
    13
100
AcDbLine
 10
17.38841387150911
 20
19.43579929750029
 30
0.0
 11
17.38841387150911
 21
10.06570229750031
 31
0.0
  0
LINE
  5
178
330
2
100
AcDbEntity
  8
GAIKEI
 62
     1
370
    13
100
AcDbLine
 10
17.38841387150911
 20
8.145242897500281
 30
0.0
 11
17.38841387150911
 21
3.787793697500262
 31
0.0
  0
ARC
  5
179
330
2
100
AcDbEntity
  8
GAIKEI
 62
     1
370
    40
100
AcDbCircle
 10
11.34955467150911
 20
-3.132568502499736
 30
0.0
 40
12.7928444
100
AcDbArc
 50
61.83256300000025
 51
62.66064799999945
  0
LINE
  5
17A
330
2
100
AcDbEntity
  8
GAIKEI
 62
     1
 48
0.000461
370
    40
100
AcDbLine
 10
17.2247936715091
 20
8.231341097500262
 30
0.0
 11
17.22151787150911
 21
8.233034497500284
 31
0.0
  0
ELLIPSE
  5
17B
330
2
100
AcDbEntity
  8
GAIKEI
 62
     1
370
    40
100
AcDbEllipse
 10
7.215763271509089
 20
3.433463897500246
 30
0.0
 11
13.82234649658204
 21
0.099202585220337
 31
0.0
210
0.0
220
0.0
230
1.0
 40
0.4976000000000001
 41
0.7578184604644776
 42
0.98240864276886
  0
SPLINE
  5
17C
330
2
100
AcDbEntity
  8
GAIKEI
 62
     1
370
    40
100
AcDbSpline
210
0.0
220
0.0
230
1.0
 70
     8
 71
     5
 72
    21
 73
    15
 74
     0
 42
0.0000000001
 43
0.0000000001
 40
0.0
 40
0.0
 40
0.0
 40
0.0
 40
0.0
 40
0.0
 40
0.2101759337898721
 40
0.2101759337898721
 40
0.2101759337898721
 40
0.4228321814963376
 40
0.4228321814963376
 40
0.4228321814963376
 40
0.6338267984589638
 40
0.6338267984589638
 40
0.6338267984589638
 40
1.035149283715966
 40
1.035149283715966
 40
1.035149283715966
 40
1.035149283715966
 40
1.035149283715966
 40
1.035149283715966
 10
14.84638708759407
 20
9.209897324634425
 30
0.0
 10
14.84256032549432
 20
9.211137425877041
 30
0.0
 10
14.83871457655422
 20
9.212540548350375
 30
0.0
 10
14.83482526521301
 20
9.21411522011374
 30
0.0
 10
14.82710540269899
 20
9.217545443169342
 30
0.0
 10
14.81956869875583
 20
9.221518440283034
 30
0.0
 10
14.81578978346273
 20
9.223675195477767
 30
0.0
 10
14.80845912189532
 20
9.228203593797275
 30
0.0
 10
14.80160482272407
 20
9.233176992598771
 30
0.0
 10
14.79819945395128
 20
9.235863825775481
 30
0.0
 10
14.78908095333995
 20
9.243745120778271
 30
0.0
 10
14.78192203730358
 20
9.252207816243867
 30
0.0
 10
14.77816999306513
 20
9.2581068006034
 30
0.0
 10
14.7763016590858
 20
9.263694897722075
 30
0.0
 10
14.77630165908507
 20
9.268595107456349
 30
0.0
  0
LINE
  5
17D
330
2
100
AcDbEntity
  8
GAIKEI
 62
     1
370
    13
100
AcDbLine
 10
14.54576987150911
 20
18.27384209750028
 30
0.0
 11
14.54576987150911
 21
22.5183142975003
 31
0.0
  0
LINE
  5
17E
330
2
100
AcDbEntity
  8
GAIKEI
 62
     1
 48
0.008576
370
    13
100
AcDbLine
 10
14.52366267150911
 20
6.364881897500254
 30
0.0
 11
14.45506887150911
 21
6.366079697500254
 31
0.0
  0
LINE
  5
17F
330
2
100
AcDbEntity
  8
GAIKEI
 62
     1
 48
0.005227
370
    40
100
AcDbLine
 10
14.3769858715091
 20
6.964882497500298
 30
0.0
 11
14.38985987150912
 21
6.925101297500305
 31
0.0
  0
ARC
  5
180
330
2
100
AcDbEntity
  8
GAIKEI
 62
     7
370
    40
100
AcDbCircle
 10
10.57616787150911
 20
5.717977897500304
 30
0.0
 40
4.000174
100
AcDbArc
 50
9.889560999999071
 51
17.56380700000137
  0
LINE
  5
181
330
2
100
AcDbEntity
  8
GAIKEI
 62
     7
 48
0.005086
370
    40
100
AcDbLine
 10
14.5169020715091
 20
6.405006297500278
 30
0.0
 11
14.52366267150911
 21
6.364881897500254
 31
0.0
  0
LINE
  5
182
330
2
100
AcDbEntity
  8
GAIKEI
 62
     1
370
    13
100
AcDbLine
 10
14.54576987150911
 20
18.27384209750028
 30
0.0
 11
14.54576987150911
 21
6.211437097500265
 31
0.0
  0
ARC
  5
183
330
2
100
AcDbEntity
  8
GAIKEI
 62
     7
370
    40
100
AcDbCircle
 10
16.1312830715091
 20
14.36487589750027
 30
0.0
 40
6.3600002
100
AcDbArc
 50
179.9999910000004
 51
249.9544059999988
  0
ARC
  5
184
330
2
100
AcDbEntity
  8
GAIKEI
 62
     7
370
    40
100
AcDbCircle
 10
16.1312830715091
 20
14.36487549750029
 30
0.0
 40
6.3600002
100
AcDbArc
 50
110.0455750000013
 51
180.0000050000005
  0
CIRCLE
  5
185
330
2
100
AcDbEntity
  8
GAIKEI
 62
     1
370
    40
100
AcDbCircle
 10
-21.05554673912964
 20
14.36487569750028
 30
0.0
 40
6.2
  0
TEXT
  5
186
330
2
100
AcDbEntity
  8
MOJI1
100
AcDbText
 10
-18.60287615604716
 20
-56.97221741163843
 30
0.0
 40
3.0
  1
ＢＢ－ＨＣＣ００２、００４、００８
100
AcDbText
  0
TEXT
  5
187
330
2
100
AcDbEntity
  8
MOJI1
100
AcDbText
 10
-18.60287615604716
 20
-61.97221741163843
 30
0.0
 40
3.0
  1
Ｈ．２６４、ＭＰＥＧ－４、ＪＰＥＧ／３レベル
100
AcDbText
  0
LINE
  5
188
330
2
100
AcDbEntity
  8
WAKU
 62
     1
100
AcDbLine
 10
63.89712384395284
 20
-57.97221741163844
 30
0.0
 11
-61.10287615604716
 21
-57.97221741163844
 31
0.0
  0
TEXT
  5
18A
330
2
100
AcDbEntity
  8
MOJI1
100
AcDbText
 10
-18.60287615604716
 20
-46.97221741163843
 30
0.0
 40
3.0
  1
チルト：－５７°～＋５７°レンズ固定：設置時に設定
 41
0.8
100
AcDbText
  0
TEXT
  5
18B
330
2
100
AcDbEntity
  8
MOJI1
100
AcDbText
 10
-58.60287615604716
 20
-26.97221741163844
 30
0.0
 40
3.0
  1
ズーム
100
AcDbText
  0
TEXT
  5
18C
330
2
100
AcDbEntity
  8
MOJI1
100
AcDbText
 10
-18.60287615604716
 20
-26.97221741163844
 30
0.0
 40
3.0
  1
デジタルズーム３倍
100
AcDbText
  0
TEXT
  5
18D
330
2
100
AcDbEntity
  8
MOJI1
100
AcDbText
 10
-18.60287615604716
 20
-36.97221741163844
 30
0.0
 40
3.0
  1
(カラーナイトビューモー時：０．４～１０００００ルクス)
 41
0.8
100
AcDbText
  0
LINE
  5
18E
330
2
100
AcDbEntity
  8
WAKU
 62
     1
100
AcDbLine
 10
63.89712384395284
 20
-42.97221741163844
 30
0.0
 11
-61.10287615604716
 21
-42.97221741163844
 31
0.0
  0
TEXT
  5
18F
330
2
100
AcDbEntity
  8
MOJI1
100
AcDbText
 10
-58.60287615604716
 20
-61.97221741163843
 30
0.0
 40
3.0
  1
画像圧縮方式
100
AcDbText
  0
LINE
  5
190
330
2
100
AcDbEntity
  8
WAKU
 62
     1
100
AcDbLine
 10
63.89712384395284
 20
-52.97221741163844
 30
0.0
 11
-61.10287615604716
 21
-52.97221741163844
 31
0.0
  0
LINE
  5
191
330
2
100
AcDbEntity
  8
WAKU
 62
     1
100
AcDbLine
 10
63.89712384395284
 20
-47.97221741163844
 30
0.0
 11
-61.10287615604716
 21
-47.97221741163844
 31
0.0
  0
LINE
  5
192
330
2
100
AcDbEntity
  8
WAKU
 62
     4
100
AcDbLine
 10
-61.10287615604716
 20
-62.97221741163844
 30
0.0
 11
63.89712384395284
 21
-62.97221741163844
 31
0.0
  0
TEXT
  5
193
330
2
100
AcDbEntity
  8
MOJI1
100
AcDbText
 10
-58.60287615604716
 20
-51.97221741163843
 30
0.0
 40
3.0
  1
ＳＤ／ＳＤＨＣスロット
 41
0.9
100
AcDbText
  0
TEXT
  5
194
330
2
100
AcDbEntity
  8
MOJI1
100
AcDbText
 10
-18.60287615604716
 20
-51.97221741163843
 30
0.0
 40
3.0
  1
専用ＳＤ／ＳＤＨＣメモリーカードとして
100
AcDbText
  0
TEXT
  5
195
330
2
100
AcDbEntity
  8
MOJI1
100
AcDbText
 10
-58.60287615604716
 20
-41.97221741163843
 30
0.0
 40
3.0
  1
パン・チルト角度
100
AcDbText
  0
TEXT
  5
196
330
2
100
AcDbEntity
  8
MOJI1
100
AcDbText
 10
-18.60287615604716
 20
-41.97221741163843
 30
0.0
 40
3.0
  1
パン：－５２°～＋５２°(壁設置時)
 41
0.8
100
AcDbText
  0
TEXT
  5
197
330
2
100
AcDbEntity
  8
MOJI1
100
AcDbText
 10
-17.60287615604716
 20
-16.97221741163844
 30
0.0
 40
3.0
  1
ＰｏＥ給電（ＩＥＥＥ８０２．３ａｆ準拠）
 41
0.9
100
AcDbText
  0
LINE
  5
198
330
2
100
AcDbEntity
  8
WAKU
 62
     4
100
AcDbLine
 10
-20.89729492552874
 20
-62.97221741163821
 30
0.0
 11
-20.89729492552874
 21
-7.972217411638212
 31
0.0
  0
LINE
  5
199
330
2
100
AcDbEntity
  8
WAKU
 62
     4
100
AcDbLine
 10
63.89712384395284
 20
-62.97221741163844
 30
0.0
 11
63.89712384395284
 21
-7.972217411638439
 31
0.0
  0
LINE
  5
19A
330
2
100
AcDbEntity
  8
WAKU
 62
     4
100
AcDbLine
 10
-61.10287615604716
 20
-7.972217411638439
 30
0.0
 11
-61.10287615604716
 21
-62.97221741163844
 31
0.0
  0
LINE
  5
19B
330
2
100
AcDbEntity
  8
WAKU
 62
     1
100
AcDbLine
 10
63.89712384395284
 20
-12.97221741163844
 30
0.0
 11
-61.10287615604716
 21
-12.97221741163844
 31
0.0
  0
LINE
  5
19C
330
2
100
AcDbEntity
  8
WAKU
 62
     4
100
AcDbLine
 10
63.89712384395284
 20
-7.972217411638439
 30
0.0
 11
-61.10287615604716
 21
-7.972217411638439
 31
0.0
  0
LINE
  5
19D
330
2
100
AcDbEntity
  8
WAKU
 62
     1
100
AcDbLine
 10
63.89712384395284
 20
-17.97221741163844
 30
0.0
 11
-61.10287615604716
 21
-17.97221741163844
 31
0.0
  0
LINE
  5
19E
330
2
100
AcDbEntity
  8
WAKU
 62
     1
100
AcDbLine
 10
63.89712384395284
 20
-22.97221741163844
 30
0.0
 11
-61.10287615604716
 21
-22.97221741163844
 31
0.0
  0
LINE
  5
19F
330
2
100
AcDbEntity
  8
WAKU
 62
     1
100
AcDbLine
 10
63.89712384395284
 20
-27.97221741163844
 30
0.0
 11
-61.10287615604716
 21
-27.97221741163844
 31
0.0
  0
LINE
  5
1A0
330
2
100
AcDbEntity
  8
WAKU
 62
     1
100
AcDbLine
 10
63.89712384395284
 20
-32.97221741163844
 30
0.0
 11
-61.10287615604716
 21
-32.97221741163844
 31
0.0
  0
TEXT
  5
1A1
330
2
100
AcDbEntity
  8
MOJI1
100
AcDbText
 10
-58.60287615604716
 20
-11.97221741163844
 30
0.0
 40
3.0
  1
電　源
100
AcDbText
  0
TEXT
  5
1A2
330
2
100
AcDbEntity
  8
MOJI1
100
AcDbText
 10
-18.60287615604716
 20
-31.97221741163844
 30
0.0
 40
3.0
  1
１．５～１０００００ルクス
100
AcDbText
  0
TEXT
  5
1A3
330
2
100
AcDbEntity
  8
MOJI1
100
AcDbText
 10
-58.60287615604716
 20
-31.97221741163844
 30
0.0
 40
3.0
  1
対応照度
100
AcDbText
  0
TEXT
  5
1A4
330
2
100
AcDbEntity
  8
MOJI1
100
AcDbText
 10
-58.60287615604716
 20
-21.97221741163844
 30
0.0
 40
3.0
  1
撮像素子
100
AcDbText
  0
TEXT
  5
1A5
330
2
100
AcDbEntity
  8
MOJI1
100
AcDbText
 10
-18.60287615604716
 20
-21.97221741163844
 30
0.0
 40
3.0
  1
１／５インチ 約３２万画素 ＣＭＯＳ
 41
0.9
100
AcDbText
  0
TEXT
  5
1A6
330
2
100
AcDbEntity
  8
MOJI1
100
AcDbText
 10
-17.60287615604716
 20
-11.97221741163844
 30
0.0
 40
3.0
  1
専用ＡＣアダプタ　ＤＣ１２Ｖ
100
AcDbText
  0
LINE
  5
1A7
330
2
100
AcDbEntity
  8
WAKU
 62
     1
100
AcDbLine
 10
63.89712384395284
 20
-37.97221741163844
 30
0.0
 11
-61.10287615604716
 21
-37.97221741163844
 31
0.0
  0
ENDSEC
  0
SECTION
  2
OBJECTS
  0
DICTIONARY
  5
7
330
0
100
AcDbDictionary
281
     1
  3
ACAD_COLOR
350
2C
  3
ACAD_GROUP
350
28
  3
ACAD_LAYOUT
350
B
  3
ACAD_MATERIAL
350
2B
  3
ACAD_MLINESTYLE
350
29
  3
ACAD_PLOTSETTINGS
350
2A
  3
ACAD_PLOTSTYLENAME
350
6
  3
ACDBHEADERROUNDTRIPXREC
350
1D8
  3
AcDbVariableDictionary
350
1D3
  0
DICTIONARY
  5
11
330
10
100
AcDbDictionary
280
     1
281
     1
  3
ACAD_LAYERSTATES
360
12
  0
DICTIONARY
  5
2C
102
{ACAD_REACTORS
330
7
102
}
330
7
100
AcDbDictionary
281
     1
  0
DICTIONARY
  5
28
102
{ACAD_REACTORS
330
7
102
}
330
7
100
AcDbDictionary
281
     1
  0
DICTIONARY
  5
B
102
{ACAD_REACTORS
330
7
102
}
330
7
100
AcDbDictionary
281
     1
  3
Model
350
A
  3
レイアウト1
350
F
  0
DICTIONARY
  5
2B
102
{ACAD_REACTORS
330
7
102
}
330
7
100
AcDbDictionary
281
     1
  0
DICTIONARY
  5
29
102
{ACAD_REACTORS
330
7
102
}
330
7
100
AcDbDictionary
281
     1
  3
Standard
350
2E
  0
DICTIONARY
  5
2A
102
{ACAD_REACTORS
330
7
102
}
330
7
100
AcDbDictionary
281
     1
  0
ACDBDICTIONARYWDFLT
  5
6
102
{ACAD_REACTORS
330
7
102
}
330
7
100
AcDbDictionary
281
     1
  3
Normal
350
5
100
AcDbDictionaryWithDefault
340
5
  0
DICTIONARY
  5
1D8
102
{ACAD_REACTORS
330
7
102
}
330
7
100
AcDbDictionary
281
     1
  3
COLORDICT
350
1DA
  3
MATERIALDICT
350
1D9
  0
DICTIONARY
  5
1D3
102
{ACAD_REACTORS
330
7
102
}
330
7
100
AcDbDictionary
281
     1
  3
DIMASSOC
350
1D5
  3
HIDETEXT
350
1D4
  3
PROJECTNAME
350
1D6
  0
DICTIONARY
  5
12
102
{ACAD_REACTORS
330
11
102
}
330
11
100
AcDbDictionary
281
     1
  0
LAYOUT
  5
A
102
{ACAD_XDICTIONARY
360
1DB
102
}
102
{ACAD_REACTORS
330
B
102
}
330
B
100
AcDbPlotSettings
  1

  2
10F03C_XEROX_APIII_C5500
  4
A4
  6

 40
4.857749938964843
 41
4.942390441894531
 42
4.942413330078125
 43
4.857757568359375
 44
209.9733276367187
 45
297.0106506347656
 46
5.61
 47
0.0
 48
0.0
 49
0.0
140
0.0
141
0.0
142
1.0
143
1.3709178523964
 70
 11956
 72
     1
 73
     0
 74
     1
  7
全て黄色設定.ctb
 75
     0
147
0.7294383089781592
148
0.0213653277932053
149
0.0009175234454233
100
AcDbLayout
  1
Model
 70
     1
 71
     0
 10
0.0
 20
0.0
 11
12.0
 21
9.0
 12
0.0
 22
0.0
 32
0.0
 14
0.0
 24
0.0
 34
0.0
 15
0.0
 25
0.0
 35
0.0
146
0.0
 13
0.0
 23
0.0
 33
0.0
 16
1.0
 26
0.0
 36
0.0
 17
0.0
 27
1.0
 37
0.0
 76
     0
330
2
  0
LAYOUT
  5
F
102
{ACAD_XDICTIONARY
360
1DD
102
}
102
{ACAD_REACTORS
330
B
102
}
330
B
100
AcDbPlotSettings
  1

  2
None
  4

  6

 40
0.0
 41
0.0
 42
0.0
 43
0.0
 44
0.0
 45
0.0
 46
0.0
 47
0.0
 48
0.0
 49
0.0
140
0.0
141
0.0
142
1.0
143
1.0
 70
   688
 72
     0
 73
     0
 74
     5
  7
tmsacad.ctb
 75
    16
147
1.0
148
0.0
149
0.0
100
AcDbLayout
  1
レイアウト1
 70
     1
 71
     1
 10
0.0
 20
0.0
 11
12.0
 21
9.0
 12
0.0
 22
0.0
 32
0.0
 14
0.0
 24
0.0
 34
0.0
 15
0.0
 25
0.0
 35
0.0
146
0.0
 13
0.0
 23
0.0
 33
0.0
 16
1.0
 26
0.0
 36
0.0
 17
0.0
 27
1.0
 37
0.0
 76
     0
330
C
  0
MLINESTYLE
  5
2E
102
{ACAD_REACTORS
330
29
102
}
330
29
100
AcDbMlineStyle
  2
STANDARD
 70
     0
  3

 62
   256
 51
90.0
 52
90.0
 71
     2
 49
0.5
 62
   256
  6
BYLAYER
 49
-0.5
 62
   256
  6
BYLAYER
  0
ACDBPLACEHOLDER
  5
5
102
{ACAD_REACTORS
330
6
102
}
330
6
  0
XRECORD
  5
1DA
102
{ACAD_REACTORS
330
1D8
102
}
330
1D8
100
AcDbXrecord
280
     1
340
2C
  0
XRECORD
  5
1D9
102
{ACAD_REACTORS
330
1D8
102
}
330
1D8
100
AcDbXrecord
280
     1
340
2B
  0
DICTIONARYVAR
  5
1D5
102
{ACAD_REACTORS
330
1D3
102
}
330
1D3
100
DictionaryVariables
280
     0
  1
1
  0
DICTIONARYVAR
  5
1D4
102
{ACAD_REACTORS
330
1D3
102
}
330
1D3
100
DictionaryVariables
280
     0
  1
1
  0
DICTIONARYVAR
  5
1D6
102
{ACAD_REACTORS
330
1D3
102
}
330
1D3
100
DictionaryVariables
280
     0
  1

  0
DICTIONARY
  5
1DB
330
A
100
AcDbDictionary
280
     1
281
     1
  3
ACAD_XREC_ROUNDTRIP
360
1DC
  0
DICTIONARY
  5
1DD
330
F
100
AcDbDictionary
280
     1
281
     1
  3
ACAD_XREC_ROUNDTRIP
360
1DE
  0
XRECORD
  5
1DC
102
{ACAD_REACTORS
330
1DB
102
}
330
1DB
100
AcDbXrecord
280
     1
102
SHADEPLOT
 70
     0
102
SHADEPLOTRESLEVEL
 70
     2
102
SHADEPLOTCUSTOMDPI
 70
   150
  0
XRECORD
  5
1DE
102
{ACAD_REACTORS
330
1DD
102
}
330
1DD
100
AcDbXrecord
280
     1
102
SHADEPLOT
 70
     0
102
SHADEPLOTRESLEVEL
 70
     2
102
SHADEPLOTCUSTOMDPI
 70
   300
  0
ENDSEC
  0
EOF
