  0
SECTION
  2
HEADER
  9
$ACADVER
  1
AC1015
  9
$ACADMAINTVER
 70
    20
  9
$DWGCODEPAGE
  3
ANSI_932
  9
$INSBASE
 10
0.4999999440410648
 20
246.5008351249344
 30
0.0
  9
$EXTMIN
 10
-61.40808014828713
 20
-64.42945800166285
 30
-0.0015258207003583
  9
$EXTMAX
 10
63.62548884426416
 20
49.04832498781423
 30
0.0000000349246037
  9
$LIMMIN
 10
0.0
 20
0.0
  9
$LIMMAX
 10
420.0
 20
297.0
  9
$ORTHOMODE
 70
     1
  9
$REGENMODE
 70
     0
  9
$FILLMODE
 70
     1
  9
$QTEXTMODE
 70
     0
  9
$MIRRTEXT
 70
     0
  9
$LTSCALE
 40
1.0
  9
$ATTMODE
 70
     1
  9
$TEXTSIZE
 40
2.5
  9
$TRACEWID
 40
1.0
  9
$TEXTSTYLE
  7
Standard
  9
$CLAYER
  8
GAIKEI
  9
$CELTYPE
  6
ByLayer
  9
$CECOLOR
 62
   256
  9
$CELTSCALE
 40
1.0
  9
$DISPSILH
 70
     0
  9
$DIMSCALE
 40
1.0
  9
$DIMASZ
 40
2.0
  9
$DIMEXO
 40
2.0
  9
$DIMDLI
 40
8.0
  9
$DIMRND
 40
0.0
  9
$DIMDLE
 40
0.0
  9
$DIMEXE
 40
2.0
  9
$DIMTP
 40
0.0
  9
$DIMTM
 40
0.0
  9
$DIMTXT
 40
2.5
  9
$DIMCEN
 40
0.0
  9
$DIMTSZ
 40
0.0
  9
$DIMTOL
 70
     0
  9
$DIMLIM
 70
     0
  9
$DIMTIH
 70
     0
  9
$DIMTOH
 70
     0
  9
$DIMSE1
 70
     0
  9
$DIMSE2
 70
     0
  9
$DIMTAD
 70
     3
  9
$DIMZIN
 70
     0
  9
$DIMBLK
  1

  9
$DIMASO
 70
     1
  9
$DIMSHO
 70
     1
  9
$DIMPOST
  1

  9
$DIMAPOST
  1

  9
$DIMALT
 70
     0
  9
$DIMALTD
 70
     2
  9
$DIMALTF
 40
25.4
  9
$DIMLFAC
 40
1.0
  9
$DIMTOFL
 70
     1
  9
$DIMTVP
 40
0.0
  9
$DIMTIX
 70
     0
  9
$DIMSOXD
 70
     0
  9
$DIMSAH
 70
     1
  9
$DIMBLK1
  1
OPEN30
  9
$DIMBLK2
  1
OPEN30
  9
$DIMSTYLE
  2
STANDARD
  9
$DIMCLRD
 70
     0
  9
$DIMCLRE
 70
     0
  9
$DIMCLRT
 70
     0
  9
$DIMTFAC
 40
1.0
  9
$DIMGAP
 40
0.5
  9
$DIMJUST
 70
     0
  9
$DIMSD1
 70
     0
  9
$DIMSD2
 70
     0
  9
$DIMTOLJ
 70
     1
  9
$DIMTZIN
 70
     0
  9
$DIMALTZ
 70
     0
  9
$DIMALTTZ
 70
     0
  9
$DIMUPT
 70
     0
  9
$DIMDEC
 70
     4
  9
$DIMTDEC
 70
     4
  9
$DIMALTU
 70
     2
  9
$DIMALTTD
 70
     2
  9
$DIMTXSTY
  7
Standard
  9
$DIMAUNIT
 70
     0
  9
$DIMADEC
 70
     0
  9
$DIMALTRND
 40
0.0
  9
$DIMAZIN
 70
     0
  9
$DIMDSEP
 70
    46
  9
$DIMATFIT
 70
     3
  9
$DIMFRAC
 70
     0
  9
$DIMLDRBLK
  1
OPEN30
  9
$DIMLUNIT
 70
     2
  9
$DIMLWD
 70
    -2
  9
$DIMLWE
 70
    -2
  9
$DIMTMOVE
 70
     0
  9
$LUNITS
 70
     2
  9
$LUPREC
 70
     4
  9
$SKETCHINC
 40
1.0
  9
$FILLETRAD
 40
0.0
  9
$AUNITS
 70
     0
  9
$AUPREC
 70
     0
  9
$MENU
  1
.
  9
$ELEVATION
 40
0.0
  9
$PELEVATION
 40
0.0
  9
$THICKNESS
 40
0.0
  9
$LIMCHECK
 70
     0
  9
$CHAMFERA
 40
0.0
  9
$CHAMFERB
 40
0.0
  9
$CHAMFERC
 40
0.0
  9
$CHAMFERD
 40
0.0
  9
$SKPOLY
 70
     0
  9
$TDCREATE
 40
2454349.434269746
  9
$TDUCREATE
 40
2454349.059269746
  9
$TDUPDATE
 40
2455631.673840903
  9
$TDUUPDATE
 40
2455631.298840903
  9
$TDINDWG
 40
0.3897429167
  9
$TDUSRTIMER
 40
0.3897429167
  9
$USRTIMER
 70
     1
  9
$ANGBASE
 50
0.0
  9
$ANGDIR
 70
     0
  9
$PDMODE
 70
     0
  9
$PDSIZE
 40
0.0
  9
$PLINEWID
 40
0.0
  9
$SPLFRAME
 70
     0
  9
$SPLINETYPE
 70
     6
  9
$SPLINESEGS
 70
     8
  9
$HANDSEED
  5
1DF
  9
$SURFTAB1
 70
     6
  9
$SURFTAB2
 70
     6
  9
$SURFTYPE
 70
     6
  9
$SURFU
 70
     6
  9
$SURFV
 70
     6
  9
$UCSBASE
  2

  9
$UCSNAME
  2

  9
$UCSORG
 10
0.0
 20
0.0
 30
0.0
  9
$UCSXDIR
 10
1.0
 20
0.0
 30
0.0
  9
$UCSYDIR
 10
0.0
 20
1.0
 30
0.0
  9
$UCSORTHOREF
  2

  9
$UCSORTHOVIEW
 70
     0
  9
$UCSORGTOP
 10
0.0
 20
0.0
 30
0.0
  9
$UCSORGBOTTOM
 10
0.0
 20
0.0
 30
0.0
  9
$UCSORGLEFT
 10
0.0
 20
0.0
 30
0.0
  9
$UCSORGRIGHT
 10
0.0
 20
0.0
 30
0.0
  9
$UCSORGFRONT
 10
0.0
 20
0.0
 30
0.0
  9
$UCSORGBACK
 10
0.0
 20
0.0
 30
0.0
  9
$PUCSBASE
  2

  9
$PUCSNAME
  2

  9
$PUCSORG
 10
0.0
 20
0.0
 30
0.0
  9
$PUCSXDIR
 10
1.0
 20
0.0
 30
0.0
  9
$PUCSYDIR
 10
0.0
 20
1.0
 30
0.0
  9
$PUCSORTHOREF
  2

  9
$PUCSORTHOVIEW
 70
     0
  9
$PUCSORGTOP
 10
0.0
 20
0.0
 30
0.0
  9
$PUCSORGBOTTOM
 10
0.0
 20
0.0
 30
0.0
  9
$PUCSORGLEFT
 10
0.0
 20
0.0
 30
0.0
  9
$PUCSORGRIGHT
 10
0.0
 20
0.0
 30
0.0
  9
$PUCSORGFRONT
 10
0.0
 20
0.0
 30
0.0
  9
$PUCSORGBACK
 10
0.0
 20
0.0
 30
0.0
  9
$USERI1
 70
     0
  9
$USERI2
 70
     0
  9
$USERI3
 70
     0
  9
$USERI4
 70
     0
  9
$USERI5
 70
     0
  9
$USERR1
 40
0.0
  9
$USERR2
 40
0.0
  9
$USERR3
 40
0.0
  9
$USERR4
 40
0.0
  9
$USERR5
 40
0.0
  9
$WORLDVIEW
 70
     1
  9
$SHADEDGE
 70
     3
  9
$SHADEDIF
 70
    70
  9
$TILEMODE
 70
     1
  9
$MAXACTVP
 70
    64
  9
$PINSBASE
 10
0.0
 20
0.0
 30
0.0
  9
$PLIMCHECK
 70
     0
  9
$PEXTMIN
 10
0.0
 20
0.0
 30
0.0
  9
$PEXTMAX
 10
0.0
 20
0.0
 30
0.0
  9
$PLIMMIN
 10
0.0
 20
0.0
  9
$PLIMMAX
 10
12.0
 20
9.0
  9
$UNITMODE
 70
     0
  9
$VISRETAIN
 70
     1
  9
$PLINEGEN
 70
     0
  9
$PSLTSCALE
 70
     1
  9
$TREEDEPTH
 70
  3020
  9
$CMLSTYLE
  2
Standard
  9
$CMLJUST
 70
     0
  9
$CMLSCALE
 40
20.0
  9
$PROXYGRAPHICS
 70
     1
  9
$MEASUREMENT
 70
     1
  9
$CELWEIGHT
370
    -1
  9
$ENDCAPS
280
     0
  9
$JOINSTYLE
280
     0
  9
$LWDISPLAY
290
     0
  9
$INSUNITS
 70
     4
  9
$HYPERLINKBASE
  1

  9
$STYLESHEET
  1

  9
$XEDIT
290
     1
  9
$CEPSNTYPE
380
     0
  9
$PSTYLEMODE
290
     1
  9
$FINGERPRINTGUID
  2
{FDEAD578-A652-11D2-9A35-0060089B3A3F}
  9
$VERSIONGUID
  2
{D1C9312D-B944-4C43-8A3A-ED5D8D383954}
  9
$EXTNAMES
290
     1
  9
$PSVPSCALE
 40
0.0
  9
$OLESTARTUP
290
     0
  0
ENDSEC
  0
SECTION
  2
CLASSES
  0
CLASS
  1
ACDBDICTIONARYWDFLT
  2
AcDbDictionaryWithDefault
  3
ObjectDBX Classes
 90
        0
280
     0
281
     0
  0
CLASS
  1
ACDBPLACEHOLDER
  2
AcDbPlaceHolder
  3
ObjectDBX Classes
 90
        0
280
     0
281
     0
  0
CLASS
  1
LAYOUT
  2
AcDbLayout
  3
ObjectDBX Classes
 90
        0
280
     0
281
     0
  0
CLASS
  1
DICTIONARYVAR
  2
AcDbDictionaryVar
  3
ObjectDBX Classes
 90
        0
280
     0
281
     0
  0
CLASS
  1
DIMASSOC
  2
AcDbDimAssoc
  3
"AcDbDimAssoc|Product Desc:     AcDim ARX App For Dimension|Company:          Autodesk, Inc.|WEB Address:      www.autodesk.com"
 90
    32768
280
     1
281
     0
  0
ENDSEC
  0
SECTION
  2
TABLES
  0
TABLE
  2
VPORT
  5
1B
330
0
100
AcDbSymbolTable
 70
     3
  0
VPORT
  5
1D7
330
1B
100
AcDbSymbolTableRecord
100
AcDbViewportTableRecord
  2
*Active
 70
     0
 10
0.0
 20
0.0
 11
1.0
 21
1.0
 12
1.108704347988528
 22
-7.690566506924312
 13
0.0
 23
0.0
 14
10.0
 24
10.0
 15
10.0
 25
10.0
 16
0.0
 26
0.0
 36
1.0
 17
0.0
 27
0.0
 37
0.0
 40
114.3320699379549
 41
2.170854271356783
 42
50.0
 43
0.0
 44
0.0
 50
0.0
 51
0.0
 71
     0
 72
  1000
 73
     1
 74
     2
 75
     0
 76
     0
 77
     0
 78
     0
281
     0
 65
     1
110
0.0
120
0.0
130
0.0
111
1.0
121
0.0
131
0.0
112
0.0
122
1.0
132
0.0
 79
     0
146
0.0
  0
ENDTAB
  0
TABLE
  2
LTYPE
  5
16
330
0
100
AcDbSymbolTable
 70
     1
  0
LTYPE
  5
17
330
16
100
AcDbSymbolTableRecord
100
AcDbLinetypeTableRecord
  2
ByBlock
 70
     0
  3

 72
    65
 73
     0
 40
0.0
  0
LTYPE
  5
18
330
16
100
AcDbSymbolTableRecord
100
AcDbLinetypeTableRecord
  2
ByLayer
 70
     0
  3

 72
    65
 73
     0
 40
0.0
  0
LTYPE
  5
8
330
16
100
AcDbSymbolTableRecord
100
AcDbLinetypeTableRecord
  2
Continuous
 70
     0
  3
Solid line
 72
    65
 73
     0
 40
0.0
  0
ENDTAB
  0
TABLE
  2
LAYER
  5
10
102
{ACAD_XDICTIONARY
360
11
102
}
330
0
100
AcDbSymbolTable
 70
     7
  0
LAYER
  5
4
330
10
100
AcDbSymbolTableRecord
100
AcDbLayerTableRecord
  2
0
 70
     0
 62
     7
  6
Continuous
370
    -3
390
5
  0
LAYER
  5
187
330
10
100
AcDbSymbolTableRecord
100
AcDbLayerTableRecord
  2
WAKU
 70
     0
 62
     4
  6
Continuous
370
    -3
390
5
  0
LAYER
  5
30
330
10
100
AcDbSymbolTableRecord
100
AcDbLayerTableRecord
  2
MOJI1
 70
     0
 62
     2
  6
Continuous
370
    -3
390
5
  0
LAYER
  5
32
330
10
100
AcDbSymbolTableRecord
100
AcDbLayerTableRecord
  2
TOUROKU
 70
     0
 62
     1
  6
Continuous
370
    -3
390
5
  0
LAYER
  5
175
330
10
100
AcDbSymbolTableRecord
100
AcDbLayerTableRecord
  2
Defpoints
 70
     0
 62
     7
  6
Continuous
290
     0
370
    -3
390
5
  0
LAYER
  5
2D
330
10
100
AcDbSymbolTableRecord
100
AcDbLayerTableRecord
  2
GAIKEI
 70
     0
 62
     7
  6
Continuous
370
    -3
390
5
  0
LAYER
  5
16B
330
10
100
AcDbSymbolTableRecord
100
AcDbLayerTableRecord
  2
SUNPO
 70
     0
 62
     3
  6
Continuous
370
    -3
390
5
  0
ENDTAB
  0
TABLE
  2
STYLE
  5
13
330
0
100
AcDbSymbolTable
 70
     1
  0
STYLE
  5
14
330
13
100
AcDbSymbolTableRecord
100
AcDbTextStyleTableRecord
  2
Standard
 70
     0
 40
0.0
 41
1.0
 50
0.0
 71
     0
 42
2.5
  3
MONOTXT.shx
  4
BIGFONT.shx
  0
ENDTAB
  0
TABLE
  2
VIEW
  5
19
330
0
100
AcDbSymbolTable
 70
     0
  0
ENDTAB
  0
TABLE
  2
UCS
  5
1A
330
0
100
AcDbSymbolTable
 70
     0
  0
ENDTAB
  0
TABLE
  2
APPID
  5
1D
330
0
100
AcDbSymbolTable
 70
     1
  0
APPID
  5
1E
330
1D
100
AcDbSymbolTableRecord
100
AcDbRegAppTableRecord
  2
ACAD
 70
     0
  0
ENDTAB
  0
TABLE
  2
DIMSTYLE
  5
1F
330
0
100
AcDbSymbolTable
 70
     1
100
AcDbDimStyleTable
 71
     1
340
20
  0
DIMSTYLE
105
20
102
{ACAD_REACTORS
330
16A
330
179
102
}
330
1F
100
AcDbSymbolTableRecord
100
AcDbDimStyleTableRecord
  2
STANDARD
 70
     0
 40
0.0
 41
2.0
 42
2.0
 43
8.0
 44
2.0
 73
     0
 74
     0
 77
     3
140
3.0
141
0.0
173
     1
279
     2
288
     1
340
14
341
21
343
21
344
21
  0
ENDTAB
  0
TABLE
  2
BLOCK_RECORD
  5
1
330
0
100
AcDbSymbolTable
 70
     5
  0
BLOCK_RECORD
  5
2
330
1
100
AcDbSymbolTableRecord
100
AcDbBlockTableRecord
  2
*Model_Space
340
A
  0
BLOCK_RECORD
  5
C
330
1
100
AcDbSymbolTableRecord
100
AcDbBlockTableRecord
  2
*Paper_Space
340
F
  0
BLOCK_RECORD
  5
21
330
1
100
AcDbSymbolTableRecord
100
AcDbBlockTableRecord
  2
_OPEN30
340
0
102
{BLKREFS
331
171
331
172
331
17F
331
180
331
1BF
331
1C0
331
1CB
331
1CC
102
}
  0
BLOCK_RECORD
  5
16C
330
1
100
AcDbSymbolTableRecord
100
AcDbBlockTableRecord
  2
*D1
340
0
  0
BLOCK_RECORD
  5
17A
330
1
100
AcDbSymbolTableRecord
100
AcDbBlockTableRecord
  2
*D2
340
0
  0
BLOCK_RECORD
  5
1BB
330
1
100
AcDbSymbolTableRecord
100
AcDbBlockTableRecord
  2
*D3
340
0
  0
BLOCK_RECORD
  5
1C7
330
1
100
AcDbSymbolTableRecord
100
AcDbBlockTableRecord
  2
*D4
340
0
  0
ENDTAB
  0
ENDSEC
  0
SECTION
  2
BLOCKS
  0
BLOCK
  5
3
330
2
100
AcDbEntity
  8
0
100
AcDbBlockBegin
  2
*Model_Space
 70
     0
 10
0.0
 20
0.0
 30
0.0
  3
*Model_Space
  1

  0
ENDBLK
  5
9
330
2
100
AcDbEntity
  8
0
100
AcDbBlockEnd
  0
BLOCK
  5
D
330
C
100
AcDbEntity
 67
     1
  8
0
100
AcDbBlockBegin
  2
*Paper_Space
 70
     0
 10
0.0
 20
0.0
 30
0.0
  3
*Paper_Space
  1

  0
ENDBLK
  5
E
330
C
100
AcDbEntity
 67
     1
  8
0
100
AcDbBlockEnd
  0
BLOCK
  5
22
330
21
100
AcDbEntity
  8
0
100
AcDbBlockBegin
  2
_OPEN30
 70
     0
 10
0.0
 20
0.0
 30
0.0
  3
_OPEN30
  1

  0
LINE
  5
23
330
21
100
AcDbEntity
  8
0
  6
ByBlock
 62
     0
100
AcDbLine
 10
-1.0
 20
0.26794919
 30
0.0
 11
0.0
 21
0.0
 31
0.0
  0
LINE
  5
24
330
21
100
AcDbEntity
  8
0
  6
ByBlock
 62
     0
100
AcDbLine
 10
0.0
 20
0.0
 30
0.0
 11
-1.0
 21
-0.26794919
 31
0.0
  0
LINE
  5
25
330
21
100
AcDbEntity
  8
0
  6
ByBlock
 62
     0
100
AcDbLine
 10
0.0
 20
0.0
 30
0.0
 11
-1.0
 21
0.0
 31
0.0
  0
ENDBLK
  5
26
330
21
100
AcDbEntity
  8
0
100
AcDbBlockEnd
  0
BLOCK
  5
16D
330
16C
100
AcDbEntity
  8
0
100
AcDbBlockBegin
  2
*D1
 70
     1
 10
0.0
 20
0.0
 30
0.0
  3
*D1
  1

  0
LINE
  5
16E
330
16C
100
AcDbEntity
  8
SUNPO
 62
     0
370
    -2
100
AcDbLine
 10
31.44732936095802
 20
221.1333675685287
 30
0.0
 11
31.44732936095802
 21
229.1333675685287
 31
0.0
  0
LINE
  5
16F
330
16C
100
AcDbEntity
  8
SUNPO
 62
     0
370
    -2
100
AcDbLine
 10
53.64732936095801
 20
221.1333675685287
 30
0.0
 11
53.64732936095801
 21
229.1333675685287
 31
0.0
  0
LINE
  5
170
330
16C
100
AcDbEntity
  8
SUNPO
 62
     0
370
    -2
100
AcDbLine
 10
33.44732936095802
 20
227.1333675685287
 30
0.0
 11
51.64732936095802
 21
227.1333675685287
 31
0.0
  0
INSERT
  5
171
330
16C
100
AcDbEntity
  8
SUNPO
 62
     0
370
    -2
100
AcDbBlockReference
  2
_OPEN30
 10
31.44732936095802
 20
227.1333675685287
 30
0.0
 41
2.0
 42
2.0
 43
2.0
 50
180.0
  0
INSERT
  5
172
330
16C
100
AcDbEntity
  8
SUNPO
 62
     0
370
    -2
100
AcDbBlockReference
  2
_OPEN30
 10
53.64732936095801
 20
227.1333675685287
 30
0.0
 41
2.0
 42
2.0
 43
2.0
  0
MTEXT
  5
173
330
16C
100
AcDbEntity
  8
SUNPO
 62
     0
100
AcDbMText
 10
42.54732936095801
 20
228.8833675685287
 30
0.0
 40
2.5
 41
0.0
 71
     5
 72
     1
  1
\A1;φ111
 73
     1
 44
1.0
1001
ACAD
1000
MTEXTBEGIN
1070
    73
1070
     1
1070
    44
1040
1.0
1070
    74
1070
     0
1000
MTEXTEND
  0
POINT
  5
174
330
16C
100
AcDbEntity
  8
Defpoints
 62
     0
100
AcDbPoint
 10
31.44732936095802
 20
219.1333675685287
 30
0.0
  0
POINT
  5
176
330
16C
100
AcDbEntity
  8
Defpoints
 62
     0
100
AcDbPoint
 10
53.64732936095801
 20
219.1333675685287
 30
0.0
  0
POINT
  5
177
330
16C
100
AcDbEntity
  8
Defpoints
 62
     0
100
AcDbPoint
 10
53.64732936095801
 20
227.1333675685287
 30
0.0
  0
ENDBLK
  5
178
330
16C
100
AcDbEntity
  8
0
100
AcDbBlockEnd
  0
BLOCK
  5
17B
330
17A
100
AcDbEntity
  8
0
100
AcDbBlockBegin
  2
*D2
 70
     1
 10
0.0
 20
0.0
 30
0.0
  3
*D2
  1

  0
LINE
  5
17C
330
17A
100
AcDbEntity
  8
SUNPO
 62
     0
370
    -2
100
AcDbLine
 10
73.37421134663661
 20
221.1326694670872
 30
0.0
 11
73.37414200714182
 21
229.1326694664864
 31
0.0
  0
LINE
  5
17D
330
17A
100
AcDbEntity
  8
SUNPO
 62
     0
370
    -2
100
AcDbLine
 10
87.97416292784523
 20
221.1327960112455
 30
0.0
 11
87.97409358835045
 21
229.1327960106447
 31
0.0
  0
LINE
  5
17E
330
17A
100
AcDbEntity
  8
SUNPO
 62
     0
370
    -2
100
AcDbLine
 10
75.3741593419404
 20
227.1326868014352
 30
0.0
 11
85.97411092329927
 21
227.1327786758461
 31
0.0
  0
INSERT
  5
17F
330
17A
100
AcDbEntity
  8
SUNPO
 62
     0
370
    -2
100
AcDbBlockReference
  2
_OPEN30
 10
73.37415934201551
 20
227.1326694665615
 30
0.0
 41
2.0
 42
2.0
 43
2.0
 50
180.0004966075506
  0
INSERT
  5
180
330
17A
100
AcDbEntity
  8
SUNPO
 62
     0
370
    -2
100
AcDbBlockReference
  2
_OPEN30
 10
87.97411092322414
 20
227.1327960107198
 30
0.0
 41
2.0
 42
2.0
 43
2.0
 50
0.0004966075506004
  0
MTEXT
  5
181
330
17A
100
AcDbEntity
  8
SUNPO
 62
     0
100
AcDbMText
 10
80.67411996460535
 20
228.8827327385749
 30
0.0
 40
2.5
 41
0.0
 71
     5
 72
     1
  1
\A1;73
 11
0.9999999999624378
 21
0.0000086674368481
 31
0.0
 73
     1
 44
1.0
1001
ACAD
1000
MTEXTBEGIN
1070
    73
1070
     1
1070
    44
1040
1.0
1070
    74
1070
     0
1000
MTEXTEND
  0
POINT
  5
182
330
17A
100
AcDbEntity
  8
Defpoints
 62
     0
100
AcDbPoint
 10
73.3742286815103
 20
219.1326694671623
 30
0.0
  0
POINT
  5
183
330
17A
100
AcDbEntity
  8
Defpoints
 62
     0
100
AcDbPoint
 10
87.97418026271893
 20
219.1327960113206
 30
0.0
  0
POINT
  5
184
330
17A
100
AcDbEntity
  8
Defpoints
 62
     0
100
AcDbPoint
 10
87.97411092322414
 20
227.1327960107198
 30
0.0
  0
ENDBLK
  5
185
330
17A
100
AcDbEntity
  8
0
100
AcDbBlockEnd
  0
BLOCK
  5
1C5
330
1BB
100
AcDbEntity
  8
0
100
AcDbBlockBegin
  2
*D3
 70
     1
 10
0.0
 20
0.0
 30
0.0
  3
*D3
  1

  0
LINE
  5
1BC
330
1BB
100
AcDbEntity
  8
SUNPO
 62
     0
370
    -2
100
AcDbLine
 10
9.475255550553491
 20
25.93620464916597
 30
0.0
 11
9.475186211058709
 21
33.93620464856517
 31
0.0
  0
LINE
  5
1BD
330
1BB
100
AcDbEntity
  8
SUNPO
 62
     0
370
    -2
100
AcDbLine
 10
24.07520713176213
 20
25.93633119332429
 30
0.0
 11
24.07513779226735
 21
33.93633119272349
 31
0.0
  0
LINE
  5
1BE
330
1BB
100
AcDbEntity
  8
SUNPO
 62
     0
370
    -2
100
AcDbLine
 10
11.47520354585728
 20
31.93622198351398
 30
0.0
 11
22.07515512721617
 21
31.93631385792491
 31
0.0
  0
INSERT
  5
1BF
330
1BB
100
AcDbEntity
  8
SUNPO
 62
     0
370
    -2
100
AcDbBlockReference
  2
_OPEN30
 10
9.475203545932405
 20
31.93620464864029
 30
0.0
 41
2.0
 42
2.0
 43
2.0
 50
180.0004966075506
  0
INSERT
  5
1C0
330
1BB
100
AcDbEntity
  8
SUNPO
 62
     0
370
    -2
100
AcDbBlockReference
  2
_OPEN30
 10
24.07515512714105
 20
31.93633119279861
 30
0.0
 41
2.0
 42
2.0
 43
2.0
 50
0.0004966075506004
  0
MTEXT
  5
1C1
330
1BB
100
AcDbEntity
  8
SUNPO
 62
     0
100
AcDbMText
 10
16.77516416852224
 20
33.68626792065371
 30
0.0
 40
2.5
 41
0.0
 71
     5
 72
     1
  1
\A1;73
 11
0.9999999999624378
 21
0.0000086674368481
 31
0.0
 73
     1
 44
1.0
1001
ACAD
1000
MTEXTBEGIN
1070
    73
1070
     1
1070
    44
1040
1.0
1070
    74
1070
     0
1000
MTEXTEND
  0
POINT
  5
1C2
330
1BB
100
AcDbEntity
  8
Defpoints
 62
     0
100
AcDbPoint
 10
9.475272885427187
 20
23.9362046492411
 30
0.0
  0
POINT
  5
1C3
330
1BB
100
AcDbEntity
  8
Defpoints
 62
     0
100
AcDbPoint
 10
24.07522446663583
 20
23.93633119339941
 30
0.0
  0
POINT
  5
1C4
330
1BB
100
AcDbEntity
  8
Defpoints
 62
     0
100
AcDbPoint
 10
24.07515512714105
 20
31.93633119279861
 30
0.0
  0
ENDBLK
  5
1C6
330
1BB
100
AcDbEntity
  8
0
100
AcDbBlockEnd
  0
BLOCK
  5
1D1
330
1C7
100
AcDbEntity
  8
0
100
AcDbBlockBegin
  2
*D4
 70
     1
 10
0.0
 20
0.0
 30
0.0
  3
*D4
  1

  0
LINE
  5
1C8
330
1C7
100
AcDbEntity
  8
SUNPO
 62
     0
370
    -2
100
AcDbLine
 10
-32.45162643512509
 20
25.93690275060752
 30
0.0
 11
-32.45162643512509
 21
33.93690275060752
 31
0.0
  0
LINE
  5
1C9
330
1C7
100
AcDbEntity
  8
SUNPO
 62
     0
370
    -2
100
AcDbLine
 10
-10.25162643512508
 20
25.93690275060752
 30
0.0
 11
-10.25162643512508
 21
33.93690275060752
 31
0.0
  0
LINE
  5
1CA
330
1C7
100
AcDbEntity
  8
SUNPO
 62
     0
370
    -2
100
AcDbLine
 10
-30.45162643512508
 20
31.93690275060752
 30
0.0
 11
-12.25162643512508
 21
31.93690275060752
 31
0.0
  0
INSERT
  5
1CB
330
1C7
100
AcDbEntity
  8
SUNPO
 62
     0
370
    -2
100
AcDbBlockReference
  2
_OPEN30
 10
-32.45162643512509
 20
31.93690275060752
 30
0.0
 41
2.0
 42
2.0
 43
2.0
 50
180.0
  0
INSERT
  5
1CC
330
1C7
100
AcDbEntity
  8
SUNPO
 62
     0
370
    -2
100
AcDbBlockReference
  2
_OPEN30
 10
-10.25162643512508
 20
31.93690275060752
 30
0.0
 41
2.0
 42
2.0
 43
2.0
  0
MTEXT
  5
1CD
330
1C7
100
AcDbEntity
  8
SUNPO
 62
     0
100
AcDbMText
 10
-21.35162643512508
 20
33.68690275060752
 30
0.0
 40
2.5
 41
0.0
 71
     5
 72
     1
  1
\A1;φ111
 73
     1
 44
1.0
1001
ACAD
1000
MTEXTBEGIN
1070
    73
1070
     1
1070
    44
1040
1.0
1070
    74
1070
     0
1000
MTEXTEND
  0
POINT
  5
1CE
330
1C7
100
AcDbEntity
  8
Defpoints
 62
     0
100
AcDbPoint
 10
-32.45162643512509
 20
23.93690275060752
 30
0.0
  0
POINT
  5
1CF
330
1C7
100
AcDbEntity
  8
Defpoints
 62
     0
100
AcDbPoint
 10
-10.25162643512508
 20
23.93690275060752
 30
0.0
  0
POINT
  5
1D0
330
1C7
100
AcDbEntity
  8
Defpoints
 62
     0
100
AcDbPoint
 10
-10.25162643512508
 20
31.93690275060752
 30
0.0
  0
ENDBLK
  5
1D2
330
1C7
100
AcDbEntity
  8
0
100
AcDbBlockEnd
  0
ENDSEC
  0
SECTION
  2
ENTITIES
  0
TEXT
  5
2F
330
2
100
AcDbEntity
  8
MOJI1
100
AcDbText
 10
-34.39895585204193
 20
45.30437030701293
 30
0.0
 40
4.0
  1
ネットワークカメラ
100
AcDbText
  0
TEXT
  5
31
330
2
100
AcDbEntity
  8
TOUROKU
100
AcDbText
 10
45.20099418088535
 20
39.30437030701327
 30
0.0
 40
2.0
  1
ＢＢＨＣＭ７０５
 72
     2
 11
63.60099418088535
 21
39.30437030701327
 31
0.0
100
AcDbText
  0
CIRCLE
  5
33
330
2
100
AcDbEntity
  8
GAIKEI
 62
     1
370
    40
100
AcDbCircle
 10
-21.35162643512508
 20
12.9254979093478
 30
0.0
 40
6.2
  0
ARC
  5
34
330
2
100
AcDbEntity
  8
GAIKEI
 62
     7
370
    40
100
AcDbCircle
 10
15.83520337551366
 20
12.92549770934781
 30
0.0
 40
6.3600002
100
AcDbArc
 50
110.0455750000013
 51
180.0000050000005
  0
ARC
  5
35
330
2
100
AcDbEntity
  8
GAIKEI
 62
     7
370
    40
100
AcDbCircle
 10
15.83520337551366
 20
12.92549810934778
 30
0.0
 40
6.3600002
100
AcDbArc
 50
179.9999910000004
 51
249.9544059999988
  0
LINE
  5
36
330
2
100
AcDbEntity
  8
GAIKEI
 62
     1
370
    13
100
AcDbLine
 10
14.24969017551366
 20
16.83446430934779
 30
0.0
 11
14.24969017551366
 21
4.772059309347781
 31
0.0
  0
LINE
  5
37
330
2
100
AcDbEntity
  8
GAIKEI
 62
     7
 48
0.005086
370
    40
100
AcDbLine
 10
14.22082237551366
 20
4.965628509347794
 30
0.0
 11
14.22758297551367
 21
4.92550410934777
 31
0.0
  0
ARC
  5
38
330
2
100
AcDbEntity
  8
GAIKEI
 62
     7
370
    40
100
AcDbCircle
 10
10.28008817551367
 20
4.27860010934782
 30
0.0
 40
4.000174
100
AcDbArc
 50
9.889560999999071
 51
17.56380700000137
  0
LINE
  5
39
330
2
100
AcDbEntity
  8
GAIKEI
 62
     1
 48
0.005227
370
    40
100
AcDbLine
 10
14.08090617551366
 20
5.525504709347814
 30
0.0
 11
14.09378017551367
 21
5.48572350934782
 31
0.0
  0
LINE
  5
3A
330
2
100
AcDbEntity
  8
GAIKEI
 62
     1
 48
0.008576
370
    13
100
AcDbLine
 10
14.22758297551367
 20
4.92550410934777
 30
0.0
 11
14.15898917551366
 21
4.926701909347769
 31
0.0
  0
LINE
  5
3B
330
2
100
AcDbEntity
  8
GAIKEI
 62
     1
370
    13
100
AcDbLine
 10
14.24969017551366
 20
16.83446430934779
 30
0.0
 11
14.24969017551366
 21
21.07893650934781
 31
0.0
  0
SPLINE
  5
3C
330
2
100
AcDbEntity
  8
GAIKEI
 62
     1
370
    40
100
AcDbSpline
210
0.0
220
0.0
230
1.0
 70
     8
 71
     5
 72
    21
 73
    15
 74
     0
 42
0.0000000001
 43
0.0000000001
 40
0.0
 40
0.0
 40
0.0
 40
0.0
 40
0.0
 40
0.0
 40
0.2101759337898721
 40
0.2101759337898721
 40
0.2101759337898721
 40
0.4228321814963376
 40
0.4228321814963376
 40
0.4228321814963376
 40
0.6338267984589638
 40
0.6338267984589638
 40
0.6338267984589638
 40
1.035149283715966
 40
1.035149283715966
 40
1.035149283715966
 40
1.035149283715966
 40
1.035149283715966
 40
1.035149283715966
 10
14.55030739159862
 20
7.770519536481941
 30
0.0
 10
14.54648062949887
 20
7.771759637724557
 30
0.0
 10
14.54263488055878
 20
7.773162760197891
 30
0.0
 10
14.53874556921757
 20
7.774737431961256
 30
0.0
 10
14.53102570670354
 20
7.778167655016858
 30
0.0
 10
14.52348900276038
 20
7.78214065213055
 30
0.0
 10
14.51971008746729
 20
7.784297407325283
 30
0.0
 10
14.51237942589988
 20
7.78882580564479
 30
0.0
 10
14.50552512672863
 20
7.793799204446287
 30
0.0
 10
14.50211975795584
 20
7.796486037622997
 30
0.0
 10
14.4930012573445
 20
7.804367332625787
 30
0.0
 10
14.48584234130814
 20
7.812830028091383
 30
0.0
 10
14.48209029706969
 20
7.818729012450916
 30
0.0
 10
14.48022196309036
 20
7.824317109569591
 30
0.0
 10
14.48022196308963
 20
7.829217319303864
 30
0.0
  0
ELLIPSE
  5
3D
330
2
100
AcDbEntity
  8
GAIKEI
 62
     1
370
    40
100
AcDbEllipse
 10
6.919683575513644
 20
1.994086109347762
 30
0.0
 11
13.82234649658204
 21
0.099202585220337
 31
0.0
210
0.0
220
0.0
230
1.0
 40
0.4976000000000001
 41
0.7578184604644776
 42
0.98240864276886
  0
LINE
  5
3E
330
2
100
AcDbEntity
  8
GAIKEI
 62
     1
 48
0.000461
370
    40
100
AcDbLine
 10
16.92871397551366
 20
6.791963309347778
 30
0.0
 11
16.92543817551366
 21
6.7936567093478
 31
0.0
  0
ARC
  5
3F
330
2
100
AcDbEntity
  8
GAIKEI
 62
     1
370
    40
100
AcDbCircle
 10
11.05347497551366
 20
-4.571946290652221
 30
0.0
 40
12.7928444
100
AcDbArc
 50
61.83256300000025
 51
62.66064799999945
  0
LINE
  5
40
330
2
100
AcDbEntity
  8
GAIKEI
 62
     1
370
    13
100
AcDbLine
 10
17.09233417551367
 20
6.705865109347797
 30
0.0
 11
17.09233417551367
 21
2.348415909347778
 31
0.0
  0
LINE
  5
41
330
2
100
AcDbEntity
  8
GAIKEI
 62
     1
370
    13
100
AcDbLine
 10
17.09233417551367
 20
17.99642150934781
 30
0.0
 11
17.09233417551367
 21
8.626324509347824
 31
0.0
  0
ARC
  5
42
330
2
100
AcDbEntity
  8
GAIKEI
 62
     1
370
    40
100
AcDbCircle
 10
10.54972817551366
 20
-2.939220690652206
 30
0.0
 40
13.2878708
100
AcDbArc
 50
60.50324300000013
 51
61.31062700000009
  0
LINE
  5
43
330
2
100
AcDbEntity
  8
GAIKEI
 62
     1
 48
0.000467
370
    40
100
AcDbLine
 10
16.92871397551366
 20
8.717369109347799
 30
0.0
 11
16.92543817551366
 21
8.719161309347811
 31
0.0
  0
ELLIPSE
  5
44
330
2
100
AcDbEntity
  8
GAIKEI
 62
     1
370
    40
100
AcDbEllipse
 10
6.918584175513629
 20
4.221468909347748
 30
0.0
 11
13.82178649902344
 21
-0.4555298805236814
 31
0.0
210
0.0
220
0.0
230
1.0
 40
0.4972180000000001
 41
0.777751624584198
 42
1.00132393836975
  0
LINE
  5
45
330
2
100
AcDbEntity
  8
GAIKEI
 62
     1
 48
0.001534
370
    40
100
AcDbLine
 10
14.56187497551366
 20
9.76372930934778
 30
0.0
 11
14.55030737551367
 21
9.76783190934779
 31
0.0
  0
SPLINE
  5
46
330
2
100
AcDbEntity
  8
GAIKEI
 62
     1
370
    40
100
AcDbSpline
210
0.0
220
0.0
230
1.0
 70
     8
 71
     5
 72
    18
 73
    12
 74
     0
 42
0.0000000001
 43
0.0000000001
 40
0.0
 40
0.0
 40
0.0
 40
0.0
 40
0.0
 40
0.0
 40
0.2699074281961926
 40
0.2699074281961926
 40
0.2699074281961926
 40
0.6003513347981017
 40
0.6003513347981017
 40
0.6003513347981017
 40
0.6632073673092242
 40
0.6632073673092242
 40
0.6632073673092242
 40
0.6632073673092242
 40
0.6632073673092242
 40
0.6632073673092242
 10
14.51870865159569
 20
9.77398243606953
 30
0.0
 10
14.51384186114597
 20
9.774104798275146
 30
0.0
 10
14.50908798617521
 20
9.773864846279167
 30
0.0
 10
14.5043422883473
 20
9.773193768628829
 30
0.0
 10
14.49470881941626
 20
9.770766052439881
 30
0.0
 10
14.48718122545361
 20
9.766122717097772
 30
0.0
 10
14.48379172348255
 20
9.762827869729193
 30
0.0
 10
14.48120106023807
 20
9.758114763036104
 30
0.0
 10
14.48035627636524
 20
9.752789558838259
 30
0.0
 10
14.48026629273246
 20
9.751924932571768
 30
0.0
 10
14.48022196312546
 20
9.751053005509362
 30
0.0
 10
14.48022196312533
 20
9.750171544810058
 30
0.0
  0
ARC
  5
47
330
2
100
AcDbEntity
  8
GAIKEI
 62
     1
370
    40
100
AcDbCircle
 10
14.51475497551367
 20
9.670142109347779
 30
0.0
 40
0.1039384
100
AcDbArc
 50
70.00194600000026
 51
87.81949899999974
  0
LINE
  5
48
330
2
100
AcDbEntity
  8
GAIKEI
 62
     1
 48
0.239214
370
    40
100
AcDbLine
 10
14.48022197551367
 20
9.750171509347779
 30
0.0
 11
14.48022197551367
 21
7.836461309347811
 31
0.0
  0
LINE
  5
49
330
2
100
AcDbEntity
  8
GAIKEI
 62
     1
 48
0.000906
370
    40
100
AcDbLine
 10
14.48022197551367
 20
7.836461309347811
 30
0.0
 11
14.48022197551367
 21
7.829217309347797
 31
0.0
  0
ELLIPSE
  5
4A
330
2
100
AcDbEntity
  8
GAIKEI
 62
     1
370
    40
100
AcDbEllipse
 10
14.15968737551362
 20
4.966695109347739
 30
0.0
 11
0.0400000005960465
 21
0.000000000094779
 31
0.0
210
0.0
220
0.0
230
1.0
 40
0.9999990000000002
 41
3.317170858383178
 42
4.69493579864502
  0
ARC
  5
4B
330
2
100
AcDbEntity
  8
GAIKEI
 62
     1
370
    40
100
AcDbCircle
 10
10.28025537551366
 20
4.278465709347784
 30
0.0
 40
3.900006799999999
100
AcDbArc
 50
10.05988200000008
 51
17.82630399999852
  0
LINE
  5
4C
330
2
100
AcDbEntity
  8
GAIKEI
 62
     7
 48
0.009101
370
    40
100
AcDbLine
 10
14.48022197551367
 20
21.2711255093478
 30
0.0
 11
14.48022197551367
 21
21.19831510934782
 31
0.0
  0
LINE
  5
4D
330
2
100
AcDbEntity
  8
GAIKEI
 62
     7
 48
0.000151
370
    40
100
AcDbLine
 10
14.48022197551367
 20
21.19831510934782
 30
0.0
 11
14.48022197551367
 21
21.1971051093478
 31
0.0
  0
SPLINE
  5
4E
330
2
100
AcDbEntity
  8
GAIKEI
 62
     7
370
    40
100
AcDbSpline
210
0.0
220
0.0
230
1.0
 70
     8
 71
     5
 72
    18
 73
    12
 74
     0
 42
0.0000000001
 43
0.0000000001
 40
0.0
 40
0.0
 40
0.0
 40
0.0
 40
0.0
 40
0.0
 40
0.2014246376529217
 40
0.2014246376529217
 40
0.2014246376529217
 40
0.6292029230907975
 40
0.6292029230907975
 40
0.6292029230907975
 40
0.9802961000403191
 40
0.9802961000403191
 40
0.9802961000403191
 40
0.9802961000403191
 40
0.9802961000403191
 40
0.9802961000403191
 10
14.55030739159829
 20
21.23814225165356
 30
0.0
 10
14.54676788328062
 20
21.2357412140324
 30
0.0
 10
14.54320151483526
 20
21.23334743895814
 30
0.0
 10
14.53959075134395
 20
21.23094949040828
 30
0.0
 10
14.52835800340614
 20
21.22356850760136
 30
0.0
 10
14.51733599549608
 20
21.21657878607525
 30
0.0
 10
14.51273000275229
 20
21.21371695432819
 30
0.0
 10
14.49960292415295
 20
21.20580715543551
 30
0.0
 10
14.48900374403635
 20
21.2000150679913
 30
0.0
 10
14.48467493294271
 20
21.19784875315113
 30
0.0
 10
14.4819576574354
 20
21.19678458888777
 30
0.0
 10
14.48077713574663
 20
21.1967613307506
 30
0.0
  0
LINE
  5
4F
330
2
100
AcDbEntity
  8
GAIKEI
 62
     7
 48
0.000082
370
    40
100
AcDbLine
 10
14.48077717551366
 20
21.19676110934782
 30
0.0
 11
14.48022197551367
 21
21.1971051093478
 31
0.0
  0
ARC
  5
50
330
2
100
AcDbEntity
  8
GAIKEI
 62
     7
370
    40
100
AcDbCircle
 10
6.574396375513657
 20
32.9960225093478
 30
0.0
 40
14.207843
100
AcDbArc
 50
304.1508509999997
 51
316.7645149999991
  0
LINE
  5
51
330
2
100
AcDbEntity
  8
GAIKEI
 62
     1
 48
0.000598
370
    40
100
AcDbLine
 10
16.92871397551366
 20
23.26716130934781
 30
0.0
 11
16.92543817551366
 21
23.2636753093478
 31
0.0
  0
ARC
  5
52
330
2
100
AcDbEntity
  8
GAIKEI
 62
     7
370
    40
100
AcDbCircle
 10
6.585791575513667
 20
32.98465930934779
 30
0.0
 40
14.191751
100
AcDbArc
 50
316.7857349999993
 51
317.7593149999991
  0
LINE
  5
53
330
2
100
AcDbEntity
  8
GAIKEI
 62
     1
370
    13
100
AcDbLine
 10
17.09233417551367
 20
23.44430430934782
 30
0.0
 11
17.09233417551367
 21
17.99642150934781
 31
0.0
  0
LINE
  5
54
330
2
100
AcDbEntity
  8
GAIKEI
 62
     1
 48
0.017525
370
    40
100
AcDbLine
 10
17.59520317551366
 20
6.612954709347803
 30
0.0
 11
17.73539357551367
 21
6.611255709347773
 31
0.0
  0
LINE
  5
55
330
2
100
AcDbEntity
  8
GAIKEI
 62
     1
 48
0.011441
370
    40
100
AcDbLine
 10
17.59520317551366
 20
6.612954709347803
 30
0.0
 11
17.50368117551366
 21
6.614064109347822
 31
0.0
  0
ELLIPSE
  5
56
330
2
100
AcDbEntity
  8
GAIKEI
 62
     1
370
    40
100
AcDbEllipse
 10
17.53531757551364
 20
6.915837509347824
 30
0.0
 11
0.6001632213592531
 21
0.0115720324218273
 31
0.0
210
0.0
220
0.0
230
1.0
 40
0.5025949999999999
 41
3.872492551803588
 42
4.64996337890625
  0
LINE
  5
57
330
2
100
AcDbEntity
  8
GAIKEI
 62
     1
370
    13
100
AcDbLine
 10
17.50368117551366
 20
6.614064109347822
 30
0.0
 11
17.50368117551366
 21
2.154174509347768
 31
0.0
  0
LINE
  5
58
330
2
100
AcDbEntity
  8
GAIKEI
 62
     1
370
    13
100
AcDbLine
 10
17.50368117551366
 20
18.0895455093478
 30
0.0
 11
17.50368117551366
 21
8.522087109347779
 31
0.0
  0
ELLIPSE
  5
59
330
2
100
AcDbEntity
  8
GAIKEI
 62
     1
370
    40
100
AcDbEllipse
 10
17.53531757551364
 20
8.822903909347786
 30
0.0
 11
0.6001574039459232
 21
-0.0127072095870972
 31
0.0
210
0.0
220
0.0
230
1.0
 40
0.502566
 41
3.892823457717895
 42
4.670294284820556
  0
ELLIPSE
  5
5A
330
2
100
AcDbEntity
  8
GAIKEI
 62
     1
370
    40
100
AcDbEllipse
 10
14.03109817551363
 20
5.484628709347788
 30
0.0
 11
0.0400000005960465
 21
0.0000000000014804
 31
0.0
210
0.0
220
0.0
230
1.0
 40
0.9999990000000002
 41
1.588249564170837
 42
3.141437292098998
  0
LINE
  5
5B
330
2
100
AcDbEntity
  8
GAIKEI
 62
     7
 48
0.000283
370
    13
100
AcDbLine
 10
14.48248497551367
 20
21.1971501093478
 30
0.0
 11
14.48022197551367
 21
21.1971051093478
 31
0.0
  0
LINE
  5
5C
330
2
100
AcDbEntity
  8
GAIKEI
 62
     1
 48
0.01755
370
    40
100
AcDbLine
 10
17.59520317551366
 20
23.64532830934777
 30
0.0
 11
17.73539357551367
 21
23.65296450934781
 31
0.0
  0
LINE
  5
5D
330
2
100
AcDbEntity
  8
GAIKEI
 62
     7
 48
0.011457
370
    40
100
AcDbLine
 10
17.59520317551366
 20
23.64532830934777
 30
0.0
 11
17.50368117551366
 21
23.64034250934779
 31
0.0
  0
ARC
  5
5E
330
2
100
AcDbEntity
  8
GAIKEI
 62
     7
370
    40
100
AcDbCircle
 10
17.53678497551367
 20
23.04147990934777
 30
0.0
 40
0.5998052
100
AcDbArc
 50
93.16395100000031
 51
137.8126729999992
  0
LINE
  5
5F
330
2
100
AcDbEntity
  8
GAIKEI
 62
     1
370
    13
100
AcDbLine
 10
17.50368117551366
 20
23.64034250934779
 30
0.0
 11
17.50368117551366
 21
18.0895455093478
 31
0.0
  0
SPLINE
  5
60
330
2
100
AcDbEntity
  8
GAIKEI
 62
     1
370
    40
100
AcDbSpline
210
0.0
220
0.0
230
1.0
 70
     8
 71
     5
 72
    18
 73
    12
 74
     0
 42
0.0000000001
 43
0.0000000001
 40
0.0
 40
0.0
 40
0.0
 40
0.0
 40
0.0
 40
0.0
 40
0.164272954234309
 40
0.164272954234309
 40
0.164272954234309
 40
0.4845286083746689
 40
0.4845286083746689
 40
0.4845286083746689
 40
0.7820608726986804
 40
0.7820608726986804
 40
0.7820608726986804
 40
0.7820608726986804
 40
0.7820608726986804
 40
0.7820608726986804
 10
17.73539340374378
 20
6.611255901837438
 30
0.0
 10
17.73906365622589
 20
6.61121142906947
 30
0.0
 10
17.74272202046123
 20
6.611339558996718
 30
0.0
 10
17.74639463705836
 20
6.611640149689463
 30
0.0
 10
17.75692357473919
 20
6.612999711225398
 30
0.0
 10
17.76680061502367
 20
6.615754789420833
 30
0.0
 10
17.77281638655742
 20
6.618122617556451
 30
0.0
 10
17.78347970275692
 20
6.623902548059362
 30
0.0
 10
17.79088774906478
 20
6.631657355825012
 30
0.0
 10
17.79354336689076
 20
6.63581772699328
 30
0.0
 10
17.79492908228668
 20
6.640321493575044
 30
0.0
 10
17.79492908246458
 20
6.644887740534471
 30
0.0
  0
ELLIPSE
  5
61
330
2
100
AcDbEntity
  8
GAIKEI
 62
     1
370
    40
100
AcDbEllipse
 10
14.03109817551363
 20
5.484628709347788
 30
0.0
 11
-0.0400000005960465
 21
-0.0000000034969112
 31
0.0
210
0.0
220
0.0
230
1.0
 40
0.999999
 41
6.283030033111572
 42
6.594313144683837
  0
LINE
  5
62
330
2
100
AcDbEntity
  8
GAIKEI
 62
     7
 48
0.000036
370
    40
100
AcDbLine
 10
17.79480717551367
 20
23.66016210934779
 30
0.0
 11
17.79492917551367
 21
23.66042610934781
 31
0.0
  0
SPLINE
  5
63
330
2
100
AcDbEntity
  8
GAIKEI
 62
     7
370
    40
100
AcDbSpline
210
0.0
220
0.0
230
1.0
 70
     8
 71
     5
 72
    18
 73
    12
 74
     0
 42
0.0000000001
 43
0.0000000001
 40
0.0
 40
0.0
 40
0.0
 40
0.0
 40
0.0
 40
0.0
 40
0.3227800529067355
 40
0.3227800529067355
 40
0.3227800529067355
 40
0.6820042317357037
 40
0.6820042317357037
 40
0.6820042317357037
 40
0.7417160371391733
 40
0.7417160371391733
 40
0.7417160371391733
 40
0.7417160371391733
 40
0.7417160371391733
 40
0.7417160371391733
 10
17.73539340374546
 20
23.65296441552695
 30
0.0
 10
17.7426019154425
 20
23.6533570432118
 30
0.0
 10
17.7497606901678
 20
23.65383048498163
 30
0.0
 10
17.75567783931488
 20
23.65428565909721
 30
0.0
 10
17.76991863210175
 20
23.65554845704449
 30
0.0
 10
17.78185448170089
 20
23.65702382221937
 30
0.0
 10
17.7873563586552
 20
23.65785198190108
 30
0.0
 10
17.7921877976337
 20
23.65884616519165
 30
0.0
 10
17.79427864028204
 20
23.65977754855268
 30
0.0
 10
17.79451825005596
 20
23.65990874944694
 30
0.0
 10
17.79469483158161
 20
23.66003691286934
 30
0.0
 10
17.79480721475986
 20
23.66016189106901
 30
0.0
  0
LINE
  5
64
330
2
100
AcDbEntity
  8
GAIKEI
 62
     1
 48
0.228287
370
    40
100
AcDbLine
 10
17.79492917551367
 20
8.471180109347784
 30
0.0
 11
17.79492917551367
 21
6.644887709347784
 31
0.0
  0
LINE
  5
65
330
2
100
AcDbEntity
  8
GAIKEI
 62
     7
 48
0.006457
370
    40
100
AcDbLine
 10
17.79492917551367
 20
23.71208470934781
 30
0.0
 11
17.79492917551367
 21
23.66042610934781
 31
0.0
  0
LINE
  5
66
330
2
100
AcDbEntity
  8
GAIKEI
 62
     7
370
    40
100
AcDbLine
 10
13.65520317551366
 20
6.482954109347787
 30
0.0
 11
13.65520317551366
 21
19.36804170934781
 31
0.0
  0
LINE
  5
67
330
2
100
AcDbEntity
  8
GAIKEI
 62
     1
 48
0.000857
370
    40
100
AcDbLine
 10
17.73539337551367
 20
23.65296450934781
 30
0.0
 11
17.74223437551366
 21
23.65336730934777
 31
0.0
  0
ARC
  5
68
330
2
100
AcDbEntity
  8
GAIKEI
 62
     1
370
    40
100
AcDbCircle
 10
17.73247817551366
 20
8.428733509347779
 30
0.0
 40
0.083565
100
AcDbArc
 50
61.11649200000055
 51
88.00142100000014
  0
SPLINE
  5
69
330
2
100
AcDbEntity
  8
GAIKEI
 62
     1
370
    40
100
AcDbSpline
210
0.0
220
0.0
230
1.0
 70
     8
 71
     5
 72
    15
 73
     9
 74
     0
 42
0.0000000001
 43
0.0000000001
 40
0.0
 40
0.0
 40
0.0
 40
0.0
 40
0.0
 40
0.0
 40
0.3435906583596567
 40
0.3435906583596567
 40
0.3435906583596567
 40
0.4259627485810597
 40
0.4259627485810597
 40
0.4259627485810597
 40
0.4259627485810597
 40
0.4259627485810597
 40
0.4259627485810597
 10
17.7728255207901
 20
8.501872375742692
 30
0.0
 10
17.77894630784691
 20
8.498357693432495
 30
0.0
 10
17.78442045235275
 20
8.49413552041264
 30
0.0
 10
17.7890414319868
 20
8.489204430157741
 30
0.0
 10
17.79305870957839
 20
8.482508318214996
 30
0.0
 10
17.79462089277078
 20
8.475356989920186
 30
0.0
 10
17.7948267143248
 20
8.473960475098493
 30
0.0
 10
17.7949290824673
 20
8.472570204515278
 30
0.0
 10
17.79492908246458
 20
8.47117988370033
 30
0.0
  0
LINE
  5
6A
330
2
100
AcDbEntity
  8
GAIKEI
 62
     1
 48
0.006314
370
    40
100
AcDbLine
 10
14.03040017551366
 20
5.524622909347812
 30
0.0
 11
14.08090617551366
 21
5.525504709347814
 31
0.0
  0
LINE
  5
6B
330
2
100
AcDbEntity
  8
GAIKEI
 62
     1
 48
0.006314
370
    40
100
AcDbLine
 10
14.03040017551366
 20
5.524622909347812
 30
0.0
 11
14.08090617551366
 21
5.525504709347814
 31
0.0
  0
LINE
  5
6C
330
2
100
AcDbEntity
  8
GAIKEI
 62
     7
 48
0.01755
370
    40
100
AcDbLine
 10
17.59520317551366
 20
23.64532830934777
 30
0.0
 11
17.73539337551367
 21
23.65296450934781
 31
0.0
  0
LINE
  5
6D
330
2
100
AcDbEntity
  8
GAIKEI
 62
     1
 48
0.011451
370
    40
100
AcDbLine
 10
17.59520317551366
 20
8.518210709347812
 30
0.0
 11
17.50368117551366
 21
8.522087109347779
 31
0.0
  0
LINE
  5
6E
330
2
100
AcDbEntity
  8
GAIKEI
 62
     1
 48
0.017539
370
    40
100
AcDbLine
 10
17.59520317551366
 20
8.518210709347812
 30
0.0
 11
17.73539337551367
 21
8.512273509347807
 31
0.0
  0
LINE
  5
6F
330
2
100
AcDbEntity
  8
GAIKEI
 62
     7
370
    40
100
AcDbLine
 10
23.77520357551367
 20
24.02549790934782
 30
0.0
 11
23.77520357551367
 21
12.48743590934779
 31
0.0
  0
ARC
  5
70
330
2
100
AcDbEntity
  8
GAIKEI
 62
     1
370
    40
100
AcDbCircle
 10
22.89520317551367
 20
12.02549790934782
 30
0.0
 40
0.25
100
AcDbArc
 50
90.99999699999985
 51
269.0000059999996
  0
LINE
  5
71
330
2
100
AcDbEntity
  8
GAIKEI
 62
     1
 48
0.085995
370
    40
100
AcDbLine
 10
23.57869397551366
 20
11.76352950934782
 30
0.0
 11
22.89083997551367
 21
11.77553590934778
 31
0.0
  0
ARC
  5
72
330
2
100
AcDbEntity
  8
GAIKEI
 62
     1
370
    40
100
AcDbCircle
 10
23.57520357551367
 20
11.56355990934779
 30
0.0
 40
0.2
100
AcDbArc
 50
0.0
 51
89.00000099999965
  0
LINE
  5
73
330
2
100
AcDbEntity
  8
GAIKEI
 62
     1
 48
0.085995
370
    40
100
AcDbLine
 10
22.89083997551367
 20
12.2754599093478
 30
0.0
 11
23.57869397551366
 21
12.28746630934782
 31
0.0
  0
LINE
  5
74
330
2
100
AcDbEntity
  8
GAIKEI
 62
     1
 48
0.006867
370
    40
100
AcDbLine
 10
23.77520357551367
 20
2.280985709347788
 30
0.0
 11
23.77520357551367
 21
2.226047309347819
 31
0.0
  0
LINE
  5
75
330
2
100
AcDbEntity
  8
GAIKEI
 62
     7
370
    40
100
AcDbLine
 10
23.77520357551367
 20
11.56355990934779
 30
0.0
 11
23.77520357551367
 21
1.825497909347774
 31
0.0
  0
ARC
  5
76
330
2
100
AcDbEntity
  8
GAIKEI
 62
     1
370
    40
100
AcDbCircle
 10
23.57520357551367
 20
12.48743590934779
 30
0.0
 40
0.2
100
AcDbArc
 50
270.9999990000004
 51
0.0
  0
ARC
  5
77
330
2
100
AcDbEntity
  8
GAIKEI
 62
     7
370
    40
100
AcDbCircle
 10
10.28026217551367
 20
4.278459709347799
 30
0.0
 40
3.9999996
100
AcDbArc
 50
18.16529800000122
 51
31.66014100000009
  0
ARC
  5
78
330
2
100
AcDbEntity
  8
GAIKEI
 62
     7
370
    40
100
AcDbCircle
 10
10.28026297551366
 20
4.278459709347799
 30
0.0
 40
3.999999199999999
100
AcDbArc
 50
7.088361999999562
 51
9.309039999999319
  0
ARC
  5
79
330
2
100
AcDbEntity
  8
GAIKEI
 62
     7
370
    40
100
AcDbCircle
 10
14.34892577551366
 20
4.784399109347788
 30
0.0
 40
0.1
100
AcDbArc
 50
187.088365000001
 51
237.4447259999994
  0
LINE
  5
7A
330
2
100
AcDbEntity
  8
GAIKEI
 62
     1
 48
0.008576
370
    40
100
AcDbLine
 10
14.15898917551366
 20
4.926694909347787
 30
0.0
 11
14.22758297551367
 21
4.925497909347797
 31
0.0
  0
ARC
  5
7B
330
2
100
AcDbEntity
  8
GAIKEI
 62
     7
370
    40
100
AcDbCircle
 10
14.34892577551366
 20
21.06659670934781
 30
0.0
 40
0.1
100
AcDbArc
 50
122.5552740000006
 51
172.911634999999
  0
ARC
  5
7C
330
2
100
AcDbEntity
  8
GAIKEI
 62
     7
370
    40
100
AcDbCircle
 10
6.761534575513664
 20
-7.100106290652178
 30
0.0
 40
14.0
100
AcDbArc
 50
42.44595500000084
 51
57.44473400000051
  0
ARC
  5
7D
330
2
100
AcDbEntity
  8
GAIKEI
 62
     7
370
    40
100
AcDbCircle
 10
6.761552175513671
 20
32.95107470934781
 30
0.0
 40
13.9999664
100
AcDbArc
 50
302.5552659999994
 51
303.4586379999993
  0
ARC
  5
7E
330
2
100
AcDbEntity
  8
GAIKEI
 62
     7
370
    40
100
AcDbCircle
 10
17.53508277551367
 20
2.753352109347787
 30
0.0
 40
0.6000000000000001
100
AcDbArc
 50
222.4459599999994
 51
267.0000009999999
  0
ARC
  5
7F
330
2
100
AcDbEntity
  8
GAIKEI
 62
     7
370
    40
100
AcDbCircle
 10
13.85520317551366
 20
19.36804170934781
 30
0.0
 40
0.2
100
AcDbArc
 50
148.3398629999993
 51
180.0000050000005
  0
LINE
  5
80
330
2
100
AcDbEntity
  8
GAIKEI
 62
     1
 48
0.015202
370
    40
100
AcDbLine
 10
14.48022197551367
 20
21.2711255093478
 30
0.0
 11
14.60181557551367
 21
21.27324790934782
 31
0.0
  0
ARC
  5
81
330
2
100
AcDbEntity
  8
GAIKEI
 62
     7
370
    40
100
AcDbCircle
 10
13.85520317551366
 20
6.482954109347787
 30
0.0
 40
0.2
100
AcDbArc
 50
180.0000050000005
 51
211.6601440000013
  0
ARC
  5
82
330
2
100
AcDbEntity
  8
GAIKEI
 62
     7
370
    40
100
AcDbCircle
 10
10.28026217551367
 20
21.57253610934779
 30
0.0
 40
4.0
100
AcDbArc
 50
328.339859
 51
352.9116380000004
  0
LINE
  5
83
330
2
100
AcDbEntity
  8
GAIKEI
 62
     7
370
    40
100
AcDbLine
 10
17.79492917551367
 20
23.71208470934781
 30
0.0
 11
23.77520357551367
 21
24.02549790934782
 31
0.0
  0
LINE
  5
84
330
2
100
AcDbEntity
  8
GAIKEI
 62
     7
370
    40
100
AcDbLine
 10
17.50368117551366
 20
2.154174509347768
 30
0.0
 11
23.77520357551367
 21
1.825497909347774
 31
0.0
  0
LINE
  5
85
330
2
100
AcDbEntity
  8
GAIKEI
 62
     1
 48
0.200638
370
    40
100
AcDbLine
 10
10.63520337551367
 20
14.53060130934781
 30
0.0
 11
10.63520337551367
 21
12.9254979093478
 31
0.0
  0
LINE
  5
86
330
2
100
AcDbEntity
  8
GAIKEI
 62
     1
 48
0.200638
370
    40
100
AcDbLine
 10
10.63520337551367
 20
12.9254979093478
 30
0.0
 11
10.63520337551367
 21
11.32039450934778
 31
0.0
  0
ELLIPSE
  5
87
330
2
100
AcDbEntity
  8
GAIKEI
 62
     1
370
    13
100
AcDbEllipse
 10
15.67438417551362
 20
12.92549790934774
 30
0.0
 11
0.0000000428415206
 21
-3.592616271972656
 31
0.0
210
0.0
220
0.0
230
1.0
 40
0.9986299999999998
 41
4.152121543884276
 42
5.685408592224121
  0
ELLIPSE
  5
88
330
2
100
AcDbEntity
  8
GAIKEI
 62
     1
370
    13
100
AcDbEllipse
 10
15.67831417551362
 20
12.92549790934774
 30
0.0
 11
0.0000000447041941
 21
-3.748817062377929
 31
0.0
210
0.0
220
0.0
230
1.0
 40
0.9986299999999999
 41
4.051864147186279
 42
5.712258338928223
  0
LINE
  5
89
330
2
100
AcDbEntity
  8
GAIKEI
 62
     1
 48
0.096638
370
    40
100
AcDbLine
 10
13.65510057551367
 20
15.20186250934782
 30
0.0
 11
12.88226697551366
 21
15.18150330934779
 31
0.0
  0
ELLIPSE
  5
8A
330
2
100
AcDbEntity
  8
GAIKEI
 62
     1
370
    13
100
AcDbEllipse
 10
15.67438417551362
 20
12.92549790934774
 30
0.0
 11
0.0000000428415206
 21
-3.592616271972656
 31
0.0
210
0.0
220
0.0
230
1.0
 40
0.9986299999999998
 41
3.739371061325072
 42
4.033464908599853
  0
SPLINE
  5
8B
330
2
100
AcDbEntity
  8
GAIKEI
 62
     1
370
    40
100
AcDbSpline
210
0.0
220
0.0
230
1.0
 70
     8
 71
     5
 72
    21
 73
    15
 74
     0
 42
0.0000000001
 43
0.0000000001
 40
0.0
 40
0.0
 40
0.0
 40
0.0
 40
0.0
 40
0.0
 40
0.9037025459323484
 40
0.9037025459323484
 40
0.9037025459323484
 40
1.656549247392517
 40
1.656549247392517
 40
1.656549247392517
 40
2.328891567525836
 40
2.328891567525836
 40
2.328891567525836
 40
2.485924463110075
 40
2.485924463110075
 40
2.485924463110075
 40
2.485924463110075
 40
2.485924463110075
 40
2.485924463110075
 10
12.63520317551288
 20
13.48945898631902
 30
0.0
 10
12.63520317551288
 20
13.46389841838285
 30
0.0
 10
12.63701543744069
 20
13.43811191082406
 30
0.0
 10
12.6410205353434
 20
13.41229609247514
 30
0.0
 10
12.65318754907977
 20
13.36573664813053
 30
0.0
 10
12.67508705890887
 20
13.32293311047127
 30
0.0
 10
12.6872040468552
 20
13.30465624438577
 30
0.0
 10
12.71428767895374
 20
13.27342492443196
 30
0.0
 10
12.74825570779214
 20
13.25059498649537
 30
0.0
 10
12.76561752090257
 20
13.2421030722173
 30
0.0
 10
12.78819837657543
 20
13.23488172228733
 30
0.0
 10
12.81144302174517
 20
13.23184563385408
 30
0.0
 10
12.81587211824055
 20
13.23142149296169
 30
0.0
 10
12.82030177343951
 20
13.23115057172614
 30
0.0
 10
12.82473598426428
 20
13.23103181614593
 30
0.0
  0
LINE
  5
8C
330
2
100
AcDbEntity
  8
GAIKEI
 62
     1
 48
0.103844
370
    40
100
AcDbLine
 10
12.82473597551366
 20
13.23103190934782
 30
0.0
 11
13.65519877551367
 21
13.2091309093478
 31
0.0
  0
LINE
  5
8D
330
2
100
AcDbEntity
  8
GAIKEI
 62
     1
 48
0.055755
370
    40
100
AcDbLine
 10
12.63520317551366
 20
13.93549790934779
 30
0.0
 11
12.63520317551366
 21
13.48945930934778
 31
0.0
  0
LINE
  5
8E
330
2
100
AcDbEntity
  8
GAIKEI
 62
     1
 48
0.0675
370
    40
100
AcDbLine
 10
12.63520317551366
 20
13.93549790934779
 30
0.0
 11
12.63520317551366
 21
14.47549790934781
 31
0.0
  0
LINE
  5
8F
330
2
100
AcDbEntity
  8
GAIKEI
 62
     1
 48
0.056677
370
    40
100
AcDbLine
 10
12.63520317551366
 20
14.92891330934779
 30
0.0
 11
12.63520317551366
 21
14.47549790934781
 31
0.0
  0
ARC
  5
90
330
2
100
AcDbEntity
  8
GAIKEI
 62
     1
370
    40
100
AcDbCircle
 10
12.86981417551366
 20
15.57237090934782
 30
0.0
 40
0.3910502
100
AcDbArc
 50
263.3802599999998
 51
271.824771
  0
ELLIPSE
  5
91
330
2
100
AcDbEntity
  8
GAIKEI
 62
     1
370
    13
100
AcDbEllipse
 10
15.67831417551362
 20
12.92549790934774
 30
0.0
 11
0.0000000447041941
 21
-3.748817062377929
 31
0.0
210
0.0
220
0.0
230
1.0
 40
0.9986299999999999
 41
3.712525844573975
 42
4.051864147186279
  0
SPLINE
  5
92
330
2
100
AcDbEntity
  8
GAIKEI
 62
     1
370
    13
100
AcDbSpline
210
0.0
220
0.0
230
1.0
 70
     8
 71
     5
 72
    12
 73
     6
 74
     0
 42
0.0000000001
 43
0.0000000001
 40
0.0
 40
0.0
 40
0.0
 40
0.0
 40
0.0
 40
0.0
 40
1.109210042125081
 40
1.109210042125081
 40
1.109210042125081
 40
1.109210042125081
 40
1.109210042125081
 40
1.109210042125081
 10
12.72204167501273
 20
15.22551462973999
 30
0.0
 10
12.73900573850648
 20
15.22040045507967
 30
0.0
 10
12.75853512598338
 20
15.21304141034213
 30
0.0
 10
12.77985472670158
 20
15.20410180874117
 30
0.0
 10
12.80201277898128
 20
15.19428511158182
 30
0.0
 10
12.82473638653424
 20
15.18394298023653
 30
0.0
  0
SPLINE
  5
93
330
2
100
AcDbEntity
  8
GAIKEI
 62
     1
370
    40
100
AcDbSpline
210
0.0
220
0.0
230
1.0
 70
     8
 71
     5
 72
    27
 73
    21
 74
     0
 42
0.0000000001
 43
0.0000000001
 40
0.0
 40
0.0
 40
0.0
 40
0.0
 40
0.0
 40
0.0
 40
0.6491045246979616
 40
0.6491045246979616
 40
0.6491045246979616
 40
1.299916552474964
 40
1.299916552474964
 40
1.299916552474964
 40
1.95663630838835
 40
1.95663630838835
 40
1.95663630838835
 40
2.286615842998456
 40
2.286615842998456
 40
2.286615842998456
 40
2.930272395890728
 40
2.930272395890728
 40
2.930272395890728
 40
3.234437775411331
 40
3.234437775411331
 40
3.234437775411331
 40
3.234437775411331
 40
3.234437775411331
 40
3.234437775411331
 10
12.63520248451984
 20
14.92891409319966
 30
0.0
 10
12.63520248451984
 20
14.94384410341897
 30
0.0
 10
12.6356527986398
 20
14.95880330403881
 30
0.0
 10
12.63656226010586
 20
14.97374055870054
 30
0.0
 10
12.63933566458796
 20
15.00360672962276
 30
0.0
 10
12.64427837902104
 20
15.0333667281366
 30
0.0
 10
12.64738265214242
 20
15.04831369293728
 30
0.0
 10
12.65503128571114
 20
15.07811394413485
 30
0.0
 10
12.66648436256857
 20
15.10702175935509
 30
0.0
 10
12.67354927251141
 20
15.12149825696119
 30
0.0
 10
12.68657876545377
 20
15.14131841552327
 30
0.0
 10
12.70325139040265
 20
15.15706490400211
 30
0.0
 10
12.70934728323401
 20
15.16187093819403
 30
0.0
 10
12.72776491898322
 20
15.17394300955769
 30
0.0
 10
12.74810002252567
 20
15.181091397122
 30
0.0
 10
12.76208333478531
 20
15.18400451877645
 30
0.0
 10
12.78291515447387
 20
15.18620569198205
 30
0.0
 10
12.80415821103602
 20
15.18578155377477
 30
0.0
 10
12.81101367424827
 20
15.18539627413415
 30
0.0
 10
12.81787159471561
 20
15.18477900143054
 30
0.0
 10
12.82473598426492
 20
15.18394295052414
 30
0.0
  0
LINE
  5
94
330
2
100
AcDbEntity
  8
GAIKEI
 62
     1
 48
0.068289
370
    40
100
AcDbLine
 10
10.72996957551366
 20
11.22053130934782
 30
0.0
 11
11.27553617551366
 21
11.1919395093478
 31
0.0
  0
LINE
  5
95
330
2
100
AcDbEntity
  8
GAIKEI
 62
     1
 48
0.06829
370
    40
100
AcDbLine
 10
10.72996957551366
 20
14.63046450934777
 30
0.0
 11
11.27553717551366
 21
14.65905630934779
 31
0.0
  0
ARC
  5
96
330
2
100
AcDbEntity
  8
GAIKEI
 62
     1
370
    40
100
AcDbCircle
 10
10.73520337551366
 20
14.53060130934781
 30
0.0
 40
0.1
100
AcDbArc
 50
92.99999900000004
 51
180.0000050000005
  0
ARC
  5
97
330
2
100
AcDbEntity
  8
GAIKEI
 62
     1
370
    40
100
AcDbCircle
 10
10.73520337551366
 20
11.32039450934778
 30
0.0
 40
0.1
100
AcDbArc
 50
179.9999949999995
 51
267.0000009999999
  0
ARC
  5
98
330
2
100
AcDbEntity
  8
GAIKEI
 62
     1
370
    40
100
AcDbCircle
 10
21.72875257551367
 20
5.62451370934778
 30
0.0
 40
14.2610794
100
AcDbArc
 50
124.4795690000001
 51
128.9829729999996
  0
ARC
  5
99
330
2
100
AcDbEntity
  8
GAIKEI
 62
     1
370
    40
100
AcDbCircle
 10
15.83520317551367
 20
12.9254979093478
 30
0.0
 40
4.878091
100
AcDbArc
 50
129.1206419999993
 51
230.8793549999995
  0
ARC
  5
9A
330
2
100
AcDbEntity
  8
GAIKEI
 62
     1
370
    40
100
AcDbCircle
 10
21.72813157551367
 20
20.22564590934778
 30
0.0
 40
14.2600402
100
AcDbArc
 50
231.0168650000003
 51
235.5206619999994
  0
ARC
  5
9B
330
2
100
AcDbEntity
  8
GAIKEI
 62
     1
370
    40
100
AcDbCircle
 10
22.89482097551367
 20
12.02549830934779
 30
0.0
 40
0.27721
100
AcDbArc
 50
294.6011630000007
 51
65.39768199999994
  0
LINE
  5
9C
330
2
100
AcDbEntity
  8
GAIKEI
 62
     1
370
    40
100
AcDbLine
 10
24.07520357551367
 20
17.0918999093478
 30
0.0
 11
24.07520357551367
 21
8.759095909347792
 31
0.0
  0
LINE
  5
9D
330
2
100
AcDbEntity
  8
GAIKEI
 62
     1
 48
0.020584
370
    40
100
AcDbLine
 10
24.07520357551367
 20
23.21342750934778
 30
0.0
 11
24.07520357551367
 21
23.3781011093478
 31
0.0
  0
LINE
  5
9E
330
2
100
AcDbEntity
  8
GAIKEI
 62
     1
 48
0.134164
370
    40
100
AcDbLine
 10
24.07520357551367
 20
22.14011510934782
 30
0.0
 11
24.07520357551367
 21
23.21342750934778
 31
0.0
  0
LINE
  5
9F
330
2
100
AcDbEntity
  8
GAIKEI
 62
     1
 48
0.044446
370
    40
100
AcDbLine
 10
24.07520357551367
 20
21.78455010934781
 30
0.0
 11
24.07520357551367
 21
22.14011510934782
 31
0.0
  0
LINE
  5
A0
330
2
100
AcDbEntity
  8
GAIKEI
 62
     1
 48
0.4259300000000001
370
    40
100
AcDbLine
 10
24.07520357551367
 20
18.37711230934778
 30
0.0
 11
24.07520357551367
 21
21.78455010934781
 31
0.0
  0
LINE
  5
A1
330
2
100
AcDbEntity
  8
GAIKEI
 62
     1
 48
0.280046
370
    40
100
AcDbLine
 10
24.07520357551367
 20
5.204205709347803
 30
0.0
 11
24.07520357551367
 21
7.4445707093478
 31
0.0
  0
LINE
  5
A2
330
2
100
AcDbEntity
  8
GAIKEI
 62
     1
 48
0.033391
370
    40
100
AcDbLine
 10
24.07520357551367
 20
4.937073909347788
 30
0.0
 11
24.07520357551367
 21
5.204205709347803
 31
0.0
  0
LINE
  5
A3
330
2
100
AcDbEntity
  8
GAIKEI
 62
     1
 48
0.238396
370
    40
100
AcDbLine
 10
24.07520357551367
 20
4.937073909347788
 30
0.0
 11
24.07520357551367
 21
3.02990390934778
 31
0.0
  0
LINE
  5
A4
330
2
100
AcDbEntity
  8
GAIKEI
 62
     1
 48
0.075313
370
    40
100
AcDbLine
 10
24.07520357551367
 20
2.427402909347819
 30
0.0
 11
24.07520357551367
 21
3.02990390934778
 31
0.0
  0
LINE
  5
A5
330
2
100
AcDbEntity
  8
GAIKEI
 62
     1
 48
0.012647
370
    40
100
AcDbLine
 10
24.07520357551367
 20
2.326230309347778
 30
0.0
 11
24.07520357551367
 21
2.427402909347819
 31
0.0
  0
LINE
  5
A6
330
2
100
AcDbEntity
  8
GAIKEI
 62
     1
 48
0.007503
370
    40
100
AcDbLine
 10
24.07520357551367
 20
2.326230309347778
 30
0.0
 11
24.07520357551367
 21
2.266208309347774
 31
0.0
  0
LINE
  5
A7
330
2
100
AcDbEntity
  8
GAIKEI
 62
     1
 48
0.000116
370
    40
100
AcDbLine
 10
24.07520357551367
 20
2.265278309347792
 30
0.0
 11
24.07520357551367
 21
2.266208309347774
 31
0.0
  0
LINE
  5
A8
330
2
100
AcDbEntity
  8
GAIKEI
 62
     1
 48
0.037551
370
    13
100
AcDbLine
 10
24.07520357551367
 20
2.266208309347774
 30
0.0
 11
23.77520197551367
 21
2.281863909347777
 31
0.0
  0
SPLINE
  5
A9
330
2
100
AcDbEntity
  8
GAIKEI
 62
     1
370
    40
100
AcDbSpline
210
0.0
220
0.0
230
1.0
 70
     8
 71
     5
 72
    15
 73
     9
 74
     0
 42
0.0000000001
 43
0.0000000001
 40
0.0
 40
0.0
 40
0.0
 40
0.0
 40
0.0
 40
0.0
 40
1.69805785340463
 40
1.69805785340463
 40
1.69805785340463
 40
3.034965840379039
 40
3.034965840379039
 40
3.034965840379039
 40
3.034965840379039
 40
3.034965840379039
 40
3.034965840379039
 10
24.07520317551364
 20
23.37810089230683
 30
0.0
 10
24.07520317551364
 20
23.38109448868747
 30
0.0
 10
24.06904110507914
 20
23.38364953603983
 30
0.0
 10
24.05664333293545
 20
23.38568394389901
 30
0.0
 10
24.02247503501586
 20
23.38814125868916
 30
0.0
 10
23.96768708742363
 20
23.38813470157035
 30
0.0
 10
23.94023391097873
 20
23.38761057916841
 30
0.0
 10
23.90952219946713
 20
23.38648982919406
 30
0.0
 10
23.87869365680109
 20
23.38491047685542
 30
0.0
  0
LINE
  5
AA
330
2
100
AcDbEntity
  8
GAIKEI
 62
     1
 48
0.012954
370
    40
100
AcDbLine
 10
23.77520037551366
 20
23.37960870934782
 30
0.0
 11
23.87869397551367
 21
23.38491030934782
 31
0.0
  0
LINE
  5
AB
330
2
100
AcDbEntity
  8
GAIKEI
 62
     1
 48
0.067703
370
    40
100
AcDbLine
 10
24.07520357551367
 20
22.2852223093478
 30
0.0
 11
24.07520357551367
 21
22.82684990934777
 31
0.0
  0
LINE
  5
AC
330
2
100
AcDbEntity
  8
GAIKEI
 62
     1
 48
0.097334
370
    40
100
AcDbLine
 10
24.07520357551367
 20
21.50654870934781
 30
0.0
 11
24.07520357551367
 21
22.2852223093478
 31
0.0
  0
LINE
  5
AD
330
2
100
AcDbEntity
  8
GAIKEI
 62
     1
 48
0.00106
370
    40
100
AcDbLine
 10
24.07520357551367
 20
5.167503109347791
 30
0.0
 11
24.07520357551367
 21
5.175986909347813
 31
0.0
  0
LINE
  5
AE
330
2
100
AcDbEntity
  8
GAIKEI
 62
     1
 48
0.156149
370
    40
100
AcDbLine
 10
24.07520357551367
 20
3.918312509347771
 30
0.0
 11
24.07520357551367
 21
5.167503109347791
 31
0.0
  0
LINE
  5
AF
330
2
100
AcDbEntity
  8
GAIKEI
 62
     1
 48
0.064164
370
    40
100
AcDbLine
 10
24.07520357551367
 20
3.918312509347771
 30
0.0
 11
24.07520357551367
 21
3.405003109347802
 31
0.0
  0
LINE
  5
B0
330
2
100
AcDbEntity
  8
GAIKEI
 62
     1
 48
0.017819
370
    40
100
AcDbLine
 10
24.07520357551367
 20
22.95424010934781
 30
0.0
 11
24.07520357551367
 21
23.09679610934782
 31
0.0
  0
LINE
  5
B1
330
2
100
AcDbEntity
  8
GAIKEI
 62
     1
 48
0.015924
370
    40
100
AcDbLine
 10
24.07520357551367
 20
22.82684990934777
 30
0.0
 11
24.07520357551367
 21
22.95424010934781
 31
0.0
  0
LINE
  5
B2
330
2
100
AcDbEntity
  8
GAIKEI
 62
     1
 48
0.002002
370
    40
100
AcDbLine
 10
24.07520357551367
 20
21.52262090934781
 30
0.0
 11
24.07520357551367
 21
21.50660590934783
 31
0.0
  0
LINE
  5
B3
330
2
100
AcDbEntity
  8
GAIKEI
 62
     1
 48
0.3598
370
    40
100
AcDbLine
 10
24.07520357551367
 20
21.50660590934783
 30
0.0
 11
24.07520357551367
 21
5.200442309347778
 31
0.0
  0
LINE
  5
B4
330
2
100
AcDbEntity
  8
GAIKEI
 62
     1
 48
0.003047
370
    40
100
AcDbLine
 10
24.07520357551367
 20
5.176063309347824
 30
0.0
 11
24.07520357551367
 21
5.200442309347778
 31
0.0
  0
LINE
  5
B5
330
2
100
AcDbEntity
  8
GAIKEI
 62
     1
 48
0.017096
370
    40
100
AcDbLine
 10
24.07520357551367
 20
3.405003109347802
 30
0.0
 11
24.07520357551367
 21
3.26823630934777
 31
0.0
  0
LINE
  5
B6
330
2
100
AcDbEntity
  8
GAIKEI
 62
     1
 48
0.050934
370
    40
100
AcDbLine
 10
24.07520357551367
 20
2.860762509347779
 30
0.0
 11
24.07520357551367
 21
3.26823630934777
 31
0.0
  0
LINE
  5
B7
330
2
100
AcDbEntity
  8
GAIKEI
 62
     1
 48
0.0066
370
    40
100
AcDbLine
 10
24.07520357551367
 20
2.807964709347771
 30
0.0
 11
24.07520357551367
 21
2.860762509347779
 31
0.0
  0
LINE
  5
B8
330
2
100
AcDbEntity
  8
GAIKEI
 62
     1
 48
0.008764
370
    40
100
AcDbLine
 10
24.07520357551367
 20
2.807964109347807
 30
0.0
 11
24.07520357551367
 21
2.737850709347782
 31
0.0
  0
LINE
  5
B9
330
2
100
AcDbEntity
  8
GAIKEI
 62
     1
 48
0.004044
370
    40
100
AcDbLine
 10
24.07520357551367
 20
2.705498309347802
 30
0.0
 11
24.07520357551367
 21
2.737850709347782
 31
0.0
  0
LINE
  5
BA
330
2
100
AcDbEntity
  8
GAIKEI
 62
     1
 48
0.000329
370
    40
100
AcDbLine
 10
24.07520357551367
 20
5.20033390934779
 30
0.0
 11
24.07520357551367
 21
5.202968309347824
 31
0.0
  0
LINE
  5
BB
330
2
100
AcDbEntity
  8
GAIKEI
 62
     1
 48
0.001641
370
    40
100
AcDbLine
 10
14.69520317551367
 20
21.35087870934782
 30
0.0
 11
14.69520317551367
 21
21.33774770934778
 31
0.0
  0
LINE
  5
BC
330
2
100
AcDbEntity
  8
GAIKEI
 62
     1
 48
0.008149
370
    40
100
AcDbLine
 10
14.69520317551367
 20
21.35087870934782
 30
0.0
 11
14.69520317551367
 21
21.41607330934781
 31
0.0
  0
LINE
  5
BD
330
2
100
AcDbEntity
  8
GAIKEI
 62
     1
 48
0.003297
370
    40
100
AcDbLine
 10
17.59520317551366
 20
23.67161750934778
 30
0.0
 11
17.59520317551366
 21
23.64523810934779
 31
0.0
  0
ARC
  5
BE
330
2
100
AcDbEntity
  8
GAIKEI
 62
     1
370
    40
100
AcDbCircle
 10
6.761533975513671
 20
32.95110210934777
 30
0.0
 40
14.0
100
AcDbArc
 50
304.5197729999993
 51
317.5693540000007
  0
ARC
  5
BF
330
2
100
AcDbEntity
  8
GAIKEI
 62
     1
370
    40
100
AcDbCircle
 10
17.53771557551367
 20
23.10052310934779
 30
0.0
 40
0.6000000000000001
100
AcDbArc
 50
90.99999699999985
 51
137.5693540000006
  0
LINE
  5
C0
330
2
100
AcDbEntity
  8
GAIKEI
 62
     1
 48
0.004746
370
    40
100
AcDbLine
 10
17.52724397551367
 20
23.7004315093478
 30
0.0
 11
17.56520777551367
 21
23.70109450934777
 31
0.0
  0
LINE
  5
C1
330
2
100
AcDbEntity
  8
GAIKEI
 62
     1
 48
0.005257
370
    40
100
AcDbLine
 10
17.59520317551366
 20
23.67161750934778
 30
0.0
 11
17.56520777551367
 21
23.70109450934777
 31
0.0
  0
CIRCLE
  5
C2
330
2
100
AcDbEntity
  8
GAIKEI
 62
     1
370
    40
100
AcDbCircle
 10
-14.94303883512508
 20
16.62549790934778
 30
0.0
 40
0.27
  0
CIRCLE
  5
C3
330
2
100
AcDbEntity
  8
GAIKEI
 62
     1
370
    13
100
AcDbCircle
 10
-21.35162643512508
 20
12.9254979093478
 30
0.0
 40
6.5475196
  0
ARC
  5
C4
330
2
100
AcDbEntity
  8
GAIKEI
 62
     1
370
    40
100
AcDbCircle
 10
-21.35162643512508
 20
12.9254979093478
 30
0.0
 40
8.0
100
AcDbArc
 50
269.92801
 51
270.0719910000005
  0
ARC
  5
C5
330
2
100
AcDbEntity
  8
GAIKEI
 62
     1
370
    40
100
AcDbCircle
 10
-21.34169683512508
 20
4.96555530934782
 30
0.0
 40
0.0400604
100
AcDbArc
 50
270.1726370000006
 51
0.1043440000011656
  0
ARC
  5
C6
330
2
100
AcDbEntity
  8
GAIKEI
 62
     1
370
    40
100
AcDbCircle
 10
-21.34149963512507
 20
5.485597709347786
 30
0.0
 40
0.0398902
100
AcDbArc
 50
0.1806420000015032
 51
90.25908500000022
  0
ARC
  5
C7
330
2
100
AcDbEntity
  8
GAIKEI
 62
     1
370
    40
100
AcDbCircle
 10
-21.35162643512508
 20
12.9254979093478
 30
0.0
 40
7.4
100
AcDbArc
 50
269.9229829999998
 51
270.0770179999993
  0
ARC
  5
C8
330
2
100
AcDbEntity
  8
GAIKEI
 62
     1
370
    40
100
AcDbCircle
 10
-21.36175323512508
 20
5.485597709347786
 30
0.0
 40
0.0398902
100
AcDbArc
 50
89.74091999999929
 51
179.8193600000014
  0
ARC
  5
C9
330
2
100
AcDbEntity
  8
GAIKEI
 62
     1
370
    40
100
AcDbCircle
 10
-21.36155603512507
 20
4.96555530934782
 30
0.0
 40
0.0400604
100
AcDbArc
 50
179.8956529999994
 51
269.8273610000005
  0
CIRCLE
  5
CA
330
2
100
AcDbEntity
  8
GAIKEI
 62
     1
370
    13
100
AcDbCircle
 10
-21.35162643512508
 20
12.9254979093478
 30
0.0
 40
8.225386
  0
LINE
  5
CB
330
2
100
AcDbEntity
  8
GAIKEI
 62
     1
 48
0.064742
370
    40
100
AcDbLine
 10
-21.30162643512509
 20
4.966695109347796
 30
0.0
 11
-21.30162643512509
 21
5.484628709347788
 31
0.0
  0
LINE
  5
CC
330
2
100
AcDbEntity
  8
GAIKEI
 62
     1
 48
0.000137
370
    40
100
AcDbLine
 10
-21.30162643512509
 20
5.484628709347788
 30
0.0
 11
-21.30162643512509
 21
5.48572350934782
 31
0.0
  0
LINE
  5
CD
330
2
100
AcDbEntity
  8
GAIKEI
 62
     1
 48
0.000133
370
    40
100
AcDbLine
 10
-21.30162643512509
 20
4.965628509347794
 30
0.0
 11
-21.30162643512509
 21
4.966695109347796
 31
0.0
  0
ARC
  5
CE
330
2
100
AcDbEntity
  8
GAIKEI
 62
     1
370
    40
100
AcDbCircle
 10
-14.71134783512508
 20
7.805701509347812
 30
0.0
 40
0.0393252
100
AcDbArc
 50
143.1601629999999
 51
243.0439770000002
  0
ARC
  5
CF
330
2
100
AcDbEntity
  8
GAIKEI
 62
     1
370
    40
100
AcDbCircle
 10
-120.6770170351251
 20
-186.7846094906522
 30
0.0
 40
221.532544
100
AcDbArc
 50
60.90488599999927
 51
61.42886399999994
  0
LINE
  5
D0
330
2
100
AcDbEntity
  8
GAIKEI
 62
     1
 48
0.022146
370
    40
100
AcDbLine
 10
-12.79646203512507
 20
6.705865109347797
 30
0.0
 11
-12.95129983512508
 21
6.791963309347778
 31
0.0
  0
ARC
  5
D1
330
2
100
AcDbEntity
  8
GAIKEI
 62
     1
370
    13
100
AcDbCircle
 10
-21.35162643512508
 20
12.9254979093478
 30
0.0
 40
10.577082
100
AcDbArc
 50
216.0172749999998
 51
323.9827299999999
  0
LINE
  5
D2
330
2
100
AcDbEntity
  8
GAIKEI
 62
     1
 48
0.022146
370
    40
100
AcDbLine
 10
-29.90679083512509
 20
6.705865109347797
 30
0.0
 11
-29.7519530351251
 21
6.791963309347778
 31
0.0
  0
LINE
  5
D3
330
2
100
AcDbEntity
  8
GAIKEI
 62
     1
 48
0.000436
370
    40
100
AcDbLine
 10
-29.7519530351251
 20
6.791963309347778
 30
0.0
 11
-29.74890583512507
 21
6.7936567093478
 31
0.0
  0
ARC
  5
D4
330
2
100
AcDbEntity
  8
GAIKEI
 62
     1
370
    40
100
AcDbCircle
 10
77.97376416487492
 20
-186.7846094906522
 30
0.0
 40
221.532544
100
AcDbArc
 50
118.571127999999
 51
119.0951119999994
  0
ARC
  5
D5
330
2
100
AcDbEntity
  8
GAIKEI
 62
     1
370
    40
100
AcDbCircle
 10
-27.99190503512509
 20
7.805701509347812
 30
0.0
 40
0.0393252
100
AcDbArc
 50
296.9560219999996
 51
36.83983499999958
  0
LINE
  5
D6
330
2
100
AcDbEntity
  8
GAIKEI
 62
     1
 48
0.001143
370
    40
100
AcDbLine
 10
-27.96609643512508
 20
7.836461309347811
 30
0.0
 11
-27.96051623512509
 21
7.829217309347797
 31
0.0
  0
ARC
  5
D7
330
2
100
AcDbEntity
  8
GAIKEI
 62
     1
370
    40
100
AcDbCircle
 10
-21.35162643512508
 20
12.9254979093478
 30
0.0
 40
8.3456276
100
AcDbArc
 50
202.3632769999987
 51
217.5739439999988
  0
ARC
  5
D8
330
2
100
AcDbEntity
  8
GAIKEI
 62
     1
370
    13
100
AcDbCircle
 10
-21.35162643512508
 20
12.9254979093478
 30
0.0
 40
10.577082
100
AcDbArc
 50
336.0172750000011
 51
83.98273200000074
  0
LINE
  5
D9
330
2
100
AcDbEntity
  8
GAIKEI
 62
     1
 48
0.022146
370
    40
100
AcDbLine
 10
-11.68768443512508
 20
8.626324509347824
 30
0.0
 11
-11.83966663512508
 21
8.717369109347799
 31
0.0
  0
LINE
  5
DA
330
2
100
AcDbEntity
  8
GAIKEI
 62
     1
 48
0.000436
370
    40
100
AcDbLine
 10
-11.83966663512508
 20
8.717369109347799
 30
0.0
 11
-11.84265663512508
 21
8.719161309347811
 31
0.0
  0
ARC
  5
DB
330
2
100
AcDbEntity
  8
GAIKEI
 62
     1
370
    40
100
AcDbCircle
 10
102.1448701648749
 20
199.1391575093478
 30
0.0
 40
221.9299072
100
AcDbArc
 50
238.5737699999996
 51
239.0947919999999
  0
LINE
  5
DC
330
2
100
AcDbEntity
  8
GAIKEI
 62
     1
 48
0.000982
370
    40
100
AcDbLine
 10
-13.56938923512508
 20
9.76372930934778
 30
0.0
 11
-13.57609083512508
 21
9.76783190934779
 31
0.0
  0
ARC
  5
DD
330
2
100
AcDbEntity
  8
GAIKEI
 62
     1
370
    40
100
AcDbCircle
 10
-13.59761343512508
 20
9.73474610934781
 30
0.0
 40
0.0393252
100
AcDbArc
 50
56.9560179999998
 51
156.8398300000009
  0
ARC
  5
DE
330
2
100
AcDbEntity
  8
GAIKEI
 62
     1
370
    40
100
AcDbCircle
 10
-21.35162643512508
 20
12.9254979093478
 30
0.0
 40
8.3456276
100
AcDbArc
 50
322.4260610000001
 51
337.636715000001
  0
LINE
  5
DF
330
2
100
AcDbEntity
  8
GAIKEI
 62
     1
 48
0.001143
370
    40
100
AcDbLine
 10
-14.73715643512508
 20
7.836461309347811
 30
0.0
 11
-14.74273663512508
 21
7.829217309347797
 31
0.0
  0
ARC
  5
E0
330
2
100
AcDbEntity
  8
GAIKEI
 62
     1
370
    40
100
AcDbCircle
 10
-29.10563943512509
 20
9.73474610934781
 30
0.0
 40
0.0393252
100
AcDbArc
 50
23.16016300000006
 51
123.0439860000002
  0
LINE
  5
E1
330
2
100
AcDbEntity
  8
GAIKEI
 62
     1
 48
0.000982
370
    40
100
AcDbLine
 10
-29.13386363512507
 20
9.76372930934778
 30
0.0
 11
-29.12716203512508
 21
9.76783190934779
 31
0.0
  0
ARC
  5
E2
330
2
100
AcDbEntity
  8
GAIKEI
 62
     1
370
    40
100
AcDbCircle
 10
-144.8481230351251
 20
199.1391575093478
 30
0.0
 40
221.9299072
100
AcDbArc
 50
300.9052110000001
 51
301.4262220000001
  0
LINE
  5
E3
330
2
100
AcDbEntity
  8
GAIKEI
 62
     1
 48
0.022146
370
    40
100
AcDbLine
 10
-31.01556843512509
 20
8.626324509347824
 30
0.0
 11
-30.86358623512507
 21
8.717369109347799
 31
0.0
  0
ARC
  5
E4
330
2
100
AcDbEntity
  8
GAIKEI
 62
     1
370
    13
100
AcDbCircle
 10
-21.35162643512508
 20
12.9254979093478
 30
0.0
 40
10.577082
100
AcDbArc
 50
96.01727599999925
 51
203.982724999999
  0
LINE
  5
E5
330
2
100
AcDbEntity
  8
GAIKEI
 62
     1
 48
0.022146
370
    40
100
AcDbLine
 10
-22.46040403512508
 20
23.44430430934782
 30
0.0
 11
-22.46326003512507
 21
23.26716130934781
 31
0.0
  0
LINE
  5
E6
330
2
100
AcDbEntity
  8
GAIKEI
 62
     1
 48
0.000436
370
    40
100
AcDbLine
 10
-22.46326003512507
 20
23.26716130934781
 30
0.0
 11
-22.46331723512509
 21
23.2636753093478
 31
0.0
  0
ARC
  5
E7
330
2
100
AcDbEntity
  8
GAIKEI
 62
     1
370
    40
100
AcDbCircle
 10
-243.968350035125
 20
26.76223810934781
 30
0.0
 40
221.532544
100
AcDbArc
 50
358.5711339999996
 51
359.0951169999996
  0
ARC
  5
E8
330
2
100
AcDbEntity
  8
GAIKEI
 62
     1
370
    40
100
AcDbCircle
 10
-22.46536083512508
 20
21.23604630934782
 30
0.0
 40
0.0393252
100
AcDbArc
 50
176.956022
 51
276.8398339999999
  0
LINE
  5
E9
330
2
100
AcDbEntity
  8
GAIKEI
 62
     1
 48
0.001143
370
    40
100
AcDbLine
 10
-22.45162643512508
 20
21.19831510934782
 30
0.0
 11
-22.46068983512508
 21
21.1971051093478
 31
0.0
  0
ARC
  5
EA
330
2
100
AcDbEntity
  8
GAIKEI
 62
     1
370
    40
100
AcDbCircle
 10
-21.35162643512508
 20
12.9254979093478
 30
0.0
 40
8.3456276
100
AcDbArc
 50
82.4260600000006
 51
97.57393699999935
  0
LINE
  5
EB
330
2
100
AcDbEntity
  8
GAIKEI
 62
     1
 48
0.001143
370
    40
100
AcDbLine
 10
-20.25162643512508
 20
21.19831510934782
 30
0.0
 11
-20.24256303512507
 21
21.1971051093478
 31
0.0
  0
ARC
  5
EC
330
2
100
AcDbEntity
  8
GAIKEI
 62
     1
370
    40
100
AcDbCircle
 10
-20.23789203512508
 20
21.23604630934782
 30
0.0
 40
0.0393252
100
AcDbArc
 50
263.1601639999995
 51
3.043975999999016
  0
ARC
  5
ED
330
2
100
AcDbEntity
  8
GAIKEI
 62
     1
370
    40
100
AcDbCircle
 10
201.2650971648749
 20
26.76223810934781
 30
0.0
 40
221.532544
100
AcDbArc
 50
180.9048860000009
 51
181.4288709999989
  0
LINE
  5
EE
330
2
100
AcDbEntity
  8
GAIKEI
 62
     1
 48
0.000436
370
    40
100
AcDbLine
 10
-20.23999283512508
 20
23.26716130934781
 30
0.0
 11
-20.23993563512508
 21
23.2636753093478
 31
0.0
  0
LINE
  5
EF
330
2
100
AcDbEntity
  8
GAIKEI
 62
     1
 48
0.022146
370
    40
100
AcDbLine
 10
-20.24284883512507
 20
23.44430430934782
 30
0.0
 11
-20.23999283512508
 21
23.26716130934781
 31
0.0
  0
LINE
  5
F0
330
2
100
AcDbEntity
  8
GAIKEI
 62
     1
 48
0.001002
370
    40
100
AcDbLine
 10
-12.61798083512508
 20
6.612954709347803
 30
0.0
 11
-12.61014463512508
 21
6.611255709347773
 31
0.0
  0
LINE
  5
F1
330
2
100
AcDbEntity
  8
GAIKEI
 62
     1
 48
0.000654
370
    40
100
AcDbLine
 10
-12.61798083512508
 20
6.612954709347803
 30
0.0
 11
-12.62309783512508
 21
6.614064109347822
 31
0.0
  0
SPLINE
  5
F2
330
2
100
AcDbEntity
  8
GAIKEI
 62
     1
370
    40
100
AcDbSpline
210
0.0
220
0.0
230
1.0
 70
     8
 71
     5
 72
    15
 73
     9
 74
     0
 42
0.0000000001
 43
0.0000000001
 40
0.0
 40
0.0
 40
0.0
 40
0.0
 40
0.0
 40
0.0
 40
1.983578262866652
 40
1.983578262866652
 40
1.983578262866652
 40
3.30517124438094
 40
3.30517124438094
 40
3.30517124438094
 40
3.30517124438094
 40
3.30517124438094
 40
3.30517124438094
 10
-12.62309769136021
 20
6.614064236729376
 30
0.0
 10
-12.62622924682377
 20
6.614743272545155
 30
0.0
 10
-12.63505499476854
 20
6.618717058356224
 30
0.0
 10
-12.6495132566128
 20
6.625970695873405
 30
0.0
 10
-12.68251841727827
 20
6.643284117111164
 30
0.0
 10
-12.72909564102532
 20
6.668616448814049
 30
0.0
 10
-12.74975373901678
 20
6.679954506014695
 30
0.0
 10
-12.77227446575361
 20
6.692407155965923
 30
0.0
 10
-12.79646183163513
 20
6.705865217734043
 30
0.0
  0
SPLINE
  5
F3
330
2
100
AcDbEntity
  8
GAIKEI
 62
     1
370
    40
100
AcDbSpline
210
0.0
220
0.0
230
1.0
 70
     8
 71
     5
 72
    15
 73
     9
 74
     0
 42
0.0000000001
 43
0.0000000001
 40
0.0
 40
0.0
 40
0.0
 40
0.0
 40
0.0
 40
0.0
 40
1.983578262852321
 40
1.983578262852321
 40
1.983578262852321
 40
3.30517124440328
 40
3.30517124440328
 40
3.30517124440328
 40
3.30517124440328
 40
3.30517124440328
 40
3.30517124440328
 10
-30.08015517889007
 20
6.614064236729376
 30
0.0
 10
-30.0770236234265
 20
6.614743272545155
 30
0.0
 10
-30.06819787548181
 20
6.618717058356224
 30
0.0
 10
-30.05373961363728
 20
6.625970695873405
 30
0.0
 10
-30.02073445297162
 20
6.643284117111278
 30
0.0
 10
-29.97415722922415
 20
6.668616448814503
 30
0.0
 10
-29.95349913123494
 20
6.679954506013785
 30
0.0
 10
-29.93097840449758
 20
6.692407155965355
 30
0.0
 10
-29.90679103861538
 20
6.705865217733816
 30
0.0
  0
ARC
  5
F4
330
2
100
AcDbEntity
  8
GAIKEI
 62
     1
370
    13
100
AcDbCircle
 10
-21.35162643512508
 20
12.9254979093478
 30
0.0
 40
10.7713234
100
AcDbArc
 50
215.8699729999999
 51
324.1300139999997
  0
ARC
  5
F5
330
2
100
AcDbEntity
  8
GAIKEI
 62
     1
370
    13
100
AcDbCircle
 10
-21.35162643512508
 20
12.9254979093478
 30
0.0
 40
10.7713234
100
AcDbArc
 50
335.8699900000008
 51
84.13001799999952
  0
SPLINE
  5
F6
330
2
100
AcDbEntity
  8
GAIKEI
 62
     1
370
    40
100
AcDbSpline
210
0.0
220
0.0
230
1.0
 70
     8
 71
     5
 72
    15
 73
     9
 74
     0
 42
0.0000000001
 43
0.0000000001
 40
0.0
 40
0.0
 40
0.0
 40
0.0
 40
0.0
 40
0.0
 40
1.983578262701172
 40
1.983578262701172
 40
1.983578262701172
 40
3.305171244241414
 40
3.305171244241414
 40
3.305171244241414
 40
3.305171244241414
 40
3.305171244241414
 40
3.305171244241414
 10
-11.52150016845461
 20
8.522087115893867
 30
0.0
 10
-11.52365400845272
 20
8.524459604570637
 30
0.0
 10
-11.53150828188572
 20
8.530116033591838
 30
0.0
 10
-11.54501924717178
 20
8.539010436887878
 30
0.0
 10
-11.57651569012213
 20
8.558937033860871
 30
0.0
 10
-11.62174274478565
 20
8.586607927010874
 30
0.0
 10
-11.64189083934492
 20
8.598829336064085
 30
0.0
 10
-11.66393551391601
 20
8.61210653255452
 30
0.0
 10
-11.68768422023412
 20
8.6263243749747
 30
0.0
  0
SPLINE
  5
F7
330
2
100
AcDbEntity
  8
GAIKEI
 62
     1
370
    40
100
AcDbSpline
210
0.0
220
0.0
230
1.0
 70
     8
 71
     5
 72
    15
 73
     9
 74
     0
 42
0.0000000001
 43
0.0000000001
 40
0.0
 40
0.0
 40
0.0
 40
0.0
 40
0.0
 40
0.0
 40
1.983578262826331
 40
1.983578262826331
 40
1.983578262826331
 40
3.305171244398335
 40
3.305171244398335
 40
3.305171244398335
 40
3.305171244398335
 40
3.305171244398335
 40
3.305171244398335
 10
-22.45322395803066
 20
23.64034237542004
 30
0.0
 10
-22.45420167349587
 20
23.63729085092743
 30
0.0
 10
-22.45517314800662
 20
23.62766063609464
 30
0.0
 10
-22.45612044456924
 20
23.61151259528319
 30
0.0
 10
-22.45762916228362
 20
23.57427257707181
 30
0.0
 10
-22.45897933136533
 20
23.5212693522171
 30
0.0
 10
-22.45948933479571
 20
23.49770988596649
 30
0.0
 10
-22.45996538696193
 20
23.47198003952403
 30
0.0
 10
-22.4604040465258
 20
23.44430413533471
 30
0.0
  0
ARC
  5
F8
330
2
100
AcDbEntity
  8
GAIKEI
 62
     1
370
    13
100
AcDbCircle
 10
-21.35162643512508
 20
12.9254979093478
 30
0.0
 40
10.7713234
100
AcDbArc
 50
95.86997700000052
 51
204.1300249999998
  0
SPLINE
  5
F9
330
2
100
AcDbEntity
  8
GAIKEI
 62
     1
370
    40
100
AcDbSpline
210
0.0
220
0.0
230
1.0
 70
     8
 71
     5
 72
    15
 73
     9
 74
     0
 42
0.0000000001
 43
0.0000000001
 40
0.0
 40
0.0
 40
0.0
 40
0.0
 40
0.0
 40
0.0
 40
1.983578262794425
 40
1.983578262794425
 40
1.983578262794425
 40
3.30517124433616
 40
3.30517124433616
 40
3.30517124433616
 40
3.30517124433616
 40
3.30517124433616
 40
3.30517124433616
 10
-31.18175270179558
 20
8.522087115893867
 30
0.0
 10
-31.17959886179733
 20
8.524459604570751
 30
0.0
 10
-31.17174458836379
 20
8.530116033592406
 30
0.0
 10
-31.1582336230801
 20
8.539010436886854
 30
0.0
 10
-31.1267371801292
 20
8.558937033860132
 30
0.0
 10
-31.08151012546432
 20
8.586607927011044
 30
0.0
 10
-31.061362030905
 20
8.598829336064198
 30
0.0
 10
-31.03931735633395
 20
8.612106532554633
 30
0.0
 10
-31.01556865001578
 20
8.626324374974927
 30
0.0
  0
LINE
  5
FA
330
2
100
AcDbEntity
  8
GAIKEI
 62
     1
 48
0.001002
370
    40
100
AcDbLine
 10
-20.25162643512508
 20
23.64532830934777
 30
0.0
 11
-20.25407343512508
 21
23.65296450934781
 31
0.0
  0
LINE
  5
FB
330
2
100
AcDbEntity
  8
GAIKEI
 62
     1
 48
0.000654
370
    40
100
AcDbLine
 10
-20.25162643512508
 20
23.64532830934777
 30
0.0
 11
-20.25002903512508
 21
23.64034250934779
 31
0.0
  0
SPLINE
  5
FC
330
2
100
AcDbEntity
  8
GAIKEI
 62
     1
370
    40
100
AcDbSpline
210
0.0
220
0.0
230
1.0
 70
     8
 71
     5
 72
    15
 73
     9
 74
     0
 42
0.0000000001
 43
0.0000000001
 40
0.0
 40
0.0
 40
0.0
 40
0.0
 40
0.0
 40
0.0
 40
1.983578262794686
 40
1.983578262794686
 40
1.983578262794686
 40
3.305171244337071
 40
3.305171244337071
 40
3.305171244337071
 40
3.305171244337071
 40
3.305171244337071
 40
3.305171244337071
 10
-20.25002891221956
 20
23.64034237542004
 30
0.0
 10
-20.24905119675435
 20
23.63729085092743
 30
0.0
 10
-20.2480797222436
 20
23.62766063609493
 30
0.0
 10
-20.24713242568095
 20
23.61151259528262
 30
0.0
 10
-20.2456237079666
 20
23.5742725770717
 30
0.0
 10
-20.24427353888494
 20
23.52126935221824
 30
0.0
 10
-20.24376353545448
 20
23.49770988596558
 30
0.0
 10
-20.24328748328824
 20
23.47198003952386
 30
0.0
 10
-20.24284882372443
 20
23.44430413533516
 30
0.0
  0
SPLINE
  5
FD
330
2
100
AcDbEntity
  8
GAIKEI
 62
     1
370
    40
100
AcDbSpline
210
0.0
220
0.0
230
1.0
 70
     8
 71
     5
 72
    18
 73
    12
 74
     0
 42
0.0000000001
 43
0.0000000001
 40
0.0
 40
0.0
 40
0.0
 40
0.0
 40
0.0
 40
0.0
 40
0.3902297549866924
 40
0.3902297549866924
 40
0.3902297549866924
 40
0.6769371501553621
 40
0.6769371501553621
 40
0.6769371501553621
 40
0.7079937747584437
 40
0.7079937747584437
 40
0.7079937747584437
 40
0.7079937747584437
 40
0.7079937747584437
 40
0.7079937747584437
 10
-12.61014440775933
 20
6.611255901837438
 30
0.0
 10
-12.60955727283384
 20
6.611128626739031
 30
0.0
 10
-12.60795921389866
 20
6.612415852187808
 30
0.0
 10
-12.60541605227976
 20
6.615063323642829
 30
0.0
 10
-12.60004211843805
 20
6.62125687169086
 30
0.0
 10
-12.59348164572174
 20
6.629559872273006
 30
0.0
 10
-12.58991258970462
 20
6.634217464388399
 30
0.0
 10
-12.58648432091512
 20
6.638826318219486
 30
0.0
 10
-12.58310017106018
 20
6.643510836580418
 30
0.0
 10
-12.58276996833537
 20
6.643969236500396
 30
0.0
 10
-12.58244035166643
 20
6.644428147855279
 30
0.0
 10
-12.58211119750162
 20
6.644887740534471
 30
0.0
  0
LINE
  5
FE
330
2
100
AcDbEntity
  8
GAIKEI
 62
     1
 48
0.064742
370
    40
100
AcDbLine
 10
-21.40162643512508
 20
5.484628709347788
 30
0.0
 11
-21.40162643512508
 21
4.966695109347796
 31
0.0
  0
SPLINE
  5
FF
330
2
100
AcDbEntity
  8
GAIKEI
 62
     1
370
    40
100
AcDbSpline
210
0.0
220
0.0
230
1.0
 70
     8
 71
     5
 72
    18
 73
    12
 74
     0
 42
0.0000000001
 43
0.0000000001
 40
0.0
 40
0.0
 40
0.0
 40
0.0
 40
0.0
 40
0.0
 40
0.390229754997295
 40
0.390229754997295
 40
0.390229754997295
 40
0.676937151840771
 40
0.676937151840771
 40
0.676937151840771
 40
0.7079937764434958
 40
0.7079937764434958
 40
0.7079937764434958
 40
0.7079937764434958
 40
0.7079937764434958
 40
0.7079937764434958
 10
-20.25407346466116
 20
23.65296441552695
 30
0.0
 10
-20.2542568086555
 20
23.65353652683703
 30
0.0
 10
-20.25617060806244
 20
23.65427687374725
 30
0.0
 10
-20.25973496640731
 20
23.65515558058755
 30
0.0
 10
-20.26778570329759
 20
23.65671276979262
 30
0.0
 10
-20.27825654911985
 20
23.65824280553838
 30
0.0
 10
-20.28407467010855
 20
23.65900490264451
 30
0.0
 10
-20.2897801890332
 20
23.65966944359556
 30
0.0
 10
-20.29552917589615
 20
23.66025794416279
 30
0.0
 10
-20.29609126323429
 20
23.66031470815082
 30
0.0
 10
-20.29665350046024
 20
23.6603707088822
 30
0.0
 10
-20.29721609647821
 20
23.66042596841109
 30
0.0
  0
ARC
  5
100
330
2
100
AcDbEntity
  8
GAIKEI
 62
     1
370
    40
100
AcDbCircle
 10
-21.35162643512508
 20
12.9254979093478
 30
0.0
 40
10.7865868
100
AcDbArc
 50
324.390272
 51
335.6097329999994
  0
ARC
  5
101
330
2
100
AcDbEntity
  8
GAIKEI
 62
     1
370
    40
100
AcDbCircle
 10
-21.35162643512508
 20
12.9254979093478
 30
0.0
 40
10.7865868
100
AcDbArc
 50
84.39026599999985
 51
95.60973199999905
  0
SPLINE
  5
102
330
2
100
AcDbEntity
  8
GAIKEI
 62
     1
370
    40
100
AcDbSpline
210
0.0
220
0.0
230
1.0
 70
     8
 71
     5
 72
    18
 73
    12
 74
     0
 42
0.0000000001
 43
0.0000000001
 40
0.0
 40
0.0
 40
0.0
 40
0.0
 40
0.0
 40
0.0
 40
0.3902357788163332
 40
0.3902357788163332
 40
0.3902357788163332
 40
0.6769470782133798
 40
0.6769470782133798
 40
0.6769470782133798
 40
0.7080042338998323
 40
0.7080042338998323
 40
0.7080042338998323
 40
0.7080042338998323
 40
0.7080042338998323
 40
0.7080042338998323
 10
-30.09310846198812
 20
6.611255901946464
 30
0.0
 10
-30.09369559038058
 20
6.611128628264879
 30
0.0
 10
-30.09529362038583
 20
6.612415823575446
 30
0.0
 10
-30.09783673650171
 20
6.615063235729252
 30
0.0
 10
-30.10321063617744
 20
6.621256731087356
 30
0.0
 10
-30.10977114425589
 20
6.629559768534676
 30
0.0
 10
-30.11334024523043
 20
6.634217415441042
 30
0.0
 10
-30.11676857096799
 20
6.638826348929484
 30
0.0
 10
-30.12015276897171
 20
6.643510934079444
 30
0.0
 10
-30.12048297734086
 20
6.643969341831251
 30
0.0
 10
-30.12081259957517
 20
6.644428260927298
 30
0.0
 10
-30.1211417593106
 20
6.64488786139961
 30
0.0
  0
SPLINE
  5
103
330
2
100
AcDbEntity
  8
GAIKEI
 62
     1
370
    40
100
AcDbSpline
210
0.0
220
0.0
230
1.0
 70
     8
 71
     5
 72
    18
 73
    12
 74
     0
 42
0.0000000001
 43
0.0000000001
 40
0.0
 40
0.0
 40
0.0
 40
0.0
 40
0.0
 40
0.0
 40
0.3902297549916195
 40
0.3902297549916195
 40
0.3902297549916195
 40
0.6769371488779081
 40
0.6769371488779081
 40
0.6769371488779081
 40
0.7079937734812168
 40
0.7079937734812168
 40
0.7079937734812168
 40
0.7079937734812168
 40
0.7079937734812168
 40
0.7079937734812168
 10
-31.19066143295481
 20
8.512273410678943
 30
0.0
 10
-31.191065223886
 20
8.511828574467216
 30
0.0
 10
-31.19074948341458
 20
8.509801002108105
 30
0.0
 10
-31.18972828668811
 20
8.506274823812447
 30
0.0
 10
-31.18705148366465
 20
8.498524086577759
 30
0.0
 10
-31.18314111060056
 20
8.488691050275548
 30
0.0
 10
-31.18089204548349
 20
8.483271360959605
 30
0.0
 10
-31.17861479538695
 20
8.477997966202536
 30
0.0
 10
-31.17624995841879
 20
8.472724947298644
 30
0.0
 10
-31.17601807380547
 20
8.472209783390695
 30
0.0
 10
-31.17578545324841
 20
8.471694871304265
 30
0.0
 10
-31.17555201139533
 20
8.471180019096181
 30
0.0
  0
ARC
  5
104
330
2
100
AcDbEntity
  8
GAIKEI
 62
     1
370
    40
100
AcDbCircle
 10
-16.45972883512508
 20
18.28876990934779
 30
0.0
 40
0.1721824
100
AcDbArc
 50
139.8488080000001
 51
320.1530139999995
  0
LINE
  5
105
330
2
100
AcDbEntity
  8
GAIKEI
 62
     1
 48
0.037037
370
    40
100
AcDbLine
 10
-16.13743543512508
 20
18.40572090934782
 30
0.0
 11
-16.32751363512509
 21
18.17842910934777
 31
0.0
  0
ARC
  5
106
330
2
100
AcDbEntity
  8
GAIKEI
 62
     1
370
    40
100
AcDbCircle
 10
-16.26907063512507
 20
18.51596430934782
 30
0.0
 40
0.1716884
100
AcDbArc
 50
320.0540940000008
 51
139.947379999999
  0
LINE
  5
107
330
2
100
AcDbEntity
  8
GAIKEI
 62
     1
 48
0.037037
370
    40
100
AcDbLine
 10
-16.59134963512508
 20
18.39980630934778
 30
0.0
 11
-16.40050383512508
 21
18.62645570934782
 31
0.0
  0
ARC
  5
108
330
2
100
AcDbEntity
  8
GAIKEI
 62
     1
370
    40
100
AcDbCircle
 10
-16.72866803512508
 20
18.90161290934779
 30
0.0
 40
0.1716884
100
AcDbArc
 50
320.0524359999999
 51
139.9460970000008
  0
LINE
  5
109
330
2
100
AcDbEntity
  8
GAIKEI
 62
     1
 48
0.037037
370
    40
100
AcDbLine
 10
-16.86009503512508
 20
19.0121041093478
 30
0.0
 11
-17.05092723512509
 21
18.78544470934778
 31
0.0
  0
ARC
  5
10A
330
2
100
AcDbEntity
  8
GAIKEI
 62
     1
370
    40
100
AcDbCircle
 10
-16.91930403512508
 20
18.67439810934778
 30
0.0
 40
0.172182
100
AcDbArc
 50
139.8466340000003
 51
320.1515400000009
  0
LINE
  5
10B
330
2
100
AcDbEntity
  8
GAIKEI
 62
     1
 48
0.037037
370
    40
100
AcDbLine
 10
-16.78709823512508
 20
18.56405910934782
 30
0.0
 11
-16.59703243512509
 21
18.79136290934778
 31
0.0
  0
CIRCLE
  5
10C
330
2
100
AcDbEntity
  8
GAIKEI
 62
     1
370
    40
100
AcDbCircle
 10
-21.35162643512508
 20
12.9254979093478
 30
0.0
 40
6.2
  0
ARC
  5
10D
330
2
100
AcDbEntity
  8
GAIKEI
 62
     1
370
    40
100
AcDbCircle
 10
-21.35162643512508
 20
12.9254979093478
 30
0.0
 40
10.7865868
100
AcDbArc
 50
204.390268999999
 51
215.609728
  0
SPLINE
  5
10E
330
2
100
AcDbEntity
  8
GAIKEI
 62
     1
370
    40
100
AcDbSpline
210
0.0
220
0.0
230
1.0
 70
     8
 71
     5
 72
    18
 73
    12
 74
     0
 42
0.0000000001
 43
0.0000000001
 40
0.0
 40
0.0
 40
0.0
 40
0.0
 40
0.0
 40
0.0
 40
0.3902357788575103
 40
0.3902357788575103
 40
0.3902357788575103
 40
0.6769470676275392
 40
0.6769470676275392
 40
0.6769470676275392
 40
0.7080042233140254
 40
0.7080042233140254
 40
0.7080042233140254
 40
0.7080042233140254
 40
0.7080042233140254
 40
0.7080042233140254
 10
-22.449179405746
 20
23.65296441503691
 30
0.0
 10
-22.44899606379121
 20
23.65353651998086
 30
0.0
 10
-22.4470823049497
 20
23.65427685690631
 30
0.0
 10
-22.44351802071354
 20
23.65515555399017
 30
0.0
 10
-22.43546734668342
 20
23.65671273992334
 30
0.0
 10
-22.424996451488
 20
23.65824278783387
 30
0.0
 10
-22.41917825974745
 20
23.65900489658574
 30
0.0
 10
-22.41347264358272
 20
23.65966944699798
 30
0.0
 10
-22.40772357502713
 20
23.66025795584594
 30
0.0
 10
-22.40716147808411
 20
23.66031472080615
 30
0.0
 10
-22.40659923137149
 20
23.66037072248676
 30
0.0
 10
-22.40603662581916
 20
23.66042598294345
 30
0.0
  0
SPLINE
  5
10F
330
2
100
AcDbEntity
  8
GAIKEI
 62
     1
370
    40
100
AcDbSpline
210
0.0
220
0.0
230
1.0
 70
     8
 71
     5
 72
    18
 73
    12
 74
     0
 42
0.0000000001
 43
0.0000000001
 40
0.0
 40
0.0
 40
0.0
 40
0.0
 40
0.0
 40
0.0
 40
0.3902357788453564
 40
0.3902357788453564
 40
0.3902357788453564
 40
0.6769470708897821
 40
0.6769470708897821
 40
0.6769470708897821
 40
0.7080042265762817
 40
0.7080042265762817
 40
0.7080042265762817
 40
0.7080042265762817
 40
0.7080042265762817
 40
0.7080042265762817
 10
-11.51259143764117
 20
8.512273411060021
 30
0.0
 10
-11.5121876512035
 20
8.511828579797537
 30
0.0
 10
-11.51250338003946
 20
8.50980104756158
 30
0.0
 10
-11.51352454816077
 20
8.506274938324366
 30
0.0
 10
-11.51620132261222
 20
8.498524257092725
 30
0.0
 10
-11.52011170987515
 20
8.488691171840372
 30
0.0
 10
-11.5223608001211
 20
8.483271415816915
 30
0.0
 10
-11.52463809068703
 20
8.477997932013607
 30
0.0
 10
-11.52700296137644
 20
8.472724838117954
 30
0.0
 10
-11.5272348499503
 20
8.472209665405756
 30
0.0
 10
-11.52746747442856
 20
8.471694744629218
 30
0.0
 10
-11.52770092024546
 20
8.47117988370033
 30
0.0
  0
LINE
  5
110
330
2
100
AcDbEntity
  8
GAIKEI
 62
     1
 48
0.001002
370
    40
100
AcDbLine
 10
-31.18527203512508
 20
8.518210709347812
 30
0.0
 11
-31.19066143512509
 21
8.512273509347807
 31
0.0
  0
LINE
  5
111
330
2
100
AcDbEntity
  8
GAIKEI
 62
     1
 48
0.000654
370
    40
100
AcDbLine
 10
-31.18527203512508
 20
8.518210709347812
 30
0.0
 11
-31.18175263512509
 21
8.522087109347779
 31
0.0
  0
LINE
  5
112
330
2
100
AcDbEntity
  8
GAIKEI
 62
     1
 48
0.000133
370
    40
100
AcDbLine
 10
-21.40162643512508
 20
4.965628509347794
 30
0.0
 11
-21.40162643512508
 21
4.966695109347796
 31
0.0
  0
LINE
  5
113
330
2
100
AcDbEntity
  8
GAIKEI
 62
     1
 48
0.000137
370
    40
100
AcDbLine
 10
-21.40162643512508
 20
5.484628709347788
 30
0.0
 11
-21.40162643512508
 21
5.48572350934782
 31
0.0
  0
LINE
  5
114
330
2
100
AcDbEntity
  8
GAIKEI
 62
     1
 48
0.000654
370
    40
100
AcDbLine
 10
-22.45162643512508
 20
23.64532830934777
 30
0.0
 11
-22.45322383512509
 21
23.64034250934779
 31
0.0
  0
LINE
  5
115
330
2
100
AcDbEntity
  8
GAIKEI
 62
     1
 48
0.001002
370
    40
100
AcDbLine
 10
-22.45162643512508
 20
23.64532830934777
 30
0.0
 11
-22.44917943512508
 21
23.65296450934781
 31
0.0
  0
LINE
  5
116
330
2
100
AcDbEntity
  8
GAIKEI
 62
     1
 48
0.000654
370
    40
100
AcDbLine
 10
-30.08527203512509
 20
6.612954709347803
 30
0.0
 11
-30.08015503512508
 21
6.614064109347822
 31
0.0
  0
LINE
  5
117
330
2
100
AcDbEntity
  8
GAIKEI
 62
     1
 48
0.001002
370
    40
100
AcDbLine
 10
-30.08527203512509
 20
6.612954709347803
 30
0.0
 11
-30.0931082351251
 21
6.611255709347773
 31
0.0
  0
LINE
  5
118
330
2
100
AcDbEntity
  8
GAIKEI
 62
     1
 48
0.000654
370
    40
100
AcDbLine
 10
-11.51798083512509
 20
8.518210709347812
 30
0.0
 11
-11.52150023512507
 21
8.522087109347779
 31
0.0
  0
LINE
  5
119
330
2
100
AcDbEntity
  8
GAIKEI
 62
     1
 48
0.001002
370
    40
100
AcDbLine
 10
-11.51798083512509
 20
8.518210709347812
 30
0.0
 11
-11.51259143512507
 21
8.512273509347807
 31
0.0
  0
ARC
  5
11A
330
2
100
AcDbEntity
  8
GAIKEI
 62
     7
370
    40
100
AcDbCircle
 10
-21.35162643512508
 20
12.9254979093478
 30
0.0
 40
11.1
100
AcDbArc
 50
357.7382339999987
 51
352.9521939999993
  0
SPLINE
  5
11B
330
2
100
AcDbEntity
  8
GAIKEI
 62
     7
370
    40
100
AcDbSpline
210
0.0
220
0.0
230
1.0
 70
     8
 71
     5
 72
    24
 73
    18
 74
     0
 42
0.0000000001
 43
0.0000000001
 40
0.0
 40
0.0
 40
0.0
 40
0.0
 40
0.0
 40
0.0
 40
0.9983907330150442
 40
0.9983907330150442
 40
0.9983907330150442
 40
3.26081077171769
 40
3.26081077171769
 40
3.26081077171769
 40
5.610772698174343
 40
5.610772698174343
 40
5.610772698174343
 40
7.259977017849387
 40
7.259977017849387
 40
7.259977017849387
 40
7.424076899045846
 40
7.424076899045846
 40
7.424076899045846
 40
7.424076899045846
 40
7.424076899045846
 40
7.424076899045846
 10
-10.35795457233297
 20
11.77553598555866
 30
0.0
 10
-10.35938779381648
 20
11.77602778857422
 30
0.0
 10
-10.36039918361584
 20
11.78048844497485
 30
0.0
 10
-10.36088965660241
 20
11.78888968973299
 30
0.0
 10
-10.36126166109906
 20
11.82336710388242
 30
0.0
 10
-10.35855039837082
 20
11.87541006759224
 30
0.0
 10
-10.35639398594561
 20
11.90939199060207
 30
0.0
 10
-10.35080968962933
 20
11.98818036148006
 30
0.0
 10
-10.34408152835603
 20
12.06879039267912
 30
0.0
 10
-10.34105068670564
 20
12.10295496432931
 30
0.0
 10
-10.33460498116677
 20
12.17114228827782
 30
0.0
 10
-10.32753341361157
 20
12.22978739199973
 30
0.0
 10
-10.32425081761229
 20
12.25358287650928
 30
0.0
 10
-10.32078562107042
 20
12.27048275605531
 30
0.0
 10
-10.31786519261472
 20
12.27489633629798
 30
0.0
 10
-10.31760565828344
 20
12.27519112085767
 30
0.0
 10
-10.31735185864699
 20
12.2753790276711
 30
0.0
 10
-10.31710406429327
 20
12.27545983313686
 30
0.0
  0
LINE
  5
11C
330
2
100
AcDbEntity
  8
GAIKEI
 62
     7
 48
0.004624
370
    40
100
AcDbLine
 10
-10.32296823512507
 20
11.76352950934782
 30
0.0
 11
-10.35795423512507
 21
11.77553590934778
 31
0.0
  0
SPLINE
  5
11D
330
2
100
AcDbEntity
  8
GAIKEI
 62
     7
370
    40
100
AcDbSpline
210
0.0
220
0.0
230
1.0
 70
     8
 71
     5
 72
    18
 73
    12
 74
     0
 42
0.0000000001
 43
0.0000000001
 40
0.0
 40
0.0
 40
0.0
 40
0.0
 40
0.0
 40
0.0
 40
1.836461073086991
 40
1.836461073086991
 40
1.836461073086991
 40
2.895070113664972
 40
2.895070113664972
 40
2.895070113664972
 40
2.950773566801857
 40
2.950773566801857
 40
2.950773566801857
 40
2.950773566801857
 40
2.950773566801857
 40
2.950773566801857
 10
-10.33549622045483
 20
11.56355991757684
 30
0.0
 10
-10.33156124832342
 20
11.59538821347038
 30
0.0
 10
-10.32807055620191
 20
11.62727144786615
 30
0.0
 10
-10.32532947232502
 20
11.65602750228558
 30
0.0
 10
-10.32153325746334
 20
11.7042681413603
 30
0.0
 10
-10.32040352269585
 20
11.74193201038238
 30
0.0
 10
-10.32042593859695
 20
11.75433134804163
 30
0.0
 10
-10.32123460116999
 20
11.76192679727577
 30
0.0
 10
-10.32273317097919
 20
11.76340081614282
 30
0.0
 10
-10.32280979988466
 20
11.76345913458837
 30
0.0
 10
-10.32288809682731
 20
11.76350201727049
 30
0.0
 10
-10.32296804679752
 20
11.76352945660804
 30
0.0
  0
LINE
  5
11E
330
2
100
AcDbEntity
  8
GAIKEI
 62
     7
 48
0.00484
370
    40
100
AcDbLine
 10
-10.31710423512508
 20
12.2754599093478
 30
0.0
 11
-10.28029463512509
 21
12.28746630934782
 31
0.0
  0
SPLINE
  5
11F
330
2
100
AcDbEntity
  8
GAIKEI
 62
     7
370
    40
100
AcDbSpline
210
0.0
220
0.0
230
1.0
 70
     8
 71
     5
 72
    18
 73
    12
 74
     0
 42
0.0000000001
 43
0.0000000001
 40
0.0
 40
0.0
 40
0.0
 40
0.0
 40
0.0
 40
0.0
 40
0.952318772422036
 40
0.952318772422036
 40
0.952318772422036
 40
2.769555880691061
 40
2.769555880691061
 40
2.769555880691061
 40
2.9552374831965
 40
2.9552374831965
 40
2.9552374831965
 40
2.9552374831965
 40
2.9552374831965
 40
2.9552374831965
 10
-10.28029443412855
 20
12.28746636208748
 30
0.0
 10
-10.27885710904446
 20
12.28793530219812
 30
0.0
 10
-10.27717273312758
 20
12.29291304067433
 30
0.0
 10
-10.27537136353898
 20
12.30233607327088
 30
0.0
 10
-10.27047784147034
 20
12.33499534146946
 30
0.0
 10
-10.26633660875339
 20
12.38005496620067
 30
0.0
 10
-10.26425854265902
 20
12.40813360984518
 30
0.0
 10
-10.26220061074549
 20
12.44279464631424
 30
0.0
 10
-10.26067161057116
 20
12.47771688082261
 30
0.0
 10
-10.26053443051923
 20
12.48095591967555
 30
0.0
 10
-10.26040184179122
 20
12.48419581924165
 30
0.0
 10
-10.26027387211701
 20
12.48743590111869
 30
0.0
  0
CIRCLE
  5
120
330
2
100
AcDbEntity
  8
GAIKEI
 62
     1
370
    40
100
AcDbCircle
 10
-21.35162643512508
 20
12.9254979093478
 30
0.0
 40
1.0
  0
CIRCLE
  5
121
330
2
100
AcDbEntity
  8
GAIKEI
 62
     1
370
    40
100
AcDbCircle
 10
-21.35162643512508
 20
12.9254979093478
 30
0.0
 40
0.8199999999999999
  0
CIRCLE
  5
122
330
2
100
AcDbEntity
  8
GAIKEI
 62
     1
370
    40
100
AcDbCircle
 10
-21.35162643512508
 20
12.9254979093478
 30
0.0
 40
1.3
  0
CIRCLE
  5
123
330
2
100
AcDbEntity
  8
GAIKEI
 62
     1
370
    40
100
AcDbCircle
 10
-21.35162643512508
 20
12.9254979093478
 30
0.0
 40
1.7380332
  0
ELLIPSE
  5
124
330
2
100
AcDbEntity
  8
GAIKEI
 62
     1
370
    13
100
AcDbEllipse
 10
-21.35162643512511
 20
17.05968950934769
 30
0.0
 11
1.056612110137939
 21
0.0
 31
0.0
210
0.0
220
0.0
230
1.0
 40
0.4694720000000001
 41
2.070796251296996
 42
8.353979110717773
  0
ELLIPSE
  5
125
330
2
100
AcDbEntity
  8
GAIKEI
 62
     1
370
    13
100
AcDbEllipse
 10
-21.35162643512511
 20
8.791306309347731
 30
0.0
 11
1.056612110137939
 21
0.0
 31
0.0
210
0.0
220
0.0
230
1.0
 40
0.4694720000000001
 41
4.21239185333252
 42
10.49557399749756
  0
LINE
  5
126
330
2
100
AcDbEntity
  8
GAIKEI
 62
     1
 48
0.003316
370
    40
100
AcDbLine
 10
-21.35162643512508
 20
18.1319817093478
 30
0.0
 11
-21.35162643512508
 21
18.15850770934779
 31
0.0
  0
LINE
  5
127
330
2
100
AcDbEntity
  8
GAIKEI
 62
     1
 48
0.0125
370
    40
100
AcDbLine
 10
-21.35162643512508
 20
18.4254979093478
 30
0.0
 11
-21.35162643512508
 21
18.52549750934779
 31
0.0
  0
LINE
  5
128
330
2
100
AcDbEntity
  8
GAIKEI
 62
     1
 48
0.007368
370
    40
100
AcDbLine
 10
-21.35162643512508
 20
7.777954909347812
 30
0.0
 11
-21.35162643512508
 21
7.719014109347796
 31
0.0
  0
LINE
  5
129
330
2
100
AcDbEntity
  8
GAIKEI
 62
     1
 48
0.0125
370
    40
100
AcDbLine
 10
-21.35162643512508
 20
7.325497509347798
 30
0.0
 11
-21.35162643512508
 21
7.425497909347797
 31
0.0
  0
LINE
  5
12A
330
2
100
AcDbEntity
  8
GAIKEI
 62
     1
 48
0.003316
370
    40
100
AcDbLine
 10
-21.35162643512508
 20
7.719014109347796
 30
0.0
 11
-21.35162643512508
 21
7.692488109347806
 31
0.0
  0
LINE
  5
12B
330
2
100
AcDbEntity
  8
GAIKEI
 62
     1
 48
0.047398
370
    40
100
AcDbLine
 10
-21.25162623512509
 20
18.19142610934781
 30
0.0
 11
-20.87244523512508
 21
18.19142610934781
 31
0.0
  0
ARC
  5
12C
330
2
100
AcDbEntity
  8
GAIKEI
 62
     1
370
    40
100
AcDbCircle
 10
-21.35162643512508
 20
18.32549790934777
 30
0.0
 40
0.1
100
AcDbArc
 50
0.0
 51
90.00000299999932
  0
LINE
  5
12D
330
2
100
AcDbEntity
  8
GAIKEI
 62
     1
 48
0.019108
370
    40
100
AcDbLine
 10
-21.25162643512508
 20
18.17263030934779
 30
0.0
 11
-21.25162643512508
 21
18.32549790934777
 31
0.0
  0
SPLINE
  5
12E
330
2
100
AcDbEntity
  8
GAIKEI
 62
     1
370
    40
100
AcDbSpline
210
0.0
220
0.0
230
1.0
 70
     8
 71
     5
 72
    15
 73
     9
 74
     0
 42
0.0000000001
 43
0.0000000001
 40
0.0
 40
0.0
 40
0.0
 40
0.0
 40
0.0
 40
0.0
 40
0.9089640886352871
 40
0.9089640886352871
 40
0.9089640886352871
 40
1.242624807600628
 40
1.242624807600628
 40
1.242624807600628
 40
1.242624807600628
 40
1.242624807600628
 40
1.242624807600628
 10
-21.35162643512557
 20
18.15850851510808
 30
0.0
 10
-21.3307243788812
 20
18.15850851510808
 30
0.0
 10
-21.30982253738068
 20
18.15928078335096
 30
0.0
 10
-21.28941933153726
 20
18.16086360959318
 30
0.0
 10
-21.26650248881495
 20
18.16422128418404
 30
0.0
 10
-21.25487499128434
 20
18.16872847556189
 30
0.0
 10
-21.25270747803027
 20
18.17000702322733
 30
0.0
 10
-21.25162643512502
 20
18.17131893590616
 30
0.0
 10
-21.2516264351251
 20
18.17263045960803
 30
0.0
  0
SPLINE
  5
12F
330
2
100
AcDbEntity
  8
GAIKEI
 62
     1
370
    13
100
AcDbSpline
210
0.0
220
0.0
230
1.0
 70
     8
 71
     5
 72
    18
 73
    12
 74
     0
 42
0.0000000001
 43
0.0000000001
 40
0.0
 40
0.0
 40
0.0
 40
0.0
 40
0.0
 40
0.0
 40
9.384816584735823
 40
9.384816584735823
 40
9.384816584735823
 40
21.98289686161571
 40
21.98289686161571
 40
21.98289686161571
 40
29.33765705264348
 40
29.33765705264348
 40
29.33765705264348
 40
29.33765705264348
 40
29.33765705264348
 40
29.33765705264348
 10
-21.35162643512511
 20
18.1319823467181
 30
0.0
 10
-21.13334791985028
 20
18.13198233810058
 30
0.0
 10
-20.91505417214856
 20
18.11510156271103
 30
0.0
 10
-20.70159231907459
 20
18.08128811240263
 30
0.0
 10
-20.22665858607887
 20
17.96328005516446
 30
0.0
 10
-19.83375801103219
 20
17.75924815434641
 30
0.0
 10
-19.64729061485181
 20
17.61666129112379
 30
0.0
 10
-19.42243768055935
 20
17.35705140043066
 30
0.0
 10
-19.30827903414715
 20
17.05833226212476
 30
0.0
 10
-19.2811209535881
 20
16.94396974229491
 30
0.0
 10
-19.2680386488656
 20
16.82636307895538
 30
0.0
 10
-19.2680386488656
 20
16.70626642443207
 30
0.0
  0
LINE
  5
130
330
2
100
AcDbEntity
  8
GAIKEI
 62
     1
370
    13
100
AcDbLine
 10
-19.26803863512508
 20
9.144728909347776
 30
0.0
 11
-19.26803863512508
 21
16.70626650934778
 31
0.0
  0
SPLINE
  5
131
330
2
100
AcDbEntity
  8
GAIKEI
 62
     1
370
    13
100
AcDbSpline
210
0.0
220
0.0
230
1.0
 70
     8
 71
     5
 72
    18
 73
    12
 74
     0
 42
0.0000000001
 43
0.0000000001
 40
0.0
 40
0.0
 40
0.0
 40
0.0
 40
0.0
 40
0.0
 40
12.18311324750409
 40
12.18311324750409
 40
12.18311324750409
 40
23.8308667994266
 40
23.8308667994266
 40
23.8308667994266
 40
29.33594513063976
 40
29.33594513063976
 40
29.33594513063976
 40
29.33594513063976
 40
29.33594513063976
 40
29.33594513063976
 10
-19.26804134791573
 20
9.144728498951593
 30
0.0
 10
-19.26803780503085
 20
8.945781526016304
 30
0.0
 10
-19.30393312500317
 20
8.753677288828527
 30
0.0
 10
-19.38027056397912
 20
8.571972106467939
 30
0.0
 10
-19.61475837014075
 20
8.246938447236658
 30
0.0
 10
-19.99967632878068
 20
7.998840667525172
 30
0.0
 10
-20.21985806211171
 20
7.90006708981221
 30
0.0
 10
-20.57908713533115
 20
7.790676876902438
 30
0.0
 10
-20.96824816970465
 20
7.736472253584651
 30
0.0
 10
-21.09554063020568
 20
7.72482211053304
 30
0.0
 10
-21.22358464938824
 20
7.719013473910166
 30
0.0
 10
-21.35162643512511
 20
7.719013472767045
 30
0.0
  0
LINE
  5
132
330
2
100
AcDbEntity
  8
GAIKEI
 62
     1
 48
0.019108
370
    40
100
AcDbLine
 10
-21.25162643512508
 20
7.678365509347798
 30
0.0
 11
-21.25162643512508
 21
7.525497909347819
 31
0.0
  0
SPLINE
  5
133
330
2
100
AcDbEntity
  8
GAIKEI
 62
     1
370
    40
100
AcDbSpline
210
0.0
220
0.0
230
1.0
 70
     8
 71
     5
 72
    15
 73
     9
 74
     0
 42
0.0000000001
 43
0.0000000001
 40
0.0
 40
0.0
 40
0.0
 40
0.0
 40
0.0
 40
0.0
 40
0.9089640882249904
 40
0.9089640882249904
 40
0.9089640882249904
 40
1.242624807181671
 40
1.242624807181671
 40
1.242624807181671
 40
1.242624807181671
 40
1.242624807181671
 40
1.242624807181671
 10
-21.35162643512524
 20
7.692487303587455
 30
0.0
 10
-21.3307243788903
 20
7.692487303587455
 30
0.0
 10
-21.3098225373993
 20
7.691715035345367
 30
0.0
 10
-21.28941933151849
 20
7.690132209099857
 30
0.0
 10
-21.26650248880864
 20
7.686774534509339
 30
0.0
 10
-21.25487499128465
 20
7.682267343133702
 30
0.0
 10
-21.25270747803032
 20
7.680988795468209
 30
0.0
 10
-21.2516264351251
 20
7.679676882789266
 30
0.0
 10
-21.2516264351251
 20
7.678365359087564
 30
0.0
  0
ARC
  5
134
330
2
100
AcDbEntity
  8
GAIKEI
 62
     1
370
    40
100
AcDbCircle
 10
-21.35162643512508
 20
7.525497909347819
 30
0.0
 40
0.1
100
AcDbArc
 50
270.0000009999998
 51
0.0000100000010064
  0
LINE
  5
135
330
2
100
AcDbEntity
  8
GAIKEI
 62
     1
 48
0.047398
370
    40
100
AcDbLine
 10
-21.25162623512509
 20
7.659569709347778
 30
0.0
 11
-20.87244523512508
 21
7.659569709347778
 31
0.0
  0
ARC
  5
136
330
2
100
AcDbEntity
  8
GAIKEI
 62
     1
370
    40
100
AcDbCircle
 10
-20.87283343512507
 20
16.27326170934779
 30
0.0
 40
1.918167399999999
100
AcDbArc
 50
81.83308400000028
 51
89.98840499999966
  0
ARC
  5
137
330
2
100
AcDbEntity
  8
GAIKEI
 62
     1
370
    40
100
AcDbCircle
 10
-20.87283343512507
 20
9.577734109347801
 30
0.0
 40
1.918167399999999
100
AcDbArc
 50
270.0115950000003
 51
278.1669159999997
  0
ARC
  5
138
330
2
100
AcDbEntity
  8
GAIKEI
 62
     1
370
    40
100
AcDbCircle
 10
-21.35162643512508
 20
12.9254979093478
 30
0.0
 40
5.3
100
AcDbArc
 50
278.1492189999994
 51
81.85078100000055
  0
LINE
  5
139
330
2
100
AcDbEntity
  8
GAIKEI
 62
     1
 48
0.007368
370
    40
100
AcDbLine
 10
-21.35162643512508
 20
7.719014109347796
 30
0.0
 11
-21.35162643512508
 21
7.777954509347779
 31
0.0
  0
LINE
  5
13A
330
2
100
AcDbEntity
  8
GAIKEI
 62
     1
 48
0.003316
370
    40
100
AcDbLine
 10
-21.35162643512508
 20
7.719014109347796
 30
0.0
 11
-21.35162643512508
 21
7.692488109347806
 31
0.0
  0
LINE
  5
13B
330
2
100
AcDbEntity
  8
GAIKEI
 62
     1
 48
0.0125
370
    40
100
AcDbLine
 10
-21.35162643512508
 20
7.325497509347798
 30
0.0
 11
-21.35162643512508
 21
7.425497909347797
 31
0.0
  0
ARC
  5
13C
330
2
100
AcDbEntity
  8
GAIKEI
 62
     1
370
    40
100
AcDbCircle
 10
-21.83041943512508
 20
16.27326170934779
 30
0.0
 40
1.918167399999999
100
AcDbArc
 50
90.01159300000074
 51
98.16691399999932
  0
LINE
  5
13D
330
2
100
AcDbEntity
  8
GAIKEI
 62
     1
 48
0.047398
370
    40
100
AcDbLine
 10
-21.83080763512508
 20
18.19142610934781
 30
0.0
 11
-21.45162643512508
 21
18.19142610934781
 31
0.0
  0
SPLINE
  5
13E
330
2
100
AcDbEntity
  8
GAIKEI
 62
     1
370
    40
100
AcDbSpline
210
0.0
220
0.0
230
1.0
 70
     8
 71
     5
 72
    15
 73
     9
 74
     0
 42
0.0000000001
 43
0.0000000001
 40
0.0
 40
0.0
 40
0.0
 40
0.0
 40
0.0
 40
0.0
 40
0.9089640885502445
 40
0.9089640885502445
 40
0.9089640885502445
 40
1.242624807514707
 40
1.242624807514707
 40
1.242624807514707
 40
1.242624807514707
 40
1.242624807514707
 40
1.242624807514707
 10
-21.35162643512493
 20
18.15850851510808
 30
0.0
 10
-21.37252849136737
 20
18.15850851510808
 30
0.0
 10
-21.39343033286593
 20
18.15928078335079
 30
0.0
 10
-21.41383353871309
 20
18.1608636095934
 30
0.0
 10
-21.43675038143385
 20
18.16422128418364
 30
0.0
 10
-21.44837787896597
 20
18.16872847556172
 30
0.0
 10
-21.45054539221982
 20
18.17000702322727
 30
0.0
 10
-21.45162643512512
 20
18.17131893590616
 30
0.0
 10
-21.45162643512512
 20
18.17263045960791
 30
0.0
  0
LINE
  5
13F
330
2
100
AcDbEntity
  8
GAIKEI
 62
     1
 48
0.003316
370
    40
100
AcDbLine
 10
-21.35162643512508
 20
18.1319817093478
 30
0.0
 11
-21.35162643512508
 21
18.15850770934779
 31
0.0
  0
SPLINE
  5
140
330
2
100
AcDbEntity
  8
GAIKEI
 62
     1
370
    13
100
AcDbSpline
210
0.0
220
0.0
230
1.0
 70
     8
 71
     5
 72
    18
 73
    12
 74
     0
 42
0.0000000001
 43
0.0000000001
 40
0.0
 40
0.0
 40
0.0
 40
0.0
 40
0.0
 40
0.0
 40
6.203785437038565
 40
6.203785437038565
 40
6.203785437038565
 40
18.93525831308087
 40
18.93525831308087
 40
18.93525831308087
 40
28.93888693972249
 40
28.93888693972249
 40
28.93888693972249
 40
28.93888693972249
 40
28.93888693972249
 40
28.93888693972249
 10
-21.35162643512511
 20
18.13198234663528
 30
0.0
 10
-21.49591843908478
 20
18.13198235337572
 30
0.0
 10
-21.64020248074928
 20
18.12460580330904
 30
0.0
 10
-21.78301639308219
 20
18.10985291716466
 30
0.0
 10
-22.20976424339477
 20
18.04249191736775
 30
0.0
 10
-22.59549800579883
 20
17.90831056739782
 30
0.0
 10
-22.82345883948835
 20
17.78924694278552
 30
0.0
 10
-23.15616145256193
 20
17.53120428837403
 30
0.0
 10
-23.34722426989491
 20
17.21001794577935
 30
0.0
 10
-23.40255789863594
 20
17.0591198538344
 30
0.0
 10
-23.4309420814109
 20
16.90136829979204
 30
0.0
 10
-23.43482753193783
 20
16.73877193892141
 30
0.0
  0
LINE
  5
141
330
2
100
AcDbEntity
  8
GAIKEI
 62
     1
 48
0.0125
370
    40
100
AcDbLine
 10
-21.35162643512508
 20
18.4254979093478
 30
0.0
 11
-21.35162643512508
 21
18.52549750934779
 31
0.0
  0
ARC
  5
142
330
2
100
AcDbEntity
  8
GAIKEI
 62
     1
370
    40
100
AcDbCircle
 10
-21.35162643512508
 20
18.32549790934777
 30
0.0
 40
0.1
100
AcDbArc
 50
90.00000299999932
 51
180.0000050000005
  0
LINE
  5
143
330
2
100
AcDbEntity
  8
GAIKEI
 62
     1
 48
0.019108
370
    40
100
AcDbLine
 10
-21.45162643512508
 20
18.17263030934779
 30
0.0
 11
-21.45162643512508
 21
18.32549790934777
 31
0.0
  0
SPLINE
  5
144
330
2
100
AcDbEntity
  8
GAIKEI
 62
     1
370
    13
100
AcDbSpline
210
0.0
220
0.0
230
1.0
 70
     8
 71
     5
 72
    18
 73
    12
 74
     0
 42
0.0000000001
 43
0.0000000001
 40
0.0
 40
0.0
 40
0.0
 40
0.0
 40
0.0
 40
0.0
 40
12.18240722208649
 40
12.18240722208649
 40
12.18240722208649
 40
23.8305798384753
 40
23.8305798384753
 40
23.8305798384753
 40
29.33502353269351
 40
29.33502353269351
 40
29.33502353269351
 40
29.33502353269351
 40
29.33502353269351
 40
29.33502353269351
 10
-23.43520709812063
 20
9.14472703145995
 30
0.0
 10
-23.43520603848578
 20
8.945769029263232
 30
0.0
 10
-23.39931025509821
 20
8.753640992251661
 30
0.0
 10
-23.32297872970706
 20
8.571948171454408
 30
0.0
 10
-23.088435511984
 20
8.246890910672703
 30
0.0
 10
-22.70358621046043
 20
7.998855832841144
 30
0.0
 10
-22.48334302330362
 20
7.900055240919783
 30
0.0
 10
-22.12418583547708
 20
7.79067963595682
 30
0.0
 10
-21.73498400322376
 20
7.736469775177027
 30
0.0
 10
-21.6076695063922
 20
7.724820357638265
 30
0.0
 10
-21.47964878801461
 20
7.719013459011904
 30
0.0
 10
-21.35162643512511
 20
7.719013462786705
 30
0.0
  0
LINE
  5
145
330
2
100
AcDbEntity
  8
GAIKEI
 62
     1
 48
0.019108
370
    40
100
AcDbLine
 10
-21.45162643512508
 20
7.678365509347798
 30
0.0
 11
-21.45162643512508
 21
7.525497909347819
 31
0.0
  0
SPLINE
  5
146
330
2
100
AcDbEntity
  8
GAIKEI
 62
     1
370
    40
100
AcDbSpline
210
0.0
220
0.0
230
1.0
 70
     8
 71
     5
 72
    15
 73
     9
 74
     0
 42
0.0000000001
 43
0.0000000001
 40
0.0
 40
0.0
 40
0.0
 40
0.0
 40
0.0
 40
0.0
 40
0.9089640881803839
 40
0.9089640881803839
 40
0.9089640881803839
 40
1.242624807131569
 40
1.242624807131569
 40
1.242624807131569
 40
1.242624807131569
 40
1.242624807131569
 40
1.242624807131569
 10
-21.35162643512466
 20
7.692487303587455
 30
0.0
 10
-21.37252849135856
 20
7.692487303587512
 30
0.0
 10
-21.39343033284857
 20
7.691715035345481
 30
0.0
 10
-21.41383353873451
 20
7.690132209099573
 30
0.0
 10
-21.43675038144278
 20
7.686774534508941
 30
0.0
 10
-21.44837787896584
 20
7.682267343133588
 30
0.0
 10
-21.45054539221999
 20
7.680988795468095
 30
0.0
 10
-21.45162643512515
 20
7.679676882789266
 30
0.0
 10
-21.45162643512512
 20
7.678365359087393
 30
0.0
  0
ARC
  5
147
330
2
100
AcDbEntity
  8
GAIKEI
 62
     1
370
    40
100
AcDbCircle
 10
-21.35162643512508
 20
7.525497909347819
 30
0.0
 40
0.1
100
AcDbArc
 50
180.0000050000005
 51
270.0000009999998
  0
LINE
  5
148
330
2
100
AcDbEntity
  8
GAIKEI
 62
     1
 48
0.047398
370
    40
100
AcDbLine
 10
-21.83080763512508
 20
7.659569709347778
 30
0.0
 11
-21.45162643512508
 21
7.659569709347778
 31
0.0
  0
LINE
  5
149
330
2
100
AcDbEntity
  8
GAIKEI
 62
     1
370
    13
100
AcDbLine
 10
-23.43521423512507
 20
9.144729309347809
 30
0.0
 11
-23.4348275319378
 21
16.73877193892141
 31
0.0
  0
ARC
  5
14A
330
2
100
AcDbEntity
  8
GAIKEI
 62
     1
370
    40
100
AcDbCircle
 10
-21.83041943512508
 20
9.577734109347801
 30
0.0
 40
1.918167399999999
100
AcDbArc
 50
261.8330860000007
 51
269.9884069999992
  0
ARC
  5
14B
330
2
100
AcDbEntity
  8
GAIKEI
 62
     1
370
    40
100
AcDbCircle
 10
-21.35162643512508
 20
12.92549770934781
 30
0.0
 40
5.3
100
AcDbArc
 50
98.14921700000049
 51
118.6478839999999
  0
ARC
  5
14C
330
2
100
AcDbEntity
  8
GAIKEI
 62
     1
370
    40
100
AcDbCircle
 10
-21.35162643512508
 20
12.9254979093478
 30
0.0
 40
5.3
100
AcDbArc
 50
118.6478839999999
 51
261.8507929999996
  0
LINE
  5
14D
330
2
100
AcDbEntity
  8
GAIKEI
 62
     1
 48
0.002772
370
    40
100
AcDbLine
 10
-15.42544383512508
 20
11.1254977093478
 30
0.0
 11
-15.42544383512508
 21
11.10331890934779
 31
0.0
  0
ARC
  5
14E
330
2
100
AcDbEntity
  8
GAIKEI
 62
     1
370
    40
100
AcDbCircle
 10
-21.35162643512508
 20
12.9254979093478
 30
0.0
 40
5.6
100
AcDbArc
 50
91.43254600000025
 51
152.9651869999986
  0
LINE
  5
14F
330
2
100
AcDbEntity
  8
GAIKEI
 62
     1
 48
0.005001
370
    40
100
AcDbLine
 10
-21.45162643512508
 20
18.5246049093478
 30
0.0
 11
-21.49162643512509
 21
18.52374770934781
 31
0.0
  0
LINE
  5
150
330
2
100
AcDbEntity
  8
GAIKEI
 62
     1
 48
0.004904
370
    40
100
AcDbLine
 10
-21.41162643512509
 20
18.52517630934781
 30
0.0
 11
-21.45085683512508
 21
18.52461870934778
 31
0.0
  0
ARC
  5
151
330
2
100
AcDbEntity
  8
GAIKEI
 62
     1
370
    40
100
AcDbCircle
 10
-21.35162643512508
 20
12.9254979093478
 30
0.0
 40
5.6
100
AcDbArc
 50
89.38610500000063
 51
90.61389300000062
  0
LINE
  5
152
330
2
100
AcDbEntity
  8
GAIKEI
 62
     1
 48
0.004904
370
    40
100
AcDbLine
 10
-21.29162643512508
 20
18.52517630934781
 30
0.0
 11
-21.25239603512509
 21
18.52461870934778
 31
0.0
  0
LINE
  5
153
330
2
100
AcDbEntity
  8
GAIKEI
 62
     1
 48
0.005001
370
    40
100
AcDbLine
 10
-21.25162643512508
 20
18.5246049093478
 30
0.0
 11
-21.21162643512509
 21
18.52374770934781
 31
0.0
  0
ARC
  5
154
330
2
100
AcDbEntity
  8
GAIKEI
 62
     1
370
    40
100
AcDbCircle
 10
-21.35162643512508
 20
12.9254979093478
 30
0.0
 40
5.6
100
AcDbArc
 50
27.03481599999887
 51
88.56745899999969
  0
LINE
  5
155
330
2
100
AcDbEntity
  8
GAIKEI
 62
     1
 48
0.0325
370
    40
100
AcDbLine
 10
-16.36353563512509
 20
15.4708763093478
 30
0.0
 11
-16.63075477680553
 21
15.33451654474172
 31
0.0
  0
LINE
  5
156
330
2
100
AcDbEntity
  8
GAIKEI
 62
     1
 48
0.0325
370
    40
100
AcDbLine
 10
-26.07249809344464
 20
15.33451654474172
 30
0.0
 11
-26.33971723512508
 21
15.4708763093478
 31
0.0
  0
LINE
  5
157
330
2
100
AcDbEntity
  8
GAIKEI
 62
     1
 48
0.0325
370
    40
100
AcDbLine
 10
-16.63075477680553
 20
10.51647927395388
 30
0.0
 11
-16.36353563512509
 21
10.38011950934779
 31
0.0
  0
LINE
  5
158
330
2
100
AcDbEntity
  8
GAIKEI
 62
     1
 48
0.058033
370
    13
100
AcDbLine
 10
-27.13641263512509
 20
15.15624930934777
 30
0.0
 11
-26.6721506351251
 21
15.15624930934777
 31
0.0
  0
ARC
  5
159
330
2
100
AcDbEntity
  8
GAIKEI
 62
     1
370
    13
100
AcDbCircle
 10
-21.35162643512508
 20
12.9254979093478
 30
0.0
 40
5.7692486
100
AcDbArc
 50
157.2530149999995
 51
202.746979999999
  0
LINE
  5
15A
330
2
100
AcDbEntity
  8
GAIKEI
 62
     1
 48
0.058033
370
    13
100
AcDbLine
 10
-26.6721506351251
 20
10.69474650934782
 30
0.0
 11
-27.13641263512509
 21
10.69474650934782
 31
0.0
  0
LINE
  5
15B
330
2
100
AcDbEntity
  8
GAIKEI
 62
     1
 48
0.058033
370
    13
100
AcDbLine
 10
-15.56684063512509
 20
10.69474650934782
 30
0.0
 11
-16.03110223512507
 21
10.69474650934782
 31
0.0
  0
ARC
  5
15C
330
2
100
AcDbEntity
  8
GAIKEI
 62
     1
370
    13
100
AcDbCircle
 10
-21.35162643512508
 20
12.9254979093478
 30
0.0
 40
5.7692486
100
AcDbArc
 50
337.2530210000003
 51
22.74697100000112
  0
LINE
  5
15D
330
2
100
AcDbEntity
  8
GAIKEI
 62
     1
 48
0.058033
370
    13
100
AcDbLine
 10
-16.03110223512507
 20
15.15624930934777
 30
0.0
 11
-15.56684103512508
 21
15.15624930934777
 31
0.0
  0
LINE
  5
15E
330
2
100
AcDbEntity
  8
GAIKEI
 62
     1
 48
0.0325
370
    40
100
AcDbLine
 10
-26.33971723512508
 20
10.38011950934779
 30
0.0
 11
-26.07249809344464
 21
10.51647927395388
 31
0.0
  0
ARC
  5
15F
330
2
100
AcDbEntity
  8
GAIKEI
 62
     1
370
    40
100
AcDbCircle
 10
-21.35162643512508
 20
12.9254979093478
 30
0.0
 40
5.6
100
AcDbArc
 50
271.432537
 51
332.9651929999994
  0
LINE
  5
160
330
2
100
AcDbEntity
  8
GAIKEI
 62
     1
 48
0.075021
370
    13
100
AcDbLine
 10
-21.21162643512509
 20
7.327248109347777
 30
0.0
 11
-21.21162643512509
 21
6.727078309347774
 31
0.0
  0
LINE
  5
161
330
2
100
AcDbEntity
  8
GAIKEI
 62
     1
 48
0.075021
370
    13
100
AcDbLine
 10
-21.49162643512509
 20
6.727078309347774
 30
0.0
 11
-21.49162643512509
 21
7.327248109347777
 31
0.0
  0
ARC
  5
162
330
2
100
AcDbEntity
  8
GAIKEI
 62
     1
370
    40
100
AcDbCircle
 10
-21.35162643512508
 20
12.9254979093478
 30
0.0
 40
5.6
100
AcDbArc
 50
207.0348089999991
 51
268.5674639999996
  0
LINE
  5
163
330
2
100
AcDbEntity
  8
GAIKEI
 62
     1
 48
0.005001
370
    40
100
AcDbLine
 10
-21.25162643512508
 20
7.326390909347793
 30
0.0
 11
-21.21162643512509
 21
7.327248109347777
 31
0.0
  0
LINE
  5
164
330
2
100
AcDbEntity
  8
GAIKEI
 62
     1
 48
0.004904
370
    40
100
AcDbLine
 10
-21.29162643512508
 20
7.32581950934778
 30
0.0
 11
-21.25239603512509
 21
7.326377109347816
 31
0.0
  0
ARC
  5
165
330
2
100
AcDbEntity
  8
GAIKEI
 62
     1
370
    40
100
AcDbCircle
 10
-21.35162643512508
 20
12.9254979093478
 30
0.0
 40
5.6
100
AcDbArc
 50
269.3861030000003
 51
270.6138979999999
  0
LINE
  5
166
330
2
100
AcDbEntity
  8
GAIKEI
 62
     1
 48
0.004904
370
    40
100
AcDbLine
 10
-21.41162643512509
 20
7.32581950934778
 30
0.0
 11
-21.45085683512508
 21
7.326377109347816
 31
0.0
  0
LINE
  5
167
330
2
100
AcDbEntity
  8
GAIKEI
 62
     1
 48
0.005001
370
    40
100
AcDbLine
 10
-21.45162643512508
 20
7.326390909347793
 30
0.0
 11
-21.49162643512509
 21
7.327248109347777
 31
0.0
  0
ARC
  5
168
330
2
100
AcDbEntity
  8
GAIKEI
 62
     1
370
    13
100
AcDbCircle
 10
-21.35162643512508
 20
12.9254979093478
 30
0.0
 40
10.5798432
100
AcDbArc
 50
83.98454299388475
 51
96.01545700611522
  0
LINE
  5
169
330
2
100
AcDbEntity
  8
GAIKEI
 62
     1
 48
0.00006
370
    40
100
AcDbLine
 10
-11.55319283512509
 20
8.515446109347777
 30
0.0
 11
-11.55277623512508
 21
8.51520590934777
 31
0.0
  0
DIMENSION
  5
16A
330
2
100
AcDbEntity
  8
SUNPO
100
AcDbDimension
  2
*D4
 10
-10.25162643512508
 20
31.93690275060752
 30
0.0
 11
-21.35162643512508
 21
33.68690275060752
 31
0.0
 70
    33
  1
φ111
 71
     5
 42
22.2
  3
STANDARD
100
AcDbAlignedDimension
 13
-32.45162643512509
 23
23.93690275060752
 33
0.0
 14
-10.25162643512508
 24
23.93690275060752
 34
0.0
1001
ACAD
1000
DSTYLE
1002
{
1070
    40
1040
1.0
1070
   140
1040
2.5
1070
   147
1040
0.5
1070
   172
1070
     1
1070
   279
1070
     0
1070
   288
1070
     0
1002
}
  0
DIMENSION
  5
179
330
2
100
AcDbEntity
  8
SUNPO
100
AcDbDimension
  2
*D3
 10
24.07515512714105
 20
31.93633119279861
 30
0.0
 11
16.77516416852224
 21
33.68626792065371
 31
0.0
 70
    33
  1
73
 71
     5
 42
14.59995158175705
  3
STANDARD
100
AcDbAlignedDimension
 13
9.475272885427187
 23
23.93620464924109
 33
0.0
 14
24.07522446663583
 24
23.93633119339941
 34
0.0
1001
ACAD
1000
DSTYLE
1002
{
1070
    40
1040
1.0
1070
   140
1040
2.5
1070
   147
1040
0.5
1070
   172
1070
     1
1070
   279
1070
     0
1070
   288
1070
     0
1002
}
  0
LINE
  5
186
330
2
100
AcDbEntity
  8
WAKU
 62
     1
100
AcDbLine
 10
63.60104414795729
 20
-39.4115951997909
 30
0.0
 11
-61.3989558520427
 21
-39.4115951997909
 31
0.0
  0
TEXT
  5
188
330
2
100
AcDbEntity
  8
MOJI1
100
AcDbText
 10
-17.8989558520427
 20
-13.41159519979089
 30
0.0
 40
3.0
  1
専用ＡＣアダプタ　ＤＣ１２Ｖ
100
AcDbText
  0
TEXT
  5
189
330
2
100
AcDbEntity
  8
MOJI1
100
AcDbText
 10
-18.8989558520427
 20
-23.4115951997909
 30
0.0
 40
3.0
  1
１／３インチ 約１３０万画素
 41
0.9
100
AcDbText
  0
TEXT
  5
18A
330
2
100
AcDbEntity
  8
MOJI1
100
AcDbText
 10
-58.8989558520427
 20
-23.4115951997909
 30
0.0
 40
3.0
  1
撮像素子
100
AcDbText
  0
TEXT
  5
18B
330
2
100
AcDbEntity
  8
MOJI1
100
AcDbText
 10
-58.8989558520427
 20
-33.4115951997909
 30
0.0
 40
3.0
  1
対応照度
100
AcDbText
  0
TEXT
  5
18C
330
2
100
AcDbEntity
  8
MOJI1
100
AcDbText
 10
-18.8989558520427
 20
-33.4115951997909
 30
0.0
 40
3.0
  1
０．６～１０００００ルクス
100
AcDbText
  0
TEXT
  5
18D
330
2
100
AcDbEntity
  8
MOJI1
100
AcDbText
 10
-58.8989558520427
 20
-13.41159519979089
 30
0.0
 40
3.0
  1
電　源
100
AcDbText
  0
LINE
  5
18E
330
2
100
AcDbEntity
  8
WAKU
 62
     1
100
AcDbLine
 10
63.60104414795729
 20
-34.4115951997909
 30
0.0
 11
-61.3989558520427
 21
-34.4115951997909
 31
0.0
  0
LINE
  5
18F
330
2
100
AcDbEntity
  8
WAKU
 62
     1
100
AcDbLine
 10
63.60104414795729
 20
-29.4115951997909
 30
0.0
 11
-61.3989558520427
 21
-29.4115951997909
 31
0.0
  0
LINE
  5
190
330
2
100
AcDbEntity
  8
WAKU
 62
     1
100
AcDbLine
 10
63.60104414795729
 20
-24.4115951997909
 30
0.0
 11
-61.3989558520427
 21
-24.4115951997909
 31
0.0
  0
LINE
  5
191
330
2
100
AcDbEntity
  8
WAKU
 62
     1
100
AcDbLine
 10
63.60104414795729
 20
-19.41159519979089
 30
0.0
 11
-61.3989558520427
 21
-19.41159519979089
 31
0.0
  0
LINE
  5
192
330
2
100
AcDbEntity
  8
WAKU
 62
     4
100
AcDbLine
 10
63.60104414795729
 20
-9.411595199790895
 30
0.0
 11
-61.3989558520427
 21
-9.411595199790895
 31
0.0
  0
LINE
  5
193
330
2
100
AcDbEntity
  8
WAKU
 62
     1
100
AcDbLine
 10
63.60104414795729
 20
-14.41159519979089
 30
0.0
 11
-61.3989558520427
 21
-14.41159519979089
 31
0.0
  0
LINE
  5
194
330
2
100
AcDbEntity
  8
WAKU
 62
     4
100
AcDbLine
 10
-61.3989558520427
 20
-9.411595199790895
 30
0.0
 11
-61.3989558520427
 21
-64.41159519979089
 31
0.0
  0
LINE
  5
195
330
2
100
AcDbEntity
  8
WAKU
 62
     4
100
AcDbLine
 10
63.60104414795729
 20
-64.41159519979089
 30
0.0
 11
63.60104414795729
 21
-9.411595199790895
 31
0.0
  0
LINE
  5
196
330
2
100
AcDbEntity
  8
WAKU
 62
     4
100
AcDbLine
 10
-21.19337462152429
 20
-64.41159519979066
 30
0.0
 11
-21.19337462152429
 21
-9.411595199790667
 31
0.0
  0
TEXT
  5
197
330
2
100
AcDbEntity
  8
MOJI1
100
AcDbText
 10
-17.8989558520427
 20
-18.41159519979089
 30
0.0
 40
3.0
  1
ＰｏＥ給電（ＩＥＥＥ８０２．３ａｆ準拠）
 41
0.9
100
AcDbText
  0
TEXT
  5
198
330
2
100
AcDbEntity
  8
MOJI1
100
AcDbText
 10
-18.8989558520427
 20
-43.41159519979089
 30
0.0
 40
3.0
  1
パン：－５２°～＋５２°(壁設置時)
 41
0.8
100
AcDbText
  0
TEXT
  5
199
330
2
100
AcDbEntity
  8
MOJI1
100
AcDbText
 10
-58.8989558520427
 20
-43.41159519979089
 30
0.0
 40
3.0
  1
パン・チルト角度
100
AcDbText
  0
TEXT
  5
19A
330
2
100
AcDbEntity
  8
MOJI1
100
AcDbText
 10
-18.8989558520427
 20
-53.4115951997909
 30
0.0
 40
3.0
  1
専用ＳＤ／ＳＤＨＣメモリーカードとして
100
AcDbText
  0
TEXT
  5
19B
330
2
100
AcDbEntity
  8
MOJI1
100
AcDbText
 10
-58.8989558520427
 20
-53.4115951997909
 30
0.0
 40
3.0
  1
ＳＤ／ＳＤＨＣスロット
 41
0.9
100
AcDbText
  0
LINE
  5
19C
330
2
100
AcDbEntity
  8
WAKU
 62
     4
100
AcDbLine
 10
-61.3989558520427
 20
-64.41159519979089
 30
0.0
 11
63.60104414795729
 21
-64.41159519979089
 31
0.0
  0
LINE
  5
19D
330
2
100
AcDbEntity
  8
WAKU
 62
     1
100
AcDbLine
 10
63.60104414795729
 20
-49.41159519979089
 30
0.0
 11
-61.3989558520427
 21
-49.41159519979089
 31
0.0
  0
LINE
  5
19E
330
2
100
AcDbEntity
  8
WAKU
 62
     1
100
AcDbLine
 10
63.60104414795729
 20
-54.41159519979089
 30
0.0
 11
-61.3989558520427
 21
-54.41159519979089
 31
0.0
  0
TEXT
  5
19F
330
2
100
AcDbEntity
  8
MOJI1
100
AcDbText
 10
-58.8989558520427
 20
-63.4115951997909
 30
0.0
 40
3.0
  1
画像圧縮方式
100
AcDbText
  0
LINE
  5
1A0
330
2
100
AcDbEntity
  8
WAKU
 62
     1
100
AcDbLine
 10
63.60104414795729
 20
-44.41159519979089
 30
0.0
 11
-61.3989558520427
 21
-44.41159519979089
 31
0.0
  0
TEXT
  5
1A1
330
2
100
AcDbEntity
  8
MOJI1
100
AcDbText
 10
-18.8989558520427
 20
-38.4115951997909
 30
0.0
 40
3.0
  1
(カラーナイトビューモー時：０．０７～１０００００ルクス)
 41
0.8
100
AcDbText
  0
TEXT
  5
1A2
330
2
100
AcDbEntity
  8
MOJI1
100
AcDbText
 10
-18.8989558520427
 20
-28.4115951997909
 30
0.0
 40
3.0
  1
６倍(Ｅｘ ズーム２倍、デジタルズーム３倍）
100
AcDbText
  0
TEXT
  5
1A3
330
2
100
AcDbEntity
  8
MOJI1
100
AcDbText
 10
-58.8989558520427
 20
-28.4115951997909
 30
0.0
 40
3.0
  1
ズーム
100
AcDbText
  0
TEXT
  5
1A4
330
2
100
AcDbEntity
  8
MOJI1
100
AcDbText
 10
-18.8989558520427
 20
-48.4115951997909
 30
0.0
 40
3.0
  1
チルト：－５７°～＋５７°レンズ固定：設置時に設定
 41
0.8
100
AcDbText
  0
LINE
  5
1A5
330
2
100
AcDbEntity
  8
WAKU
 62
     1
100
AcDbLine
 10
63.60104414795729
 20
-59.41159519979089
 30
0.0
 11
-61.3989558520427
 21
-59.41159519979089
 31
0.0
  0
TEXT
  5
1A6
330
2
100
AcDbEntity
  8
MOJI1
100
AcDbText
 10
-18.8989558520427
 20
-63.4115951997909
 30
0.0
 40
3.0
  1
Ｈ．２６４、ＭＰＥＧ－４、ＪＰＥＧ／３レベル
100
AcDbText
  0
TEXT
  5
1A7
330
2
100
AcDbEntity
  8
MOJI1
100
AcDbText
 10
-18.8989558520427
 20
-58.4115951997909
 30
0.0
 40
3.0
  1
ＢＢ－ＨＣＣ００２、００４、００８
100
AcDbText
  0
ENDSEC
  0
SECTION
  2
OBJECTS
  0
DICTIONARY
  5
7
330
0
100
AcDbDictionary
281
     1
  3
ACAD_COLOR
350
2C
  3
ACAD_GROUP
350
28
  3
ACAD_LAYOUT
350
B
  3
ACAD_MATERIAL
350
2B
  3
ACAD_MLINESTYLE
350
29
  3
ACAD_PLOTSETTINGS
350
2A
  3
ACAD_PLOTSTYLENAME
350
6
  3
ACDBHEADERROUNDTRIPXREC
350
1D8
  3
AcDbVariableDictionary
350
1D3
  0
DICTIONARY
  5
11
330
10
100
AcDbDictionary
280
     1
281
     1
  3
ACAD_LAYERSTATES
360
12
  0
DICTIONARY
  5
2C
102
{ACAD_REACTORS
330
7
102
}
330
7
100
AcDbDictionary
281
     1
  0
DICTIONARY
  5
28
102
{ACAD_REACTORS
330
7
102
}
330
7
100
AcDbDictionary
281
     1
  0
DICTIONARY
  5
B
102
{ACAD_REACTORS
330
7
102
}
330
7
100
AcDbDictionary
281
     1
  3
Model
350
A
  3
レイアウト1
350
F
  0
DICTIONARY
  5
2B
102
{ACAD_REACTORS
330
7
102
}
330
7
100
AcDbDictionary
281
     1
  0
DICTIONARY
  5
29
102
{ACAD_REACTORS
330
7
102
}
330
7
100
AcDbDictionary
281
     1
  3
Standard
350
2E
  0
DICTIONARY
  5
2A
102
{ACAD_REACTORS
330
7
102
}
330
7
100
AcDbDictionary
281
     1
  0
ACDBDICTIONARYWDFLT
  5
6
102
{ACAD_REACTORS
330
7
102
}
330
7
100
AcDbDictionary
281
     1
  3
Normal
350
5
100
AcDbDictionaryWithDefault
340
5
  0
DICTIONARY
  5
1D8
102
{ACAD_REACTORS
330
7
102
}
330
7
100
AcDbDictionary
281
     1
  3
COLORDICT
350
1DA
  3
MATERIALDICT
350
1D9
  0
DICTIONARY
  5
1D3
102
{ACAD_REACTORS
330
7
102
}
330
7
100
AcDbDictionary
281
     1
  3
DIMASSOC
350
1D5
  3
HIDETEXT
350
1D4
  3
PROJECTNAME
350
1D6
  0
DICTIONARY
  5
12
102
{ACAD_REACTORS
330
11
102
}
330
11
100
AcDbDictionary
281
     1
  0
LAYOUT
  5
A
102
{ACAD_XDICTIONARY
360
1DB
102
}
102
{ACAD_REACTORS
330
B
102
}
330
B
100
AcDbPlotSettings
  1

  2
10F03C_XEROX_APIII_C5500
  4
A4
  6

 40
4.857749938964843
 41
4.942390441894531
 42
4.942413330078125
 43
4.857757568359375
 44
209.9733276367187
 45
297.0106506347656
 46
5.61
 47
0.0
 48
0.0
 49
0.0
140
0.0
141
0.0
142
1.0
143
1.3709178523964
 70
 11956
 72
     1
 73
     0
 74
     1
  7
全て黄色設定.ctb
 75
     0
147
0.7294383089781592
148
0.0213653277932053
149
0.0009175234454233
100
AcDbLayout
  1
Model
 70
     1
 71
     0
 10
0.0
 20
0.0
 11
12.0
 21
9.0
 12
0.0
 22
0.0
 32
0.0
 14
0.0
 24
0.0
 34
0.0
 15
0.0
 25
0.0
 35
0.0
146
0.0
 13
0.0
 23
0.0
 33
0.0
 16
1.0
 26
0.0
 36
0.0
 17
0.0
 27
1.0
 37
0.0
 76
     0
330
2
  0
LAYOUT
  5
F
102
{ACAD_XDICTIONARY
360
1DD
102
}
102
{ACAD_REACTORS
330
B
102
}
330
B
100
AcDbPlotSettings
  1

  2
None
  4

  6

 40
0.0
 41
0.0
 42
0.0
 43
0.0
 44
0.0
 45
0.0
 46
0.0
 47
0.0
 48
0.0
 49
0.0
140
0.0
141
0.0
142
1.0
143
1.0
 70
   688
 72
     0
 73
     0
 74
     5
  7
tmsacad.ctb
 75
    16
147
1.0
148
0.0
149
0.0
100
AcDbLayout
  1
レイアウト1
 70
     1
 71
     1
 10
0.0
 20
0.0
 11
12.0
 21
9.0
 12
0.0
 22
0.0
 32
0.0
 14
0.0
 24
0.0
 34
0.0
 15
0.0
 25
0.0
 35
0.0
146
0.0
 13
0.0
 23
0.0
 33
0.0
 16
1.0
 26
0.0
 36
0.0
 17
0.0
 27
1.0
 37
0.0
 76
     0
330
C
  0
MLINESTYLE
  5
2E
102
{ACAD_REACTORS
330
29
102
}
330
29
100
AcDbMlineStyle
  2
STANDARD
 70
     0
  3

 62
   256
 51
90.0
 52
90.0
 71
     2
 49
0.5
 62
   256
  6
BYLAYER
 49
-0.5
 62
   256
  6
BYLAYER
  0
ACDBPLACEHOLDER
  5
5
102
{ACAD_REACTORS
330
6
102
}
330
6
  0
XRECORD
  5
1DA
102
{ACAD_REACTORS
330
1D8
102
}
330
1D8
100
AcDbXrecord
280
     1
340
2C
  0
XRECORD
  5
1D9
102
{ACAD_REACTORS
330
1D8
102
}
330
1D8
100
AcDbXrecord
280
     1
340
2B
  0
DICTIONARYVAR
  5
1D5
102
{ACAD_REACTORS
330
1D3
102
}
330
1D3
100
DictionaryVariables
280
     0
  1
1
  0
DICTIONARYVAR
  5
1D4
102
{ACAD_REACTORS
330
1D3
102
}
330
1D3
100
DictionaryVariables
280
     0
  1
1
  0
DICTIONARYVAR
  5
1D6
102
{ACAD_REACTORS
330
1D3
102
}
330
1D3
100
DictionaryVariables
280
     0
  1

  0
DICTIONARY
  5
1DB
330
A
100
AcDbDictionary
280
     1
281
     1
  3
ACAD_XREC_ROUNDTRIP
360
1DC
  0
DICTIONARY
  5
1DD
330
F
100
AcDbDictionary
280
     1
281
     1
  3
ACAD_XREC_ROUNDTRIP
360
1DE
  0
XRECORD
  5
1DC
102
{ACAD_REACTORS
330
1DB
102
}
330
1DB
100
AcDbXrecord
280
     1
102
SHADEPLOT
 70
     0
102
SHADEPLOTRESLEVEL
 70
     2
102
SHADEPLOTCUSTOMDPI
 70
   150
  0
XRECORD
  5
1DE
102
{ACAD_REACTORS
330
1DD
102
}
330
1DD
100
AcDbXrecord
280
     1
102
SHADEPLOT
 70
     0
102
SHADEPLOTRESLEVEL
 70
     2
102
SHADEPLOTCUSTOMDPI
 70
   300
  0
ENDSEC
  0
EOF
