  0
SECTION
  2
HEADER
  9
$ACADVER
  1
AC1015
  9
$ACADMAINTVER
 70
    20
  9
$DWGCODEPAGE
  3
ANSI_932
  9
$INSBASE
 10
129.499999944041
 20
246.5008351249345
 30
0.0
  9
$EXTMIN
 10
-66.21459870857018
 20
-62.73001036784842
 30
-0.0015258207003583
  9
$EXTMAX
 10
58.81897028398123
 20
50.74777262162854
 30
0.0000000349246037
  9
$LIMMIN
 10
0.0
 20
0.0
  9
$LIMMAX
 10
420.0
 20
297.0
  9
$ORTHOMODE
 70
     1
  9
$REGENMODE
 70
     0
  9
$FILLMODE
 70
     1
  9
$QTEXTMODE
 70
     0
  9
$MIRRTEXT
 70
     0
  9
$LTSCALE
 40
1.0
  9
$ATTMODE
 70
     1
  9
$TEXTSIZE
 40
2.5
  9
$TRACEWID
 40
1.0
  9
$TEXTSTYLE
  7
Standard
  9
$CLAYER
  8
GAIKEI
  9
$CELTYPE
  6
ByLayer
  9
$CECOLOR
 62
   256
  9
$CELTSCALE
 40
1.0
  9
$DISPSILH
 70
     0
  9
$DIMSCALE
 40
1.0
  9
$DIMASZ
 40
2.0
  9
$DIMEXO
 40
2.0
  9
$DIMDLI
 40
8.0
  9
$DIMRND
 40
0.0
  9
$DIMDLE
 40
0.0
  9
$DIMEXE
 40
2.0
  9
$DIMTP
 40
0.0
  9
$DIMTM
 40
0.0
  9
$DIMTXT
 40
2.5
  9
$DIMCEN
 40
0.0
  9
$DIMTSZ
 40
0.0
  9
$DIMTOL
 70
     0
  9
$DIMLIM
 70
     0
  9
$DIMTIH
 70
     0
  9
$DIMTOH
 70
     0
  9
$DIMSE1
 70
     0
  9
$DIMSE2
 70
     0
  9
$DIMTAD
 70
     3
  9
$DIMZIN
 70
     0
  9
$DIMBLK
  1

  9
$DIMASO
 70
     1
  9
$DIMSHO
 70
     1
  9
$DIMPOST
  1

  9
$DIMAPOST
  1

  9
$DIMALT
 70
     0
  9
$DIMALTD
 70
     2
  9
$DIMALTF
 40
25.4
  9
$DIMLFAC
 40
1.0
  9
$DIMTOFL
 70
     1
  9
$DIMTVP
 40
0.0
  9
$DIMTIX
 70
     0
  9
$DIMSOXD
 70
     0
  9
$DIMSAH
 70
     1
  9
$DIMBLK1
  1
OPEN30
  9
$DIMBLK2
  1
OPEN30
  9
$DIMSTYLE
  2
STANDARD
  9
$DIMCLRD
 70
     0
  9
$DIMCLRE
 70
     0
  9
$DIMCLRT
 70
     0
  9
$DIMTFAC
 40
1.0
  9
$DIMGAP
 40
0.5
  9
$DIMJUST
 70
     0
  9
$DIMSD1
 70
     0
  9
$DIMSD2
 70
     0
  9
$DIMTOLJ
 70
     1
  9
$DIMTZIN
 70
     0
  9
$DIMALTZ
 70
     0
  9
$DIMALTTZ
 70
     0
  9
$DIMUPT
 70
     0
  9
$DIMDEC
 70
     4
  9
$DIMTDEC
 70
     4
  9
$DIMALTU
 70
     2
  9
$DIMALTTD
 70
     2
  9
$DIMTXSTY
  7
Standard
  9
$DIMAUNIT
 70
     0
  9
$DIMADEC
 70
     0
  9
$DIMALTRND
 40
0.0
  9
$DIMAZIN
 70
     0
  9
$DIMDSEP
 70
    46
  9
$DIMATFIT
 70
     3
  9
$DIMFRAC
 70
     0
  9
$DIMLDRBLK
  1
OPEN30
  9
$DIMLUNIT
 70
     2
  9
$DIMLWD
 70
    -2
  9
$DIMLWE
 70
    -2
  9
$DIMTMOVE
 70
     0
  9
$LUNITS
 70
     2
  9
$LUPREC
 70
     4
  9
$SKETCHINC
 40
1.0
  9
$FILLETRAD
 40
0.0
  9
$AUNITS
 70
     0
  9
$AUPREC
 70
     0
  9
$MENU
  1
.
  9
$ELEVATION
 40
0.0
  9
$PELEVATION
 40
0.0
  9
$THICKNESS
 40
0.0
  9
$LIMCHECK
 70
     0
  9
$CHAMFERA
 40
0.0
  9
$CHAMFERB
 40
0.0
  9
$CHAMFERC
 40
0.0
  9
$CHAMFERD
 40
0.0
  9
$SKPOLY
 70
     0
  9
$TDCREATE
 40
2454349.434269746
  9
$TDUCREATE
 40
2454349.059269746
  9
$TDUPDATE
 40
2455631.673455162
  9
$TDUUPDATE
 40
2455631.298455162
  9
$TDINDWG
 40
0.3894884838
  9
$TDUSRTIMER
 40
0.3894884838
  9
$USRTIMER
 70
     1
  9
$ANGBASE
 50
0.0
  9
$ANGDIR
 70
     0
  9
$PDMODE
 70
     0
  9
$PDSIZE
 40
0.0
  9
$PLINEWID
 40
0.0
  9
$SPLFRAME
 70
     0
  9
$SPLINETYPE
 70
     6
  9
$SPLINESEGS
 70
     8
  9
$HANDSEED
  5
39C
  9
$SURFTAB1
 70
     6
  9
$SURFTAB2
 70
     6
  9
$SURFTYPE
 70
     6
  9
$SURFU
 70
     6
  9
$SURFV
 70
     6
  9
$UCSBASE
  2

  9
$UCSNAME
  2

  9
$UCSORG
 10
0.0
 20
0.0
 30
0.0
  9
$UCSXDIR
 10
1.0
 20
0.0
 30
0.0
  9
$UCSYDIR
 10
0.0
 20
1.0
 30
0.0
  9
$UCSORTHOREF
  2

  9
$UCSORTHOVIEW
 70
     0
  9
$UCSORGTOP
 10
0.0
 20
0.0
 30
0.0
  9
$UCSORGBOTTOM
 10
0.0
 20
0.0
 30
0.0
  9
$UCSORGLEFT
 10
0.0
 20
0.0
 30
0.0
  9
$UCSORGRIGHT
 10
0.0
 20
0.0
 30
0.0
  9
$UCSORGFRONT
 10
0.0
 20
0.0
 30
0.0
  9
$UCSORGBACK
 10
0.0
 20
0.0
 30
0.0
  9
$PUCSBASE
  2

  9
$PUCSNAME
  2

  9
$PUCSORG
 10
0.0
 20
0.0
 30
0.0
  9
$PUCSXDIR
 10
1.0
 20
0.0
 30
0.0
  9
$PUCSYDIR
 10
0.0
 20
1.0
 30
0.0
  9
$PUCSORTHOREF
  2

  9
$PUCSORTHOVIEW
 70
     0
  9
$PUCSORGTOP
 10
0.0
 20
0.0
 30
0.0
  9
$PUCSORGBOTTOM
 10
0.0
 20
0.0
 30
0.0
  9
$PUCSORGLEFT
 10
0.0
 20
0.0
 30
0.0
  9
$PUCSORGRIGHT
 10
0.0
 20
0.0
 30
0.0
  9
$PUCSORGFRONT
 10
0.0
 20
0.0
 30
0.0
  9
$PUCSORGBACK
 10
0.0
 20
0.0
 30
0.0
  9
$USERI1
 70
     0
  9
$USERI2
 70
     0
  9
$USERI3
 70
     0
  9
$USERI4
 70
     0
  9
$USERI5
 70
     0
  9
$USERR1
 40
0.0
  9
$USERR2
 40
0.0
  9
$USERR3
 40
0.0
  9
$USERR4
 40
0.0
  9
$USERR5
 40
0.0
  9
$WORLDVIEW
 70
     1
  9
$SHADEDGE
 70
     3
  9
$SHADEDIF
 70
    70
  9
$TILEMODE
 70
     1
  9
$MAXACTVP
 70
    64
  9
$PINSBASE
 10
0.0
 20
0.0
 30
0.0
  9
$PLIMCHECK
 70
     0
  9
$PEXTMIN
 10
0.0
 20
0.0
 30
0.0
  9
$PEXTMAX
 10
0.0
 20
0.0
 30
0.0
  9
$PLIMMIN
 10
0.0
 20
0.0
  9
$PLIMMAX
 10
12.0
 20
9.0
  9
$UNITMODE
 70
     0
  9
$VISRETAIN
 70
     1
  9
$PLINEGEN
 70
     0
  9
$PSLTSCALE
 70
     1
  9
$TREEDEPTH
 70
  3020
  9
$CMLSTYLE
  2
Standard
  9
$CMLJUST
 70
     0
  9
$CMLSCALE
 40
20.0
  9
$PROXYGRAPHICS
 70
     1
  9
$MEASUREMENT
 70
     1
  9
$CELWEIGHT
370
    -1
  9
$ENDCAPS
280
     0
  9
$JOINSTYLE
280
     0
  9
$LWDISPLAY
290
     0
  9
$INSUNITS
 70
     4
  9
$HYPERLINKBASE
  1

  9
$STYLESHEET
  1

  9
$XEDIT
290
     1
  9
$CEPSNTYPE
380
     0
  9
$PSTYLEMODE
290
     1
  9
$FINGERPRINTGUID
  2
{FDEAD578-A652-11D2-9A35-0060089B3A3F}
  9
$VERSIONGUID
  2
{99569FB2-7B77-42ED-9F91-CD1D0BEA6287}
  9
$EXTNAMES
290
     1
  9
$PSVPSCALE
 40
0.0
  9
$OLESTARTUP
290
     0
  0
ENDSEC
  0
SECTION
  2
CLASSES
  0
CLASS
  1
ACDBDICTIONARYWDFLT
  2
AcDbDictionaryWithDefault
  3
ObjectDBX Classes
 90
        0
280
     0
281
     0
  0
CLASS
  1
ACDBPLACEHOLDER
  2
AcDbPlaceHolder
  3
ObjectDBX Classes
 90
        0
280
     0
281
     0
  0
CLASS
  1
LAYOUT
  2
AcDbLayout
  3
ObjectDBX Classes
 90
        0
280
     0
281
     0
  0
CLASS
  1
DICTIONARYVAR
  2
AcDbDictionaryVar
  3
ObjectDBX Classes
 90
        0
280
     0
281
     0
  0
CLASS
  1
DIMASSOC
  2
AcDbDimAssoc
  3
"AcDbDimAssoc|Product Desc:     AcDim ARX App For Dimension|Company:          Autodesk, Inc.|WEB Address:      www.autodesk.com"
 90
    32768
280
     1
281
     0
  0
ENDSEC
  0
SECTION
  2
TABLES
  0
TABLE
  2
VPORT
  5
1B
330
0
100
AcDbSymbolTable
 70
     3
  0
VPORT
  5
394
330
1B
100
AcDbSymbolTableRecord
100
AcDbViewportTableRecord
  2
*Active
 70
     0
 10
0.0
 20
0.0
 11
1.0
 21
1.0
 12
-3.697814212294467
 22
-5.99111887310994
 13
0.0
 23
0.0
 14
10.0
 24
10.0
 15
10.0
 25
10.0
 16
0.0
 26
0.0
 36
1.0
 17
0.0
 27
0.0
 37
0.0
 40
114.3320699379548
 41
2.170854271356783
 42
50.0
 43
0.0
 44
0.0
 50
0.0
 51
0.0
 71
     0
 72
  1000
 73
     1
 74
     2
 75
     0
 76
     0
 77
     0
 78
     0
281
     0
 65
     1
110
0.0
120
0.0
130
0.0
111
1.0
121
0.0
131
0.0
112
0.0
122
1.0
132
0.0
 79
     0
146
0.0
  0
ENDTAB
  0
TABLE
  2
LTYPE
  5
16
330
0
100
AcDbSymbolTable
 70
     2
  0
LTYPE
  5
17
330
16
100
AcDbSymbolTableRecord
100
AcDbLinetypeTableRecord
  2
ByBlock
 70
     0
  3

 72
    65
 73
     0
 40
0.0
  0
LTYPE
  5
18
330
16
100
AcDbSymbolTableRecord
100
AcDbLinetypeTableRecord
  2
ByLayer
 70
     0
  3

 72
    65
 73
     0
 40
0.0
  0
LTYPE
  5
8
330
16
100
AcDbSymbolTableRecord
100
AcDbLinetypeTableRecord
  2
Continuous
 70
     0
  3
Solid line
 72
    65
 73
     0
 40
0.0
  0
LTYPE
  5
173
330
16
100
AcDbSymbolTableRecord
100
AcDbLinetypeTableRecord
  2
DASHDOT
 70
     0
  3
 __ . __ . __ . __ . __ . __ . __ . 
 72
    65
 73
     4
 40
18.5
 49
12.0
 74
     0
 49
-3.0
 74
     0
 49
0.5
 74
     0
 49
-3.0
 74
     0
  0
ENDTAB
  0
TABLE
  2
LAYER
  5
10
102
{ACAD_XDICTIONARY
360
11
102
}
330
0
100
AcDbSymbolTable
 70
     7
  0
LAYER
  5
4
330
10
100
AcDbSymbolTableRecord
100
AcDbLayerTableRecord
  2
0
 70
     0
 62
     7
  6
Continuous
370
    -3
390
5
  0
LAYER
  5
35
330
10
100
AcDbSymbolTableRecord
100
AcDbLayerTableRecord
  2
WAKU
 70
     0
 62
     4
  6
Continuous
370
    -3
390
5
  0
LAYER
  5
30
330
10
100
AcDbSymbolTableRecord
100
AcDbLayerTableRecord
  2
MOJI1
 70
     0
 62
     2
  6
Continuous
370
    -3
390
5
  0
LAYER
  5
80
330
10
100
AcDbSymbolTableRecord
100
AcDbLayerTableRecord
  2
TOUROKU
 70
     0
 62
     1
  6
Continuous
370
    -3
390
5
  0
LAYER
  5
61
330
10
100
AcDbSymbolTableRecord
100
AcDbLayerTableRecord
  2
Defpoints
 70
     0
 62
     7
  6
Continuous
290
     0
370
    -3
390
5
  0
LAYER
  5
2D
330
10
100
AcDbSymbolTableRecord
100
AcDbLayerTableRecord
  2
GAIKEI
 70
     0
 62
     7
  6
Continuous
370
    -3
390
5
  0
LAYER
  5
57
330
10
100
AcDbSymbolTableRecord
100
AcDbLayerTableRecord
  2
SUNPO
 70
     0
 62
     3
  6
Continuous
370
    -3
390
5
  0
ENDTAB
  0
TABLE
  2
STYLE
  5
13
330
0
100
AcDbSymbolTable
 70
     1
  0
STYLE
  5
14
330
13
100
AcDbSymbolTableRecord
100
AcDbTextStyleTableRecord
  2
Standard
 70
     0
 40
0.0
 41
1.0
 50
0.0
 71
     0
 42
2.5
  3
MONOTXT.shx
  4
BIGFONT.shx
  0
ENDTAB
  0
TABLE
  2
VIEW
  5
19
330
0
100
AcDbSymbolTable
 70
     0
  0
ENDTAB
  0
TABLE
  2
UCS
  5
1A
330
0
100
AcDbSymbolTable
 70
     0
  0
ENDTAB
  0
TABLE
  2
APPID
  5
1D
330
0
100
AcDbSymbolTable
 70
     1
  0
APPID
  5
1E
330
1D
100
AcDbSymbolTableRecord
100
AcDbRegAppTableRecord
  2
ACAD
 70
     0
  0
ENDTAB
  0
TABLE
  2
DIMSTYLE
  5
1F
330
0
100
AcDbSymbolTable
 70
     1
100
AcDbDimStyleTable
 71
     1
340
20
  0
DIMSTYLE
105
20
102
{ACAD_REACTORS
330
72
330
65
330
56
102
}
330
1F
100
AcDbSymbolTableRecord
100
AcDbDimStyleTableRecord
  2
STANDARD
 70
     0
 40
0.0
 41
2.0
 42
2.0
 43
8.0
 44
2.0
 73
     0
 74
     0
 77
     3
140
3.0
141
0.0
173
     1
279
     2
288
     1
340
14
341
21
343
21
344
21
  0
ENDTAB
  0
TABLE
  2
BLOCK_RECORD
  5
1
330
0
100
AcDbSymbolTable
 70
     7
  0
BLOCK_RECORD
  5
2
330
1
100
AcDbSymbolTableRecord
100
AcDbBlockTableRecord
  2
*Model_Space
340
A
  0
BLOCK_RECORD
  5
C
330
1
100
AcDbSymbolTableRecord
100
AcDbBlockTableRecord
  2
*Paper_Space
340
F
  0
BLOCK_RECORD
  5
21
330
1
100
AcDbSymbolTableRecord
100
AcDbBlockTableRecord
  2
_OPEN30
340
0
102
{BLKREFS
331
5D
331
5E
331
6B
331
6C
331
78
331
79
331
370
331
371
331
37C
331
37D
331
388
331
389
102
}
  0
BLOCK_RECORD
  5
73
330
1
100
AcDbSymbolTableRecord
100
AcDbBlockTableRecord
  2
*D1
340
0
  0
BLOCK_RECORD
  5
66
330
1
100
AcDbSymbolTableRecord
100
AcDbBlockTableRecord
  2
*D2
340
0
  0
BLOCK_RECORD
  5
58
330
1
100
AcDbSymbolTableRecord
100
AcDbBlockTableRecord
  2
*D3
340
0
  0
BLOCK_RECORD
  5
36C
330
1
100
AcDbSymbolTableRecord
100
AcDbBlockTableRecord
  2
*D4
340
0
  0
BLOCK_RECORD
  5
378
330
1
100
AcDbSymbolTableRecord
100
AcDbBlockTableRecord
  2
*D5
340
0
  0
BLOCK_RECORD
  5
384
330
1
100
AcDbSymbolTableRecord
100
AcDbBlockTableRecord
  2
*D6
340
0
  0
ENDTAB
  0
ENDSEC
  0
SECTION
  2
BLOCKS
  0
BLOCK
  5
3
330
2
100
AcDbEntity
  8
0
100
AcDbBlockBegin
  2
*Model_Space
 70
     0
 10
0.0
 20
0.0
 30
0.0
  3
*Model_Space
  1

  0
ENDBLK
  5
9
330
2
100
AcDbEntity
  8
0
100
AcDbBlockEnd
  0
BLOCK
  5
D
330
C
100
AcDbEntity
 67
     1
  8
0
100
AcDbBlockBegin
  2
*Paper_Space
 70
     0
 10
0.0
 20
0.0
 30
0.0
  3
*Paper_Space
  1

  0
ENDBLK
  5
E
330
C
100
AcDbEntity
 67
     1
  8
0
100
AcDbBlockEnd
  0
BLOCK
  5
22
330
21
100
AcDbEntity
  8
0
100
AcDbBlockBegin
  2
_OPEN30
 70
     0
 10
0.0
 20
0.0
 30
0.0
  3
_OPEN30
  1

  0
LINE
  5
23
330
21
100
AcDbEntity
  8
0
  6
ByBlock
 62
     0
100
AcDbLine
 10
-1.0
 20
0.26794919
 30
0.0
 11
0.0
 21
0.0
 31
0.0
  0
LINE
  5
24
330
21
100
AcDbEntity
  8
0
  6
ByBlock
 62
     0
100
AcDbLine
 10
0.0
 20
0.0
 30
0.0
 11
-1.0
 21
-0.26794919
 31
0.0
  0
LINE
  5
25
330
21
100
AcDbEntity
  8
0
  6
ByBlock
 62
     0
100
AcDbLine
 10
0.0
 20
0.0
 30
0.0
 11
-1.0
 21
0.0
 31
0.0
  0
ENDBLK
  5
26
330
21
100
AcDbEntity
  8
0
100
AcDbBlockEnd
  0
BLOCK
  5
74
330
73
100
AcDbEntity
  8
0
100
AcDbBlockBegin
  2
*D1
 70
     1
 10
0.0
 20
0.0
 30
0.0
  3
*D1
  1

  0
LINE
  5
75
330
73
100
AcDbEntity
  8
SUNPO
 62
     0
370
    -2
100
AcDbLine
 10
159.2101852446913
 20
196.1720764793308
 30
0.0
 11
159.2101852446913
 21
188.1720764793308
 31
0.0
  0
LINE
  5
76
330
73
100
AcDbEntity
  8
SUNPO
 62
     0
370
    -2
100
AcDbLine
 10
179.2101852446913
 20
196.1720764793308
 30
0.0
 11
179.2101852446913
 21
188.1720764793308
 31
0.0
  0
LINE
  5
77
330
73
100
AcDbEntity
  8
SUNPO
 62
     0
370
    -2
100
AcDbLine
 10
161.2101852446913
 20
190.1720764793308
 30
0.0
 11
177.2101852446913
 21
190.1720764793308
 31
0.0
  0
INSERT
  5
78
330
73
100
AcDbEntity
  8
SUNPO
 62
     0
370
    -2
100
AcDbBlockReference
  2
_OPEN30
 10
159.2101852446913
 20
190.1720764793308
 30
0.0
 41
2.0
 42
2.0
 43
2.0
 50
180.0
  0
INSERT
  5
79
330
73
100
AcDbEntity
  8
SUNPO
 62
     0
370
    -2
100
AcDbBlockReference
  2
_OPEN30
 10
179.2101852446913
 20
190.1720764793308
 30
0.0
 41
2.0
 42
2.0
 43
2.0
  0
MTEXT
  5
7A
330
73
100
AcDbEntity
  8
SUNPO
 62
     0
100
AcDbMText
 10
169.2101852446913
 20
191.9220764793308
 30
0.0
 40
2.5
 41
0.0
 71
     5
 72
     1
  1
\A1;100
 73
     1
 44
1.0
1001
ACAD
1000
MTEXTBEGIN
1070
    73
1070
     1
1070
    44
1040
1.0
1070
    74
1070
     0
1000
MTEXTEND
  0
POINT
  5
7B
330
73
100
AcDbEntity
  8
Defpoints
 62
     0
100
AcDbPoint
 10
159.2101852446913
 20
198.1720764793308
 30
0.0
  0
POINT
  5
7C
330
73
100
AcDbEntity
  8
Defpoints
 62
     0
100
AcDbPoint
 10
179.2101852446913
 20
198.1720764793308
 30
0.0
  0
POINT
  5
7D
330
73
100
AcDbEntity
  8
Defpoints
 62
     0
100
AcDbPoint
 10
179.2101852446913
 20
190.1720764793308
 30
0.0
  0
ENDBLK
  5
7E
330
73
100
AcDbEntity
  8
0
100
AcDbBlockEnd
  0
BLOCK
  5
67
330
66
100
AcDbEntity
  8
0
100
AcDbBlockBegin
  2
*D2
 70
     1
 10
0.0
 20
0.0
 30
0.0
  3
*D2
  1

  0
LINE
  5
68
330
66
100
AcDbEntity
  8
SUNPO
 62
     0
370
    -2
100
AcDbLine
 10
182.2905141035421
 20
198.2171043802897
 30
0.0
 11
190.2905141035421
 21
198.2171043802897
 31
0.0
  0
LINE
  5
69
330
66
100
AcDbEntity
  8
SUNPO
 62
     0
370
    -2
100
AcDbLine
 10
182.2905141035421
 20
218.2171043802896
 30
0.0
 11
190.2905141035421
 21
218.2171043802896
 31
0.0
  0
LINE
  5
6A
330
66
100
AcDbEntity
  8
SUNPO
 62
     0
370
    -2
100
AcDbLine
 10
188.2905141035421
 20
200.2171043802897
 30
0.0
 11
188.2905141035421
 21
216.2171043802896
 31
0.0
  0
INSERT
  5
6B
330
66
100
AcDbEntity
  8
SUNPO
 62
     0
370
    -2
100
AcDbBlockReference
  2
_OPEN30
 10
188.2905141035421
 20
198.2171043802897
 30
0.0
 41
2.0
 42
2.0
 43
2.0
 50
270.0
  0
INSERT
  5
6C
330
66
100
AcDbEntity
  8
SUNPO
 62
     0
370
    -2
100
AcDbBlockReference
  2
_OPEN30
 10
188.2905141035421
 20
218.2171043802896
 30
0.0
 41
2.0
 42
2.0
 43
2.0
 50
90.0
  0
MTEXT
  5
6D
330
66
100
AcDbEntity
  8
SUNPO
 62
     0
100
AcDbMText
 10
186.5405141035421
 20
208.2171043802897
 30
0.0
 40
2.5
 41
0.0
 71
     5
 72
     1
  1
\A1;100
 11
0.0000000000000001
 21
1.0
 31
0.0
 73
     1
 44
1.0
1001
ACAD
1000
MTEXTBEGIN
1070
    73
1070
     1
1070
    44
1040
1.0
1070
    74
1070
     0
1000
MTEXTEND
  0
POINT
  5
6E
330
66
100
AcDbEntity
  8
Defpoints
 62
     0
100
AcDbPoint
 10
180.2905141035421
 20
198.2171043802897
 30
0.0
  0
POINT
  5
6F
330
66
100
AcDbEntity
  8
Defpoints
 62
     0
100
AcDbPoint
 10
180.2905141035421
 20
218.2171043802896
 30
0.0
  0
POINT
  5
70
330
66
100
AcDbEntity
  8
Defpoints
 62
     0
100
AcDbPoint
 10
188.2905141035421
 20
218.2171043802896
 30
0.0
  0
ENDBLK
  5
71
330
66
100
AcDbEntity
  8
0
100
AcDbBlockEnd
  0
BLOCK
  5
59
330
58
100
AcDbEntity
  8
0
100
AcDbBlockBegin
  2
*D3
 70
     1
 10
0.0
 20
0.0
 30
0.0
  3
*D3
  1

  0
LINE
  5
5A
330
58
100
AcDbEntity
  8
SUNPO
 62
     0
370
    -2
100
AcDbLine
 10
156.1427339453487
 20
198.2170261472885
 30
0.0
 11
148.1427339459033
 21
198.2170927490535
 31
0.0
  0
LINE
  5
5B
330
58
100
AcDbEntity
  8
SUNPO
 62
     0
370
    -2
100
AcDbLine
 10
156.1430349302466
 20
234.3704101399185
 30
0.0
 11
148.1430349308012
 21
234.3704767416834
 31
0.0
  0
LINE
  5
5C
330
58
100
AcDbEntity
  8
SUNPO
 62
     0
370
    -2
100
AcDbLine
 10
150.1427505962753
 20
200.2170760985429
 30
0.0
 11
150.1430182802907
 21
232.3704600913115
 31
0.0
  0
INSERT
  5
5D
330
58
100
AcDbEntity
  8
SUNPO
 62
     0
370
    -2
100
AcDbBlockReference
  2
_OPEN30
 10
150.142733945834
 20
198.2170760986122
 30
0.0
 41
2.0
 42
2.0
 43
2.0
 50
269.999522999995
  0
INSERT
  5
5E
330
58
100
AcDbEntity
  8
SUNPO
 62
     0
370
    -2
100
AcDbBlockReference
  2
_OPEN30
 10
150.1430349307319
 20
234.3704600912422
 30
0.0
 41
2.0
 42
2.0
 43
2.0
 50
89.99952299999501
  0
MTEXT
  5
5F
330
58
100
AcDbEntity
  8
SUNPO
 62
     0
100
AcDbMText
 10
148.3928844383436
 20
216.2937826640633
 30
0.0
 40
2.5
 41
0.0
 71
     5
 72
     1
  1
\A1;180.8
 11
0.0000083252206191
 21
0.9999999999653454
 31
0.0
 73
     1
 44
1.0
1001
ACAD
1000
MTEXTBEGIN
1070
    73
1070
     1
1070
    44
1040
1.0
1070
    74
1070
     0
1000
MTEXTEND
  0
POINT
  5
60
330
58
100
AcDbEntity
  8
Defpoints
 62
     0
100
AcDbPoint
 10
158.1427339452794
 20
198.2170094968473
 30
0.0
  0
POINT
  5
62
330
58
100
AcDbEntity
  8
Defpoints
 62
     0
100
AcDbPoint
 10
158.1430349301773
 20
234.3703934894772
 30
0.0
  0
POINT
  5
63
330
58
100
AcDbEntity
  8
Defpoints
 62
     0
100
AcDbPoint
 10
150.1430349307319
 20
234.3704600912422
 30
0.0
  0
ENDBLK
  5
64
330
58
100
AcDbEntity
  8
0
100
AcDbBlockEnd
  0
BLOCK
  5
376
330
36C
100
AcDbEntity
  8
0
100
AcDbBlockBegin
  2
*D4
 70
     1
 10
0.0
 20
0.0
 30
0.0
  3
*D4
  1

  0
LINE
  5
36D
330
36C
100
AcDbEntity
  8
SUNPO
 62
     0
370
    -2
100
AcDbLine
 10
-38.49844023751681
 20
2.663495914568642
 30
0.0
 11
-38.49844023751681
 21
-5.3365040854313
 31
0.0
  0
LINE
  5
36E
330
36C
100
AcDbEntity
  8
SUNPO
 62
     0
370
    -2
100
AcDbLine
 10
-18.4984402375168
 20
2.663495914568699
 30
0.0
 11
-18.4984402375168
 21
-5.3365040854313
 31
0.0
  0
LINE
  5
36F
330
36C
100
AcDbEntity
  8
SUNPO
 62
     0
370
    -2
100
AcDbLine
 10
-36.4984402375168
 20
-3.3365040854313
 30
0.0
 11
-20.4984402375168
 21
-3.3365040854313
 31
0.0
  0
INSERT
  5
370
330
36C
100
AcDbEntity
  8
SUNPO
 62
     0
370
    -2
100
AcDbBlockReference
  2
_OPEN30
 10
-38.49844023751681
 20
-3.3365040854313
 30
0.0
 41
2.0
 42
2.0
 43
2.0
 50
180.0
  0
INSERT
  5
371
330
36C
100
AcDbEntity
  8
SUNPO
 62
     0
370
    -2
100
AcDbBlockReference
  2
_OPEN30
 10
-18.4984402375168
 20
-3.3365040854313
 30
0.0
 41
2.0
 42
2.0
 43
2.0
  0
MTEXT
  5
372
330
36C
100
AcDbEntity
  8
SUNPO
 62
     0
100
AcDbMText
 10
-28.49844023751681
 20
-1.5865040854313
 30
0.0
 40
2.5
 41
0.0
 71
     5
 72
     1
  1
\A1;100
 73
     1
 44
1.0
1001
ACAD
1000
MTEXTBEGIN
1070
    73
1070
     1
1070
    44
1040
1.0
1070
    74
1070
     0
1000
MTEXTEND
  0
POINT
  5
373
330
36C
100
AcDbEntity
  8
Defpoints
 62
     0
100
AcDbPoint
 10
-38.49844023751681
 20
4.663495914568642
 30
0.0
  0
POINT
  5
374
330
36C
100
AcDbEntity
  8
Defpoints
 62
     0
100
AcDbPoint
 10
-18.4984402375168
 20
4.663495914568699
 30
0.0
  0
POINT
  5
375
330
36C
100
AcDbEntity
  8
Defpoints
 62
     0
100
AcDbPoint
 10
-18.4984402375168
 20
-3.3365040854313
 30
0.0
  0
ENDBLK
  5
377
330
36C
100
AcDbEntity
  8
0
100
AcDbBlockEnd
  0
BLOCK
  5
382
330
378
100
AcDbEntity
  8
0
100
AcDbBlockBegin
  2
*D5
 70
     1
 10
0.0
 20
0.0
 30
0.0
  3
*D5
  1

  0
LINE
  5
379
330
378
100
AcDbEntity
  8
SUNPO
 62
     0
370
    -2
100
AcDbLine
 10
-15.41811137866602
 20
4.70852381552757
 30
0.0
 11
-7.41811137866603
 21
4.708523815527567
 31
0.0
  0
LINE
  5
37A
330
378
100
AcDbEntity
  8
SUNPO
 62
     0
370
    -2
100
AcDbLine
 10
-15.41811137866603
 20
24.70852381552746
 30
0.0
 11
-7.418111378666026
 21
24.70852381552746
 31
0.0
  0
LINE
  5
37B
330
378
100
AcDbEntity
  8
SUNPO
 62
     0
370
    -2
100
AcDbLine
 10
-9.418111378666029
 20
6.708523815527567
 30
0.0
 11
-9.418111378666026
 21
22.70852381552746
 31
0.0
  0
INSERT
  5
37C
330
378
100
AcDbEntity
  8
SUNPO
 62
     0
370
    -2
100
AcDbBlockReference
  2
_OPEN30
 10
-9.418111378666029
 20
4.708523815527567
 30
0.0
 41
2.0
 42
2.0
 43
2.0
 50
270.0
  0
INSERT
  5
37D
330
378
100
AcDbEntity
  8
SUNPO
 62
     0
370
    -2
100
AcDbBlockReference
  2
_OPEN30
 10
-9.418111378666026
 20
24.70852381552746
 30
0.0
 41
2.0
 42
2.0
 43
2.0
 50
90.0
  0
MTEXT
  5
37E
330
378
100
AcDbEntity
  8
SUNPO
 62
     0
100
AcDbMText
 10
-11.16811137866603
 20
14.70852381552751
 30
0.0
 40
2.5
 41
0.0
 71
     5
 72
     1
  1
\A1;100
 11
0.0000000000000001
 21
1.0
 31
0.0
 73
     1
 44
1.0
1001
ACAD
1000
MTEXTBEGIN
1070
    73
1070
     1
1070
    44
1040
1.0
1070
    74
1070
     0
1000
MTEXTEND
  0
POINT
  5
37F
330
378
100
AcDbEntity
  8
Defpoints
 62
     0
100
AcDbPoint
 10
-17.41811137866602
 20
4.70852381552757
 30
0.0
  0
POINT
  5
380
330
378
100
AcDbEntity
  8
Defpoints
 62
     0
100
AcDbPoint
 10
-17.41811137866602
 20
24.70852381552746
 30
0.0
  0
POINT
  5
381
330
378
100
AcDbEntity
  8
Defpoints
 62
     0
100
AcDbPoint
 10
-9.418111378666026
 20
24.70852381552746
 30
0.0
  0
ENDBLK
  5
383
330
378
100
AcDbEntity
  8
0
100
AcDbBlockEnd
  0
BLOCK
  5
38E
330
384
100
AcDbEntity
  8
0
100
AcDbBlockBegin
  2
*D6
 70
     1
 10
0.0
 20
0.0
 30
0.0
  3
*D6
  1

  0
LINE
  5
385
330
384
100
AcDbEntity
  8
SUNPO
 62
     0
370
    -2
100
AcDbLine
 10
-41.56589153685938
 20
4.708445582526365
 30
0.0
 11
-49.56589153630481
 21
4.708512184291317
 31
0.0
  0
LINE
  5
386
330
384
100
AcDbEntity
  8
SUNPO
 62
     0
370
    -2
100
AcDbLine
 10
-41.56559055196151
 20
40.86182957515629
 30
0.0
 11
-49.56559055140694
 21
40.86189617692124
 31
0.0
  0
LINE
  5
387
330
384
100
AcDbEntity
  8
SUNPO
 62
     0
370
    -2
100
AcDbLine
 10
-47.56587488593289
 20
6.708495533780769
 30
0.0
 11
-47.56560720191749
 21
38.86187952654932
 31
0.0
  0
INSERT
  5
388
330
384
100
AcDbEntity
  8
SUNPO
 62
     0
370
    -2
100
AcDbBlockReference
  2
_OPEN30
 10
-47.56589153637412
 20
4.708495533850078
 30
0.0
 41
2.0
 42
2.0
 43
2.0
 50
269.999522999995
  0
INSERT
  5
389
330
384
100
AcDbEntity
  8
SUNPO
 62
     0
370
    -2
100
AcDbBlockReference
  2
_OPEN30
 10
-47.56559055147625
 20
40.86187952648
 30
0.0
 41
2.0
 42
2.0
 43
2.0
 50
89.99952299999501
  0
MTEXT
  5
38A
330
384
100
AcDbEntity
  8
SUNPO
 62
     0
100
AcDbMText
 10
-49.31574104386455
 20
22.78520209930112
 30
0.0
 40
2.5
 41
0.0
 71
     5
 72
     1
  1
\A1;180.8
 11
0.0000083252206191
 21
0.9999999999653454
 31
0.0
 73
     1
 44
1.0
1001
ACAD
1000
MTEXTBEGIN
1070
    73
1070
     1
1070
    44
1040
1.0
1070
    74
1070
     0
1000
MTEXTEND
  0
POINT
  5
38B
330
384
100
AcDbEntity
  8
Defpoints
 62
     0
100
AcDbPoint
 10
-39.56589153692869
 20
4.708428932085126
 30
0.0
  0
POINT
  5
38C
330
384
100
AcDbEntity
  8
Defpoints
 62
     0
100
AcDbPoint
 10
-39.56559055203082
 20
40.86181292471505
 30
0.0
  0
POINT
  5
38D
330
384
100
AcDbEntity
  8
Defpoints
 62
     0
100
AcDbPoint
 10
-47.56559055147625
 20
40.86187952648
 30
0.0
  0
ENDBLK
  5
38F
330
384
100
AcDbEntity
  8
0
100
AcDbBlockEnd
  0
ENDSEC
  0
SECTION
  2
ENTITIES
  0
TEXT
  5
2F
330
2
100
AcDbEntity
  8
MOJI1
100
AcDbText
 10
-39.20862553816699
 20
46.99225456017202
 30
0.0
 40
4.0
  1
ネットワークカメラ
100
AcDbText
  0
LINE
  5
31
330
2
100
AcDbEntity
  8
GAIKEI
 62
     7
 48
0.227527
370
    40
100
AcDbLine
 10
25.1286715574131
 20
5.388524037749704
 30
0.0
 11
25.30965444630198
 21
5.388524037749732
 31
0.0
  0
ARC
  5
32
330
2
100
AcDbEntity
  8
GAIKEI
 62
     7
370
    40
100
AcDbCircle
 10
-36.5024168930724
 20
6.704547371083066
 30
0.0
 40
1.995934666666666
100
AcDbArc
 50
230.5404585656975
 51
270.0354630000009
  0
ARC
  5
33
330
2
100
AcDbEntity
  8
GAIKEI
 62
     1
370
    40
100
AcDbCircle
 10
-20.4944640041835
 20
6.704547371083066
 30
0.0
 40
1.995934666666666
100
AcDbArc
 50
309.4595463049508
 51
0.0354730000005959
  0
LINE
  5
34
330
2
100
AcDbEntity
  8
WAKU
 62
     1
100
AcDbLine
 10
58.79137446183221
 20
-37.72371094663188
 30
0.0
 11
-66.20862553816778
 21
-37.72371094663188
 31
0.0
  0
TEXT
  5
36
330
2
100
AcDbEntity
  8
MOJI1
100
AcDbText
 10
-22.70862553816778
 20
-11.72371094663188
 30
0.0
 40
3.0
  1
専用ＡＣアダプタ　ＤＣ１２Ｖ
100
AcDbText
  0
TEXT
  5
37
330
2
100
AcDbEntity
  8
MOJI1
100
AcDbText
 10
-23.70862553816778
 20
-21.72371094663188
 30
0.0
 40
3.0
  1
１／３インチ 約１３０万画素
 41
0.9
100
AcDbText
  0
TEXT
  5
38
330
2
100
AcDbEntity
  8
MOJI1
100
AcDbText
 10
-63.70862553816778
 20
-21.72371094663188
 30
0.0
 40
3.0
  1
撮像素子
100
AcDbText
  0
TEXT
  5
39
330
2
100
AcDbEntity
  8
MOJI1
100
AcDbText
 10
-63.70862553816778
 20
-31.72371094663188
 30
0.0
 40
3.0
  1
対応照度
100
AcDbText
  0
TEXT
  5
3A
330
2
100
AcDbEntity
  8
MOJI1
100
AcDbText
 10
-23.70862553816778
 20
-31.72371094663188
 30
0.0
 40
3.0
  1
０．６～１０００００ルクス
100
AcDbText
  0
TEXT
  5
3B
330
2
100
AcDbEntity
  8
MOJI1
100
AcDbText
 10
-63.70862553816778
 20
-11.72371094663188
 30
0.0
 40
3.0
  1
電　源
100
AcDbText
  0
LINE
  5
3C
330
2
100
AcDbEntity
  8
WAKU
 62
     1
100
AcDbLine
 10
58.79137446183221
 20
-32.72371094663188
 30
0.0
 11
-66.20862553816778
 21
-32.72371094663188
 31
0.0
  0
LINE
  5
3D
330
2
100
AcDbEntity
  8
WAKU
 62
     1
100
AcDbLine
 10
58.79137446183221
 20
-27.72371094663188
 30
0.0
 11
-66.20862553816778
 21
-27.72371094663188
 31
0.0
  0
LINE
  5
3E
330
2
100
AcDbEntity
  8
WAKU
 62
     1
100
AcDbLine
 10
58.79137446183221
 20
-22.72371094663188
 30
0.0
 11
-66.20862553816778
 21
-22.72371094663188
 31
0.0
  0
LINE
  5
3F
330
2
100
AcDbEntity
  8
WAKU
 62
     1
100
AcDbLine
 10
58.79137446183221
 20
-17.72371094663188
 30
0.0
 11
-66.20862553816778
 21
-17.72371094663188
 31
0.0
  0
LINE
  5
40
330
2
100
AcDbEntity
  8
WAKU
 62
     4
100
AcDbLine
 10
58.79137446183221
 20
-7.723710946631882
 30
0.0
 11
-66.20862553816778
 21
-7.723710946631882
 31
0.0
  0
LINE
  5
41
330
2
100
AcDbEntity
  8
WAKU
 62
     1
100
AcDbLine
 10
58.79137446183221
 20
-12.72371094663188
 30
0.0
 11
-66.20862553816778
 21
-12.72371094663188
 31
0.0
  0
LINE
  5
42
330
2
100
AcDbEntity
  8
WAKU
 62
     4
100
AcDbLine
 10
-66.20862553816778
 20
-7.723710946631882
 30
0.0
 11
-66.20862553816778
 21
-62.72371094663188
 31
0.0
  0
LINE
  5
43
330
2
100
AcDbEntity
  8
WAKU
 62
     4
100
AcDbLine
 10
58.79137446183221
 20
-62.72371094663188
 30
0.0
 11
58.79137446183221
 21
-7.723710946631882
 31
0.0
  0
LINE
  5
44
330
2
100
AcDbEntity
  8
WAKU
 62
     4
100
AcDbLine
 10
-26.00304430764936
 20
-62.72371094663165
 30
0.0
 11
-26.00304430764936
 21
-7.723710946631655
 31
0.0
  0
TEXT
  5
45
330
2
100
AcDbEntity
  8
MOJI1
100
AcDbText
 10
-22.70862553816778
 20
-16.72371094663188
 30
0.0
 40
3.0
  1
ＰｏＥ給電（ＩＥＥＥ８０２．３ａｆ準拠）
 41
0.9
100
AcDbText
  0
TEXT
  5
46
330
2
100
AcDbEntity
  8
MOJI1
100
AcDbText
 10
-23.70862553816778
 20
-41.72371094663188
 30
0.0
 40
3.0
  1
パン：－５２°～＋５２°(壁設置時)
 41
0.8
100
AcDbText
  0
TEXT
  5
47
330
2
100
AcDbEntity
  8
MOJI1
100
AcDbText
 10
-63.70862553816778
 20
-41.72371094663188
 30
0.0
 40
3.0
  1
パン・チルト角度
100
AcDbText
  0
TEXT
  5
48
330
2
100
AcDbEntity
  8
MOJI1
100
AcDbText
 10
-23.70862553816778
 20
-51.72371094663188
 30
0.0
 40
3.0
  1
専用ＳＤ／ＳＤＨＣメモリーカードとして
100
AcDbText
  0
TEXT
  5
49
330
2
100
AcDbEntity
  8
MOJI1
100
AcDbText
 10
-63.70862553816778
 20
-51.72371094663188
 30
0.0
 40
3.0
  1
ＳＤ／ＳＤＨＣスロット
 41
0.9
100
AcDbText
  0
LINE
  5
4A
330
2
100
AcDbEntity
  8
WAKU
 62
     4
100
AcDbLine
 10
-66.20862553816778
 20
-62.72371094663188
 30
0.0
 11
58.79137446183221
 21
-62.72371094663188
 31
0.0
  0
LINE
  5
4B
330
2
100
AcDbEntity
  8
WAKU
 62
     1
100
AcDbLine
 10
58.79137446183221
 20
-47.72371094663188
 30
0.0
 11
-66.20862553816778
 21
-47.72371094663188
 31
0.0
  0
LINE
  5
4C
330
2
100
AcDbEntity
  8
WAKU
 62
     1
100
AcDbLine
 10
58.79137446183221
 20
-52.72371094663188
 30
0.0
 11
-66.20862553816778
 21
-52.72371094663188
 31
0.0
  0
TEXT
  5
4D
330
2
100
AcDbEntity
  8
MOJI1
100
AcDbText
 10
-63.70862553816778
 20
-61.72371094663188
 30
0.0
 40
3.0
  1
画像圧縮方式
100
AcDbText
  0
LINE
  5
4E
330
2
100
AcDbEntity
  8
WAKU
 62
     1
100
AcDbLine
 10
58.79137446183221
 20
-42.72371094663188
 30
0.0
 11
-66.20862553816778
 21
-42.72371094663188
 31
0.0
  0
TEXT
  5
4F
330
2
100
AcDbEntity
  8
MOJI1
100
AcDbText
 10
-23.70862553816778
 20
-36.72371094663188
 30
0.0
 40
3.0
  1
(カラーナイトビューモー時：０．０７～１０００００ルクス)
 41
0.8
100
AcDbText
  0
TEXT
  5
50
330
2
100
AcDbEntity
  8
MOJI1
100
AcDbText
 10
-23.70862553816778
 20
-26.72371094663188
 30
0.0
 40
3.0
  1
６倍(Ｅｘ ズーム２倍、デジタルズーム３倍）
100
AcDbText
  0
TEXT
  5
51
330
2
100
AcDbEntity
  8
MOJI1
100
AcDbText
 10
-63.70862553816778
 20
-26.72371094663188
 30
0.0
 40
3.0
  1
ズーム
100
AcDbText
  0
TEXT
  5
52
330
2
100
AcDbEntity
  8
MOJI1
100
AcDbText
 10
-23.70862553816778
 20
-46.72371094663188
 30
0.0
 40
3.0
  1
チルト：－４５°～＋８°リモート操作
 41
0.8
100
AcDbText
  0
LINE
  5
53
330
2
100
AcDbEntity
  8
WAKU
 62
     1
100
AcDbLine
 10
58.79137446183221
 20
-57.72371094663188
 30
0.0
 11
-66.20862553816778
 21
-57.72371094663188
 31
0.0
  0
TEXT
  5
54
330
2
100
AcDbEntity
  8
MOJI1
100
AcDbText
 10
-23.70862553816778
 20
-61.72371094663188
 30
0.0
 40
3.0
  1
Ｈ．２６４、ＭＰＥＧ－４、ＪＰＥＧ／３レベル
100
AcDbText
  0
TEXT
  5
55
330
2
100
AcDbEntity
  8
MOJI1
100
AcDbText
 10
-23.70862553816778
 20
-56.72371094663188
 30
0.0
 40
3.0
  1
ＢＢ－ＨＣＣ００２、００４、００８
100
AcDbText
  0
DIMENSION
  5
56
330
2
100
AcDbEntity
  8
SUNPO
100
AcDbDimension
  2
*D6
 10
-47.56559055147625
 20
40.86187952648
 30
0.0
 11
-49.31574104386455
 21
22.78520209930112
 31
0.0
 70
    33
  1
180.8
 71
     5
 42
36.15338399388281
  3
STANDARD
100
AcDbAlignedDimension
 13
-39.56589153692869
 23
4.708428932085126
 33
0.0
 14
-39.56559055203081
 24
40.86181292471505
 34
0.0
1001
ACAD
1000
DSTYLE
1002
{
1070
    40
1040
1.0
1070
   140
1040
2.5
1070
   147
1040
0.5
1070
   172
1070
     1
1070
   279
1070
     0
1070
   288
1070
     0
1002
}
  0
DIMENSION
  5
65
330
2
100
AcDbEntity
  8
SUNPO
100
AcDbDimension
  2
*D5
 10
-9.418111378666026
 20
24.70852381552746
 30
0.0
 11
-11.16811137866603
 21
14.70852381552751
 31
0.0
 70
    33
  1
100
 71
     5
 42
19.99999999999988
  3
STANDARD
100
AcDbAlignedDimension
 13
-17.41811137866602
 23
4.70852381552757
 33
0.0
 14
-17.41811137866602
 24
24.70852381552746
 34
0.0
1001
ACAD
1000
DSTYLE
1002
{
1070
    40
1040
1.0
1070
   140
1040
2.5
1070
   147
1040
0.5
1070
   172
1070
     1
1070
   279
1070
     0
1070
   288
1070
     0
1002
}
  0
DIMENSION
  5
72
330
2
100
AcDbEntity
  8
SUNPO
100
AcDbDimension
  2
*D4
 10
-18.4984402375168
 20
-3.3365040854313
 30
0.0
 11
-28.49844023751681
 21
-1.5865040854313
 31
0.0
 70
    33
  1
100
 71
     5
 42
20.0
  3
STANDARD
100
AcDbAlignedDimension
 13
-38.49844023751681
 23
4.663495914568642
 33
0.0
 14
-18.4984402375168
 24
4.663495914568699
 34
0.0
1001
ACAD
1000
DSTYLE
1002
{
1070
    40
1040
1.0
1070
   140
1040
2.5
1070
   147
1040
0.5
1070
   172
1070
     1
1070
   279
1070
     0
1070
   288
1070
     0
1002
}
  0
TEXT
  5
7F
330
2
100
AcDbEntity
  8
TOUROKU
100
AcDbText
 10
40.39132449476025
 20
40.99225456017236
 30
0.0
 40
2.0
  1
ＢＢＨＣＭ７３５
 72
     2
 11
58.79132449476026
 21
40.99225456017236
 31
0.0
100
AcDbText
  0
LINE
  5
81
330
2
100
AcDbEntity
  8
GAIKEI
 62
     7
 48
0.140958
370
    40
100
AcDbLine
 10
19.74537911296863
 20
4.697069815527527
 30
0.0
 11
19.76724644630201
 21
3.444301815527524
 31
0.0
  0
LINE
  5
82
330
2
100
AcDbEntity
  8
GAIKEI
 62
     7
 48
0.213916
370
    40
100
AcDbLine
 10
25.12867155741307
 20
5.388524037749732
 30
0.0
 11
25.09548666852419
 21
3.487337815527553
 31
0.0
  0
LINE
  5
83
330
2
100
AcDbEntity
  8
GAIKEI
 62
     1
 48
0.317136
370
    40
100
AcDbLine
 10
23.81809711296865
 20
-1.284742628916916
 30
0.0
 11
20.99911444630198
 21
-1.284290851139132
 31
0.0
  0
LINE
  5
84
330
2
100
AcDbEntity
  8
GAIKEI
 62
     7
 48
0.235184
370
    40
100
AcDbLine
 10
20.16099044630198
 20
0.6299913710830652
 30
0.0
 11
20.99951266852418
 21
-1.284994184472452
 31
0.0
  0
LINE
  5
85
330
2
100
AcDbEntity
  8
GAIKEI
 62
     7
 48
0.236614
370
    40
100
AcDbLine
 10
24.68838844630198
 20
0.6299913710830652
 30
0.0
 11
23.81809711296865
 21
-1.284742628916916
 31
0.0
  0
LINE
  5
86
330
2
100
AcDbEntity
  8
GAIKEI
 62
     7
 48
0.319694
370
    40
100
AcDbLine
 10
19.76724644630201
 20
3.444301815527524
 30
0.0
 11
20.16099044630198
 21
0.6299913710830652
 31
0.0
  0
LINE
  5
87
330
2
100
AcDbEntity
  8
GAIKEI
 62
     7
 48
0.324698
370
    40
100
AcDbLine
 10
25.09548666852419
 20
3.487337815527553
 30
0.0
 11
24.68838844630198
 21
0.6299913710830652
 31
0.0
  0
LINE
  5
88
330
2
100
AcDbEntity
  8
GAIKEI
 62
     7
 48
0.192458
370
    40
100
AcDbLine
 10
21.0009226685242
 20
-2.995028406694672
 30
0.0
 11
20.99948444630201
 21
-1.284290851139132
 31
0.0
  0
LINE
  5
89
330
2
100
AcDbEntity
  8
GAIKEI
 62
     7
 48
0.193374
370
    40
100
AcDbLine
 10
23.81809711296865
 20
-1.284742628916916
 30
0.0
 11
23.81809711296865
 21
-3.003620628916905
 31
0.0
  0
ARC
  5
8A
330
2
100
AcDbEntity
  8
GAIKEI
 62
     7
370
    40
100
AcDbCircle
 10
21.32467289074646
 20
27.0318833710831
 30
0.0
 40
0.04
100
AcDbArc
 50
180.0000050000005
 51
270.0000010000014
  0
ARC
  5
8B
330
2
100
AcDbEntity
  8
GAIKEI
 62
     7
370
    40
100
AcDbCircle
 10
25.7446733351909
 20
27.0318833710831
 30
0.0
 40
0.04
100
AcDbArc
 50
270.0000010000014
 51
0.0
  0
LINE
  5
8C
330
2
100
AcDbEntity
  8
GAIKEI
 62
     7
 48
0.003375
370
    40
100
AcDbLine
 10
25.78467289074644
 20
27.06188381552752
 30
0.0
 11
25.78467289074644
 21
27.0318833710831
 31
0.0
  0
LINE
  5
8D
330
2
100
AcDbEntity
  8
GAIKEI
 62
     7
 48
0.003375
370
    40
100
AcDbLine
 10
21.28467289074643
 20
27.06188381552752
 30
0.0
 11
21.28467289074643
 21
27.0318833710831
 31
0.0
  0
LINE
  5
8E
330
2
100
AcDbEntity
  8
GAIKEI
 62
     1
 48
0.107489
370
    40
100
AcDbLine
 10
17.88376266852418
 20
36.21053337108307
 30
0.0
 11
16.96453200185749
 21
36.47113825997195
 31
0.0
  0
ARC
  5
8F
330
2
100
AcDbEntity
  8
GAIKEI
 62
     1
370
    40
100
AcDbCircle
 10
17.89466200185751
 20
36.24903137108311
 30
0.0
 40
0.040008
100
AcDbArc
 50
254.1918279999968
 51
359.9799569999997
  0
ARC
  5
90
330
2
100
AcDbEntity
  8
GAIKEI
 62
     1
370
    40
100
AcDbCircle
 10
16.97544200185751
 20
36.50962248219423
 30
0.0
 40
0.04
100
AcDbArc
 50
180.0000050000005
 51
254.1717200000016
  0
SPLINE
  5
91
330
2
100
AcDbEntity
  8
GAIKEI
 62
     7
370
    40
100
AcDbSpline
210
0.0
220
0.0
230
1.0
 70
     8
 71
     3
 72
    39
 73
    35
 74
     0
 42
0.0000000001
 43
0.0000000001
 40
0.0
 40
0.0
 40
0.0
 40
0.0
 40
0.0501643283320705
 40
0.0620597383086854
 40
0.0816982975003408
 40
0.1092434239691845
 40
0.1450612715945407
 40
0.1892420390540754
 40
0.2420236308579525
 40
0.3036948229340568
 40
0.3745054415562342
 40
0.4549458045101887
 40
0.54547067206801
 40
0.6466179294036609
 40
0.7589380874318996
 40
0.8832790418657863
 40
1.020523144386772
 40
1.171691887898357
 40
1.337851094554209
 40
1.520451739471582
 40
1.721074124958901
 40
1.941576832600711
 40
2.183880405910644
 40
2.450285810083829
 40
2.743104667645166
 40
3.064764485913297
 40
3.4176570303419
 40
3.803376656346809
 40
4.221303738511084
 40
4.668418655893608
 40
5.138712762437646
 40
5.623330331328857
 40
6.112722851486767
 40
6.597395822798019
 40
6.597395822798019
 40
6.597395822798019
 40
6.597395822798019
 10
16.44278100743588
 20
36.68142145729238
 30
0.0
 10
16.4395633234198
 20
36.68233451659074
 30
0.0
 10
16.43561767073072
 20
36.68358391045041
 30
0.0
 10
16.43045386282494
 20
36.68531566768201
 30
0.0
 10
16.42671729165624
 20
36.68656100145682
 30
0.0
 10
16.42146840846169
 20
36.68831257530832
 30
0.0
 10
16.4146664210499
 20
36.69057883905367
 30
0.0
 10
16.40626736964066
 20
36.6933742027216
 30
0.0
 10
16.39623135358533
 20
36.69670903209681
 30
0.0
 10
16.38450847611159
 20
36.70059731274617
 30
0.0
 10
16.37103261612503
 20
36.70505757119466
 30
0.0
 10
16.35572701888725
 20
36.71011140497475
 30
0.0
 10
16.33849641446215
 20
36.71578557049219
 30
0.0
 10
16.31924151265315
 20
36.72210742142335
 30
0.0
 10
16.29783787086728
 20
36.72911169335055
 30
0.0
 10
16.2741388715541
 20
36.73683915944972
 30
0.0
 10
16.24796761437369
 20
36.74533895717008
 30
0.0
 10
16.21913287753284
 20
36.75466309848761
 30
0.0
 10
16.18740680584153
 20
36.7648734330146
 30
0.0
 10
16.15252544902
 20
36.77604115482623
 30
0.0
 10
16.11417375953363
 20
36.78825105893833
 30
0.0
 10
16.07200584494205
 20
36.80159408166077
 30
0.0
 10
16.02562888453389
 20
36.81617189133414
 30
0.0
 10
15.97461990789088
 20
36.83209068651189
 30
0.0
 10
15.91852217328346
 20
36.84946155092828
 30
0.0
 10
15.85687146878376
 20
36.86839146311198
 30
0.0
 10
15.7892476320257
 20
36.88896739695412
 30
0.0
 10
15.71542318870274
 20
36.91121106262037
 30
0.0
 10
15.63551543646048
 20
36.93503711560828
 30
0.0
 10
15.55012853740038
 20
36.96021828076886
 30
0.0
 10
15.46039601957011
 20
36.98638032985992
 30
0.0
 10
15.36787431076106
 20
37.01304376719011
 30
0.0
 10
15.27434927746867
 20
37.03968571190114
 30
0.0
 10
15.21184342243339
 20
37.05729061022763
 30
0.0
 10
15.18072942234073
 20
37.06600585921066
 30
0.0
  0
ARC
  5
92
330
2
100
AcDbEntity
  8
GAIKEI
 62
     7
370
    40
100
AcDbCircle
 10
4.092310890746432
 20
-2.732265962250238
 30
0.0
 40
41.31424866666667
100
AcDbArc
 50
74.43133799999715
 51
76.21502099999901
  0
LINE
  5
93
330
2
100
AcDbEntity
  8
GAIKEI
 62
     7
 48
0.000784
370
    40
100
AcDbLine
 10
13.92989689074642
 20
37.39383270441641
 30
0.0
 11
13.93663577963531
 21
37.39204892663864
 31
0.0
  0
LINE
  5
94
330
2
100
AcDbEntity
  8
GAIKEI
 62
     1
 48
0.003614
370
    40
100
AcDbLine
 10
16.93544266852422
 20
36.50962248219423
 30
0.0
 11
16.93544266852422
 21
36.54174981552754
 31
0.0
  0
ARC
  5
95
330
2
100
AcDbEntity
  8
GAIKEI
 62
     7
370
    40
100
AcDbCircle
 10
13.52415800185753
 20
38.13250759330532
 30
0.0
 40
0.6000000000000001
100
AcDbArc
 50
188.0000000000009
 51
254.1717750000034
  0
ARC
  5
96
330
2
100
AcDbEntity
  8
GAIKEI
 62
     7
370
    40
100
AcDbCircle
 10
34.41963533519089
 20
40.76188381552753
 30
0.0
 40
0.1
100
AcDbArc
 50
351.999999999999
 51
90.00000299999769
  0
ARC
  5
97
330
2
100
AcDbEntity
  8
GAIKEI
 62
     7
370
    40
100
AcDbCircle
 10
33.5451875574131
 20
38.13250759330532
 30
0.0
 40
0.6000000000000001
100
AcDbArc
 50
285.8282269999986
 51
351.999999999999
  0
LINE
  5
98
330
2
100
AcDbEntity
  8
GAIKEI
 62
     7
 48
0.306617
370
    40
100
AcDbLine
 10
12.92999711296863
 20
38.04900381552753
 30
0.0
 11
12.55068266852419
 21
40.74796781552751
 31
0.0
  0
LINE
  5
99
330
2
100
AcDbEntity
  8
GAIKEI
 62
     7
 48
0.066581
370
    40
100
AcDbLine
 10
13.92989800185751
 20
37.39383270441641
 30
0.0
 11
13.36050555741309
 21
37.55525692663866
 31
0.0
  0
LINE
  5
9A
330
2
100
AcDbEntity
  8
GAIKEI
 62
     7
 48
0.057609
370
    40
100
AcDbLine
 10
16.93544266852422
 20
36.54174981552754
 30
0.0
 11
16.44278200185755
 21
36.68142114886086
 31
0.0
  0
LINE
  5
9B
330
2
100
AcDbEntity
  8
GAIKEI
 62
     7
 48
0.248057
370
    40
100
AcDbLine
 10
20.05602133519085
 20
35.65705425997197
 30
0.0
 11
17.93467289074641
 21
36.25846425997199
 31
0.0
  0
LINE
  5
9C
330
2
100
AcDbEntity
  8
GAIKEI
 62
     7
370
    40
100
AcDbLine
 10
27.01332422407978
 20
35.65705425997197
 30
0.0
 11
33.7088397796353
 21
37.55525692663866
 31
0.0
  0
ARC
  5
9D
330
2
100
AcDbEntity
  8
GAIKEI
 62
     7
370
    40
100
AcDbCircle
 10
12.64970955741307
 20
40.76188381552753
 30
0.0
 40
0.1
100
AcDbArc
 50
89.99999600000091
 51
188.0000000000009
  0
LINE
  5
9E
330
2
100
AcDbEntity
  8
GAIKEI
 62
     7
 48
0.306617
370
    40
100
AcDbLine
 10
34.13934822407976
 20
38.04900381552753
 30
0.0
 11
34.51866333519081
 21
40.74796781552751
 31
0.0
  0
LINE
  5
9F
330
2
100
AcDbEntity
  8
GAIKEI
 62
     7
 48
0.01679
370
    40
100
AcDbLine
 10
21.28467289074643
 20
27.06188381552752
 30
0.0
 11
21.17914222407978
 21
27.16741425997199
 31
0.0
  0
ARC
  5
A0
330
2
100
AcDbEntity
  8
GAIKEI
 62
     7
370
    40
100
AcDbCircle
 10
19.78326755741307
 20
34.69497092663863
 30
0.0
 40
1.0
100
AcDbArc
 50
2.999999999998716
 51
74.17177699999863
  0
LINE
  5
A1
330
2
100
AcDbEntity
  8
GAIKEI
 62
     7
 48
0.01679
370
    40
100
AcDbLine
 10
25.78467289074644
 20
27.06188381552752
 30
0.0
 11
25.89020422407975
 21
27.16741425997199
 31
0.0
  0
ARC
  5
A2
330
2
100
AcDbEntity
  8
GAIKEI
 62
     7
370
    40
100
AcDbCircle
 10
27.28607822407975
 20
34.69497092663863
 30
0.0
 40
1.0
100
AcDbArc
 50
105.8282220000003
 51
176.9999950000004
  0
LINE
  5
A3
330
2
100
AcDbEntity
  8
GAIKEI
 62
     7
370
    40
100
AcDbLine
 10
21.17914222407978
 20
27.16741425997199
 30
0.0
 11
20.78189644630197
 21
34.74730714886087
 31
0.0
  0
LINE
  5
A4
330
2
100
AcDbEntity
  8
GAIKEI
 62
     7
 48
0.044009
370
    40
100
AcDbLine
 10
26.26697577963529
 20
34.35665003774977
 30
0.0
 11
26.287448446302
 21
34.74730714886087
 31
0.0
  0
LINE
  5
A5
330
2
100
AcDbEntity
  8
GAIKEI
 62
     7
 48
0.06638
370
    40
100
AcDbLine
 10
25.89020422407975
 20
27.16741425997199
 30
0.0
 11
25.92108333519087
 21
27.75665003774975
 31
0.0
  0
ARC
  5
A6
330
2
100
AcDbEntity
  8
GAIKEI
 62
     7
370
    40
100
AcDbCircle
 10
-681.6722119981425
 20
82.36685514886085
 30
0.0
 40
708.9433593333334
100
AcDbArc
 50
355.7197220000002
 51
355.9790499999989
  0
ARC
  5
A7
330
2
100
AcDbEntity
  8
GAIKEI
 62
     7
370
    40
100
AcDbCircle
 10
30.77456533519086
 20
31.2123353710831
 30
0.0
 40
5.936524222222223
100
AcDbArc
 50
210.2547649999998
 51
214.7614190000015
  0
ARC
  5
A8
330
2
100
AcDbEntity
  8
GAIKEI
 62
     7
370
    40
100
AcDbCircle
 10
25.81931933519087
 20
27.76129781552754
 30
0.0
 40
0.1019031111111111
100
AcDbArc
 50
357.3850589999983
 51
34.26997999999835
  0
SPLINE
  5
A9
330
2
100
AcDbEntity
  8
GAIKEI
 62
     7
370
    40
100
AcDbSpline
210
0.0
220
0.0
230
1.0
 70
     8
 71
     3
 72
    32
 73
    28
 74
     0
 42
0.0000000001
 43
0.0000000001
 40
0.0
 40
0.0
 40
0.0
 40
0.0
 40
0.0078517971057752
 40
0.0353236029347219
 40
0.0831589613530621
 40
0.1514144749659424
 40
0.2401733822408962
 40
0.3491138218128395
 40
0.4788285457391263
 40
0.6293492909870211
 40
0.8010879223560337
 40
0.9940973268271664
 40
1.209043318836531
 40
1.446213006192753
 40
1.706405944631029
 40
1.990504137983938
 40
2.299679957432283
 40
2.635477854100968
 40
3.000141863593376
 40
3.396697003028053
 40
3.829692097817348
 40
4.305975352591842
 40
4.836825892417034
 40
5.442670327765247
 40
6.166733101585777
 40
7.132578310862364
 40
8.897912478980904
 40
8.897912478980904
 40
8.897912478980904
 40
8.897912478980904
 10
25.90352935451972
 20
27.81867718147129
 30
0.0
 10
25.90323189993865
 20
27.81910790639591
 30
0.0
 10
25.90189371361396
 20
27.8210456482922
 30
0.0
 10
25.89874406855404
 20
27.82560798402082
 30
0.0
 10
25.8933147662537
 20
27.83348984965753
 30
0.0
 10
25.88558458876344
 20
27.84474812207927
 30
0.0
 10
25.87557971556009
 20
27.85938600168686
 30
0.0
 10
25.8633116140511
 20
27.87743979477165
 30
0.0
 10
25.84880110878305
 20
27.89894780367405
 30
0.0
 10
25.83204994650532
 20
27.92399412210386
 30
0.0
 10
25.81308863817429
 20
27.95263827813668
 30
0.0
 10
25.79193637809328
 20
27.98498227244099
 30
0.0
 10
25.76863182753096
 20
28.02112982663431
 30
0.0
 10
25.74320450967173
 20
28.06123643077763
 30
0.0
 10
25.71569692355922
 20
28.10548065427671
 30
0.0
 10
25.68614907943231
 20
28.15410589321079
 30
0.0
 10
25.65461350347789
 20
28.20741675091961
 30
0.0
 10
25.62114912558764
 20
28.26582051289091
 30
0.0
 10
25.58582445502646
 20
28.32986241933748
 30
0.0
 10
25.54871764240937
 20
28.40030715281466
 30
0.0
 10
25.50993163264605
 20
28.47825492086651
 30
0.0
 10
25.46957048260481
 20
28.56538605478218
 30
0.0
 10
25.42779950617001
 20
28.66449566328629
 30
0.0
 10
25.3846402829837
 20
28.78087912607538
 30
0.0
 10
25.34042207822586
 20
28.92740944573475
 30
0.0
 10
25.29059787276663
 20
29.15333072871641
 30
0.0
 10
25.29255000678393
 20
29.33620128867884
 30
0.0
 10
25.29381179460699
 20
29.45440211082794
 30
0.0
  0
ARC
  5
AA
330
2
100
AcDbEntity
  8
GAIKEI
 62
     7
370
    40
100
AcDbCircle
 10
-681.5125439981425
 20
82.35437337108306
 30
0.0
 40
708.783252
100
AcDbArc
 50
355.7197489999983
 51
355.9791599999989
  0
SPLINE
  5
AB
330
2
100
AcDbEntity
  8
GAIKEI
 62
     7
370
    40
100
AcDbSpline
210
0.0
220
0.0
230
1.0
 70
     8
 71
     3
 72
    35
 73
    31
 74
     0
 42
0.0000000001
 43
0.0000000001
 40
0.0
 40
0.0
 40
0.0
 40
0.0
 40
0.0120006951854528
 40
0.0481769768484041
 40
0.1085516174539717
 40
0.1931614670036643
 40
0.2820741554798101
 40
0.3879771042728835
 40
0.5109430655760303
 40
0.6510686580623286
 40
0.808224752377159
 40
0.9828274407693328
 40
1.174946928531198
 40
1.384965247566951
 40
1.613044371955283
 40
1.859745621896761
 40
2.1253979734555
 40
2.410899563577619
 40
2.717002168936232
 40
3.044892338829969
 40
3.396099100018641
 40
3.772799947224508
 40
4.182543904464648
 40
4.625661031281207
 40
5.10874591854146
 40
5.642178916962887
 40
6.230157626214507
 40
6.917295002484643
 40
7.78459911779296
 40
9.113199892752581
 40
9.113199892752581
 40
9.113199892752581
 40
9.113199892752581
 10
26.24915817737923
 20
34.30471296522865
 30
0.0
 10
26.24870018662205
 20
34.30405697846814
 30
0.0
 10
26.24686157562781
 20
34.30142350944939
 30
0.0
 10
26.24272301115695
 20
34.29548691064855
 30
0.0
 10
26.23582685365557
 20
34.28557195640284
 30
0.0
 10
26.22694393392169
 20
34.27275633256485
 30
0.0
 10
26.21636125763956
 20
34.25742585929646
 30
0.0
 10
26.20436419539436
 20
34.2399646383438
 30
0.0
 10
26.19048736113325
 20
34.21965264410687
 30
0.0
 10
26.17475561951051
 20
34.19646988893124
 30
0.0
 10
26.15718622189377
 20
34.17037415331277
 30
0.0
 10
26.13780332400427
 20
34.14132105758767
 30
0.0
 10
26.11661850338294
 20
34.10923414419273
 30
0.0
 10
26.09366074021784
 20
34.07404642063145
 30
0.0
 10
26.06895116217834
 20
34.03565780909128
 30
0.0
 10
26.04252471428833
 20
33.99396473275732
 30
0.0
 10
26.01440532765059
 20
33.94881409896758
 30
0.0
 10
25.9846289210044
 20
33.90003257458275
 30
0.0
 10
25.95322524907829
 20
33.84738658306321
 30
0.0
 10
25.92023368634694
 20
33.7905919093952
 30
0.0
 10
25.88568965441993
 20
33.72926241930668
 30
0.0
 10
25.84948305288447
 20
33.66261543443932
 30
0.0
 10
25.81164135222719
 20
33.58989635855559
 30
0.0
 10
25.77220139778353
 20
33.51003359456854
 30
0.0
 10
25.73130699690376
 20
33.42172046252128
 30
0.0
 10
25.6893404914855
 20
33.32331199252772
 30
0.0
 10
25.6461547804119
 20
33.21069125936202
 30
0.0
 10
25.60170010663495
 20
33.07493866184271
 30
0.0
 10
25.55243298692915
 20
32.88873414291888
 30
0.0
 10
25.53605585086979
 20
32.74301843677955
 30
0.0
 10
25.52614709946778
 20
32.65485523765443
 30
0.0
  0
ARC
  5
AC
330
2
100
AcDbEntity
  8
GAIKEI
 62
     7
370
    40
100
AcDbCircle
 10
26.16457555741306
 20
34.36274892663863
 30
0.0
 40
0.1025751111111111
100
AcDbArc
 50
325.5443009999991
 51
356.5919370000015
  0
LINE
  5
AD
330
2
100
AcDbEntity
  8
GAIKEI
 62
     7
 48
0.001693
370
    40
100
AcDbLine
 10
26.24055511296865
 20
34.29236781552754
 30
0.0
 11
26.24915800185755
 21
34.30471359330534
 31
0.0
  0
LINE
  5
AE
330
2
100
AcDbEntity
  8
GAIKEI
 62
     1
 48
0.016128
370
    40
100
AcDbLine
 10
25.43467289074641
 20
26.84852314886084
 30
0.0
 11
25.43467289074641
 21
26.99188403774977
 31
0.0
  0
LINE
  5
AF
330
2
100
AcDbEntity
  8
GAIKEI
 62
     1
 48
0.016128
370
    40
100
AcDbLine
 10
21.6346728907464
 20
26.84852314886084
 30
0.0
 11
21.6346728907464
 21
26.99188403774977
 31
0.0
  0
LINE
  5
B0
330
2
100
AcDbEntity
  8
GAIKEI
 62
     1
 48
0.248625
370
    40
100
AcDbLine
 10
21.32467289074646
 20
26.99188403774977
 30
0.0
 11
23.53467289074643
 21
26.99188403774977
 31
0.0
  0
LINE
  5
B1
330
2
100
AcDbEntity
  8
GAIKEI
 62
     1
 48
0.248625
370
    40
100
AcDbLine
 10
23.53467289074643
 20
26.99188403774977
 30
0.0
 11
25.7446733351909
 21
26.99188403774977
 31
0.0
  0
LINE
  5
B2
330
2
100
AcDbEntity
  8
GAIKEI
 62
     7
 48
0.008682
370
    40
100
AcDbLine
 10
34.29231289074642
 20
40.86188381552753
 30
0.0
 11
34.21514155741306
 21
40.86188381552753
 31
0.0
  0
LINE
  5
B3
330
2
100
AcDbEntity
  8
GAIKEI
 62
     1
 48
0.000795
370
    40
100
AcDbLine
 10
17.93467289074641
 20
36.24901759330533
 30
0.0
 11
17.93467289074641
 21
36.25608092663862
 31
0.0
  0
LINE
  5
B4
330
2
100
AcDbEntity
  8
GAIKEI
 62
     1
 48
0.001068
370
    40
100
AcDbLine
 10
17.93467289074641
 20
36.25608092663862
 30
0.0
 11
17.93467289074641
 21
36.26557781552754
 31
0.0
  0
LINE
  5
B5
330
2
100
AcDbEntity
  8
GAIKEI
 62
     7
 48
0.153964
370
    40
100
AcDbLine
 10
34.21514155741306
 20
40.86188381552753
 30
0.0
 11
12.94954622407971
 21
40.86188381552753
 31
0.0
  0
LINE
  5
B6
330
2
100
AcDbEntity
  8
GAIKEI
 62
     7
 48
0.014324
370
    40
100
AcDbLine
 10
34.41963533519089
 20
40.86188381552753
 30
0.0
 11
34.29231289074642
 21
40.86188381552753
 31
0.0
  0
LINE
  5
B7
330
2
100
AcDbEntity
  8
GAIKEI
 62
     1
 48
0.146047
370
    13
100
AcDbLine
 10
12.92999711296863
 20
38.04900381552753
 30
0.0
 11
14.22819466852422
 21
38.04900381552753
 31
0.0
  0
POLYLINE
  5
B8
330
2
100
AcDbEntity
  8
GAIKEI
 62
     7
370
    13
100
AcDb2dPolyline
 66
     1
 10
0.0
 20
0.0
 30
0.0
  0
VERTEX
  5
B9
330
B8
100
AcDbEntity
  8
GAIKEI
 62
     7
370
     0
100
AcDbVertex
100
AcDb2dVertex
 10
16.44278200185755
 20
36.68142114886086
 30
0.0
  0
VERTEX
  5
BA
330
B8
100
AcDbEntity
  8
GAIKEI
 62
     7
370
     0
100
AcDbVertex
100
AcDb2dVertex
 10
15.87186466852415
 20
36.86397737108308
 30
0.0
  0
VERTEX
  5
BB
330
B8
100
AcDbEntity
  8
GAIKEI
 62
     7
370
     0
100
AcDbVertex
100
AcDb2dVertex
 10
15.22338444630202
 20
37.05420248219417
 30
0.0
  0
VERTEX
  5
BC
330
B8
100
AcDbEntity
  8
GAIKEI
 62
     7
370
     0
100
AcDbVertex
100
AcDb2dVertex
 10
15.18073711296864
 20
37.06617603774976
 30
0.0
  0
SEQEND
  5
BD
330
B8
100
AcDbEntity
  8
GAIKEI
 62
     7
370
     0
  0
ARC
  5
BE
330
2
100
AcDbEntity
  8
GAIKEI
 62
     7
370
    13
100
AcDbCircle
 10
4.100292890746402
 20
-2.705111517805818
 30
0.0
 40
41.28609933333334
100
AcDbArc
 50
74.43194499999961
 51
76.22646899999864
  0
ARC
  5
BF
330
2
100
AcDbEntity
  8
GAIKEI
 62
     7
370
    40
100
AcDbCircle
 10
17.69545555741308
 20
35.56015803774978
 30
0.0
 40
0.7450400000000002
100
AcDbArc
 50
71.26754599999895
 51
76.08373800000248
  0
ARC
  5
C0
330
2
100
AcDbEntity
  8
GAIKEI
 62
     7
370
    40
100
AcDbCircle
 10
33.63256866852424
 20
95.40086381552754
 30
0.0
 40
61.18155511111112
100
AcDbArc
 50
254.1819109999999
 51
255.0746989999989
  0
LINE
  5
C1
330
2
100
AcDbEntity
  8
GAIKEI
 62
     1
 48
0.002338
370
    40
100
AcDbLine
 10
16.93544266852422
 20
36.54174981552754
 30
0.0
 11
16.95544222407977
 21
36.53610559330531
 31
0.0
  0
LINE
  5
C2
330
2
100
AcDbEntity
  8
GAIKEI
 62
     1
 48
0.140118
370
    13
100
AcDbLine
 10
13.36050555741309
 20
37.55525692663866
 30
0.0
 11
14.60600111296867
 21
37.55525692663866
 31
0.0
  0
SPLINE
  5
C3
330
2
100
AcDbEntity
  8
GAIKEI
 62
     1
370
    13
100
AcDbSpline
210
0.0
220
0.0
230
1.0
 70
     8
 71
     3
 72
    62
 73
    58
 74
     0
 42
0.0000000001
 43
0.0000000001
 40
0.0
 40
0.0
 40
0.0
 40
0.0
 40
0.3350762592653258
 40
0.6678648340847193
 40
0.9979892612101407
 40
1.325086256408597
 40
1.64879347861241
 40
1.968766887752107
 40
2.284680023432416
 40
2.596220172998444
 40
2.903085275411263
 40
3.204980620132547
 40
3.501615416865002
 40
3.792699306140753
 40
4.077938876628104
 40
4.357034252684085
 40
4.629675815264237
 40
4.895541208813083
 40
5.154298970717647
 40
5.405621361246851
 40
5.649183630421139
 40
5.884660459590383
 40
6.111722987782904
 40
6.330036495744209
 40
6.539259014906923
 40
6.73904124116866
 40
6.929028309762895
 40
7.108864268794645
 40
7.27820053359287
 40
7.436707843436707
 40
7.584101344749398
 40
7.720182395206117
 40
7.844889778382508
 40
7.958393306207267
 40
8.061259635854709
 40
8.154726279890683
 40
8.241115730035385
 40
8.32427614965521
 40
8.40958824479031
 40
8.503364231734982
 40
8.61186740897774
 40
8.740682038156201
 40
8.894630312480908
 40
9.077940096297789
 40
9.29438957752588
 40
9.546775053336689
 40
9.835908107413967
 40
10.15988423260943
 40
10.51328836696766
 40
10.88757266637424
 40
11.27364048101933
 40
11.66295987322213
 40
12.0486839218898
 40
12.42666809078611
 40
12.79411841833192
 40
13.1493846419533
 40
13.49203213553405
 40
13.49203213553405
 40
13.49203213553405
 40
13.49203213553405
 10
27.35443665738376
 20
37.29697685340682
 30
0.0
 10
27.37637861638984
 20
37.30116846624347
 30
0.0
 10
27.42016813068096
 20
37.30922991988936
 30
0.0
 10
27.4857512399891
 20
37.32044087224827
 30
0.0
 10
27.55094055037046
 20
37.33076784472471
 30
0.0
 10
27.61564759866621
 20
37.34024028530166
 30
0.0
 10
27.67978769737306
 20
37.34888377798433
 30
0.0
 10
27.74328010917168
 20
37.35672050517982
 30
0.0
 10
27.80604850068869
 20
37.36377014149065
 30
0.0
 10
27.86802024971939
 20
37.37004990830135
 30
0.0
 10
27.9291255681236
 20
37.3755747164231
 30
0.0
 10
27.9892966780501
 20
37.38035729173953
 30
0.0
 10
28.04846697275207
 20
37.3844083079502
 30
0.0
 10
28.10657017495316
 20
37.3877365179157
 30
0.0
 10
28.16353950102609
 20
37.39034888570822
 30
0.0
 10
28.21930683962057
 20
37.39225072001727
 30
0.0
 10
28.27380195846877
 20
37.393445805396
 30
0.0
 10
28.32695217044
 20
37.39393654921804
 30
0.0
 10
28.37868305690256
 20
37.39372404503223
 30
0.0
 10
28.42891931129827
 20
37.39280808330867
 30
0.0
 10
28.47758506317644
 20
37.39118715897064
 30
0.0
 10
28.52460309004198
 20
37.38885837597849
 30
0.0
 10
28.56989384099563
 20
37.38581736614487
 30
0.0
 10
28.61337449104463
 20
37.38205820701836
 30
0.0
 10
28.65495802892395
 20
37.37757334284999
 30
0.0
 10
28.69455239260901
 20
37.37235350527132
 30
0.0
 10
28.73205967207139
 20
37.36638763145453
 30
0.0
 10
28.76737540595513
 20
37.35966276087265
 30
0.0
 10
28.80038784941178
 20
37.35216394781421
 30
0.0
 10
28.83097752218549
 20
37.34387402375188
 30
0.0
 10
28.85901701773651
 20
37.33477244581349
 30
0.0
 10
28.88437059076853
 20
37.32483430446194
 30
0.0
 10
28.90689295131728
 20
37.31402759959801
 30
0.0
 10
28.9264267825007
 20
37.30230815433271
 30
0.0
 10
28.94279726848788
 20
37.28960948818906
 30
0.0
 10
28.95579462986871
 20
37.27582682839943
 30
0.0
 10
28.96512647675661
 20
37.26080927692533
 30
0.0
 10
28.97033980275785
 20
37.24442789673259
 30
0.0
 10
28.97089614773035
 20
37.22673200028899
 30
0.0
 10
28.96640394531107
 20
37.20789401242811
 30
0.0
 10
28.95659378885068
 20
37.18796108157346
 30
0.0
 10
28.94111193699496
 20
37.16684254601472
 30
0.0
 10
28.91948529004435
 20
37.14443299667173
 30
0.0
 10
28.89117579747324
 20
37.12066214950096
 30
0.0
 10
28.85565660717237
 20
37.09552308352724
 30
0.0
 10
28.81253901812215
 20
37.06911633759438
 30
0.0
 10
28.7617455116694
 20
37.04169400337202
 30
0.0
 10
28.70370236008739
 20
37.01367367194473
 30
0.0
 10
28.63943389519136
 20
36.98561772270955
 30
0.0
 10
28.57044679917476
 20
36.95813027301679
 30
0.0
 10
28.49847546243393
 20
36.93175109520101
 30
0.0
 10
28.42516699133023
 20
36.90687543536057
 30
0.0
 10
28.35186200329053
 20
36.88372521990547
 30
0.0
 10
28.27953160873813
 20
36.86237858424767
 30
0.0
 10
28.20880499637354
 20
36.84281205493576
 30
0.0
 10
28.1400618212025
 20
36.82494536079725
 30
0.0
 10
28.09486463951032
 20
36.81389354058854
 30
0.0
 10
28.07263795914008
 20
36.80862074283988
 30
0.0
  0
SPLINE
  5
C4
330
2
100
AcDbEntity
  8
GAIKEI
 62
     1
370
    13
100
AcDbSpline
210
0.0
220
0.0
230
1.0
 70
     8
 71
     3
 72
    61
 73
    57
 74
     0
 42
0.0000000001
 43
0.0000000001
 40
0.0
 40
0.0
 40
0.0
 40
0.0
 40
0.3786384586961816
 40
0.7424587916196055
 40
1.092384311985278
 40
1.429425076206434
 40
1.754597794464322
 40
2.068849000568511
 40
2.372980322460255
 40
2.667636206956832
 40
2.953420955845662
 40
3.230910936382494
 40
3.500645779802983
 40
3.7631223536228
 40
4.018788478741435
 40
4.268036236637599
 40
4.511194736499768
 40
4.748522231469883
 40
4.980201650865494
 40
5.206380583429942
 40
5.427205373315399
 40
5.642811619426396
 40
5.853313347074229
 40
6.058792706988723
 40
6.25929030232881
 40
6.454796336369833
 40
6.645242887475633
 40
6.83049774528212
 40
7.010354229898304
 40
7.184560255201713
 40
7.352855532203939
 40
7.514941631015646
 40
7.670462430208571
 40
7.819017099429047
 40
7.960235861906514
 40
8.094030281796451
 40
8.220825183453731
 40
8.342125026161427
 40
8.461682244599478
 40
8.586728712434021
 40
8.727891649951949
 40
8.896654420787291
 40
9.10208613000722
 40
9.347824974329068
 40
9.631878294506568
 40
9.948579297749219
 40
10.29029738997406
 40
10.65030329345359
 40
11.02278733113657
 40
11.40307334722481
 40
11.78817417699696
 40
12.17631614951707
 40
12.56588544401306
 40
12.95556693974647
 40
13.34431794712222
 40
13.73130523110335
 40
13.73130523110335
 40
13.73130523110335
 40
13.73130523110335
 10
28.07263795905635
 20
36.80862074282464
 30
0.0
 10
28.04807657544563
 20
36.80279408729513
 30
0.0
 10
27.99982879414836
 20
36.79173596767635
 30
0.0
 10
27.92861059155325
 20
36.77650715440839
 30
0.0
 10
27.85990691395591
 20
36.76281589800311
 30
0.0
 10
27.79355884276185
 20
36.75051946463401
 30
0.0
 10
27.72939965905346
 20
36.73949499818718
 30
0.0
 10
27.66727124636111
 20
36.72963864061367
 30
0.0
 10
27.6070361426174
 20
36.72086412152765
 30
0.0
 10
27.54857645306117
 20
36.7130999505844
 30
0.0
 10
27.4917869314578
 20
36.70628560729563
 30
0.0
 10
27.43656749247975
 20
36.70036931757201
 30
0.0
 10
27.38282375474603
 20
36.69530739206664
 30
0.0
 10
27.3304687802214
 20
36.691063673575
 30
0.0
 10
27.27942464672265
 20
36.68760896973748
 30
0.0
 10
27.22962407941384
 20
36.68492047826155
 30
0.0
 10
27.1810121721569
 20
36.68298121648945
 30
0.0
 10
27.13354794949078
 20
36.68177941851883
 30
0.0
 10
27.08720277653993
 20
36.68130800248156
 30
0.0
 10
27.04195597772969
 20
36.68156391195541
 30
0.0
 10
26.99779080277676
 20
36.68254823194951
 30
0.0
 10
26.95469384274463
 20
36.68426652158576
 30
0.0
 10
26.91265748610351
 20
36.6867291460932
 30
0.0
 10
26.87168249728848
 20
36.68995162951009
 30
0.0
 10
26.83178061393937
 20
36.69395499777881
 30
0.0
 10
26.79297717955853
 20
36.69876612415425
 30
0.0
 10
26.75531382540782
 20
36.70441805890746
 30
0.0
 10
26.71885164665548
 20
36.71095033180512
 30
0.0
 10
26.68367249146377
 20
36.71840941262664
 30
0.0
 10
26.64987851212243
 20
36.72685089799384
 30
0.0
 10
26.61759470072877
 20
36.73634226442036
 30
0.0
 10
26.58697709122975
 20
36.74696514088637
 30
0.0
 10
26.55822669346458
 20
36.75881731597517
 30
0.0
 10
26.53160358523826
 20
36.77201591325937
 30
0.0
 10
26.50743721326978
 20
36.78670633130955
 30
0.0
 10
26.48614763321109
 20
36.80307534612848
 30
0.0
 10
26.46828895991018
 20
36.82137541916666
 30
0.0
 10
26.45463210072262
 20
36.841950624802
 30
0.0
 10
26.446329059135
 20
36.86520240788167
 30
0.0
 10
26.44500757011736
 20
36.89127866671603
 30
0.0
 10
26.45228441661231
 20
36.91975339856631
 30
0.0
 10
26.4691956386373
 20
36.95000538676121
 30
0.0
 10
26.49627476821172
 20
36.9814957536079
 30
0.0
 10
26.53349726186821
 20
37.01358866159115
 30
0.0
 10
26.58011798215955
 20
37.04553876452957
 30
0.0
 10
26.63477509238669
 20
37.07664082534234
 30
0.0
 10
26.69585379731177
 20
37.10637392489161
 30
0.0
 10
26.76177540641686
 20
37.13441699708179
 30
0.0
 10
26.83119443570991
 20
37.16062709399881
 30
0.0
 10
26.90304752618988
 20
37.18498790593981
 30
0.0
 10
26.97657001489432
 20
37.20756582714376
 30
0.0
 10
27.0512290241046
 20
37.22846095975632
 30
0.0
 10
27.1266256381349
 20
37.24777786545619
 30
0.0
 10
27.20242796501054
 20
37.26560901644592
 30
0.0
 10
27.2783698048246
 20
37.28203827090451
 30
0.0
 10
27.32909217216172
 20
37.29213548315656
 30
0.0
 10
27.35443363231718
 20
37.29697657172522
 30
0.0
  0
LINE
  5
C5
330
2
100
AcDbEntity
  8
GAIKEI
 62
     1
370
    13
100
AcDbLine
 10
33.7088397796353
 20
37.55525692663866
 30
0.0
 11
14.60600111296867
 21
37.55525692663866
 31
0.0
  0
LINE
  5
C6
330
2
100
AcDbEntity
  8
GAIKEI
 62
     7
 48
0.149907
370
    40
100
AcDbLine
 10
13.98221889074642
 20
40.86188381552753
 30
0.0
 11
12.64970955741307
 21
40.86188381552753
 31
0.0
  0
LINE
  5
C7
330
2
100
AcDbEntity
  8
GAIKEI
 62
     1
370
    13
100
AcDbLine
 10
34.13934822407976
 20
38.04900381552753
 30
0.0
 11
14.22819466852422
 21
38.04900381552753
 31
0.0
  0
LINE
  5
C8
330
2
100
AcDbEntity
  8
GAIKEI
 62
     1
 48
0.037911
370
    13
100
AcDbLine
 10
20.78189644630197
 20
34.74730714886087
 30
0.0
 11
21.11888466852418
 21
34.74730714886087
 31
0.0
  0
LINE
  5
C9
330
2
100
AcDbEntity
  8
GAIKEI
 62
     1
370
    13
100
AcDbLine
 10
26.287448446302
 20
34.74730714886087
 30
0.0
 11
21.11888466852418
 21
34.74730714886087
 31
0.0
  0
LINE
  5
CA
330
2
100
AcDbEntity
  8
GAIKEI
 62
     1
 48
0.155978
370
    40
100
AcDbLine
 10
20.6346728907464
 20
21.04852403774976
 30
0.0
 11
22.02114289074643
 21
21.04852403774976
 31
0.0
  0
LINE
  5
CB
330
2
100
AcDbEntity
  8
GAIKEI
 62
     1
 48
0.175009
370
    40
100
AcDbLine
 10
20.6346728907464
 20
19.84852403774977
 30
0.0
 11
22.19030933519087
 21
19.84852403774977
 31
0.0
  0
LINE
  5
CC
330
2
100
AcDbEntity
  8
GAIKEI
 62
     1
 48
0.009043
370
    40
100
AcDbLine
 10
20.6346728907464
 20
20.96813914886087
 30
0.0
 11
20.6346728907464
 21
21.04852403774976
 31
0.0
  0
LINE
  5
CD
330
2
100
AcDbEntity
  8
GAIKEI
 62
     1
 48
0.116913
370
    40
100
AcDbLine
 10
20.6346728907464
 20
19.92890848219417
 30
0.0
 11
20.6346728907464
 21
20.96813914886087
 31
0.0
  0
LINE
  5
CE
330
2
100
AcDbEntity
  8
GAIKEI
 62
     1
 48
0.009043
370
    40
100
AcDbLine
 10
20.6346728907464
 20
19.84852403774977
 30
0.0
 11
20.6346728907464
 21
19.92890848219417
 31
0.0
  0
LINE
  5
CF
330
2
100
AcDbEntity
  8
GAIKEI
 62
     1
 48
0.038251
370
    40
100
AcDbLine
 10
19.99466577963528
 20
23.04780603774975
 30
0.0
 11
20.33467289074645
 21
23.04780603774975
 31
0.0
  0
LINE
  5
D0
330
2
100
AcDbEntity
  8
GAIKEI
 62
     1
 48
0.012445
370
    40
100
AcDbLine
 10
20.33467289074645
 20
23.04852403774976
 30
0.0
 11
20.44514044630194
 21
23.04273470441643
 31
0.0
  0
ARC
  5
D1
330
2
100
AcDbEntity
  8
GAIKEI
 62
     1
370
    40
100
AcDbCircle
 10
20.43467289074641
 20
22.8430087044164
 30
0.0
 40
0.2
100
AcDbArc
 50
0.0000100000010064
 51
86.99999899999694
  0
LINE
  5
D2
330
2
100
AcDbEntity
  8
GAIKEI
 62
     1
 48
0.038251
370
    13
100
AcDbLine
 10
19.99466577963528
 20
17.8492587044164
 30
0.0
 11
20.33467289074645
 21
17.8492587044164
 31
0.0
  0
LINE
  5
D3
330
2
100
AcDbEntity
  8
GAIKEI
 62
     1
 48
0.038251
370
    13
100
AcDbLine
 10
19.99466577963528
 20
23.04778914886089
 30
0.0
 11
20.33467289074645
 21
23.04778914886089
 31
0.0
  0
LINE
  5
D4
330
2
100
AcDbEntity
  8
GAIKEI
 62
     1
 48
0.012445
370
    40
100
AcDbLine
 10
20.33467289074645
 20
17.84852381552753
 30
0.0
 11
20.44514044630194
 21
17.85431314886085
 31
0.0
  0
LINE
  5
D5
330
2
100
AcDbEntity
  8
GAIKEI
 62
     1
 48
0.437773
370
    13
100
AcDbLine
 10
20.44514044630194
 20
17.85431314886085
 30
0.0
 11
20.44514044630194
 21
21.74562937108309
 31
0.0
  0
LINE
  5
D6
330
2
100
AcDbEntity
  8
GAIKEI
 62
     1
 48
0.145924
370
    13
100
AcDbLine
 10
20.44514044630194
 20
21.74562937108309
 30
0.0
 11
20.44514044630194
 21
23.04273470441643
 31
0.0
  0
ARC
  5
D7
330
2
100
AcDbEntity
  8
GAIKEI
 62
     1
370
    40
100
AcDbCircle
 10
20.43467289074641
 20
18.05403892663864
 30
0.0
 40
0.2
100
AcDbArc
 50
273.0000109999973
 51
0.0000100000010064
  0
LINE
  5
D8
330
2
100
AcDbEntity
  8
GAIKEI
 62
     1
 48
0.404069
370
    40
100
AcDbLine
 10
20.6346728907464
 20
18.05403892663864
 30
0.0
 11
20.6346728907464
 21
21.64576581552751
 31
0.0
  0
LINE
  5
D9
330
2
100
AcDbEntity
  8
GAIKEI
 62
     1
 48
0.13469
370
    40
100
AcDbLine
 10
20.6346728907464
 20
21.64576581552751
 30
0.0
 11
20.6346728907464
 21
22.8430087044164
 31
0.0
  0
LINE
  5
DA
330
2
100
AcDbEntity
  8
GAIKEI
 62
     7
 48
0.01591
370
    40
100
AcDbLine
 10
21.1346728907464
 20
26.74852403774975
 30
0.0
 11
21.23467289074643
 21
26.84852403774977
 31
0.0
  0
LINE
  5
DB
330
2
100
AcDbEntity
  8
GAIKEI
 62
     7
 48
0.015985
370
    40
100
AcDbLine
 10
25.6346728907464
 20
21.84852403774977
 30
0.0
 11
25.73562489074641
 21
21.94851937108308
 31
0.0
  0
LINE
  5
DC
330
2
100
AcDbEntity
  8
GAIKEI
 62
     7
 48
0.015985
370
    40
100
AcDbLine
 10
21.33372066852422
 20
21.94851937108308
 30
0.0
 11
21.43467289074641
 21
21.84852403774977
 31
0.0
  0
LINE
  5
DD
330
2
100
AcDbEntity
  8
GAIKEI
 62
     7
 48
0.461308
370
    40
100
AcDbLine
 10
25.88787555741311
 20
22.34821870441641
 30
0.0
 11
25.92788866852419
 21
26.44854292663865
 31
0.0
  0
LINE
  5
DE
330
2
100
AcDbEntity
  8
GAIKEI
 62
     7
 48
0.4613090000000001
370
    40
100
AcDbLine
 10
25.88787555741311
 20
22.34821870441641
 30
0.0
 11
25.92788866852419
 21
26.44854692663864
 31
0.0
  0
LINE
  5
DF
330
2
100
AcDbEntity
  8
GAIKEI
 62
     7
 48
0.461308
370
    40
100
AcDbLine
 10
21.18149082247243
 20
22.34615343831479
 30
0.0
 11
21.14145755741311
 21
26.44854292663865
 31
0.0
  0
LINE
  5
E0
330
2
100
AcDbEntity
  8
GAIKEI
 62
     7
 48
0.4613090000000001
370
    40
100
AcDbLine
 10
21.18147066852419
 20
22.34821870441641
 30
0.0
 11
21.14145755741311
 21
26.44854692663864
 31
0.0
  0
LINE
  5
E1
330
2
100
AcDbEntity
  8
GAIKEI
 62
     7
 48
0.01591
370
    40
100
AcDbLine
 10
25.93467289074641
 20
26.74852403774975
 30
0.0
 11
25.83467289074645
 21
26.84852403774977
 31
0.0
  0
LINE
  5
E2
330
2
100
AcDbEntity
  8
GAIKEI
 62
     7
 48
0.03375
370
    40
100
AcDbLine
 10
21.1346728907464
 20
26.44852403774974
 30
0.0
 11
21.1346728907464
 21
26.74852403774975
 31
0.0
  0
LINE
  5
E3
330
2
100
AcDbEntity
  8
GAIKEI
 62
     7
 48
0.033752
370
    40
100
AcDbLine
 10
25.73562489074641
 20
21.94851937108308
 30
0.0
 11
25.73848289074641
 21
22.24852403774975
 31
0.0
  0
LINE
  5
E4
330
2
100
AcDbEntity
  8
GAIKEI
 62
     7
 48
0.033752
370
    40
100
AcDbLine
 10
21.33372066852422
 20
21.94851937108308
 30
0.0
 11
21.33086355741307
 21
22.24852403774975
 31
0.0
  0
LINE
  5
E5
330
2
100
AcDbEntity
  8
GAIKEI
 62
     7
 48
0.03375
370
    40
100
AcDbLine
 10
25.93467289074641
 20
26.44852403774974
 30
0.0
 11
25.93467289074641
 21
26.74852403774975
 31
0.0
  0
LINE
  5
E6
330
2
100
AcDbEntity
  8
GAIKEI
 62
     1
 48
0.034666
370
    40
100
AcDbLine
 10
21.23467289074643
 20
26.84852403774977
 30
0.0
 11
21.54281422407974
 21
26.84852403774977
 31
0.0
  0
LINE
  5
E7
330
2
100
AcDbEntity
  8
GAIKEI
 62
     1
 48
0.448168
370
    40
100
AcDbLine
 10
21.54281422407974
 20
26.84852403774977
 30
0.0
 11
25.52653066852418
 21
26.84852403774977
 31
0.0
  0
LINE
  5
E8
330
2
100
AcDbEntity
  8
GAIKEI
 62
     1
 48
0.031651
370
    40
100
AcDbLine
 10
25.35332666852418
 20
21.84852403774977
 30
0.0
 11
25.6346728907464
 21
21.84852403774977
 31
0.0
  0
LINE
  5
E9
330
2
100
AcDbEntity
  8
GAIKEI
 62
     1
 48
0.409197
370
    40
100
AcDbLine
 10
21.7160188907464
 20
21.84852403774977
 30
0.0
 11
25.35332666852418
 21
21.84852403774977
 31
0.0
  0
LINE
  5
EA
330
2
100
AcDbEntity
  8
GAIKEI
 62
     1
 48
0.031651
370
    40
100
AcDbLine
 10
21.43467289074641
 20
21.84852403774977
 30
0.0
 11
21.7160188907464
 21
21.84852403774977
 31
0.0
  0
LINE
  5
EB
330
2
100
AcDbEntity
  8
GAIKEI
 62
     1
 48
0.034666
370
    40
100
AcDbLine
 10
25.52653066852418
 20
26.84852403774977
 30
0.0
 11
25.83467289074645
 21
26.84852403774977
 31
0.0
  0
SPLINE
  5
EC
330
2
100
AcDbEntity
  8
GAIKEI
 62
     7
370
    40
100
AcDbSpline
210
0.0
220
0.0
230
1.0
 70
     8
 71
     3
 72
    24
 73
    20
 74
     0
 42
0.0000000001
 43
0.0000000001
 40
0.0
 40
0.0
 40
0.0
 40
0.0
 40
0.0126611950077831
 40
0.0246463071799882
 40
0.0358825708538595
 40
0.0463937573706105
 40
0.0562657515325646
 40
0.0656140021668793
 40
0.0745541264169373
 40
0.0831763690409873
 40
0.0915240707398282
 40
0.0995759407946354
 40
0.10723165409747
 40
0.1143100906200407
 40
0.1206651588570036
 40
0.1261910555738616
 40
0.1307722603439837
 40
0.1342990421996091
 40
0.1366959952269611
 40
0.1366959952269611
 40
0.1366959952269611
 40
0.1366959952269611
 10
25.8701023946926
 20
22.32777209445373
 30
0.0
 10
25.87068461913464
 20
22.32838325839771
 30
0.0
 10
25.87182940896514
 20
22.32956200192621
 30
0.0
 10
25.87352321027351
 20
22.33125136039075
 30
0.0
 10
25.87513583783783
 20
22.33281881373466
 30
0.0
 10
25.87666114181991
 20
22.33427381474834
 30
0.0
 10
25.87810153273307
 20
22.33563542007246
 30
0.0
 10
25.87946299363569
 20
22.33692806384909
 30
0.0
 10
25.88075082117871
 20
22.33817719139253
 30
0.0
 10
25.88196628652838
 20
22.33940477058224
 30
0.0
 10
25.88310436808172
 20
22.34062480176479
 30
0.0
 10
25.88415293531125
 20
22.34183881253529
 30
0.0
 10
25.88509365309449
 20
22.34303227464841
 30
0.0
 10
25.88591068811178
 20
22.34417707900783
 30
0.0
 10
25.8865942367778
 20
22.34524102814114
 30
0.0
 10
25.88713659763693
 20
22.34619549962773
 30
0.0
 10
25.88753481530137
 20
22.34701433986214
 30
0.0
 10
25.8877824445467
 20
22.34766881114865
 30
0.0
 10
25.88787349964145
 20
22.34805829139532
 30
0.0
 10
25.88787506478173
 20
22.34821855456985
 30
0.0
  0
LINE
  5
ED
330
2
100
AcDbEntity
  8
GAIKEI
 62
     7
 48
0.012394
370
    40
100
AcDbLine
 10
25.7935655574131
 20
22.24852403774975
 30
0.0
 11
25.87010222407974
 21
22.32777203774976
 31
0.0
  0
LINE
  5
EE
330
2
100
AcDbEntity
  8
GAIKEI
 62
     7
 48
0.012394
370
    40
100
AcDbLine
 10
25.7935655574131
 20
22.24852403774975
 30
0.0
 11
25.87010222407974
 21
22.32777203774976
 31
0.0
  0
LINE
  5
EF
330
2
100
AcDbEntity
  8
GAIKEI
 62
     7
 48
0.012394
370
    40
100
AcDbLine
 10
21.27578000185753
 20
22.24852403774975
 30
0.0
 11
21.18149082247243
 21
22.34615343831479
 31
0.0
  0
LINE
  5
F0
330
2
100
AcDbEntity
  8
GAIKEI
 62
     7
 48
0.000623
370
    40
100
AcDbLine
 10
25.74684777963529
 20
22.24852403774975
 30
0.0
 11
25.75238533519087
 21
22.24852403774975
 31
0.0
  0
LINE
  5
F1
330
2
100
AcDbEntity
  8
GAIKEI
 62
     7
 48
0.002154
370
    40
100
AcDbLine
 10
25.771530446302
 20
22.24852403774975
 30
0.0
 11
25.75238533519087
 21
22.24852403774975
 31
0.0
  0
LINE
  5
F2
330
2
100
AcDbEntity
  8
GAIKEI
 62
     7
 48
0.002479
370
    40
100
AcDbLine
 10
25.771530446302
 20
22.24852403774975
 30
0.0
 11
25.7935655574131
 21
22.24852403774975
 31
0.0
  0
LINE
  5
F3
330
2
100
AcDbEntity
  8
GAIKEI
 62
     7
 48
0.002479
370
    40
100
AcDbLine
 10
21.27578000185753
 20
22.24852403774975
 30
0.0
 11
21.29781600185754
 21
22.24852403774975
 31
0.0
  0
LINE
  5
F4
330
2
100
AcDbEntity
  8
GAIKEI
 62
     7
 48
0.002154
370
    40
100
AcDbLine
 10
21.31696044630201
 20
22.24852403774975
 30
0.0
 11
21.29781600185754
 21
22.24852403774975
 31
0.0
  0
LINE
  5
F5
330
2
100
AcDbEntity
  8
GAIKEI
 62
     7
 48
0.00061
370
    40
100
AcDbLine
 10
21.31696044630201
 20
22.24852403774975
 30
0.0
 11
21.32237955741306
 21
22.24852403774975
 31
0.0
  0
LINE
  5
F6
330
2
100
AcDbEntity
  8
GAIKEI
 62
     7
 48
0.007362
370
    40
100
AcDbLine
 10
21.32237955741306
 20
22.24852403774975
 30
0.0
 11
21.38781755741309
 21
22.24852403774975
 31
0.0
  0
LINE
  5
F7
330
2
100
AcDbEntity
  8
GAIKEI
 62
     7
 48
0.002383
370
    40
100
AcDbLine
 10
21.40899911296867
 20
22.24852403774975
 30
0.0
 11
21.38781755741309
 21
22.24852403774975
 31
0.0
  0
LINE
  5
F8
330
2
100
AcDbEntity
  8
GAIKEI
 62
     7
 48
0.00306
370
    40
100
AcDbLine
 10
21.40899911296867
 20
22.24852403774975
 30
0.0
 11
21.43619866852418
 21
22.24852403774975
 31
0.0
  0
LINE
  5
F9
330
2
100
AcDbEntity
  8
GAIKEI
 62
     7
 48
0.012021
370
    40
100
AcDbLine
 10
21.43619800185752
 20
22.24852403774975
 30
0.0
 11
21.54305000185752
 21
22.24852403774975
 31
0.0
  0
LINE
  5
FA
330
2
100
AcDbEntity
  8
GAIKEI
 62
     7
 48
0.00254
370
    40
100
AcDbLine
 10
21.56562533519087
 20
22.24852403774975
 30
0.0
 11
21.54305000185752
 21
22.24852403774975
 31
0.0
  0
LINE
  5
FB
330
2
100
AcDbEntity
  8
GAIKEI
 62
     7
 48
0.005417
370
    40
100
AcDbLine
 10
21.56562533519087
 20
22.24852403774975
 30
0.0
 11
21.6137788907464
 21
22.24852403774975
 31
0.0
  0
LINE
  5
FC
330
2
100
AcDbEntity
  8
GAIKEI
 62
     1
 48
0.016315
370
    40
100
AcDbLine
 10
21.61377822407974
 20
22.24852403774975
 30
0.0
 11
21.7587968907464
 21
22.24852403774975
 31
0.0
  0
LINE
  5
FD
330
2
100
AcDbEntity
  8
GAIKEI
 62
     1
 48
0.002619
370
    40
100
AcDbLine
 10
21.78208044630196
 20
22.24852403774975
 30
0.0
 11
21.7587968907464
 21
22.24852403774975
 31
0.0
  0
LINE
  5
FE
330
2
100
AcDbEntity
  8
GAIKEI
 62
     1
 48
0.007311
370
    40
100
AcDbLine
 10
21.78208044630196
 20
22.24852403774975
 30
0.0
 11
21.84706600185752
 21
22.24852403774975
 31
0.0
  0
LINE
  5
FF
330
2
100
AcDbEntity
  8
GAIKEI
 62
     1
 48
0.020113
370
    40
100
AcDbLine
 10
21.84972400185751
 20
22.24852403774975
 30
0.0
 11
22.02850377963534
 21
22.24852403774975
 31
0.0
  0
LINE
  5
100
330
2
100
AcDbEntity
  8
GAIKEI
 62
     1
 48
0.002619
370
    40
100
AcDbLine
 10
22.0517855574131
 20
22.24852403774975
 30
0.0
 11
22.02850377963534
 21
22.24852403774975
 31
0.0
  0
LINE
  5
101
330
2
100
AcDbEntity
  8
GAIKEI
 62
     1
 48
0.009342
370
    40
100
AcDbLine
 10
22.0517855574131
 20
22.24852403774975
 30
0.0
 11
22.13482844630198
 21
22.24852403774975
 31
0.0
  0
LINE
  5
102
330
2
100
AcDbEntity
  8
GAIKEI
 62
     1
 48
0.000229
370
    40
100
AcDbLine
 10
22.1368655574131
 20
22.24852403774975
 30
0.0
 11
22.13482844630198
 21
22.24852403774975
 31
0.0
  0
LINE
  5
103
330
2
100
AcDbEntity
  8
GAIKEI
 62
     1
 48
0.0233
370
    40
100
AcDbLine
 10
22.1368655574131
 20
22.24852403774975
 30
0.0
 11
22.3439746685242
 21
22.24852403774975
 31
0.0
  0
LINE
  5
104
330
2
100
AcDbEntity
  8
GAIKEI
 62
     1
 48
0.00254
370
    40
100
AcDbLine
 10
22.36655000185755
 20
22.24852403774975
 30
0.0
 11
22.3439746685242
 21
22.24852403774975
 31
0.0
  0
LINE
  5
105
330
2
100
AcDbEntity
  8
GAIKEI
 62
     1
 48
0.010561
370
    40
100
AcDbLine
 10
22.36655000185755
 20
22.24852403774975
 30
0.0
 11
22.46042955741308
 21
22.24852403774975
 31
0.0
  0
LINE
  5
106
330
2
100
AcDbEntity
  8
GAIKEI
 62
     1
 48
0.00068
370
    40
100
AcDbLine
 10
22.46647822407977
 20
22.24852403774975
 30
0.0
 11
22.46042955741308
 21
22.24852403774975
 31
0.0
  0
LINE
  5
107
330
2
100
AcDbEntity
  8
GAIKEI
 62
     1
 48
0.025779
370
    40
100
AcDbLine
 10
22.46647822407977
 20
22.24852403774975
 30
0.0
 11
22.69562400185748
 21
22.24852403774975
 31
0.0
  0
LINE
  5
108
330
2
100
AcDbEntity
  8
GAIKEI
 62
     1
 48
0.002383
370
    40
100
AcDbLine
 10
22.7168048907464
 20
22.24852403774975
 30
0.0
 11
22.69562400185748
 21
22.24852403774975
 31
0.0
  0
LINE
  5
109
330
2
100
AcDbEntity
  8
GAIKEI
 62
     1
 48
0.01146
370
    40
100
AcDbLine
 10
22.7168048907464
 20
22.24852403774975
 30
0.0
 11
22.81867089074637
 21
22.24852403774975
 31
0.0
  0
LINE
  5
10A
330
2
100
AcDbEntity
  8
GAIKEI
 62
     1
 48
0.001111
370
    40
100
AcDbLine
 10
22.82854800185749
 20
22.24852403774975
 30
0.0
 11
22.81867089074637
 21
22.24852403774975
 31
0.0
  0
LINE
  5
10B
330
2
100
AcDbEntity
  8
GAIKEI
 62
     1
 48
0.027475
370
    40
100
AcDbLine
 10
22.82854800185749
 20
22.24852403774975
 30
0.0
 11
23.07276644630196
 21
22.24852403774975
 31
0.0
  0
LINE
  5
10C
330
2
100
AcDbEntity
  8
GAIKEI
 62
     1
 48
0.002154
370
    40
100
AcDbLine
 10
23.09191155741308
 20
22.24852403774975
 30
0.0
 11
23.07276644630196
 21
22.24852403774975
 31
0.0
  0
LINE
  5
10D
330
2
100
AcDbEntity
  8
GAIKEI
 62
     1
 48
0.01201
370
    40
100
AcDbLine
 10
23.09191155741308
 20
22.24852403774975
 30
0.0
 11
23.19866822407977
 21
22.24852403774975
 31
0.0
  0
LINE
  5
10E
330
2
100
AcDbEntity
  8
GAIKEI
 62
     1
 48
0.001508
370
    40
100
AcDbLine
 10
23.21207311296865
 20
22.24852403774975
 30
0.0
 11
23.19866822407977
 21
22.24852403774975
 31
0.0
  0
LINE
  5
10F
330
2
100
AcDbEntity
  8
GAIKEI
 62
     1
 48
0.028336
370
    40
100
AcDbLine
 10
23.21207311296865
 20
22.24852403774975
 30
0.0
 11
23.46394533519088
 21
22.24852403774975
 31
0.0
  0
LINE
  5
110
330
2
100
AcDbEntity
  8
GAIKEI
 62
     1
 48
0.001859
370
    40
100
AcDbLine
 10
23.48047044630198
 20
22.24852403774975
 30
0.0
 11
23.46394533519088
 21
22.24852403774975
 31
0.0
  0
LINE
  5
111
330
2
100
AcDbEntity
  8
GAIKEI
 62
     1
 48
0.012196
370
    40
100
AcDbLine
 10
23.48047044630198
 20
22.24852403774975
 30
0.0
 11
23.58887511296865
 21
22.24852403774975
 31
0.0
  0
LINE
  5
112
330
2
100
AcDbEntity
  8
GAIKEI
 62
     1
 48
0.001859
370
    40
100
AcDbLine
 10
23.60540044630198
 20
22.24852403774975
 30
0.0
 11
23.58887511296865
 21
22.24852403774975
 31
0.0
  0
LINE
  5
113
330
2
100
AcDbEntity
  8
GAIKEI
 62
     1
 48
0.028336
370
    40
100
AcDbLine
 10
23.60540044630198
 20
22.24852403774975
 30
0.0
 11
23.85727266852416
 21
22.24852403774975
 31
0.0
  0
LINE
  5
114
330
2
100
AcDbEntity
  8
GAIKEI
 62
     1
 48
0.001508
370
    40
100
AcDbLine
 10
23.8706775574131
 20
22.24852403774975
 30
0.0
 11
23.85727266852416
 21
22.24852403774975
 31
0.0
  0
LINE
  5
115
330
2
100
AcDbEntity
  8
GAIKEI
 62
     1
 48
0.01201
370
    40
100
AcDbLine
 10
23.8706775574131
 20
22.24852403774975
 30
0.0
 11
23.97743400185749
 21
22.24852403774975
 31
0.0
  0
LINE
  5
116
330
2
100
AcDbEntity
  8
GAIKEI
 62
     1
 48
0.002154
370
    40
100
AcDbLine
 10
23.99657933519086
 20
22.24852403774975
 30
0.0
 11
23.97743400185749
 21
22.24852403774975
 31
0.0
  0
LINE
  5
117
330
2
100
AcDbEntity
  8
GAIKEI
 62
     1
 48
0.027475
370
    40
100
AcDbLine
 10
23.99657933519086
 20
22.24852403774975
 30
0.0
 11
24.24079777963533
 21
22.24852403774975
 31
0.0
  0
LINE
  5
118
330
2
100
AcDbEntity
  8
GAIKEI
 62
     1
 48
0.001111
370
    40
100
AcDbLine
 10
24.2506746685242
 20
22.24852403774975
 30
0.0
 11
24.24079777963533
 21
22.24852403774975
 31
0.0
  0
LINE
  5
119
330
2
100
AcDbEntity
  8
GAIKEI
 62
     1
 48
0.01146
370
    40
100
AcDbLine
 10
24.2506746685242
 20
22.24852403774975
 30
0.0
 11
24.35254089074641
 21
22.24852403774975
 31
0.0
  0
LINE
  5
11A
330
2
100
AcDbEntity
  8
GAIKEI
 62
     1
 48
0.002383
370
    40
100
AcDbLine
 10
24.37372155741309
 20
22.24852403774975
 30
0.0
 11
24.35254089074641
 21
22.24852403774975
 31
0.0
  0
LINE
  5
11B
330
2
100
AcDbEntity
  8
GAIKEI
 62
     1
 48
0.025779
370
    40
100
AcDbLine
 10
24.37372155741309
 20
22.24852403774975
 30
0.0
 11
24.60286733519087
 21
22.24852403774975
 31
0.0
  0
LINE
  5
11C
330
2
100
AcDbEntity
  8
GAIKEI
 62
     1
 48
0.00068
370
    40
100
AcDbLine
 10
24.60891600185755
 20
22.24852403774975
 30
0.0
 11
24.60286733519087
 21
22.24852403774975
 31
0.0
  0
LINE
  5
11D
330
2
100
AcDbEntity
  8
GAIKEI
 62
     1
 48
0.010561
370
    40
100
AcDbLine
 10
24.60891600185755
 20
22.24852403774975
 30
0.0
 11
24.70279577963527
 21
22.24852403774975
 31
0.0
  0
LINE
  5
11E
330
2
100
AcDbEntity
  8
GAIKEI
 62
     1
 48
0.00254
370
    40
100
AcDbLine
 10
24.72537111296868
 20
22.24852403774975
 30
0.0
 11
24.70279577963527
 21
22.24852403774975
 31
0.0
  0
LINE
  5
11F
330
2
100
AcDbEntity
  8
GAIKEI
 62
     1
 48
0.0233
370
    40
100
AcDbLine
 10
24.72537111296868
 20
22.24852403774975
 30
0.0
 11
24.93248022407977
 21
22.24852403774975
 31
0.0
  0
LINE
  5
120
330
2
100
AcDbEntity
  8
GAIKEI
 62
     1
 48
0.000229
370
    40
100
AcDbLine
 10
24.93451711296865
 20
22.24852403774975
 30
0.0
 11
24.93248022407977
 21
22.24852403774975
 31
0.0
  0
LINE
  5
121
330
2
100
AcDbEntity
  8
GAIKEI
 62
     1
 48
0.009342
370
    40
100
AcDbLine
 10
24.93451711296865
 20
22.24852403774975
 30
0.0
 11
25.01756000185753
 21
22.24852403774975
 31
0.0
  0
LINE
  5
122
330
2
100
AcDbEntity
  8
GAIKEI
 62
     1
 48
0.002619
370
    40
100
AcDbLine
 10
25.04084200185753
 20
22.24852403774975
 30
0.0
 11
25.01756000185753
 21
22.24852403774975
 31
0.0
  0
LINE
  5
123
330
2
100
AcDbEntity
  8
GAIKEI
 62
     1
 48
0.020113
370
    40
100
AcDbLine
 10
25.04084200185753
 20
22.24852403774975
 30
0.0
 11
25.21962155741306
 21
22.24852403774975
 31
0.0
  0
LINE
  5
124
330
2
100
AcDbEntity
  8
GAIKEI
 62
     1
 48
0.007627
370
    40
100
AcDbLine
 10
25.21946889074644
 20
22.24852403774975
 30
0.0
 11
25.28726533519086
 21
22.24852403774975
 31
0.0
  0
LINE
  5
125
330
2
100
AcDbEntity
  8
GAIKEI
 62
     1
 48
0.002619
370
    40
100
AcDbLine
 10
25.31054866852418
 20
22.24852403774975
 30
0.0
 11
25.28726533519086
 21
22.24852403774975
 31
0.0
  0
LINE
  5
126
330
2
100
AcDbEntity
  8
GAIKEI
 62
     1
 48
0.016315
370
    40
100
AcDbLine
 10
25.31054866852418
 20
22.24852403774975
 30
0.0
 11
25.45556822407974
 21
22.24852403774975
 31
0.0
  0
LINE
  5
127
330
2
100
AcDbEntity
  8
GAIKEI
 62
     1
 48
0.005427
370
    40
100
AcDbLine
 10
25.45547666852417
 20
22.24852403774975
 30
0.0
 11
25.503720446302
 21
22.24852403774975
 31
0.0
  0
LINE
  5
128
330
2
100
AcDbEntity
  8
GAIKEI
 62
     1
 48
0.00254
370
    40
100
AcDbLine
 10
25.52629577963529
 20
22.24852403774975
 30
0.0
 11
25.503720446302
 21
22.24852403774975
 31
0.0
  0
LINE
  5
129
330
2
100
AcDbEntity
  8
GAIKEI
 62
     1
 48
0.012021
370
    40
100
AcDbLine
 10
25.52629577963529
 20
22.24852403774975
 30
0.0
 11
25.63314689074639
 21
22.24852403774975
 31
0.0
  0
LINE
  5
12A
330
2
100
AcDbEntity
  8
GAIKEI
 62
     7
 48
0.003065
370
    40
100
AcDbLine
 10
25.63310422407977
 20
22.24852403774975
 30
0.0
 11
25.66034577963535
 21
22.24852403774975
 31
0.0
  0
LINE
  5
12B
330
2
100
AcDbEntity
  8
GAIKEI
 62
     7
 48
0.007362
370
    40
100
AcDbLine
 10
25.68152800185754
 20
22.24852403774975
 30
0.0
 11
25.74696689074642
 21
22.24852403774975
 31
0.0
  0
LINE
  5
12C
330
2
100
AcDbEntity
  8
GAIKEI
 62
     7
 48
0.002383
370
    40
100
AcDbLine
 10
25.68152800185754
 20
22.24852403774975
 30
0.0
 11
25.66034577963535
 21
22.24852403774975
 31
0.0
  0
LINE
  5
12D
330
2
100
AcDbEntity
  8
GAIKEI
 62
     7
 48
0.326301
370
    40
100
AcDbLine
 10
25.07707089074643
 20
18.94850870441644
 30
0.0
 11
25.12769044630199
 21
21.84852314886086
 31
0.0
  0
LINE
  5
12E
330
2
100
AcDbEntity
  8
GAIKEI
 62
     7
 48
0.072206
370
    40
100
AcDbLine
 10
21.95285666852419
 20
21.20678737108312
 30
0.0
 11
21.94165533519083
 21
21.84852314886086
 31
0.0
  0
SPLINE
  5
12F
330
2
100
AcDbEntity
  8
GAIKEI
 62
     7
370
    40
100
AcDbSpline
210
0.0
220
0.0
230
1.0
 70
     8
 71
     3
 72
    69
 73
    65
 74
     0
 42
0.0000000001
 43
0.0000000001
 40
0.0
 40
0.0
 40
0.0
 40
0.0
 40
0.0069846011058997
 40
0.0140493111371962
 40
0.0235552717396314
 40
0.0359519372436349
 40
0.0508834079871376
 40
0.0683675884948091
 40
0.0884379133430071
 40
0.1112705777724903
 40
0.1364958962651298
 40
0.1641312836710064
 40
0.194183420654555
 40
0.2266862038883754
 40
0.2614944826354337
 40
0.2985971666668011
 40
0.3379549196372189
 40
0.3795164601194763
 40
0.4232626034370457
 40
0.4691494743070858
 40
0.517135686839016
 40
0.5671791526756766
 40
0.6191824138182984
 40
0.6730442338769837
 40
0.7287029638268561
 40
0.786047422520733
 40
0.8450177599091531
 40
0.9055097012926689
 40
0.9674504459385847
 40
1.030742273205899
 40
1.095380298963838
 40
1.161308106573135
 40
1.228504880614057
 40
1.296951306633867
 40
1.366628712916199
 40
1.437514815798746
 40
1.509603351032995
 40
1.582861543675824
 40
1.657247660006873
 40
1.732734062152962
 40
1.809306692318411
 40
1.886922204446544
 40
1.965533204509192
 40
2.04510319974211
 40
2.125592281223352
 40
2.206958497535665
 40
2.289157873322209
 40
2.372144661222467
 40
2.455879563787485
 40
2.540305508747584
 40
2.625367658379076
 40
2.711012995876868
 40
2.797195827139646
 40
2.883850615216892
 40
2.970929881379445
 40
3.058361928502652
 40
3.146097877578936
 40
3.234060037475837
 40
3.322200587487322
 40
3.410448250535315
 40
3.498733937627874
 40
3.586983726334906
 40
3.675119793889736
 40
3.763058347081828
 40
3.763058347081828
 40
3.763058347081828
 40
3.763058347081828
 10
21.96484704759269
 20
21.16099345425582
 30
0.0
 10
21.96507102964369
 20
21.16058521973122
 30
0.0
 10
21.96552156267694
 20
21.15976406849211
 30
0.0
 10
21.96626333219854
 20
21.15837993469887
 30
0.0
 10
21.96717421135281
 20
21.15667710023678
 30
0.0
 10
21.96832653414799
 20
21.15450864911537
 30
0.0
 10
21.9697229897979
 20
21.1518676263023
 30
0.0
 10
21.97135167676663
 20
21.14877071520206
 30
0.0
 10
21.97321774220893
 20
21.14520350601003
 30
0.0
 10
21.97531402154743
 20
21.14117431404139
 30
0.0
 10
21.97763293763125
 20
21.13669245556238
 30
0.0
 10
21.98016179681679
 20
21.1317773325369
 30
0.0
 10
21.98290020931199
 20
21.12642442961598
 30
0.0
 10
21.98584280594184
 20
21.12063886765995
 30
0.0
 10
21.98898358878148
 20
21.11442678800256
 30
0.0
 10
21.99231457363169
 20
21.10779880913157
 30
0.0
 10
21.99582981925573
 20
21.10075958372519
 30
0.0
 10
21.99952199859211
 20
21.09331369799736
 30
0.0
 10
22.00338382582629
 20
21.08546612723882
 30
0.0
 10
22.00740818393024
 20
21.07722122484921
 30
0.0
 10
22.01158719489524
 20
21.06858470611033
 30
0.0
 10
22.0159115855173
 20
21.05956561405765
 30
0.0
 10
22.02036935054002
 20
21.05017614466567
 30
0.0
 10
22.02494662123547
 20
21.04042911267663
 30
0.0
 10
22.02962938450207
 20
21.03033835188489
 30
0.0
 10
22.03440452618474
 20
21.01991515101781
 30
0.0
 10
22.03925778015332
 20
21.00917348559267
 30
0.0
 10
22.04417569303166
 20
20.99812498672731
 30
0.0
 10
22.04914379941704
 20
20.98678370477862
 30
0.0
 10
22.05415007002045
 20
20.97515763697322
 30
0.0
 10
22.05918252234017
 20
20.96325374050576
 30
0.0
 10
22.06423194682543
 20
20.95107471639244
 30
0.0
 10
22.06928983766795
 20
20.93862471430441
 30
0.0
 10
22.07434830461147
 20
20.92590552207699
 30
0.0
 10
22.07939935561114
 20
20.91291910807578
 30
0.0
 10
22.08443515112424
 20
20.89966668545509
 30
0.0
 10
22.08944734451586
 20
20.88615040671323
 30
0.0
 10
22.09442700353031
 20
20.87237372312114
 30
0.0
 10
22.09936458068023
 20
20.85834151862673
 30
0.0
 10
22.10425086122018
 20
20.8440576183358
 30
0.0
 10
22.10907642544601
 20
20.82952604488548
 30
0.0
 10
22.11383131591162
 20
20.81475219320339
 30
0.0
 10
22.11850500579339
 20
20.79974301763207
 30
0.0
 10
22.12308698122422
 20
20.7845054168146
 30
0.0
 10
22.12756672858916
 20
20.76904609968324
 30
0.0
 10
22.13193349573192
 20
20.75337242488808
 30
0.0
 10
22.13617633254955
 20
20.73749231025272
 30
0.0
 10
22.14028424418018
 20
20.72141370038861
 30
0.0
 10
22.14424591954588
 20
20.70514559457325
 30
0.0
 10
22.14804984076193
 20
20.68869781346984
 30
0.0
 10
22.1516842458085
 20
20.67208132169645
 30
0.0
 10
22.15513751579488
 20
20.65530661494785
 30
0.0
 10
22.15839783727313
 20
20.63838516880014
 30
0.0
 10
22.16145344933784
 20
20.62132840254526
 30
0.0
 10
22.16429227735989
 20
20.60414976726372
 30
0.0
 10
22.16690246828546
 20
20.5868619729199
 30
0.0
 10
22.16927192417847
 20
20.56948009401691
 30
0.0
 10
22.17138880990535
 20
20.55201803054501
 30
0.0
 10
22.17324139120501
 20
20.5344915881569
 30
0.0
 10
22.17481737948913
 20
20.51691644483137
 30
0.0
 10
22.17610727656495
 20
20.49931052230818
 30
0.0
 10
22.17709149943261
 20
20.48169257390981
 30
0.0
 10
22.17778922734141
 20
20.46408329988929
 30
0.0
 10
22.17798122168028
 20
20.45234622886088
 30
0.0
 10
22.17807711116348
 20
20.4464842764649
 30
0.0
  0
SPLINE
  5
130
330
2
100
AcDbEntity
  8
GAIKEI
 62
     7
370
    40
100
AcDbSpline
210
0.0
220
0.0
230
1.0
 70
     8
 71
     3
 72
    20
 73
    16
 74
     0
 42
0.0000000001
 43
0.0000000001
 40
0.0
 40
0.0
 40
0.0
 40
0.0
 40
0.0256643848786593
 40
0.0488144877380214
 40
0.0690437920143402
 40
0.086557943233624
 40
0.1014716992391394
 40
0.1137283717750003
 40
0.1235288488020387
 40
0.1305916328074492
 40
0.1364834421732712
 40
0.1677429354395046
 40
0.2369591880832832
 40
0.3074831481654586
 40
0.3747087419778293
 40
0.3747087419778293
 40
0.3747087419778293
 40
0.3747087419778293
 10
21.97751136560782
 20
21.1369434319611
 30
0.0
 10
21.97672542530938
 20
21.13846319559721
 30
0.0
 10
21.97522716384185
 20
21.14135208680585
 30
0.0
 10
21.97309822539216
 20
21.14543308306366
 30
0.0
 10
21.97121230210803
 20
21.14902800082461
 30
0.0
 10
21.96957458450595
 20
21.15213305744126
 30
0.0
 10
21.9681792472785
 20
21.15476503741749
 30
0.0
 10
21.96702054183356
 20
21.15694042071021
 30
0.0
 10
21.96610447343267
 20
21.15865202058182
 30
0.0
 10
21.96538723104197
 20
21.15998876209761
 30
0.0
 10
21.96398653365406
 20
21.16258228054551
 30
0.0
 10
21.96080812415852
 20
21.16892530092662
 30
0.0
 10
21.95675678551333
 20
21.17962371903451
 30
0.0
 10
21.95368972497226
 20
21.19312442475618
 30
0.0
 10
21.95291197612818
 20
21.20229770069267
 30
0.0
 10
21.95283390378222
 20
21.20678562911152
 30
0.0
  0
LINE
  5
131
330
2
100
AcDbEntity
  8
GAIKEI
 62
     7
 48
0.016048
370
    40
100
AcDbLine
 10
24.97532533519086
 20
18.84852403774977
 30
0.0
 11
25.07707089074643
 21
18.94850870441644
 31
0.0
  0
LINE
  5
132
330
2
100
AcDbEntity
  8
GAIKEI
 62
     7
 48
0.16901
370
    40
100
AcDbLine
 10
22.20880622407975
 20
18.94448959330532
 30
0.0
 11
22.17807644630199
 21
20.44648425997198
 31
0.0
  0
ARC
  5
133
330
2
100
AcDbEntity
  8
GAIKEI
 62
     7
370
    40
100
AcDbCircle
 10
29.15097066852417
 20
27.18123492663864
 30
0.0
 40
10.77264333333333
100
AcDbArc
 50
229.8747979999975
 51
230.6698050000002
  0
LINE
  5
134
330
2
100
AcDbEntity
  8
GAIKEI
 62
     7
 48
0.275233
370
    40
100
AcDbLine
 10
22.32339616293268
 20
18.84852403774977
 30
0.0
 11
24.7823153351909
 21
18.84852403774977
 31
0.0
  0
LINE
  5
135
330
2
100
AcDbEntity
  8
GAIKEI
 62
     7
 48
0.021714
370
    40
100
AcDbLine
 10
24.7823153351909
 20
18.84852403774977
 30
0.0
 11
24.97532689074643
 21
18.84852403774977
 31
0.0
  0
SPLINE
  5
136
330
2
100
AcDbEntity
  8
GAIKEI
 62
     7
370
    40
100
AcDbSpline
210
0.0
220
0.0
230
1.0
 70
     8
 71
     3
 72
    68
 73
    64
 74
     0
 42
0.0000000001
 43
0.0000000001
 40
0.0
 40
0.0
 40
0.0
 40
0.0
 40
0.0512649808466077
 40
0.1023883903436529
 40
0.1532895019483679
 40
0.2041018862304819
 40
0.2547444940268149
 40
0.3053511510052215
 40
0.3558229201139164
 40
0.4063120709600768
 40
0.4567265539841624
 40
0.5072130433107535
 40
0.5576873269445009
 40
0.6082130423397672
 40
0.6588171334553339
 40
0.7095275869755548
 40
0.7603703974535274
 40
0.8113719442555343
 40
0.8625202068080561
 40
0.9138706650661148
 40
0.9654406392204101
 40
1.017248584632555
 40
1.069311349930557
 40
1.12164474976774
 40
1.174262942828132
 40
1.227179602421315
 40
1.318188635143382
 40
1.410140986509651
 40
1.503059396515858
 40
1.59694506073447
 40
1.661900748303871
 40
1.717711979363667
 40
1.77384877647544
 40
1.830304507234913
 40
1.887070616735426
 40
1.944136229126098
 40
2.001488448789673
 40
2.05911172776817
 40
2.11698780288069
 40
2.175079585180979
 40
2.233385575114864
 40
2.291885227988497
 40
2.350555943348223
 40
2.409373524478282
 40
2.468312454517342
 40
2.527345532520028
 40
2.586442862010991
 40
2.645564552829064
 40
2.70468793148699
 40
2.763780236913288
 40
2.822805987775154
 40
2.881728441953169
 40
2.940509680872498
 40
2.999110423133124
 40
3.057489433352925
 40
3.115601483518665
 40
3.173407211784658
 40
3.23086330799483
 40
3.287924672654906
 40
3.344545143415767
 40
3.400677631466302
 40
3.456274088278935
 40
3.511285482551441
 40
3.511285482551441
 40
3.511285482551441
 40
3.511285482551441
 10
19.99467282189459
 20
5.048249269417681
 30
0.0
 10
19.99467225550381
 20
5.04483133354654
 30
0.0
 10
19.99456668786467
 20
5.038005392136938
 30
0.0
 10
19.99409649460188
 20
5.027795247020293
 30
0.0
 10
19.99331826220498
 20
5.017634338560441
 30
0.0
 10
19.99223619005795
 20
5.007533506788604
 30
0.0
 10
19.99085301855723
 20
4.997489332061888
 30
0.0
 10
19.98917326479739
 20
4.987513519903558
 30
0.0
 10
19.98719901286824
 20
4.97760224619688
 30
0.0
 10
19.98493490649605
 20
4.967766303103729
 30
0.0
 10
19.98238189618553
 20
4.958000370124324
 30
0.0
 10
19.97954443419132
 20
4.948314305578747
 30
0.0
 10
19.97642413530741
 20
4.938707844378598
 30
0.0
 10
19.97302503361459
 20
4.9291881513127
 30
0.0
 10
19.96934852124991
 20
4.919755235000167
 30
0.0
 10
19.96539654929359
 20
4.910411428256395
 30
0.0
 10
19.96117084313278
 20
4.901159064670196
 30
0.0
 10
19.95667406479509
 20
4.89200285794223
 30
0.0
 10
19.95190802441038
 20
4.882945636764816
 30
0.0
 10
19.94687466090238
 20
4.873990722925725
 30
0.0
 10
19.94157468299727
 20
4.865139696703636
 30
0.0
 10
19.93600994577036
 20
4.85639636288144
 30
0.0
 10
19.93018230103655
 20
4.847764556903058
 30
0.0
 10
19.92409373458406
 20
4.839248314278478
 30
0.0
 10
19.91774627918141
 20
4.830851723066132
 30
0.0
 10
19.90957070803864
 20
4.82061055603512
 30
0.0
 10
19.89932622762211
 20
4.808672900896596
 30
0.0
 10
19.88674173953689
 20
4.79525248983603
 30
0.0
 10
19.87344984111507
 20
4.782256579229056
 30
0.0
 10
19.86095463444621
 20
4.77104278777233
 30
0.0
 10
19.84997138538631
 20
4.761866635772236
 30
0.0
 10
19.84072316261461
 20
4.754546379166214
 30
0.0
 10
19.83175368475474
 20
4.747792387563833
 30
0.0
 10
19.82257355612933
 20
4.741217708811035
 30
0.0
 10
19.81318915186318
 20
4.734827403329319
 30
0.0
 10
19.80360731162091
 20
4.728626457590735
 30
0.0
 10
19.79383538294951
 20
4.722619782826598
 30
0.0
 10
19.78388124504181
 20
4.716812205213187
 30
0.0
 10
19.77375430165568
 20
4.711208963358018
 30
0.0
 10
19.76346330755552
 20
4.705814339374654
 30
0.0
 10
19.75301724514304
 20
4.70063228030807
 30
0.0
 10
19.74242428544028
 20
4.695665954673359
 30
0.0
 10
19.73169402071806
 20
4.690918804428434
 30
0.0
 10
19.72083641265374
 20
4.686393975321834
 30
0.0
 10
19.7098617624585
 20
4.682094288477031
 30
0.0
 10
19.69878077175792
 20
4.678022247968868
 30
0.0
 10
19.687605083927
 20
4.674180202690649
 30
0.0
 10
19.67634609825632
 20
4.670569873275383
 30
0.0
 10
19.66501540637887
 20
4.667192544770642
 30
0.0
 10
19.65362430782534
 20
4.664048947436356
 30
0.0
 10
19.64218498442318
 20
4.66113957928573
 30
0.0
 10
19.6307099222937
 20
4.658464515113763
 30
0.0
 10
19.61921182303331
 20
4.656023321197864
 30
0.0
 10
19.60770362921488
 20
4.653815068880419
 30
0.0
 10
19.59619869414666
 20
4.651838355838037
 30
0.0
 10
19.58471029295674
 20
4.650091204372216
 30
0.0
 10
19.57325173366291
 20
4.648571098969114
 30
0.0
 10
19.56183619386286
 20
4.647274977317067
 30
0.0
 10
19.55047716621482
 20
4.646199276022485
 30
0.0
 10
19.53918823847812
 20
4.645339886601078
 30
0.0
 10
19.52798304370731
 20
4.644692138830663
 30
0.0
 10
19.51687516045479
 20
4.644250788064539
 30
0.0
 10
19.50950275839403
 20
4.644089364706076
 30
0.0
 10
19.50583554665161
 20
4.64404154103758
 30
0.0
  0
LINE
  5
137
330
2
100
AcDbEntity
  8
GAIKEI
 62
     7
370
    40
100
AcDbLine
 10
7.749854668524164
 20
4.491525593305311
 30
0.0
 11
19.50583533519091
 21
4.644041593305303
 31
0.0
  0
SPLINE
  5
138
330
2
100
AcDbEntity
  8
GAIKEI
 62
     7
370
    40
100
AcDbSpline
210
0.0
220
0.0
230
1.0
 70
     8
 71
     3
 72
    69
 73
    65
 74
     0
 42
0.0000000001
 43
0.0000000001
 40
0.0
 40
0.0
 40
0.0
 40
0.0
 40
0.079712105096419
 40
0.1594637061739236
 40
0.2393329723368289
 40
0.3193007730604651
 40
0.3994343653710945
 40
0.4797264864469061
 40
0.5602433870085699
 40
0.6409800494228542
 40
0.7220054586154409
 40
0.8033129901703617
 40
0.8849712008182255
 40
0.9669739134533788
 40
1.049329145842857
 40
1.1320806755039
 40
1.215252859392864
 40
1.298869115829978
 40
1.382906931495502
 40
1.467431989911416
 40
1.552393840509465
 40
1.637879926995437
 40
1.72380015368013
 40
1.81027310889251
 40
1.89720806153987
 40
1.984636276998808
 40
2.110573926487814
 40
2.237514003231421
 40
2.352337819348004
 40
2.467958079278092
 40
2.584370282699366
 40
2.701555486636113
 40
2.793288750741275
 40
2.885464183490948
 40
2.978069997692612
 40
3.071092429150838
 40
3.164514909487905
 40
3.258320437115802
 40
3.352488668881002
 40
3.446994569319208
 40
3.54180405367313
 40
3.636898072244493
 40
3.732249363049263
 40
3.827825460590291
 40
3.923590055253732
 40
4.019505034040785
 40
4.115528571171967
 40
4.211613680750386
 40
4.307711249170092
 40
4.403773519059016
 40
4.499750844698081
 40
4.595588322221731
 40
4.691227448539176
 40
4.786607489247096
 40
4.881664578487558
 40
4.976333293055375
 40
5.07053918310132
 40
5.164218072892353
 40
5.257297219349013
 40
5.349704194233377
 40
5.441381314080068
 40
5.532254627304155
 40
5.622220354495541
 40
5.711182600634083
 40
5.711182600634083
 40
5.711182600634083
 40
5.711182600634083
 10
6.954672827862736
 20
5.129525508273559
 30
0.0
 10
6.954672877352493
 20
5.124211094270378
 30
0.0
 10
6.954802976362486
 20
5.113580108408598
 30
0.0
 10
6.955394055265003
 20
5.097633783644198
 30
0.0
 10
6.956387599911067
 20
5.081690440824445
 30
0.0
 10
6.95779059223048
 20
5.065752254832148
 30
0.0
 10
6.959609736246534
 20
5.04982776659429
 30
0.0
 10
6.961852433570925
 20
5.033920359927094
 30
0.0
 10
6.96452557988249
 20
5.018038772168239
 30
0.0
 10
6.967636913678006
 20
5.002187304676027
 30
0.0
 10
6.971193332587972
 20
4.98637563277083
 30
0.0
 10
6.975202719745539
 20
4.97060924576337
 30
0.0
 10
6.979671709613342
 20
4.954899108985586
 30
0.0
 10
6.98460689861065
 20
4.939255815118968
 30
0.0
 10
6.990013785466885
 20
4.923691989746856
 30
0.0
 10
6.995898060413878
 20
4.90821880517754
 30
0.0
 10
7.002265402279931
 20
4.892846970696552
 30
0.0
 10
7.009119231346062
 20
4.877591678220852
 30
0.0
 10
7.016463175764556
 20
4.862465815411496
 30
0.0
 10
7.024297880475955
 20
4.847486869927195
 30
0.0
 10
7.032626379728753
 20
4.832665867141599
 30
0.0
 10
7.041445775021088
 20
4.818022900552506
 30
0.0
 10
7.050757789106569
 20
4.803568159555425
 30
0.0
 10
7.060556892982447
 20
4.789321694365554
 30
0.0
 10
7.070841004075589
 20
4.775296345851444
 30
0.0
 10
7.083161602189989
 20
4.759512896638028
 30
0.0
 10
7.097769508096575
 20
4.74214505240576
 30
0.0
 10
7.114337557301382
 20
4.72406830579311
 30
0.0
 10
7.131128488496926
 20
4.707157148145739
 30
0.0
 10
7.148026557871332
 20
4.691364411857989
 30
0.0
 10
7.165613643707615
 20
4.676101824442639
 30
0.0
 10
7.182502548767956
 20
4.662486552820695
 30
0.0
 10
7.198522589118397
 20
4.650387925038586
 30
0.0
 10
7.213532942051529
 20
4.639682913141626
 30
0.0
 10
7.228896893350849
 20
4.629337408405689
 30
0.0
 10
7.244599151030911
 20
4.619357211862109
 30
0.0
 10
7.260623988997281
 20
4.609747332073851
 30
0.0
 10
7.27695530256409
 20
4.600511995802861
 30
0.0
 10
7.293576534173951
 20
4.591654747516344
 30
0.0
 10
7.310470205094929
 20
4.583178712973705
 30
0.0
 10
7.327619027965909
 20
4.575086029515745
 30
0.0
 10
7.345005772544425
 20
4.567378053423425
 30
0.0
 10
7.362613546861723
 20
4.560055331540752
 30
0.0
 10
7.380424655282922
 20
4.553118109714375
 30
0.0
 10
7.398420997592609
 20
4.546566163159951
 30
0.0
 10
7.416584171751082
 20
4.540398775377724
 30
0.0
 10
7.434895397752825
 20
4.534614780432775
 30
0.0
 10
7.453335496298677
 20
4.529212565925689
 30
0.0
 10
7.471885213169173
 20
4.524189978004727
 30
0.0
 10
7.490525438142412
 20
4.519544298198098
 30
0.0
 10
7.509237007828801
 20
4.515272325145389
 30
0.0
 10
7.528000386699432
 20
4.51137048041204
 30
0.0
 10
7.546795630344831
 20
4.507834768744487
 30
0.0
 10
7.565602520052323
 20
4.504660739070033
 30
0.0
 10
7.58440069438825
 20
4.50184345961415
 30
0.0
 10
7.603169197852025
 20
4.499377574582467
 30
0.0
 10
7.62188736119657
 20
4.497257153854889
 30
0.0
 10
7.640534340201668
 20
4.495475760642761
 30
0.0
 10
7.659089736747432
 20
4.49402640758538
 30
0.0
 10
7.677533893889801
 20
4.492901485122359
 30
0.0
 10
7.695847409070324
 20
4.492093118102644
 30
0.0
 10
7.714009066461471
 20
4.491592635433306
 30
0.0
 10
7.731995515129483
 20
4.491390793388575
 30
0.0
 10
7.74392431652916
 20
4.491449258653119
 30
0.0
 10
7.749854767765498
 20
4.491525796224038
 30
0.0
  0
ARC
  5
139
330
2
100
AcDbEntity
  8
GAIKEI
 62
     7
370
    40
100
AcDbCircle
 10
2.495102668524225
 20
25.67915981552753
 30
0.0
 40
0.14
100
AcDbArc
 50
89.00000100000212
 51
181.8781299999989
  0
ARC
  5
13A
330
2
100
AcDbEntity
  8
GAIKEI
 62
     1
370
    13
100
AcDbCircle
 10
19.32250466852417
 20
4.663194482194199
 30
0.0
 40
0.1844577777777778
100
AcDbArc
 50
354.0357520000006
 51
2.080551999999944
  0
LINE
  5
13B
330
2
100
AcDbEntity
  8
GAIKEI
 62
     1
 48
0.011446
370
    13
100
AcDbLine
 10
6.954672890746394
 20
6.677027371083084
 30
0.0
 11
7.05641822407972
 21
6.677027371083084
 31
0.0
  0
LINE
  5
13C
330
2
100
AcDbEntity
  8
GAIKEI
 62
     7
 48
0.1739
370
    40
100
AcDbLine
 10
6.954672890746394
 20
5.129531371083089
 30
0.0
 11
6.954672890746394
 21
6.675311593305281
 31
0.0
  0
LINE
  5
13D
330
2
100
AcDbEntity
  8
GAIKEI
 62
     1
 48
0.000193
370
    40
100
AcDbLine
 10
6.954672890746394
 20
6.675311593305281
 30
0.0
 11
6.954672890746394
 21
6.677027371083084
 31
0.0
  0
LINE
  5
13E
330
2
100
AcDbEntity
  8
GAIKEI
 62
     7
370
    40
100
AcDbLine
 10
6.954672890746394
 20
6.677027371083084
 30
0.0
 11
6.954672890746394
 21
22.03612470441641
 31
0.0
  0
ARC
  5
13F
330
2
100
AcDbEntity
  8
GAIKEI
 62
     7
370
    40
100
AcDbCircle
 10
5.954672890746394
 20
22.03612470441641
 30
0.0
 40
1.0
100
AcDbArc
 50
0.0000100000010064
 51
61.28492399999982
  0
LINE
  5
140
330
2
100
AcDbEntity
  8
GAIKEI
 62
     7
 48
0.4607750000000001
370
    40
100
AcDbLine
 10
2.843045779635303
 20
24.88098003774974
 30
0.0
 11
6.435127112968643
 21
22.91314403774973
 31
0.0
  0
ARC
  5
141
330
2
100
AcDbEntity
  8
GAIKEI
 62
     7
370
    40
100
AcDbCircle
 10
3.294672668524185
 20
25.70537892663862
 30
0.0
 40
0.9400000000000002
100
AcDbArc
 50
181.8781160000014
 51
241.284929000001
  0
LINE
  5
142
330
2
100
AcDbEntity
  8
GAIKEI
 62
     1
 48
0.0002
370
    13
100
AcDbLine
 10
7.056419112968683
 20
6.675252704416436
 30
0.0
 11
7.05641822407972
 21
6.677027371083084
 31
0.0
  0
ARC
  5
143
330
2
100
AcDbEntity
  8
GAIKEI
 62
     1
370
    13
100
AcDbCircle
 10
-733.7484326648091
 20
4.528531148860849
 30
0.0
 40
753.2554686666668
100
AcDbArc
 50
0.0107529999995633
 51
0.1799500000010252
  0
LINE
  5
144
330
2
100
AcDbEntity
  8
GAIKEI
 62
     7
 48
0.207673
370
    40
100
AcDbLine
 10
19.99467266852423
 20
5.04830492663865
 30
0.0
 11
19.99467266852423
 21
6.894290482194207
 31
0.0
  0
LINE
  5
145
330
2
100
AcDbEntity
  8
GAIKEI
 62
     1
370
    13
100
AcDbLine
 10
19.50339911296862
 20
6.894290482194207
 30
0.0
 11
7.05641822407972
 21
6.677027371083084
 31
0.0
  0
LINE
  5
146
330
2
100
AcDbEntity
  8
GAIKEI
 62
     1
370
    13
100
AcDbLine
 10
19.50339911296862
 20
22.52275714886088
 30
0.0
 11
6.658016433456111
 21
22.74697480178474
 31
0.0
  0
LINE
  5
147
330
2
100
AcDbEntity
  8
GAIKEI
 62
     7
370
    40
100
AcDbLine
 10
19.50339911296862
 20
25.52230025997196
 30
0.0
 11
2.497546001857529
 21
25.81913848219421
 31
0.0
  0
ARC
  5
148
330
2
100
AcDbEntity
  8
GAIKEI
 62
     1
370
    40
100
AcDbCircle
 10
19.89467266852421
 20
22.74449648219416
 30
0.0
 40
0.1
100
AcDbArc
 50
359.4940299999998
 51
0.0
  0
LINE
  5
149
330
2
100
AcDbEntity
  8
GAIKEI
 62
     7
370
    40
100
AcDbLine
 10
19.99467266852423
 20
22.52275714886088
 30
0.0
 11
19.99467266852423
 21
6.894290482194207
 31
0.0
  0
LINE
  5
14A
330
2
100
AcDbEntity
  8
GAIKEI
 62
     1
 48
0.055268
370
    13
100
AcDbLine
 10
19.99467266852423
 20
6.894290482194207
 30
0.0
 11
19.50339911296862
 21
6.894290482194207
 31
0.0
  0
LINE
  5
14B
330
2
100
AcDbEntity
  8
GAIKEI
 62
     1
370
    13
100
AcDbLine
 10
19.50339911296862
 20
22.52275714886088
 30
0.0
 11
19.50339911296862
 21
6.894290482194207
 31
0.0
  0
LINE
  5
14C
330
2
100
AcDbEntity
  8
GAIKEI
 62
     7
 48
0.281207
370
    40
100
AcDbLine
 10
19.99467266852423
 20
22.52275714886088
 30
0.0
 11
19.99467266852423
 21
25.0223764821942
 31
0.0
  0
LINE
  5
14D
330
2
100
AcDbEntity
  8
GAIKEI
 62
     1
 48
0.055268
370
    13
100
AcDbLine
 10
19.99467266852423
 20
22.52275714886088
 30
0.0
 11
19.50339911296862
 21
22.52275714886088
 31
0.0
  0
SPLINE
  5
14E
330
2
100
AcDbEntity
  8
GAIKEI
 62
     1
370
    13
100
AcDbSpline
210
0.0
220
0.0
230
1.0
 70
     8
 71
     5
 72
    45
 73
    39
 74
     0
 42
0.0000000001
 43
0.0000000001
 40
0.0
 40
0.0
 40
0.0
 40
0.0
 40
0.0
 40
0.0
 40
0.0019927257796467
 40
0.0019927257796467
 40
0.0019927257796467
 40
0.0039854515592933
 40
0.0039854515592933
 40
0.0039854515592933
 40
0.0153643454152682
 40
0.0153643454152682
 40
0.0153643454152682
 40
0.0606968344721799
 40
0.0606968344721799
 40
0.0606968344721799
 40
0.1360864562105749
 40
0.1360864562105749
 40
0.1360864562105749
 40
0.2413922554230614
 40
0.2413922554230614
 40
0.2413922554230614
 40
0.5408621590413051
 40
0.5408621590413051
 40
0.5408621590413051
 40
0.9567201761693292
 40
0.9567201761693292
 40
0.9567201761693292
 40
1.791179622935056
 40
1.791179622935056
 40
1.791179622935056
 40
3.70371142907595
 40
3.70371142907595
 40
3.70371142907595
 40
7.305790970272827
 40
7.305790970272827
 40
7.305790970272827
 40
14.99806553577147
 40
14.99806553577147
 40
14.99806553577147
 40
14.99806553577147
 40
14.99806553577147
 40
14.99806553577147
 10
19.50339903118186
 20
25.52230046757455
 30
0.0
 10
19.50348081856248
 20
25.52229903997036
 30
0.0
 10
19.50349429576226
 20
25.5219523010922
 30
0.0
 10
19.50350247504036
 20
25.52209267058456
 30
0.0
 10
19.50353673074516
 20
25.52193657344222
 30
0.0
 10
19.50356194786036
 20
25.52177918298526
 30
0.0
 10
19.50357292735873
 20
25.52170025796278
 30
0.0
 10
19.50363990220347
 20
25.52116973971519
 30
0.0
 10
19.50369031238517
 20
25.52063729770186
 30
0.0
 10
19.50372466372403
 20
25.52018326243257
 30
0.0
 10
19.50387046281764
 20
25.51791795261809
 30
0.0
 10
19.50397531740293
 20
25.51565171189546
 30
0.0
 10
19.50404056026389
 20
25.51383973167271
 30
0.0
 10
19.50418505361904
 20
25.50901354316233
 30
0.0
 10
19.50430547107351
 20
25.50418619814869
 30
0.0
 10
19.50437288565297
 20
25.50117126341309
 30
0.0
 10
19.50451965325044
 20
25.49394459398889
 30
0.0
 10
19.50464013393406
 20
25.4867177429974
 30
0.0
 10
19.50470331058921
 20
25.48250601292716
 30
0.0
 10
19.50492636796127
 20
25.46631668227192
 30
0.0
 10
19.5051013234106
 20
25.45012647099802
 30
0.0
 10
19.50521362693564
 20
25.43814815289204
 30
0.0
 10
19.50545263937533
 20
25.40953605360423
 30
0.0
 10
19.50564136683181
 20
25.38092353347679
 30
0.0
 10
19.50573885482402
 20
25.36428948805548
 30
0.0
 10
19.50600362496914
 20
25.31427748534369
 30
0.0
 10
19.50619992075337
 20
25.26426514959309
 30
0.0
 10
19.50631133961758
 20
25.23088695292754
 30
0.0
 10
19.50662695897813
 20
25.12100774454993
 30
0.0
 10
19.50680632148044
 20
25.0111282027797
 30
0.0
 10
19.50689458463603
 20
24.9346269760548
 30
0.0
 10
19.50705885649813
 20
24.71404256987131
 30
0.0
 10
19.50701688426227
 20
24.49345807987254
 30
0.0
 10
19.50693536451968
 20
24.34937491416011
 30
0.0
 10
19.50653107830135
 20
23.89760091249582
 30
0.0
 10
19.50573640702305
 20
23.44582736946086
 30
0.0
 10
19.50507365177191
 20
23.13813707816223
 30
0.0
 10
19.50429365494347
 20
22.83044706462127
 30
0.0
 10
19.5033990289844
 20
22.52275738214371
 30
0.0
  0
ARC
  5
14F
330
2
100
AcDbEntity
  8
GAIKEI
 62
     7
370
    40
100
AcDbCircle
 10
19.49467266852423
 20
25.0223764821942
 30
0.0
 40
0.5
100
AcDbArc
 50
0.0
 51
89.00000100000212
  0
ARC
  5
150
330
2
100
AcDbEntity
  8
GAIKEI
 62
     1
370
    40
100
AcDbCircle
 10
19.39467266852421
 20
4.616793371083105
 30
0.0
 40
0.1
100
AcDbArc
 50
270.9999950000019
 51
0.0
  0
LINE
  5
151
330
2
100
AcDbEntity
  8
GAIKEI
 62
     1
 48
0.27012
370
    40
100
AcDbLine
 10
19.39641822407975
 20
4.516808482194193
 30
0.0
 11
16.99572022407972
 21
4.474904037749752
 31
0.0
  0
ARC
  5
152
330
2
100
AcDbEntity
  8
GAIKEI
 62
     1
370
    40
100
AcDbCircle
 10
16.99467266852423
 20
4.534895593305293
 30
0.0
 40
0.06
100
AcDbArc
 50
179.9999910000004
 51
270.9999950000019
  0
LINE
  5
153
330
2
100
AcDbEntity
  8
GAIKEI
 62
     1
 48
0.003059
370
    40
100
AcDbLine
 10
19.49467266852423
 20
4.643980704416406
 30
0.0
 11
19.49467266852423
 21
4.616793371083105
 31
0.0
  0
LINE
  5
154
330
2
100
AcDbEntity
  8
GAIKEI
 62
     1
 48
0.008511
370
    40
100
AcDbLine
 10
16.93467289074641
 20
4.610549371083095
 30
0.0
 11
16.93467289074641
 21
4.534895593305293
 31
0.0
  0
LINE
  5
155
330
2
100
AcDbEntity
  8
GAIKEI
 62
     1
 48
0.015349
370
    13
100
AcDbLine
 10
16.99572022407972
 20
4.611343593305321
 30
0.0
 11
16.99572022407972
 21
4.474904037749752
 31
0.0
  0
ARC
  5
156
330
2
100
AcDbEntity
  8
GAIKEI
 62
     7
370
    40
100
AcDbCircle
 10
25.30965444630198
 20
5.488524037749755
 30
0.0
 40
0.1
100
AcDbArc
 50
270.0000010000014
 51
358.9999880000004
  0
LINE
  5
157
330
2
100
AcDbEntity
  8
GAIKEI
 62
     1
 48
0.227527
370
    40
100
AcDbLine
 10
19.9946826685242
 20
5.388524037749732
 30
0.0
 11
25.12867155741307
 21
5.388524037749732
 31
0.0
  0
LINE
  5
158
330
2
100
AcDbEntity
  8
GAIKEI
 62
     7
 48
0.154025
370
    40
100
AcDbLine
 10
25.40963933519089
 20
5.486778482194182
 30
0.0
 11
25.43353289074639
 21
6.855678704416419
 31
0.0
  0
LINE
  5
159
330
2
100
AcDbEntity
  8
GAIKEI
 62
     7
 48
0.4825670000000001
370
    40
100
AcDbLine
 10
19.99466133519087
 20
15.09129403774975
 30
0.0
 11
24.28349489074645
 21
15.01643225997196
 31
0.0
  0
ARC
  5
15A
330
2
100
AcDbEntity
  8
GAIKEI
 62
     1
370
    13
100
AcDbCircle
 10
-54.88616466480914
 20
-6932.386007517805
 30
0.0
 40
6947.303906222223
100
AcDbArc
 50
89.34705700000042
 51
89.38243000000234
  0
SPLINE
  5
15B
330
2
100
AcDbEntity
  8
GAIKEI
 62
     1
370
    13
100
AcDbSpline
210
0.0
220
0.0
230
1.0
 70
     8
 71
     3
 72
    38
 73
    34
 74
     0
 42
0.0000000001
 43
0.0000000001
 40
0.0
 40
0.0
 40
0.0
 40
0.0
 40
0.0656857517561211
 40
0.1311543922329154
 40
0.1967856728782791
 40
0.2629825149251613
 40
0.3301400033872394
 40
0.3986123825710792
 40
0.4686906179008827
 40
0.540606830510011
 40
0.6145306174950534
 40
0.6905642314610086
 40
0.7687444506598763
 40
0.849049462912642
 40
0.9314090959028604
 40
1.015717178756296
 40
1.101852752453149
 40
1.189689905714549
 40
1.279085012180658
 40
1.369882485222998
 40
1.461922215455894
 40
1.555046631534105
 40
1.649107416201858
 40
1.743971913414463
 40
1.839528080689676
 40
1.935669821214679
 40
2.032287801803511
 40
2.129276698020559
 40
2.226535884509245
 40
2.323969722469084
 40
2.421487704360815
 40
2.519004484122822
 40
2.616439816025869
 40
2.616439816025869
 40
2.616439816025869
 40
2.616439816025869
 10
24.67669479350707
 20
14.21712230915284
 30
0.0
 10
24.67766890367136
 20
14.22139546119069
 30
0.0
 10
24.67919704906001
 20
14.23001635088434
 30
0.0
 10
24.68016297531608
 20
14.24312442583283
 30
0.0
 10
24.67975450607094
 20
14.25629517479848
 30
0.0
 10
24.67794842147725
 20
14.26946206164771
 30
0.0
 10
24.67473785751997
 20
14.28255298331248
 30
0.0
 10
24.6701339885991
 20
14.29549489871362
 30
0.0
 10
24.66416558757305
 20
14.30821632168533
 30
0.0
 10
24.65687704719142
 20
14.32065103457498
 30
0.0
 10
24.64832490704646
 20
14.33274017320687
 30
0.0
 10
24.63857517840802
 20
14.34443250152222
 30
0.0
 10
24.6277010166807
 20
14.35568400517437
 30
0.0
 10
24.61578057984218
 20
14.36645756661619
 30
0.0
 10
24.60289492258937
 20
14.37672271430142
 30
0.0
 10
24.58912548915271
 20
14.38645577537014
 30
0.0
 10
24.57455158594291
 20
14.39563960654274
 30
0.0
 10
24.5592494620563
 20
14.40426246676276
 30
0.0
 10
24.54329259377585
 20
14.41231691567566
 30
0.0
 10
24.52675200581587
 20
14.41979860647842
 30
0.0
 10
24.50969553426233
 20
14.42670601448179
 30
0.0
 10
24.49218694224772
 20
14.43304020098287
 30
0.0
 10
24.47428503697097
 20
14.43880458483102
 30
0.0
 10
24.45604284998529
 20
14.44400465573409
 30
0.0
 10
24.43750817743762
 20
14.44864747938186
 30
0.0
 10
24.41872501704563
 20
14.45274073723874
 30
0.0
 10
24.39973491939838
 20
14.456292071571
 30
0.0
 10
24.38057741362343
 20
14.4593092408401
 30
0.0
 10
24.36128970079756
 20
14.46180012555561
 30
0.0
 10
24.34190676296453
 20
14.46377268924689
 30
0.0
 10
24.32246157606255
 20
14.46523492141102
 30
0.0
 10
24.30298497732031
 20
14.46619479207476
 30
0.0
 10
24.28999077113088
 20
14.4665052680993
 30
0.0
 10
24.2834951541322
 20
14.46657923989019
 30
0.0
  0
LINE
  5
15C
330
2
100
AcDbEntity
  8
GAIKEI
 62
     1
 48
0.280433
370
    40
100
AcDbLine
 10
22.48703022407978
 20
13.59778959330529
 30
0.0
 11
19.99467044630199
 21
13.64129403774976
 31
0.0
  0
LINE
  5
15D
330
2
100
AcDbEntity
  8
GAIKEI
 62
     1
 48
0.280433
370
    13
100
AcDbLine
 10
22.48703022407978
 20
12.99788092663863
 30
0.0
 11
19.9946711129686
 21
13.04138537108306
 31
0.0
  0
LINE
  5
15E
330
2
100
AcDbEntity
  8
GAIKEI
 62
     1
 48
0.029836
370
    40
100
AcDbLine
 10
22.48703022407978
 20
13.59778959330529
 30
0.0
 11
22.75219444630199
 21
13.59316114886087
 31
0.0
  0
SPLINE
  5
15F
330
2
100
AcDbEntity
  8
GAIKEI
 62
     1
370
    13
100
AcDbSpline
210
0.0
220
0.0
230
1.0
 70
     8
 71
     3
 72
    34
 73
    30
 74
     0
 42
0.0000000001
 43
0.0000000001
 40
0.0
 40
0.0
 40
0.0
 40
0.0
 40
0.4893074665887698
 40
0.9760613725711177
 40
1.459610971160402
 40
1.939294528488095
 40
2.414440949373451
 40
2.88437694512818
 40
3.348443340665262
 40
3.805921936102052
 40
4.256022785221764
 40
4.697919490405589
 40
5.130791330279861
 40
5.553874067227025
 40
5.966534402985573
 40
6.368319603089791
 40
6.758792373932752
 40
7.137663169220696
 40
7.505048177776814
 40
7.861739138476009
 40
8.209373953646576
 40
8.550316779858142
 40
8.887793614937027
 40
9.225720842398748
 40
9.568259607975232
 40
9.919316121856679
 40
10.2821672099875
 40
10.65895153436065
 40
11.0502947215135
 40
11.0502947215135
 40
11.0502947215135
 40
11.0502947215135
 10
22.7521948453342
 20
13.59316114901861
 30
0.0
 10
22.78481037895813
 20
13.59259185317634
 30
0.0
 10
22.84987158291068
 20
13.59147655934893
 30
0.0
 10
22.9471669079511
 20
13.58994051133226
 30
0.0
 10
23.0438240486236
 20
13.58863692929304
 30
0.0
 10
23.13971148987071
 20
13.58767740557212
 30
0.0
 10
23.23469516556713
 20
13.58719350253901
 30
0.0
 10
23.32863919944975
 20
13.58733715107331
 30
0.0
 10
23.42140125603498
 20
13.58828163495761
 30
0.0
 10
23.51282602910862
 20
13.59022241014887
 30
0.0
 10
23.60273929402672
 20
13.59337781178979
 30
0.0
 10
23.69094870191736
 20
13.59799003384901
 30
0.0
 10
23.77724754580879
 20
13.6043263818986
 30
0.0
 10
23.86141939294128
 20
13.6126811517293
 30
0.0
 10
23.94324097375636
 20
13.62337749211434
 30
0.0
 10
24.02246735014307
 20
13.63676978054459
 30
0.0
 10
24.09881805374823
 20
13.65323792421483
 30
0.0
 10
24.17197308267737
 20
13.67318201620222
 30
0.0
 10
24.24159325447533
 20
13.69701987200679
 30
0.0
 10
24.30733917035343
 20
13.72518427778897
 30
0.0
 10
24.36887026561397
 20
13.75810283760762
 30
0.0
 10
24.4258439289589
 20
13.79617655390348
 30
0.0
 10
24.47792213998304
 20
13.83973932414056
 30
0.0
 10
24.52480560493666
 20
13.88901047990231
 30
0.0
 10
24.56627117920232
 20
13.94405665265168
 30
0.0
 10
24.60221559879858
 20
14.00478166433259
 30
0.0
 10
24.6326721421741
 20
14.07093498656601
 30
0.0
 10
24.65779303871398
 20
14.14212951890573
 30
0.0
 10
24.67089325086476
 20
14.19167247356199
 30
0.0
 10
24.67669482537724
 20
14.21712216709503
 30
0.0
  0
SPLINE
  5
160
330
2
100
AcDbEntity
  8
GAIKEI
 62
     1
370
    13
100
AcDbSpline
210
0.0
220
0.0
230
1.0
 70
     8
 71
     3
 72
    37
 73
    33
 74
     0
 42
0.0000000001
 43
0.0000000001
 40
0.0
 40
0.0
 40
0.0
 40
0.0
 40
0.2691779885529449
 40
0.5406039113827173
 40
0.8138931231657211
 40
1.088627572191996
 40
1.364334877330799
 40
1.6404691282356
 40
1.916447911818259
 40
2.191745075814788
 40
2.465902735402306
 40
2.738524940602042
 40
3.009272730074718
 40
3.277860513806438
 40
3.544053663724568
 40
3.807673862494768
 40
4.068644472964879
 40
4.326930756673296
 40
4.582503048183608
 40
4.835345282202063
 40
5.085463859334479
 40
5.332896343747444
 40
5.577719943917552
 40
5.820059274079063
 40
6.060060673524611
 40
6.297846280214384
 40
6.533533785752199
 40
6.767240353583001
 40
6.99908359270134
 40
7.229182406793151
 40
7.457657729576101
 40
7.684633156783854
 40
7.684633156783854
 40
7.684633156783854
 40
7.684633156783854
 10
25.22411097897509
 20
14.01609130534172
 30
0.0
 10
25.22540016901451
 20
14.03399527180596
 30
0.0
 10
25.2269488857047
 20
14.07001864006111
 30
0.0
 10
25.22610336090645
 20
14.12430465465888
 30
0.0
 10
25.22201009729531
 20
14.17881323635322
 30
0.0
 10
25.21461609856908
 20
14.23326227663472
 30
0.0
 10
25.20390852139599
 20
14.28735142581627
 30
0.0
 10
25.1899186711147
 20
14.3407719494956
 30
0.0
 10
25.17272219593952
 20
14.39321921051359
 30
0.0
 10
25.15243435424452
 20
14.44440772215657
 30
0.0
 10
25.12920227260349
 20
14.494081325796
 30
0.0
 10
25.1031980878073
 20
14.54201581987459
 30
0.0
 10
25.07461250421779
 20
14.58801940235924
 30
0.0
 10
25.04364863110948
 20
14.63193230742322
 30
0.0
 10
25.01051594614751
 20
14.67362607035727
 30
0.0
 10
24.97542257272437
 20
14.71300432514988
 30
0.0
 10
24.93857017118364
 20
14.74999948824194
 30
0.0
 10
24.90015199520247
 20
14.78456718017679
 30
0.0
 10
24.86035446378503
 20
14.8166796750142
 30
0.0
 10
24.81935669308877
 20
14.84632326841458
 30
0.0
 10
24.77732797739839
 20
14.87349748952891
 30
0.0
 10
24.73442530440451
 20
14.89821389704934
 30
0.0
 10
24.69079101585533
 20
14.9204944286227
 30
0.0
 10
24.64655270004221
 20
14.94036842749648
 30
0.0
 10
24.60182692210072
 20
14.95786862549039
 30
0.0
 10
24.55672296307535
 20
14.97302877096035
 30
0.0
 10
24.51134500286543
 20
14.98588287820951
 30
0.0
 10
24.46579131470014
 20
14.99646551905795
 30
0.0
 10
24.42015434731013
 20
15.00481160291457
 30
0.0
 10
24.37452171289192
 20
15.01095611006048
 30
0.0
 10
24.32897440905617
 20
15.01493390536706
 30
0.0
 10
24.29862729069248
 20
15.01616807027085
 30
0.0
 10
24.28349515401908
 20
15.01643220269818
 30
0.0
  0
LINE
  5
161
330
2
100
AcDbEntity
  8
GAIKEI
 62
     1
 48
0.018974
370
    40
100
AcDbLine
 10
24.28349489074645
 20
15.01643225997196
 30
0.0
 11
24.45212577963531
 21
15.01348870441643
 31
0.0
  0
ARC
  5
162
330
2
100
AcDbEntity
  8
GAIKEI
 62
     7
370
    40
100
AcDbCircle
 10
24.43467289074642
 20
14.01364114886087
 30
0.0
 40
1.0
100
AcDbArc
 50
0.0
 51
89.00000100000212
  0
ARC
  5
163
330
2
100
AcDbEntity
  8
GAIKEI
 62
     1
370
    40
100
AcDbCircle
 10
24.43467289074642
 20
6.903406704416426
 30
0.0
 40
1.0
100
AcDbArc
 50
357.2549299999991
 51
0.0
  0
LINE
  5
164
330
2
100
AcDbEntity
  8
GAIKEI
 62
     1
 48
0.329077
370
    13
100
AcDbLine
 10
22.91935155741305
 20
6.876652037749749
 30
0.0
 11
19.99467200185751
 21
6.825601371083081
 31
0.0
  0
LINE
  5
165
330
2
100
AcDbEntity
  8
GAIKEI
 62
     1
 48
0.280433
370
    13
100
AcDbLine
 10
22.48703022407978
 20
10.64775914886087
 30
0.0
 11
19.9946711129686
 21
10.69126337108309
 31
0.0
  0
LINE
  5
166
330
2
100
AcDbEntity
  8
GAIKEI
 62
     1
 48
0.037292
370
    13
100
AcDbLine
 10
22.48703022407978
 20
12.99788092663863
 30
0.0
 11
22.81848622407978
 21
12.99325248219418
 31
0.0
  0
SPLINE
  5
167
330
2
100
AcDbEntity
  8
GAIKEI
 62
     1
370
    13
100
AcDbSpline
210
0.0
220
0.0
230
1.0
 70
     8
 71
     3
 72
    41
 73
    37
 74
     0
 42
0.0000000001
 43
0.0000000001
 40
0.0
 40
0.0
 40
0.0
 40
0.0
 40
0.4859172132764951
 40
0.9699265891342324
 40
1.451623521297037
 40
1.9305986745229
 40
2.406439115598404
 40
2.878730138719601
 40
3.34705824466646
 40
3.811026287740381
 40
4.27023690345186
 40
4.724261784594892
 40
5.172653456239036
 40
5.614963133526865
 40
6.050762404766192
 40
6.479669411557257
 40
6.901380292820623
 40
7.315711830503883
 40
7.722661726697907
 40
8.122312783066254
 40
8.514849147726559
 40
8.900671186259808
 40
9.280510882936473
 40
9.655538556314336
 40
10.02744680773774
 40
10.39838132691638
 40
10.77084119794668
 40
11.14770021405772
 40
11.53203580328918
 40
11.92689267172788
 40
12.33502242142238
 40
12.75870328345026
 40
13.19966086642497
 40
13.6589023979166
 40
14.13656738805944
 40
14.63188821119265
 40
14.63188821119265
 40
14.63188821119265
 40
14.63188821119265
 10
22.81848645739263
 20
12.99325479432747
 30
0.0
 10
22.85087778518112
 20
12.99280259955955
 30
0.0
 10
22.91553355263261
 20
12.99192100072559
 30
0.0
 10
23.01230104747924
 20
12.99072052934389
 30
0.0
 10
23.1086079657307
 20
12.98971339918904
 30
0.0
 10
23.20437284105048
 20
12.98898142512581
 30
0.0
 10
23.29951289542055
 20
12.98861907162478
 30
0.0
 10
23.39394396542184
 20
12.98873353186451
 30
0.0
 10
23.4875811964634
 20
12.98944460141681
 30
0.0
 10
23.58033831118007
 20
12.99088541375766
 30
0.0
 10
23.67212435256567
 20
12.99320337062158
 30
0.0
 10
23.7628399109746
 20
12.99655954964984
 30
0.0
 10
23.8523752345568
 20
13.0011295856336
 30
0.0
 10
23.94061132720105
 20
13.0071042755587
 30
0.0
 10
24.02742136920381
 20
13.01469031547822
 30
0.0
 10
24.11267226823884
 20
13.02411100305136
 30
0.0
 10
24.19622659977688
 20
13.03560726951599
 30
0.0
 10
24.27794577847624
 20
13.04943825516312
 30
0.0
 10
24.35768281059802
 20
13.06588415803239
 30
0.0
 10
24.43527252089643
 20
13.08524251697702
 30
0.0
 10
24.51052432903111
 20
13.10782365570432
 30
0.0
 10
24.58322746941338
 20
13.13394896235033
 30
0.0
 10
24.65316159723034
 20
13.16394936334851
 30
0.0
 10
24.72010612710324
 20
13.19816312536036
 30
0.0
 10
24.78384144966355
 20
13.23692824760456
 30
0.0
 10
24.84414728468477
 20
13.28056541634353
 30
0.0
 10
24.90080181709334
 20
13.32936913335936
 30
0.0
 10
24.95359409442938
 20
13.38358822556318
 30
0.0
 10
25.00234308009124
 20
13.44340957904416
 30
0.0
 10
25.0469073618491
 20
13.50894259596868
 30
0.0
 10
25.08719148463661
 20
13.58021055138366
 30
0.0
 10
25.1231593214527
 20
13.65714659883005
 30
0.0
 10
25.15483324387668
 20
13.73959673300587
 30
0.0
 10
25.18228819502838
 20
13.82731226864547
 30
0.0
 10
25.20563948380709
 20
13.91994281495641
 30
0.0
 10
25.21834589177775
 20
13.98357051165607
 30
0.0
 10
25.22411088951742
 20
14.01609130630996
 30
0.0
  0
LINE
  5
168
330
2
100
AcDbEntity
  8
GAIKEI
 62
     7
 48
0.4180020000000001
370
    40
100
AcDbLine
 10
25.43467289074641
 20
14.01364114886087
 30
0.0
 11
25.43467289074641
 21
10.29806892663862
 31
0.0
  0
LINE
  5
169
330
2
100
AcDbEntity
  8
GAIKEI
 62
     1
 48
0.268315
370
    13
100
AcDbLine
 10
22.48703022407978
 20
10.64775914886087
 30
0.0
 11
24.87164022407973
 21
10.6033604821942
 31
0.0
  0
SPLINE
  5
16A
330
2
100
AcDbEntity
  8
GAIKEI
 62
     1
370
    13
100
AcDbSpline
210
0.0
220
0.0
230
1.0
 70
     8
 71
     3
 72
    22
 73
    18
 74
     0
 42
0.0000000001
 43
0.0000000001
 40
0.0
 40
0.0
 40
0.0
 40
0.0
 40
0.0605407426929533
 40
0.1403608871717998
 40
0.2375178243444802
 40
0.3532233657005973
 40
0.4883210408636236
 40
0.643347430648344
 40
0.8185515528325957
 40
1.013903073230412
 40
1.229126087060131
 40
1.463754056295696
 40
1.717200488485515
 40
1.98890067944283
 40
2.2786184801131
 40
2.586702152960315
 40
2.914302828711944
 40
2.914302828711944
 40
2.914302828711944
 40
2.914302828711944
 10
25.43467282721554
 20
10.29806883647327
 30
0.0
 10
25.43467282721554
 20
10.30212702334523
 30
0.0
 10
25.43290227424359
 20
10.31143717037312
 30
0.0
 10
25.42637973208355
 20
10.32597484905898
 30
0.0
 10
25.41558718045616
 20
10.34229932540074
 30
0.0
 10
25.40065630206732
 20
10.36009829188796
 30
0.0
 10
25.38162628980757
 20
10.37935955939559
 30
0.0
 10
25.35852502598698
 20
10.40008560011387
 30
0.0
 10
25.33135944222386
 20
10.42223294681463
 30
0.0
 10
25.30010586999277
 20
10.44566464054554
 30
0.0
 10
25.26470097072956
 20
10.47011100823496
 30
0.0
 10
25.22503135673185
 20
10.49513281798437
 30
0.0
 10
25.18092822537767
 20
10.52008879176986
 30
0.0
 10
25.13216285375677
 20
10.54410920631551
 30
0.0
 10
25.07845757719406
 20
10.56606986513171
 30
0.0
 10
25.01950897000552
 20
10.5845738876074
 30
0.0
 10
24.97795348257262
 20
10.5932170862749
 30
0.0
 10
24.95634111624224
 20
10.59650118668514
 30
0.0
  0
LINE
  5
16B
330
2
100
AcDbEntity
  8
GAIKEI
 62
     1
 48
0.033166
370
    40
100
AcDbLine
 10
25.43467289074641
 20
10.0032595933053
 30
0.0
 11
25.43467289074641
 21
10.29806892663862
 31
0.0
  0
LINE
  5
16C
330
2
100
AcDbEntity
  8
GAIKEI
 62
     1
 48
0.28299
370
    13
100
AcDbLine
 10
22.91935155741305
 20
6.876652037749749
 30
0.0
 11
25.43467289074641
 21
6.903406704416426
 31
0.0
  0
LINE
  5
16D
330
2
100
AcDbEntity
  8
GAIKEI
 62
     7
 48
0.348733
370
    40
100
AcDbLine
 10
25.43467289074641
 20
10.00325714886085
 30
0.0
 11
25.43467289074641
 21
6.903406704416426
 31
0.0
  0
ARC
  5
16E
330
2
100
AcDbEntity
  8
GAIKEI
 62
     1
370
    13
100
AcDbCircle
 10
21.20945089074644
 20
524.2011507044164
 30
0.0
 40
514.2634766666667
100
AcDbArc
 50
269.8646540000011
 51
270.1905080000021
  0
ARC
  5
16F
330
2
100
AcDbEntity
  8
GAIKEI
 62
     1
370
    13
100
AcDbCircle
 10
24.86177244630198
 20
9.952275371083089
 30
0.0
 40
0.6511448888888891
100
AcDbArc
 50
81.65819699999998
 51
89.13165299999709
  0
SPLINE
  5
170
330
2
100
AcDbEntity
  8
GAIKEI
 62
     1
370
    13
100
AcDbSpline
210
0.0
220
0.0
230
1.0
 70
     8
 71
     3
 72
    42
 73
    38
 74
     0
 42
0.0000000001
 43
0.0000000001
 40
0.0
 40
0.0
 40
0.0
 40
0.0
 40
0.0266093905788354
 40
0.0679952921589382
 40
0.1299779223285898
 40
0.2142321890118634
 40
0.3214136041233832
 40
0.4518441822225738
 40
0.6056979513113637
 40
0.7830611251348313
 40
0.9839523900104449
 40
1.208328225873953
 40
1.456082038702341
 40
1.727039656273654
 40
2.020937489704752
 40
2.337417623240408
 40
2.676036827819792
 40
3.036263083587908
 40
3.417471866732384
 40
3.818942818661282
 40
4.239856953353987
 40
4.679294543485958
 40
5.136233814367355
 40
5.609550564058908
 40
6.09801855277477
 40
6.600310990501133
 40
7.115026747882705
 40
7.640711677532508
 40
8.175866033146606
 40
8.718951363043517
 40
9.268397333418832
 40
9.822608522616823
 40
10.37997122785476
 40
10.93886032343604
 40
11.49764620453117
 40
12.05470184313155
 40
12.60840997290601
 40
12.60840997290601
 40
12.60840997290601
 40
12.60840997290601
 10
25.43467282721554
 20
10.00325727599738
 30
0.0
 10
25.43467282721554
 20
10.0014271342028
 30
0.0
 10
25.43194583829814
 20
9.997240445252003
 30
0.0
 10
25.42409288042256
 20
9.99335689326503
 30
0.0
 10
25.41217985556011
 20
9.989516263587461
 30
0.0
 10
25.39561269829301
 20
9.986068517260804
 30
0.0
 10
25.37440419372149
 20
9.982804994367597
 30
0.0
 10
25.34847484975421
 20
9.97979162497856
 30
0.0
 10
25.31782569306177
 20
9.976981401602785
 30
0.0
 10
25.28244671492291
 20
9.974366226302805
 30
0.0
 10
25.24234485698225
 20
9.971925085164258
 30
0.0
 10
25.19753426729256
 20
9.969643146830037
 30
0.0
 10
25.14804087213872
 20
9.967505781263582
 30
0.0
 10
25.09390378019054
 20
9.965500340037806
 30
0.0
 10
25.03517811308973
 20
9.963615770442629
 30
0.0
 10
24.97193634382075
 20
9.961842682346826
 30
0.0
 10
24.90426846700109
 20
9.960172792919365
 30
0.0
 10
24.83228197486085
 20
9.958598892040896
 30
0.0
 10
24.75610263836552
 20
9.957114683256804
 30
0.0
 10
24.67587521465123
 20
9.955714659147361
 30
0.0
 10
24.59176403405206
 20
9.954393958493028
 30
0.0
 10
24.50395344118954
 20
9.953148222032325
 30
0.0
 10
24.41264806796511
 20
9.951973449587484
 30
0.0
 10
24.31807293463794
 20
9.950865836034751
 30
0.0
 10
24.22047336017409
 20
9.949821684423113
 30
0.0
 10
24.12011310091157
 20
9.948836938592876
 30
0.0
 10
24.01727108270563
 20
9.947907580339631
 30
0.0
 10
23.91223774107323
 20
9.947029749057577
 30
0.0
 10
23.80531265228194
 20
9.946199376358777
 30
0.0
 10
23.69680312828939
 20
9.945411952725606
 30
0.0
 10
23.58702285275137
 20
9.94466226028507
 30
0.0
 10
23.47629052217456
 20
9.943944114822357
 30
0.0
 10
23.36492848460455
 20
9.943250105241617
 30
0.0
 10
23.2532613686152
 20
9.942571333462268
 30
0.0
 10
23.14161469646387
 20
9.941897155317832
 30
0.0
 10
23.03031347700761
 20
9.941214917530629
 30
0.0
 10
22.95626406217355
 20
9.94074290349468
 30
0.0
 10
22.919350987695
 20
9.940499705170054
 30
0.0
  0
ARC
  5
171
330
2
100
AcDbEntity
  8
GAIKEI
 62
     1
370
    40
100
AcDbCircle
 10
8.834667335190829
 20
14.70852381552751
 30
0.0
 40
6.099995111111112
100
AcDbArc
 50
107.9505501250463
 51
251.2571969999983
  0
LINE
  5
172
330
2
100
AcDbEntity
  8
GAIKEI
  6
DASHDOT
 62
     1
370
    13
100
AcDbLine
 10
1.094161557413087
 20
14.70852381552751
 30
0.0
 11
20.89633889074645
 21
14.70852381552751
 31
0.0
  0
LINE
  5
174
330
2
100
AcDbEntity
  8
GAIKEI
  6
DASHDOT
 62
     1
370
    13
100
AcDbLine
 10
18.55045955741309
 20
20.44852403774974
 30
0.0
 11
27.29769000185752
 21
20.44852403774974
 31
0.0
  0
LINE
  5
175
330
2
100
AcDbEntity
  8
GAIKEI
 62
     1
 48
0.146943
370
    40
100
AcDbLine
 10
-19.91922889307238
 20
4.793301593305301
 30
0.0
 11
-19.94202400418351
 21
3.487337815527553
 31
0.0
  0
LINE
  5
176
330
2
100
AcDbEntity
  8
GAIKEI
 62
     1
 48
0.142247
370
    40
100
AcDbLine
 10
-24.49247755973903
 20
4.708523815527513
 30
0.0
 11
-24.47041067085013
 21
3.444301815527524
 31
0.0
  0
LINE
  5
177
330
2
100
AcDbEntity
  8
GAIKEI
 62
     1
 48
0.324698
370
    40
100
AcDbLine
 10
-19.94202400418351
 20
3.487337815527553
 30
0.0
 11
-20.34912244862795
 21
0.6299913710830652
 31
0.0
  0
LINE
  5
178
330
2
100
AcDbEntity
  8
GAIKEI
 62
     1
 48
0.319694
370
    40
100
AcDbLine
 10
-24.47041067085013
 20
3.444301815527524
 30
0.0
 11
-24.07666644862792
 21
0.6299913710830652
 31
0.0
  0
LINE
  5
179
330
2
100
AcDbEntity
  8
GAIKEI
 62
     1
 48
0.220879
370
    40
100
AcDbLine
 10
-24.07666644862792
 20
0.6299913710830652
 30
0.0
 11
-23.6403780041835
 21
-1.284290851139132
 31
0.0
  0
LINE
  5
17A
330
2
100
AcDbEntity
  8
GAIKEI
 62
     1
 48
0.317136
370
    40
100
AcDbLine
 10
-20.82176489307238
 20
-1.284742628916916
 30
0.0
 11
-23.64074844862796
 21
-1.284290851139132
 31
0.0
  0
LINE
  5
17B
330
2
100
AcDbEntity
  8
GAIKEI
 62
     1
 48
0.221873
370
    40
100
AcDbLine
 10
-20.34912244862795
 20
0.6299913710830652
 30
0.0
 11
-20.82176489307238
 21
-1.284742628916916
 31
0.0
  0
LINE
  5
17C
330
2
100
AcDbEntity
  8
GAIKEI
 62
     1
 48
0.125269
370
    40
100
AcDbLine
 10
-23.63944222640572
 20
-2.397791740028026
 30
0.0
 11
-23.6403780041835
 21
-1.284290851139132
 31
0.0
  0
LINE
  5
17D
330
2
100
AcDbEntity
  8
GAIKEI
 62
     1
 48
0.12592
370
    40
100
AcDbLine
 10
-20.82176489307238
 20
-1.284742628916916
 30
0.0
 11
-20.82176489307238
 21
-2.404035740028035
 31
0.0
  0
ARC
  5
17E
330
2
100
AcDbEntity
  8
GAIKEI
 62
     1
370
    40
100
AcDbCircle
 10
-28.49844044862795
 20
56.1867953710831
 30
0.0
 40
19.97777555555556
100
AcDbArc
 50
268.4746830000029
 51
271.5253189999986
  0
ARC
  5
17F
330
2
100
AcDbEntity
  8
GAIKEI
 62
     1
370
    40
100
AcDbCircle
 10
-27.96772244862791
 20
36.25608092663862
 30
0.0
 40
0.04
100
AcDbArc
 50
271.5214119999976
 51
0.0
  0
ARC
  5
180
330
2
100
AcDbEntity
  8
GAIKEI
 62
     1
370
    40
100
AcDbCircle
 10
-29.02915844862793
 20
36.25608092663862
 30
0.0
 40
0.04
100
AcDbArc
 50
179.9999910000004
 51
268.4785900000003
  0
LINE
  5
181
330
2
100
AcDbEntity
  8
GAIKEI
 62
     1
 48
0.002463
370
    40
100
AcDbLine
 10
-27.92772244862795
 20
36.25608092663862
 30
0.0
 11
-27.92772244862795
 21
36.27797114886087
 31
0.0
  0
LINE
  5
182
330
2
100
AcDbEntity
  8
GAIKEI
 62
     1
 48
0.002463
370
    40
100
AcDbLine
 10
-29.06915844862794
 20
36.25608092663862
 30
0.0
 11
-29.06915844862794
 21
36.27797114886087
 31
0.0
  0
ARC
  5
183
330
2
100
AcDbEntity
  8
GAIKEI
 62
     7
370
    40
100
AcDbCircle
 10
-38.5089553375168
 20
38.13250759330532
 30
0.0
 40
0.6000000000000001
100
AcDbArc
 50
188.0000000000009
 51
254.1717750000034
  0
ARC
  5
184
330
2
100
AcDbEntity
  8
GAIKEI
 62
     7
370
    40
100
AcDbCircle
 10
-18.48792555973904
 20
38.13250759330532
 30
0.0
 40
0.6000000000000001
100
AcDbArc
 50
285.8282269999986
 51
351.999999999999
  0
LINE
  5
185
330
2
100
AcDbEntity
  8
GAIKEI
 62
     7
 48
0.306617
370
    40
100
AcDbLine
 10
-39.10311578196127
 20
38.04900381552753
 30
0.0
 11
-39.48243022640571
 21
40.74796781552751
 31
0.0
  0
LINE
  5
186
330
2
100
AcDbEntity
  8
GAIKEI
 62
     7
370
    40
100
AcDbLine
 10
-31.97709178196124
 20
35.65705425997197
 30
0.0
 11
-38.67260733751681
 21
37.55525692663866
 31
0.0
  0
LINE
  5
187
330
2
100
AcDbEntity
  8
GAIKEI
 62
     7
370
    40
100
AcDbLine
 10
-25.01978889307236
 20
35.65705425997197
 30
0.0
 11
-18.32427355973903
 21
37.55525692663866
 31
0.0
  0
ARC
  5
188
330
2
100
AcDbEntity
  8
GAIKEI
 62
     7
370
    40
100
AcDbCircle
 10
-17.61347711529458
 20
40.76188381552753
 30
0.0
 40
0.1
100
AcDbArc
 50
351.999999999999
 51
89.43691499999824
  0
ARC
  5
189
330
2
100
AcDbEntity
  8
GAIKEI
 62
     7
370
    40
100
AcDbCircle
 10
-39.38340355973906
 20
40.76188381552753
 30
0.0
 40
0.1
100
AcDbArc
 50
90.56309000000272
 51
188.0000000000009
  0
LINE
  5
18A
330
2
100
AcDbEntity
  8
GAIKEI
 62
     7
 48
0.306617
370
    40
100
AcDbLine
 10
-17.89376511529463
 20
38.04900381552753
 30
0.0
 11
-17.51445067085018
 21
40.74796781552751
 31
0.0
  0
LINE
  5
18B
330
2
100
AcDbEntity
  8
GAIKEI
 62
     7
 48
0.01679
370
    40
100
AcDbLine
 10
-30.74844044862795
 20
27.06188381552752
 30
0.0
 11
-30.85397089307236
 21
27.16741425997199
 31
0.0
  0
ARC
  5
18C
330
2
100
AcDbEntity
  8
GAIKEI
 62
     7
370
    40
100
AcDbCircle
 10
-32.24984578196126
 20
34.69497092663863
 30
0.0
 40
1.0
100
AcDbArc
 50
2.999999999998716
 51
74.17177699999863
  0
LINE
  5
18D
330
2
100
AcDbEntity
  8
GAIKEI
 62
     7
 48
0.01679
370
    40
100
AcDbLine
 10
-26.24844044862795
 20
27.06188381552752
 30
0.0
 11
-26.14290978196129
 21
27.16741425997199
 31
0.0
  0
ARC
  5
18E
330
2
100
AcDbEntity
  8
GAIKEI
 62
     7
370
    40
100
AcDbCircle
 10
-24.74703511529458
 20
34.69497092663863
 30
0.0
 40
1.0
100
AcDbArc
 50
105.8282220000003
 51
176.9999950000004
  0
LINE
  5
18F
330
2
100
AcDbEntity
  8
GAIKEI
 62
     7
370
    40
100
AcDbLine
 10
-30.85397089307236
 20
27.16741425997199
 30
0.0
 11
-31.25121644862793
 21
34.74730714886087
 31
0.0
  0
LINE
  5
190
330
2
100
AcDbEntity
  8
GAIKEI
 62
     7
370
    40
100
AcDbLine
 10
-26.14290978196129
 20
27.16741425997199
 30
0.0
 11
-25.74566444862796
 21
34.74730714886087
 31
0.0
  0
LINE
  5
191
330
2
100
AcDbEntity
  8
GAIKEI
 62
     1
 48
0.016128
370
    40
100
AcDbLine
 10
-26.59844044862791
 20
26.84852314886084
 30
0.0
 11
-26.59844044862791
 21
26.99188403774977
 31
0.0
  0
LINE
  5
192
330
2
100
AcDbEntity
  8
GAIKEI
 62
     1
 48
0.016128
370
    40
100
AcDbLine
 10
-30.39844044862793
 20
26.84852314886084
 30
0.0
 11
-30.39844044862793
 21
26.99188403774977
 31
0.0
  0
ARC
  5
193
330
2
100
AcDbEntity
  8
GAIKEI
 62
     7
370
    40
100
AcDbCircle
 10
-26.28844044862797
 20
27.0318833710831
 30
0.0
 40
0.04
100
AcDbArc
 50
270.0000010000014
 51
0.0
  0
ARC
  5
194
330
2
100
AcDbEntity
  8
GAIKEI
 62
     7
370
    40
100
AcDbCircle
 10
-30.70844044862793
 20
27.0318833710831
 30
0.0
 40
0.04
100
AcDbArc
 50
180.0000050000005
 51
270.0000010000014
  0
LINE
  5
195
330
2
100
AcDbEntity
  8
GAIKEI
 62
     1
 48
0.4972500000000001
370
    40
100
AcDbLine
 10
-30.70844044862793
 20
26.99188403774977
 30
0.0
 11
-26.28844044862797
 21
26.99188403774977
 31
0.0
  0
LINE
  5
196
330
2
100
AcDbEntity
  8
GAIKEI
 62
     7
 48
0.003375
370
    40
100
AcDbLine
 10
-30.74844044862795
 20
27.06188381552752
 30
0.0
 11
-30.74844044862795
 21
27.0318833710831
 31
0.0
  0
LINE
  5
197
330
2
100
AcDbEntity
  8
GAIKEI
 62
     7
 48
0.003375
370
    40
100
AcDbLine
 10
-26.24844044862795
 20
27.06188381552752
 30
0.0
 11
-26.24844044862795
 21
27.0318833710831
 31
0.0
  0
ARC
  5
198
330
2
100
AcDbEntity
  8
GAIKEI
 62
     1
370
    40
100
AcDbCircle
 10
-34.2847208930724
 20
40.76188381552753
 30
0.0
 40
0.1
100
AcDbArc
 50
89.19867099999761
 51
90.00000299999769
  0
LINE
  5
199
330
2
100
AcDbEntity
  8
GAIKEI
 62
     1
 48
0.315389
370
    40
100
AcDbLine
 10
-27.09671022640572
 20
40.86188381552753
 30
0.0
 11
-29.90017067085012
 21
40.86188381552753
 31
0.0
  0
LINE
  5
19A
330
2
100
AcDbEntity
  8
GAIKEI
 62
     1
370
    13
100
AcDbLine
 10
-39.10311578196127
 20
38.04900381552753
 30
0.0
 11
-23.41428822640569
 21
38.04900381552753
 31
0.0
  0
POLYLINE
  5
19B
330
2
100
AcDbEntity
  8
GAIKEI
 62
     7
370
    13
100
AcDb2dPolyline
 66
     1
 10
0.0
 20
0.0
 30
0.0
  0
VERTEX
  5
19C
330
19B
100
AcDbEntity
  8
GAIKEI
 62
     7
370
     0
100
AcDbVertex
100
AcDb2dVertex
 10
-39.20469489307237
 20
40.8618775933053
 30
0.0
  0
VERTEX
  5
19D
330
19B
100
AcDbEntity
  8
GAIKEI
 62
     7
370
     0
100
AcDbVertex
100
AcDb2dVertex
 10
-39.20489489307238
 20
40.8618775933053
 30
0.0
  0
VERTEX
  5
19E
330
19B
100
AcDbEntity
  8
GAIKEI
 62
     7
370
     0
100
AcDbVertex
100
AcDb2dVertex
 10
-39.20493067085016
 20
40.8618775933053
 30
0.0
  0
SEQEND
  5
19F
330
19B
100
AcDbEntity
  8
GAIKEI
 62
     7
370
     0
  0
SPLINE
  5
1A0
330
2
100
AcDbEntity
  8
GAIKEI
 62
     1
370
    13
100
AcDbSpline
210
0.0
220
0.0
230
1.0
 70
     8
 71
     3
 72
    58
 73
    54
 74
     0
 42
0.0000000001
 43
0.0000000001
 40
0.0
 40
0.0
 40
0.0
 40
0.0
 40
0.1682268391791158
 40
0.3566185988706026
 40
0.5727945027184629
 40
0.8167490462649723
 40
1.083106279443378
 40
1.36484299684171
 40
1.655915696393914
 40
1.951310978861518
 40
2.247791874558284
 40
2.543996928930032
 40
2.838975335598994
 40
3.132128082904788
 40
3.423195636446963
 40
3.71213297601532
 40
3.998983649754168
 40
4.28378426641711
 40
4.566615490702041
 40
4.8476307631179
 40
5.127036910377632
 40
5.405074911993099
 40
5.682000278681277
 40
5.958062911129547
 40
6.233486309883174
 40
6.508446237914385
 40
6.783079582582936
 40
7.057554907806311
 40
7.33207629657759
 40
7.606870843267398
 40
7.882177874065805
 40
8.158238526211219
 40
8.435285611611009
 40
8.713533688293424
 40
8.993169249824493
 40
9.274331196596168
 40
9.557142340263522
 40
9.841788620591874
 40
10.1284725791508
 40
10.41734905788891
 40
10.70846149322772
 40
11.00168414075951
 40
11.2967971533462
 40
11.59328513441886
 40
11.88996040778277
 40
12.18485327140707
 40
12.47515138252252
 40
12.75681600204071
 40
13.02347325307551
 40
13.26781217170448
 40
13.48416563380163
 40
13.6724402073076
 40
13.84065042839565
 40
13.84065042839565
 40
13.84065042839565
 40
13.84065042839565
 10
-29.76254905847554
 20
37.06617709269335
 30
0.0
 10
-29.7627858635729
 20
37.05486680834173
 30
0.0
 10
-29.75901606300977
 20
37.03102332320151
 30
0.0
 10
-29.74160960401514
 20
36.99646376206832
 30
0.0
 10
-29.7136109604213
 20
36.96318056100845
 30
0.0
 10
-29.67666629977634
 20
36.93162194048188
 30
0.0
 10
-29.63267790282703
 20
36.90225451155209
 30
0.0
 10
-29.58357495736715
 20
36.87533563055499
 30
0.0
 10
-29.5310487633314
 20
36.85094343424765
 30
0.0
 10
-29.47640695341397
 20
36.82899486413385
 30
0.0
 10
-29.42055364407975
 20
36.80931021347323
 30
0.0
 10
-29.36405427330243
 20
36.79167167379711
 30
0.0
 10
-29.30724777253005
 20
36.77586699901073
 30
0.0
 10
-29.25036207802941
 20
36.76171421259108
 30
0.0
 10
-29.19353893049351
 20
36.74905661994001
 30
0.0
 10
-29.13685883418395
 20
36.73776023959846
 30
0.0
 10
-29.08036901175774
 20
36.72771290337005
 30
0.0
 10
-29.02409826852909
 20
36.71882188465512
 30
0.0
 10
-28.96806080927388
 20
36.71100942246034
 30
0.0
 10
-28.91225406508807
 20
36.7042093853822
 30
0.0
 10
-28.85666056871696
 20
36.69836607831297
 30
0.0
 10
-28.80125278800387
 20
36.69343341531825
 30
0.0
 10
-28.74599781268921
 20
36.68937412768665
 30
0.0
 10
-28.69086199979347
 20
36.68615895675458
 30
0.0
 10
-28.63581561815329
 20
36.68376583608256
 30
0.0
 10
-28.58083546891931
 20
36.68217904496819
 30
0.0
 10
-28.52590135053083
 20
36.68138832893698
 30
0.0
 10
-28.47099078810015
 20
36.68138824045247
 30
0.0
 10
-28.41607515486072
 20
36.68217841855386
 30
0.0
 10
-28.36112122732726
 20
36.6837638551053
 30
0.0
 10
-28.30609370557852
 20
36.68615523970584
 30
0.0
 10
-28.25095760266163
 20
36.68936928552458
 30
0.0
 10
-28.19568061440924
 20
36.69342905961199
 30
0.0
 10
-28.14023549666422
 20
36.69836430231956
 30
0.0
 10
-28.08460313158713
 20
36.7042117053627
 30
0.0
 10
-28.0287729119695
 20
36.71101534158791
 30
0.0
 10
-27.97273742854833
 20
36.71882858139907
 30
0.0
 10
-27.9164892787785
 20
36.72771684313989
 30
0.0
 10
-27.86002457256058
 20
36.73775996385939
 30
0.0
 10
-27.80335639402637
 20
36.74905380857712
 30
0.0
 10
-27.74652963445948
 20
36.76171172191585
 30
0.0
 10
-27.68962773926222
 20
36.77586827116778
 30
0.0
 10
-27.63278996834634
 20
36.79168182957906
 30
0.0
 10
-27.57625213766187
 20
36.80933417853757
 30
0.0
 10
-27.52040175282969
 20
36.82902220184335
 30
0.0
 10
-27.46582841049838
 20
36.85094737500856
 30
0.0
 10
-27.41338294448502
 20
36.87529923537198
 30
0.0
 10
-27.36430724678087
 20
36.90219171354468
 30
0.0
 10
-27.32027810785041
 20
36.93157165397991
 30
0.0
 10
-27.28328354538911
 20
36.96316129571349
 30
0.0
 10
-27.25526672247941
 20
36.99646886314281
 30
0.0
 10
-27.23786222603263
 20
37.03103264338182
 30
0.0
 10
-27.23409743452629
 20
37.05486744983583
 30
0.0
 10
-27.23433366517082
 20
37.06617665144967
 30
0.0
  0
SPLINE
  5
1A1
330
2
100
AcDbEntity
  8
GAIKEI
 62
     1
370
    13
100
AcDbSpline
210
0.0
220
0.0
230
1.0
 70
     8
 71
     3
 72
    58
 73
    54
 74
     0
 42
0.0000000001
 43
0.0000000001
 40
0.0
 40
0.0
 40
0.0
 40
0.0
 40
0.1484795664556796
 40
0.3018807343418191
 40
0.4669326455868587
 40
0.6465686785804566
 40
0.8413440374375221
 40
1.05083983712236
 40
1.274277458663409
 40
1.510584915472569
 40
1.758649938493375
 40
2.017417587292301
 40
2.28591629108733
 40
2.563243904389186
 40
2.848547574558321
 40
3.141028731619683
 40
3.43994707768998
 40
3.744618637947072
 40
4.054409837832822
 40
4.368728690187968
 40
4.687013882808825
 40
5.008722354317352
 40
5.33331581042778
 40
5.660246561509529
 40
5.988957547973991
 40
6.318917460721103
 40
6.649613379895292
 40
6.980543067259196
 40
7.311210338618201
 40
7.641120342106545
 40
7.969774830639801
 40
8.296667519114031
 40
8.621279622593879
 40
8.943075681313406
 40
9.261499763327007
 40
9.575970350865455
 40
9.885889059907464
 40
10.19064798346601
 40
10.48961418617333
 40
10.78211424364446
 40
11.06742179469558
 40
11.34474929947714
 40
11.61324727898217
 40
11.87201342605676
 40
12.12007664461547
 40
12.35638272082119
 40
12.57981977412196
 40
12.78931532904519
 40
12.9840898610151
 40
13.16372491154305
 40
13.32877636874814
 40
13.48217758456673
 40
13.63065696429326
 40
13.63065696429326
 40
13.63065696429326
 40
13.63065696429326
 10
-27.23433362977687
 20
37.06617657467627
 30
0.0
 10
-27.23454346540985
 20
37.0761457540724
 30
0.0
 10
-27.23813347147768
 20
37.09620406330734
 30
0.0
 10
-27.25205766470208
 20
37.12443372864581
 30
0.0
 10
-27.2729841986598
 20
37.15045576458405
 30
0.0
 10
-27.29983879353563
 20
37.17455272205405
 30
0.0
 10
-27.33179838264425
 20
37.19689947801754
 30
0.0
 10
-27.36819570482044
 20
37.21764175562282
 30
0.0
 10
-27.40847952554748
 20
37.23689098169737
 30
0.0
 10
-27.452182965178
 20
37.25474244690631
 30
0.0
 10
-27.4989021447692
 20
37.27127530339743
 30
0.0
 10
-27.54829181294781
 20
37.28655914006052
 30
0.0
 10
-27.60005540703878
 20
37.30065542426036
 30
0.0
 10
-27.65393370745977
 20
37.3136185546351
 30
0.0
 10
-27.709696267146
 20
37.32549521934513
 30
0.0
 10
-27.76713570964233
 20
37.33632629921863
 30
0.0
 10
-27.82606500781327
 20
37.34614784208449
 30
0.0
 10
-27.88631505046067
 20
37.35499122507503
 30
0.0
 10
-27.94773188956174
 20
37.36288352894832
 30
0.0
 10
-28.01017381467529
 20
37.36984784469357
 30
0.0
 10
-28.07350828497158
 20
37.37590359827368
 30
0.0
 10
-28.13760876498543
 20
37.38106687386616
 30
0.0
 10
-28.20235150068408
 20
37.3853507370136
 30
0.0
 10
-28.26761323900774
 20
37.38876562710848
 30
0.0
 10
-28.33327227754921
 20
37.39131973537792
 30
0.0
 10
-28.39921002976661
 20
37.39301912361526
 30
0.0
 10
-28.46531210474604
 20
37.39386798720281
 30
0.0
 10
-28.53146677518521
 20
37.39386852648309
 30
0.0
 10
-28.59756362749914
 20
37.39302088664911
 30
0.0
 10
-28.66349241278175
 20
37.39132309677399
 30
0.0
 10
-28.72914188994059
 20
37.38877101251819
 30
0.0
 10
-28.79439867094993
 20
37.38535825856136
 30
0.0
 10
-28.85914607823475
 20
37.38107617360973
 30
0.0
 10
-28.92326302206181
 20
37.37591375090074
 30
0.0
 10
-28.98662278685487
 20
37.36985761216121
 30
0.0
 10
-29.04909260157643
 20
37.36289183489089
 30
0.0
 10
-29.11053380725468
 20
37.35499734756562
 30
0.0
 10
-29.17080121213258
 20
37.34615160692138
 30
0.0
 10
-29.22974058812503
 20
37.33632801181369
 30
0.0
 10
-29.28718455622084
 20
37.32549551694001
 30
0.0
 10
-29.34294852223366
 20
37.31361821276923
 30
0.0
 10
-29.39682701427125
 20
37.30065501502151
 30
0.0
 10
-29.44859044311602
 20
37.2865587143888
 30
0.0
 10
-29.49797984061843
 20
37.27127491288224
 30
0.0
 10
-29.54469870889454
 20
37.25474211304186
 30
0.0
 10
-29.58840189765203
 20
37.23689069618103
 30
0.0
 10
-29.628685572015
 20
37.21764150370814
 30
0.0
 10
-29.66508278102265
 20
37.19689924715061
 30
0.0
 10
-29.69704222938697
 20
37.1745525300251
 30
0.0
 10
-29.72389669061135
 20
37.15045564976828
 30
0.0
 10
-29.74482314481418
 20
37.12443367396827
 30
0.0
 10
-29.75874734247475
 20
37.09620405187084
 30
0.0
 10
-29.76233732372606
 20
37.07614574845161
 30
0.0
 10
-29.76254716107201
 20
37.06617658110327
 30
0.0
  0
ARC
  5
1A2
330
2
100
AcDbEntity
  8
GAIKEI
 62
     1
370
    40
100
AcDbCircle
 10
-27.93488978196126
 20
36.27607603774973
 30
0.0
 40
0.0074955555555556
100
AcDbArc
 50
14.8041989999973
 51
76.23786799999841
  0
ARC
  5
1A3
330
2
100
AcDbEntity
  8
GAIKEI
 62
     1
370
    40
100
AcDbCircle
 10
-17.5211371152946
 20
58.83300181552755
 30
0.0
 40
24.83730933333334
100
AcDbArc
 50
243.8595550000031
 51
245.2155120000006
  0
SPLINE
  5
1A4
330
2
100
AcDbEntity
  8
GAIKEI
 62
     1
370
    40
100
AcDbSpline
210
0.0
220
0.0
230
1.0
 70
     8
 71
     3
 72
    42
 73
    38
 74
     0
 42
0.0000000001
 43
0.0000000001
 40
0.0
 40
0.0
 40
0.0
 40
0.0
 40
0.0091849826437009
 40
0.0186578165316666
 40
0.0283512666558273
 40
0.0381961060277969
 40
0.0481405982909309
 40
0.058166705601112
 40
0.0682726258784346
 40
0.0784416701210664
 40
0.0886601844500857
 40
0.0989187667574413
 40
0.1092113950022929
 40
0.1195344588836399
 40
0.1298857222426248
 40
0.1402632353337685
 40
0.1506642107469839
 40
0.1610838732741894
 40
0.1715143327537409
 40
0.181946672757303
 40
0.1923754346309849
 40
0.2027964807106185
 40
0.2132061777097026
 40
0.2236008681365172
 40
0.2339763520752929
 40
0.2443273838294405
 40
0.2546471364458232
 40
0.2649244617987005
 40
0.2751470292167823
 40
0.2853067736086519
 40
0.2953966160596141
 40
0.3054067056615624
 40
0.3153209344867556
 40
0.3251138767702977
 40
0.3347581049828359
 40
0.3442161698755836
 40
0.3534013202063607
 40
0.3534013202063607
 40
0.3534013202063607
 40
0.3534013202063607
 10
-28.53308141720754
 20
36.53610608833094
 30
0.0
 10
-28.53253126768021
 20
36.536375410213
 30
0.0
 10
-28.5313937337848
 20
36.53688050338315
 30
0.0
 10
-28.52962450411667
 20
36.53754789761391
 30
0.0
 10
-28.52778503687159
 20
36.53814714817761
 30
0.0
 10
-28.52589400447113
 20
36.53868459596666
 30
0.0
 10
-28.52396496762657
 20
36.5391651995738
 30
0.0
 10
-28.52200599433388
 20
36.53959394037585
 30
0.0
 10
-28.52002217113215
 20
36.53997592156097
 30
0.0
 10
-28.51801752787685
 20
36.54031464842396
 30
0.0
 10
-28.51599620848276
 20
36.54061295284004
 30
0.0
 10
-28.51396134639117
 20
36.54087317992395
 30
0.0
 10
-28.51191519174989
 20
36.54109728798378
 30
0.0
 10
-28.50985935469515
 20
36.54128687070201
 30
0.0
 10
-28.5077950535981
 20
36.54144319398111
 30
0.0
 10
-28.5057233630917
 20
36.54156722921539
 30
0.0
 10
-28.50364546277592
 20
36.54165968756246
 30
0.0
 10
-28.50156288330783
 20
36.54172105515349
 30
0.0
 10
-28.49947753446895
 20
36.54175162790457
 30
0.0
 10
-28.49739135539602
 20
36.54175154006381
 30
0.0
 10
-28.49530603003058
 20
36.54172079461665
 30
0.0
 10
-28.4932228956954
 20
36.5416592241109
 30
0.0
 10
-28.49114318743261
 20
36.54156647643691
 30
0.0
 10
-28.4890681757019
 20
36.54144200016612
 30
0.0
 10
-28.48699928534273
 20
36.54128503073929
 30
0.0
 10
-28.48493821774093
 20
36.54109457788485
 30
0.0
 10
-28.48288722460137
 20
36.54086942612983
 30
0.0
 10
-28.48084914197136
 20
36.54060813956756
 30
0.0
 10
-28.47882704196627
 20
36.54030895685102
 30
0.0
 10
-28.47682393979705
 20
36.53996964408313
 30
0.0
 10
-28.4748429824038
 20
36.53958737311985
 30
0.0
 10
-28.47288826122826
 20
36.5391586604197
 30
0.0
 10
-28.47096566916207
 20
36.53867929116524
 30
0.0
 10
-28.46908308583102
 20
36.53814415512821
 30
0.0
 10
-28.46725114016641
 20
36.53754673891686
 30
0.0
 10
-28.46548617591589
 20
36.53688012040726
 30
0.0
 10
-28.46434954114011
 20
36.53637541412877
 30
0.0
 10
-28.46379938361383
 20
36.53610608833088
 30
0.0
  0
ARC
  5
1A5
330
2
100
AcDbEntity
  8
GAIKEI
 62
     1
370
    40
100
AcDbCircle
 10
-39.47574378196128
 20
58.83300181552755
 30
0.0
 40
24.83730933333334
100
AcDbArc
 50
294.7844899999976
 51
296.1404460000025
  0
ARC
  5
1A6
330
2
100
AcDbEntity
  8
GAIKEI
 62
     1
370
    40
100
AcDbCircle
 10
-29.06199067085015
 20
36.27607603774973
 30
0.0
 40
0.0074957777777778
100
AcDbArc
 50
103.762983999999
 51
165.1931100000008
  0
LINE
  5
1A7
330
2
100
AcDbEntity
  8
GAIKEI
 62
     1
370
    13
100
AcDbLine
 10
-38.67260733751681
 20
37.55525692663866
 30
0.0
 11
-23.62068467085015
 21
37.55525692663866
 31
0.0
  0
LINE
  5
1A8
330
2
100
AcDbEntity
  8
GAIKEI
 62
     1
370
    13
100
AcDbLine
 10
-18.32427355973903
 20
37.55525692663866
 30
0.0
 11
-23.62068467085015
 21
37.55525692663866
 31
0.0
  0
LINE
  5
1A9
330
2
100
AcDbEntity
  8
GAIKEI
 62
     7
 48
0.000622
370
    40
100
AcDbLine
 10
-39.20493067085016
 20
40.8618775933053
 30
0.0
 11
-39.19940089307238
 21
40.86188381552753
 31
0.0
  0
LINE
  5
1AA
330
2
100
AcDbEntity
  8
GAIKEI
 62
     7
 48
0.020133
370
    40
100
AcDbLine
 10
-39.38388800418346
 20
40.8618775933053
 30
0.0
 11
-39.20493067085016
 21
40.8618775933053
 31
0.0
  0
LINE
  5
1AB
330
2
100
AcDbEntity
  8
GAIKEI
 62
     7
 48
0.000622
370
    40
100
AcDbLine
 10
-39.20493067085016
 20
40.8618775933053
 30
0.0
 11
-39.19940089307238
 21
40.86188381552753
 31
0.0
  0
LINE
  5
1AC
330
2
100
AcDbEntity
  8
GAIKEI
 62
     7
370
    40
100
AcDbLine
 10
-17.61249436239251
 20
40.8618789863946
 30
0.0
 11
-39.19940089307238
 21
40.86188381552753
 31
0.0
  0
LINE
  5
1AD
330
2
100
AcDbEntity
  8
GAIKEI
 62
     1
370
    13
100
AcDbLine
 10
-17.89376511529463
 20
38.04900381552753
 30
0.0
 11
-23.41428822640569
 21
38.04900381552753
 31
0.0
  0
LINE
  5
1AE
330
2
100
AcDbEntity
  8
GAIKEI
 62
     1
370
    13
100
AcDbLine
 10
-31.97709178196124
 20
35.65705425997197
 30
0.0
 11
-26.83068600418352
 21
35.65705425997197
 31
0.0
  0
LINE
  5
1AF
330
2
100
AcDbEntity
  8
GAIKEI
 62
     1
 48
0.203726
370
    13
100
AcDbLine
 10
-25.01978889307236
 20
35.65705425997197
 30
0.0
 11
-26.83068600418352
 21
35.65705425997197
 31
0.0
  0
LINE
  5
1B0
330
2
100
AcDbEntity
  8
GAIKEI
 62
     1
 48
0.4581590000000001
370
    13
100
AcDbLine
 10
-31.25121644862793
 20
34.74730714886087
 30
0.0
 11
-27.1786893375168
 21
34.74730714886087
 31
0.0
  0
LINE
  5
1B1
330
2
100
AcDbEntity
  8
GAIKEI
 62
     1
 48
0.161215
370
    13
100
AcDbLine
 10
-25.74566444862796
 20
34.74730714886087
 30
0.0
 11
-27.1786893375168
 21
34.74730714886087
 31
0.0
  0
LINE
  5
1B2
330
2
100
AcDbEntity
  8
GAIKEI
 62
     7
 48
0.01591
370
    40
100
AcDbLine
 10
-26.09844044862791
 20
26.74852403774975
 30
0.0
 11
-26.19844044862793
 21
26.84852403774977
 31
0.0
  0
LINE
  5
1B3
330
2
100
AcDbEntity
  8
GAIKEI
 62
     7
 48
0.070809
370
    40
100
AcDbLine
 10
-30.88551867085016
 20
25.81915981552751
 30
0.0
 11
-30.89165555973904
 21
26.44854292663865
 31
0.0
  0
LINE
  5
1B4
330
2
100
AcDbEntity
  8
GAIKEI
 62
     7
 48
0.070809
370
    40
100
AcDbLine
 10
-30.88551867085016
 20
25.81915981552751
 30
0.0
 11
-30.89165555973904
 21
26.44854692663864
 31
0.0
  0
LINE
  5
1B5
330
2
100
AcDbEntity
  8
GAIKEI
 62
     7
 48
0.070809
370
    40
100
AcDbLine
 10
-26.11136200418349
 20
25.81915981552751
 30
0.0
 11
-26.10522511529462
 21
26.44854292663865
 31
0.0
  0
LINE
  5
1B6
330
2
100
AcDbEntity
  8
GAIKEI
 62
     7
 48
0.070809
370
    40
100
AcDbLine
 10
-26.11136200418349
 20
25.81915981552751
 30
0.0
 11
-26.10522511529462
 21
26.44854692663864
 31
0.0
  0
LINE
  5
1B7
330
2
100
AcDbEntity
  8
GAIKEI
 62
     7
 48
0.03375
370
    40
100
AcDbLine
 10
-26.09844044862791
 20
26.44852403774974
 30
0.0
 11
-26.09844044862791
 21
26.74852403774975
 31
0.0
  0
LINE
  5
1B8
330
2
100
AcDbEntity
  8
GAIKEI
 62
     1
 48
0.388125
370
    40
100
AcDbLine
 10
-30.79844044862796
 20
26.84852403774977
 30
0.0
 11
-27.34844044862791
 21
26.84852403774977
 31
0.0
  0
LINE
  5
1B9
330
2
100
AcDbEntity
  8
GAIKEI
 62
     1
 48
0.129375
370
    40
100
AcDbLine
 10
-27.34844044862791
 20
26.84852403774977
 30
0.0
 11
-26.19844022640575
 21
26.84852403774977
 31
0.0
  0
LINE
  5
1BA
330
2
100
AcDbEntity
  8
GAIKEI
 62
     7
 48
0.070809
370
    13
100
AcDbLine
 10
-30.88534044862792
 20
25.81914470441643
 30
0.0
 11
-30.89148133751684
 21
26.44852403774974
 31
0.0
  0
LINE
  5
1BB
330
2
100
AcDbEntity
  8
GAIKEI
 62
     7
 48
0.01591
370
    40
100
AcDbLine
 10
-30.89844044862792
 20
26.74852403774975
 30
0.0
 11
-30.79844044862796
 21
26.84852403774977
 31
0.0
  0
LINE
  5
1BC
330
2
100
AcDbEntity
  8
GAIKEI
 62
     7
 48
0.03375
370
    40
100
AcDbLine
 10
-30.89844044862792
 20
26.44852403774974
 30
0.0
 11
-30.89844044862792
 21
26.74852403774975
 31
0.0
  0
ARC
  5
1BD
330
2
100
AcDbEntity
  8
GAIKEI
 62
     7
370
    40
100
AcDbCircle
 10
33.26112377359431
 20
22.07514981552754
 30
0.0
 40
50.72847288888889
100
AcDbArc
 50
179.2456110000015
 51
180.0440729999987
  0
ARC
  5
1BE
330
2
100
AcDbEntity
  8
GAIKEI
 62
     7
370
    40
100
AcDbCircle
 10
-21.30350400418348
 20
22.79193892663863
 30
0.0
 40
3.840964444444444
100
AcDbArc
 50
359.2707370000014
 51
3.211770000001574
  0
SPLINE
  5
1BF
330
2
100
AcDbEntity
  8
GAIKEI
 62
     7
370
    40
100
AcDbSpline
210
0.0
220
0.0
230
1.0
 70
     8
 71
     3
 72
    31
 73
    27
 74
     0
 42
0.0000000001
 43
0.0000000001
 40
0.0
 40
0.0
 40
0.0
 40
0.0
 40
0.561771012264241
 40
1.112897611924944
 40
1.654943545307411
 40
2.189319960395377
 40
2.71683732730623
 40
3.238291215769836
 40
3.754239038103561
 40
4.265141619333498
 40
4.771252368961664
 40
5.272982712660673
 40
5.770540454072635
 40
6.264055336842476
 40
6.753468612587762
 40
7.239033998377625
 40
7.720826434996374
 40
8.198865323084813
 40
8.67308157103751
 40
9.143751192908593
 40
9.6110180278179
 40
10.07495937981842
 40
10.53547447973291
 40
10.99271649911608
 40
11.44670179240758
 40
11.89747011836266
 40
11.89747011836266
 40
11.89747011836266
 40
11.89747011836266
 10
-18.45853326761619
 20
25.10347755422805
 30
0.0
 10
-18.43060804543199
 20
25.07851468944983
 30
0.0
 10
-18.37625086266837
 20
25.02799576446335
 30
0.0
 10
-18.29834839754994
 20
24.94982967985146
 30
0.0
 10
-18.22467401404071
 20
24.87014044158911
 30
0.0
 10
-18.15500521696617
 20
24.78899106555966
 30
0.0
 10
-18.08917317955098
 20
24.70644957764978
 30
0.0
 10
-18.02705393047296
 20
24.62260417107655
 30
0.0
 10
-17.9685430180516
 20
24.53754411955904
 30
0.0
 10
-17.91356108880711
 20
24.45137328214867
 30
0.0
 10
-17.8620363882311
 20
24.36419176235859
 30
0.0
 10
-17.81390770019959
 20
24.27610364334928
 30
0.0
 10
-17.76911880180842
 20
24.18721130349982
 30
0.0
 10
-17.7276266311336
 20
24.09763795381795
 30
0.0
 10
-17.68938309769953
 20
24.00749861095582
 30
0.0
 10
-17.65434008139016
 20
23.91690544807346
 30
0.0
 10
-17.6224442343053
 20
23.82596067923947
 30
0.0
 10
-17.59364805500547
 20
23.73478108074278
 30
0.0
 10
-17.56789837591486
 20
23.6434654421561
 30
0.0
 10
-17.54513702130703
 20
23.55209983375062
 30
0.0
 10
-17.52530453143225
 20
23.46075531730386
 30
0.0
 10
-17.50834567562845
 20
23.36952282824106
 30
0.0
 10
-17.49420357650422
 20
23.27848811395535
 30
0.0
 10
-17.48282141247273
 20
23.18773680028309
 30
0.0
 10
-17.47414100967262
 20
23.09733964686822
 30
0.0
 10
-17.47010196520398
 20
23.03715146744727
 30
0.0
 10
-17.46851738731368
 20
23.00713997358994
 30
0.0
  0
SPLINE
  5
1C0
330
2
100
AcDbEntity
  8
GAIKEI
 62
     7
370
    40
100
AcDbSpline
210
0.0
220
0.0
230
1.0
 70
     8
 71
     3
 72
    39
 73
    35
 74
     0
 42
0.0000000001
 43
0.0000000001
 40
0.0
 40
0.0
 40
0.0
 40
0.0
 40
0.3596124186713496
 40
0.7193868404189519
 40
1.079053597707764
 40
1.438376295273765
 40
1.797149954488672
 40
2.155201674975403
 40
2.512388890428595
 40
2.868599390309474
 40
3.223748928739288
 40
3.577795858785838
 40
3.930809458774869
 40
4.282804595265414
 40
4.633681574932508
 40
4.98335106996677
 40
5.331833820895684
 40
5.679132376845353
 40
6.02497261658504
 40
6.368946391783799
 40
6.710699692288907
 40
7.049896565665224
 40
7.385970852834291
 40
7.71814964769483
 40
8.045523111642831
 40
8.366977518401139
 40
8.681189615079969
 40
8.986423092643416
 40
9.280886481901095
 40
9.5623395876755
 40
9.828550867852236
 40
10.07705481621768
 40
10.30551265063127
 40
10.51192222469371
 40
10.51192222469371
 40
10.51192222469371
 40
10.51192222469371
 10
-20.38736852429054
 20
25.81916006043301
 30
0.0
 10
-20.36339319703836
 20
25.81916006043295
 30
0.0
 10
-20.31543379119688
 20
25.81858489265915
 30
0.0
 10
-20.24353620217403
 20
25.81599664691089
 30
0.0
 10
-20.17174115086243
 20
25.81168499140046
 30
0.0
 10
-20.10013658074115
 20
25.80565775996922
 30
0.0
 10
-20.02880417518907
 20
25.7979273124117
 30
0.0
 10
-19.95781847981857
 20
25.7885097540547
 30
0.0
 10
-19.88724710023769
 20
25.77742413706739
 30
0.0
 10
-19.81715084677307
 20
25.76469172266846
 30
0.0
 10
-19.74758295817798
 20
25.75033500444221
 30
0.0
 10
-19.67858388373918
 20
25.73437581682708
 30
0.0
 10
-19.61018717160789
 20
25.71683414622806
 30
0.0
 10
-19.54242904396125
 20
25.69773308714537
 30
0.0
 10
-19.47535518773202
 20
25.67709894672882
 30
0.0
 10
-19.40901042840812
 20
25.65495784878545
 30
0.0
 10
-19.34343187490236
 20
25.63133603827686
 30
0.0
 10
-19.27866740836356
 20
25.60626471355573
 30
0.0
 10
-19.21478910482119
 20
25.57979018761151
 30
0.0
 10
-19.15188919755076
 20
25.5519703238231
 30
0.0
 10
-19.09006060682702
 20
25.52286994286826
 30
0.0
 10
-19.02940062816913
 20
25.49256708373213
 30
0.0
 10
-18.97002706165585
 20
25.46115841548439
 30
0.0
 10
-18.91208476109682
 20
25.42876819086476
 30
0.0
 10
-18.85574183341293
 20
25.39555012718711
 30
0.0
 10
-18.80118730330304
 20
25.36169027890358
 30
0.0
 10
-18.74864357628831
 20
25.3274201155935
 30
0.0
 10
-18.69835520387738
 20
25.2930136501183
 30
0.0
 10
-18.65059915998438
 20
25.25879863611959
 30
0.0
 10
-18.60565837886361
 20
25.22514319912145
 30
0.0
 10
-18.56382998731408
 20
25.19246247446754
 30
0.0
 10
-18.5253955020479
 20
25.16119287412744
 30
0.0
 10
-18.49060441855977
 20
25.13177571547527
 30
0.0
 10
-18.46880799686755
 20
25.11265829362765
 30
0.0
 10
-18.45854656096389
 20
25.10348943486702
 30
0.0
  0
LINE
  5
1C1
330
2
100
AcDbEntity
  8
GAIKEI
 62
     7
370
    40
100
AcDbLine
 10
-20.38736867085015
 20
25.81915981552751
 30
0.0
 11
-36.60951222640568
 21
25.81915981552751
 31
0.0
  0
SPLINE
  5
1C2
330
2
100
AcDbEntity
  8
GAIKEI
 62
     7
370
    40
100
AcDbSpline
210
0.0
220
0.0
230
1.0
 70
     8
 71
     3
 72
    43
 73
    39
 74
     0
 42
0.0000000001
 43
0.0000000001
 40
0.0
 40
0.0
 40
0.0
 40
0.0
 40
0.1911849981740266
 40
0.4041324230540083
 40
0.6368162042895853
 40
0.8867183828759014
 40
1.151224509769971
 40
1.427823231628808
 40
1.714156923380213
 40
2.008245700730148
 40
2.308378641078342
 40
2.613234975960211
 40
2.92166621554972
 40
3.232813750895672
 40
3.546016205586812
 40
3.860859525208944
 40
4.176982809646719
 40
4.494067180481931
 40
4.811881389323704
 40
5.130326664697
 40
5.449440518143958
 40
5.769243904053782
 40
6.089726789838773
 40
6.410918570105729
 40
6.732921222972575
 40
7.055780852696647
 40
7.379575980150753
 40
7.704303667647473
 40
8.030035149706359
 40
8.356756213405033
 40
8.684345643758963
 40
9.012648082953068
 40
9.341554450231038
 40
9.670990579713427
 40
10.00079799707382
 40
10.33080226711212
 40
10.66082835613822
 40
10.99070047498949
 40
10.99070047498949
 40
10.99070047498949
 40
10.99070047498949
 10
-38.61050878664111
 20
25.04111892001865
 30
0.0
 10
-38.60129607512164
 20
25.04992721479795
 30
0.0
 10
-38.58165316161001
 20
25.06836891481882
 30
0.0
 10
-38.55019159308017
 20
25.0968777012159
 30
0.0
 10
-38.51526500631564
 20
25.12738105789194
 30
0.0
 10
-38.4771338582168
 20
25.15942754386106
 30
0.0
 10
-38.43610412850472
 20
25.19256033328958
 30
0.0
 10
-38.39249633657932
 20
25.22634923438278
 30
0.0
 10
-38.34662063402385
 20
25.26041192481634
 30
0.0
 10
-38.2987647948799
 20
25.29441854563342
 30
0.0
 10
-38.24918012160078
 20
25.32810129436362
 30
0.0
 10
-38.1980875374652
 20
25.36124154900571
 30
0.0
 10
-38.14567304323646
 20
25.39366742751855
 30
0.0
 10
-38.09209531236758
 20
25.42524349205428
 30
0.0
 10
-38.03747838990381
 20
25.45586979233192
 30
0.0
 10
-37.98192238280114
 20
25.48546987494419
 30
0.0
 10
-37.92551166294322
 20
25.51398506316278
 30
0.0
 10
-37.86832245392378
 20
25.54136677637607
 30
0.0
 10
-37.81041698342136
 20
25.56757701229987
 30
0.0
 10
-37.751837082436
 20
25.59258969331242
 30
0.0
 10
-37.692610063649
 20
25.61638701026467
 30
0.0
 10
-37.63275778349248
 20
25.63895288721494
 30
0.0
 10
-37.572302747072
 20
25.6602706659977
 30
0.0
 10
-37.51126231336707
 20
25.68032428898923
 30
0.0
 10
-37.44965065160176
 20
25.69909866583521
 30
0.0
 10
-37.38747868299885
 20
25.71657760452715
 30
0.0
 10
-37.32476521308598
 20
25.73274513881344
 30
0.0
 10
-37.26152803785516
 20
25.74758657297511
 30
0.0
 10
-37.19779104317547
 20
25.76108425947567
 30
0.0
 10
-37.13358673261018
 20
25.77322087684362
 30
0.0
 10
-37.06896307790476
 20
25.78397755809601
 30
0.0
 10
-37.00397484647254
 20
25.7933352968735
 30
0.0
 10
-36.93867444611544
 20
25.80127761428383
 30
0.0
 10
-36.87311536809784
 20
25.80779229687687
 30
0.0
 10
-36.80735579690605
 20
25.81286844942269
 30
0.0
 10
-36.74146123095443
 20
25.81649791424514
 30
0.0
 10
-36.67549808338947
 20
25.81867601633553
 30
0.0
 10
-36.63150465123073
 20
25.81916000227077
 30
0.0
 10
-36.60951227664009
 20
25.81916001308218
 30
0.0
  0
SPLINE
  5
1C3
330
2
100
AcDbEntity
  8
GAIKEI
 62
     7
370
    40
100
AcDbSpline
210
0.0
220
0.0
230
1.0
 70
     8
 71
     3
 72
    31
 73
    27
 74
     0
 42
0.0000000001
 43
0.0000000001
 40
0.0
 40
0.0
 40
0.0
 40
0.0
 40
0.4435160996749522
 40
0.8892557607644903
 40
1.337140920177579
 40
1.787126982995347
 40
2.23932874798276
 40
2.693639058005121
 40
3.150104062306186
 40
3.608798100097653
 40
4.069945326686732
 40
4.533556144275421
 40
4.999778819601329
 40
5.468772735215133
 40
5.940849529473981
 40
6.416094964532305
 40
6.894755608076163
 40
7.37711877548991
 40
7.863630692867297
 40
8.354552921447938
 40
8.850302587062611
 40
9.351488363317756
 40
9.85902452940718
 40
10.37386426000659
 40
10.89730170149124
 40
11.43187747480745
 40
11.43187747480745
 40
11.43187747480745
 40
11.43187747480745
 10
-39.52846654521631
 20
23.00605808464368
 30
0.0
 10
-39.52692548208734
 20
23.03558760200747
 30
0.0
 10
-39.52300795478857
 20
23.09474803327242
 30
0.0
 10
-39.514618267397
 20
23.18350757942355
 30
0.0
 10
-39.50366316940955
 20
23.27242122748712
 30
0.0
 10
-39.49010654132968
 20
23.3614118215437
 30
0.0
 10
-39.47391429027141
 20
23.45039641850468
 30
0.0
 10
-39.45505320080775
 20
23.53929567563071
 30
0.0
 10
-39.43349268179935
 20
23.62802486096467
 30
0.0
 10
-39.40919813413325
 20
23.71651779891704
 30
0.0
 10
-39.38213521017189
 20
23.80470251127463
 30
0.0
 10
-39.35226813111484
 20
23.89250805535164
 30
0.0
 10
-39.31956251158033
 20
23.97985548134272
 30
0.0
 10
-39.2839769221489
 20
24.06668041219473
 30
0.0
 10
-39.24547045071921
 20
24.15290964741891
 30
0.0
 10
-39.2039988426202
 20
24.23846987616719
 30
0.0
 10
-39.15951765872171
 20
24.32328048080103
 30
0.0
 10
-39.11196964233386
 20
24.40727528504718
 30
0.0
 10
-39.06129410051693
 20
24.49038068603142
 30
0.0
 10
-39.00742369250361
 20
24.57252171793991
 30
0.0
 10
-38.9502819926974
 20
24.65362213757174
 30
0.0
 10
-38.8897630692394
 20
24.733628745435
 30
0.0
 10
-38.82573025903736
 20
24.81249922594225
 30
0.0
 10
-38.75800762658997
 20
24.89020490853517
 30
0.0
 10
-38.68632519854129
 20
24.96676547580461
 30
0.0
 10
-38.63627263952475
 20
25.01648169777709
 30
0.0
 10
-38.61051264159647
 20
25.04111523463612
 30
0.0
  0
ARC
  5
1C4
330
2
100
AcDbEntity
  8
GAIKEI
 62
     7
370
    40
100
AcDbCircle
 10
-35.68099733751683
 20
22.79216492663863
 30
0.0
 40
3.853354222222222
100
AcDbArc
 50
176.8180109999993
 51
180.7301249999991
  0
ARC
  5
1C5
330
2
100
AcDbEntity
  8
GAIKEI
 62
     7
370
    40
100
AcDbCircle
 10
-90.12712089307237
 20
22.07551137108308
 30
0.0
 40
50.59758911111111
100
AcDbArc
 50
359.9553950000008
 51
0.7559459999989397
  0
LINE
  5
1C6
330
2
100
AcDbEntity
  8
GAIKEI
 62
     7
370
    40
100
AcDbLine
 10
-39.52949511529459
 20
22.03612470441641
 30
0.0
 11
-39.52949511529459
 21
6.677027371083084
 31
0.0
  0
ARC
  5
1C7
330
2
100
AcDbEntity
  8
GAIKEI
 62
     7
370
    40
100
AcDbCircle
 10
-36.52972467085016
 20
6.676958704416449
 30
0.0
 40
2.999767777777778
100
AcDbArc
 50
179.9986940000007
 51
212.2516919999978
  0
SPLINE
  5
1C8
330
2
100
AcDbEntity
  8
GAIKEI
 62
     7
370
    40
100
AcDbSpline
210
0.0
220
0.0
230
1.0
 70
     8
 71
     3
 72
    69
 73
    65
 74
     0
 42
0.0000000001
 43
0.0000000001
 40
0.0
 40
0.0
 40
0.0
 40
0.0
 40
0.216730917510321
 40
0.3744285584004444
 40
0.5028962533407935
 40
0.5663597855181266
 40
0.6123822211090014
 40
0.6544176049248733
 40
0.6801845448217282
 40
0.7069348342491072
 40
0.7350302046043927
 40
0.7647212052931877
 40
0.7961779043864834
 40
0.8295248382322835
 40
0.8648467727111992
 40
0.9022034478338182
 40
0.9415306963431808
 40
0.9831415949270647
 40
1.026688345230327
 40
1.072465961980157
 40
1.120208052272862
 40
1.170109619980508
 40
1.221957463484507
 40
1.275876474547712
 40
1.331687577973494
 40
1.389466251768812
 40
1.449057951880033
 40
1.510499138473688
 40
1.573649276173415
 40
1.638517355804646
 40
1.704974324204463
 40
1.773007884648493
 40
1.842477240751253
 40
1.913374044070687
 40
1.985618910728936
 40
2.059130550133947
 40
2.133766877782009
 40
2.209506577678976
 40
2.286266118901058
 40
2.363962921229707
 40
2.442477508580722
 40
2.521770508200433
 40
2.601762390022722
 40
2.68237466449408
 40
2.763505749173874
 40
2.845106303678808
 40
2.927103209955965
 40
3.009427367657238
 40
3.091998356281109
 40
3.174772206502193
 40
3.257691552528588
 40
3.34070303122794
 40
3.42374836108637
 40
3.506793035157472
 40
3.58979598397855
 40
3.672720349466943
 40
3.755528811167992
 40
3.838199250368419
 40
3.920707772807464
 40
4.003035102413935
 40
4.085165236528075
 40
4.167088092352645
 40
4.248790144024008
 40
4.330257339812474
 40
4.330257339812474
 40
4.330257339812474
 40
4.330257339812474
 10
-38.46941835751301
 20
4.505129949899071
 30
0.0
 10
-38.48210365809837
 20
4.497733614281855
 30
0.0
 10
-38.50653480252891
 20
4.489964158102623
 30
0.0
 10
-38.54056104845535
 20
4.492112112526569
 30
0.0
 10
-38.56272367239962
 20
4.500060503411788
 30
0.0
 10
-38.57655428311011
 20
4.507872915729393
 30
0.0
 10
-38.58495862960723
 20
4.51348558560312
 30
0.0
 10
-38.59108812751333
 20
4.517961201582039
 30
0.0
 10
-38.5960961361123
 20
4.521789556077465
 30
0.0
 10
-38.60032052472286
 20
4.5251118946112
 30
0.0
 10
-38.60470974371407
 20
4.528647134586293
 30
0.0
 10
-38.60930539438493
 20
4.532425767532799
 30
0.0
 10
-38.61413542536258
 20
4.53647017610703
 30
0.0
 10
-38.61921836717477
 20
4.540796921412493
 30
0.0
 10
-38.62456652006267
 20
4.545418605832225
 30
0.0
 10
-38.63018222848405
 20
4.550340151260598
 30
0.0
 10
-38.6360789792821
 20
4.555576872052967
 30
0.0
 10
-38.64224953821821
 20
4.56112649977814
 30
0.0
 10
-38.64870430817575
 20
4.56700294396856
 30
0.0
 10
-38.65542494777918
 20
4.573194283126554
 30
0.0
 10
-38.66241965701227
 20
4.579713160169745
 30
0.0
 10
-38.66967168275875
 20
4.586549265318126
 30
0.0
 10
-38.67718320940964
 20
4.593710186494064
 30
0.0
 10
-38.68493826052855
 20
4.601186377854958
 30
0.0
 10
-38.69293469857183
 20
4.608981619515731
 30
0.0
 10
-38.70115698205945
 20
4.617086706112417
 30
0.0
 10
-38.7095998101201
 20
4.62550245931456
 30
0.0
 10
-38.71824766713269
 20
4.634219497504631
 30
0.0
 10
-38.72709277306569
 20
4.643236066815774
 30
0.0
 10
-38.7361196510289
 20
4.652542452728937
 30
0.0
 10
-38.74531886166062
 20
4.66213493883805
 30
0.0
 10
-38.75467412977281
 20
4.67200247419737
 30
0.0
 10
-38.76417485252932
 20
4.682139663397009
 30
0.0
 10
-38.77380746800742
 20
4.692537701698853
 30
0.0
 10
-38.78356121195316
 20
4.703190547164524
 30
0.0
 10
-38.79341944681499
 20
4.714085395224657
 30
0.0
 10
-38.80336837963222
 20
4.725212038062579
 30
0.0
 10
-38.81339431566408
 20
4.736559933693314
 30
0.0
 10
-38.82348635663243
 20
4.748121318419464
 30
0.0
 10
-38.83362949838829
 20
4.759883284321944
 30
0.0
 10
-38.84381092825316
 20
4.771834881919403
 30
0.0
 10
-38.85401819730686
 20
4.783965084228725
 30
0.0
 10
-38.86424082196203
 20
4.796264749360886
 30
0.0
 10
-38.87446589505578
 20
4.808721327882722
 30
0.0
 10
-38.88468206274467
 20
4.821323573338446
 30
0.0
 10
-38.89487845174108
 20
4.834060289226442
 30
0.0
 10
-38.90504576101955
 20
4.846921775841394
 30
0.0
 10
-38.91517364288342
 20
4.859896504372187
 30
0.0
 10
-38.92525320404093
 20
4.872974264072297
 30
0.0
 10
-38.93527625425156
 20
4.886145281956203
 30
0.0
 10
-38.94523589515922
 20
4.899401063280947
 30
0.0
 10
-38.95512484848627
 20
4.912732202594497
 30
0.0
 10
-38.96493694176314
 20
4.926130371319089
 30
0.0
 10
-38.97466665913078
 20
4.939587778139184
 30
0.0
 10
-38.98430947229485
 20
4.953097684268811
 30
0.0
 10
-38.99386088535715
 20
4.966653103240332
 30
0.0
 10
-39.00331726795463
 20
4.98024799168462
 30
0.0
 10
-39.012675600254
 20
4.993876943330604
 30
0.0
 10
-39.02193364131887
 20
5.007535486503627
 30
0.0
 10
-39.03108946693777
 20
5.021219438345212
 30
0.0
 10
-39.04014173113529
 20
5.034925349765615
 30
0.0
 10
-39.04908934733999
 20
5.048650068917623
 30
0.0
 10
-39.05793135378031
 20
5.062390542176899
 30
0.0
 10
-39.0637636313815
 20
5.071572886498017
 30
0.0
 10
-39.06666201662807
 20
5.076166021393504
 30
0.0
  0
LINE
  5
1C9
330
2
100
AcDbEntity
  8
GAIKEI
 62
     7
 48
0.034121
370
    40
100
AcDbLine
 10
-38.46941822640571
 20
4.505130259971963
 30
0.0
 11
-38.20731955973906
 21
4.657760926638644
 31
0.0
  0
LINE
  5
1CA
330
2
100
AcDbEntity
  8
GAIKEI
 62
     7
 48
0.026451
370
    40
100
AcDbLine
 10
-37.92152467085015
 20
4.98402581552753
 30
0.0
 11
-37.77039400418346
 21
5.164136704416421
 31
0.0
  0
LINE
  5
1CB
330
2
100
AcDbEntity
  8
GAIKEI
 62
     7
 48
0.026451
370
    40
100
AcDbLine
 10
-19.22648689307237
 20
5.164136704416421
 30
0.0
 11
-19.07535622640569
 21
4.98402581552753
 31
0.0
  0
LINE
  5
1CC
330
2
100
AcDbEntity
  8
GAIKEI
 62
     7
 48
0.034121
370
    40
100
AcDbLine
 10
-18.78956133751683
 20
4.657760926638644
 30
0.0
 11
-18.52746267085018
 21
4.505130259971963
 31
0.0
  0
SPLINE
  5
1CD
330
2
100
AcDbEntity
  8
GAIKEI
 62
     7
370
    40
100
AcDbSpline
210
0.0
220
0.0
230
1.0
 70
     8
 71
     3
 72
    69
 73
    65
 74
     0
 42
0.0000000001
 43
0.0000000001
 40
0.0
 40
0.0
 40
0.0
 40
0.0
 40
0.0828494603934075
 40
0.1658115901964129
 40
0.2488730507938111
 40
0.3320191836995073
 40
0.4152369341250435
 40
0.4985067611397598
 40
0.5818091707994301
 40
0.6651227458462516
 40
0.7484302963609385
 40
0.8317012724968638
 40
0.9149075833091016
 40
0.9980177761334013
 40
1.08100429682821
 40
1.163815147965077
 40
1.246403910259912
 40
1.328720685787952
 40
1.410729372724348
 40
1.492357940198509
 40
1.573545998252242
 40
1.654229635522779
 40
1.734368122069798
 40
1.813866344030333
 40
1.892649935438732
 40
1.970643014890986
 40
2.047810170113592
 40
2.124037377113585
 40
2.199247878070612
 40
2.273364652051133
 40
2.34637281415768
 40
2.41813634978974
 40
2.48857732518529
 40
2.557617654976774
 40
2.625249193473607
 40
2.691333018279906
 40
2.755857506393773
 40
2.818695612284836
 40
2.879857015575742
 40
2.939203421711032
 40
2.996771471224588
 40
3.052407000092876
 40
3.106183260269088
 40
3.157921976858499
 40
3.207745176297054
 40
3.255441142852534
 40
3.301201248513322
 40
3.344760164823387
 40
3.386408252119283
 40
3.42579859970514
 40
3.463239120872996
 40
3.498663452003216
 40
3.532127100847399
 40
3.563710017381312
 40
3.593533244350922
 40
3.621761903217239
 40
3.6486406666109
 40
3.674524240977664
 40
3.716790814040045
 40
3.762963772239168
 40
3.826893671562527
 40
3.955823154274784
 40
4.113763805048987
 40
4.330250238360243
 40
4.330250238360243
 40
4.330250238360243
 40
4.330250238360243
 10
-17.93021896651726
 20
5.076165747627783
 30
0.0
 10
-17.93316652911221
 20
5.071494679791243
 30
0.0
 10
-17.93909372153843
 20
5.062163932631989
 30
0.0
 10
-17.94807416288938
 20
5.04821279437607
 30
0.0
 10
-17.95714934071293
 20
5.034299482965025
 30
0.0
 10
-17.96631780128587
 20
5.020427030200607
 30
0.0
 10
-17.97557780341128
 20
5.006598792965576
 30
0.0
 10
-17.98492736442119
 20
4.992818357700372
 30
0.0
 10
-17.99436411552511
 20
4.979089729402431
 30
0.0
 10
-18.00388569929959
 20
4.965416735613757
 30
0.0
 10
-18.01348926051025
 20
4.951803759746525
 30
0.0
 10
-18.02317159942811
 20
4.938255490186037
 30
0.0
 10
-18.03292886460423
 20
4.924777320721858
 30
0.0
 10
-18.04275722037238
 20
4.911374411434053
 30
0.0
 10
-18.05265177443198
 20
4.898053124141512
 30
0.0
 10
-18.06260689494809
 20
4.884820513064624
 30
0.0
 10
-18.07261588955532
 20
4.871684695320652
 30
0.0
 10
-18.08267253864016
 20
4.858652810538387
 30
0.0
 10
-18.09276942142344
 20
4.84573322042263
 30
0.0
 10
-18.10289850138116
 20
4.832934683558733
 30
0.0
 10
-18.11305038430697
 20
4.820267235883619
 30
0.0
 10
-18.12321677479246
 20
4.807739104508016
 30
0.0
 10
-18.13338773585633
 20
4.795360147496324
 30
0.0
 10
-18.14355266806979
 20
4.783140560230066
 30
0.0
 10
-18.15369922991454
 20
4.771092113071858
 30
0.0
 10
-18.16381741653123
 20
4.759223313377987
 30
0.0
 10
-18.17389532608723
 20
4.747544494938267
 30
0.0
 10
-18.1839208043624
 20
4.736065818289404
 30
0.0
 10
-18.19387963772271
 20
4.724799291934516
 30
0.0
 10
-18.20376178692129
 20
4.713751753840767
 30
0.0
 10
-18.21355445390713
 20
4.702932832573111
 30
0.0
 10
-18.22324461989359
 20
4.69235199634437
 30
0.0
 10
-18.23281620658514
 20
4.682021578743444
 30
0.0
 10
-18.24225875041634
 20
4.671947446094264
 30
0.0
 10
-18.25155892494865
 20
4.662138303680762
 30
0.0
 10
-18.26070633551166
 20
4.652599480747284
 30
0.0
 10
-18.26968499859356
 20
4.64334187725413
 30
0.0
 10
-18.27848571326206
 20
4.634369118805381
 30
0.0
 10
-18.28709331707398
 20
4.625690759149307
 30
0.0
 10
-18.29550025993092
 20
4.61730848091787
 30
0.0
 10
-18.3036912492725
 20
4.609231618645424
 30
0.0
 10
-18.31166099174402
 20
4.601459511134407
 30
0.0
 10
-18.31939397295883
 20
4.594001486934359
 30
0.0
 10
-18.32688791534343
 20
4.586854028967337
 30
0.0
 10
-18.3341268775419
 20
4.580026772415237
 30
0.0
 10
-18.34111285971653
 20
4.573512417928895
 30
0.0
 10
-18.3478291181957
 20
4.567321388562191
 30
0.0
 10
-18.35428355306374
 20
4.561441424143737
 30
0.0
 10
-18.36045774903982
 20
4.555884630654503
 30
0.0
 10
-18.36636171466875
 20
4.550637548665918
 30
0.0
 10
-18.37198794334637
 20
4.54570278820455
 30
0.0
 10
-18.37734937736354
 20
4.541065584400371
 30
0.0
 10
-18.38244782918343
 20
4.536721544399398
 30
0.0
 10
-18.38729497146033
 20
4.53265861570469
 30
0.0
 10
-18.39190866875009
 20
4.528860813933221
 30
0.0
 10
-18.39631613324047
 20
4.525306356881657
 30
0.0
 10
-18.40055801631922
 20
4.521965459662169
 30
0.0
 10
-18.40558818670092
 20
4.518113818897091
 30
0.0
 10
-18.41174027107024
 20
4.513612814836363
 30
0.0
 10
-18.42018493436922
 20
4.507958786824673
 30
0.0
 10
-18.43406917959567
 20
4.50009451673975
 30
0.0
 10
-18.45630384912522
 20
4.492108440075782
 30
0.0
 10
-18.4903637076643
 20
4.489966794781281
 30
0.0
 10
-18.51479111342064
 20
4.497741914102562
 30
0.0
 10
-18.527461660548
 20
4.505129493673223
 30
0.0
  0
ARC
  5
1CE
330
2
100
AcDbEntity
  8
GAIKEI
 62
     7
370
    40
100
AcDbCircle
 10
-20.46713311529459
 20
6.67695181552753
 30
0.0
 40
2.999744222222222
100
AcDbArc
 50
327.7481840000014
 51
359.9675530000001
  0
LINE
  5
1CF
330
2
100
AcDbEntity
  8
GAIKEI
 62
     7
 48
0.0002
370
    40
100
AcDbLine
 10
-17.46738644862796
 20
6.675252704416436
 30
0.0
 11
-17.46738578196129
 21
6.677027371083084
 31
0.0
  0
LINE
  5
1D0
330
2
100
AcDbEntity
  8
GAIKEI
 62
     7
370
    40
100
AcDbLine
 10
-17.46738578196129
 20
6.677027371083084
 30
0.0
 11
-17.46738578196129
 21
22.03612470441641
 31
0.0
  0
LINE
  5
1D1
330
2
100
AcDbEntity
  8
GAIKEI
 62
     1
 48
0.156984
370
    13
100
AcDbLine
 10
-18.3418188930724
 20
6.891546037749748
 30
0.0
 11
-18.3418188930724
 21
8.286963148860849
 31
0.0
  0
ARC
  5
1D2
330
2
100
AcDbEntity
  8
GAIKEI
 62
     1
370
    13
100
AcDbCircle
 10
-20.6814268930724
 20
6.891433148860869
 30
0.0
 40
2.339601111111111
100
AcDbArc
 50
311.6594830000011
 51
0.0027579999991972
  0
LINE
  5
1D3
330
2
100
AcDbEntity
  8
GAIKEI
 62
     1
 48
0.017569
370
    40
100
AcDbLine
 10
-18.24183400418348
 20
8.287820704416446
 30
0.0
 11
-18.10214822640569
 21
8.357658704416422
 31
0.0
  0
LINE
  5
1D4
330
2
100
AcDbEntity
  8
GAIKEI
 62
     1
 48
0.017621
370
    40
100
AcDbLine
 10
-18.49844733751683
 20
8.286963148860849
 30
0.0
 11
-18.3418188930724
 21
8.286963148860849
 31
0.0
  0
ARC
  5
1D5
330
2
100
AcDbEntity
  8
GAIKEI
 62
     1
370
    40
100
AcDbCircle
 10
-18.3136288930724
 20
11.70626825997198
 30
0.0
 40
3.419311555555555
100
AcDbArc
 50
269.5276519999991
 51
271.2031519999978
  0
POLYLINE
  5
1D6
330
2
100
AcDbEntity
  8
GAIKEI
 62
     1
370
    13
100
AcDb2dPolyline
 66
     1
 10
0.0
 20
0.0
 30
0.0
  0
VERTEX
  5
1D7
330
1D6
100
AcDbEntity
  8
GAIKEI
 62
     1
370
     0
100
AcDbVertex
100
AcDb2dVertex
 10
-19.12711555973902
 20
5.142698926638615
 30
0.0
  0
VERTEX
  5
1D8
330
1D6
100
AcDbEntity
  8
GAIKEI
 62
     1
370
     0
100
AcDbVertex
100
AcDb2dVertex
 10
-19.13036778196124
 20
5.138783371083093
 30
0.0
  0
VERTEX
  5
1D9
330
1D6
100
AcDbEntity
  8
GAIKEI
 62
     1
370
     0
100
AcDbVertex
100
AcDb2dVertex
 10
-19.1346982264057
 20
5.128428037749756
 30
0.0
  0
VERTEX
  5
1DA
330
1D6
100
AcDbEntity
  8
GAIKEI
 62
     1
370
     0
100
AcDbVertex
100
AcDb2dVertex
 10
-19.13588555973905
 20
5.114152704416426
 30
0.0
  0
VERTEX
  5
1DB
330
1D6
100
AcDbEntity
  8
GAIKEI
 62
     1
370
     0
100
AcDbVertex
100
AcDb2dVertex
 10
-19.12624333751682
 20
5.073620037749748
 30
0.0
  0
VERTEX
  5
1DC
330
1D6
100
AcDbEntity
  8
GAIKEI
 62
     1
370
     0
100
AcDbVertex
100
AcDb2dVertex
 10
-19.0955213375168
 20
5.016690259971994
 30
0.0
  0
VERTEX
  5
1DD
330
1D6
100
AcDbEntity
  8
GAIKEI
 62
     1
370
     0
100
AcDbVertex
100
AcDb2dVertex
 10
-19.07187111529458
 20
4.98530448219418
 30
0.0
  0
SEQEND
  5
1DE
330
1D6
100
AcDbEntity
  8
GAIKEI
 62
     1
370
     0
  0
LINE
  5
1DF
330
2
100
AcDbEntity
  8
GAIKEI
 62
     1
370
    13
100
AcDbLine
 10
-18.3418188930724
 20
8.730084037749747
 30
0.0
 11
-18.3418188930724
 21
13.48696359330532
 31
0.0
  0
ARC
  5
1E0
330
2
100
AcDbEntity
  8
GAIKEI
 62
     1
370
    40
100
AcDbCircle
 10
-18.3136288930724
 20
5.310778926638647
 30
0.0
 40
3.419311555555555
100
AcDbArc
 50
88.79683699999768
 51
90.47235100000277
  0
LINE
  5
1E1
330
2
100
AcDbEntity
  8
GAIKEI
 62
     1
 48
0.017621
370
    40
100
AcDbLine
 10
-18.49844733751683
 20
8.730084037749747
 30
0.0
 11
-18.3418188930724
 21
8.730084037749747
 31
0.0
  0
LINE
  5
1E2
330
2
100
AcDbEntity
  8
GAIKEI
 62
     1
 48
0.017569
370
    40
100
AcDbLine
 10
-18.24183400418348
 20
8.729226482194206
 30
0.0
 11
-18.10214822640569
 21
8.659388926638655
 31
0.0
  0
ARC
  5
1E3
330
2
100
AcDbEntity
  8
GAIKEI
 62
     1
370
    40
100
AcDbCircle
 10
-18.3136288930724
 20
16.90626825997197
 30
0.0
 40
3.419311555555555
100
AcDbArc
 50
269.5276519999991
 51
271.2031519999978
  0
LINE
  5
1E4
330
2
100
AcDbEntity
  8
GAIKEI
 62
     1
 48
0.017569
370
    40
100
AcDbLine
 10
-18.24183400418348
 20
13.48782092663865
 30
0.0
 11
-18.10214822640569
 21
13.55765870441641
 31
0.0
  0
LINE
  5
1E5
330
2
100
AcDbEntity
  8
GAIKEI
 62
     1
 48
0.017621
370
    40
100
AcDbLine
 10
-18.49844733751683
 20
13.48696359330532
 30
0.0
 11
-18.3418188930724
 21
13.48696359330532
 31
0.0
  0
LINE
  5
1E6
330
2
100
AcDbEntity
  8
GAIKEI
 62
     1
370
    13
100
AcDbLine
 10
-18.3418188930724
 20
13.93008403774976
 30
0.0
 11
-18.3418188930724
 21
20.48696359330529
 31
0.0
  0
LINE
  5
1E7
330
2
100
AcDbEntity
  8
GAIKEI
 62
     1
 48
0.017621
370
    40
100
AcDbLine
 10
-18.49844733751683
 20
13.93008403774976
 30
0.0
 11
-18.3418188930724
 21
13.93008403774976
 31
0.0
  0
LINE
  5
1E8
330
2
100
AcDbEntity
  8
GAIKEI
 62
     1
 48
0.017569
370
    40
100
AcDbLine
 10
-18.24183400418348
 20
13.92922670441641
 30
0.0
 11
-18.10214822640569
 21
13.85938892663861
 31
0.0
  0
ARC
  5
1E9
330
2
100
AcDbEntity
  8
GAIKEI
 62
     1
370
    40
100
AcDbCircle
 10
-18.3136288930724
 20
10.51077937108309
 30
0.0
 40
3.419311555555555
100
AcDbArc
 50
88.79683699999768
 51
90.47235100000277
  0
LINE
  5
1EA
330
2
100
AcDbEntity
  8
GAIKEI
 62
     1
 48
0.017569
370
    40
100
AcDbLine
 10
-18.24183400418348
 20
20.48782092663865
 30
0.0
 11
-18.10214822640569
 21
20.55765870441644
 31
0.0
  0
LINE
  5
1EB
330
2
100
AcDbEntity
  8
GAIKEI
 62
     1
 48
0.017621
370
    40
100
AcDbLine
 10
-18.49844733751683
 20
20.48696359330529
 30
0.0
 11
-18.3418188930724
 21
20.48696359330529
 31
0.0
  0
ARC
  5
1EC
330
2
100
AcDbEntity
  8
GAIKEI
 62
     1
370
    40
100
AcDbCircle
 10
-18.3136288930724
 20
23.90626848219421
 30
0.0
 40
3.419311555555555
100
AcDbArc
 50
269.5276519999991
 51
271.2031519999978
  0
LINE
  5
1ED
330
2
100
AcDbEntity
  8
GAIKEI
 62
     1
 48
0.449484
370
    13
100
AcDbLine
 10
-20.68146267085018
 20
24.86514537108309
 30
0.0
 11
-24.67688000418349
 21
24.86514537108309
 31
0.0
  0
LINE
  5
1EE
330
2
100
AcDbEntity
  8
GAIKEI
 62
     1
 48
0.179484
370
    13
100
AcDbLine
 10
-18.3418188930724
 20
22.52550137108307
 30
0.0
 11
-18.3418188930724
 21
20.93008403774977
 31
0.0
  0
ARC
  5
1EF
330
2
100
AcDbEntity
  8
GAIKEI
 62
     1
370
    13
100
AcDbCircle
 10
-20.68130178196128
 20
22.52566248219421
 30
0.0
 40
2.339471111111111
100
AcDbArc
 50
359.9960489999985
 51
90.00394400000141
  0
ARC
  5
1F0
330
2
100
AcDbEntity
  8
GAIKEI
 62
     1
370
    40
100
AcDbCircle
 10
-18.3136288930724
 20
17.51077914886088
 30
0.0
 40
3.419311555555555
100
AcDbArc
 50
88.79683699999768
 51
90.47235100000277
  0
LINE
  5
1F1
330
2
100
AcDbEntity
  8
GAIKEI
 62
     1
 48
0.017621
370
    40
100
AcDbLine
 10
-18.49844733751683
 20
20.93008403774977
 30
0.0
 11
-18.3418188930724
 21
20.93008403774977
 31
0.0
  0
LINE
  5
1F2
330
2
100
AcDbEntity
  8
GAIKEI
 62
     1
 48
0.017569
370
    40
100
AcDbLine
 10
-18.24183400418348
 20
20.9292264821942
 30
0.0
 11
-18.10214822640569
 21
20.85938892663865
 31
0.0
  0
ARC
  5
1F3
330
2
100
AcDbEntity
  8
GAIKEI
 62
     1
370
    40
100
AcDbCircle
 10
-28.0961848930724
 20
24.89333514886087
 30
0.0
 40
3.419311555555555
100
AcDbArc
 50
359.5276340000006
 51
1.203161999998609
  0
LINE
  5
1F4
330
2
100
AcDbEntity
  8
GAIKEI
 62
     1
 48
0.017569
370
    40
100
AcDbLine
 10
-24.67773755973906
 20
24.96513003774976
 30
0.0
 11
-24.74757533751682
 21
25.1048158155275
 31
0.0
  0
LINE
  5
1F5
330
2
100
AcDbEntity
  8
GAIKEI
 62
     1
 48
0.017621
370
    40
100
AcDbLine
 10
-24.67688000418349
 20
24.86514537108309
 30
0.0
 11
-24.67688000418349
 21
24.70851603774975
 31
0.0
  0
LINE
  5
1F6
330
2
100
AcDbEntity
  8
GAIKEI
 62
     1
370
    13
100
AcDbLine
 10
-25.12000067085012
 20
24.86514537108309
 30
0.0
 11
-31.87688000418348
 21
24.86514537108309
 31
0.0
  0
LINE
  5
1F7
330
2
100
AcDbEntity
  8
GAIKEI
 62
     1
 48
0.017621
370
    40
100
AcDbLine
 10
-25.12000067085012
 20
24.86514537108309
 30
0.0
 11
-25.12000067085012
 21
24.70851692663865
 31
0.0
  0
LINE
  5
1F8
330
2
100
AcDbEntity
  8
GAIKEI
 62
     1
 48
0.017569
370
    40
100
AcDbLine
 10
-25.11914311529461
 20
24.96513003774976
 30
0.0
 11
-25.04930555973909
 21
25.1048158155275
 31
0.0
  0
ARC
  5
1F9
330
2
100
AcDbEntity
  8
GAIKEI
 62
     1
370
    40
100
AcDbCircle
 10
-21.70069555973908
 20
24.89333514886087
 30
0.0
 40
3.419311555555555
100
AcDbArc
 50
178.7968399999989
 51
180.4723540000014
  0
ARC
  5
1FA
330
2
100
AcDbEntity
  8
GAIKEI
 62
     1
370
    40
100
AcDbCircle
 10
-35.29618511529463
 20
24.89333514886087
 30
0.0
 40
3.419311555555555
100
AcDbArc
 50
359.5276340000006
 51
1.203161999998609
  0
LINE
  5
1FB
330
2
100
AcDbEntity
  8
GAIKEI
 62
     1
 48
0.017569
370
    40
100
AcDbLine
 10
-31.87773755973905
 20
24.96513003774976
 30
0.0
 11
-31.94757533751681
 21
25.1048158155275
 31
0.0
  0
LINE
  5
1FC
330
2
100
AcDbEntity
  8
GAIKEI
 62
     1
 48
0.017621
370
    40
100
AcDbLine
 10
-31.87688000418348
 20
24.86514537108309
 30
0.0
 11
-31.87688000418348
 21
24.70851603774975
 31
0.0
  0
LINE
  5
1FD
330
2
100
AcDbEntity
  8
GAIKEI
 62
     1
 48
0.179484
370
    13
100
AcDbLine
 10
-38.65506200418349
 20
22.52550137108307
 30
0.0
 11
-38.65506200418349
 21
20.93008403774977
 31
0.0
  0
LINE
  5
1FE
330
2
100
AcDbEntity
  8
GAIKEI
 62
     1
 48
0.449484
370
    13
100
AcDbLine
 10
-36.31541800418347
 20
24.86514537108309
 30
0.0
 11
-32.32000067085016
 21
24.86514537108309
 31
0.0
  0
ARC
  5
1FF
330
2
100
AcDbEntity
  8
GAIKEI
 62
     1
370
    13
100
AcDbCircle
 10
-36.31557911529461
 20
22.52566248219421
 30
0.0
 40
2.339471111111111
100
AcDbArc
 50
89.99605499999718
 51
180.0039390000009
  0
LINE
  5
200
330
2
100
AcDbEntity
  8
GAIKEI
 62
     1
 48
0.017621
370
    40
100
AcDbLine
 10
-32.32000067085016
 20
24.86514537108309
 30
0.0
 11
-32.32000067085016
 21
24.70851692663865
 31
0.0
  0
LINE
  5
201
330
2
100
AcDbEntity
  8
GAIKEI
 62
     1
 48
0.017569
370
    40
100
AcDbLine
 10
-32.3191431152946
 20
24.96513003774976
 30
0.0
 11
-32.24930555973902
 21
25.1048158155275
 31
0.0
  0
ARC
  5
202
330
2
100
AcDbEntity
  8
GAIKEI
 62
     1
370
    40
100
AcDbCircle
 10
-28.90069578196125
 20
24.89333514886087
 30
0.0
 40
3.419311555555555
100
AcDbArc
 50
178.7968399999989
 51
180.4723540000014
  0
ARC
  5
203
330
2
100
AcDbEntity
  8
GAIKEI
 62
     1
370
    40
100
AcDbCircle
 10
-38.6832517819613
 20
17.51077914886088
 30
0.0
 40
3.419311555555555
100
AcDbArc
 50
89.52764699999809
 51
91.20316100000151
  0
LINE
  5
204
330
2
100
AcDbEntity
  8
GAIKEI
 62
     1
 48
0.017569
370
    40
100
AcDbLine
 10
-38.75504667085016
 20
20.9292264821942
 30
0.0
 11
-38.89473244862791
 21
20.85938892663865
 31
0.0
  0
LINE
  5
205
330
2
100
AcDbEntity
  8
GAIKEI
 62
     1
 48
0.017619
370
    40
100
AcDbLine
 10
-38.65506200418349
 20
20.93008403774977
 30
0.0
 11
-38.49844733751684
 21
20.93008403774977
 31
0.0
  0
LINE
  5
206
330
2
100
AcDbEntity
  8
GAIKEI
 62
     1
370
    13
100
AcDbLine
 10
-38.65506200418349
 20
20.48696359330529
 30
0.0
 11
-38.65506200418349
 21
13.93008403774976
 31
0.0
  0
LINE
  5
207
330
2
100
AcDbEntity
  8
GAIKEI
 62
     1
 48
0.017619
370
    40
100
AcDbLine
 10
-38.65506200418349
 20
20.48696359330529
 30
0.0
 11
-38.49844733751684
 21
20.48696359330529
 31
0.0
  0
LINE
  5
208
330
2
100
AcDbEntity
  8
GAIKEI
 62
     1
 48
0.017569
370
    40
100
AcDbLine
 10
-38.75504667085016
 20
20.48782092663865
 30
0.0
 11
-38.89473244862791
 21
20.55765870441644
 31
0.0
  0
ARC
  5
209
330
2
100
AcDbEntity
  8
GAIKEI
 62
     1
370
    40
100
AcDbCircle
 10
-38.6832517819613
 20
23.90626848219421
 30
0.0
 40
3.419311555555555
100
AcDbArc
 50
268.7968490000026
 51
270.4723489999972
  0
LINE
  5
20A
330
2
100
AcDbEntity
  8
GAIKEI
 62
     1
 48
0.017569
370
    40
100
AcDbLine
 10
-38.75504667085016
 20
13.92922670441641
 30
0.0
 11
-38.89473244862791
 21
13.85938892663861
 31
0.0
  0
LINE
  5
20B
330
2
100
AcDbEntity
  8
GAIKEI
 62
     1
 48
0.017619
370
    40
100
AcDbLine
 10
-38.65506200418349
 20
13.93008403774976
 30
0.0
 11
-38.49844733751684
 21
13.93008403774976
 31
0.0
  0
ARC
  5
20C
330
2
100
AcDbEntity
  8
GAIKEI
 62
     1
370
    40
100
AcDbCircle
 10
-38.6832517819613
 20
10.51077937108309
 30
0.0
 40
3.419311555555555
100
AcDbArc
 50
89.52764699999809
 51
91.20316100000151
  0
LINE
  5
20D
330
2
100
AcDbEntity
  8
GAIKEI
 62
     1
370
    13
100
AcDbLine
 10
-38.65506200418349
 20
13.48696359330532
 30
0.0
 11
-38.65506200418349
 21
8.730084037749747
 31
0.0
  0
ARC
  5
20E
330
2
100
AcDbEntity
  8
GAIKEI
 62
     1
370
    40
100
AcDbCircle
 10
-38.6832517819613
 20
16.90626825997197
 30
0.0
 40
3.419311555555555
100
AcDbArc
 50
268.7968490000026
 51
270.4723489999972
  0
LINE
  5
20F
330
2
100
AcDbEntity
  8
GAIKEI
 62
     1
 48
0.017619
370
    40
100
AcDbLine
 10
-38.65506200418349
 20
13.48696359330532
 30
0.0
 11
-38.49844733751684
 21
13.48696359330532
 31
0.0
  0
LINE
  5
210
330
2
100
AcDbEntity
  8
GAIKEI
 62
     1
 48
0.017569
370
    40
100
AcDbLine
 10
-38.75504667085016
 20
13.48782092663865
 30
0.0
 11
-38.89473244862791
 21
13.55765870441641
 31
0.0
  0
ARC
  5
211
330
2
100
AcDbEntity
  8
GAIKEI
 62
     1
370
    40
100
AcDbCircle
 10
-38.6832517819613
 20
5.310778926638647
 30
0.0
 40
3.419311555555555
100
AcDbArc
 50
89.52764699999809
 51
91.20316100000151
  0
LINE
  5
212
330
2
100
AcDbEntity
  8
GAIKEI
 62
     1
 48
0.017569
370
    40
100
AcDbLine
 10
-38.75504667085016
 20
8.729226482194206
 30
0.0
 11
-38.89473244862791
 21
8.659388926638655
 31
0.0
  0
LINE
  5
213
330
2
100
AcDbEntity
  8
GAIKEI
 62
     1
 48
0.017619
370
    40
100
AcDbLine
 10
-38.65506200418349
 20
8.730084037749747
 30
0.0
 11
-38.49844733751684
 21
8.730084037749747
 31
0.0
  0
LINE
  5
214
330
2
100
AcDbEntity
  8
GAIKEI
 62
     1
 48
0.156984
370
    13
100
AcDbLine
 10
-38.65506200418349
 20
6.891546037749748
 30
0.0
 11
-38.65506200418349
 21
8.286963148860849
 31
0.0
  0
ARC
  5
215
330
2
100
AcDbEntity
  8
GAIKEI
 62
     1
370
    13
100
AcDbCircle
 10
-36.3154540041835
 20
6.891433148860869
 30
0.0
 40
2.339601111111111
100
AcDbArc
 50
179.9972459999999
 51
229.8954925114015
  0
LINE
  5
216
330
2
100
AcDbEntity
  8
GAIKEI
 62
     1
 48
0.017619
370
    40
100
AcDbLine
 10
-38.65506200418349
 20
8.286963148860849
 30
0.0
 11
-38.49844733751684
 21
8.286963148860849
 31
0.0
  0
LINE
  5
217
330
2
100
AcDbEntity
  8
GAIKEI
 62
     1
 48
0.017569
370
    40
100
AcDbLine
 10
-38.75504667085016
 20
8.287820704416446
 30
0.0
 11
-38.89473244862791
 21
8.357658704416422
 31
0.0
  0
ARC
  5
218
330
2
100
AcDbEntity
  8
GAIKEI
 62
     1
370
    40
100
AcDbCircle
 10
-38.6832517819613
 20
11.70626825997198
 30
0.0
 40
3.419311555555555
100
AcDbArc
 50
268.7968490000026
 51
270.4723489999972
  0
SPLINE
  5
219
330
2
100
AcDbEntity
  8
GAIKEI
 62
     1
370
    40
100
AcDbSpline
210
0.0
220
0.0
230
1.0
 70
     8
 71
     5
 72
    36
 73
    30
 74
     0
 42
0.0000000001
 43
0.0000000001
 40
0.0
 40
0.0
 40
0.0
 40
0.0
 40
0.0
 40
0.0
 40
0.0025350144997873
 40
0.0025350144997873
 40
0.0025350144997873
 40
0.0052401139847031
 40
0.0052401139847031
 40
0.0052401139847031
 40
0.0089229903710605
 40
0.0089229903710605
 40
0.0089229903710605
 40
0.0192020485226477
 40
0.0192020485226477
 40
0.0192020485226477
 40
0.0333014377343798
 40
0.0333014377343798
 40
0.0333014377343798
 40
0.0613680389535226
 40
0.0613680389535226
 40
0.0613680389535226
 40
0.125277306430482
 40
0.125277306430482
 40
0.125277306430482
 40
0.245087897826564
 40
0.245087897826564
 40
0.245087897826564
 40
0.5002900011581845
 40
0.5002900011581845
 40
0.5002900011581845
 40
0.5002900011581845
 40
0.5002900011581845
 40
0.5002900011581845
 10
-18.10214813421095
 20
8.659388847413055
 30
0.0
 10
-18.1020564840444
 20
8.659343025819737
 30
0.0
 10
-18.10210530619054
 20
8.659103787324795
 30
0.0
 10
-18.10202894015538
 20
8.659114087492071
 30
0.0
 10
-18.10198971125544
 20
8.658906168378564
 30
0.0
 10
-18.10195747743285
 20
8.658698865860259
 30
0.0
 10
-18.10194235706422
 20
8.658591893651276
 30
0.0
 10
-18.10190942615679
 20
8.658339100285445
 30
0.0
 10
-18.10188112783629
 20
8.658085200174213
 30
0.0
 10
-18.10186605721838
 20
8.657938569664025
 30
0.0
 10
-18.10181252063478
 20
8.657382195484615
 30
0.0
 10
-18.10176837197855
 20
8.656825667394542
 30
0.0
 10
-18.10173909498326
 20
8.65641560784752
 30
0.0
 10
-18.1016751383911
 20
8.655442458361847
 30
0.0
 10
-18.1016209414197
 20
8.65446884684735
 30
0.0
 10
-18.10159195403764
 20
8.653905619603563
 30
0.0
 10
-18.10151072766121
 20
8.652220912065047
 30
0.0
 10
-18.10144277431897
 20
8.650535631597222
 30
0.0
 10
-18.10140136753694
 20
8.649413720884069
 30
0.0
 10
-18.10127566337837
 20
8.64573682228945
 30
0.0
 10
-18.10117652978579
 20
8.642059078695552
 30
0.0
 10
-18.10111488103581
 20
8.639503445644578
 30
0.0
 10
-18.10095536491258
 20
8.632156367070422
 30
0.0
 10
-18.10083638296748
 20
8.62480848958674
 30
0.0
 10
-18.10076949804249
 20
8.620016524090715
 30
0.0
 10
-18.10058947475443
 20
8.605017075037153
 30
0.0
 10
-18.10048653515355
 20
8.590016829363833
 30
0.0
 10
-18.10044060690313
 20
8.579808821781824
 30
0.0
 10
-18.10041785994247
 20
8.569600739765519
 30
0.0
 10
-18.10041785994247
 20
8.559392655106648
 30
0.0
  0
SPLINE
  5
21A
330
2
100
AcDbEntity
  8
GAIKEI
 62
     1
370
    40
100
AcDbSpline
210
0.0
220
0.0
230
1.0
 70
     8
 71
     5
 72
    36
 73
    30
 74
     0
 42
0.0000000001
 43
0.0000000001
 40
0.0
 40
0.0
 40
0.0
 40
0.0
 40
0.0
 40
0.0
 40
0.0025350144997814
 40
0.0025350144997814
 40
0.0025350144997814
 40
0.0052401139846434
 40
0.0052401139846434
 40
0.0052401139846434
 40
0.0089229903709054
 40
0.0089229903709054
 40
0.0089229903709054
 40
0.0192020485222401
 40
0.0192020485222401
 40
0.0192020485222401
 40
0.0333014377337767
 40
0.0333014377337767
 40
0.0333014377337767
 40
0.0613680389529801
 40
0.0613680389529801
 40
0.0613680389529801
 40
0.1252773064296944
 40
0.1252773064296944
 40
0.1252773064296944
 40
0.2450878978259791
 40
0.2450878978259791
 40
0.2450878978259791
 40
0.5002900011581929
 40
0.5002900011581929
 40
0.5002900011581929
 40
0.5002900011581929
 40
0.5002900011581929
 40
0.5002900011581929
 10
-18.10214813421095
 20
8.357658704919231
 30
0.0
 10
-18.1020564840444
 20
8.357704526512549
 30
0.0
 10
-18.10210530619054
 20
8.357943765007405
 30
0.0
 10
-18.10202894015538
 20
8.357933464840243
 30
0.0
 10
-18.10198971125538
 20
8.358141383953693
 30
0.0
 10
-18.10195747743285
 20
8.358348686471998
 30
0.0
 10
-18.10194235706422
 20
8.358455658680952
 30
0.0
 10
-18.10190942615679
 20
8.358708452046812
 30
0.0
 10
-18.10188112783635
 20
8.358962352158016
 30
0.0
 10
-18.10186605721838
 20
8.359108982668203
 30
0.0
 10
-18.10181252063472
 20
8.359665356847614
 30
0.0
 10
-18.10176837197855
 20
8.360221884937601
 30
0.0
 10
-18.10173909498326
 20
8.36063194448468
 30
0.0
 10
-18.1016751383911
 20
8.361605093970325
 30
0.0
 10
-18.10162094141964
 20
8.362578705484793
 30
0.0
 10
-18.10159195403764
 20
8.363141932728609
 30
0.0
 10
-18.10151072766115
 20
8.364826640267125
 30
0.0
 10
-18.10144277431897
 20
8.36651192073495
 30
0.0
 10
-18.10140136753694
 20
8.367633831448074
 30
0.0
 10
-18.10127566337837
 20
8.371310730042665
 30
0.0
 10
-18.10117652978579
 20
8.374988473636562
 30
0.0
 10
-18.10111488103581
 20
8.377544106687537
 30
0.0
 10
-18.10095536491258
 20
8.384891185261693
 30
0.0
 10
-18.10083638296748
 20
8.392239062745375
 30
0.0
 10
-18.10076949804249
 20
8.397031028241428
 30
0.0
 10
-18.10058947475443
 20
8.41203047729499
 30
0.0
 10
-18.10048653515355
 20
8.427030722968339
 30
0.0
 10
-18.10044060690313
 20
8.437238730550433
 30
0.0
 10
-18.10041785994247
 20
8.447446812566681
 30
0.0
 10
-18.10041785994247
 20
8.457654897225637
 30
0.0
  0
LINE
  5
21B
330
2
100
AcDbEntity
  8
GAIKEI
 62
     1
 48
0.011446
370
    40
100
AcDbLine
 10
-18.10041800418349
 20
8.457654704416427
 30
0.0
 11
-18.10041800418349
 21
8.55939270441641
 31
0.0
  0
SPLINE
  5
21C
330
2
100
AcDbEntity
  8
GAIKEI
 62
     1
370
    40
100
AcDbSpline
210
0.0
220
0.0
230
1.0
 70
     8
 71
     5
 72
    36
 73
    30
 74
     0
 42
0.0000000001
 43
0.0000000001
 40
0.0
 40
0.0
 40
0.0
 40
0.0
 40
0.0
 40
0.0
 40
0.0025350144997742
 40
0.0025350144997742
 40
0.0025350144997742
 40
0.0052401139846573
 40
0.0052401139846573
 40
0.0052401139846573
 40
0.0089229903709564
 40
0.0089229903709564
 40
0.0089229903709564
 40
0.0192020485223921
 40
0.0192020485223921
 40
0.0192020485223921
 40
0.0333014377339801
 40
0.0333014377339801
 40
0.0333014377339801
 40
0.0613680389530369
 40
0.0613680389530369
 40
0.0613680389530369
 40
0.125277306430388
 40
0.125277306430388
 40
0.125277306430388
 40
0.2450878978269817
 40
0.2450878978269817
 40
0.2450878978269817
 40
0.5002900011581937
 40
0.5002900011581937
 40
0.5002900011581937
 40
0.5002900011581937
 40
0.5002900011581937
 40
0.5002900011581937
 10
-18.10214813421095
 20
13.55765870491922
 30
0.0
 10
-18.1020564840444
 20
13.55770452651251
 30
0.0
 10
-18.10210530619054
 20
13.55794376500745
 30
0.0
 10
-18.10202894015538
 20
13.5579334648402
 30
0.0
 10
-18.10198971125538
 20
13.55814138395368
 30
0.0
 10
-18.10195747743285
 20
13.55834868647201
 30
0.0
 10
-18.10194235706422
 20
13.558455658681
 30
0.0
 10
-18.10190942615679
 20
13.5587084520468
 30
0.0
 10
-18.10188112783635
 20
13.55896235215803
 30
0.0
 10
-18.10186605721838
 20
13.55910898266822
 30
0.0
 10
-18.10181252063478
 20
13.55966535684763
 30
0.0
 10
-18.10176837197855
 20
13.56022188493762
 30
0.0
 10
-18.10173909498326
 20
13.5606319444847
 30
0.0
 10
-18.1016751383911
 20
13.56160509397034
 30
0.0
 10
-18.1016209414197
 20
13.56257870548484
 30
0.0
 10
-18.10159195403764
 20
13.56314193272863
 30
0.0
 10
-18.10151072766121
 20
13.56482664026717
 30
0.0
 10
-18.10144277431897
 20
13.56651192073497
 30
0.0
 10
-18.10140136753694
 20
13.56763383144809
 30
0.0
 10
-18.10127566337837
 20
13.57131073004271
 30
0.0
 10
-18.10117652978579
 20
13.57498847363663
 30
0.0
 10
-18.10111488103581
 20
13.57754410668761
 30
0.0
 10
-18.10095536491258
 20
13.58489118526182
 30
0.0
 10
-18.10083638296743
 20
13.59223906274553
 30
0.0
 10
-18.10076949804249
 20
13.59703102824161
 30
0.0
 10
-18.10058947475443
 20
13.61203047729515
 30
0.0
 10
-18.10048653515355
 20
13.62703072296844
 30
0.0
 10
-18.10044060690313
 20
13.6372387305505
 30
0.0
 10
-18.10041785994247
 20
13.64744681256675
 30
0.0
 10
-18.10041785994247
 20
13.65765489722562
 30
0.0
  0
SPLINE
  5
21D
330
2
100
AcDbEntity
  8
GAIKEI
 62
     1
370
    40
100
AcDbSpline
210
0.0
220
0.0
230
1.0
 70
     8
 71
     5
 72
    36
 73
    30
 74
     0
 42
0.0000000001
 43
0.0000000001
 40
0.0
 40
0.0
 40
0.0
 40
0.0
 40
0.0
 40
0.0
 40
0.0025350144998136
 40
0.0025350144998136
 40
0.0025350144998136
 40
0.0052401139847425
 40
0.0052401139847425
 40
0.0052401139847425
 40
0.008922990371107
 40
0.008922990371107
 40
0.008922990371107
 40
0.0192020485227252
 40
0.0192020485227252
 40
0.0192020485227252
 40
0.0333014377345549
 40
0.0333014377345549
 40
0.0333014377345549
 40
0.0613680389540542
 40
0.0613680389540542
 40
0.0613680389540542
 40
0.1252773064315489
 40
0.1252773064315489
 40
0.1252773064315489
 40
0.2450878978285973
 40
0.2450878978285973
 40
0.2450878978285973
 40
0.5002900011581943
 40
0.5002900011581943
 40
0.5002900011581943
 40
0.5002900011581943
 40
0.5002900011581943
 40
0.5002900011581943
 10
-18.10214813421095
 20
13.85938884741304
 30
0.0
 10
-18.1020564840444
 20
13.85934302581972
 30
0.0
 10
-18.10210530619054
 20
13.85910378732481
 30
0.0
 10
-18.10202894015538
 20
13.85911408749206
 30
0.0
 10
-18.10198971125544
 20
13.85890616837858
 30
0.0
 10
-18.10195747743285
 20
13.85869886586025
 30
0.0
 10
-18.10194235706422
 20
13.85859189365126
 30
0.0
 10
-18.10190942615679
 20
13.85833910028546
 30
0.0
 10
-18.10188112783635
 20
13.8580852001742
 30
0.0
 10
-18.10186605721833
 20
13.85793856966401
 30
0.0
 10
-18.10181252063472
 20
13.8573821954846
 30
0.0
 10
-18.10176837197855
 20
13.85682566739456
 30
0.0
 10
-18.10173909498326
 20
13.85641560784754
 30
0.0
 10
-18.1016751383911
 20
13.85544245836181
 30
0.0
 10
-18.1016209414197
 20
13.85446884684734
 30
0.0
 10
-18.10159195403764
 20
13.85390561960355
 30
0.0
 10
-18.10151072766115
 20
13.85222091206498
 30
0.0
 10
-18.10144277431897
 20
13.85053563159712
 30
0.0
 10
-18.10140136753694
 20
13.84941372088403
 30
0.0
 10
-18.10127566337837
 20
13.84573682228935
 30
0.0
 10
-18.10117652978584
 20
13.8420590786954
 30
0.0
 10
-18.10111488103581
 20
13.83950344564439
 30
0.0
 10
-18.10095536491258
 20
13.83215636707018
 30
0.0
 10
-18.10083638296743
 20
13.82480848958644
 30
0.0
 10
-18.10076949804249
 20
13.82001652409036
 30
0.0
 10
-18.10058947475443
 20
13.80501707503686
 30
0.0
 10
-18.10048653515355
 20
13.79001682936362
 30
0.0
 10
-18.10044060690313
 20
13.77980882178164
 30
0.0
 10
-18.10041785994247
 20
13.76960073976545
 30
0.0
 10
-18.10041785994247
 20
13.75939265510664
 30
0.0
  0
LINE
  5
21E
330
2
100
AcDbEntity
  8
GAIKEI
 62
     1
 48
0.011446
370
    40
100
AcDbLine
 10
-18.10041800418349
 20
13.65765492663863
 30
0.0
 11
-18.10041800418349
 21
13.7593927044164
 31
0.0
  0
SPLINE
  5
21F
330
2
100
AcDbEntity
  8
GAIKEI
 62
     1
370
    40
100
AcDbSpline
210
0.0
220
0.0
230
1.0
 70
     8
 71
     5
 72
    36
 73
    30
 74
     0
 42
0.0000000001
 43
0.0000000001
 40
0.0
 40
0.0
 40
0.0
 40
0.0
 40
0.0
 40
0.0
 40
0.002535014499806
 40
0.002535014499806
 40
0.002535014499806
 40
0.0052401139847419
 40
0.0052401139847419
 40
0.0052401139847419
 40
0.0089229903711212
 40
0.0089229903711212
 40
0.0089229903711212
 40
0.0192020485227864
 40
0.0192020485227864
 40
0.0192020485227864
 40
0.0333014377346218
 40
0.0333014377346218
 40
0.0333014377346218
 40
0.061368038953967
 40
0.061368038953967
 40
0.061368038953967
 40
0.1252773064304039
 40
0.1252773064304039
 40
0.1252773064304039
 40
0.2450878978260454
 40
0.2450878978260454
 40
0.2450878978260454
 40
0.5002900011581881
 40
0.5002900011581881
 40
0.5002900011581881
 40
0.5002900011581881
 40
0.5002900011581881
 40
0.5002900011581881
 10
-18.10214813421095
 20
20.85938884741304
 30
0.0
 10
-18.1020564840444
 20
20.85934302581973
 30
0.0
 10
-18.10210530619054
 20
20.85910378732484
 30
0.0
 10
-18.10202894015538
 20
20.85911408749206
 30
0.0
 10
-18.10198971125538
 20
20.85890616837855
 30
0.0
 10
-18.10195747743285
 20
20.85869886586022
 30
0.0
 10
-18.10194235706422
 20
20.85859189365129
 30
0.0
 10
-18.10190942615679
 20
20.85833910028546
 30
0.0
 10
-18.10188112783629
 20
20.85808520017423
 30
0.0
 10
-18.10186605721838
 20
20.85793856966404
 30
0.0
 10
-18.10181252063472
 20
20.8573821954846
 30
0.0
 10
-18.10176837197855
 20
20.85682566739456
 30
0.0
 10
-18.10173909498326
 20
20.85641560784751
 30
0.0
 10
-18.1016751383911
 20
20.85544245836183
 30
0.0
 10
-18.1016209414197
 20
20.85446884684728
 30
0.0
 10
-18.10159195403764
 20
20.85390561960352
 30
0.0
 10
-18.10151072766115
 20
20.85222091206498
 30
0.0
 10
-18.10144277431897
 20
20.85053563159716
 30
0.0
 10
-18.10140136753694
 20
20.84941372088403
 30
0.0
 10
-18.10127566337837
 20
20.84573682228944
 30
0.0
 10
-18.10117652978579
 20
20.84205907869551
 30
0.0
 10
-18.10111488103581
 20
20.83950344564457
 30
0.0
 10
-18.10095536491258
 20
20.83215636707041
 30
0.0
 10
-18.10083638296748
 20
20.82480848958681
 30
0.0
 10
-18.10076949804249
 20
20.82001652409076
 30
0.0
 10
-18.10058947475443
 20
20.80501707503723
 30
0.0
 10
-18.10048653515355
 20
20.79001682936388
 30
0.0
 10
-18.10044060690313
 20
20.77980882178184
 30
0.0
 10
-18.10041785994247
 20
20.76960073976557
 30
0.0
 10
-18.10041785994247
 20
20.75939265510664
 30
0.0
  0
SPLINE
  5
220
330
2
100
AcDbEntity
  8
GAIKEI
 62
     1
370
    40
100
AcDbSpline
210
0.0
220
0.0
230
1.0
 70
     8
 71
     5
 72
    36
 73
    30
 74
     0
 42
0.0000000001
 43
0.0000000001
 40
0.0
 40
0.0
 40
0.0
 40
0.0
 40
0.0
 40
0.0
 40
0.0025350144997596
 40
0.0025350144997596
 40
0.0025350144997596
 40
0.005240113984604
 40
0.005240113984604
 40
0.005240113984604
 40
0.0089229903708448
 40
0.0089229903708448
 40
0.0089229903708448
 40
0.0192020485221157
 40
0.0192020485221157
 40
0.0192020485221157
 40
0.0333014377335526
 40
0.0333014377335526
 40
0.0333014377335526
 40
0.0613680389524933
 40
0.0613680389524933
 40
0.0613680389524933
 40
0.1252773064304867
 40
0.1252773064304867
 40
0.1252773064304867
 40
0.2450878978280895
 40
0.2450878978280895
 40
0.2450878978280895
 40
0.5002900011581894
 40
0.5002900011581894
 40
0.5002900011581894
 40
0.5002900011581894
 40
0.5002900011581894
 40
0.5002900011581894
 10
-18.10214813421095
 20
20.55765870491922
 30
0.0
 10
-18.1020564840444
 20
20.55770452651251
 30
0.0
 10
-18.10210530619054
 20
20.55794376500745
 30
0.0
 10
-18.10202894015538
 20
20.55793346484021
 30
0.0
 10
-18.10198971125538
 20
20.55814138395371
 30
0.0
 10
-18.10195747743285
 20
20.55834868647202
 30
0.0
 10
-18.10194235706422
 20
20.558455658681
 30
0.0
 10
-18.10190942615679
 20
20.5587084520468
 30
0.0
 10
-18.10188112783629
 20
20.55896235215801
 30
0.0
 10
-18.10186605721838
 20
20.55910898266819
 30
0.0
 10
-18.10181252063472
 20
20.55966535684758
 30
0.0
 10
-18.10176837197855
 20
20.56022188493756
 30
0.0
 10
-18.10173909498326
 20
20.56063194448467
 30
0.0
 10
-18.1016751383911
 20
20.56160509397031
 30
0.0
 10
-18.1016209414197
 20
20.56257870548478
 30
0.0
 10
-18.10159195403764
 20
20.56314193272857
 30
0.0
 10
-18.10151072766115
 20
20.56482664026709
 30
0.0
 10
-18.10144277431897
 20
20.56651192073486
 30
0.0
 10
-18.10140136753694
 20
20.56763383144798
 30
0.0
 10
-18.10127566337837
 20
20.57131073004263
 30
0.0
 10
-18.10117652978579
 20
20.57498847363658
 30
0.0
 10
-18.10111488103581
 20
20.57754410668764
 30
0.0
 10
-18.10095536491258
 20
20.58489118526185
 30
0.0
 10
-18.10083638296748
 20
20.59223906274565
 30
0.0
 10
-18.10076949804249
 20
20.59703102824176
 30
0.0
 10
-18.10058947475443
 20
20.61203047729526
 30
0.0
 10
-18.10048653515355
 20
20.62703072296859
 30
0.0
 10
-18.10044060690313
 20
20.63723873055062
 30
0.0
 10
-18.10041785994247
 20
20.64744681256678
 30
0.0
 10
-18.10041785994247
 20
20.65765489722563
 30
0.0
  0
LINE
  5
221
330
2
100
AcDbEntity
  8
GAIKEI
 62
     1
 48
0.011446
370
    40
100
AcDbLine
 10
-18.10041800418349
 20
20.65765470441641
 30
0.0
 11
-18.10041800418349
 21
20.75939270441643
 31
0.0
  0
SPLINE
  5
222
330
2
100
AcDbEntity
  8
GAIKEI
 62
     1
370
    40
100
AcDbSpline
210
0.0
220
0.0
230
1.0
 70
     8
 71
     5
 72
    36
 73
    30
 74
     0
 42
0.0000000001
 43
0.0000000001
 40
0.0
 40
0.0
 40
0.0
 40
0.0
 40
0.0
 40
0.0
 40
0.0025350145390963
 40
0.0025350145390963
 40
0.0025350145390963
 40
0.00524011411283
 40
0.00524011411283
 40
0.00524011411283
 40
0.0089229906403205
 40
0.0089229906403205
 40
0.0089229906403205
 40
0.0192020491680041
 40
0.0192020491680041
 40
0.0192020491680041
 40
0.0333014387266646
 40
0.0333014387266646
 40
0.0333014387266646
 40
0.0613680401742872
 40
0.0613680401742872
 40
0.0613680401742872
 40
0.125277307739532
 40
0.125277307739532
 40
0.125277307739532
 40
0.2450878989484338
 40
0.2450878989484338
 40
0.2450878989484338
 40
0.5002900014229588
 40
0.5002900014229588
 40
0.5002900014229588
 40
0.5002900014229588
 40
0.5002900014229588
 40
0.5002900014229588
 10
-24.74757532916385
 20
25.10481604236537
 30
0.0
 10
-24.74762115075794
 20
25.10490769253329
 30
0.0
 10
-24.74786038926044
 20
25.10485887038342
 30
0.0
 10
-24.74785008908981
 20
25.10493523642117
 30
0.0
 10
-24.74805800820855
 20
25.10497446532108
 30
0.0
 10
-24.74826531073205
 20
25.10500669914364
 30
0.0
 10
-24.74837228294461
 20
25.10502181951242
 30
0.0
 10
-24.74862507631963
 20
25.10505475042018
 30
0.0
 10
-24.7488789764401
 20
25.10508304874094
 30
0.0
 10
-24.74902560695591
 20
25.1050981193591
 30
0.0
 10
-24.7495819811561
 20
25.10515165594345
 30
0.0
 10
-24.75013850926678
 20
25.10519580460039
 30
0.0
 10
-24.75054856882889
 20
25.10522508159628
 30
0.0
 10
-24.75152171834344
 20
25.10528903818932
 30
0.0
 10
-24.75249532988693
 20
25.10534323516174
 30
0.0
 10
-24.75305855714453
 20
25.10537222254416
 30
0.0
 10
-24.75474326470612
 20
25.10545344892108
 30
0.0
 10
-24.75642854519697
 20
25.10552140226363
 30
0.0
 10
-24.75755045591922
 20
25.10556280904561
 30
0.0
 10
-24.76122735452657
 20
25.10568851320335
 30
0.0
 10
-24.76490509813317
 20
25.10578764679556
 30
0.0
 10
-24.76746073118767
 20
25.10584929554514
 30
0.0
 10
-24.77480780975793
 20
25.10600881166724
 30
0.0
 10
-24.78215568723766
 20
25.10612779361171
 30
0.0
 10
-24.78694765272621
 20
25.10619467853627
 30
0.0
 10
-24.801947101738
 20
25.10637470182292
 30
0.0
 10
-24.81694734736954
 20
25.10647764142325
 30
0.0
 10
-24.8271553549173
 20
25.1065235696733
 30
0.0
 10
-24.8373634368993
 20
25.10654631663383
 30
0.0
 10
-24.84757152152389
 20
25.10654631663383
 30
0.0
  0
SPLINE
  5
223
330
2
100
AcDbEntity
  8
GAIKEI
 62
     1
370
    40
100
AcDbSpline
210
0.0
220
0.0
230
1.0
 70
     8
 71
     5
 72
    36
 73
    30
 74
     0
 42
0.0000000001
 43
0.0000000001
 40
0.0
 40
0.0
 40
0.0
 40
0.0
 40
0.0
 40
0.0
 40
0.0025350144604519
 40
0.0025350144604519
 40
0.0025350144604519
 40
0.0052401138564386
 40
0.0052401138564386
 40
0.0052401138564386
 40
0.0089229901014608
 40
0.0089229901014608
 40
0.0089229901014608
 40
0.0192020478764182
 40
0.0192020478764182
 40
0.0192020478764182
 40
0.0333014367407776
 40
0.0333014367407776
 40
0.0333014367407776
 40
0.061368037731388
 40
0.061368037731388
 40
0.061368037731388
 40
0.1252773051195147
 40
0.1252773051195147
 40
0.1252773051195147
 40
0.245087896702916
 40
0.245087896702916
 40
0.245087896702916
 40
0.5002900008934225
 40
0.5002900008934225
 40
0.5002900008934225
 40
0.5002900008934225
 40
0.5002900008934225
 40
0.5002900008934225
 10
-25.0493054716577
 20
25.10481604236537
 30
0.0
 10
-25.04925965006516
 20
25.10490769253045
 30
0.0
 10
-25.04902041157789
 20
25.10485887038809
 30
0.0
 10
-25.04903071174169
 20
25.10493523642066
 30
0.0
 10
-25.04882279263342
 20
25.10497446532065
 30
0.0
 10
-25.04861549012031
 20
25.10500669914319
 30
0.0
 10
-25.04850851791497
 20
25.10502181951177
 30
0.0
 10
-25.04825572455832
 20
25.10505475041882
 30
0.0
 10
-25.04800182445632
 20
25.10508304873898
 30
0.0
 10
-25.04785519395176
 20
25.10509811935666
 30
0.0
 10
-25.04729881979313
 20
25.10515165593969
 30
0.0
 10
-25.04674229172383
 20
25.10519580459507
 30
0.0
 10
-25.04633223219185
 20
25.10522508158985
 30
0.0
 10
-25.0453590827351
 20
25.10528903818104
 30
0.0
 10
-25.04438547124954
 20
25.10534323515145
 30
0.0
 10
-25.04382224401968
 20
25.10537222253302
 30
0.0
 10
-25.04213753650418
 20
25.1054534489092
 30
0.0
 10
-25.04045225605933
 20
25.10552140225101
 30
0.0
 10
-25.03933034535544
 20
25.10556280903313
 30
0.0
 10
-25.0356534467735
 20
25.10568851319252
 30
0.0
 10
-25.0319757031923
 20
25.10578764678539
 30
0.0
 10
-25.02942007014491
 20
25.10584929553579
 30
0.0
 10
-25.0220729915668
 20
25.10600881166016
 30
0.0
 10
-25.01472511407923
 20
25.10612779360597
 30
0.0
 10
-25.00993314857567
 20
25.10619467853135
 30
0.0
 10
-24.99493369948033
 20
25.10637470182073
 30
0.0
 10
-24.97993345376517
 20
25.10647764142226
 30
0.0
 10
-24.96972544614874
 20
25.1065235696729
 30
0.0
 10
-24.95951736409813
 20
25.10654631663383
 30
0.0
 10
-24.94930927940487
 20
25.10654631663383
 30
0.0
  0
LINE
  5
224
330
2
100
AcDbEntity
  8
GAIKEI
 62
     1
 48
0.011446
370
    40
100
AcDbLine
 10
-24.94930933751681
 20
25.10654625997196
 30
0.0
 11
-24.8475713375168
 21
25.10654625997196
 31
0.0
  0
SPLINE
  5
225
330
2
100
AcDbEntity
  8
GAIKEI
 62
     1
370
    40
100
AcDbSpline
210
0.0
220
0.0
230
1.0
 70
     8
 71
     5
 72
    36
 73
    30
 74
     0
 42
0.0000000001
 43
0.0000000001
 40
0.0
 40
0.0
 40
0.0
 40
0.0
 40
0.0
 40
0.0
 40
0.0025350145390957
 40
0.0025350145390957
 40
0.0025350145390957
 40
0.0052401141128585
 40
0.0052401141128585
 40
0.0052401141128585
 40
0.0089229906403985
 40
0.0089229906403985
 40
0.0089229906403985
 40
0.0192020491682171
 40
0.0192020491682171
 40
0.0192020491682171
 40
0.0333014387269699
 40
0.0333014387269699
 40
0.0333014387269699
 40
0.0613680401745358
 40
0.0613680401745358
 40
0.0613680401745358
 40
0.1252773077401465
 40
0.1252773077401465
 40
0.1252773077401465
 40
0.2450878989490837
 40
0.2450878989490837
 40
0.2450878989490837
 40
0.5002900014229513
 40
0.5002900014229513
 40
0.5002900014229513
 40
0.5002900014229513
 40
0.5002900014229513
 40
0.5002900014229513
 10
-31.9475753291639
 20
25.10481604236537
 30
0.0
 10
-31.94762115075787
 20
25.10490769253329
 30
0.0
 10
-31.94786038926049
 20
25.10485887038342
 30
0.0
 10
-31.9478500890898
 20
25.10493523642117
 30
0.0
 10
-31.94805800820859
 20
25.10497446532108
 30
0.0
 10
-31.9482653107321
 20
25.10500669914359
 30
0.0
 10
-31.9483722829446
 20
25.10502181951242
 30
0.0
 10
-31.94862507631962
 20
25.10505475042018
 30
0.0
 10
-31.94887897644008
 20
25.10508304874094
 30
0.0
 10
-31.9490256069559
 20
25.1050981193591
 30
0.0
 10
-31.94958198115609
 20
25.10515165594345
 30
0.0
 10
-31.95013850926682
 20
25.10519580460041
 30
0.0
 10
-31.95054856882894
 20
25.10522508159628
 30
0.0
 10
-31.95152171834354
 20
25.10528903818932
 30
0.0
 10
-31.95249532988697
 20
25.10534323516177
 30
0.0
 10
-31.95305855714463
 20
25.10537222254416
 30
0.0
 10
-31.95474326470617
 20
25.10545344892108
 30
0.0
 10
-31.95642854519701
 20
25.10552140226363
 30
0.0
 10
-31.95755045591926
 20
25.10556280904561
 30
0.0
 10
-31.96122735452661
 20
25.10568851320338
 30
0.0
 10
-31.96490509813322
 20
25.10578764679556
 30
0.0
 10
-31.96746073118777
 20
25.10584929554517
 30
0.0
 10
-31.97480780975798
 20
25.10600881166721
 30
0.0
 10
-31.98215568723777
 20
25.10612779361171
 30
0.0
 10
-31.98694765272632
 20
25.10619467853627
 30
0.0
 10
-32.00194710173804
 20
25.10637470182292
 30
0.0
 10
-32.01694734736958
 20
25.10647764142325
 30
0.0
 10
-32.02715535491734
 20
25.10652356967324
 30
0.0
 10
-32.03736343689929
 20
25.10654631663383
 30
0.0
 10
-32.04757152152388
 20
25.10654631663383
 30
0.0
  0
SPLINE
  5
226
330
2
100
AcDbEntity
  8
GAIKEI
 62
     1
370
    40
100
AcDbSpline
210
0.0
220
0.0
230
1.0
 70
     8
 71
     5
 72
    36
 73
    30
 74
     0
 42
0.0000000001
 43
0.0000000001
 40
0.0
 40
0.0
 40
0.0
 40
0.0
 40
0.0
 40
0.0
 40
0.0025350144604519
 40
0.0025350144604519
 40
0.0025350144604519
 40
0.0052401138564376
 40
0.0052401138564376
 40
0.0052401138564376
 40
0.008922990101474
 40
0.008922990101474
 40
0.008922990101474
 40
0.0192020478764637
 40
0.0192020478764637
 40
0.0192020478764637
 40
0.0333014367408374
 40
0.0333014367408374
 40
0.0333014367408374
 40
0.0613680377313803
 40
0.0613680377313803
 40
0.0613680377313803
 40
0.1252773051200933
 40
0.1252773051200933
 40
0.1252773051200933
 40
0.2450878967040168
 40
0.2450878967040168
 40
0.2450878967040168
 40
0.5002900008934327
 40
0.5002900008934327
 40
0.5002900008934327
 40
0.5002900008934327
 40
0.5002900008934327
 40
0.5002900008934327
 10
-32.24930547165775
 20
25.10481604236537
 30
0.0
 10
-32.24925965006514
 20
25.10490769253045
 30
0.0
 10
-32.24902041157788
 20
25.10485887038806
 30
0.0
 10
-32.24903071174163
 20
25.10493523642072
 30
0.0
 10
-32.2488227926334
 20
25.10497446532062
 30
0.0
 10
-32.2486154901203
 20
25.10500669914319
 30
0.0
 10
-32.2485085179149
 20
25.10502181951177
 30
0.0
 10
-32.24825572455831
 20
25.10505475041879
 30
0.0
 10
-32.24800182445631
 20
25.10508304873898
 30
0.0
 10
-32.24785519395175
 20
25.10509811935666
 30
0.0
 10
-32.24729881979312
 20
25.10515165593969
 30
0.0
 10
-32.24674229172382
 20
25.10519580459507
 30
0.0
 10
-32.24633223219178
 20
25.10522508158985
 30
0.0
 10
-32.24535908273515
 20
25.10528903818102
 30
0.0
 10
-32.24438547124953
 20
25.10534323515151
 30
0.0
 10
-32.24382224401961
 20
25.10537222253302
 30
0.0
 10
-32.24213753650417
 20
25.1054534489092
 30
0.0
 10
-32.24045225605937
 20
25.10552140225101
 30
0.0
 10
-32.23933034535543
 20
25.10556280903313
 30
0.0
 10
-32.23565344677349
 20
25.10568851319255
 30
0.0
 10
-32.23197570319229
 20
25.10578764678539
 30
0.0
 10
-32.22942007014484
 20
25.10584929553579
 30
0.0
 10
-32.22207299156674
 20
25.10600881166016
 30
0.0
 10
-32.21472511407905
 20
25.10612779360599
 30
0.0
 10
-32.20993314857549
 20
25.10619467853135
 30
0.0
 10
-32.19493369948015
 20
25.10637470182073
 30
0.0
 10
-32.17993345376505
 20
25.10647764142232
 30
0.0
 10
-32.16972544614868
 20
25.1065235696729
 30
0.0
 10
-32.15951736409806
 20
25.10654631663383
 30
0.0
 10
-32.14930927940486
 20
25.10654631663383
 30
0.0
  0
LINE
  5
227
330
2
100
AcDbEntity
  8
GAIKEI
 62
     1
 48
0.011446
370
    40
100
AcDbLine
 10
-32.1493093375168
 20
25.10654625997196
 30
0.0
 11
-32.04757133751684
 21
25.10654625997196
 31
0.0
  0
SPLINE
  5
228
330
2
100
AcDbEntity
  8
GAIKEI
 62
     1
370
    40
100
AcDbSpline
210
0.0
220
0.0
230
1.0
 70
     8
 71
     5
 72
    36
 73
    30
 74
     0
 42
0.0000000001
 43
0.0000000001
 40
0.0
 40
0.0
 40
0.0
 40
0.0
 40
0.0
 40
0.0
 40
0.0025350144997494
 40
0.0025350144997494
 40
0.0025350144997494
 40
0.0052401139845868
 40
0.0052401139845868
 40
0.0052401139845868
 40
0.0089229903708127
 40
0.0089229903708127
 40
0.0089229903708127
 40
0.0192020485220446
 40
0.0192020485220446
 40
0.0192020485220446
 40
0.0333014377334247
 40
0.0333014377334247
 40
0.0333014377334247
 40
0.0613680389522767
 40
0.0613680389522767
 40
0.0613680389522767
 40
0.1252773064284474
 40
0.1252773064284474
 40
0.1252773064284474
 40
0.2450878978238014
 40
0.2450878978238014
 40
0.2450878978238014
 40
0.5002900011581896
 40
0.5002900011581896
 40
0.5002900011581896
 40
0.5002900011581896
 40
0.5002900011581896
 40
0.5002900011581896
 10
-38.8947326666094
 20
20.85938884741304
 30
0.0
 10
-38.8948243167759
 20
20.85934302581973
 30
0.0
 10
-38.89477549462976
 20
20.8591037873249
 30
0.0
 10
-38.89485186066497
 20
20.85911408749206
 30
0.0
 10
-38.89489108956491
 20
20.85890616837855
 30
0.0
 10
-38.89492332338745
 20
20.85869886586028
 30
0.0
 10
-38.89493844375613
 20
20.85859189365129
 30
0.0
 10
-38.8949713746635
 20
20.85833910028549
 30
0.0
 10
-38.894999672984
 20
20.85808520017423
 30
0.0
 10
-38.89501474360191
 20
20.85793856966407
 30
0.0
 10
-38.89506828018557
 20
20.85738219548466
 30
0.0
 10
-38.89511242884174
 20
20.85682566739468
 30
0.0
 10
-38.89514170583709
 20
20.85641560784762
 30
0.0
 10
-38.89520566242919
 20
20.85544245836195
 30
0.0
 10
-38.8952598594006
 20
20.85446884684748
 30
0.0
 10
-38.89528884678265
 20
20.85390561960372
 30
0.0
 10
-38.89537007315914
 20
20.85222091206521
 30
0.0
 10
-38.89543802650138
 20
20.85053563159741
 30
0.0
 10
-38.89547943328336
 20
20.84941372088434
 30
0.0
 10
-38.89560513744198
 20
20.84573682228975
 30
0.0
 10
-38.8957042710345
 20
20.84205907869586
 30
0.0
 10
-38.89576591978454
 20
20.83950344564494
 30
0.0
 10
-38.89592543590771
 20
20.83215636707081
 30
0.0
 10
-38.89604441785286
 20
20.82480848958721
 30
0.0
 10
-38.89611130277785
 20
20.82001652409119
 30
0.0
 10
-38.89629132606586
 20
20.8050170750376
 30
0.0
 10
-38.8963942656668
 20
20.79001682936419
 30
0.0
 10
-38.8964401939171
 20
20.77980882178201
 30
0.0
 10
-38.89646294087782
 20
20.76960073976565
 30
0.0
 10
-38.89646294087782
 20
20.75939265510664
 30
0.0
  0
SPLINE
  5
229
330
2
100
AcDbEntity
  8
GAIKEI
 62
     1
370
    40
100
AcDbSpline
210
0.0
220
0.0
230
1.0
 70
     8
 71
     5
 72
    36
 73
    30
 74
     0
 42
0.0000000001
 43
0.0000000001
 40
0.0
 40
0.0
 40
0.0
 40
0.0
 40
0.0
 40
0.0
 40
0.0025350144997788
 40
0.0025350144997788
 40
0.0025350144997788
 40
0.0052401139846479
 40
0.0052401139846479
 40
0.0052401139846479
 40
0.0089229903709268
 40
0.0089229903709268
 40
0.0089229903709268
 40
0.0192020485223045
 40
0.0192020485223045
 40
0.0192020485223045
 40
0.0333014377338589
 40
0.0333014377338589
 40
0.0333014377338589
 40
0.0613680389529807
 40
0.0613680389529807
 40
0.0613680389529807
 40
0.1252773064298512
 40
0.1252773064298512
 40
0.1252773064298512
 40
0.2450878978261004
 40
0.2450878978261004
 40
0.2450878978261004
 40
0.5002900011582007
 40
0.5002900011582007
 40
0.5002900011582007
 40
0.5002900011582007
 40
0.5002900011582007
 40
0.5002900011582007
 10
-38.8947326666094
 20
20.55765870491922
 30
0.0
 10
-38.8948243167759
 20
20.55770452651251
 30
0.0
 10
-38.89477549462976
 20
20.55794376500745
 30
0.0
 10
-38.89485186066497
 20
20.55793346484021
 30
0.0
 10
-38.89489108956491
 20
20.55814138395371
 30
0.0
 10
-38.89492332338745
 20
20.55834868647202
 30
0.0
 10
-38.89493844375613
 20
20.558455658681
 30
0.0
 10
-38.8949713746635
 20
20.5587084520468
 30
0.0
 10
-38.894999672984
 20
20.55896235215801
 30
0.0
 10
-38.89501474360191
 20
20.55910898266819
 30
0.0
 10
-38.89506828018557
 20
20.55966535684763
 30
0.0
 10
-38.89511242884174
 20
20.56022188493762
 30
0.0
 10
-38.89514170583709
 20
20.5606319444847
 30
0.0
 10
-38.89520566242919
 20
20.56160509397031
 30
0.0
 10
-38.89525985940066
 20
20.56257870548484
 30
0.0
 10
-38.89528884678265
 20
20.56314193272863
 30
0.0
 10
-38.89537007315914
 20
20.56482664026714
 30
0.0
 10
-38.89543802650138
 20
20.56651192073497
 30
0.0
 10
-38.89547943328336
 20
20.56763383144806
 30
0.0
 10
-38.89560513744203
 20
20.57131073004271
 30
0.0
 10
-38.8957042710345
 20
20.57498847363658
 30
0.0
 10
-38.89576591978454
 20
20.57754410668758
 30
0.0
 10
-38.89592543590771
 20
20.58489118526171
 30
0.0
 10
-38.89604441785286
 20
20.59223906274542
 30
0.0
 10
-38.89611130277785
 20
20.59703102824148
 30
0.0
 10
-38.89629132606586
 20
20.61203047729501
 30
0.0
 10
-38.8963942656668
 20
20.62703072296836
 30
0.0
 10
-38.8964401939171
 20
20.63723873055039
 30
0.0
 10
-38.89646294087788
 20
20.6474468125667
 30
0.0
 10
-38.89646294087782
 20
20.65765489722563
 30
0.0
  0
LINE
  5
22A
330
2
100
AcDbEntity
  8
GAIKEI
 62
     1
 48
0.011446
370
    40
100
AcDbLine
 10
-38.8964628930724
 20
20.65765470441641
 30
0.0
 11
-38.8964628930724
 21
20.75939270441643
 31
0.0
  0
SPLINE
  5
22B
330
2
100
AcDbEntity
  8
GAIKEI
 62
     1
370
    40
100
AcDbSpline
210
0.0
220
0.0
230
1.0
 70
     8
 71
     5
 72
    36
 73
    30
 74
     0
 42
0.0000000001
 43
0.0000000001
 40
0.0
 40
0.0
 40
0.0
 40
0.0
 40
0.0
 40
0.0
 40
0.0025350144997757
 40
0.0025350144997757
 40
0.0025350144997757
 40
0.0052401139846571
 40
0.0052401139846571
 40
0.0052401139846571
 40
0.008922990370952
 40
0.008922990370952
 40
0.008922990370952
 40
0.0192020485223789
 40
0.0192020485223789
 40
0.0192020485223789
 40
0.0333014377339678
 40
0.0333014377339678
 40
0.0333014377339678
 40
0.06136803895306
 40
0.06136803895306
 40
0.06136803895306
 40
0.1252773064300105
 40
0.1252773064300105
 40
0.1252773064300105
 40
0.2450878978262029
 40
0.2450878978262029
 40
0.2450878978262029
 40
0.500290001158194
 40
0.500290001158194
 40
0.500290001158194
 40
0.500290001158194
 40
0.500290001158194
 40
0.500290001158194
 10
-38.8947326666094
 20
13.85938884741304
 30
0.0
 10
-38.8948243167759
 20
13.85934302581972
 30
0.0
 10
-38.89477549462976
 20
13.85910378732481
 30
0.0
 10
-38.89485186066492
 20
13.85911408749206
 30
0.0
 10
-38.89489108956491
 20
13.85890616837858
 30
0.0
 10
-38.89492332338739
 20
13.85869886586025
 30
0.0
 10
-38.89493844375613
 20
13.85859189365129
 30
0.0
 10
-38.8949713746635
 20
13.85833910028546
 30
0.0
 10
-38.894999672984
 20
13.85808520017423
 30
0.0
 10
-38.89501474360191
 20
13.85793856966407
 30
0.0
 10
-38.89506828018557
 20
13.85738219548466
 30
0.0
 10
-38.89511242884174
 20
13.85682566739461
 30
0.0
 10
-38.89514170583709
 20
13.85641560784756
 30
0.0
 10
-38.89520566242919
 20
13.85544245836192
 30
0.0
 10
-38.8952598594006
 20
13.85446884684739
 30
0.0
 10
-38.89528884678265
 20
13.85390561960366
 30
0.0
 10
-38.89537007315914
 20
13.85222091206512
 30
0.0
 10
-38.89543802650138
 20
13.85053563159729
 30
0.0
 10
-38.89547943328336
 20
13.84941372088417
 30
0.0
 10
-38.89560513744198
 20
13.84573682228955
 30
0.0
 10
-38.8957042710345
 20
13.84205907869565
 30
0.0
 10
-38.89576591978454
 20
13.83950344564465
 30
0.0
 10
-38.89592543590771
 20
13.83215636707047
 30
0.0
 10
-38.89604441785286
 20
13.82480848958681
 30
0.0
 10
-38.89611130277785
 20
13.82001652409076
 30
0.0
 10
-38.89629132606586
 20
13.80501707503723
 30
0.0
 10
-38.8963942656668
 20
13.79001682936388
 30
0.0
 10
-38.89644019391722
 20
13.77980882178184
 30
0.0
 10
-38.89646294087782
 20
13.76960073976556
 30
0.0
 10
-38.89646294087782
 20
13.75939265510664
 30
0.0
  0
LINE
  5
22C
330
2
100
AcDbEntity
  8
GAIKEI
 62
     1
 48
0.011446
370
    40
100
AcDbLine
 10
-38.8964628930724
 20
13.65765492663863
 30
0.0
 11
-38.8964628930724
 21
13.7593927044164
 31
0.0
  0
SPLINE
  5
22D
330
2
100
AcDbEntity
  8
GAIKEI
 62
     1
370
    40
100
AcDbSpline
210
0.0
220
0.0
230
1.0
 70
     8
 71
     5
 72
    36
 73
    30
 74
     0
 42
0.0000000001
 43
0.0000000001
 40
0.0
 40
0.0
 40
0.0
 40
0.0
 40
0.0
 40
0.0
 40
0.0025350144997876
 40
0.0025350144997876
 40
0.0025350144997876
 40
0.0052401139846874
 40
0.0052401139846874
 40
0.0052401139846874
 40
0.008922990371013
 40
0.008922990371013
 40
0.008922990371013
 40
0.0192020485225214
 40
0.0192020485225214
 40
0.0192020485225214
 40
0.0333014377341955
 40
0.0333014377341955
 40
0.0333014377341955
 40
0.0613680389533865
 40
0.0613680389533865
 40
0.0613680389533865
 40
0.1252773064304754
 40
0.1252773064304754
 40
0.1252773064304754
 40
0.2450878978268062
 40
0.2450878978268062
 40
0.2450878978268062
 40
0.5002900011581932
 40
0.5002900011581932
 40
0.5002900011581932
 40
0.5002900011581932
 40
0.5002900011581932
 40
0.5002900011581932
 10
-38.8947326666094
 20
13.55765870491922
 30
0.0
 10
-38.8948243167759
 20
13.55770452651251
 30
0.0
 10
-38.89477549462976
 20
13.55794376500745
 30
0.0
 10
-38.89485186066497
 20
13.5579334648402
 30
0.0
 10
-38.89489108956491
 20
13.55814138395371
 30
0.0
 10
-38.89492332338745
 20
13.55834868647201
 30
0.0
 10
-38.89493844375613
 20
13.558455658681
 30
0.0
 10
-38.8949713746635
 20
13.5587084520468
 30
0.0
 10
-38.89499967298405
 20
13.55896235215803
 30
0.0
 10
-38.89501474360191
 20
13.55910898266822
 30
0.0
 10
-38.89506828018557
 20
13.55966535684763
 30
0.0
 10
-38.89511242884174
 20
13.56022188493767
 30
0.0
 10
-38.89514170583709
 20
13.56063194448472
 30
0.0
 10
-38.89520566242919
 20
13.56160509397037
 30
0.0
 10
-38.89525985940066
 20
13.56257870548489
 30
0.0
 10
-38.89528884678265
 20
13.56314193272868
 30
0.0
 10
-38.89537007315914
 20
13.5648266402672
 30
0.0
 10
-38.89543802650138
 20
13.56651192073502
 30
0.0
 10
-38.89547943328336
 20
13.56763383144812
 30
0.0
 10
-38.89560513744198
 20
13.57131073004277
 30
0.0
 10
-38.8957042710345
 20
13.57498847363669
 30
0.0
 10
-38.89576591978454
 20
13.57754410668767
 30
0.0
 10
-38.89592543590771
 20
13.58489118526185
 30
0.0
 10
-38.89604441785286
 20
13.59223906274553
 30
0.0
 10
-38.89611130277785
 20
13.59703102824159
 30
0.0
 10
-38.89629132606586
 20
13.61203047729512
 30
0.0
 10
-38.8963942656668
 20
13.62703072296844
 30
0.0
 10
-38.89644019391722
 20
13.63723873055048
 30
0.0
 10
-38.89646294087782
 20
13.6474468125667
 30
0.0
 10
-38.89646294087782
 20
13.65765489722562
 30
0.0
  0
SPLINE
  5
22E
330
2
100
AcDbEntity
  8
GAIKEI
 62
     1
370
    40
100
AcDbSpline
210
0.0
220
0.0
230
1.0
 70
     8
 71
     5
 72
    36
 73
    30
 74
     0
 42
0.0000000001
 43
0.0000000001
 40
0.0
 40
0.0
 40
0.0
 40
0.0
 40
0.0
 40
0.0
 40
0.0025350144997459
 40
0.0025350144997459
 40
0.0025350144997459
 40
0.0052401139845798
 40
0.0052401139845798
 40
0.0052401139845798
 40
0.0089229903708058
 40
0.0089229903708058
 40
0.0089229903708058
 40
0.0192020485220376
 40
0.0192020485220376
 40
0.0192020485220376
 40
0.0333014377333929
 40
0.0333014377333929
 40
0.0333014377333929
 40
0.0613680389521239
 40
0.0613680389521239
 40
0.0613680389521239
 40
0.125277306428849
 40
0.125277306428849
 40
0.125277306428849
 40
0.2450878978246578
 40
0.2450878978246578
 40
0.2450878978246578
 40
0.5002900011581968
 40
0.5002900011581968
 40
0.5002900011581968
 40
0.5002900011581968
 40
0.5002900011581968
 40
0.5002900011581968
 10
-38.8947326666094
 20
8.659388847413055
 30
0.0
 10
-38.8948243167759
 20
8.659343025819737
 30
0.0
 10
-38.89477549462976
 20
8.659103787324795
 30
0.0
 10
-38.89485186066497
 20
8.659114087492071
 30
0.0
 10
-38.89489108956491
 20
8.658906168378564
 30
0.0
 10
-38.89492332338745
 20
8.658698865860259
 30
0.0
 10
-38.89493844375613
 20
8.658591893651305
 30
0.0
 10
-38.8949713746635
 20
8.658339100285502
 30
0.0
 10
-38.894999672984
 20
8.658085200174241
 30
0.0
 10
-38.89501474360191
 20
8.657938569664054
 30
0.0
 10
-38.89506828018557
 20
8.657382195484672
 30
0.0
 10
-38.89511242884174
 20
8.656825667394684
 30
0.0
 10
-38.89514170583709
 20
8.656415607847605
 30
0.0
 10
-38.89520566242919
 20
8.655442458361989
 30
0.0
 10
-38.8952598594006
 20
8.654468846847521
 30
0.0
 10
-38.89528884678265
 20
8.653905619603733
 30
0.0
 10
-38.89537007315914
 20
8.652220912065217
 30
0.0
 10
-38.89543802650138
 20
8.650535631597421
 30
0.0
 10
-38.89547943328336
 20
8.649413720884354
 30
0.0
 10
-38.89560513744198
 20
8.645736822289762
 30
0.0
 10
-38.8957042710345
 20
8.642059078695865
 30
0.0
 10
-38.89576591978454
 20
8.639503445644891
 30
0.0
 10
-38.89592543590771
 20
8.632156367070763
 30
0.0
 10
-38.89604441785292
 20
8.624808489587081
 30
0.0
 10
-38.8961113027778
 20
8.620016524091056
 30
0.0
 10
-38.89629132606586
 20
8.605017075037494
 30
0.0
 10
-38.89639426566674
 20
8.59001682936406
 30
0.0
 10
-38.89644019391722
 20
8.579808821781938
 30
0.0
 10
-38.89646294087782
 20
8.569600739765604
 30
0.0
 10
-38.89646294087782
 20
8.559392655106648
 30
0.0
  0
SPLINE
  5
22F
330
2
100
AcDbEntity
  8
GAIKEI
 62
     1
370
    40
100
AcDbSpline
210
0.0
220
0.0
230
1.0
 70
     8
 71
     5
 72
    36
 73
    30
 74
     0
 42
0.0000000001
 43
0.0000000001
 40
0.0
 40
0.0
 40
0.0
 40
0.0
 40
0.0
 40
0.0
 40
0.0025350144997494
 40
0.0025350144997494
 40
0.0025350144997494
 40
0.0052401139845903
 40
0.0052401139845903
 40
0.0052401139845903
 40
0.0089229903708269
 40
0.0089229903708269
 40
0.0089229903708269
 40
0.0192020485220871
 40
0.0192020485220871
 40
0.0192020485220871
 40
0.0333014377334853
 40
0.0333014377334853
 40
0.0333014377334853
 40
0.0613680389522873
 40
0.0613680389522873
 40
0.0613680389522873
 40
0.1252773064297656
 40
0.1252773064297656
 40
0.1252773064297656
 40
0.2450878978264661
 40
0.2450878978264661
 40
0.2450878978264661
 40
0.5002900011581897
 40
0.5002900011581897
 40
0.5002900011581897
 40
0.5002900011581897
 40
0.5002900011581897
 40
0.5002900011581897
 10
-38.8947326666094
 20
8.357658704919231
 30
0.0
 10
-38.8948243167759
 20
8.35770452651252
 30
0.0
 10
-38.89477549462976
 20
8.357943765007405
 30
0.0
 10
-38.89485186066492
 20
8.357933464840215
 30
0.0
 10
-38.89489108956491
 20
8.358141383953665
 30
0.0
 10
-38.89492332338745
 20
8.358348686471998
 30
0.0
 10
-38.89493844375613
 20
8.358455658680952
 30
0.0
 10
-38.8949713746635
 20
8.358708452046812
 30
0.0
 10
-38.894999672984
 20
8.358962352158016
 30
0.0
 10
-38.89501474360191
 20
8.359108982668203
 30
0.0
 10
-38.89506828018557
 20
8.359665356847585
 30
0.0
 10
-38.89511242884174
 20
8.360221884937573
 30
0.0
 10
-38.89514170583709
 20
8.360631944484623
 30
0.0
 10
-38.89520566242919
 20
8.361605093970297
 30
0.0
 10
-38.89525985940071
 20
8.362578705484793
 30
0.0
 10
-38.89528884678265
 20
8.363141932728524
 30
0.0
 10
-38.89537007315914
 20
8.36482664026704
 30
0.0
 10
-38.89543802650138
 20
8.366511920734865
 30
0.0
 10
-38.89547943328336
 20
8.367633831447932
 30
0.0
 10
-38.89560513744198
 20
8.37131073004258
 30
0.0
 10
-38.8957042710345
 20
8.374988473636506
 30
0.0
 10
-38.89576591978454
 20
8.377544106687508
 30
0.0
 10
-38.89592543590771
 20
8.384891185261722
 30
0.0
 10
-38.89604441785286
 20
8.392239062745431
 30
0.0
 10
-38.89611130277785
 20
8.397031028241485
 30
0.0
 10
-38.89629132606586
 20
8.412030477295047
 30
0.0
 10
-38.8963942656668
 20
8.427030722968368
 30
0.0
 10
-38.89644019391722
 20
8.437238730550461
 30
0.0
 10
-38.89646294087782
 20
8.447446812566738
 30
0.0
 10
-38.89646294087782
 20
8.457654897225637
 30
0.0
  0
LINE
  5
230
330
2
100
AcDbEntity
  8
GAIKEI
 62
     1
 48
0.011446
370
    40
100
AcDbLine
 10
-38.8964628930724
 20
8.457654704416427
 30
0.0
 11
-38.8964628930724
 21
8.55939270441641
 31
0.0
  0
ARC
  5
231
330
2
100
AcDbEntity
  8
GAIKEI
 62
     7
370
    40
100
AcDbCircle
 10
-38.25785578196127
 20
4.743978259971981
 30
0.0
 40
0.0999366666666667
100
AcDbArc
 50
300.2868620000023
 51
320.0124220000011
  0
ARC
  5
232
330
2
100
AcDbEntity
  8
GAIKEI
 62
     7
370
    40
100
AcDbCircle
 10
-18.73902489307238
 20
4.743978259971981
 30
0.0
 40
0.0999366666666667
100
AcDbArc
 50
219.9875659999979
 51
239.7131110000001
  0
LINE
  5
233
330
2
100
AcDbEntity
  8
GAIKEI
 62
     1
 48
0.026451
370
    13
100
AcDbLine
 10
-19.22648444862796
 20
5.164138926638628
 30
0.0
 11
-19.0753531152946
 21
4.984028926638615
 31
0.0
  0
SPLINE
  5
234
330
2
100
AcDbEntity
  8
GAIKEI
 62
     7
370
    40
100
AcDbSpline
210
0.0
220
0.0
230
1.0
 70
     8
 71
     3
 72
    34
 73
    30
 74
     0
 42
0.0000000001
 43
0.0000000001
 40
0.0
 40
0.0
 40
0.0
 40
0.0
 40
0.0058026562875676
 40
0.0179740711880866
 40
0.0368486320131763
 40
0.0626289355580612
 40
0.0954054517251026
 40
0.1351623384678888
 40
0.1817834597121597
 40
0.2350643506257704
 40
0.2947231984291602
 40
0.360410374730019
 40
0.4317178887641577
 40
0.5081884881155018
 40
0.5893380811298377
 40
0.6746791887164309
 40
0.763730975394343
 40
0.8560282878843814
 40
0.9511345019589981
 40
1.048666629628847
 40
1.148299828289395
 40
1.249768006942676
 40
1.352866166982433
 40
1.457453486636493
 40
1.563458925128449
 40
1.670834806803161
 40
1.779522385910338
 40
1.889448851319815
 40
2.000525240263816
 40
2.000525240263816
 40
2.000525240263816
 40
2.000525240263816
 10
-18.81559448969438
 20
4.679756725224706
 30
0.0
 10
-18.8159287735437
 20
4.679951907808856
 30
0.0
 10
-18.81677943475449
 20
4.680820676570959
 30
0.0
 10
-18.81851065108242
 20
4.682544817885116
 30
0.0
 10
-18.82107645581163
 20
4.685342697161928
 30
0.0
 10
-18.82454415781092
 20
4.689162188560999
 30
0.0
 10
-18.82890190143183
 20
4.694059736116003
 30
0.0
 10
-18.83415456044707
 20
4.700018240707521
 30
0.0
 10
-18.84028320448715
 20
4.707027536399692
 30
0.0
 10
-18.84726194252067
 20
4.715055637183866
 30
0.0
 10
-18.8550535870491
 20
4.724061320520377
 30
0.0
 10
-18.86361283909002
 20
4.733991955785995
 30
0.0
 10
-18.87288684088116
 20
4.7447861666503
 30
0.0
 10
-18.88281713529443
 20
4.756375529594151
 30
0.0
 10
-18.89334195971696
 20
4.768687499041021
 30
0.0
 10
-18.90439866091333
 20
4.78164822397548
 30
0.0
 10
-18.91592550552372
 20
4.795184734390915
 30
0.0
 10
-18.92786303491061
 20
4.809226579568274
 30
0.0
 10
-18.94015606838127
 20
4.823708236836409
 30
0.0
 10
-18.95275551332531
 20
4.838571287600871
 30
0.0
 10
-18.96561964160833
 20
4.85376597631037
 30
0.0
 10
-18.97871438988608
 20
4.869251607122919
 30
0.0
 10
-18.9920135983042
 20
4.884996868338134
 30
0.0
 10
-19.00549946451554
 20
4.900980411116478
 30
0.0
 10
-19.01916090211421
 20
4.917188943458398
 30
0.0
 10
-19.03299029924562
 20
4.933613401335236
 30
0.0
 10
-19.04697991365845
 20
4.950244676450267
 30
0.0
 10
-19.06112017921089
 20
4.96707159814403
 30
0.0
 10
-19.07059343403057
 20
4.978355842702001
 30
0.0
 10
-19.07535333589476
 20
4.984028472849104
 30
0.0
  0
SPLINE
  5
235
330
2
100
AcDbEntity
  8
GAIKEI
 62
     7
370
    40
100
AcDbSpline
210
0.0
220
0.0
230
1.0
 70
     8
 71
     3
 72
    38
 73
    34
 74
     0
 42
0.0000000001
 43
0.0000000001
 40
0.0
 40
0.0
 40
0.0
 40
0.0
 40
0.096816219488944
 40
0.1927928205762279
 40
0.2878823854791694
 40
0.3820354703417717
 40
0.4751985263321935
 40
0.5673118207387411
 40
0.6583073580776408
 40
0.7481068012278175
 40
0.8366193926107429
 40
0.9237395979616792
 40
1.009325156791271
 40
1.093175591201918
 40
1.175056294623784
 40
1.254704344642262
 40
1.331831835870759
 40
1.406129212986326
 40
1.477270038739469
 40
1.544925631076022
 40
1.608777281443159
 40
1.668521625669998
 40
1.723875740725815
 40
1.774582243887843
 40
1.820415426745551
 40
1.861191816784945
 40
1.896775476831835
 40
1.927081294429092
 40
1.952078776136442
 40
1.971795989034709
 40
1.986323788040268
 40
1.995820545750848
 40
2.000527222048462
 40
2.000527222048462
 40
2.000527222048462
 40
2.000527222048462
 10
-37.92152746099896
 20
4.984028477528568
 30
0.0
 10
-37.92567627881522
 20
4.979084108991003
 30
0.0
 10
-37.93394000943334
 20
4.969239992052763
 30
0.0
 10
-37.94628577949692
 20
4.954545743085617
 30
0.0
 10
-37.95852348125408
 20
4.939992587890685
 30
0.0
 10
-37.97064658886438
 20
4.925588144680546
 30
0.0
 10
-37.98264807524146
 20
4.911340682952612
 30
0.0
 10
-37.99452014285612
 20
4.897259440365559
 30
0.0
 10
-38.0062539544615
 20
4.883354939669487
 30
0.0
 10
-38.01783936384044
 20
4.869639305622712
 30
0.0
 10
-38.02926463450177
 20
4.856126595950883
 30
0.0
 10
-38.04051530276609
 20
4.842834143652623
 30
0.0
 10
-38.05157219943408
 20
4.829784882643849
 30
0.0
 10
-38.06241060489515
 20
4.817008323033093
 30
0.0
 10
-38.07300059835353
 20
4.804540112320097
 30
0.0
 10
-38.0833084762807
 20
4.792420333444766
 30
0.0
 10
-38.09329727793312
 20
4.780692859895395
 30
0.0
 10
-38.10292726552115
 20
4.769404763733774
 30
0.0
 10
-38.11215689516411
 20
4.758605151742813
 30
0.0
 10
-38.12094416767997
 20
4.748343547214147
 30
0.0
 10
-38.1292480127035
 20
4.738668247006273
 30
0.0
 10
-38.13702926188881
 20
4.729625165882055
 30
0.0
 10
-38.14425130857376
 20
4.721257032202061
 30
0.0
 10
-38.15088081445328
 20
4.713602575186371
 30
0.0
 10
-38.15688860565126
 20
4.706695337395672
 30
0.0
 10
-38.16225073274211
 20
4.700562798559985
 30
0.0
 10
-38.16694890347213
 20
4.695224626903041
 30
0.0
 10
-38.17097213247212
 20
4.690694366510285
 30
0.0
 10
-38.1743138058057
 20
4.686972027542338
 30
0.0
 10
-38.17698137219969
 20
4.68406238635427
 30
0.0
 10
-38.17897211483649
 20
4.681924433224338
 30
0.0
 10
-38.18033043664116
 20
4.680586467557304
 30
0.0
 10
-38.18101514438564
 20
4.679915057530024
 30
0.0
 10
-38.18128630666235
 20
4.67975673054434
 30
0.0
  0
LINE
  5
236
330
2
100
AcDbEntity
  8
GAIKEI
 62
     7
 48
0.026451
370
    13
100
AcDbLine
 10
-37.92152778196129
 20
4.984028926638615
 30
0.0
 11
-37.7703962264057
 21
5.164138926638628
 31
0.0
  0
ARC
  5
237
330
2
100
AcDbEntity
  8
GAIKEI
 62
     1
370
    40
100
AcDbCircle
 10
-25.49844044862795
 20
5.40852381552753
 30
0.0
 40
0.9336284444444444
100
AcDbArc
 50
228.5698465107599
 51
311.4296039999973
  0
ARC
  5
238
330
2
100
AcDbEntity
  8
GAIKEI
 62
     1
370
    40
100
AcDbCircle
 10
-31.49844044862795
 20
5.40852381552753
 30
0.0
 40
0.9336286666666669
100
AcDbArc
 50
228.5703809999976
 51
311.4296039999973
  0
CIRCLE
  5
239
330
2
100
AcDbEntity
  8
GAIKEI
 62
     1
370
    40
100
AcDbCircle
 10
-28.49844044862795
 20
14.70852381552751
 30
0.0
 40
0.5600000000000001
  0
CIRCLE
  5
23A
330
2
100
AcDbEntity
  8
GAIKEI
 62
     1
370
    40
100
AcDbCircle
 10
-28.49844067085013
 20
14.7085235933053
 30
0.0
 40
1.424965777777777
  0
CIRCLE
  5
23B
330
2
100
AcDbEntity
  8
GAIKEI
 62
     1
370
    40
100
AcDbCircle
 10
-28.49844044862795
 20
14.70852381552751
 30
0.0
 40
0.6600000000000002
  0
CIRCLE
  5
23C
330
2
100
AcDbEntity
  8
GAIKEI
 62
     1
370
    13
100
AcDbCircle
 10
-28.49844044862795
 20
14.70852381552751
 30
0.0
 40
1.305103555555555
  0
POLYLINE
  5
23D
330
2
100
AcDbEntity
  8
GAIKEI
 62
     1
370
    13
100
AcDb2dPolyline
 66
     1
 10
0.0
 20
0.0
 30
0.0
  0
VERTEX
  5
23E
330
23D
100
AcDbEntity
  8
GAIKEI
 62
     1
370
     0
100
AcDbVertex
100
AcDb2dVertex
 10
-30.29116667085015
 20
10.94728648219421
 30
0.0
  0
VERTEX
  5
23F
330
23D
100
AcDbEntity
  8
GAIKEI
 62
     1
370
     0
100
AcDbVertex
100
AcDb2dVertex
 10
-30.28916267085015
 20
10.88956692663865
 30
0.0
  0
VERTEX
  5
240
330
23D
100
AcDbEntity
  8
GAIKEI
 62
     1
370
     0
100
AcDbVertex
100
AcDb2dVertex
 10
-30.28315422640571
 20
10.83197625997198
 30
0.0
  0
VERTEX
  5
241
330
23D
100
AcDbEntity
  8
GAIKEI
 62
     1
370
     0
100
AcDbVertex
100
AcDb2dVertex
 10
-30.25910555973906
 20
10.71740892663865
 30
0.0
  0
VERTEX
  5
242
330
23D
100
AcDbEntity
  8
GAIKEI
 62
     1
370
     0
100
AcDbVertex
100
AcDb2dVertex
 10
-30.21888111529461
 20
10.60408003774975
 30
0.0
  0
VERTEX
  5
243
330
23D
100
AcDbEntity
  8
GAIKEI
 62
     1
370
     0
100
AcDbVertex
100
AcDb2dVertex
 10
-30.16221533751684
 20
10.4926038155275
 30
0.0
  0
VERTEX
  5
244
330
23D
100
AcDbEntity
  8
GAIKEI
 62
     1
370
     0
100
AcDbVertex
100
AcDb2dVertex
 10
-30.08879111529461
 20
10.38376603774975
 30
0.0
  0
VERTEX
  5
245
330
23D
100
AcDbEntity
  8
GAIKEI
 62
     1
370
     0
100
AcDbVertex
100
AcDb2dVertex
 10
-29.99833555973907
 20
10.27855425997197
 30
0.0
  0
VERTEX
  5
246
330
23D
100
AcDbEntity
  8
GAIKEI
 62
     1
370
     0
100
AcDbVertex
100
AcDb2dVertex
 10
-29.89072622640572
 20
10.17816403774975
 30
0.0
  0
VERTEX
  5
247
330
23D
100
AcDbEntity
  8
GAIKEI
 62
     1
370
     0
100
AcDbVertex
100
AcDb2dVertex
 10
-29.7660971152946
 20
10.0839784821942
 30
0.0
  0
VERTEX
  5
248
330
23D
100
AcDbEntity
  8
GAIKEI
 62
     1
370
     0
100
AcDbVertex
100
AcDb2dVertex
 10
-29.62493578196126
 20
9.997526704416429
 30
0.0
  0
VERTEX
  5
249
330
23D
100
AcDbEntity
  8
GAIKEI
 62
     1
370
     0
100
AcDbVertex
100
AcDb2dVertex
 10
-29.46816133751685
 20
9.920417593305302
 30
0.0
  0
VERTEX
  5
24A
330
23D
100
AcDbEntity
  8
GAIKEI
 62
     1
370
     0
100
AcDbVertex
100
AcDb2dVertex
 10
-29.29717578196124
 20
9.854263815527531
 30
0.0
  0
VERTEX
  5
24B
330
23D
100
AcDbEntity
  8
GAIKEI
 62
     1
370
     0
100
AcDbVertex
100
AcDb2dVertex
 10
-29.11388178196125
 20
9.800589593305318
 30
0.0
  0
VERTEX
  5
24C
330
23D
100
AcDbEntity
  8
GAIKEI
 62
     1
370
     0
100
AcDbVertex
100
AcDb2dVertex
 10
-28.92066311529459
 20
9.760737371083081
 30
0.0
  0
VERTEX
  5
24D
330
23D
100
AcDbEntity
  8
GAIKEI
 62
     1
370
     0
100
AcDbVertex
100
AcDb2dVertex
 10
-28.72032689307236
 20
9.735782037749743
 30
0.0
  0
VERTEX
  5
24E
330
23D
100
AcDbEntity
  8
GAIKEI
 62
     1
370
     0
100
AcDbVertex
100
AcDb2dVertex
 10
-28.5160062264057
 20
9.726453148860855
 30
0.0
  0
VERTEX
  5
24F
330
23D
100
AcDbEntity
  8
GAIKEI
 62
     1
370
     0
100
AcDbVertex
100
AcDb2dVertex
 10
-28.49844044862795
 20
9.726394926638619
 30
0.0
  0
SEQEND
  5
250
330
23D
100
AcDbEntity
  8
GAIKEI
 62
     1
370
     0
  0
POLYLINE
  5
251
330
2
100
AcDbEntity
  8
GAIKEI
 62
     1
370
    13
100
AcDb2dPolyline
 66
     1
 10
0.0
 20
0.0
 30
0.0
  0
VERTEX
  5
252
330
251
100
AcDbEntity
  8
GAIKEI
 62
     1
370
     0
100
AcDbVertex
100
AcDb2dVertex
 10
-28.49844089307237
 20
9.726393371083105
 30
0.0
  0
VERTEX
  5
253
330
251
100
AcDbEntity
  8
GAIKEI
 62
     1
370
     0
100
AcDbVertex
100
AcDb2dVertex
 10
-28.39583800418348
 20
9.728395371083081
 30
0.0
  0
VERTEX
  5
254
330
251
100
AcDbEntity
  8
GAIKEI
 62
     1
370
     0
100
AcDbVertex
100
AcDb2dVertex
 10
-28.29357222640567
 20
9.734392482194209
 30
0.0
  0
VERTEX
  5
255
330
251
100
AcDbEntity
  8
GAIKEI
 62
     1
370
     0
100
AcDbVertex
100
AcDb2dVertex
 10
-28.1921562264057
 20
9.744344259971967
 30
0.0
  0
VERTEX
  5
256
330
251
100
AcDbEntity
  8
GAIKEI
 62
     1
370
     0
100
AcDbVertex
100
AcDb2dVertex
 10
-28.09174133751685
 20
9.758225371083085
 30
0.0
  0
VERTEX
  5
257
330
251
100
AcDbEntity
  8
GAIKEI
 62
     1
370
     0
100
AcDbVertex
100
AcDb2dVertex
 10
-27.9931684486279
 20
9.775887815527539
 30
0.0
  0
VERTEX
  5
258
330
251
100
AcDbEntity
  8
GAIKEI
 62
     1
370
     0
100
AcDbVertex
100
AcDb2dVertex
 10
-27.89622933751684
 20
9.797336482194225
 30
0.0
  0
VERTEX
  5
259
330
251
100
AcDbEntity
  8
GAIKEI
 62
     1
370
     0
100
AcDbVertex
100
AcDb2dVertex
 10
-27.80204067085015
 20
9.822271593305316
 30
0.0
  0
VERTEX
  5
25A
330
251
100
AcDbEntity
  8
GAIKEI
 62
     1
370
     0
100
AcDbVertex
100
AcDb2dVertex
 10
-27.71006511529464
 20
9.850781371083087
 30
0.0
  0
VERTEX
  5
25B
330
251
100
AcDbEntity
  8
GAIKEI
 62
     1
370
     0
100
AcDbVertex
100
AcDb2dVertex
 10
-27.62162355973908
 20
9.882382037749778
 30
0.0
  0
VERTEX
  5
25C
330
251
100
AcDbEntity
  8
GAIKEI
 62
     1
370
     0
100
AcDbVertex
100
AcDb2dVertex
 10
-27.53590378196128
 20
9.917287593305275
 30
0.0
  0
VERTEX
  5
25D
330
251
100
AcDbEntity
  8
GAIKEI
 62
     1
370
     0
100
AcDbVertex
100
AcDb2dVertex
 10
-27.45434578196125
 20
9.954816704416401
 30
0.0
  0
VERTEX
  5
25E
330
251
100
AcDbEntity
  8
GAIKEI
 62
     1
370
     0
100
AcDbVertex
100
AcDb2dVertex
 10
-27.37593555973905
 20
9.995337815527534
 30
0.0
  0
VERTEX
  5
25F
330
251
100
AcDbEntity
  8
GAIKEI
 62
     1
370
     0
100
AcDbVertex
100
AcDb2dVertex
 10
-27.30214267085017
 20
10.03797514886088
 30
0.0
  0
VERTEX
  5
260
330
251
100
AcDbEntity
  8
GAIKEI
 62
     1
370
     0
100
AcDbVertex
100
AcDb2dVertex
 10
-27.23183622640568
 20
10.08326248219418
 30
0.0
  0
VERTEX
  5
261
330
251
100
AcDbEntity
  8
GAIKEI
 62
     1
370
     0
100
AcDbVertex
100
AcDb2dVertex
 10
-27.1664271152946
 20
10.13015425997199
 30
0.0
  0
VERTEX
  5
262
330
251
100
AcDbEntity
  8
GAIKEI
 62
     1
370
     0
100
AcDbVertex
100
AcDb2dVertex
 10
-27.10475644862794
 20
10.17933937108307
 30
0.0
  0
VERTEX
  5
263
330
251
100
AcDbEntity
  8
GAIKEI
 62
     1
370
     0
100
AcDbVertex
100
AcDb2dVertex
 10
-27.04809955973906
 20
10.22964492663863
 30
0.0
  0
VERTEX
  5
264
330
251
100
AcDbEntity
  8
GAIKEI
 62
     1
370
     0
100
AcDbVertex
100
AcDb2dVertex
 10
-26.99535355973905
 20
10.28188603774975
 30
0.0
  0
VERTEX
  5
265
330
251
100
AcDbEntity
  8
GAIKEI
 62
     1
370
     0
100
AcDbVertex
100
AcDb2dVertex
 10
-26.94759755973905
 20
10.33482048219417
 30
0.0
  0
VERTEX
  5
266
330
251
100
AcDbEntity
  8
GAIKEI
 62
     1
370
     0
100
AcDbVertex
100
AcDb2dVertex
 10
-26.9038573375168
 20
10.38934070441641
 30
0.0
  0
VERTEX
  5
267
330
251
100
AcDbEntity
  8
GAIKEI
 62
     1
370
     0
100
AcDbVertex
100
AcDb2dVertex
 10
-26.86497644862794
 20
10.44420537108308
 30
0.0
  0
VERTEX
  5
268
330
251
100
AcDbEntity
  8
GAIKEI
 62
     1
370
     0
100
AcDbVertex
100
AcDb2dVertex
 10
-26.8301624486279
 20
10.5003224821942
 30
0.0
  0
VERTEX
  5
269
330
251
100
AcDbEntity
  8
GAIKEI
 62
     1
370
     0
100
AcDbVertex
100
AcDb2dVertex
 10
-26.8000108930724
 20
10.55652514886086
 30
0.0
  0
VERTEX
  5
26A
330
251
100
AcDbEntity
  8
GAIKEI
 62
     1
370
     0
100
AcDbVertex
100
AcDb2dVertex
 10
-26.77393889307234
 20
10.61366714886085
 30
0.0
  0
VERTEX
  5
26B
330
251
100
AcDbEntity
  8
GAIKEI
 62
     1
370
     0
100
AcDbVertex
100
AcDb2dVertex
 10
-26.75230933751681
 20
10.67073003774976
 30
0.0
  0
VERTEX
  5
26C
330
251
100
AcDbEntity
  8
GAIKEI
 62
     1
370
     0
100
AcDbVertex
100
AcDb2dVertex
 10
-26.73474822640571
 20
10.72843759330527
 30
0.0
  0
VERTEX
  5
26D
330
251
100
AcDbEntity
  8
GAIKEI
 62
     1
370
     0
100
AcDbVertex
100
AcDb2dVertex
 10
-26.72142667085018
 20
10.78598737108308
 30
0.0
  0
VERTEX
  5
26E
330
251
100
AcDbEntity
  8
GAIKEI
 62
     1
370
     0
100
AcDbVertex
100
AcDb2dVertex
 10
-26.71215155973903
 20
10.84390425997196
 30
0.0
  0
VERTEX
  5
26F
330
251
100
AcDbEntity
  8
GAIKEI
 62
     1
370
     0
100
AcDbVertex
100
AcDb2dVertex
 10
-26.70571333751684
 20
10.94728692663864
 30
0.0
  0
SEQEND
  5
270
330
251
100
AcDbEntity
  8
GAIKEI
 62
     1
370
     0
  0
LINE
  5
271
330
2
100
AcDbEntity
  8
GAIKEI
 62
     1
370
    13
100
AcDbLine
 10
-26.7057131152946
 20
10.94728692663864
 30
0.0
 11
-26.7057131152946
 21
16.55587803774975
 31
0.0
  0
POLYLINE
  5
272
330
2
100
AcDbEntity
  8
GAIKEI
 62
     1
370
    13
100
AcDb2dPolyline
 66
     1
 10
0.0
 20
0.0
 30
0.0
  0
VERTEX
  5
273
330
272
100
AcDbEntity
  8
GAIKEI
 62
     1
370
     0
100
AcDbVertex
100
AcDb2dVertex
 10
-26.70571378196127
 20
16.55587803774975
 30
0.0
  0
VERTEX
  5
274
330
272
100
AcDbEntity
  8
GAIKEI
 62
     1
370
     0
100
AcDbVertex
100
AcDb2dVertex
 10
-26.70771578196127
 20
16.63492292663864
 30
0.0
  0
VERTEX
  5
275
330
272
100
AcDbEntity
  8
GAIKEI
 62
     1
370
     0
100
AcDbVertex
100
AcDb2dVertex
 10
-26.71371778196129
 20
16.71379092663864
 30
0.0
  0
VERTEX
  5
276
330
272
100
AcDbEntity
  8
GAIKEI
 62
     1
370
     0
100
AcDbVertex
100
AcDb2dVertex
 10
-26.73766911529458
 20
16.87034425997194
 30
0.0
  0
VERTEX
  5
277
330
272
100
AcDbEntity
  8
GAIKEI
 62
     1
370
     0
100
AcDbVertex
100
AcDb2dVertex
 10
-26.77740022640569
 20
17.02423492663865
 30
0.0
  0
VERTEX
  5
278
330
272
100
AcDbEntity
  8
GAIKEI
 62
     1
370
     0
100
AcDbVertex
100
AcDb2dVertex
 10
-26.83263867085015
 20
17.17416448219421
 30
0.0
  0
VERTEX
  5
279
330
272
100
AcDbEntity
  8
GAIKEI
 62
     1
370
     0
100
AcDbVertex
100
AcDb2dVertex
 10
-26.90300200418346
 20
17.31883959330531
 30
0.0
  0
VERTEX
  5
27A
330
272
100
AcDbEntity
  8
GAIKEI
 62
     1
370
     0
100
AcDbVertex
100
AcDb2dVertex
 10
-26.98799155973905
 20
17.45697848219419
 30
0.0
  0
VERTEX
  5
27B
330
272
100
AcDbEntity
  8
GAIKEI
 62
     1
370
     0
100
AcDbVertex
100
AcDb2dVertex
 10
-27.08698267085015
 20
17.58731537108309
 30
0.0
  0
VERTEX
  5
27C
330
272
100
AcDbEntity
  8
GAIKEI
 62
     1
370
     0
100
AcDbVertex
100
AcDb2dVertex
 10
-27.19921955973905
 20
17.7086144821942
 30
0.0
  0
VERTEX
  5
27D
330
272
100
AcDbEntity
  8
GAIKEI
 62
     1
370
     0
100
AcDbVertex
100
AcDb2dVertex
 10
-27.32380667085016
 20
17.81968092663862
 30
0.0
  0
VERTEX
  5
27E
330
272
100
AcDbEntity
  8
GAIKEI
 62
     1
370
     0
100
AcDbVertex
100
AcDb2dVertex
 10
-27.45970711529458
 20
17.91938048219418
 30
0.0
  0
VERTEX
  5
27F
330
272
100
AcDbEntity
  8
GAIKEI
 62
     1
370
     0
100
AcDbVertex
100
AcDb2dVertex
 10
-27.60574244862795
 20
18.00665692663864
 30
0.0
  0
VERTEX
  5
280
330
272
100
AcDbEntity
  8
GAIKEI
 62
     1
370
     0
100
AcDbVertex
100
AcDb2dVertex
 10
-27.76059600418347
 20
18.0805535933053
 30
0.0
  0
VERTEX
  5
281
330
272
100
AcDbEntity
  8
GAIKEI
 62
     1
370
     0
100
AcDbVertex
100
AcDb2dVertex
 10
-27.92282355973902
 20
18.14023537108306
 30
0.0
  0
VERTEX
  5
282
330
272
100
AcDbEntity
  8
GAIKEI
 62
     1
370
     0
100
AcDbVertex
100
AcDb2dVertex
 10
-28.09086733751684
 20
18.18500737108309
 30
0.0
  0
VERTEX
  5
283
330
272
100
AcDbEntity
  8
GAIKEI
 62
     1
370
     0
100
AcDbVertex
100
AcDb2dVertex
 10
-28.26307444862789
 20
18.21433425997196
 30
0.0
  0
VERTEX
  5
284
330
272
100
AcDbEntity
  8
GAIKEI
 62
     1
370
     0
100
AcDbVertex
100
AcDb2dVertex
 10
-28.43772111529461
 20
18.22785470441641
 30
0.0
  0
VERTEX
  5
285
330
272
100
AcDbEntity
  8
GAIKEI
 62
     1
370
     0
100
AcDbVertex
100
AcDb2dVertex
 10
-28.49844044862795
 20
18.22881448219419
 30
0.0
  0
SEQEND
  5
286
330
272
100
AcDbEntity
  8
GAIKEI
 62
     1
370
     0
  0
POLYLINE
  5
287
330
2
100
AcDbEntity
  8
GAIKEI
 62
     1
370
    13
100
AcDb2dPolyline
 66
     1
 10
0.0
 20
0.0
 30
0.0
  0
VERTEX
  5
288
330
287
100
AcDbEntity
  8
GAIKEI
 62
     1
370
     0
100
AcDbVertex
100
AcDb2dVertex
 10
-28.49844000418352
 20
18.22881714886085
 30
0.0
  0
VERTEX
  5
289
330
287
100
AcDbEntity
  8
GAIKEI
 62
     1
370
     0
100
AcDbVertex
100
AcDb2dVertex
 10
-28.58611400418352
 20
18.22681448219418
 30
0.0
  0
VERTEX
  5
28A
330
287
100
AcDbEntity
  8
GAIKEI
 62
     1
370
     0
100
AcDbVertex
100
AcDb2dVertex
 10
-28.67357822640571
 20
18.22081359330531
 30
0.0
  0
VERTEX
  5
28B
330
287
100
AcDbEntity
  8
GAIKEI
 62
     1
370
     0
100
AcDbVertex
100
AcDb2dVertex
 10
-28.76059600418347
 20
18.21083203774975
 30
0.0
  0
VERTEX
  5
28C
330
287
100
AcDbEntity
  8
GAIKEI
 62
     1
370
     0
100
AcDbVertex
100
AcDb2dVertex
 10
-28.84698667085018
 20
18.19689248219421
 30
0.0
  0
VERTEX
  5
28D
330
287
100
AcDbEntity
  8
GAIKEI
 62
     1
370
     0
100
AcDbVertex
100
AcDb2dVertex
 10
-28.93246578196124
 20
18.17904692663865
 30
0.0
  0
VERTEX
  5
28E
330
287
100
AcDbEntity
  8
GAIKEI
 62
     1
370
     0
100
AcDbVertex
100
AcDb2dVertex
 10
-29.01690844862793
 20
18.15732603774972
 30
0.0
  0
VERTEX
  5
28F
330
287
100
AcDbEntity
  8
GAIKEI
 62
     1
370
     0
100
AcDbVertex
100
AcDb2dVertex
 10
-29.09999044862792
 20
18.13182314886086
 30
0.0
  0
VERTEX
  5
290
330
287
100
AcDbEntity
  8
GAIKEI
 62
     1
370
     0
100
AcDbVertex
100
AcDb2dVertex
 10
-29.18164067085013
 20
18.10256981552754
 30
0.0
  0
VERTEX
  5
291
330
287
100
AcDbEntity
  8
GAIKEI
 62
     1
370
     0
100
AcDbVertex
100
AcDb2dVertex
 10
-29.2615051152946
 20
18.06970470441644
 30
0.0
  0
VERTEX
  5
292
330
287
100
AcDbEntity
  8
GAIKEI
 62
     1
370
     0
100
AcDbVertex
100
AcDb2dVertex
 10
-29.33956089307242
 20
18.03325137108305
 30
0.0
  0
VERTEX
  5
293
330
287
100
AcDbEntity
  8
GAIKEI
 62
     1
370
     0
100
AcDbVertex
100
AcDb2dVertex
 10
-29.41543733751684
 20
17.99339848219421
 30
0.0
  0
VERTEX
  5
294
330
287
100
AcDbEntity
  8
GAIKEI
 62
     1
370
     0
100
AcDbVertex
100
AcDb2dVertex
 10
-29.48915067085017
 20
17.95015514886086
 30
0.0
  0
VERTEX
  5
295
330
287
100
AcDbEntity
  8
GAIKEI
 62
     1
370
     0
100
AcDbVertex
100
AcDb2dVertex
 10
-29.56032778196129
 20
17.90375914886087
 30
0.0
  0
VERTEX
  5
296
330
287
100
AcDbEntity
  8
GAIKEI
 62
     1
370
     0
100
AcDbVertex
100
AcDb2dVertex
 10
-29.62901422640573
 20
17.85420203774975
 30
0.0
  0
VERTEX
  5
297
330
287
100
AcDbEntity
  8
GAIKEI
 62
     1
370
     0
100
AcDbVertex
100
AcDb2dVertex
 10
-29.69484778196124
 20
17.80176781552751
 30
0.0
  0
VERTEX
  5
298
330
287
100
AcDbEntity
  8
GAIKEI
 62
     1
370
     0
100
AcDbVertex
100
AcDb2dVertex
 10
-29.75789267085014
 20
17.74642937108308
 30
0.0
  0
VERTEX
  5
299
330
287
100
AcDbEntity
  8
GAIKEI
 62
     1
370
     0
100
AcDbVertex
100
AcDb2dVertex
 10
-29.8178102264057
 20
17.68851025997196
 30
0.0
  0
VERTEX
  5
29A
330
287
100
AcDbEntity
  8
GAIKEI
 62
     1
370
     0
100
AcDbVertex
100
AcDb2dVertex
 10
-29.87467244862791
 20
17.62796825997196
 30
0.0
  0
VERTEX
  5
29B
330
287
100
AcDbEntity
  8
GAIKEI
 62
     1
370
     0
100
AcDbVertex
100
AcDb2dVertex
 10
-29.92817555973903
 20
17.56515603774974
 30
0.0
  0
VERTEX
  5
29C
330
287
100
AcDbEntity
  8
GAIKEI
 62
     1
370
     0
100
AcDbVertex
100
AcDb2dVertex
 10
-29.97838955973902
 20
17.50002181552753
 30
0.0
  0
VERTEX
  5
29D
330
287
100
AcDbEntity
  8
GAIKEI
 62
     1
370
     0
100
AcDbVertex
100
AcDb2dVertex
 10
-30.02505378196128
 20
17.43293625997199
 30
0.0
  0
VERTEX
  5
29E
330
287
100
AcDbEntity
  8
GAIKEI
 62
     1
370
     0
100
AcDbVertex
100
AcDb2dVertex
 10
-30.06822867085015
 20
17.36384581552752
 30
0.0
  0
VERTEX
  5
29F
330
287
100
AcDbEntity
  8
GAIKEI
 62
     1
370
     0
100
AcDbVertex
100
AcDb2dVertex
 10
-30.10770155973904
 20
17.2931258155275
 30
0.0
  0
VERTEX
  5
2A0
330
287
100
AcDbEntity
  8
GAIKEI
 62
     1
370
     0
100
AcDbVertex
100
AcDb2dVertex
 10
-30.14351844862796
 20
17.22073070441644
 30
0.0
  0
VERTEX
  5
2A1
330
287
100
AcDbEntity
  8
GAIKEI
 62
     1
370
     0
100
AcDbVertex
100
AcDb2dVertex
 10
-30.17551644862795
 20
17.14702625997199
 30
0.0
  0
VERTEX
  5
2A2
330
287
100
AcDbEntity
  8
GAIKEI
 62
     1
370
     0
100
AcDbVertex
100
AcDb2dVertex
 10
-30.2037253375168
 20
17.07198625997193
 30
0.0
  0
VERTEX
  5
2A3
330
287
100
AcDbEntity
  8
GAIKEI
 62
     1
370
     0
100
AcDbVertex
100
AcDb2dVertex
 10
-30.22802978196125
 20
16.99595425997197
 30
0.0
  0
VERTEX
  5
2A4
330
287
100
AcDbEntity
  8
GAIKEI
 62
     1
370
     0
100
AcDbVertex
100
AcDb2dVertex
 10
-30.24844422640569
 20
16.91893203774975
 30
0.0
  0
VERTEX
  5
2A5
330
287
100
AcDbEntity
  8
GAIKEI
 62
     1
370
     0
100
AcDbVertex
100
AcDb2dVertex
 10
-30.26489667085014
 20
16.84123025997198
 30
0.0
  0
VERTEX
  5
2A6
330
287
100
AcDbEntity
  8
GAIKEI
 62
     1
370
     0
100
AcDbVertex
100
AcDb2dVertex
 10
-30.27738978196123
 20
16.76288870441641
 30
0.0
  0
VERTEX
  5
2A7
330
287
100
AcDbEntity
  8
GAIKEI
 62
     1
370
     0
100
AcDbVertex
100
AcDb2dVertex
 10
-30.28588800418351
 20
16.68417514886084
 30
0.0
  0
VERTEX
  5
2A8
330
287
100
AcDbEntity
  8
GAIKEI
 62
     1
370
     0
100
AcDbVertex
100
AcDb2dVertex
 10
-30.2903891152946
 20
16.60517425997196
 30
0.0
  0
VERTEX
  5
2A9
330
287
100
AcDbEntity
  8
GAIKEI
 62
     1
370
     0
100
AcDbVertex
100
AcDb2dVertex
 10
-30.29116778196124
 20
16.55587803774975
 30
0.0
  0
SEQEND
  5
2AA
330
287
100
AcDbEntity
  8
GAIKEI
 62
     1
370
     0
  0
LINE
  5
2AB
330
2
100
AcDbEntity
  8
GAIKEI
 62
     1
370
    13
100
AcDbLine
 10
-30.29116778196124
 20
10.94728692663864
 30
0.0
 11
-30.29116778196124
 21
16.55587803774975
 31
0.0
  0
POLYLINE
  5
2AC
330
2
100
AcDbEntity
  8
GAIKEI
 62
     1
370
    13
100
AcDb2dPolyline
 66
     1
 10
0.0
 20
0.0
 30
0.0
  0
VERTEX
  5
2AD
330
2AC
100
AcDbEntity
  8
GAIKEI
 62
     1
370
     0
100
AcDbVertex
100
AcDb2dVertex
 10
-30.07844022640569
 20
11.0579115933053
 30
0.0
  0
VERTEX
  5
2AE
330
2AC
100
AcDbEntity
  8
GAIKEI
 62
     1
370
     0
100
AcDbVertex
100
AcDb2dVertex
 10
-30.07643533751684
 20
11.00362225997196
 30
0.0
  0
VERTEX
  5
2AF
330
2AC
100
AcDbEntity
  8
GAIKEI
 62
     1
370
     0
100
AcDbVertex
100
AcDb2dVertex
 10
-30.07042555973902
 20
10.94947114886085
 30
0.0
  0
VERTEX
  5
2B0
330
2AC
100
AcDbEntity
  8
GAIKEI
 62
     1
370
     0
100
AcDbVertex
100
AcDb2dVertex
 10
-30.04637111529462
 20
10.84182714886088
 30
0.0
  0
VERTEX
  5
2B1
330
2AC
100
AcDbEntity
  8
GAIKEI
 62
     1
370
     0
100
AcDbVertex
100
AcDb2dVertex
 10
-30.00612355973903
 20
10.7355204821942
 30
0.0
  0
VERTEX
  5
2B2
330
2AC
100
AcDbEntity
  8
GAIKEI
 62
     1
370
     0
100
AcDbVertex
100
AcDb2dVertex
 10
-29.94939711529458
 20
10.63123159330533
 30
0.0
  0
VERTEX
  5
2B3
330
2AC
100
AcDbEntity
  8
GAIKEI
 62
     1
370
     0
100
AcDbVertex
100
AcDb2dVertex
 10
-29.87586689307239
 20
10.5298424821942
 30
0.0
  0
VERTEX
  5
2B4
330
2AC
100
AcDbEntity
  8
GAIKEI
 62
     1
370
     0
100
AcDbVertex
100
AcDb2dVertex
 10
-29.78528667085015
 20
10.43246559330529
 30
0.0
  0
VERTEX
  5
2B5
330
2AC
100
AcDbEntity
  8
GAIKEI
 62
     1
370
     0
100
AcDbVertex
100
AcDb2dVertex
 10
-29.67761755973902
 20
10.34044092663865
 30
0.0
  0
VERTEX
  5
2B6
330
2AC
100
AcDbEntity
  8
GAIKEI
 62
     1
370
     0
100
AcDbVertex
100
AcDb2dVertex
 10
-29.55315089307237
 20
10.25530603774976
 30
0.0
  0
VERTEX
  5
2B7
330
2AC
100
AcDbEntity
  8
GAIKEI
 62
     1
370
     0
100
AcDbVertex
100
AcDb2dVertex
 10
-29.41261755973903
 20
10.17873181552755
 30
0.0
  0
VERTEX
  5
2B8
330
2AC
100
AcDbEntity
  8
GAIKEI
 62
     1
370
     0
100
AcDbVertex
100
AcDb2dVertex
 10
-29.25726667085019
 20
10.11243692663865
 30
0.0
  0
VERTEX
  5
2B9
330
2AC
100
AcDbEntity
  8
GAIKEI
 62
     1
370
     0
100
AcDbVertex
100
AcDb2dVertex
 10
-29.08890733751685
 20
10.05808692663865
 30
0.0
  0
VERTEX
  5
2BA
330
2AC
100
AcDbEntity
  8
GAIKEI
 62
     1
370
     0
100
AcDbVertex
100
AcDb2dVertex
 10
-28.9099028930724
 20
10.01718048219419
 30
0.0
  0
VERTEX
  5
2BB
330
2AC
100
AcDbEntity
  8
GAIKEI
 62
     1
370
     0
100
AcDbVertex
100
AcDb2dVertex
 10
-28.7231171152946
 20
9.990942704416426
 30
0.0
  0
VERTEX
  5
2BC
330
2AC
100
AcDbEntity
  8
GAIKEI
 62
     1
370
     0
100
AcDbVertex
100
AcDb2dVertex
 10
-28.53181222640575
 20
9.980229371083055
 30
0.0
  0
VERTEX
  5
2BD
330
2AC
100
AcDbEntity
  8
GAIKEI
 62
     1
370
     0
100
AcDbVertex
100
AcDb2dVertex
 10
-28.49844044862795
 20
9.979988704416427
 30
0.0
  0
SEQEND
  5
2BE
330
2AC
100
AcDbEntity
  8
GAIKEI
 62
     1
370
     0
  0
POLYLINE
  5
2BF
330
2
100
AcDbEntity
  8
GAIKEI
 62
     1
370
    13
100
AcDb2dPolyline
 66
     1
 10
0.0
 20
0.0
 30
0.0
  0
VERTEX
  5
2C0
330
2BF
100
AcDbEntity
  8
GAIKEI
 62
     1
370
     0
100
AcDbVertex
100
AcDb2dVertex
 10
-28.49844044862795
 20
9.979988704416427
 30
0.0
  0
VERTEX
  5
2C1
330
2BF
100
AcDbEntity
  8
GAIKEI
 62
     1
370
     0
100
AcDbVertex
100
AcDb2dVertex
 10
-28.4022048930724
 20
9.981990259971979
 30
0.0
  0
VERTEX
  5
2C2
330
2BF
100
AcDbEntity
  8
GAIKEI
 62
     1
370
     0
100
AcDbVertex
100
AcDb2dVertex
 10
-28.30632733751679
 20
9.987986482194202
 30
0.0
  0
VERTEX
  5
2C3
330
2BF
100
AcDbEntity
  8
GAIKEI
 62
     1
370
     0
100
AcDbVertex
100
AcDb2dVertex
 10
-28.21135133751682
 20
9.997931815527522
 30
0.0
  0
VERTEX
  5
2C4
330
2BF
100
AcDbEntity
  8
GAIKEI
 62
     1
370
     0
100
AcDbVertex
100
AcDb2dVertex
 10
-28.11743755973902
 20
10.01179714886083
 30
0.0
  0
VERTEX
  5
2C5
330
2BF
100
AcDbEntity
  8
GAIKEI
 62
     1
370
     0
100
AcDbVertex
100
AcDb2dVertex
 10
-28.02547244862797
 20
10.0294153710831
 30
0.0
  0
VERTEX
  5
2C6
330
2BF
100
AcDbEntity
  8
GAIKEI
 62
     1
370
     0
100
AcDbVertex
100
AcDb2dVertex
 10
-27.93523667085015
 20
10.05079292663865
 30
0.0
  0
VERTEX
  5
2C7
330
2BF
100
AcDbEntity
  8
GAIKEI
 62
     1
370
     0
100
AcDbVertex
100
AcDb2dVertex
 10
-27.84789711529459
 20
10.07559270441641
 30
0.0
  0
VERTEX
  5
2C8
330
2BF
100
AcDbEntity
  8
GAIKEI
 62
     1
370
     0
100
AcDbVertex
100
AcDb2dVertex
 10
-27.76289000418348
 20
10.10391403774974
 30
0.0
  0
VERTEX
  5
2C9
330
2BF
100
AcDbEntity
  8
GAIKEI
 62
     1
370
     0
100
AcDbVertex
100
AcDb2dVertex
 10
-27.68157889307236
 20
10.13521892663863
 30
0.0
  0
VERTEX
  5
2CA
330
2BF
100
AcDbEntity
  8
GAIKEI
 62
     1
370
     0
100
AcDbVertex
100
AcDb2dVertex
 10
-27.60312044862792
 20
10.16974537108308
 30
0.0
  0
VERTEX
  5
2CB
330
2BF
100
AcDbEntity
  8
GAIKEI
 62
     1
370
     0
100
AcDbVertex
100
AcDb2dVertex
 10
-27.52897622640569
 20
10.20674337108309
 30
0.0
  0
VERTEX
  5
2CC
330
2BF
100
AcDbEntity
  8
GAIKEI
 62
     1
370
     0
100
AcDbVertex
100
AcDb2dVertex
 10
-27.45810933751682
 20
10.24661803774975
 30
0.0
  0
VERTEX
  5
2CD
330
2BF
100
AcDbEntity
  8
GAIKEI
 62
     1
370
     0
100
AcDbVertex
100
AcDb2dVertex
 10
-27.39197733751684
 20
10.28841870441641
 30
0.0
  0
VERTEX
  5
2CE
330
2BF
100
AcDbEntity
  8
GAIKEI
 62
     1
370
     0
100
AcDbVertex
100
AcDb2dVertex
 10
-27.32944822640571
 20
10.33272492663863
 30
0.0
  0
VERTEX
  5
2CF
330
2BF
100
AcDbEntity
  8
GAIKEI
 62
     1
370
     0
100
AcDbVertex
100
AcDb2dVertex
 10
-27.27188044862794
 20
10.37842003774975
 30
0.0
  0
VERTEX
  5
2D0
330
2BF
100
AcDbEntity
  8
GAIKEI
 62
     1
370
     0
100
AcDbVertex
100
AcDb2dVertex
 10
-27.21814511529459
 20
10.42623892663863
 30
0.0
  0
VERTEX
  5
2D1
330
2BF
100
AcDbEntity
  8
GAIKEI
 62
     1
370
     0
100
AcDbVertex
100
AcDb2dVertex
 10
-27.16942267085017
 20
10.47495603774976
 30
0.0
  0
VERTEX
  5
2D2
330
2BF
100
AcDbEntity
  8
GAIKEI
 62
     1
370
     0
100
AcDbVertex
100
AcDb2dVertex
 10
-27.12467844862795
 20
10.52541825997195
 30
0.0
  0
VERTEX
  5
2D3
330
2BF
100
AcDbEntity
  8
GAIKEI
 62
     1
370
     0
100
AcDbVertex
100
AcDb2dVertex
 10
-27.08485755973902
 20
10.57636559330532
 30
0.0
  0
VERTEX
  5
2D4
330
2BF
100
AcDbEntity
  8
GAIKEI
 62
     1
370
     0
100
AcDbVertex
100
AcDb2dVertex
 10
-27.04909222640572
 20
10.62869470441643
 30
0.0
  0
VERTEX
  5
2D5
330
2BF
100
AcDbEntity
  8
GAIKEI
 62
     1
370
     0
100
AcDbVertex
100
AcDb2dVertex
 10
-27.01806511529464
 20
10.68119337108308
 30
0.0
  0
VERTEX
  5
2D6
330
2BF
100
AcDbEntity
  8
GAIKEI
 62
     1
370
     0
100
AcDbVertex
100
AcDb2dVertex
 10
-26.99112022640572
 20
10.73473114886084
 30
0.0
  0
VERTEX
  5
2D7
330
2BF
100
AcDbEntity
  8
GAIKEI
 62
     1
370
     0
100
AcDbVertex
100
AcDb2dVertex
 10
-26.96868422640569
 20
10.78822848219423
 30
0.0
  0
VERTEX
  5
2D8
330
2BF
100
AcDbEntity
  8
GAIKEI
 62
     1
370
     0
100
AcDbVertex
100
AcDb2dVertex
 10
-26.95032467085014
 20
10.84244448219419
 30
0.0
  0
VERTEX
  5
2D9
330
2BF
100
AcDbEntity
  8
GAIKEI
 62
     1
370
     0
100
AcDbVertex
100
AcDb2dVertex
 10
-26.93625067085014
 20
10.89651137108311
 30
0.0
  0
VERTEX
  5
2DA
330
2BF
100
AcDbEntity
  8
GAIKEI
 62
     1
370
     0
100
AcDbVertex
100
AcDb2dVertex
 10
-26.92623067085015
 20
10.95099692663865
 30
0.0
  0
VERTEX
  5
2DB
330
2BF
100
AcDbEntity
  8
GAIKEI
 62
     1
370
     0
100
AcDbVertex
100
AcDb2dVertex
 10
-26.91844067085015
 20
11.0579115933053
 30
0.0
  0
SEQEND
  5
2DC
330
2BF
100
AcDbEntity
  8
GAIKEI
 62
     1
370
     0
  0
LINE
  5
2DD
330
2
100
AcDbEntity
  8
GAIKEI
 62
     1
370
    40
100
AcDbLine
 10
-26.9184404486279
 20
11.0579115933053
 30
0.0
 11
-26.9184404486279
 21
16.50154403774974
 31
0.0
  0
LINE
  5
2DE
330
2
100
AcDbEntity
  8
GAIKEI
 62
     1
370
    40
100
AcDbLine
 10
-30.07844044862793
 20
11.0579115933053
 30
0.0
 11
-30.07844044862793
 21
16.50154403774974
 31
0.0
  0
LINE
  5
2DF
330
2
100
AcDbEntity
  8
GAIKEI
 62
     1
370
    40
100
AcDbLine
 10
-30.79844044862796
 20
11.31141803774977
 30
0.0
 11
-30.79844044862796
 21
18.10562959330531
 31
0.0
  0
POLYLINE
  5
2E0
330
2
100
AcDbEntity
  8
GAIKEI
 62
     1
370
    40
100
AcDb2dPolyline
 66
     1
 10
0.0
 20
0.0
 30
0.0
  0
VERTEX
  5
2E1
330
2E0
100
AcDbEntity
  8
GAIKEI
 62
     1
370
     0
100
AcDbVertex
100
AcDb2dVertex
 10
-28.49844044862795
 20
17.88605914886085
 30
0.0
  0
VERTEX
  5
2E2
330
2E0
100
AcDbEntity
  8
GAIKEI
 62
     1
370
     0
100
AcDbVertex
100
AcDb2dVertex
 10
-28.58073533751678
 20
17.88405737108309
 30
0.0
  0
VERTEX
  5
2E3
330
2E0
100
AcDbEntity
  8
GAIKEI
 62
     1
370
     0
100
AcDbVertex
100
AcDb2dVertex
 10
-28.66280667085016
 20
17.87805670441639
 30
0.0
  0
VERTEX
  5
2E4
330
2E0
100
AcDbEntity
  8
GAIKEI
 62
     1
370
     0
100
AcDbVertex
100
AcDb2dVertex
 10
-28.74440355973906
 20
17.86807825997198
 30
0.0
  0
VERTEX
  5
2E5
330
2E0
100
AcDbEntity
  8
GAIKEI
 62
     1
370
     0
100
AcDbVertex
100
AcDb2dVertex
 10
-28.82533289307242
 20
17.85414781552754
 30
0.0
  0
VERTEX
  5
2E6
330
2E0
100
AcDbEntity
  8
GAIKEI
 62
     1
370
     0
100
AcDbVertex
100
AcDb2dVertex
 10
-28.90529333751681
 20
17.83632292663861
 30
0.0
  0
VERTEX
  5
2E7
330
2E0
100
AcDbEntity
  8
GAIKEI
 62
     1
370
     0
100
AcDbVertex
100
AcDb2dVertex
 10
-28.98415244862793
 20
17.81464003774974
 30
0.0
  0
VERTEX
  5
2E8
330
2E0
100
AcDbEntity
  8
GAIKEI
 62
     1
370
     0
100
AcDbVertex
100
AcDb2dVertex
 10
-29.06156800418347
 20
17.78920337108309
 30
0.0
  0
VERTEX
  5
2E9
330
2E0
100
AcDbEntity
  8
GAIKEI
 62
     1
370
     0
100
AcDbVertex
100
AcDb2dVertex
 10
-29.13746422640571
 20
17.76004848219418
 30
0.0
  0
VERTEX
  5
2EA
330
2E0
100
AcDbEntity
  8
GAIKEI
 62
     1
370
     0
100
AcDbVertex
100
AcDb2dVertex
 10
-29.21147155973904
 20
17.72733203774976
 30
0.0
  0
VERTEX
  5
2EB
330
2E0
100
AcDbEntity
  8
GAIKEI
 62
     1
370
     0
100
AcDbVertex
100
AcDb2dVertex
 10
-29.28356333751679
 20
17.69108003774974
 30
0.0
  0
VERTEX
  5
2EC
330
2E0
100
AcDbEntity
  8
GAIKEI
 62
     1
370
     0
100
AcDbVertex
100
AcDb2dVertex
 10
-29.35335755973904
 20
17.65150381552752
 30
0.0
  0
VERTEX
  5
2ED
330
2E0
100
AcDbEntity
  8
GAIKEI
 62
     1
370
     0
100
AcDbVertex
100
AcDb2dVertex
 10
-29.42086822640573
 20
17.60861425997197
 30
0.0
  0
VERTEX
  5
2EE
330
2E0
100
AcDbEntity
  8
GAIKEI
 62
     1
370
     0
100
AcDbVertex
100
AcDb2dVertex
 10
-29.48571533751681
 20
17.56267425997197
 30
0.0
  0
VERTEX
  5
2EF
330
2E0
100
AcDbEntity
  8
GAIKEI
 62
     1
370
     0
100
AcDbVertex
100
AcDb2dVertex
 10
-29.54794155973906
 20
17.51367759330529
 30
0.0
  0
VERTEX
  5
2F0
330
2E0
100
AcDbEntity
  8
GAIKEI
 62
     1
370
     0
100
AcDbVertex
100
AcDb2dVertex
 10
-29.60718578196128
 20
17.46193425997194
 30
0.0
  0
VERTEX
  5
2F1
330
2E0
100
AcDbEntity
  8
GAIKEI
 62
     1
370
     0
100
AcDbVertex
100
AcDb2dVertex
 10
-29.66350644862791
 20
17.4074204821942
 30
0.0
  0
VERTEX
  5
2F2
330
2E0
100
AcDbEntity
  8
GAIKEI
 62
     1
370
     0
100
AcDbVertex
100
AcDb2dVertex
 10
-29.71657422640573
 20
17.35048381552752
 30
0.0
  0
VERTEX
  5
2F3
330
2E0
100
AcDbEntity
  8
GAIKEI
 62
     1
370
     0
100
AcDbVertex
100
AcDb2dVertex
 10
-29.76645244862794
 20
17.29108803774977
 30
0.0
  0
VERTEX
  5
2F4
330
2E0
100
AcDbEntity
  8
GAIKEI
 62
     1
370
     0
100
AcDbVertex
100
AcDb2dVertex
 10
-29.81285467085013
 20
17.22960581552752
 30
0.0
  0
VERTEX
  5
2F5
330
2E0
100
AcDbEntity
  8
GAIKEI
 62
     1
370
     0
100
AcDbVertex
100
AcDb2dVertex
 10
-29.85583933751684
 20
17.16599581552751
 30
0.0
  0
VERTEX
  5
2F6
330
2E0
100
AcDbEntity
  8
GAIKEI
 62
     1
370
     0
100
AcDbVertex
100
AcDb2dVertex
 10
-29.89517022640569
 20
17.10064203774976
 30
0.0
  0
VERTEX
  5
2F7
330
2E0
100
AcDbEntity
  8
GAIKEI
 62
     1
370
     0
100
AcDbVertex
100
AcDb2dVertex
 10
-29.93089333751681
 20
17.03350737108309
 30
0.0
  0
VERTEX
  5
2F8
330
2E0
100
AcDbEntity
  8
GAIKEI
 62
     1
370
     0
100
AcDbVertex
100
AcDb2dVertex
 10
-29.9628262264057
 20
16.96497203774976
 30
0.0
  0
VERTEX
  5
2F9
330
2E0
100
AcDbEntity
  8
GAIKEI
 62
     1
370
     0
100
AcDbVertex
100
AcDb2dVertex
 10
-29.99099933751683
 20
16.89501470441644
 30
0.0
  0
VERTEX
  5
2FA
330
2E0
100
AcDbEntity
  8
GAIKEI
 62
     1
370
     0
100
AcDbVertex
100
AcDb2dVertex
 10
-30.01528311529461
 20
16.82399648219422
 30
0.0
  0
VERTEX
  5
2FB
330
2E0
100
AcDbEntity
  8
GAIKEI
 62
     1
370
     0
100
AcDbVertex
100
AcDb2dVertex
 10
-30.03569178196125
 20
16.75192314886087
 30
0.0
  0
VERTEX
  5
2FC
330
2E0
100
AcDbEntity
  8
GAIKEI
 62
     1
370
     0
100
AcDbVertex
100
AcDb2dVertex
 10
-30.05214467085017
 20
16.6791238155275
 30
0.0
  0
VERTEX
  5
2FD
330
2E0
100
AcDbEntity
  8
GAIKEI
 62
     1
370
     0
100
AcDbVertex
100
AcDb2dVertex
 10
-30.06464400418349
 20
16.60564203774976
 30
0.0
  0
VERTEX
  5
2FE
330
2E0
100
AcDbEntity
  8
GAIKEI
 62
     1
370
     0
100
AcDbVertex
100
AcDb2dVertex
 10
-30.0731491152946
 20
16.53176270441639
 30
0.0
  0
VERTEX
  5
2FF
330
2E0
100
AcDbEntity
  8
GAIKEI
 62
     1
370
     0
100
AcDbVertex
100
AcDb2dVertex
 10
-30.07765755973907
 20
16.45757714886085
 30
0.0
  0
VERTEX
  5
300
330
2E0
100
AcDbEntity
  8
GAIKEI
 62
     1
370
     0
100
AcDbVertex
100
AcDb2dVertex
 10
-30.07844022640569
 20
16.4111535933053
 30
0.0
  0
SEQEND
  5
301
330
2E0
100
AcDbEntity
  8
GAIKEI
 62
     1
370
     0
  0
POLYLINE
  5
302
330
2
100
AcDbEntity
  8
GAIKEI
 62
     1
370
    40
100
AcDb2dPolyline
 66
     1
 10
0.0
 20
0.0
 30
0.0
  0
VERTEX
  5
303
330
302
100
AcDbEntity
  8
GAIKEI
 62
     1
370
     0
100
AcDbVertex
100
AcDb2dVertex
 10
-26.9184404486279
 20
16.4111535933053
 30
0.0
  0
VERTEX
  5
304
330
302
100
AcDbEntity
  8
GAIKEI
 62
     1
370
     0
100
AcDbVertex
100
AcDb2dVertex
 10
-26.92044289307239
 20
16.48538759330529
 30
0.0
  0
VERTEX
  5
305
330
302
100
AcDbEntity
  8
GAIKEI
 62
     1
370
     0
100
AcDbVertex
100
AcDb2dVertex
 10
-26.9264451152946
 20
16.55943359330533
 30
0.0
  0
VERTEX
  5
306
330
302
100
AcDbEntity
  8
GAIKEI
 62
     1
370
     0
100
AcDbVertex
100
AcDb2dVertex
 10
-26.95039022640572
 20
16.70626425997198
 30
0.0
  0
VERTEX
  5
307
330
302
100
AcDbEntity
  8
GAIKEI
 62
     1
370
     0
100
AcDbVertex
100
AcDb2dVertex
 10
-26.99008467085014
 20
16.85025759330528
 30
0.0
  0
VERTEX
  5
308
330
302
100
AcDbEntity
  8
GAIKEI
 62
     1
370
     0
100
AcDbVertex
100
AcDb2dVertex
 10
-27.04521822640572
 20
16.99003003774976
 30
0.0
  0
VERTEX
  5
309
330
302
100
AcDbEntity
  8
GAIKEI
 62
     1
370
     0
100
AcDbVertex
100
AcDb2dVertex
 10
-27.11535467085014
 20
17.12420692663863
 30
0.0
  0
VERTEX
  5
30A
330
302
100
AcDbEntity
  8
GAIKEI
 62
     1
370
     0
100
AcDbVertex
100
AcDb2dVertex
 10
-27.19992267085013
 20
17.25142692663863
 30
0.0
  0
VERTEX
  5
30B
330
302
100
AcDbEntity
  8
GAIKEI
 62
     1
370
     0
100
AcDbVertex
100
AcDb2dVertex
 10
-27.29820711529459
 20
17.37035314886088
 30
0.0
  0
VERTEX
  5
30C
330
302
100
AcDbEntity
  8
GAIKEI
 62
     1
370
     0
100
AcDbVertex
100
AcDb2dVertex
 10
-27.40933955973907
 20
17.47968670441639
 30
0.0
  0
VERTEX
  5
30D
330
302
100
AcDbEntity
  8
GAIKEI
 62
     1
370
     0
100
AcDbVertex
100
AcDb2dVertex
 10
-27.53229333751682
 20
17.5781855933053
 30
0.0
  0
VERTEX
  5
30E
330
302
100
AcDbEntity
  8
GAIKEI
 62
     1
370
     0
100
AcDbVertex
100
AcDb2dVertex
 10
-27.66588044862795
 20
17.66468603774976
 30
0.0
  0
VERTEX
  5
30F
330
302
100
AcDbEntity
  8
GAIKEI
 62
     1
370
     0
100
AcDbVertex
100
AcDb2dVertex
 10
-27.80875467085014
 20
17.73812781552752
 30
0.0
  0
VERTEX
  5
310
330
302
100
AcDbEntity
  8
GAIKEI
 62
     1
370
     0
100
AcDbVertex
100
AcDb2dVertex
 10
-27.95942089307238
 20
17.79757870441642
 30
0.0
  0
VERTEX
  5
311
330
302
100
AcDbEntity
  8
GAIKEI
 62
     1
370
     0
100
AcDbVertex
100
AcDb2dVertex
 10
-28.11625022640573
 20
17.8422595933053
 30
0.0
  0
VERTEX
  5
312
330
302
100
AcDbEntity
  8
GAIKEI
 62
     1
370
     0
100
AcDbVertex
100
AcDb2dVertex
 10
-28.27750133751681
 20
17.87156803774974
 30
0.0
  0
VERTEX
  5
313
330
302
100
AcDbEntity
  8
GAIKEI
 62
     1
370
     0
100
AcDbVertex
100
AcDb2dVertex
 10
-28.44134778196127
 20
17.88509603774975
 30
0.0
  0
VERTEX
  5
314
330
302
100
AcDbEntity
  8
GAIKEI
 62
     1
370
     0
100
AcDbVertex
100
AcDb2dVertex
 10
-28.49844044862795
 20
17.88605914886085
 30
0.0
  0
SEQEND
  5
315
330
302
100
AcDbEntity
  8
GAIKEI
 62
     1
370
     0
  0
ARC
  5
316
330
2
100
AcDbEntity
  8
GAIKEI
 62
     1
370
    40
100
AcDbCircle
 10
-28.89877333751684
 20
17.48347292663862
 30
0.0
 40
8.008075777777778
100
AcDbArc
 50
272.868352000002
 51
275.0171299999976
  0
SPLINE
  5
317
330
2
100
AcDbEntity
  8
GAIKEI
 62
     1
370
    40
100
AcDbSpline
210
0.0
220
0.0
230
1.0
 70
     8
 71
     3
 72
    42
 73
    38
 74
     0
 42
0.0000000001
 43
0.0000000001
 40
0.0
 40
0.0
 40
0.0
 40
0.0
 40
0.3390959137179484
 40
0.6772417036815064
 40
1.014994718360923
 40
1.352925349463089
 40
1.691615671412704
 40
2.031657454655472
 40
2.373649584720283
 40
2.718194942807521
 40
3.065896824978262
 40
3.417354891545771
 40
3.773154999075511
 40
4.133855940861242
 40
4.499987042802916
 40
4.872043166137862
 40
5.250479006131302
 40
5.635703189546762
 40
6.02807230081178
 40
6.427884969509476
 40
6.835375992881743
 40
7.250706617899881
 40
7.673966199537339
 40
8.105180563002001
 40
8.544310574142754
 40
8.991250683461776
 40
9.445828091668152
 40
9.907802548822402
 40
10.37686679488135
 40
10.85264764529527
 40
11.33470772092401
 40
11.82255089454601
 40
12.31564302359355
 40
12.81341143746184
 40
13.31524577819716
 40
13.82050461213445
 40
14.32852242919591
 40
14.32852242919591
 40
14.32852242919591
 40
14.32852242919591
 10
-26.19844040041011
 20
11.18054934040796
 30
0.0
 10
-26.19844040040994
 20
11.15793856601317
 30
0.0
 10
-26.19950877045403
 20
11.11278789793883
 30
0.0
 10
-26.2043634288006
 20
11.04526809120193
 30
0.0
 10
-26.21249300804482
 20
10.97814324460779
 30
0.0
 10
-26.22392519563539
 20
10.9114635270493
 30
0.0
 10
-26.23868891994476
 20
10.84528476584398
 30
0.0
 10
-26.25681378429437
 20
10.77966514891537
 30
0.0
 10
-26.27832950290832
 20
10.7146662643419
 30
0.0
 10
-26.30326533249235
 20
10.65035295833991
 30
0.0
 10
-26.33164949354921
 20
10.58679349748087
 30
0.0
 10
-26.36350843417404
 20
10.52406000181167
 30
0.0
 10
-26.39886558296439
 20
10.46222929501775
 30
0.0
 10
-26.43773994807384
 20
10.40138343266548
 30
0.0
 10
-26.4801448787743
 20
10.34160982452005
 30
0.0
 10
-26.52608692653058
 20
10.28300072388759
 30
0.0
 10
-26.57556466307943
 20
10.22565285592171
 30
0.0
 10
-26.62856747455379
 20
10.16966702701538
 30
0.0
 10
-26.685074371898
 20
10.11514770110057
 30
0.0
 10
-26.74505281005719
 20
10.06220253507285
 30
0.0
 10
-26.80845735086518
 20
10.01094208809908
 30
0.0
 10
-26.87522856177333
 20
9.961479012975615
 30
0.0
 10
-26.94529265747156
 20
9.913926566435662
 30
0.0
 10
-27.01856197359627
 20
9.868397286695795
 30
0.0
 10
-27.09493526588085
 20
9.825001854839229
 30
0.0
 10
-27.17429756528588
 20
9.783848448231537
 30
0.0
 10
-27.25652008521371
 20
9.745042093152648
 30
0.0
 10
-27.34146023428144
 20
9.708684007403462
 30
0.0
 10
-27.42896173821902
 20
9.674870931422731
 30
0.0
 10
-27.51885487960107
 20
9.643694453366208
 30
0.0
 10
-27.61095705054811
 20
9.615240265171422
 30
0.0
 10
-27.70507460247313
 20
9.589587166556071
 30
0.0
 10
-27.80100455341494
 20
9.566806343521108
 30
0.0
 10
-27.89853621575571
 20
9.546960908188282
 30
0.0
 10
-27.99745121077677
 20
9.53010593811723
 30
0.0
 10
-28.09752660685859
 20
9.516288103260251
 30
0.0
 10
-28.16470832155534
 20
9.509143066538058
 30
0.0
 10
-28.19844040041079
 20
9.506082478428538
 30
0.0
  0
LINE
  5
318
330
2
100
AcDbEntity
  8
GAIKEI
 62
     1
 48
0.000045
370
    40
100
AcDbLine
 10
-28.49804044862793
 20
19.93162070441641
 30
0.0
 11
-28.49844044862795
 21
19.93164048219421
 31
0.0
  0
LINE
  5
319
330
2
100
AcDbEntity
  8
GAIKEI
 62
     1
370
    40
100
AcDbLine
 10
-26.19844044862793
 20
11.18054937108309
 30
0.0
 11
-26.19844044862793
 21
17.07202848219418
 31
0.0
  0
LINE
  5
31A
330
2
100
AcDbEntity
  8
GAIKEI
 62
     1
 48
0.131003
370
    40
100
AcDbLine
 10
-26.19844044862793
 20
17.07202848219418
 30
0.0
 11
-26.19844044862793
 21
18.23649803774975
 31
0.0
  0
SPLINE
  5
31B
330
2
100
AcDbEntity
  8
GAIKEI
 62
     1
370
    40
100
AcDbSpline
210
0.0
220
0.0
230
1.0
 70
     8
 71
     3
 72
    42
 73
    38
 74
     0
 42
0.0000000001
 43
0.0000000001
 40
0.0
 40
0.0
 40
0.0
 40
0.0
 40
0.3390959137067633
 40
0.6772417036634148
 40
1.014994718340961
 40
1.352925349445281
 40
1.691615671398946
 40
2.031657454645034
 40
2.373649584709928
 40
2.718194942792279
 40
3.06589682495304
 40
3.417354891507741
 40
3.773154999027991
 40
4.133855940813007
 40
4.499987042763504
 40
4.872043166113799
 40
5.25047900612388
 40
5.635703189551385
 40
6.028072300819183
 40
6.427884969509031
 40
6.835375992867058
 40
7.250706617873801
 40
7.673966199509556
 40
8.105180562984656
 40
8.544310574146606
 40
8.991250683493422
 40
9.445828091728156
 40
9.907802548904989
 40
10.37686679497552
 40
10.8526476453876
 40
11.33470772100329
 40
11.82255089460844
 40
12.31564302364031
 40
12.8134114374947
 40
13.3152457782164
 40
13.82050461213836
 40
14.328522429182
 40
14.328522429182
 40
14.328522429182
 40
14.328522429182
 10
-26.19844040041011
 20
18.23649821192711
 30
0.0
 10
-26.19844040040994
 20
18.25910898632116
 30
0.0
 10
-26.19950877045409
 20
18.30425965439431
 30
0.0
 10
-26.20436342880055
 20
18.37177946112987
 30
0.0
 10
-26.21249300804465
 20
18.43890430772359
 30
0.0
 10
-26.22392519563516
 20
18.50558402528242
 30
0.0
 10
-26.23868891994465
 20
18.57176278648831
 30
0.0
 10
-26.25681378429443
 20
18.6373824034174
 30
0.0
 10
-26.27832950290838
 20
18.70238128799079
 30
0.0
 10
-26.30326533249206
 20
18.76669459399187
 30
0.0
 10
-26.33164949354824
 20
18.8302540548492
 30
0.0
 10
-26.36350843417194
 20
18.89298755051649
 30
0.0
 10
-26.39886558296121
 20
18.95481825730928
 30
0.0
 10
-26.43773994807026
 20
19.01566411966166
 30
0.0
 10
-26.4801448787714
 20
19.07543772780855
 30
0.0
 10
-26.52608692652922
 20
19.1340468284433
 30
0.0
 10
-26.57556466307994
 20
19.19139469641146
 30
0.0
 10
-26.62856747455578
 20
19.24738052531921
 30
0.0
 10
-26.6850743719005
 20
19.30189985123419
 30
0.0
 10
-26.7450528100589
 20
19.35484501726086
 30
0.0
 10
-26.80845735086518
 20
19.40610546423315
 30
0.0
 10
-26.87522856177179
 20
19.45556853935574
 30
0.0
 10
-26.94529265746979
 20
19.50312098589566
 30
0.0
 10
-27.01856197359621
 20
19.54865026563652
 30
0.0
 10
-27.09493526588432
 20
19.59204569749494
 30
0.0
 10
-27.17429756529418
 20
19.6331991041047
 30
0.0
 10
-27.25652008522696
 20
19.67200545918536
 30
0.0
 10
-27.34146023429867
 20
19.70836354493568
 30
0.0
 10
-27.42896173823846
 20
19.74217662091661
 30
0.0
 10
-27.51885487962056
 20
19.77335309897239
 30
0.0
 10
-27.61095705056579
 20
19.80180728716596
 30
0.0
 10
-27.70507460248791
 20
19.82746038577994
 30
0.0
 10
-27.80100455342694
 20
19.8502412088138
 30
0.0
 10
-27.89853621576492
 20
19.87008664414571
 30
0.0
 10
-27.9974512107832
 20
19.88694161421605
 30
0.0
 10
-28.09752660686195
 20
19.90075944907244
 30
0.0
 10
-28.16470832155653
 20
19.90790448579429
 30
0.0
 10
-28.19844040041079
 20
19.9109650739037
 30
0.0
  0
ARC
  5
31C
330
2
100
AcDbEntity
  8
GAIKEI
 62
     1
370
    40
100
AcDbCircle
 10
-28.89877333751684
 20
11.9335747044164
 30
0.0
 40
8.008075777777778
100
AcDbArc
 50
84.98287999999684
 51
87.13165800000144
  0
ARC
  5
31D
330
2
100
AcDbEntity
  8
GAIKEI
 62
     1
370
    40
100
AcDbCircle
 10
-28.09810733751681
 20
17.48347292663862
 30
0.0
 40
8.008075777777778
100
AcDbArc
 50
264.9828709999986
 51
267.1316490000016
  0
LINE
  5
31E
330
2
100
AcDbEntity
  8
GAIKEI
 62
     1
 48
0.131003
370
    40
100
AcDbLine
 10
-30.79844044862796
 20
17.07202848219418
 30
0.0
 11
-30.79844044862796
 21
18.23649803774975
 31
0.0
  0
LINE
  5
31F
330
2
100
AcDbEntity
  8
GAIKEI
 62
     1
370
    40
100
AcDbLine
 10
-30.79844044862796
 20
11.18054937108309
 30
0.0
 11
-30.79844044862796
 21
17.07202848219418
 31
0.0
  0
SPLINE
  5
320
330
2
100
AcDbEntity
  8
GAIKEI
 62
     1
370
    40
100
AcDbSpline
210
0.0
220
0.0
230
1.0
 70
     8
 71
     3
 72
    42
 73
    38
 74
     0
 42
0.0000000001
 43
0.0000000001
 40
0.0
 40
0.0
 40
0.0
 40
0.0
 40
0.3390959137183913
 40
0.6772417036876851
 40
1.014994718379532
 40
1.352925349499661
 40
1.691615671469999
 40
2.031657454732735
 40
2.373649584813467
 40
2.718194942910424
 40
3.065896825084731
 40
3.417354891653014
 40
3.773154999186616
 40
4.133855940982924
 40
4.499987042942254
 40
4.872043166299832
 40
5.250479006317225
 40
5.635703189753852
 40
6.028072301033947
 40
6.427884969739651
 40
6.835375993115791
 40
7.250706618134231
 40
7.673966199763494
 40
8.105180563209694
 40
8.544310574323015
 40
8.991250683609296
 40
9.445828091782585
 40
9.907802548908511
 40
10.3768667949479
 40
10.85264764535242
 40
11.3347077209793
 40
11.82255089459888
 40
12.31564302363514
 40
12.81341143748426
 40
13.31524577819986
 40
13.82050461212459
 40
14.32852242918245
 40
14.32852242918245
 40
14.32852242918245
 40
14.32852242918245
 10
-30.79844040041024
 20
11.18054934040512
 30
0.0
 10
-30.79844040041036
 20
11.1579385660103
 30
0.0
 10
-30.79737203036615
 20
11.11278789793556
 30
0.0
 10
-30.79251737201935
 20
11.04526809119738
 30
0.0
 10
-30.78438779277457
 20
10.97814324460091
 30
0.0
 10
-30.77295560518308
 20
10.9114635270391
 30
0.0
 10
-30.75819188087229
 20
10.84528476583009
 30
0.0
 10
-30.74006701652093
 20
10.77966514889806
 30
0.0
 10
-30.7185512979051
 20
10.714666264322
 30
0.0
 10
-30.69361546831931
 20
10.65035295831859
 30
0.0
 10
-30.6652313072608
 20
10.58679349745921
 30
0.0
 10
-30.63337236663461
 20
10.52406000179016
 30
0.0
 10
-30.59801521784289
 20
10.46222929499589
 30
0.0
 10
-30.55914085273122
 20
10.40138343264249
 30
0.0
 10
-30.5167359220277
 20
10.34160982449509
 30
0.0
 10
-30.47079387426743
 20
10.2830007238602
 30
0.0
 10
-30.42131613771426
 20
10.22565285589209
 30
0.0
 10
-30.36831332623575
 20
10.16966702698423
 30
0.0
 10
-30.31180642888802
 20
10.11514770106882
 30
0.0
 10
-30.25182799072605
 20
10.06220253504153
 30
0.0
 10
-30.18842344991611
 20
10.01094208806887
 30
0.0
 10
-30.12165223900695
 20
9.961479012947194
 30
0.0
 10
-30.05158814330912
 20
9.91392656640977
 30
0.0
 10
-29.97831882718663
 20
9.868397286673229
 30
0.0
 10
-29.90194553490591
 20
9.825001854820527
 30
0.0
 10
-29.82258323550576
 20
9.783848448216815
 30
0.0
 10
-29.74036071558311
 20
9.745042093141648
 30
0.0
 10
-29.65542056651998
 20
9.708684007395532
 30
0.0
 10
-29.56791906258565
 20
9.674870931416961
 30
0.0
 10
-29.47802592120536
 20
9.643694453361661
 30
0.0
 10
-29.385923750259
 20
9.615240265167614
 30
0.0
 10
-29.29180619833494
 20
9.589587166552973
 30
0.0
 10
-29.19587624739512
 20
9.566806343518834
 30
0.0
 10
-29.09834458505765
 20
9.546960908186918
 30
0.0
 10
-28.99942959003988
 20
9.530105938116605
 30
0.0
 10
-28.89935419396045
 20
9.51628810326008
 30
0.0
 10
-28.83217247926473
 20
9.50914306653803
 30
0.0
 10
-28.79844040040962
 20
9.506082478428538
 30
0.0
  0
SPLINE
  5
321
330
2
100
AcDbEntity
  8
GAIKEI
 62
     1
370
    40
100
AcDbSpline
210
0.0
220
0.0
230
1.0
 70
     8
 71
     3
 72
    42
 73
    38
 74
     0
 42
0.0000000001
 43
0.0000000001
 40
0.0
 40
0.0
 40
0.0
 40
0.0
 40
0.3390959137122589
 40
0.6772417036713119
 40
1.014994718347283
 40
1.352925349446671
 40
1.691615671393607
 40
2.031657454633205
 40
2.373649584693896
 40
2.718194942775804
 40
3.065896824940132
 40
3.417354891500788
 40
3.773154999025808
 40
4.133855940811952
 40
4.499987042759496
 40
4.872043166103949
 40
5.250479006107475
 40
5.635703189530151
 40
6.028072300796895
 40
6.427884969490214
 40
6.835375992854852
 40
7.250706617867561
 40
7.673966199505431
 40
8.105180562977569
 40
8.544310574132019
 40
8.991250683468537
 40
9.445828091692773
 40
9.90780254886158
 40
10.37686679492877
 40
10.85264764534316
 40
11.33470772096576
 40
11.82255089457936
 40
12.31564302362
 40
12.8134114374832
 40
13.31524577821355
 40
13.82050461214408
 40
14.32852242919663
 40
14.32852242919663
 40
14.32852242919663
 40
14.32852242919663
 10
-30.79844040041024
 20
18.2364982119243
 30
0.0
 10
-30.79844040041042
 20
18.25910898631869
 30
0.0
 10
-30.79737203036638
 20
18.30425965439235
 30
0.0
 10
-30.79251737201992
 20
18.37177946112837
 30
0.0
 10
-30.78438779277593
 20
18.4389043077218
 30
0.0
 10
-30.7729556051857
 20
18.50558402527974
 30
0.0
 10
-30.75819188087667
 20
18.57176278648455
 30
0.0
 10
-30.74006701652746
 20
18.63738240341257
 30
0.0
 10
-30.71855129791396
 20
18.70238128798533
 30
0.0
 10
-30.69361546833056
 20
18.76669459398644
 30
0.0
 10
-30.66523130727438
 20
18.83025405484446
 30
0.0
 10
-30.63337236665052
 20
18.89298755051268
 30
0.0
 10
-30.59801521786102
 20
18.9548182573063
 30
0.0
 10
-30.55914085275208
 20
19.01566411965893
 30
0.0
 10
-30.5167359220514
 20
19.07543772780556
 30
0.0
 10
-30.47079387429443
 20
19.13404682843964
 30
0.0
 10
-30.42131613774461
 20
19.19139469640709
 30
0.0
 10
-30.36831332626946
 20
19.24738052531438
 30
0.0
 10
-30.31180642892508
 20
19.30189985122945
 30
0.0
 10
-30.2518279907664
 20
19.35484501725668
 30
0.0
 10
-30.18842344995937
 20
19.40610546422988
 30
0.0
 10
-30.12165223905214
 20
19.45556853935318
 30
0.0
 10
-30.05158814335397
 20
19.50312098589347
 30
0.0
 10
-29.97831882722818
 20
19.54865026563425
 30
0.0
 10
-29.90194553494138
 20
19.59204569749215
 30
0.0
 10
-29.82258323553333
 20
19.63319910410129
 30
0.0
 10
-29.74036071560244
 20
19.6720054591814
 30
0.0
 10
-29.65542056653215
 20
19.70836354493144
 30
0.0
 10
-29.56791906259298
 20
19.74217662091246
 30
0.0
 10
-29.47802592121076
 20
19.77335309896881
 30
0.0
 10
-29.38592375026451
 20
19.80180728716305
 30
0.0
 10
-29.2918061983408
 20
19.82746038577781
 30
0.0
 10
-29.19587624740018
 20
19.85024120881223
 30
0.0
 10
-29.09834458506054
 20
19.87008664414469
 30
0.0
 10
-28.99942959004056
 20
19.88694161421551
 30
0.0
 10
-28.89935419396011
 20
19.90075944907227
 30
0.0
 10
-28.83217247926438
 20
19.90790448579423
 30
0.0
 10
-28.79844040040962
 20
19.9109650739037
 30
0.0
  0
LINE
  5
322
330
2
100
AcDbEntity
  8
GAIKEI
 62
     1
 48
0.000045
370
    40
100
AcDbLine
 10
-28.49844044862795
 20
19.93164048219421
 30
0.0
 11
-28.49884044862796
 21
19.93162070441641
 31
0.0
  0
ARC
  5
323
330
2
100
AcDbEntity
  8
GAIKEI
 62
     1
370
    40
100
AcDbCircle
 10
-28.09810733751681
 20
11.9335747044164
 30
0.0
 40
8.008075777777778
100
AcDbArc
 50
92.86833999999787
 51
95.01711799999776
  0
LINE
  5
324
330
2
100
AcDbEntity
  8
GAIKEI
 62
     1
370
    40
100
AcDbLine
 10
-36.50118155973905
 20
24.70852381552751
 30
0.0
 11
-20.4956991152946
 21
24.70852381552751
 31
0.0
  0
LINE
  5
325
330
2
100
AcDbEntity
  8
GAIKEI
 62
     1
370
    40
100
AcDbLine
 10
-18.49844044862794
 20
22.71126492663865
 30
0.0
 11
-18.49844044862794
 21
6.705782482194166
 31
0.0
  0
CIRCLE
  5
326
330
2
100
AcDbEntity
  8
GAIKEI
 62
     1
370
    40
100
AcDbCircle
 10
-28.49844044862795
 20
14.70852381552751
 30
0.0
 40
6.0
  0
CIRCLE
  5
327
330
2
100
AcDbEntity
  8
GAIKEI
 62
     1
370
    40
100
AcDbCircle
 10
-28.49844044862795
 20
14.70852381552751
 30
0.0
 40
7.769999777777778
  0
LINE
  5
328
330
2
100
AcDbEntity
  8
GAIKEI
 62
     1
 48
0.000248
370
    40
100
AcDbLine
 10
-23.69130355973908
 20
8.200843371083095
 30
0.0
 11
-23.69199311529462
 21
8.202938259971972
 31
0.0
  0
LINE
  5
329
330
2
100
AcDbEntity
  8
GAIKEI
 62
     1
 48
0.003519
370
    40
100
AcDbLine
 10
-23.72326955973904
 20
8.202938259971972
 30
0.0
 11
-23.69199311529462
 21
8.202938259971972
 31
0.0
  0
CIRCLE
  5
32A
330
2
100
AcDbEntity
  8
GAIKEI
 62
     1
370
    40
100
AcDbCircle
 10
-28.49844044862795
 20
14.70852337108306
 30
0.0
 40
8.099999333333332
  0
CIRCLE
  5
32B
330
2
100
AcDbEntity
  8
GAIKEI
 62
     1
370
    40
100
AcDbCircle
 10
-20.49844044862795
 20
6.708523815527513
 30
0.0
 40
0.3999997777777779
  0
ARC
  5
32C
330
2
100
AcDbEntity
  8
GAIKEI
 62
     1
370
    40
100
AcDbCircle
 10
-22.85844067085014
 20
6.998524037749746
 30
0.0
 40
0.1517473333333333
100
AcDbArc
 50
0.000019999998756
 51
179.9999229999994
  0
LINE
  5
32D
330
2
100
AcDbEntity
  8
GAIKEI
 62
     1
 48
0.06525
370
    40
100
AcDbLine
 10
-23.0101884486279
 20
6.418524482194186
 30
0.0
 11
-23.01018822640572
 21
6.998524704416411
 31
0.0
  0
ARC
  5
32E
330
2
100
AcDbEntity
  8
GAIKEI
 62
     1
370
    40
100
AcDbCircle
 10
-22.85844067085014
 20
6.418524482194186
 30
0.0
 40
0.1517471111111111
100
AcDbArc
 50
180.0000599999995
 51
359.9999279999999
  0
LINE
  5
32F
330
2
100
AcDbEntity
  8
GAIKEI
 62
     1
 48
0.06525
370
    40
100
AcDbLine
 10
-22.70669311529457
 20
6.418524482194186
 30
0.0
 11
-22.70669355973905
 21
6.998524704416411
 31
0.0
  0
LINE
  5
330
330
2
100
AcDbEntity
  8
GAIKEI
 62
     1
 48
0.06525
370
    40
100
AcDbLine
 10
-22.41018844862793
 20
6.418524482194186
 30
0.0
 11
-22.41018844862793
 21
6.998524704416411
 31
0.0
  0
ARC
  5
331
330
2
100
AcDbEntity
  8
GAIKEI
 62
     1
370
    40
100
AcDbCircle
 10
-22.2584411152946
 20
6.418524482194186
 30
0.0
 40
0.1517473333333333
100
AcDbArc
 50
180.0000599999995
 51
359.9999279999999
  0
LINE
  5
332
330
2
100
AcDbEntity
  8
GAIKEI
 62
     1
 48
0.06525
370
    40
100
AcDbLine
 10
-22.10669311529461
 20
6.418524482194186
 30
0.0
 11
-22.10669355973903
 21
6.998524704416411
 31
0.0
  0
ARC
  5
333
330
2
100
AcDbEntity
  8
GAIKEI
 62
     1
370
    40
100
AcDbCircle
 10
-22.2584411152946
 20
6.998524704416411
 30
0.0
 40
0.1517475555555556
100
AcDbArc
 50
0.000019999998756
 51
179.9999229999994
  0
LINE
  5
334
330
2
100
AcDbEntity
  8
GAIKEI
 62
     1
 48
0.003917
370
    40
100
AcDbLine
 10
-23.72612444862796
 20
8.200843371083095
 30
0.0
 11
-23.69130355973908
 21
8.200843371083095
 31
0.0
  0
POLYLINE
  5
335
330
2
100
AcDbEntity
  8
GAIKEI
 62
     1
370
    13
100
AcDb2dPolyline
 66
     1
 10
0.0
 20
0.0
 30
0.0
  0
VERTEX
  5
336
330
335
100
AcDbEntity
  8
GAIKEI
 62
     1
370
     0
100
AcDbVertex
100
AcDb2dVertex
 10
-18.89525511529462
 20
22.61149159330532
 30
0.0
  0
VERTEX
  5
337
330
335
100
AcDbEntity
  8
GAIKEI
 62
     1
370
     0
100
AcDbVertex
100
AcDb2dVertex
 10
-18.90345978196126
 20
14.81200159330529
 30
0.0
  0
VERTEX
  5
338
330
335
100
AcDbEntity
  8
GAIKEI
 62
     1
370
     0
100
AcDbVertex
100
AcDb2dVertex
 10
-18.89567244862792
 20
7.009292037749759
 30
0.0
  0
VERTEX
  5
339
330
335
100
AcDbEntity
  8
GAIKEI
 62
     1
370
     0
100
AcDbVertex
100
AcDb2dVertex
 10
-18.89525511529462
 20
6.805556037749738
 30
0.0
  0
SEQEND
  5
33A
330
335
100
AcDbEntity
  8
GAIKEI
 62
     1
370
     0
  0
POLYLINE
  5
33B
330
2
100
AcDbEntity
  8
GAIKEI
 62
     1
370
    13
100
AcDb2dPolyline
 66
     1
 10
0.0
 20
0.0
 30
0.0
  0
VERTEX
  5
33C
330
33B
100
AcDbEntity
  8
GAIKEI
 62
     1
370
     0
100
AcDbVertex
100
AcDb2dVertex
 10
-20.59547267085014
 20
5.105338482194213
 30
0.0
  0
VERTEX
  5
33D
330
33B
100
AcDbEntity
  8
GAIKEI
 62
     1
370
     0
100
AcDbVertex
100
AcDb2dVertex
 10
-28.39496244862795
 20
5.113543148860856
 30
0.0
  0
VERTEX
  5
33E
330
33B
100
AcDbEntity
  8
GAIKEI
 62
     1
370
     0
100
AcDbVertex
100
AcDb2dVertex
 10
-36.1976722264057
 20
5.105755815527544
 30
0.0
  0
VERTEX
  5
33F
330
33B
100
AcDbEntity
  8
GAIKEI
 62
     1
370
     0
100
AcDbVertex
100
AcDb2dVertex
 10
-36.40140822640575
 20
5.105338482194213
 30
0.0
  0
SEQEND
  5
340
330
33B
100
AcDbEntity
  8
GAIKEI
 62
     1
370
     0
  0
LINE
  5
341
330
2
100
AcDbEntity
  8
GAIKEI
 62
     1
370
    40
100
AcDbLine
 10
-18.49844044862794
 20
6.705782482194166
 30
0.0
 11
-18.49844044862794
 21
22.71126492663865
 31
0.0
  0
POLYLINE
  5
342
330
2
100
AcDbEntity
  8
GAIKEI
 62
     1
370
    13
100
AcDb2dPolyline
 66
     1
 10
0.0
 20
0.0
 30
0.0
  0
VERTEX
  5
343
330
342
100
AcDbEntity
  8
GAIKEI
 62
     1
370
     0
100
AcDbVertex
100
AcDb2dVertex
 10
-38.10162578196127
 20
6.805556037749738
 30
0.0
  0
VERTEX
  5
344
330
342
100
AcDbEntity
  8
GAIKEI
 62
     1
370
     0
100
AcDbVertex
100
AcDb2dVertex
 10
-38.09342111529458
 20
14.60504625997197
 30
0.0
  0
VERTEX
  5
345
330
342
100
AcDbEntity
  8
GAIKEI
 62
     1
370
     0
100
AcDbVertex
100
AcDb2dVertex
 10
-38.10120844862792
 20
22.4077555933053
 30
0.0
  0
VERTEX
  5
346
330
342
100
AcDbEntity
  8
GAIKEI
 62
     1
370
     0
100
AcDbVertex
100
AcDb2dVertex
 10
-38.10162578196127
 20
22.61149159330532
 30
0.0
  0
SEQEND
  5
347
330
342
100
AcDbEntity
  8
GAIKEI
 62
     1
370
     0
  0
ARC
  5
348
330
2
100
AcDbEntity
  8
GAIKEI
 62
     1
370
    13
100
AcDbCircle
 10
-20.58931111529461
 20
6.799394482194202
 30
0.0
 40
1.693879555555555
100
AcDbArc
 50
269.7915980000002
 51
0.2083779999994774
  0
POLYLINE
  5
349
330
2
100
AcDbEntity
  8
GAIKEI
 62
     1
370
    13
100
AcDb2dPolyline
 66
     1
 10
0.0
 20
0.0
 30
0.0
  0
VERTEX
  5
34A
330
349
100
AcDbEntity
  8
GAIKEI
 62
     1
370
     0
100
AcDbVertex
100
AcDb2dVertex
 10
-36.40140822640575
 20
24.31170914886087
 30
0.0
  0
VERTEX
  5
34B
330
349
100
AcDbEntity
  8
GAIKEI
 62
     1
370
     0
100
AcDbVertex
100
AcDb2dVertex
 10
-28.60191800418352
 20
24.3035044821942
 30
0.0
  0
VERTEX
  5
34C
330
349
100
AcDbEntity
  8
GAIKEI
 62
     1
370
     0
100
AcDbVertex
100
AcDb2dVertex
 10
-20.79920867085014
 20
24.31129181552754
 30
0.0
  0
VERTEX
  5
34D
330
349
100
AcDbEntity
  8
GAIKEI
 62
     1
370
     0
100
AcDbVertex
100
AcDb2dVertex
 10
-20.59547267085014
 20
24.31170914886087
 30
0.0
  0
SEQEND
  5
34E
330
349
100
AcDbEntity
  8
GAIKEI
 62
     1
370
     0
  0
LINE
  5
34F
330
2
100
AcDbEntity
  8
GAIKEI
 62
     1
370
    40
100
AcDbLine
 10
-36.50118155973905
 20
24.70852381552751
 30
0.0
 11
-20.4956991152946
 21
24.70852381552751
 31
0.0
  0
LINE
  5
350
330
2
100
AcDbEntity
  8
GAIKEI
 62
     1
370
    40
100
AcDbLine
 10
-38.49844044862795
 20
22.71126492663865
 30
0.0
 11
-38.49844044862795
 21
6.705782482194166
 31
0.0
  0
LINE
  5
351
330
2
100
AcDbEntity
  8
GAIKEI
 62
     7
370
    40
100
AcDbLine
 10
-20.4956991152946
 20
4.708523815527513
 30
0.0
 11
-36.50118155973905
 21
4.708523815527513
 31
0.0
  0
ARC
  5
352
330
2
100
AcDbEntity
  8
GAIKEI
 62
     7
370
    40
100
AcDbCircle
 10
-20.4944640041835
 20
6.704547371083066
 30
0.0
 40
1.995934666666666
100
AcDbArc
 50
269.9645380000006
 51
309.4595463049508
  0
ARC
  5
353
330
2
100
AcDbEntity
  8
GAIKEI
 62
     1
370
    40
100
AcDbCircle
 10
-20.4944640041835
 20
22.71250025997196
 30
0.0
 40
1.995934666666666
100
AcDbArc
 50
359.9645200000012
 51
90.03547200000227
  0
ARC
  5
354
330
2
100
AcDbEntity
  8
GAIKEI
 62
     1
370
    40
100
AcDbCircle
 10
-36.5024168930724
 20
22.71250025997196
 30
0.0
 40
1.995934666666666
100
AcDbArc
 50
89.96452700000265
 51
180.0354670000008
  0
ARC
  5
355
330
2
100
AcDbEntity
  8
GAIKEI
 62
     1
370
    13
100
AcDbCircle
 10
-36.40756978196129
 20
22.61765314886088
 30
0.0
 40
1.693879555555555
100
AcDbArc
 50
89.79161300000326
 51
180.2083669999992
  0
ARC
  5
356
330
2
100
AcDbEntity
  8
GAIKEI
 62
     1
370
    13
100
AcDbCircle
 10
-20.58931111529461
 20
22.61765314886088
 30
0.0
 40
1.693879555555555
100
AcDbArc
 50
359.7916070000007
 51
90.20837800000274
  0
ARC
  5
357
330
2
100
AcDbEntity
  8
GAIKEI
 62
     1
370
    40
100
AcDbCircle
 10
-36.5024168930724
 20
6.704547371083066
 30
0.0
 40
1.995934666666666
100
AcDbArc
 50
179.9645289999993
 51
230.5404585656975
  0
ARC
  5
358
330
2
100
AcDbEntity
  8
GAIKEI
 62
     1
370
    13
100
AcDbCircle
 10
-36.40756978196129
 20
6.799394482194202
 30
0.0
 40
1.693879555555555
100
AcDbArc
 50
179.7916160000012
 51
270.2083759999997
  0
ENDSEC
  0
SECTION
  2
OBJECTS
  0
DICTIONARY
  5
7
330
0
100
AcDbDictionary
281
     1
  3
ACAD_COLOR
350
2C
  3
ACAD_GROUP
350
28
  3
ACAD_LAYOUT
350
B
  3
ACAD_MATERIAL
350
2B
  3
ACAD_MLINESTYLE
350
29
  3
ACAD_PLOTSETTINGS
350
2A
  3
ACAD_PLOTSTYLENAME
350
6
  3
ACDBHEADERROUNDTRIPXREC
350
395
  3
AcDbVariableDictionary
350
390
  0
DICTIONARY
  5
11
330
10
100
AcDbDictionary
280
     1
281
     1
  3
ACAD_LAYERSTATES
360
12
  0
DICTIONARY
  5
2C
102
{ACAD_REACTORS
330
7
102
}
330
7
100
AcDbDictionary
281
     1
  0
DICTIONARY
  5
28
102
{ACAD_REACTORS
330
7
102
}
330
7
100
AcDbDictionary
281
     1
  0
DICTIONARY
  5
B
102
{ACAD_REACTORS
330
7
102
}
330
7
100
AcDbDictionary
281
     1
  3
Model
350
A
  3
レイアウト1
350
F
  0
DICTIONARY
  5
2B
102
{ACAD_REACTORS
330
7
102
}
330
7
100
AcDbDictionary
281
     1
  0
DICTIONARY
  5
29
102
{ACAD_REACTORS
330
7
102
}
330
7
100
AcDbDictionary
281
     1
  3
Standard
350
2E
  0
DICTIONARY
  5
2A
102
{ACAD_REACTORS
330
7
102
}
330
7
100
AcDbDictionary
281
     1
  0
ACDBDICTIONARYWDFLT
  5
6
102
{ACAD_REACTORS
330
7
102
}
330
7
100
AcDbDictionary
281
     1
  3
Normal
350
5
100
AcDbDictionaryWithDefault
340
5
  0
DICTIONARY
  5
395
102
{ACAD_REACTORS
330
7
102
}
330
7
100
AcDbDictionary
281
     1
  3
COLORDICT
350
397
  3
MATERIALDICT
350
396
  0
DICTIONARY
  5
390
102
{ACAD_REACTORS
330
7
102
}
330
7
100
AcDbDictionary
281
     1
  3
DIMASSOC
350
392
  3
HIDETEXT
350
391
  3
PROJECTNAME
350
393
  0
DICTIONARY
  5
12
102
{ACAD_REACTORS
330
11
102
}
330
11
100
AcDbDictionary
281
     1
  0
LAYOUT
  5
A
102
{ACAD_XDICTIONARY
360
398
102
}
102
{ACAD_REACTORS
330
B
102
}
330
B
100
AcDbPlotSettings
  1

  2
Acrobat PDFWriter
  4
A4
  6

 40
7.143749713897705
 41
7.143741130828857
 42
7.143768310546875
 43
7.143753051757812
 44
297.0530090332031
 45
209.9733276367187
 46
0.0
 47
4.83
 48
4666.425699
 49
-6797.381196
140
11360.039443
141
-2036.726114
142
1.0
143
1.392447133533976
 70
 11956
 72
     1
 73
     1
 74
     1
  7
tmsacad.ctb
 75
     0
147
0.7181601196320031
148
0.0021372975863869
149
0.0129326591196559
100
AcDbLayout
  1
Model
 70
     1
 71
     0
 10
0.0
 20
0.0
 11
12.0
 21
9.0
 12
0.0
 22
0.0
 32
0.0
 14
0.0
 24
0.0
 34
0.0
 15
0.0
 25
0.0
 35
0.0
146
0.0
 13
0.0
 23
0.0
 33
0.0
 16
1.0
 26
0.0
 36
0.0
 17
0.0
 27
1.0
 37
0.0
 76
     0
330
2
  0
LAYOUT
  5
F
102
{ACAD_XDICTIONARY
360
39A
102
}
102
{ACAD_REACTORS
330
B
102
}
330
B
100
AcDbPlotSettings
  1

  2
None
  4

  6

 40
0.0
 41
0.0
 42
0.0
 43
0.0
 44
0.0
 45
0.0
 46
0.0
 47
0.0
 48
0.0
 49
0.0
140
0.0
141
0.0
142
1.0
143
1.0
 70
   688
 72
     0
 73
     0
 74
     5
  7
tmsacad.ctb
 75
    16
147
1.0
148
0.0
149
0.0
100
AcDbLayout
  1
レイアウト1
 70
     1
 71
     1
 10
0.0
 20
0.0
 11
12.0
 21
9.0
 12
0.0
 22
0.0
 32
0.0
 14
0.0
 24
0.0
 34
0.0
 15
0.0
 25
0.0
 35
0.0
146
0.0
 13
0.0
 23
0.0
 33
0.0
 16
1.0
 26
0.0
 36
0.0
 17
0.0
 27
1.0
 37
0.0
 76
     0
330
C
  0
MLINESTYLE
  5
2E
102
{ACAD_REACTORS
330
29
102
}
330
29
100
AcDbMlineStyle
  2
STANDARD
 70
     0
  3

 62
   256
 51
90.0
 52
90.0
 71
     2
 49
0.5
 62
   256
  6
BYLAYER
 49
-0.5
 62
   256
  6
BYLAYER
  0
ACDBPLACEHOLDER
  5
5
102
{ACAD_REACTORS
330
6
102
}
330
6
  0
XRECORD
  5
397
102
{ACAD_REACTORS
330
395
102
}
330
395
100
AcDbXrecord
280
     1
340
2C
  0
XRECORD
  5
396
102
{ACAD_REACTORS
330
395
102
}
330
395
100
AcDbXrecord
280
     1
340
2B
  0
DICTIONARYVAR
  5
392
102
{ACAD_REACTORS
330
390
102
}
330
390
100
DictionaryVariables
280
     0
  1
1
  0
DICTIONARYVAR
  5
391
102
{ACAD_REACTORS
330
390
102
}
330
390
100
DictionaryVariables
280
     0
  1
1
  0
DICTIONARYVAR
  5
393
102
{ACAD_REACTORS
330
390
102
}
330
390
100
DictionaryVariables
280
     0
  1

  0
DICTIONARY
  5
398
330
A
100
AcDbDictionary
280
     1
281
     1
  3
ACAD_XREC_ROUNDTRIP
360
399
  0
DICTIONARY
  5
39A
330
F
100
AcDbDictionary
280
     1
281
     1
  3
ACAD_XREC_ROUNDTRIP
360
39B
  0
XRECORD
  5
399
102
{ACAD_REACTORS
330
398
102
}
330
398
100
AcDbXrecord
280
     1
102
SHADEPLOT
 70
     1
102
SHADEPLOTRESLEVEL
 70
     2
102
SHADEPLOTCUSTOMDPI
 70
   300
  0
XRECORD
  5
39B
102
{ACAD_REACTORS
330
39A
102
}
330
39A
100
AcDbXrecord
280
     1
102
SHADEPLOT
 70
     0
102
SHADEPLOTRESLEVEL
 70
     2
102
SHADEPLOTCUSTOMDPI
 70
   300
  0
ENDSEC
  0
EOF
