  0
SECTION
  2
HEADER
  9
$ACADVER
  1
AC1015
  9
$ACADMAINTVER
 70
    20
  9
$DWGCODEPAGE
  3
ANSI_932
  9
$INSBASE
 10
78.07216400166294
 20
138.9422526917276
 30
0.0
  9
$EXTMIN
 10
-63.17910334686167
 20
-55.49326091412968
 30
-0.0015258207003583
  9
$EXTMAX
 10
61.90140562310308
 20
58.11974255103359
 30
0.0000000349246037
  9
$LIMMIN
 10
-1101.784450318844
 20
-1579.160531687244
  9
$LIMMAX
 10
-508.2420711400536
 20
-1161.440814074914
  9
$ORTHOMODE
 70
     1
  9
$REGENMODE
 70
     1
  9
$FILLMODE
 70
     1
  9
$QTEXTMODE
 70
     0
  9
$MIRRTEXT
 70
     1
  9
$LTSCALE
 40
1.0
  9
$ATTMODE
 70
     1
  9
$TEXTSIZE
 40
3.0
  9
$TRACEWID
 40
0.5
  9
$TEXTSTYLE
  7
STANDARD
  9
$CLAYER
  8
SUNPO
  9
$CELTYPE
  6
BYLAYER
  9
$CECOLOR
 62
   256
  9
$CELTSCALE
 40
1.0
  9
$DISPSILH
 70
     0
  9
$DIMSCALE
 40
1.0
  9
$DIMASZ
 40
2.0
  9
$DIMEXO
 40
2.0
  9
$DIMDLI
 40
8.0
  9
$DIMRND
 40
0.0
  9
$DIMDLE
 40
0.0
  9
$DIMEXE
 40
2.0
  9
$DIMTP
 40
0.0
  9
$DIMTM
 40
0.0
  9
$DIMTXT
 40
2.5
  9
$DIMCEN
 40
0.0
  9
$DIMTSZ
 40
0.0
  9
$DIMTOL
 70
     0
  9
$DIMLIM
 70
     0
  9
$DIMTIH
 70
     0
  9
$DIMTOH
 70
     0
  9
$DIMSE1
 70
     0
  9
$DIMSE2
 70
     0
  9
$DIMTAD
 70
     3
  9
$DIMZIN
 70
     0
  9
$DIMBLK
  1

  9
$DIMASO
 70
     1
  9
$DIMSHO
 70
     1
  9
$DIMPOST
  1

  9
$DIMAPOST
  1

  9
$DIMALT
 70
     0
  9
$DIMALTD
 70
     2
  9
$DIMALTF
 40
25.4
  9
$DIMLFAC
 40
1.0
  9
$DIMTOFL
 70
     1
  9
$DIMTVP
 40
0.0
  9
$DIMTIX
 70
     0
  9
$DIMSOXD
 70
     0
  9
$DIMSAH
 70
     1
  9
$DIMBLK1
  1
OPEN30
  9
$DIMBLK2
  1
OPEN30
  9
$DIMSTYLE
  2
STANDARD
  9
$DIMCLRD
 70
     0
  9
$DIMCLRE
 70
     0
  9
$DIMCLRT
 70
     0
  9
$DIMTFAC
 40
1.0
  9
$DIMGAP
 40
0.5
  9
$DIMJUST
 70
     0
  9
$DIMSD1
 70
     0
  9
$DIMSD2
 70
     0
  9
$DIMTOLJ
 70
     1
  9
$DIMTZIN
 70
     0
  9
$DIMALTZ
 70
     0
  9
$DIMALTTZ
 70
     0
  9
$DIMUPT
 70
     0
  9
$DIMDEC
 70
     4
  9
$DIMTDEC
 70
     4
  9
$DIMALTU
 70
     2
  9
$DIMALTTD
 70
     2
  9
$DIMTXSTY
  7
STANDARD
  9
$DIMAUNIT
 70
     0
  9
$DIMADEC
 70
     0
  9
$DIMALTRND
 40
0.0
  9
$DIMAZIN
 70
     0
  9
$DIMDSEP
 70
    46
  9
$DIMATFIT
 70
     3
  9
$DIMFRAC
 70
     0
  9
$DIMLDRBLK
  1
OPEN30
  9
$DIMLUNIT
 70
     2
  9
$DIMLWD
 70
    -2
  9
$DIMLWE
 70
    -2
  9
$DIMTMOVE
 70
     0
  9
$LUNITS
 70
     2
  9
$LUPREC
 70
     4
  9
$SKETCHINC
 40
0.1
  9
$FILLETRAD
 40
0.0
  9
$AUNITS
 70
     0
  9
$AUPREC
 70
     0
  9
$MENU
  1
ACAD
  9
$ELEVATION
 40
0.0
  9
$PELEVATION
 40
0.0
  9
$THICKNESS
 40
0.0
  9
$LIMCHECK
 70
     0
  9
$CHAMFERA
 40
0.0
  9
$CHAMFERB
 40
0.0
  9
$CHAMFERC
 40
0.0
  9
$CHAMFERD
 40
0.0
  9
$SKPOLY
 70
     0
  9
$TDCREATE
 40
2451815.565532581
  9
$TDUCREATE
 40
2451815.190532581
  9
$TDUPDATE
 40
2453775.588738785
  9
$TDUUPDATE
 40
2453775.213738785
  9
$TDINDWG
 40
1.1032764468
  9
$TDUSRTIMER
 40
1.1032697569
  9
$USRTIMER
 70
     1
  9
$ANGBASE
 50
0.0
  9
$ANGDIR
 70
     0
  9
$PDMODE
 70
     0
  9
$PDSIZE
 40
0.0
  9
$PLINEWID
 40
0.0
  9
$SPLFRAME
 70
     0
  9
$SPLINETYPE
 70
     6
  9
$SPLINESEGS
 70
     8
  9
$HANDSEED
  5
193
  9
$SURFTAB1
 70
     6
  9
$SURFTAB2
 70
     6
  9
$SURFTYPE
 70
     6
  9
$SURFU
 70
     6
  9
$SURFV
 70
     6
  9
$UCSBASE
  2

  9
$UCSNAME
  2

  9
$UCSORG
 10
0.0
 20
0.0
 30
0.0
  9
$UCSXDIR
 10
1.0
 20
0.0
 30
0.0
  9
$UCSYDIR
 10
0.0
 20
1.0
 30
0.0
  9
$UCSORTHOREF
  2

  9
$UCSORTHOVIEW
 70
     0
  9
$UCSORGTOP
 10
0.0
 20
0.0
 30
0.0
  9
$UCSORGBOTTOM
 10
0.0
 20
0.0
 30
0.0
  9
$UCSORGLEFT
 10
0.0
 20
0.0
 30
0.0
  9
$UCSORGRIGHT
 10
0.0
 20
0.0
 30
0.0
  9
$UCSORGFRONT
 10
0.0
 20
0.0
 30
0.0
  9
$UCSORGBACK
 10
0.0
 20
0.0
 30
0.0
  9
$PUCSBASE
  2

  9
$PUCSNAME
  2

  9
$PUCSORG
 10
0.0
 20
0.0
 30
0.0
  9
$PUCSXDIR
 10
1.0
 20
0.0
 30
0.0
  9
$PUCSYDIR
 10
0.0
 20
1.0
 30
0.0
  9
$PUCSORTHOREF
  2

  9
$PUCSORTHOVIEW
 70
     0
  9
$PUCSORGTOP
 10
0.0
 20
0.0
 30
0.0
  9
$PUCSORGBOTTOM
 10
0.0
 20
0.0
 30
0.0
  9
$PUCSORGLEFT
 10
0.0
 20
0.0
 30
0.0
  9
$PUCSORGRIGHT
 10
0.0
 20
0.0
 30
0.0
  9
$PUCSORGFRONT
 10
0.0
 20
0.0
 30
0.0
  9
$PUCSORGBACK
 10
0.0
 20
0.0
 30
0.0
  9
$USERI1
 70
     0
  9
$USERI2
 70
     0
  9
$USERI3
 70
     0
  9
$USERI4
 70
     0
  9
$USERI5
 70
     0
  9
$USERR1
 40
0.0
  9
$USERR2
 40
0.0
  9
$USERR3
 40
0.0
  9
$USERR4
 40
0.0
  9
$USERR5
 40
0.0
  9
$WORLDVIEW
 70
     1
  9
$SHADEDGE
 70
     3
  9
$SHADEDIF
 70
    70
  9
$TILEMODE
 70
     1
  9
$MAXACTVP
 70
    48
  9
$PINSBASE
 10
0.0
 20
0.0
 30
0.0
  9
$PLIMCHECK
 70
     0
  9
$PEXTMIN
 10
1.000000000000000E+20
 20
1.000000000000000E+20
 30
1.000000000000000E+20
  9
$PEXTMAX
 10
-1.000000000000000E+20
 20
-1.000000000000000E+20
 30
-1.000000000000000E+20
  9
$PLIMMIN
 10
0.0
 20
0.0
  9
$PLIMMAX
 10
12.0
 20
9.0
  9
$UNITMODE
 70
     0
  9
$VISRETAIN
 70
     1
  9
$PLINEGEN
 70
     0
  9
$PSLTSCALE
 70
     1
  9
$TREEDEPTH
 70
  3020
  9
$CMLSTYLE
  2
STANDARD
  9
$CMLJUST
 70
     0
  9
$CMLSCALE
 40
1.0
  9
$PROXYGRAPHICS
 70
     1
  9
$MEASUREMENT
 70
     0
  9
$CELWEIGHT
370
    -1
  9
$ENDCAPS
280
     0
  9
$JOINSTYLE
280
     0
  9
$LWDISPLAY
290
     0
  9
$INSUNITS
 70
     0
  9
$HYPERLINKBASE
  1

  9
$STYLESHEET
  1

  9
$XEDIT
290
     1
  9
$CEPSNTYPE
380
     0
  9
$PSTYLEMODE
290
     1
  9
$FINGERPRINTGUID
  2
{1754B7AB-9B3C-11D4-AD9E-00104B1004F2}
  9
$VERSIONGUID
  2
{7DEE3A3B-6998-403D-AE21-F4CDBFDBD25E}
  9
$EXTNAMES
290
     1
  9
$PSVPSCALE
 40
0.0
  9
$OLESTARTUP
290
     0
  0
ENDSEC
  0
SECTION
  2
CLASSES
  0
CLASS
  1
ACDBDICTIONARYWDFLT
  2
AcDbDictionaryWithDefault
  3
ObjectDBX Classes
 90
        0
280
     0
281
     0
  0
CLASS
  1
ACDBPLACEHOLDER
  2
AcDbPlaceHolder
  3
ObjectDBX Classes
 90
        0
280
     0
281
     0
  0
CLASS
  1
LAYOUT
  2
AcDbLayout
  3
ObjectDBX Classes
 90
        0
280
     0
281
     0
  0
CLASS
  1
DICTIONARYVAR
  2
AcDbDictionaryVar
  3
ObjectDBX Classes
 90
        0
280
     0
281
     0
  0
ENDSEC
  0
SECTION
  2
TABLES
  0
TABLE
  2
VPORT
  5
20
330
0
100
AcDbSymbolTable
 70
     3
  0
VPORT
  5
18B
330
20
100
AcDbSymbolTableRecord
100
AcDbViewportTableRecord
  2
*Active
 70
     0
 10
0.0
 20
0.0
 11
1.0
 21
1.0
 12
-0.6388488618792998
 22
1.313240818451959
 13
0.0
 23
0.0
 14
1.0
 24
1.0
 15
0.0
 25
0.0
 16
0.0
 26
0.0
 36
1.0
 17
0.0
 27
0.0
 37
0.0
 40
114.5111299747693
 41
1.447229551451187
 42
50.0
 43
0.0
 44
0.0
 50
0.0
 51
0.0
 71
     0
 72
 10000
 73
     1
 74
     0
 75
     0
 76
     1
 77
     0
 78
     0
281
     0
 65
     1
110
0.0
120
0.0
130
0.0
111
1.0
121
0.0
131
0.0
112
0.0
122
1.0
132
0.0
 79
     0
146
0.0
  0
ENDTAB
  0
TABLE
  2
LTYPE
  5
1B
330
0
100
AcDbSymbolTable
 70
     1
  0
LTYPE
  5
1C
330
1B
100
AcDbSymbolTableRecord
100
AcDbLinetypeTableRecord
  2
BYBLOCK
 70
     0
  3

 72
    65
 73
     0
 40
0.0
  0
LTYPE
  5
1D
330
1B
100
AcDbSymbolTableRecord
100
AcDbLinetypeTableRecord
  2
BYLAYER
 70
     0
  3

 72
    65
 73
     0
 40
0.0
  0
LTYPE
  5
A
330
1B
100
AcDbSymbolTableRecord
100
AcDbLinetypeTableRecord
  2
CONTINUOUS
 70
     0
  3
Solid line
 72
    65
 73
     0
 40
0.0
  0
ENDTAB
  0
TABLE
  2
LAYER
  5
14
102
{ACAD_XDICTIONARY
360
15
102
}
330
0
100
AcDbSymbolTable
 70
     7
  0
LAYER
  5
6
330
14
100
AcDbSymbolTableRecord
100
AcDbLayerTableRecord
  2
0
 70
     0
 62
     7
  6
CONTINUOUS
370
    -3
390
7
  0
LAYER
  5
42
330
14
100
AcDbSymbolTableRecord
100
AcDbLayerTableRecord
  2
DEFPOINTS
 70
     0
 62
     7
  6
CONTINUOUS
290
     0
370
    -3
390
7
  0
LAYER
  5
134
330
14
100
AcDbSymbolTableRecord
100
AcDbLayerTableRecord
  2
WAKU
 70
     0
 62
     4
  6
CONTINUOUS
370
    -3
390
7
  0
LAYER
  5
35
330
14
100
AcDbSymbolTableRecord
100
AcDbLayerTableRecord
  2
MOJI1
 70
     0
 62
     2
  6
CONTINUOUS
370
    -3
390
7
  0
LAYER
  5
61
330
14
100
AcDbSymbolTableRecord
100
AcDbLayerTableRecord
  2
GAIKEI
 70
     0
 62
     7
  6
CONTINUOUS
370
    -3
390
7
  0
LAYER
  5
37
330
14
100
AcDbSymbolTableRecord
100
AcDbLayerTableRecord
  2
TOUROKU
 70
     0
 62
     1
  6
CONTINUOUS
370
    -3
390
7
  0
LAYER
  5
32
330
14
100
AcDbSymbolTableRecord
100
AcDbLayerTableRecord
  2
SUNPO
 70
     0
 62
     3
  6
CONTINUOUS
370
    -3
390
7
  0
ENDTAB
  0
TABLE
  2
STYLE
  5
18
330
0
100
AcDbSymbolTable
 70
     1
  0
STYLE
  5
19
330
18
100
AcDbSymbolTableRecord
100
AcDbTextStyleTableRecord
  2
STANDARD
 70
     0
 40
0.0
 41
1.0
 50
0.0
 71
     0
 42
3.0
  3
MONOTXT.shx
  4
BIGFONT.shx
  0
ENDTAB
  0
TABLE
  2
VIEW
  5
1E
330
0
100
AcDbSymbolTable
 70
     0
  0
ENDTAB
  0
TABLE
  2
UCS
  5
1F
330
0
100
AcDbSymbolTable
 70
     0
  0
ENDTAB
  0
TABLE
  2
APPID
  5
22
330
0
100
AcDbSymbolTable
 70
     1
  0
APPID
  5
23
330
22
100
AcDbSymbolTableRecord
100
AcDbRegAppTableRecord
  2
ACAD
 70
     0
  0
ENDTAB
  0
TABLE
  2
DIMSTYLE
  5
24
330
0
100
AcDbSymbolTable
 70
     1
100
AcDbDimStyleTable
 71
     1
340
25
  0
DIMSTYLE
105
25
102
{ACAD_REACTORS
330
53
330
46
330
38
102
}
330
24
100
AcDbSymbolTableRecord
100
AcDbDimStyleTableRecord
  2
STANDARD
 70
     0
 40
0.0
 41
2.0
 42
2.0
 43
8.0
 44
2.0
 73
     0
 74
     0
 77
     3
140
3.0
141
0.0
173
     1
279
     2
288
     1
340
19
341
26
343
26
344
26
  0
ENDTAB
  0
TABLE
  2
BLOCK_RECORD
  5
1
330
0
100
AcDbSymbolTable
 70
     7
  0
BLOCK_RECORD
  5
2
102
{ACAD_XDICTIONARY
360
3
102
}
330
1
100
AcDbSymbolTableRecord
100
AcDbBlockTableRecord
  2
*MODEL_SPACE
340
C
  0
BLOCK_RECORD
  5
E
102
{ACAD_XDICTIONARY
360
F
102
}
330
1
100
AcDbSymbolTableRecord
100
AcDbBlockTableRecord
  2
*PAPER_SPACE
340
13
  0
BLOCK_RECORD
  5
26
330
1
100
AcDbSymbolTableRecord
100
AcDbBlockTableRecord
  2
_OPEN30
340
0
102
{BLKREFS
331
3E
331
3F
331
4C
331
4D
331
59
331
5A
331
167
331
168
331
173
331
174
331
17F
331
180
102
}
  0
BLOCK_RECORD
  5
54
330
1
100
AcDbSymbolTableRecord
100
AcDbBlockTableRecord
  2
*D1
340
0
  0
BLOCK_RECORD
  5
47
330
1
100
AcDbSymbolTableRecord
100
AcDbBlockTableRecord
  2
*D2
340
0
  0
BLOCK_RECORD
  5
39
330
1
100
AcDbSymbolTableRecord
100
AcDbBlockTableRecord
  2
*D3
340
0
  0
BLOCK_RECORD
  5
163
330
1
100
AcDbSymbolTableRecord
100
AcDbBlockTableRecord
  2
*D4
340
0
  0
BLOCK_RECORD
  5
16F
330
1
100
AcDbSymbolTableRecord
100
AcDbBlockTableRecord
  2
*D5
340
0
  0
BLOCK_RECORD
  5
17B
330
1
100
AcDbSymbolTableRecord
100
AcDbBlockTableRecord
  2
*D6
340
0
  0
ENDTAB
  0
ENDSEC
  0
SECTION
  2
BLOCKS
  0
BLOCK
  5
5
330
2
100
AcDbEntity
  8
0
100
AcDbBlockBegin
  2
*MODEL_SPACE
 70
     0
 10
0.0
 20
0.0
 30
0.0
  3
*MODEL_SPACE
  1

  0
ENDBLK
  5
B
330
2
100
AcDbEntity
  8
0
100
AcDbBlockEnd
  0
BLOCK
  5
11
330
E
100
AcDbEntity
 67
     1
  8
0
100
AcDbBlockBegin
  2
*PAPER_SPACE
 70
     0
 10
0.0
 20
0.0
 30
0.0
  3
*PAPER_SPACE
  1

  0
ENDBLK
  5
12
330
E
100
AcDbEntity
 67
     1
  8
0
100
AcDbBlockEnd
  0
BLOCK
  5
27
330
26
100
AcDbEntity
  8
0
100
AcDbBlockBegin
  2
_OPEN30
 70
     0
 10
0.0
 20
0.0
 30
0.0
  3
_OPEN30
  1

  0
LINE
  5
28
330
26
100
AcDbEntity
  8
0
  6
ByBlock
 62
     0
100
AcDbLine
 10
-1.0
 20
0.26794919
 30
0.0
 11
0.0
 21
0.0
 31
0.0
  0
LINE
  5
29
330
26
100
AcDbEntity
  8
0
  6
ByBlock
 62
     0
100
AcDbLine
 10
0.0
 20
0.0
 30
0.0
 11
-1.0
 21
-0.26794919
 31
0.0
  0
LINE
  5
2A
330
26
100
AcDbEntity
  8
0
  6
ByBlock
 62
     0
100
AcDbLine
 10
0.0
 20
0.0
 30
0.0
 11
-1.0
 21
0.0
 31
0.0
  0
ENDBLK
  5
2B
330
26
100
AcDbEntity
  8
0
100
AcDbBlockEnd
  0
BLOCK
  5
55
330
54
100
AcDbEntity
  8
0
100
AcDbBlockBegin
  2
*D1
 70
     1
 10
0.0
 20
0.0
 30
0.0
  3
*D1
  1

  0
LINE
  5
56
330
54
100
AcDbEntity
  8
SUNPO
 62
     0
370
    -2
100
AcDbLine
 10
103.1429426166134
 20
110.7727623946982
 30
0.0
 11
103.1429426166134
 21
118.7727623946982
 31
0.0
  0
LINE
  5
57
330
54
100
AcDbEntity
  8
SUNPO
 62
     0
370
    -2
100
AcDbLine
 10
143.9429426166134
 20
110.7727623946982
 30
0.0
 11
143.9429426166134
 21
118.7727623946982
 31
0.0
  0
LINE
  5
58
330
54
100
AcDbEntity
  8
SUNPO
 62
     0
370
    -2
100
AcDbLine
 10
105.1429426166134
 20
116.7727623946982
 30
0.0
 11
141.9429426166134
 21
116.7727623946982
 31
0.0
  0
INSERT
  5
59
330
54
100
AcDbEntity
  8
SUNPO
 62
     0
370
    -2
100
AcDbBlockReference
  2
_OPEN30
 10
103.1429426166134
 20
116.7727623946982
 30
0.0
 41
2.0
 42
2.0
 43
2.0
 50
180.0
  0
INSERT
  5
5A
330
54
100
AcDbEntity
  8
SUNPO
 62
     0
370
    -2
100
AcDbBlockReference
  2
_OPEN30
 10
143.9429426166134
 20
116.7727623946982
 30
0.0
 41
2.0
 42
2.0
 43
2.0
  0
MTEXT
  5
5B
330
54
100
AcDbEntity
  8
SUNPO
 62
     0
100
AcDbMText
 10
123.5429426166134
 20
118.5227623946982
 30
0.0
 40
2.5
 41
0.0
 71
     5
 72
     1
  1
\A1;204
 73
     1
 44
1.0
1001
ACAD
1000
MTEXTBEGIN
1070
    73
1070
     1
1070
    44
1040
1.0
1070
    74
1070
     0
1000
MTEXTEND
  0
POINT
  5
5C
330
54
100
AcDbEntity
  8
DEFPOINTS
 62
     0
100
AcDbPoint
 10
103.1429426166134
 20
108.7727623946982
 30
0.0
  0
POINT
  5
5D
330
54
100
AcDbEntity
  8
DEFPOINTS
 62
     0
100
AcDbPoint
 10
143.9429426166134
 20
108.7727623946982
 30
0.0
  0
POINT
  5
5E
330
54
100
AcDbEntity
  8
DEFPOINTS
 62
     0
100
AcDbPoint
 10
143.9429426166134
 20
116.7727623946982
 30
0.0
  0
ENDBLK
  5
5F
330
54
100
AcDbEntity
  8
0
100
AcDbBlockEnd
  0
BLOCK
  5
48
330
47
100
AcDbEntity
  8
0
100
AcDbBlockBegin
  2
*D2
 70
     1
 10
0.0
 20
0.0
 30
0.0
  3
*D2
  1

  0
LINE
  5
49
330
47
100
AcDbEntity
  8
SUNPO
 62
     0
370
    -2
100
AcDbLine
 10
145.9556638157714
 20
81.11734285623562
 30
0.0
 11
153.9556638157714
 21
81.11734285623562
 31
0.0
  0
LINE
  5
4A
330
47
100
AcDbEntity
  8
SUNPO
 62
     0
370
    -2
100
AcDbLine
 10
145.9556638157714
 20
108.8173428562356
 30
0.0
 11
153.9556638157714
 21
108.8173428562356
 31
0.0
  0
LINE
  5
4B
330
47
100
AcDbEntity
  8
SUNPO
 62
     0
370
    -2
100
AcDbLine
 10
151.9556638157714
 20
83.11734285623563
 30
0.0
 11
151.9556638157714
 21
106.8173428562356
 31
0.0
  0
INSERT
  5
4C
330
47
100
AcDbEntity
  8
SUNPO
 62
     0
370
    -2
100
AcDbBlockReference
  2
_OPEN30
 10
151.9556638157714
 20
81.11734285623562
 30
0.0
 41
2.0
 42
2.0
 43
2.0
 50
270.0
  0
INSERT
  5
4D
330
47
100
AcDbEntity
  8
SUNPO
 62
     0
370
    -2
100
AcDbBlockReference
  2
_OPEN30
 10
151.9556638157714
 20
108.8173428562356
 30
0.0
 41
2.0
 42
2.0
 43
2.0
 50
90.0
  0
MTEXT
  5
4E
330
47
100
AcDbEntity
  8
SUNPO
 62
     0
100
AcDbMText
 10
150.2056638157714
 20
94.96734285623562
 30
0.0
 40
2.5
 41
0.0
 71
     5
 72
     1
  1
\A1;140
 11
0.0000000000000001
 21
1.0
 31
0.0
 73
     1
 44
1.0
1001
ACAD
1000
MTEXTBEGIN
1070
    73
1070
     1
1070
    44
1040
1.0
1070
    74
1070
     0
1000
MTEXTEND
  0
POINT
  5
4F
330
47
100
AcDbEntity
  8
DEFPOINTS
 62
     0
100
AcDbPoint
 10
143.9556638157714
 20
81.11734285623562
 30
0.0
  0
POINT
  5
50
330
47
100
AcDbEntity
  8
DEFPOINTS
 62
     0
100
AcDbPoint
 10
143.9556638157714
 20
108.8173428562356
 30
0.0
  0
POINT
  5
51
330
47
100
AcDbEntity
  8
DEFPOINTS
 62
     0
100
AcDbPoint
 10
151.9556638157714
 20
108.8173428562356
 30
0.0
  0
ENDBLK
  5
52
330
47
100
AcDbEntity
  8
0
100
AcDbBlockEnd
  0
BLOCK
  5
3A
330
39
100
AcDbEntity
  8
0
100
AcDbBlockBegin
  2
*D3
 70
     1
 10
0.0
 20
0.0
 30
0.0
  3
*D3
  1

  0
LINE
  5
3B
330
39
100
AcDbEntity
  8
SUNPO
 62
     0
370
    -2
100
AcDbLine
 10
169.1281673056783
 20
110.7727623946982
 30
0.0
 11
169.1281673056783
 21
118.7727623946982
 31
0.0
  0
LINE
  5
3C
330
39
100
AcDbEntity
  8
SUNPO
 62
     0
370
    -2
100
AcDbLine
 10
176.3281673056783
 20
110.7727623946982
 30
0.0
 11
176.3281673056783
 21
118.7727623946982
 31
0.0
  0
LINE
  5
3D
330
39
100
AcDbEntity
  8
SUNPO
 62
     0
370
    -2
100
AcDbLine
 10
171.1281673056783
 20
116.7727623946982
 30
0.0
 11
174.3281673056783
 21
116.7727623946982
 31
0.0
  0
INSERT
  5
3E
330
39
100
AcDbEntity
  8
SUNPO
 62
     0
370
    -2
100
AcDbBlockReference
  2
_OPEN30
 10
169.1281673056783
 20
116.7727623946982
 30
0.0
 41
2.0
 42
2.0
 43
2.0
 50
180.0
  0
INSERT
  5
3F
330
39
100
AcDbEntity
  8
SUNPO
 62
     0
370
    -2
100
AcDbBlockReference
  2
_OPEN30
 10
176.3281673056783
 20
116.7727623946982
 30
0.0
 41
2.0
 42
2.0
 43
2.0
  0
MTEXT
  5
40
330
39
100
AcDbEntity
  8
SUNPO
 62
     0
100
AcDbMText
 10
172.7281673056783
 20
118.5227623946982
 30
0.0
 40
2.5
 41
0.0
 71
     5
 72
     1
  1
\A1;36
 73
     1
 44
1.0
1001
ACAD
1000
MTEXTBEGIN
1070
    73
1070
     1
1070
    44
1040
1.0
1070
    74
1070
     0
1000
MTEXTEND
  0
POINT
  5
41
330
39
100
AcDbEntity
  8
DEFPOINTS
 62
     0
100
AcDbPoint
 10
169.1281673056783
 20
108.7727623946982
 30
0.0
  0
POINT
  5
43
330
39
100
AcDbEntity
  8
DEFPOINTS
 62
     0
100
AcDbPoint
 10
176.3281673056783
 20
108.7727623946982
 30
0.0
  0
POINT
  5
44
330
39
100
AcDbEntity
  8
DEFPOINTS
 62
     0
100
AcDbPoint
 10
176.3281673056783
 20
116.7727623946982
 30
0.0
  0
ENDBLK
  5
45
330
39
100
AcDbEntity
  8
0
100
AcDbBlockEnd
  0
BLOCK
  5
16D
330
163
100
AcDbEntity
  8
0
100
AcDbBlockBegin
  2
*D4
 70
     1
 10
0.0
 20
0.0
 30
0.0
  3
*D4
  1

  0
LINE
  5
164
330
163
100
AcDbEntity
  8
SUNPO
 62
     0
370
    -2
100
AcDbLine
 10
-40.07341927373523
 20
32.12032917633292
 30
0.0
 11
-40.07341927373523
 21
40.1203291763329
 31
0.0
  0
LINE
  5
165
330
163
100
AcDbEntity
  8
SUNPO
 62
     0
370
    -2
100
AcDbLine
 10
0.7265807262647287
 20
32.1203291763329
 30
0.0
 11
0.7265807262647293
 21
40.1203291763329
 31
0.0
  0
LINE
  5
166
330
163
100
AcDbEntity
  8
SUNPO
 62
     0
370
    -2
100
AcDbLine
 10
-38.07341927373523
 20
38.1203291763329
 30
0.0
 11
-1.27341927373527
 21
38.1203291763329
 31
0.0
  0
INSERT
  5
167
330
163
100
AcDbEntity
  8
SUNPO
 62
     0
370
    -2
100
AcDbBlockReference
  2
_OPEN30
 10
-40.07341927373523
 20
38.1203291763329
 30
0.0
 41
2.0
 42
2.0
 43
2.0
 50
180.0
  0
INSERT
  5
168
330
163
100
AcDbEntity
  8
SUNPO
 62
     0
370
    -2
100
AcDbBlockReference
  2
_OPEN30
 10
0.7265807262647291
 20
38.1203291763329
 30
0.0
 41
2.0
 42
2.0
 43
2.0
  0
MTEXT
  5
169
330
163
100
AcDbEntity
  8
SUNPO
 62
     0
100
AcDbMText
 10
-19.67341927373525
 20
39.8703291763329
 30
0.0
 40
2.5
 41
0.0
 71
     5
 72
     1
  1
\A1;204
 73
     1
 44
1.0
1001
ACAD
1000
MTEXTBEGIN
1070
    73
1070
     1
1070
    44
1040
1.0
1070
    74
1070
     0
1000
MTEXTEND
  0
POINT
  5
16A
330
163
100
AcDbEntity
  8
DEFPOINTS
 62
     0
100
AcDbPoint
 10
-40.07341927373523
 20
30.12032917633292
 30
0.0
  0
POINT
  5
16B
330
163
100
AcDbEntity
  8
DEFPOINTS
 62
     0
100
AcDbPoint
 10
0.7265807262647286
 20
30.1203291763329
 30
0.0
  0
POINT
  5
16C
330
163
100
AcDbEntity
  8
DEFPOINTS
 62
     0
100
AcDbPoint
 10
0.7265807262647291
 20
38.1203291763329
 30
0.0
  0
ENDBLK
  5
16E
330
163
100
AcDbEntity
  8
0
100
AcDbBlockEnd
  0
BLOCK
  5
179
330
16F
100
AcDbEntity
  8
0
100
AcDbBlockBegin
  2
*D5
 70
     1
 10
0.0
 20
0.0
 30
0.0
  3
*D5
  1

  0
LINE
  5
170
330
16F
100
AcDbEntity
  8
SUNPO
 62
     0
370
    -2
100
AcDbLine
 10
2.739301925422751
 20
2.464909637870291
 30
0.0
 11
10.73930192542274
 21
2.464909637870289
 31
0.0
  0
LINE
  5
171
330
16F
100
AcDbEntity
  8
SUNPO
 62
     0
370
    -2
100
AcDbLine
 10
2.739301925422751
 20
30.16490963787027
 30
0.0
 11
10.73930192542275
 21
30.16490963787026
 31
0.0
  0
LINE
  5
172
330
16F
100
AcDbEntity
  8
SUNPO
 62
     0
370
    -2
100
AcDbLine
 10
8.739301925422745
 20
4.46490963787029
 30
0.0
 11
8.739301925422751
 21
28.16490963787027
 31
0.0
  0
INSERT
  5
173
330
16F
100
AcDbEntity
  8
SUNPO
 62
     0
370
    -2
100
AcDbBlockReference
  2
_OPEN30
 10
8.739301925422743
 20
2.464909637870289
 30
0.0
 41
2.0
 42
2.0
 43
2.0
 50
270.0
  0
INSERT
  5
174
330
16F
100
AcDbEntity
  8
SUNPO
 62
     0
370
    -2
100
AcDbBlockReference
  2
_OPEN30
 10
8.739301925422751
 20
30.16490963787026
 30
0.0
 41
2.0
 42
2.0
 43
2.0
 50
90.0
  0
MTEXT
  5
175
330
16F
100
AcDbEntity
  8
SUNPO
 62
     0
100
AcDbMText
 10
6.989301925422744
 20
16.31490963787028
 30
0.0
 40
2.5
 41
0.0
 71
     5
 72
     1
  1
\A1;140
 11
0.0000000000000001
 21
1.0
 31
0.0
 73
     1
 44
1.0
1001
ACAD
1000
MTEXTBEGIN
1070
    73
1070
     1
1070
    44
1040
1.0
1070
    74
1070
     0
1000
MTEXTEND
  0
POINT
  5
176
330
16F
100
AcDbEntity
  8
DEFPOINTS
 62
     0
100
AcDbPoint
 10
0.7393019254227511
 20
2.464909637870292
 30
0.0
  0
POINT
  5
177
330
16F
100
AcDbEntity
  8
DEFPOINTS
 62
     0
100
AcDbPoint
 10
0.7393019254227511
 20
30.16490963787027
 30
0.0
  0
POINT
  5
178
330
16F
100
AcDbEntity
  8
DEFPOINTS
 62
     0
100
AcDbPoint
 10
8.739301925422751
 20
30.16490963787026
 30
0.0
  0
ENDBLK
  5
17A
330
16F
100
AcDbEntity
  8
0
100
AcDbBlockEnd
  0
BLOCK
  5
185
330
17B
100
AcDbEntity
  8
0
100
AcDbBlockBegin
  2
*D6
 70
     1
 10
0.0
 20
0.0
 30
0.0
  3
*D6
  1

  0
LINE
  5
17C
330
17B
100
AcDbEntity
  8
SUNPO
 62
     0
370
    -2
100
AcDbLine
 10
25.91180541532958
 20
32.12032917633292
 30
0.0
 11
25.91180541532958
 21
40.12032917633291
 31
0.0
  0
LINE
  5
17D
330
17B
100
AcDbEntity
  8
SUNPO
 62
     0
370
    -2
100
AcDbLine
 10
33.11180541532963
 20
32.12032917633292
 30
0.0
 11
33.11180541532963
 21
40.12032917633291
 31
0.0
  0
LINE
  5
17E
330
17B
100
AcDbEntity
  8
SUNPO
 62
     0
370
    -2
100
AcDbLine
 10
27.91180541532958
 20
38.12032917633292
 30
0.0
 11
31.11180541532963
 21
38.12032917633292
 31
0.0
  0
INSERT
  5
17F
330
17B
100
AcDbEntity
  8
SUNPO
 62
     0
370
    -2
100
AcDbBlockReference
  2
_OPEN30
 10
25.91180541532958
 20
38.12032917633292
 30
0.0
 41
2.0
 42
2.0
 43
2.0
 50
180.0
  0
INSERT
  5
180
330
17B
100
AcDbEntity
  8
SUNPO
 62
     0
370
    -2
100
AcDbBlockReference
  2
_OPEN30
 10
33.11180541532963
 20
38.12032917633292
 30
0.0
 41
2.0
 42
2.0
 43
2.0
  0
MTEXT
  5
181
330
17B
100
AcDbEntity
  8
SUNPO
 62
     0
100
AcDbMText
 10
29.51180541532961
 20
39.87032917633292
 30
0.0
 40
2.5
 41
0.0
 71
     5
 72
     1
  1
\A1;36
 73
     1
 44
1.0
1001
ACAD
1000
MTEXTBEGIN
1070
    73
1070
     1
1070
    44
1040
1.0
1070
    74
1070
     0
1000
MTEXTEND
  0
POINT
  5
182
330
17B
100
AcDbEntity
  8
DEFPOINTS
 62
     0
100
AcDbPoint
 10
25.91180541532958
 20
30.12032917633292
 30
0.0
  0
POINT
  5
183
330
17B
100
AcDbEntity
  8
DEFPOINTS
 62
     0
100
AcDbPoint
 10
33.11180541532963
 20
30.12032917633292
 30
0.0
  0
POINT
  5
184
330
17B
100
AcDbEntity
  8
DEFPOINTS
 62
     0
100
AcDbPoint
 10
33.11180541532963
 20
38.12032917633292
 30
0.0
  0
ENDBLK
  5
186
330
17B
100
AcDbEntity
  8
0
100
AcDbBlockEnd
  0
ENDSEC
  0
SECTION
  2
ENTITIES
  0
TEXT
  5
34
330
2
100
AcDbEntity
  8
MOJI1
100
AcDbText
 10
-36.14419788868571
 20
54.28981947336257
 30
0.0
 40
4.0
  1
カメラコントロールユニット
100
AcDbText
  0
TEXT
  5
36
330
2
100
AcDbEntity
  8
TOUROKU
100
AcDbText
 10
43.45575214424147
 20
48.28981947336237
 30
0.0
 40
2.0
  1
ＢＢＨＧＷ５０２
 72
     2
 11
61.85575214424147
 21
48.28981947336237
 31
0.0
100
AcDbText
  0
DIMENSION
  5
38
330
2
100
AcDbEntity
  8
SUNPO
100
AcDbDimension
  2
*D6
 10
33.11180541532963
 20
38.12032917633292
 30
0.0
 11
29.51180541532961
 21
39.87032917633292
 31
0.0
 70
    33
  1
36
 71
     5
 42
7.200000000000045
  3
STANDARD
100
AcDbAlignedDimension
 13
25.91180541532958
 23
30.12032917633292
 33
0.0
 14
33.11180541532963
 24
30.12032917633292
 34
0.0
1001
ACAD
1000
DSTYLE
1002
{
1070
    40
1040
1.0
1070
   140
1040
2.5
1070
   147
1040
0.5
1070
   172
1070
     1
1070
   279
1070
     0
1070
   288
1070
     0
1002
}
  0
DIMENSION
  5
46
330
2
100
AcDbEntity
  8
SUNPO
100
AcDbDimension
  2
*D5
 10
8.739301925422751
 20
30.16490963787026
 30
0.0
 11
6.989301925422744
 21
16.31490963787028
 31
0.0
 70
    33
  1
140
 71
     5
 42
27.69999999999998
  3
STANDARD
100
AcDbAlignedDimension
 13
0.7393019254227511
 23
2.464909637870292
 33
0.0
 14
0.7393019254227511
 24
30.16490963787027
 34
0.0
1001
ACAD
1000
DSTYLE
1002
{
1070
    40
1040
1.0
1070
   140
1040
2.5
1070
   147
1040
0.5
1070
   172
1070
     1
1070
   279
1070
     0
1070
   288
1070
     0
1002
}
  0
DIMENSION
  5
53
330
2
100
AcDbEntity
  8
SUNPO
100
AcDbDimension
  2
*D4
 10
0.7265807262647291
 20
38.1203291763329
 30
0.0
 11
-19.67341927373525
 21
39.8703291763329
 31
0.0
 70
    33
  1
204
 71
     5
 42
40.79999999999995
  3
STANDARD
100
AcDbAlignedDimension
 13
-40.07341927373523
 23
30.12032917633292
 33
0.0
 14
0.7265807262647286
 24
30.1203291763329
 34
0.0
1001
ACAD
1000
DSTYLE
1002
{
1070
    40
1040
1.0
1070
   140
1040
2.5
1070
   147
1040
0.5
1070
   172
1070
     1
1070
   279
1070
     0
1070
   288
1070
     0
1002
}
  0
LINE
  5
60
330
2
100
AcDbEntity
  8
GAIKEI
  6
Continuous
 62
     1
100
AcDbLine
 10
-4.47341927373526
 20
14.86490963787025
 30
0.0
 11
-4.47341927373526
 21
15.66490963787027
 31
0.0
  0
LINE
  5
62
330
2
100
AcDbEntity
  8
GAIKEI
  6
Continuous
 62
     1
100
AcDbLine
 10
-4.47341927373526
 20
16.06490963787027
 30
0.0
 11
-4.47341927373526
 21
16.86490963787025
 31
0.0
  0
LINE
  5
63
330
2
100
AcDbEntity
  8
GAIKEI
  6
Continuous
 62
     1
100
AcDbLine
 10
-4.47341927373526
 20
17.26490963787026
 30
0.0
 11
-4.47341927373526
 21
18.06490963787027
 31
0.0
  0
LINE
  5
64
330
2
100
AcDbEntity
  8
GAIKEI
  6
Continuous
 62
     1
100
AcDbLine
 10
-4.47341927373526
 20
18.46490963787028
 30
0.0
 11
-4.47341927373526
 21
19.26490963787026
 31
0.0
  0
LINE
  5
65
330
2
100
AcDbEntity
  8
GAIKEI
  6
Continuous
 62
     1
100
AcDbLine
 10
-4.47341927373526
 20
19.66490963787027
 30
0.0
 11
-4.47341927373526
 21
20.46490963787028
 31
0.0
  0
LINE
  5
66
330
2
100
AcDbEntity
  8
GAIKEI
  6
Continuous
 62
     1
100
AcDbLine
 10
-4.47341927373526
 20
20.86490963787026
 30
0.0
 11
-4.47341927373526
 21
21.66490963787027
 31
0.0
  0
LINE
  5
67
330
2
100
AcDbEntity
  8
GAIKEI
  6
Continuous
 62
     1
100
AcDbLine
 10
-4.47341927373526
 20
22.06490963787027
 30
0.0
 11
-4.47341927373526
 21
22.86490963787025
 31
0.0
  0
LINE
  5
68
330
2
100
AcDbEntity
  8
GAIKEI
  6
Continuous
 62
     1
100
AcDbLine
 10
-4.47341927373526
 20
23.26490963787026
 30
0.0
 11
-4.47341927373526
 21
24.06490963787027
 31
0.0
  0
LINE
  5
69
330
2
100
AcDbEntity
  8
GAIKEI
  6
Continuous
 62
     1
100
AcDbLine
 10
-4.47341927373526
 20
24.46490963787028
 30
0.0
 11
-4.47341927373526
 21
25.26490963787026
 31
0.0
  0
LINE
  5
6A
330
2
100
AcDbEntity
  8
GAIKEI
  6
Continuous
 62
     1
100
AcDbLine
 10
-4.47341927373526
 20
25.66490963787027
 30
0.0
 11
-4.47341927373526
 21
26.46490963787028
 31
0.0
  0
LINE
  5
6B
330
2
100
AcDbEntity
  8
GAIKEI
  6
Continuous
 62
     1
100
AcDbLine
 10
-3.643419273735219
 20
26.86490963787026
 30
0.0
 11
-3.643419273735219
 21
26.46490963787028
 31
0.0
  0
LINE
  5
6C
330
2
100
AcDbEntity
  8
GAIKEI
  6
Continuous
 62
     1
100
AcDbLine
 10
-3.643419273735219
 20
25.66490963787027
 30
0.0
 11
-3.643419273735219
 21
25.26490963787026
 31
0.0
  0
LINE
  5
6D
330
2
100
AcDbEntity
  8
GAIKEI
  6
Continuous
 62
     1
100
AcDbLine
 10
-3.643419273735219
 20
24.46490963787028
 30
0.0
 11
-3.643419273735219
 21
24.06490963787027
 31
0.0
  0
LINE
  5
6E
330
2
100
AcDbEntity
  8
GAIKEI
  6
Continuous
 62
     1
100
AcDbLine
 10
-3.643419273735219
 20
23.26490963787026
 30
0.0
 11
-3.643419273735219
 21
22.86490963787025
 31
0.0
  0
LINE
  5
6F
330
2
100
AcDbEntity
  8
GAIKEI
  6
Continuous
 62
     1
100
AcDbLine
 10
-3.643419273735219
 20
22.06490963787027
 30
0.0
 11
-3.643419273735219
 21
21.66490963787027
 31
0.0
  0
LINE
  5
70
330
2
100
AcDbEntity
  8
GAIKEI
  6
Continuous
 62
     1
100
AcDbLine
 10
-3.643419273735219
 20
20.86490963787026
 30
0.0
 11
-3.643419273735219
 21
20.46490963787028
 31
0.0
  0
LINE
  5
71
330
2
100
AcDbEntity
  8
GAIKEI
  6
Continuous
 62
     1
100
AcDbLine
 10
-3.643419273735219
 20
19.66490963787027
 30
0.0
 11
-3.643419273735219
 21
19.26490963787026
 31
0.0
  0
LINE
  5
72
330
2
100
AcDbEntity
  8
GAIKEI
  6
Continuous
 62
     1
100
AcDbLine
 10
-3.643419273735219
 20
18.46490963787028
 30
0.0
 11
-3.643419273735219
 21
18.06490963787027
 31
0.0
  0
LINE
  5
73
330
2
100
AcDbEntity
  8
GAIKEI
  6
Continuous
 62
     1
100
AcDbLine
 10
-3.643419273735219
 20
17.26490963787026
 30
0.0
 11
-3.643419273735219
 21
16.86490963787025
 31
0.0
  0
LINE
  5
74
330
2
100
AcDbEntity
  8
GAIKEI
  6
Continuous
 62
     1
100
AcDbLine
 10
-3.643419273735219
 20
16.06490963787027
 30
0.0
 11
-3.643419273735219
 21
15.66490963787027
 31
0.0
  0
LINE
  5
75
330
2
100
AcDbEntity
  8
GAIKEI
  6
Continuous
 62
     1
100
AcDbLine
 10
-3.643419273735219
 20
14.86490963787025
 30
0.0
 11
-3.643419273735219
 21
14.46490963787027
 31
0.0
  0
LINE
  5
76
330
2
100
AcDbEntity
  8
GAIKEI
  6
Continuous
 62
     1
100
AcDbLine
 10
-5.573419273735225
 20
26.46490963787028
 30
0.0
 11
-5.573419273735225
 21
26.86490963787026
 31
0.0
  0
LINE
  5
77
330
2
100
AcDbEntity
  8
GAIKEI
  6
Continuous
 62
     1
100
AcDbLine
 10
-5.573419273735225
 20
25.26490963787026
 30
0.0
 11
-5.573419273735225
 21
25.66490963787027
 31
0.0
  0
LINE
  5
78
330
2
100
AcDbEntity
  8
GAIKEI
  6
Continuous
 62
     1
100
AcDbLine
 10
-5.573419273735225
 20
24.06490963787027
 30
0.0
 11
-5.573419273735225
 21
24.46490963787028
 31
0.0
  0
LINE
  5
79
330
2
100
AcDbEntity
  8
GAIKEI
  6
Continuous
 62
     1
100
AcDbLine
 10
-5.573419273735225
 20
22.86490963787025
 30
0.0
 11
-5.573419273735225
 21
23.26490963787026
 31
0.0
  0
LINE
  5
7A
330
2
100
AcDbEntity
  8
GAIKEI
  6
Continuous
 62
     1
100
AcDbLine
 10
-5.573419273735225
 20
21.66490963787027
 30
0.0
 11
-5.573419273735225
 21
22.06490963787027
 31
0.0
  0
LINE
  5
7B
330
2
100
AcDbEntity
  8
GAIKEI
  6
Continuous
 62
     1
100
AcDbLine
 10
-5.573419273735225
 20
20.46490963787028
 30
0.0
 11
-5.573419273735225
 21
20.86490963787026
 31
0.0
  0
LINE
  5
7C
330
2
100
AcDbEntity
  8
GAIKEI
  6
Continuous
 62
     1
100
AcDbLine
 10
-5.573419273735225
 20
19.26490963787026
 30
0.0
 11
-5.573419273735225
 21
19.66490963787027
 31
0.0
  0
LINE
  5
7D
330
2
100
AcDbEntity
  8
GAIKEI
  6
Continuous
 62
     1
100
AcDbLine
 10
-5.573419273735225
 20
18.06490963787027
 30
0.0
 11
-5.573419273735225
 21
18.46490963787028
 31
0.0
  0
LINE
  5
7E
330
2
100
AcDbEntity
  8
GAIKEI
  6
Continuous
 62
     1
100
AcDbLine
 10
-5.573419273735225
 20
16.86490963787025
 30
0.0
 11
-5.573419273735225
 21
17.26490963787026
 31
0.0
  0
LINE
  5
7F
330
2
100
AcDbEntity
  8
GAIKEI
  6
Continuous
 62
     1
100
AcDbLine
 10
-5.573419273735225
 20
15.66490963787027
 30
0.0
 11
-5.573419273735225
 21
16.06490963787027
 31
0.0
  0
LINE
  5
80
330
2
100
AcDbEntity
  8
GAIKEI
  6
Continuous
 62
     1
100
AcDbLine
 10
-5.573419273735225
 20
14.46490963787027
 30
0.0
 11
-5.573419273735225
 21
14.86490963787025
 31
0.0
  0
LINE
  5
81
330
2
100
AcDbEntity
  8
GAIKEI
  6
Continuous
 62
     1
100
AcDbLine
 10
-3.643419273735219
 20
14.46490963787027
 30
0.0
 11
-5.573419273735225
 21
14.46490963787027
 31
0.0
  0
LINE
  5
82
330
2
100
AcDbEntity
  8
GAIKEI
  6
Continuous
 62
     1
100
AcDbLine
 10
-3.643419273735219
 20
14.86490963787025
 30
0.0
 11
-5.573419273735225
 21
14.86490963787025
 31
0.0
  0
LINE
  5
83
330
2
100
AcDbEntity
  8
GAIKEI
  6
Continuous
 62
     1
100
AcDbLine
 10
-3.643419273735219
 20
15.66490963787027
 30
0.0
 11
-5.573419273735225
 21
15.66490963787027
 31
0.0
  0
LINE
  5
84
330
2
100
AcDbEntity
  8
GAIKEI
  6
Continuous
 62
     1
100
AcDbLine
 10
-3.643419273735219
 20
16.06490963787027
 30
0.0
 11
-5.573419273735225
 21
16.06490963787027
 31
0.0
  0
LINE
  5
85
330
2
100
AcDbEntity
  8
GAIKEI
  6
Continuous
 62
     1
100
AcDbLine
 10
-3.643419273735219
 20
16.86490963787025
 30
0.0
 11
-5.573419273735225
 21
16.86490963787025
 31
0.0
  0
LINE
  5
86
330
2
100
AcDbEntity
  8
GAIKEI
  6
Continuous
 62
     1
100
AcDbLine
 10
-3.643419273735219
 20
17.26490963787026
 30
0.0
 11
-5.573419273735225
 21
17.26490963787026
 31
0.0
  0
LINE
  5
87
330
2
100
AcDbEntity
  8
GAIKEI
  6
Continuous
 62
     1
100
AcDbLine
 10
-3.643419273735219
 20
18.06490963787027
 30
0.0
 11
-5.573419273735225
 21
18.06490963787027
 31
0.0
  0
LINE
  5
88
330
2
100
AcDbEntity
  8
GAIKEI
  6
Continuous
 62
     1
100
AcDbLine
 10
-3.643419273735219
 20
18.46490963787028
 30
0.0
 11
-5.573419273735225
 21
18.46490963787028
 31
0.0
  0
LINE
  5
89
330
2
100
AcDbEntity
  8
GAIKEI
  6
Continuous
 62
     1
100
AcDbLine
 10
-3.643419273735219
 20
19.26490963787026
 30
0.0
 11
-5.573419273735225
 21
19.26490963787026
 31
0.0
  0
LINE
  5
8A
330
2
100
AcDbEntity
  8
GAIKEI
  6
Continuous
 62
     1
100
AcDbLine
 10
-3.643419273735219
 20
19.66490963787027
 30
0.0
 11
-5.573419273735225
 21
19.66490963787027
 31
0.0
  0
LINE
  5
8B
330
2
100
AcDbEntity
  8
GAIKEI
  6
Continuous
 62
     1
100
AcDbLine
 10
-3.643419273735219
 20
20.46490963787028
 30
0.0
 11
-5.573419273735225
 21
20.46490963787028
 31
0.0
  0
LINE
  5
8C
330
2
100
AcDbEntity
  8
GAIKEI
  6
Continuous
 62
     1
100
AcDbLine
 10
-3.643419273735219
 20
20.86490963787026
 30
0.0
 11
-5.573419273735225
 21
20.86490963787026
 31
0.0
  0
LINE
  5
8D
330
2
100
AcDbEntity
  8
GAIKEI
  6
Continuous
 62
     1
100
AcDbLine
 10
-3.643419273735219
 20
21.66490963787027
 30
0.0
 11
-5.573419273735225
 21
21.66490963787027
 31
0.0
  0
LINE
  5
8E
330
2
100
AcDbEntity
  8
GAIKEI
  6
Continuous
 62
     1
100
AcDbLine
 10
-3.643419273735219
 20
22.06490963787027
 30
0.0
 11
-5.573419273735225
 21
22.06490963787027
 31
0.0
  0
LINE
  5
8F
330
2
100
AcDbEntity
  8
GAIKEI
  6
Continuous
 62
     1
100
AcDbLine
 10
-3.643419273735219
 20
22.86490963787025
 30
0.0
 11
-5.573419273735225
 21
22.86490963787025
 31
0.0
  0
LINE
  5
90
330
2
100
AcDbEntity
  8
GAIKEI
  6
Continuous
 62
     1
100
AcDbLine
 10
-3.643419273735219
 20
23.26490963787026
 30
0.0
 11
-5.573419273735225
 21
23.26490963787026
 31
0.0
  0
LINE
  5
91
330
2
100
AcDbEntity
  8
GAIKEI
  6
Continuous
 62
     1
100
AcDbLine
 10
-3.643419273735219
 20
24.06490963787027
 30
0.0
 11
-5.573419273735225
 21
24.06490963787027
 31
0.0
  0
LINE
  5
92
330
2
100
AcDbEntity
  8
GAIKEI
  6
Continuous
 62
     1
100
AcDbLine
 10
-3.643419273735219
 20
24.46490963787028
 30
0.0
 11
-5.573419273735225
 21
24.46490963787028
 31
0.0
  0
LINE
  5
93
330
2
100
AcDbEntity
  8
GAIKEI
  6
Continuous
 62
     1
100
AcDbLine
 10
-3.643419273735219
 20
25.26490963787026
 30
0.0
 11
-5.573419273735225
 21
25.26490963787026
 31
0.0
  0
LINE
  5
94
330
2
100
AcDbEntity
  8
GAIKEI
  6
Continuous
 62
     1
100
AcDbLine
 10
-3.643419273735219
 20
25.66490963787027
 30
0.0
 11
-5.573419273735225
 21
25.66490963787027
 31
0.0
  0
LINE
  5
95
330
2
100
AcDbEntity
  8
GAIKEI
  6
Continuous
 62
     1
100
AcDbLine
 10
-3.643419273735219
 20
26.46490963787028
 30
0.0
 11
-5.573419273735225
 21
26.46490963787028
 31
0.0
  0
LINE
  5
96
330
2
100
AcDbEntity
  8
GAIKEI
  6
Continuous
 62
     1
100
AcDbLine
 10
-3.643419273735219
 20
26.86490963787026
 30
0.0
 11
-5.573419273735225
 21
26.86490963787026
 31
0.0
  0
LINE
  5
97
330
2
100
AcDbEntity
  8
GAIKEI
  6
Continuous
 62
     1
100
AcDbLine
 10
29.46180541532959
 20
3.052255637870274
 30
0.0
 11
29.46180541532959
 21
28.46490963787028
 31
0.0
  0
ARC
  5
98
330
2
100
AcDbEntity
  8
GAIKEI
  6
Continuous
100
AcDbCircle
 10
28.01180541532961
 20
28.36490963787026
 30
0.0
 40
0.1
100
AcDbArc
 50
90.0
 51
180.0
  0
LINE
  5
99
330
2
100
AcDbEntity
  8
GAIKEI
  6
Continuous
 62
     1
100
AcDbLine
 10
27.91180541532958
 20
3.16490963787028
 30
0.0
 11
29.46180541532959
 21
3.151383037870274
 31
0.0
  0
ARC
  5
9A
330
2
100
AcDbEntity
  8
GAIKEI
  6
Continuous
 62
     1
100
AcDbCircle
 10
-60.8495222737352
 20
12.80299103787027
 30
0.0
 40
25.976103
100
AcDbArc
 50
344.3882509999997
 51
0.0
  0
ARC
  5
9B
330
2
100
AcDbEntity
  8
GAIKEI
  6
Continuous
 62
     1
100
AcDbCircle
 10
21.50268372626476
 20
12.80299103787027
 30
0.0
 40
25.976103
100
AcDbArc
 50
180.0
 51
195.6117490000003
  0
LINE
  5
9C
330
2
100
AcDbEntity
  8
GAIKEI
  6
Continuous
 62
     1
100
AcDbLine
 10
-34.87341927373524
 20
12.80299103787027
 30
0.0
 11
-4.47341927373526
 21
12.80299103787027
 31
0.0
  0
LINE
  5
9D
330
2
100
AcDbEntity
  8
GAIKEI
  6
Continuous
 62
     1
100
AcDbLine
 10
-35.87341927373524
 20
5.964909637870263
 30
0.0
 11
-35.87341927373524
 21
28.46490963787028
 31
0.0
  0
ARC
  5
9E
330
2
100
AcDbEntity
  8
GAIKEI
  6
Continuous
 62
     1
100
AcDbCircle
 10
-35.57341927373523
 20
5.964909637870263
 30
0.0
 40
0.3
100
AcDbArc
 50
180.0
 51
270.0
  0
LINE
  5
9F
330
2
100
AcDbEntity
  8
GAIKEI
  6
Continuous
 62
     1
100
AcDbLine
 10
-35.57341927373523
 20
5.664909637870266
 30
0.0
 11
-3.773419273735271
 21
5.664909637870266
 31
0.0
  0
ARC
  5
A0
330
2
100
AcDbEntity
  8
GAIKEI
  6
Continuous
 62
     1
100
AcDbCircle
 10
-3.773419273735271
 20
5.964909637870263
 30
0.0
 40
0.3
100
AcDbArc
 50
270.0
 51
0.0
  0
LINE
  5
A1
330
2
100
AcDbEntity
  8
GAIKEI
  6
Continuous
 62
     1
100
AcDbLine
 10
-3.47341927373526
 20
5.964909637870263
 30
0.0
 11
-3.47341927373526
 21
28.46490963787028
 31
0.0
  0
LINE
  5
A2
330
2
100
AcDbEntity
  8
GAIKEI
  6
Continuous
100
AcDbLine
 10
0.7265807262647286
 20
3.151819437870273
 30
0.0
 11
0.7265807262647286
 21
28.26490963787026
 31
0.0
  0
LINE
  5
A3
330
2
100
AcDbEntity
  8
GAIKEI
  6
Continuous
100
AcDbLine
 10
-40.07341927373523
 20
3.151819437870273
 30
0.0
 11
-40.07341927373523
 21
28.26490963787026
 31
0.0
  0
ARC
  5
A4
330
2
100
AcDbEntity
  8
GAIKEI
  6
Continuous
100
AcDbCircle
 10
-39.87341927373524
 20
28.26490963787026
 30
0.0
 40
0.2
100
AcDbArc
 50
90.0
 51
180.0
  0
ARC
  5
A5
330
2
100
AcDbEntity
  8
GAIKEI
  6
Continuous
100
AcDbCircle
 10
0.52658072626474
 20
28.26490963787026
 30
0.0
 40
0.2
100
AcDbArc
 50
0.0
 51
90.0
  0
LINE
  5
A6
330
2
100
AcDbEntity
  8
GAIKEI
  6
Continuous
 62
     1
100
AcDbLine
 10
28.01180541532961
 20
3.064909637870272
 30
0.0
 11
28.01180541532961
 21
3.16490963787028
 31
0.0
  0
LINE
  5
A7
330
2
100
AcDbEntity
  8
GAIKEI
  6
Continuous
100
AcDbLine
 10
27.91180541532958
 20
3.16490963787028
 30
0.0
 11
27.91180541532958
 21
28.36490963787026
 31
0.0
  0
ARC
  5
A8
330
2
100
AcDbEntity
  8
GAIKEI
  6
Continuous
100
AcDbCircle
 10
33.91180541532958
 20
13.26692403787027
 30
0.0
 40
8.0
100
AcDbArc
 50
180.0
 51
187.4787669999998
  0
ARC
  5
A9
330
2
100
AcDbEntity
  8
GAIKEI
  6
Continuous
100
AcDbCircle
 10
47.82381161532959
 20
15.09322963787025
 30
0.0
 40
22.0313688
100
AcDbArc
 50
187.4787669999998
 51
205.3375199999997
  0
LINE
  5
AA
330
2
100
AcDbEntity
  8
GAIKEI
  6
Continuous
100
AcDbLine
 10
26.11180541532963
 20
28.46490963787028
 30
0.0
 11
29.46180541532959
 21
28.46490963787028
 31
0.0
  0
ARC
  5
AB
330
2
100
AcDbEntity
  8
GAIKEI
  6
Continuous
100
AcDbCircle
 10
26.11180541532963
 20
28.26490963787026
 30
0.0
 40
0.2
100
AcDbArc
 50
90.0
 51
180.0
  0
LINE
  5
AC
330
2
100
AcDbEntity
  8
GAIKEI
  6
Continuous
100
AcDbLine
 10
25.91180541532958
 20
13.26692403787027
 30
0.0
 11
25.91180541532958
 21
28.26490963787026
 31
0.0
  0
ARC
  5
AD
330
2
100
AcDbEntity
  8
GAIKEI
  6
Continuous
100
AcDbCircle
 10
0.52658072626474
 20
28.26490963787026
 30
0.0
 40
0.2
100
AcDbArc
 50
0.0
 51
90.0
  0
LINE
  5
AE
330
2
100
AcDbEntity
  8
GAIKEI
  6
Continuous
100
AcDbLine
 10
0.7265807262647286
 20
3.150946637870262
 30
0.0
 11
0.7265807262647286
 21
28.26490963787026
 31
0.0
  0
LINE
  5
AF
330
2
100
AcDbEntity
  8
GAIKEI
  6
Continuous
100
AcDbLine
 10
0.52658072626474
 20
28.46490963787028
 30
0.0
 11
-39.87341927373524
 21
28.46490963787028
 31
0.0
  0
LINE
  5
B0
330
2
100
AcDbEntity
  8
GAIKEI
  6
Continuous
 62
     1
100
AcDbLine
 10
29.46180541532959
 20
3.052255637870274
 30
0.0
 11
29.46180541532959
 21
28.34490963787028
 31
0.0
  0
LINE
  5
B1
330
2
100
AcDbEntity
  8
GAIKEI
  6
Continuous
 62
     1
100
AcDbLine
 10
29.56180541532962
 20
3.05138303787028
 30
0.0
 11
29.56180541532962
 21
28.46490963787028
 31
0.0
  0
LINE
  5
B2
330
2
100
AcDbEntity
  8
GAIKEI
  6
Continuous
 62
     1
100
AcDbLine
 10
29.46180541532959
 20
28.34490963787028
 30
0.0
 11
29.56180541532962
 21
28.36490963787026
 31
0.0
  0
LINE
  5
B3
330
2
100
AcDbEntity
  8
GAIKEI
  6
Continuous
100
AcDbLine
 10
-40.07341927373523
 20
3.151819437870273
 30
0.0
 11
-40.07341927373523
 21
28.26490963787026
 31
0.0
  0
ARC
  5
B4
330
2
100
AcDbEntity
  8
GAIKEI
  6
Continuous
100
AcDbCircle
 10
-39.87341927373524
 20
28.26490963787026
 30
0.0
 40
0.2
100
AcDbArc
 50
90.0
 51
180.0
  0
ARC
  5
B5
330
2
100
AcDbEntity
  8
GAIKEI
  6
Continuous
100
AcDbCircle
 10
31.0118054153296
 20
28.36490963787026
 30
0.0
 40
0.1
100
AcDbArc
 50
0.0
 51
90.0
  0
LINE
  5
B6
330
2
100
AcDbEntity
  8
GAIKEI
  6
Continuous
 62
     1
100
AcDbLine
 10
29.56180541532962
 20
3.150510437870281
 30
0.0
 11
31.11180541532963
 21
3.136983637870272
 31
0.0
  0
LINE
  5
B7
330
2
100
AcDbEntity
  8
GAIKEI
  6
Continuous
 62
     1
100
AcDbLine
 10
31.0118054153296
 20
3.038729037870282
 30
0.0
 11
31.0118054153296
 21
3.139601837870273
 31
0.0
  0
LINE
  5
B8
330
2
100
AcDbEntity
  8
GAIKEI
  6
Continuous
100
AcDbLine
 10
31.11180541532963
 20
3.136983637870272
 30
0.0
 11
31.11180541532963
 21
28.36490963787026
 31
0.0
  0
ARC
  5
B9
330
2
100
AcDbEntity
  8
GAIKEI
  6
Continuous
100
AcDbCircle
 10
11.19979921532962
 20
15.09322963787025
 30
0.0
 40
22.0313688
100
AcDbArc
 50
334.6624800000004
 51
352.5212330000002
  0
ARC
  5
BA
330
2
100
AcDbEntity
  8
GAIKEI
  6
Continuous
100
AcDbCircle
 10
25.11180541532963
 20
13.26692403787027
 30
0.0
 40
8.0
100
AcDbArc
 50
352.5212330000002
 51
0.0
  0
LINE
  5
BB
330
2
100
AcDbEntity
  8
GAIKEI
  6
Continuous
100
AcDbLine
 10
33.11180541532963
 20
13.26692403787027
 30
0.0
 11
33.11180541532963
 21
28.26490963787026
 31
0.0
  0
ARC
  5
BC
330
2
100
AcDbEntity
  8
GAIKEI
  6
Continuous
100
AcDbCircle
 10
32.91180541532958
 20
28.26490963787026
 30
0.0
 40
0.2
100
AcDbArc
 50
0.0
 51
90.0
  0
LINE
  5
BD
330
2
100
AcDbEntity
  8
GAIKEI
  6
Continuous
100
AcDbLine
 10
32.91180541532958
 20
28.46490963787028
 30
0.0
 11
29.56180541532962
 21
28.46490963787028
 31
0.0
  0
ARC
  5
BE
330
2
100
AcDbEntity
  8
GAIKEI
  6
Continuous
100
AcDbCircle
 10
-39.67341927373525
 20
2.864909637870283
 30
0.0
 40
0.4
100
AcDbArc
 50
180.0
 51
270.0
  0
LINE
  5
BF
330
2
100
AcDbEntity
  8
GAIKEI
  6
Continuous
100
AcDbLine
 10
-40.07341927373523
 20
2.864909637870283
 30
0.0
 11
-40.07341927373523
 21
3.065782437870268
 31
0.0
  0
ARC
  5
C0
330
2
100
AcDbEntity
  8
GAIKEI
  6
Continuous
100
AcDbCircle
 10
0.3265807262647513
 20
2.864909637870283
 30
0.0
 40
0.4
100
AcDbArc
 50
270.0
 51
0.0
  0
LINE
  5
C1
330
2
100
AcDbEntity
  8
GAIKEI
  6
Continuous
100
AcDbLine
 10
0.7265807262647286
 20
2.864909637870283
 30
0.0
 11
0.7265807262647286
 21
3.065782437870268
 31
0.0
  0
LINE
  5
C2
330
2
100
AcDbEntity
  8
GAIKEI
  6
Continuous
 62
     1
100
AcDbLine
 10
-40.07341927373523
 20
3.065782437870268
 30
0.0
 11
0.7265807262647286
 21
3.065782437870268
 31
0.0
  0
LINE
  5
C3
330
2
100
AcDbEntity
  8
GAIKEI
  6
Continuous
100
AcDbLine
 10
-39.67472847373523
 20
2.464909637870277
 30
0.0
 11
0.3265807262647513
 21
2.464909637870277
 31
0.0
  0
ARC
  5
C4
330
2
100
AcDbEntity
  8
GAIKEI
  6
Continuous
100
AcDbCircle
 10
30.91180541532958
 20
2.66490963787028
 30
0.0
 40
0.2
100
AcDbArc
 50
270.0
 51
0.0
  0
ARC
  5
C5
330
2
100
AcDbEntity
  8
GAIKEI
  6
Continuous
100
AcDbCircle
 10
28.11180541532963
 20
2.66490963787028
 30
0.0
 40
0.2
100
AcDbArc
 50
180.0
 51
270.0
  0
LINE
  5
C6
330
2
100
AcDbEntity
  8
GAIKEI
  6
Continuous
 62
     1
100
AcDbLine
 10
27.91180541532958
 20
3.065782437870268
 30
0.0
 11
31.11180541532963
 21
3.037856437870274
 31
0.0
  0
LINE
  5
C7
330
2
100
AcDbEntity
  8
GAIKEI
  6
Continuous
100
AcDbLine
 10
31.11180541532963
 20
2.66490963787028
 30
0.0
 11
31.11180541532963
 21
3.037856437870274
 31
0.0
  0
LINE
  5
C8
330
2
100
AcDbEntity
  8
GAIKEI
  6
Continuous
100
AcDbLine
 10
27.91180541532958
 20
2.66490963787028
 30
0.0
 11
27.91180541532958
 21
3.065782437870268
 31
0.0
  0
LINE
  5
C9
330
2
100
AcDbEntity
  8
GAIKEI
  6
Continuous
100
AcDbLine
 10
28.11180541532963
 20
2.464909637870277
 30
0.0
 11
30.91180541532958
 21
2.464909637870277
 31
0.0
  0
LINE
  5
CA
330
2
100
AcDbEntity
  8
GAIKEI
  6
Continuous
100
AcDbLine
 10
-21.17341927373525
 20
28.76490963787026
 30
0.0
 11
-21.17341927373525
 21
29.96490963787028
 31
0.0
  0
LINE
  5
CB
330
2
100
AcDbEntity
  8
GAIKEI
  6
Continuous
100
AcDbLine
 10
-21.37341927373524
 20
30.16490963787027
 30
0.0
 11
-36.47341927373526
 21
30.16490963787027
 31
0.0
  0
LINE
  5
CC
330
2
100
AcDbEntity
  8
GAIKEI
  6
Continuous
100
AcDbLine
 10
-38.37341927373524
 20
28.93067543787026
 30
0.0
 11
-38.37341927373524
 21
29.79914383787028
 31
0.0
  0
LINE
  5
CD
330
2
100
AcDbEntity
  8
GAIKEI
  6
Continuous
100
AcDbLine
 10
-34.85786987373524
 20
28.87950703787027
 30
0.0
 11
-34.85786987373524
 21
29.85031243787026
 31
0.0
  0
ARC
  5
CE
330
2
100
AcDbEntity
  8
GAIKEI
  6
Continuous
100
AcDbCircle
 10
-21.37341927373524
 20
29.96490963787028
 30
0.0
 40
0.2
100
AcDbArc
 50
0.0
 51
90.0
  0
ARC
  5
CF
330
2
100
AcDbEntity
  8
GAIKEI
  6
Continuous
100
AcDbCircle
 10
-21.37341927373524
 20
28.76490963787026
 30
0.0
 40
0.2
100
AcDbArc
 50
270.0
 51
0.0
  0
ARC
  5
D0
330
2
100
AcDbEntity
  8
GAIKEI
  6
Continuous
100
AcDbCircle
 10
-36.47341927373526
 20
21.16490963787027
 30
0.0
 40
9.0
100
AcDbArc
 50
80.74330500000129
 51
101.1385300000014
  0
LINE
  5
D1
330
2
100
AcDbEntity
  8
GAIKEI
  6
Continuous
 62
     1
100
AcDbLine
 10
-34.89200667373524
 20
29.96206823787026
 30
0.0
 11
-38.28941767373527
 21
29.96206823787026
 31
0.0
  0
ARC
  5
D2
330
2
100
AcDbEntity
  8
GAIKEI
  6
Continuous
100
AcDbCircle
 10
-38.17341927373525
 20
29.79914383787028
 30
0.0
 40
0.2
100
AcDbArc
 50
101.1385300000014
 51
180.0
  0
ARC
  5
D3
330
2
100
AcDbEntity
  8
GAIKEI
  6
Continuous
100
AcDbCircle
 10
-35.05786987373523
 20
29.85031243787026
 30
0.0
 40
0.2
100
AcDbArc
 50
0.0
 51
80.74330500000129
  0
ARC
  5
D4
330
2
100
AcDbEntity
  8
GAIKEI
  6
Continuous
100
AcDbCircle
 10
-36.47341927373526
 20
37.56490963787027
 30
0.0
 40
9.0
100
AcDbArc
 50
258.8614699999985
 51
279.2566949999987
  0
ARC
  5
D5
330
2
100
AcDbEntity
  8
GAIKEI
  6
Continuous
100
AcDbCircle
 10
-35.05786987373523
 20
28.87950703787027
 30
0.0
 40
0.2
100
AcDbArc
 50
279.2566949999987
 51
0.0
  0
ARC
  5
D6
330
2
100
AcDbEntity
  8
GAIKEI
  6
Continuous
100
AcDbCircle
 10
-38.17341927373525
 20
28.93067543787026
 30
0.0
 40
0.2
100
AcDbArc
 50
180.0
 51
258.8614699999985
  0
LINE
  5
D7
330
2
100
AcDbEntity
  8
GAIKEI
  6
Continuous
 62
     1
100
AcDbLine
 10
-34.89200667373524
 20
28.76775103787025
 30
0.0
 11
-38.28941767373527
 21
28.76775103787025
 31
0.0
  0
LINE
  5
D8
330
2
100
AcDbEntity
  8
GAIKEI
  6
Continuous
100
AcDbLine
 10
-21.37341927373524
 20
28.56490963787027
 30
0.0
 11
-36.47341927373526
 21
28.56490963787027
 31
0.0
  0
LINE
  5
D9
330
2
100
AcDbEntity
  8
GAIKEI
  6
Continuous
 62
     1
100
AcDbLine
 10
-35.47341927373526
 20
28.46490963787028
 30
0.0
 11
-35.47341927373526
 21
28.56490963787027
 31
0.0
  0
LINE
  5
DA
330
2
100
AcDbEntity
  8
GAIKEI
  6
Continuous
 62
     1
100
AcDbLine
 10
-37.47341927373526
 20
28.46490963787028
 30
0.0
 11
-37.47341927373526
 21
28.62063783787028
 31
0.0
  0
LINE
  5
DB
330
2
100
AcDbEntity
  8
GAIKEI
  6
Continuous
 62
     1
100
AcDbLine
 10
30.51180541532961
 20
28.46490963787028
 30
0.0
 11
30.51180541532961
 21
28.62063783787028
 31
0.0
  0
LINE
  5
DC
330
2
100
AcDbEntity
  8
GAIKEI
  6
Continuous
 62
     1
100
AcDbLine
 10
28.5118054153296
 20
28.46490963787028
 30
0.0
 11
28.5118054153296
 21
28.62063783787028
 31
0.0
  0
LINE
  5
DD
330
2
100
AcDbEntity
  8
GAIKEI
  6
Continuous
 62
     1
100
AcDbLine
 10
30.51180541532961
 20
28.90216803787027
 30
0.0
 11
30.51180541532961
 21
29.82765143787026
 31
0.0
  0
LINE
  5
DE
330
2
100
AcDbEntity
  8
GAIKEI
  6
Continuous
 62
     1
100
AcDbLine
 10
28.5118054153296
 20
28.90216803787027
 30
0.0
 11
28.5118054153296
 21
29.82765143787026
 31
0.0
  0
ARC
  5
DF
330
2
100
AcDbEntity
  8
GAIKEI
  6
Continuous
 62
     1
100
AcDbCircle
 10
29.51180541532961
 20
27.56490963787027
 30
0.0
 40
2.6
100
AcDbArc
 50
70.52877900000156
 51
109.4712209999984
  0
ARC
  5
E0
330
2
100
AcDbEntity
  8
GAIKEI
  6
Continuous
 62
     1
100
AcDbCircle
 10
30.31180541532962
 20
29.82765143787026
 30
0.0
 40
0.2
100
AcDbArc
 50
0.0
 51
70.52877900000156
  0
ARC
  5
E1
330
2
100
AcDbEntity
  8
GAIKEI
  6
Continuous
 62
     1
100
AcDbCircle
 10
28.7118054153296
 20
29.82765143787026
 30
0.0
 40
0.2
100
AcDbArc
 50
109.4712209999984
 51
180.0
  0
ARC
  5
E2
330
2
100
AcDbEntity
  8
GAIKEI
  6
Continuous
 62
     1
100
AcDbCircle
 10
29.51180541532961
 20
31.16490963787027
 30
0.0
 40
2.6
100
AcDbArc
 50
250.5287790000016
 51
289.4712209999984
  0
ARC
  5
E3
330
2
100
AcDbEntity
  8
GAIKEI
  6
Continuous
 62
     1
100
AcDbCircle
 10
28.7118054153296
 20
28.90216803787027
 30
0.0
 40
0.2
100
AcDbArc
 50
180.0
 51
250.5287790000016
  0
ARC
  5
E4
330
2
100
AcDbEntity
  8
GAIKEI
  6
Continuous
 62
     1
100
AcDbCircle
 10
30.31180541532962
 20
28.90216803787027
 30
0.0
 40
0.2
100
AcDbArc
 50
289.4712209999984
 51
0.0
  0
ARC
  5
E5
330
2
100
AcDbEntity
  8
GAIKEI
  6
Continuous
100
AcDbCircle
 10
29.51180541532961
 20
21.16490963787027
 30
0.0
 40
9.0
100
AcDbArc
 50
78.86146999999855
 51
101.1385300000014
  0
LINE
  5
E6
330
2
100
AcDbEntity
  8
GAIKEI
  6
Continuous
 62
     1
100
AcDbLine
 10
27.69580701532959
 20
29.96206823787026
 30
0.0
 11
28.56371061532963
 21
29.96206823787026
 31
0.0
  0
ARC
  5
E7
330
2
100
AcDbEntity
  8
GAIKEI
  6
Continuous
100
AcDbCircle
 10
29.51180541532961
 20
37.56490963787027
 30
0.0
 40
9.0
100
AcDbArc
 50
258.8614699999985
 51
281.1385299999983
  0
LINE
  5
E8
330
2
100
AcDbEntity
  8
GAIKEI
  6
Continuous
 62
     1
100
AcDbLine
 10
27.69580701532959
 20
28.76775103787025
 30
0.0
 11
28.56371061532963
 21
28.76775103787025
 31
0.0
  0
ARC
  5
E9
330
2
100
AcDbEntity
  8
GAIKEI
  6
Continuous
100
AcDbCircle
 10
31.2118054153296
 20
28.93067543787026
 30
0.0
 40
0.2
100
AcDbArc
 50
281.1385299999983
 51
0.0
  0
ARC
  5
EA
330
2
100
AcDbEntity
  8
GAIKEI
  6
Continuous
100
AcDbCircle
 10
31.2118054153296
 20
29.79914383787028
 30
0.0
 40
0.2
100
AcDbArc
 50
0.0
 51
78.86146999999855
  0
LINE
  5
EB
330
2
100
AcDbEntity
  8
GAIKEI
  6
Continuous
100
AcDbLine
 10
31.41180541532958
 20
28.93067543787026
 30
0.0
 11
31.41180541532958
 21
29.79914383787028
 31
0.0
  0
LINE
  5
EC
330
2
100
AcDbEntity
  8
GAIKEI
  6
Continuous
 62
     1
100
AcDbLine
 10
30.45990021532964
 20
29.96206823787026
 30
0.0
 11
31.32780381532962
 21
29.96206823787026
 31
0.0
  0
LINE
  5
ED
330
2
100
AcDbEntity
  8
GAIKEI
  6
Continuous
 62
     1
100
AcDbLine
 10
30.45990021532964
 20
28.76775103787025
 30
0.0
 11
31.32780381532962
 21
28.76775103787025
 31
0.0
  0
ARC
  5
EE
330
2
100
AcDbEntity
  8
GAIKEI
  6
Continuous
100
AcDbCircle
 10
27.81180541532962
 20
28.93067543787026
 30
0.0
 40
0.2
100
AcDbArc
 50
180.0
 51
258.8614699999985
  0
ARC
  5
EF
330
2
100
AcDbEntity
  8
GAIKEI
  6
Continuous
100
AcDbCircle
 10
27.81180541532962
 20
29.79914383787028
 30
0.0
 40
0.2
100
AcDbArc
 50
101.1385300000014
 51
180.0
  0
LINE
  5
F0
330
2
100
AcDbEntity
  8
GAIKEI
  6
Continuous
100
AcDbLine
 10
27.61180541532963
 20
28.93067543787026
 30
0.0
 11
27.61180541532963
 21
29.79914383787028
 31
0.0
  0
LINE
  5
F1
330
2
100
AcDbEntity
  8
GAIKEI
  6
Continuous
 62
     1
100
AcDbLine
 10
-34.87341927373524
 20
12.80299103787027
 30
0.0
 11
-34.87341927373524
 21
14.46490963787027
 31
0.0
  0
LINE
  5
F2
330
2
100
AcDbEntity
  8
GAIKEI
  6
Continuous
 62
     1
100
AcDbLine
 10
-34.87341927373524
 20
26.86490963787026
 30
0.0
 11
-34.87341927373524
 21
28.46490963787028
 31
0.0
  0
LINE
  5
F3
330
2
100
AcDbEntity
  8
GAIKEI
  6
Continuous
 62
     1
100
AcDbLine
 10
-35.70341927373528
 20
26.86490963787026
 30
0.0
 11
-33.77341927373527
 21
26.86490963787026
 31
0.0
  0
LINE
  5
F4
330
2
100
AcDbEntity
  8
GAIKEI
  6
Continuous
 62
     1
100
AcDbLine
 10
-35.70341927373528
 20
26.46490963787028
 30
0.0
 11
-33.77341927373527
 21
26.46490963787028
 31
0.0
  0
LINE
  5
F5
330
2
100
AcDbEntity
  8
GAIKEI
  6
Continuous
 62
     1
100
AcDbLine
 10
-35.70341927373528
 20
25.66490963787027
 30
0.0
 11
-33.77341927373527
 21
25.66490963787027
 31
0.0
  0
LINE
  5
F6
330
2
100
AcDbEntity
  8
GAIKEI
  6
Continuous
 62
     1
100
AcDbLine
 10
-35.70341927373528
 20
25.26490963787026
 30
0.0
 11
-33.77341927373527
 21
25.26490963787026
 31
0.0
  0
LINE
  5
F7
330
2
100
AcDbEntity
  8
GAIKEI
  6
Continuous
 62
     1
100
AcDbLine
 10
-35.70341927373528
 20
24.46490963787028
 30
0.0
 11
-33.77341927373527
 21
24.46490963787028
 31
0.0
  0
LINE
  5
F8
330
2
100
AcDbEntity
  8
GAIKEI
  6
Continuous
 62
     1
100
AcDbLine
 10
-35.70341927373528
 20
24.06490963787027
 30
0.0
 11
-33.77341927373527
 21
24.06490963787027
 31
0.0
  0
LINE
  5
F9
330
2
100
AcDbEntity
  8
GAIKEI
  6
Continuous
 62
     1
100
AcDbLine
 10
-35.70341927373528
 20
23.26490963787026
 30
0.0
 11
-33.77341927373527
 21
23.26490963787026
 31
0.0
  0
LINE
  5
FA
330
2
100
AcDbEntity
  8
GAIKEI
  6
Continuous
 62
     1
100
AcDbLine
 10
-35.70341927373528
 20
22.86490963787025
 30
0.0
 11
-33.77341927373527
 21
22.86490963787025
 31
0.0
  0
LINE
  5
FB
330
2
100
AcDbEntity
  8
GAIKEI
  6
Continuous
 62
     1
100
AcDbLine
 10
-35.70341927373528
 20
22.06490963787027
 30
0.0
 11
-33.77341927373527
 21
22.06490963787027
 31
0.0
  0
LINE
  5
FC
330
2
100
AcDbEntity
  8
GAIKEI
  6
Continuous
 62
     1
100
AcDbLine
 10
-35.70341927373528
 20
21.66490963787027
 30
0.0
 11
-33.77341927373527
 21
21.66490963787027
 31
0.0
  0
LINE
  5
FD
330
2
100
AcDbEntity
  8
GAIKEI
  6
Continuous
 62
     1
100
AcDbLine
 10
-35.70341927373528
 20
20.86490963787026
 30
0.0
 11
-33.77341927373527
 21
20.86490963787026
 31
0.0
  0
LINE
  5
FE
330
2
100
AcDbEntity
  8
GAIKEI
  6
Continuous
 62
     1
100
AcDbLine
 10
-35.70341927373528
 20
20.46490963787028
 30
0.0
 11
-33.77341927373527
 21
20.46490963787028
 31
0.0
  0
LINE
  5
FF
330
2
100
AcDbEntity
  8
GAIKEI
  6
Continuous
 62
     1
100
AcDbLine
 10
-35.70341927373528
 20
19.66490963787027
 30
0.0
 11
-33.77341927373527
 21
19.66490963787027
 31
0.0
  0
LINE
  5
100
330
2
100
AcDbEntity
  8
GAIKEI
  6
Continuous
 62
     1
100
AcDbLine
 10
-35.70341927373528
 20
19.26490963787026
 30
0.0
 11
-33.77341927373527
 21
19.26490963787026
 31
0.0
  0
LINE
  5
101
330
2
100
AcDbEntity
  8
GAIKEI
  6
Continuous
 62
     1
100
AcDbLine
 10
-35.70341927373528
 20
18.46490963787028
 30
0.0
 11
-33.77341927373527
 21
18.46490963787028
 31
0.0
  0
LINE
  5
102
330
2
100
AcDbEntity
  8
GAIKEI
  6
Continuous
 62
     1
100
AcDbLine
 10
-35.70341927373528
 20
18.06490963787027
 30
0.0
 11
-33.77341927373527
 21
18.06490963787027
 31
0.0
  0
LINE
  5
103
330
2
100
AcDbEntity
  8
GAIKEI
  6
Continuous
 62
     1
100
AcDbLine
 10
-35.70341927373528
 20
17.26490963787026
 30
0.0
 11
-33.77341927373527
 21
17.26490963787026
 31
0.0
  0
LINE
  5
104
330
2
100
AcDbEntity
  8
GAIKEI
  6
Continuous
 62
     1
100
AcDbLine
 10
-35.70341927373528
 20
16.86490963787025
 30
0.0
 11
-33.77341927373527
 21
16.86490963787025
 31
0.0
  0
LINE
  5
105
330
2
100
AcDbEntity
  8
GAIKEI
  6
Continuous
 62
     1
100
AcDbLine
 10
-35.70341927373528
 20
16.06490963787027
 30
0.0
 11
-33.77341927373527
 21
16.06490963787027
 31
0.0
  0
LINE
  5
106
330
2
100
AcDbEntity
  8
GAIKEI
  6
Continuous
 62
     1
100
AcDbLine
 10
-35.70341927373528
 20
15.66490963787027
 30
0.0
 11
-33.77341927373527
 21
15.66490963787027
 31
0.0
  0
LINE
  5
107
330
2
100
AcDbEntity
  8
GAIKEI
  6
Continuous
 62
     1
100
AcDbLine
 10
-35.70341927373528
 20
14.86490963787025
 30
0.0
 11
-33.77341927373527
 21
14.86490963787025
 31
0.0
  0
LINE
  5
108
330
2
100
AcDbEntity
  8
GAIKEI
  6
Continuous
 62
     1
100
AcDbLine
 10
-35.70341927373528
 20
14.46490963787027
 30
0.0
 11
-33.77341927373527
 21
14.46490963787027
 31
0.0
  0
LINE
  5
109
330
2
100
AcDbEntity
  8
GAIKEI
  6
Continuous
 62
     1
100
AcDbLine
 10
-33.77341927373527
 20
14.46490963787027
 30
0.0
 11
-33.77341927373527
 21
14.86490963787025
 31
0.0
  0
LINE
  5
10A
330
2
100
AcDbEntity
  8
GAIKEI
  6
Continuous
 62
     1
100
AcDbLine
 10
-33.77341927373527
 20
15.66490963787027
 30
0.0
 11
-33.77341927373527
 21
16.06490963787027
 31
0.0
  0
LINE
  5
10B
330
2
100
AcDbEntity
  8
GAIKEI
  6
Continuous
 62
     1
100
AcDbLine
 10
-33.77341927373527
 20
16.86490963787025
 30
0.0
 11
-33.77341927373527
 21
17.26490963787026
 31
0.0
  0
LINE
  5
10C
330
2
100
AcDbEntity
  8
GAIKEI
  6
Continuous
 62
     1
100
AcDbLine
 10
-33.77341927373527
 20
18.06490963787027
 30
0.0
 11
-33.77341927373527
 21
18.46490963787028
 31
0.0
  0
LINE
  5
10D
330
2
100
AcDbEntity
  8
GAIKEI
  6
Continuous
 62
     1
100
AcDbLine
 10
-33.77341927373527
 20
19.26490963787026
 30
0.0
 11
-33.77341927373527
 21
19.66490963787027
 31
0.0
  0
LINE
  5
10E
330
2
100
AcDbEntity
  8
GAIKEI
  6
Continuous
 62
     1
100
AcDbLine
 10
-33.77341927373527
 20
20.46490963787028
 30
0.0
 11
-33.77341927373527
 21
20.86490963787026
 31
0.0
  0
LINE
  5
10F
330
2
100
AcDbEntity
  8
GAIKEI
  6
Continuous
 62
     1
100
AcDbLine
 10
-33.77341927373527
 20
21.66490963787027
 30
0.0
 11
-33.77341927373527
 21
22.06490963787027
 31
0.0
  0
LINE
  5
110
330
2
100
AcDbEntity
  8
GAIKEI
  6
Continuous
 62
     1
100
AcDbLine
 10
-33.77341927373527
 20
22.86490963787025
 30
0.0
 11
-33.77341927373527
 21
23.26490963787026
 31
0.0
  0
LINE
  5
111
330
2
100
AcDbEntity
  8
GAIKEI
  6
Continuous
 62
     1
100
AcDbLine
 10
-33.77341927373527
 20
24.06490963787027
 30
0.0
 11
-33.77341927373527
 21
24.46490963787028
 31
0.0
  0
LINE
  5
112
330
2
100
AcDbEntity
  8
GAIKEI
  6
Continuous
 62
     1
100
AcDbLine
 10
-33.77341927373527
 20
25.26490963787026
 30
0.0
 11
-33.77341927373527
 21
25.66490963787027
 31
0.0
  0
LINE
  5
113
330
2
100
AcDbEntity
  8
GAIKEI
  6
Continuous
 62
     1
100
AcDbLine
 10
-33.77341927373527
 20
26.46490963787028
 30
0.0
 11
-33.77341927373527
 21
26.86490963787026
 31
0.0
  0
LINE
  5
114
330
2
100
AcDbEntity
  8
GAIKEI
  6
Continuous
 62
     1
100
AcDbLine
 10
-35.70341927373528
 20
14.86490963787025
 30
0.0
 11
-35.70341927373528
 21
14.46490963787027
 31
0.0
  0
LINE
  5
115
330
2
100
AcDbEntity
  8
GAIKEI
  6
Continuous
 62
     1
100
AcDbLine
 10
-35.70341927373528
 20
16.06490963787027
 30
0.0
 11
-35.70341927373528
 21
15.66490963787027
 31
0.0
  0
LINE
  5
116
330
2
100
AcDbEntity
  8
GAIKEI
  6
Continuous
 62
     1
100
AcDbLine
 10
-35.70341927373528
 20
17.26490963787026
 30
0.0
 11
-35.70341927373528
 21
16.86490963787025
 31
0.0
  0
LINE
  5
117
330
2
100
AcDbEntity
  8
GAIKEI
  6
Continuous
 62
     1
100
AcDbLine
 10
-35.70341927373528
 20
18.46490963787028
 30
0.0
 11
-35.70341927373528
 21
18.06490963787027
 31
0.0
  0
LINE
  5
118
330
2
100
AcDbEntity
  8
GAIKEI
  6
Continuous
 62
     1
100
AcDbLine
 10
-35.70341927373528
 20
19.66490963787027
 30
0.0
 11
-35.70341927373528
 21
19.26490963787026
 31
0.0
  0
LINE
  5
119
330
2
100
AcDbEntity
  8
GAIKEI
  6
Continuous
 62
     1
100
AcDbLine
 10
-35.70341927373528
 20
20.86490963787026
 30
0.0
 11
-35.70341927373528
 21
20.46490963787028
 31
0.0
  0
LINE
  5
11A
330
2
100
AcDbEntity
  8
GAIKEI
  6
Continuous
 62
     1
100
AcDbLine
 10
-35.70341927373528
 20
22.06490963787027
 30
0.0
 11
-35.70341927373528
 21
21.66490963787027
 31
0.0
  0
LINE
  5
11B
330
2
100
AcDbEntity
  8
GAIKEI
  6
Continuous
 62
     1
100
AcDbLine
 10
-35.70341927373528
 20
23.26490963787026
 30
0.0
 11
-35.70341927373528
 21
22.86490963787025
 31
0.0
  0
LINE
  5
11C
330
2
100
AcDbEntity
  8
GAIKEI
  6
Continuous
 62
     1
100
AcDbLine
 10
-35.70341927373528
 20
24.46490963787028
 30
0.0
 11
-35.70341927373528
 21
24.06490963787027
 31
0.0
  0
LINE
  5
11D
330
2
100
AcDbEntity
  8
GAIKEI
  6
Continuous
 62
     1
100
AcDbLine
 10
-35.70341927373528
 20
25.66490963787027
 30
0.0
 11
-35.70341927373528
 21
25.26490963787026
 31
0.0
  0
LINE
  5
11E
330
2
100
AcDbEntity
  8
GAIKEI
  6
Continuous
 62
     1
100
AcDbLine
 10
-35.70341927373528
 20
26.86490963787026
 30
0.0
 11
-35.70341927373528
 21
26.46490963787028
 31
0.0
  0
LINE
  5
11F
330
2
100
AcDbEntity
  8
GAIKEI
  6
Continuous
 62
     1
100
AcDbLine
 10
-34.87341927373524
 20
25.66490963787027
 30
0.0
 11
-34.87341927373524
 21
26.46490963787028
 31
0.0
  0
LINE
  5
120
330
2
100
AcDbEntity
  8
GAIKEI
  6
Continuous
 62
     1
100
AcDbLine
 10
-34.87341927373524
 20
24.46490963787028
 30
0.0
 11
-34.87341927373524
 21
25.26490963787026
 31
0.0
  0
LINE
  5
121
330
2
100
AcDbEntity
  8
GAIKEI
  6
Continuous
 62
     1
100
AcDbLine
 10
-34.87341927373524
 20
23.26490963787026
 30
0.0
 11
-34.87341927373524
 21
24.06490963787027
 31
0.0
  0
LINE
  5
122
330
2
100
AcDbEntity
  8
GAIKEI
  6
Continuous
 62
     1
100
AcDbLine
 10
-34.87341927373524
 20
22.06490963787027
 30
0.0
 11
-34.87341927373524
 21
22.86490963787025
 31
0.0
  0
LINE
  5
123
330
2
100
AcDbEntity
  8
GAIKEI
  6
Continuous
 62
     1
100
AcDbLine
 10
-34.87341927373524
 20
20.86490963787026
 30
0.0
 11
-34.87341927373524
 21
21.66490963787027
 31
0.0
  0
LINE
  5
124
330
2
100
AcDbEntity
  8
GAIKEI
  6
Continuous
 62
     1
100
AcDbLine
 10
-34.87341927373524
 20
19.66490963787027
 30
0.0
 11
-34.87341927373524
 21
20.46490963787028
 31
0.0
  0
LINE
  5
125
330
2
100
AcDbEntity
  8
GAIKEI
  6
Continuous
 62
     1
100
AcDbLine
 10
-34.87341927373524
 20
18.46490963787028
 30
0.0
 11
-34.87341927373524
 21
19.26490963787026
 31
0.0
  0
LINE
  5
126
330
2
100
AcDbEntity
  8
GAIKEI
  6
Continuous
 62
     1
100
AcDbLine
 10
-34.87341927373524
 20
17.26490963787026
 30
0.0
 11
-34.87341927373524
 21
18.06490963787027
 31
0.0
  0
LINE
  5
127
330
2
100
AcDbEntity
  8
GAIKEI
  6
Continuous
 62
     1
100
AcDbLine
 10
-34.87341927373524
 20
16.06490963787027
 30
0.0
 11
-34.87341927373524
 21
16.86490963787025
 31
0.0
  0
LINE
  5
128
330
2
100
AcDbEntity
  8
GAIKEI
  6
Continuous
 62
     1
100
AcDbLine
 10
-34.87341927373524
 20
14.86490963787025
 30
0.0
 11
-34.87341927373524
 21
15.66490963787027
 31
0.0
  0
LINE
  5
129
330
2
100
AcDbEntity
  8
GAIKEI
  6
Continuous
 62
     1
100
AcDbLine
 10
-4.47341927373526
 20
12.80299103787027
 30
0.0
 11
-4.47341927373526
 21
14.46490963787027
 31
0.0
  0
LINE
  5
12A
330
2
100
AcDbEntity
  8
GAIKEI
  6
Continuous
 62
     1
100
AcDbLine
 10
-4.47341927373526
 20
26.86490963787026
 30
0.0
 11
-4.47341927373526
 21
28.46490963787028
 31
0.0
  0
LINE
  5
12B
330
2
100
AcDbEntity
  8
GAIKEI
  6
Continuous
 62
     1
100
AcDbLine
 10
33.11180541532963
 20
27.28490963787027
 30
0.0
 11
33.21180541532959
 21
27.28490963787027
 31
0.0
  0
LINE
  5
12C
330
2
100
AcDbEntity
  8
GAIKEI
  6
Continuous
 62
     1
100
AcDbLine
 10
33.11180541532963
 20
26.24490963787025
 30
0.0
 11
33.21180541532959
 21
26.24490963787025
 31
0.0
  0
LINE
  5
12D
330
2
100
AcDbEntity
  8
GAIKEI
  6
Continuous
 62
     1
100
AcDbLine
 10
33.11180541532963
 20
14.28490963787027
 30
0.0
 11
33.21180541532959
 21
14.28490963787027
 31
0.0
  0
LINE
  5
12E
330
2
100
AcDbEntity
  8
GAIKEI
  6
Continuous
 62
     1
100
AcDbLine
 10
33.11180541532963
 20
13.24490963787028
 30
0.0
 11
33.21180541532959
 21
13.24490963787028
 31
0.0
  0
LINE
  5
12F
330
2
100
AcDbEntity
  8
GAIKEI
  6
Continuous
 62
     1
100
AcDbLine
 10
33.21180541532959
 20
13.24490963787028
 30
0.0
 11
33.21180541532959
 21
14.28490963787027
 31
0.0
  0
LINE
  5
130
330
2
100
AcDbEntity
  8
GAIKEI
  6
Continuous
 62
     1
100
AcDbLine
 10
33.21180541532959
 20
26.24490963787025
 30
0.0
 11
33.21180541532959
 21
27.28490963787027
 31
0.0
  0
TEXT
  5
131
330
2
100
AcDbEntity
  8
MOJI1
100
AcDbText
 10
-60.64419788868566
 20
-29.42614603344154
 30
0.0
 40
3.0
  1
通信速度
100
AcDbText
  0
TEXT
  5
132
330
2
100
AcDbEntity
  8
MOJI1
100
AcDbText
 10
-20.64419788868571
 20
-29.42614603344154
 30
0.0
 40
3.0
  1
最大５４Ｍｂｐｓ（８０２．１１ａ　８０２．１１ｇの場合)
 41
0.8299999999999998
100
AcDbText
  0
LINE
  5
133
330
2
100
AcDbEntity
  8
WAKU
 62
     1
100
AcDbLine
 10
61.85580211131437
 20
-30.42614603344154
 30
0.0
 11
-63.14419788868566
 21
-30.42614603344154
 31
0.0
  0
TEXT
  5
135
330
2
100
AcDbEntity
  8
MOJI1
100
AcDbText
 10
-20.64419788868571
 20
-39.42614603344155
 30
0.0
 40
3.0
  1
１ポート（ＲＪ－４５コネクター）
 41
0.9
100
AcDbText
  0
LINE
  5
136
330
2
100
AcDbEntity
  8
WAKU
 62
     4
100
AcDbLine
 10
-22.93861665816729
 20
-55.42614603344131
 30
0.0
 11
-22.93861665816729
 21
-10.42614603344131
 31
0.0
  0
LINE
  5
137
330
2
100
AcDbEntity
  8
WAKU
 62
     4
100
AcDbLine
 10
61.85580211131437
 20
-55.42614603344154
 30
0.0
 11
61.85580211131437
 21
-10.42614603344154
 31
0.0
  0
LINE
  5
138
330
2
100
AcDbEntity
  8
WAKU
 62
     4
100
AcDbLine
 10
-63.14419788868566
 20
-10.42614603344154
 30
0.0
 11
-63.14419788868566
 21
-55.42614603344154
 31
0.0
  0
LINE
  5
139
330
2
100
AcDbEntity
  8
WAKU
 62
     1
100
AcDbLine
 10
61.85580211131437
 20
-15.42614603344154
 30
0.0
 11
-63.14419788868566
 21
-15.42614603344154
 31
0.0
  0
LINE
  5
13A
330
2
100
AcDbEntity
  8
WAKU
 62
     4
100
AcDbLine
 10
61.85580211131437
 20
-10.42614603344154
 30
0.0
 11
-63.14419788868566
 21
-10.42614603344154
 31
0.0
  0
LINE
  5
13B
330
2
100
AcDbEntity
  8
WAKU
 62
     1
100
AcDbLine
 10
61.85580211131437
 20
-20.42614603344154
 30
0.0
 11
-63.14419788868566
 21
-20.42614603344154
 31
0.0
  0
LINE
  5
13C
330
2
100
AcDbEntity
  8
WAKU
 62
     1
100
AcDbLine
 10
61.85580211131437
 20
-25.42614603344154
 30
0.0
 11
-63.14419788868566
 21
-25.42614603344154
 31
0.0
  0
LINE
  5
13D
330
2
100
AcDbEntity
  8
WAKU
 62
     1
100
AcDbLine
 10
61.85580211131437
 20
-35.42614603344154
 30
0.0
 11
-63.14419788868566
 21
-35.42614603344154
 31
0.0
  0
LINE
  5
13E
330
2
100
AcDbEntity
  8
WAKU
 62
     1
100
AcDbLine
 10
61.85580211131437
 20
-40.42614603344154
 30
0.0
 11
-63.14419788868566
 21
-40.42614603344154
 31
0.0
  0
LINE
  5
13F
330
2
100
AcDbEntity
  8
WAKU
 62
     1
100
AcDbLine
 10
61.85580211131437
 20
-45.42614603344154
 30
0.0
 11
-63.14419788868566
 21
-45.42614603344154
 31
0.0
  0
LINE
  5
140
330
2
100
AcDbEntity
  8
WAKU
 62
     4
100
AcDbLine
 10
-63.14419788868566
 20
-55.42614603344154
 30
0.0
 11
61.85580211131437
 21
-55.42614603344154
 31
0.0
  0
TEXT
  5
141
330
2
100
AcDbEntity
  8
MOJI1
100
AcDbText
 10
-60.64419788868566
 20
-14.42614603344154
 30
0.0
 40
3.0
  1
電　源
100
AcDbText
  0
TEXT
  5
142
330
2
100
AcDbEntity
  8
MOJI1
100
AcDbText
 10
-20.64419788868571
 20
-34.42614603344155
 30
0.0
 40
3.0
  1
最大１１Ｍｂｐｓ(８０２．１１ｂの場合)
100
AcDbText
  0
TEXT
  5
143
330
2
100
AcDbEntity
  8
MOJI1
100
AcDbText
 10
-60.64419788868566
 20
-54.42614603344154
 30
0.0
 40
3.0
  1
ＬＡＮ物理インターフェース
 41
0.7700000000000001
100
AcDbText
  0
TEXT
  5
144
330
2
100
AcDbEntity
  8
MOJI1
100
AcDbText
 10
-60.64419788868566
 20
-44.42614603344154
 30
0.0
 40
3.0
  1
ＷＡＮ物理インターフェース
 41
0.7700000000000001
100
AcDbText
  0
TEXT
  5
145
330
2
100
AcDbEntity
  8
MOJI1
100
AcDbText
 10
-60.64419788868566
 20
-19.42614603344154
 30
0.0
 40
3.0
  1
規　格
100
AcDbText
  0
TEXT
  5
146
330
2
100
AcDbEntity
  8
MOJI1
100
AcDbText
 10
-60.64419788868566
 20
-24.42614603344154
 30
0.0
 40
3.0
  1
チャンネル数
100
AcDbText
  0
TEXT
  5
147
330
2
100
AcDbEntity
  8
MOJI1
100
AcDbText
 10
-60.64419788868566
 20
-39.42614603344155
 30
0.0
 40
3.0
  1
ＷＡＮポート数
100
AcDbText
  0
TEXT
  5
148
330
2
100
AcDbEntity
  8
MOJI1
100
AcDbText
 10
-20.64419788868571
 20
-44.42614603344154
 30
0.0
 40
3.0
  1
１０Bａｓｅ－Ｔ １００Ｂａｓｅ－ＴＸ
100
AcDbText
  0
TEXT
  5
149
330
2
100
AcDbEntity
  8
MOJI1
100
AcDbText
 10
-20.64419788868571
 20
-19.42614603344154
 30
0.0
 40
3.0
  1
ＩＥＥＥ８０２．１１ａ ＩＥＥＥ８０２．１１ｂ ＩＥＥＥ８０２．１１ｇ準拠
 41
0.6200000000000001
100
AcDbText
  0
TEXT
  5
14A
330
2
100
AcDbEntity
  8
MOJI1
100
AcDbText
 10
-19.64419788868571
 20
-14.42614603344154
 30
0.0
 40
3.0
  1
ＡＣ１００Ｖ　５０／６０Ｈｚ
100
AcDbText
  0
TEXT
  5
14B
330
2
100
AcDbEntity
  8
MOJI1
100
AcDbText
 10
-20.64419788868571
 20
-49.42614603344154
 30
0.0
 40
3.0
  1
４ポート（ＲＪ－４５）コネクター
100
AcDbText
  0
TEXT
  5
14C
330
2
100
AcDbEntity
  8
MOJI1
100
AcDbText
 10
-60.64419788868566
 20
-49.42614603344154
 30
0.0
 40
3.0
  1
ＬＡＮポート数
100
AcDbText
  0
TEXT
  5
14D
330
2
100
AcDbEntity
  8
MOJI1
100
AcDbText
 10
-20.64419788868571
 20
-24.42614603344154
 30
0.0
 40
3.0
  1
１３ｃｈ（８０２．１１ｂ／ｇ）４ｃｈ(８０２．１１ａ） 
 41
0.85
100
AcDbText
  0
LINE
  5
14E
330
2
100
AcDbEntity
  8
WAKU
 62
     1
100
AcDbLine
 10
61.85580211131437
 20
-50.42614603344154
 30
0.0
 11
-63.14419788868566
 21
-50.42614603344154
 31
0.0
  0
TEXT
  5
14F
330
2
100
AcDbEntity
  8
MOJI1
100
AcDbText
 10
-20.64419788868571
 20
-54.42614603344154
 30
0.0
 40
3.0
  1
１０Bａｓｅ－Ｔ １００Ｂａｓｅ－ＴＸ
100
AcDbText
  0
ENDSEC
  0
SECTION
  2
OBJECTS
  0
DICTIONARY
  5
9
330
0
100
AcDbDictionary
281
     1
  3
ACAD_COLOR
350
31
  3
ACAD_GROUP
350
2D
  3
ACAD_LAYOUT
350
D
  3
ACAD_MATERIAL
350
30
  3
ACAD_MLINESTYLE
350
2E
  3
ACAD_PLOTSETTINGS
350
2F
  3
ACAD_PLOTSTYLENAME
350
8
  3
ACDBHEADERROUNDTRIPXREC
350
18C
  3
AcDbVariableDictionary
350
187
  0
DICTIONARY
  5
15
330
14
100
AcDbDictionary
280
     1
281
     1
  3
ACAD_LAYERFILTERS
360
16
  3
ACAD_LAYERSTATES
360
17
  0
DICTIONARY
  5
3
330
2
100
AcDbDictionary
280
     1
281
     1
  3
ACAD_LAYOUTSELFREF
360
4
  0
DICTIONARY
  5
F
330
E
100
AcDbDictionary
280
     1
281
     1
  3
ACAD_LAYOUTSELFREF
360
10
  0
DICTIONARY
  5
31
102
{ACAD_REACTORS
330
9
102
}
330
9
100
AcDbDictionary
281
     1
  0
DICTIONARY
  5
2D
102
{ACAD_REACTORS
330
9
102
}
330
9
100
AcDbDictionary
281
     1
  0
DICTIONARY
  5
D
102
{ACAD_REACTORS
330
9
102
}
330
9
100
AcDbDictionary
281
     1
  3
Model
350
C
  3
ﾚｲｱｳﾄ1
350
13
  0
DICTIONARY
  5
30
102
{ACAD_REACTORS
330
9
102
}
330
9
100
AcDbDictionary
281
     1
  0
DICTIONARY
  5
2E
102
{ACAD_REACTORS
330
9
102
}
330
9
100
AcDbDictionary
281
     1
  3
STANDARD
350
33
  0
DICTIONARY
  5
2F
102
{ACAD_REACTORS
330
9
102
}
330
9
100
AcDbDictionary
281
     1
  0
ACDBDICTIONARYWDFLT
  5
8
102
{ACAD_REACTORS
330
9
102
}
330
9
100
AcDbDictionary
281
     1
  3
Normal
350
7
100
AcDbDictionaryWithDefault
340
7
  0
DICTIONARY
  5
18C
102
{ACAD_REACTORS
330
9
102
}
330
9
100
AcDbDictionary
281
     1
  3
COLORDICT
350
18E
  3
MATERIALDICT
350
18D
  0
DICTIONARY
  5
187
102
{ACAD_REACTORS
330
9
102
}
330
9
100
AcDbDictionary
281
     1
  3
DIMASSOC
350
189
  3
HIDETEXT
350
188
  3
PROJECTNAME
350
18A
  0
DICTIONARY
  5
16
102
{ACAD_REACTORS
330
15
102
}
330
15
100
AcDbDictionary
280
     1
281
     1
  0
DICTIONARY
  5
17
102
{ACAD_REACTORS
330
15
102
}
330
15
100
AcDbDictionary
281
     1
  0
XRECORD
  5
4
102
{ACAD_REACTORS
330
3
102
}
330
3
100
AcDbXrecord
280
     1
340
2
  0
XRECORD
  5
10
102
{ACAD_REACTORS
330
F
102
}
330
F
100
AcDbXrecord
280
     1
340
E
  0
LAYOUT
  5
C
102
{ACAD_XDICTIONARY
360
18F
102
}
102
{ACAD_REACTORS
330
D
102
}
330
D
100
AcDbPlotSettings
  1

  2
\\URANUS\8FPAM09
  4
A4
  6

 40
4.180416584014891
 41
4.349743366241455
 42
4.222747802734375
 43
4.349761962890625
 44
210.0156707763672
 45
297.0106506347656
 46
6.08
 47
0.0
 48
-4.081672432805361
 49
-3.962786491116958
140
262.2093763083678
141
394.6340021064198
142
1.0
143
1.367741666490767
 70
 11956
 72
     1
 73
     0
 74
     1
  7
tmsacad.ctb
 75
     0
147
0.7311322192630961
148
-77.50331774332335
149
107.6497320618591
100
AcDbLayout
  1
Model
 70
     1
 71
     0
 10
0.0
 20
0.0
 11
12.0
 21
9.0
 12
0.0
 22
0.0
 32
0.0
 14
0.0
 24
0.0
 34
0.0
 15
0.0
 25
0.0
 35
0.0
146
0.0
 13
0.0
 23
0.0
 33
0.0
 16
1.0
 26
0.0
 36
0.0
 17
0.0
 27
1.0
 37
0.0
 76
     0
330
2
  0
LAYOUT
  5
13
102
{ACAD_XDICTIONARY
360
191
102
}
102
{ACAD_REACTORS
330
D
102
}
330
D
100
AcDbPlotSettings
  1

  2
C:\Program Files\ACAD2000\plotters\DWF ePlot.pc3
  4

  6

 40
0.0
 41
0.0
 42
0.0
 43
0.0
 44
0.0
 45
0.0
 46
0.0
 47
0.0
 48
0.0
 49
0.0
140
0.0
141
0.0
142
1.0
143
1.0
 70
   688
 72
     0
 73
     0
 74
     5
  7
tmsacad.ctb
 75
    16
147
1.0
148
0.0
149
0.0
100
AcDbLayout
  1
ﾚｲｱｳﾄ1
 70
     1
 71
     1
 10
0.0
 20
0.0
 11
12.0
 21
9.0
 12
0.0
 22
0.0
 32
0.0
 14
1.000000000000000E+20
 24
1.000000000000000E+20
 34
1.000000000000000E+20
 15
-1.000000000000000E+20
 25
-1.000000000000000E+20
 35
-1.000000000000000E+20
146
0.0
 13
0.0
 23
0.0
 33
0.0
 16
1.0
 26
0.0
 36
0.0
 17
0.0
 27
1.0
 37
0.0
 76
     0
330
E
  0
MLINESTYLE
  5
33
102
{ACAD_REACTORS
330
2E
102
}
330
2E
100
AcDbMlineStyle
  2
STANDARD
 70
     0
  3

 62
   256
 51
90.0
 52
90.0
 71
     2
 49
0.5
 62
   256
  6
BYLAYER
 49
-0.5
 62
   256
  6
BYLAYER
  0
ACDBPLACEHOLDER
  5
7
102
{ACAD_REACTORS
330
8
102
}
330
8
  0
XRECORD
  5
18E
102
{ACAD_REACTORS
330
18C
102
}
330
18C
100
AcDbXrecord
280
     1
340
31
  0
XRECORD
  5
18D
102
{ACAD_REACTORS
330
18C
102
}
330
18C
100
AcDbXrecord
280
     1
340
30
  0
DICTIONARYVAR
  5
189
102
{ACAD_REACTORS
330
187
102
}
330
187
100
DictionaryVariables
280
     0
  1
1
  0
DICTIONARYVAR
  5
188
102
{ACAD_REACTORS
330
187
102
}
330
187
100
DictionaryVariables
280
     0
  1
1
  0
DICTIONARYVAR
  5
18A
102
{ACAD_REACTORS
330
187
102
}
330
187
100
DictionaryVariables
280
     0
  1

  0
DICTIONARY
  5
18F
330
C
100
AcDbDictionary
280
     1
281
     1
  3
ACAD_XREC_ROUNDTRIP
360
190
  0
DICTIONARY
  5
191
330
13
100
AcDbDictionary
280
     1
281
     1
  3
ACAD_XREC_ROUNDTRIP
360
192
  0
XRECORD
  5
190
102
{ACAD_REACTORS
330
18F
102
}
330
18F
100
AcDbXrecord
280
     1
102
SHADEPLOT
 70
     0
102
SHADEPLOTRESLEVEL
 70
     2
102
SHADEPLOTCUSTOMDPI
 70
   300
  0
XRECORD
  5
192
102
{ACAD_REACTORS
330
191
102
}
330
191
100
AcDbXrecord
280
     1
102
SHADEPLOT
 70
     0
102
SHADEPLOTRESLEVEL
 70
     2
102
SHADEPLOTCUSTOMDPI
 70
   300
  0
ENDSEC
  0
EOF
