  0
SECTION
  2
HEADER
  9
$ACADVER
  1
AC1015
  9
$ACADMAINTVER
 70
    20
  9
$DWGCODEPAGE
  3
ANSI_932
  9
$INSBASE
 10
207.0721640016629
 20
12.94225269172784
 30
0.0
  9
$EXTMIN
 10
-56.95870162730989
 20
-52.96317277905564
 30
-0.0015258207003583
  9
$EXTMAX
 10
68.12180734265485
 20
60.89079146087624
 30
0.0000000349246037
  9
$LIMMIN
 10
-1101.784450318844
 20
-1579.160531687244
  9
$LIMMAX
 10
-508.2420711400536
 20
-1161.440814074914
  9
$ORTHOMODE
 70
     1
  9
$REGENMODE
 70
     1
  9
$FILLMODE
 70
     1
  9
$QTEXTMODE
 70
     0
  9
$MIRRTEXT
 70
     1
  9
$LTSCALE
 40
1.0
  9
$ATTMODE
 70
     1
  9
$TEXTSIZE
 40
3.0
  9
$TRACEWID
 40
0.5
  9
$TEXTSTYLE
  7
STANDARD
  9
$CLAYER
  8
SUNPO
  9
$CELTYPE
  6
BYLAYER
  9
$CECOLOR
 62
   256
  9
$CELTSCALE
 40
1.0
  9
$DISPSILH
 70
     0
  9
$DIMSCALE
 40
1.0
  9
$DIMASZ
 40
2.0
  9
$DIMEXO
 40
2.0
  9
$DIMDLI
 40
8.0
  9
$DIMRND
 40
0.0
  9
$DIMDLE
 40
0.0
  9
$DIMEXE
 40
2.0
  9
$DIMTP
 40
0.0
  9
$DIMTM
 40
0.0
  9
$DIMTXT
 40
2.5
  9
$DIMCEN
 40
0.0
  9
$DIMTSZ
 40
0.0
  9
$DIMTOL
 70
     0
  9
$DIMLIM
 70
     0
  9
$DIMTIH
 70
     0
  9
$DIMTOH
 70
     0
  9
$DIMSE1
 70
     0
  9
$DIMSE2
 70
     0
  9
$DIMTAD
 70
     3
  9
$DIMZIN
 70
     0
  9
$DIMBLK
  1

  9
$DIMASO
 70
     1
  9
$DIMSHO
 70
     1
  9
$DIMPOST
  1

  9
$DIMAPOST
  1

  9
$DIMALT
 70
     0
  9
$DIMALTD
 70
     2
  9
$DIMALTF
 40
25.4
  9
$DIMLFAC
 40
1.0
  9
$DIMTOFL
 70
     1
  9
$DIMTVP
 40
0.0
  9
$DIMTIX
 70
     0
  9
$DIMSOXD
 70
     0
  9
$DIMSAH
 70
     1
  9
$DIMBLK1
  1
OPEN30
  9
$DIMBLK2
  1
OPEN30
  9
$DIMSTYLE
  2
STANDARD
  9
$DIMCLRD
 70
     0
  9
$DIMCLRE
 70
     0
  9
$DIMCLRT
 70
     0
  9
$DIMTFAC
 40
1.0
  9
$DIMGAP
 40
0.5
  9
$DIMJUST
 70
     0
  9
$DIMSD1
 70
     0
  9
$DIMSD2
 70
     0
  9
$DIMTOLJ
 70
     1
  9
$DIMTZIN
 70
     0
  9
$DIMALTZ
 70
     0
  9
$DIMALTTZ
 70
     0
  9
$DIMUPT
 70
     0
  9
$DIMDEC
 70
     4
  9
$DIMTDEC
 70
     4
  9
$DIMALTU
 70
     2
  9
$DIMALTTD
 70
     2
  9
$DIMTXSTY
  7
STANDARD
  9
$DIMAUNIT
 70
     0
  9
$DIMADEC
 70
     0
  9
$DIMALTRND
 40
0.0
  9
$DIMAZIN
 70
     0
  9
$DIMDSEP
 70
    46
  9
$DIMATFIT
 70
     3
  9
$DIMFRAC
 70
     0
  9
$DIMLDRBLK
  1
OPEN30
  9
$DIMLUNIT
 70
     2
  9
$DIMLWD
 70
    -2
  9
$DIMLWE
 70
    -2
  9
$DIMTMOVE
 70
     0
  9
$LUNITS
 70
     2
  9
$LUPREC
 70
     4
  9
$SKETCHINC
 40
0.1
  9
$FILLETRAD
 40
0.0
  9
$AUNITS
 70
     0
  9
$AUPREC
 70
     0
  9
$MENU
  1
ACAD
  9
$ELEVATION
 40
0.0
  9
$PELEVATION
 40
0.0
  9
$THICKNESS
 40
0.0
  9
$LIMCHECK
 70
     0
  9
$CHAMFERA
 40
0.0
  9
$CHAMFERB
 40
0.0
  9
$CHAMFERC
 40
0.0
  9
$CHAMFERD
 40
0.0
  9
$SKPOLY
 70
     0
  9
$TDCREATE
 40
2451815.565532581
  9
$TDUCREATE
 40
2451815.190532581
  9
$TDUPDATE
 40
2453775.588507662
  9
$TDUUPDATE
 40
2453775.213507662
  9
$TDINDWG
 40
1.1046040278
  9
$TDUSRTIMER
 40
1.1045973380
  9
$USRTIMER
 70
     1
  9
$ANGBASE
 50
0.0
  9
$ANGDIR
 70
     0
  9
$PDMODE
 70
     0
  9
$PDSIZE
 40
0.0
  9
$PLINEWID
 40
0.0
  9
$SPLFRAME
 70
     0
  9
$SPLINETYPE
 70
     6
  9
$SPLINESEGS
 70
     8
  9
$HANDSEED
  5
14D
  9
$SURFTAB1
 70
     6
  9
$SURFTAB2
 70
     6
  9
$SURFTYPE
 70
     6
  9
$SURFU
 70
     6
  9
$SURFV
 70
     6
  9
$UCSBASE
  2

  9
$UCSNAME
  2

  9
$UCSORG
 10
0.0
 20
0.0
 30
0.0
  9
$UCSXDIR
 10
1.0
 20
0.0
 30
0.0
  9
$UCSYDIR
 10
0.0
 20
1.0
 30
0.0
  9
$UCSORTHOREF
  2

  9
$UCSORTHOVIEW
 70
     0
  9
$UCSORGTOP
 10
0.0
 20
0.0
 30
0.0
  9
$UCSORGBOTTOM
 10
0.0
 20
0.0
 30
0.0
  9
$UCSORGLEFT
 10
0.0
 20
0.0
 30
0.0
  9
$UCSORGRIGHT
 10
0.0
 20
0.0
 30
0.0
  9
$UCSORGFRONT
 10
0.0
 20
0.0
 30
0.0
  9
$UCSORGBACK
 10
0.0
 20
0.0
 30
0.0
  9
$PUCSBASE
  2

  9
$PUCSNAME
  2

  9
$PUCSORG
 10
0.0
 20
0.0
 30
0.0
  9
$PUCSXDIR
 10
1.0
 20
0.0
 30
0.0
  9
$PUCSYDIR
 10
0.0
 20
1.0
 30
0.0
  9
$PUCSORTHOREF
  2

  9
$PUCSORTHOVIEW
 70
     0
  9
$PUCSORGTOP
 10
0.0
 20
0.0
 30
0.0
  9
$PUCSORGBOTTOM
 10
0.0
 20
0.0
 30
0.0
  9
$PUCSORGLEFT
 10
0.0
 20
0.0
 30
0.0
  9
$PUCSORGRIGHT
 10
0.0
 20
0.0
 30
0.0
  9
$PUCSORGFRONT
 10
0.0
 20
0.0
 30
0.0
  9
$PUCSORGBACK
 10
0.0
 20
0.0
 30
0.0
  9
$USERI1
 70
     0
  9
$USERI2
 70
     0
  9
$USERI3
 70
     0
  9
$USERI4
 70
     0
  9
$USERI5
 70
     0
  9
$USERR1
 40
0.0
  9
$USERR2
 40
0.0
  9
$USERR3
 40
0.0
  9
$USERR4
 40
0.0
  9
$USERR5
 40
0.0
  9
$WORLDVIEW
 70
     1
  9
$SHADEDGE
 70
     3
  9
$SHADEDIF
 70
    70
  9
$TILEMODE
 70
     1
  9
$MAXACTVP
 70
    48
  9
$PINSBASE
 10
0.0
 20
0.0
 30
0.0
  9
$PLIMCHECK
 70
     0
  9
$PEXTMIN
 10
1.000000000000000E+20
 20
1.000000000000000E+20
 30
1.000000000000000E+20
  9
$PEXTMAX
 10
-1.000000000000000E+20
 20
-1.000000000000000E+20
 30
-1.000000000000000E+20
  9
$PLIMMIN
 10
0.0
 20
0.0
  9
$PLIMMAX
 10
12.0
 20
9.0
  9
$UNITMODE
 70
     0
  9
$VISRETAIN
 70
     1
  9
$PLINEGEN
 70
     0
  9
$PSLTSCALE
 70
     1
  9
$TREEDEPTH
 70
  3020
  9
$CMLSTYLE
  2
STANDARD
  9
$CMLJUST
 70
     0
  9
$CMLSCALE
 40
1.0
  9
$PROXYGRAPHICS
 70
     1
  9
$MEASUREMENT
 70
     0
  9
$CELWEIGHT
370
    -1
  9
$ENDCAPS
280
     0
  9
$JOINSTYLE
280
     0
  9
$LWDISPLAY
290
     0
  9
$INSUNITS
 70
     0
  9
$HYPERLINKBASE
  1

  9
$STYLESHEET
  1

  9
$XEDIT
290
     1
  9
$CEPSNTYPE
380
     0
  9
$PSTYLEMODE
290
     1
  9
$FINGERPRINTGUID
  2
{1754B7AB-9B3C-11D4-AD9E-00104B1004F2}
  9
$VERSIONGUID
  2
{4D53DDE7-63B2-442F-92D9-E0E26CAA9987}
  9
$EXTNAMES
290
     1
  9
$PSVPSCALE
 40
0.0
  9
$OLESTARTUP
290
     0
  0
ENDSEC
  0
SECTION
  2
CLASSES
  0
CLASS
  1
ACDBDICTIONARYWDFLT
  2
AcDbDictionaryWithDefault
  3
ObjectDBX Classes
 90
        0
280
     0
281
     0
  0
CLASS
  1
ACDBPLACEHOLDER
  2
AcDbPlaceHolder
  3
ObjectDBX Classes
 90
        0
280
     0
281
     0
  0
CLASS
  1
LAYOUT
  2
AcDbLayout
  3
ObjectDBX Classes
 90
        0
280
     0
281
     0
  0
CLASS
  1
DICTIONARYVAR
  2
AcDbDictionaryVar
  3
ObjectDBX Classes
 90
        0
280
     0
281
     0
  0
ENDSEC
  0
SECTION
  2
TABLES
  0
TABLE
  2
VPORT
  5
20
330
0
100
AcDbSymbolTable
 70
     3
  0
VPORT
  5
145
330
20
100
AcDbSymbolTableRecord
100
AcDbViewportTableRecord
  2
*Active
 70
     0
 10
0.0
 20
0.0
 11
1.0
 21
1.0
 12
5.581552857672466
 22
3.963809340910302
 13
0.0
 23
0.0
 14
1.0
 24
1.0
 15
0.0
 25
0.0
 16
0.0
 26
0.0
 36
1.0
 17
0.0
 27
0.0
 37
0.0
 40
114.7539955777969
 41
1.447229551451187
 42
50.0
 43
0.0
 44
0.0
 50
0.0
 51
0.0
 71
     0
 72
 10000
 73
     1
 74
     0
 75
     0
 76
     1
 77
     0
 78
     0
281
     0
 65
     1
110
0.0
120
0.0
130
0.0
111
1.0
121
0.0
131
0.0
112
0.0
122
1.0
132
0.0
 79
     0
146
0.0
  0
ENDTAB
  0
TABLE
  2
LTYPE
  5
1B
330
0
100
AcDbSymbolTable
 70
     1
  0
LTYPE
  5
1C
330
1B
100
AcDbSymbolTableRecord
100
AcDbLinetypeTableRecord
  2
BYBLOCK
 70
     0
  3

 72
    65
 73
     0
 40
0.0
  0
LTYPE
  5
1D
330
1B
100
AcDbSymbolTableRecord
100
AcDbLinetypeTableRecord
  2
BYLAYER
 70
     0
  3

 72
    65
 73
     0
 40
0.0
  0
LTYPE
  5
A
330
1B
100
AcDbSymbolTableRecord
100
AcDbLinetypeTableRecord
  2
CONTINUOUS
 70
     0
  3
Solid line
 72
    65
 73
     0
 40
0.0
  0
ENDTAB
  0
TABLE
  2
LAYER
  5
14
102
{ACAD_XDICTIONARY
360
15
102
}
330
0
100
AcDbSymbolTable
 70
     7
  0
LAYER
  5
6
330
14
100
AcDbSymbolTableRecord
100
AcDbLayerTableRecord
  2
0
 70
     0
 62
     7
  6
CONTINUOUS
370
    -3
390
7
  0
LAYER
  5
CD
330
14
100
AcDbSymbolTableRecord
100
AcDbLayerTableRecord
  2
DEFPOINTS
 70
     0
 62
     7
  6
CONTINUOUS
290
     0
370
    -3
390
7
  0
LAYER
  5
EF
330
14
100
AcDbSymbolTableRecord
100
AcDbLayerTableRecord
  2
WAKU
 70
     0
 62
     4
  6
CONTINUOUS
370
    -3
390
7
  0
LAYER
  5
35
330
14
100
AcDbSymbolTableRecord
100
AcDbLayerTableRecord
  2
MOJI1
 70
     0
 62
     2
  6
CONTINUOUS
370
    -3
390
7
  0
LAYER
  5
39
330
14
100
AcDbSymbolTableRecord
100
AcDbLayerTableRecord
  2
GAIKEI
 70
     0
 62
     7
  6
CONTINUOUS
370
    -3
390
7
  0
LAYER
  5
37
330
14
100
AcDbSymbolTableRecord
100
AcDbLayerTableRecord
  2
TOUROKU
 70
     0
 62
     1
  6
CONTINUOUS
370
    -3
390
7
  0
LAYER
  5
32
330
14
100
AcDbSymbolTableRecord
100
AcDbLayerTableRecord
  2
SUNPO
 70
     0
 62
     3
  6
CONTINUOUS
370
    -3
390
7
  0
ENDTAB
  0
TABLE
  2
STYLE
  5
18
330
0
100
AcDbSymbolTable
 70
     1
  0
STYLE
  5
19
330
18
100
AcDbSymbolTableRecord
100
AcDbTextStyleTableRecord
  2
STANDARD
 70
     0
 40
0.0
 41
1.0
 50
0.0
 71
     0
 42
3.0
  3
MONOTXT.shx
  4
BIGFONT.shx
  0
ENDTAB
  0
TABLE
  2
VIEW
  5
1E
330
0
100
AcDbSymbolTable
 70
     0
  0
ENDTAB
  0
TABLE
  2
UCS
  5
1F
330
0
100
AcDbSymbolTable
 70
     0
  0
ENDTAB
  0
TABLE
  2
APPID
  5
22
330
0
100
AcDbSymbolTable
 70
     1
  0
APPID
  5
23
330
22
100
AcDbSymbolTableRecord
100
AcDbRegAppTableRecord
  2
ACAD
 70
     0
  0
ENDTAB
  0
TABLE
  2
DIMSTYLE
  5
24
330
0
100
AcDbSymbolTable
 70
     1
100
AcDbDimStyleTable
 71
     1
340
25
  0
DIMSTYLE
105
25
102
{ACAD_REACTORS
330
C3
330
D1
330
DE
102
}
330
24
100
AcDbSymbolTableRecord
100
AcDbDimStyleTableRecord
  2
STANDARD
 70
     0
 40
0.0
 41
2.0
 42
2.0
 43
8.0
 44
2.0
 73
     0
 74
     0
 77
     3
140
3.0
141
0.0
173
     1
279
     2
288
     1
340
19
341
26
343
26
344
26
  0
ENDTAB
  0
TABLE
  2
BLOCK_RECORD
  5
1
330
0
100
AcDbSymbolTable
 70
     7
  0
BLOCK_RECORD
  5
2
102
{ACAD_XDICTIONARY
360
3
102
}
330
1
100
AcDbSymbolTableRecord
100
AcDbBlockTableRecord
  2
*MODEL_SPACE
340
C
  0
BLOCK_RECORD
  5
E
102
{ACAD_XDICTIONARY
360
F
102
}
330
1
100
AcDbSymbolTableRecord
100
AcDbBlockTableRecord
  2
*PAPER_SPACE
340
13
  0
BLOCK_RECORD
  5
26
330
1
100
AcDbSymbolTableRecord
100
AcDbBlockTableRecord
  2
_OPEN30
340
0
102
{BLKREFS
331
C9
331
CA
331
D7
331
D8
331
E5
331
E6
331
121
331
122
331
12D
331
12E
331
139
331
13A
102
}
  0
BLOCK_RECORD
  5
C4
330
1
100
AcDbSymbolTableRecord
100
AcDbBlockTableRecord
  2
*D1
340
0
  0
BLOCK_RECORD
  5
D2
330
1
100
AcDbSymbolTableRecord
100
AcDbBlockTableRecord
  2
*D2
340
0
  0
BLOCK_RECORD
  5
DF
330
1
100
AcDbSymbolTableRecord
100
AcDbBlockTableRecord
  2
*D3
340
0
  0
BLOCK_RECORD
  5
11C
330
1
100
AcDbSymbolTableRecord
100
AcDbBlockTableRecord
  2
*D4
340
0
  0
BLOCK_RECORD
  5
129
330
1
100
AcDbSymbolTableRecord
100
AcDbBlockTableRecord
  2
*D5
340
0
  0
BLOCK_RECORD
  5
135
330
1
100
AcDbSymbolTableRecord
100
AcDbBlockTableRecord
  2
*D6
340
0
  0
ENDTAB
  0
ENDSEC
  0
SECTION
  2
BLOCKS
  0
BLOCK
  5
5
330
2
100
AcDbEntity
  8
0
100
AcDbBlockBegin
  2
*MODEL_SPACE
 70
     0
 10
0.0
 20
0.0
 30
0.0
  3
*MODEL_SPACE
  1

  0
ENDBLK
  5
B
330
2
100
AcDbEntity
  8
0
100
AcDbBlockEnd
  0
BLOCK
  5
11
330
E
100
AcDbEntity
 67
     1
  8
0
100
AcDbBlockBegin
  2
*PAPER_SPACE
 70
     0
 10
0.0
 20
0.0
 30
0.0
  3
*PAPER_SPACE
  1

  0
ENDBLK
  5
12
330
E
100
AcDbEntity
 67
     1
  8
0
100
AcDbBlockEnd
  0
BLOCK
  5
27
330
26
100
AcDbEntity
  8
0
100
AcDbBlockBegin
  2
_OPEN30
 70
     0
 10
0.0
 20
0.0
 30
0.0
  3
_OPEN30
  1

  0
LINE
  5
28
330
26
100
AcDbEntity
  8
0
  6
ByBlock
 62
     0
100
AcDbLine
 10
-1.0
 20
0.26794919
 30
0.0
 11
0.0
 21
0.0
 31
0.0
  0
LINE
  5
29
330
26
100
AcDbEntity
  8
0
  6
ByBlock
 62
     0
100
AcDbLine
 10
0.0
 20
0.0
 30
0.0
 11
-1.0
 21
-0.26794919
 31
0.0
  0
LINE
  5
2A
330
26
100
AcDbEntity
  8
0
  6
ByBlock
 62
     0
100
AcDbLine
 10
0.0
 20
0.0
 30
0.0
 11
-1.0
 21
0.0
 31
0.0
  0
ENDBLK
  5
2B
330
26
100
AcDbEntity
  8
0
100
AcDbBlockEnd
  0
BLOCK
  5
C5
330
C4
100
AcDbEntity
  8
0
100
AcDbBlockBegin
  2
*D1
 70
     1
 10
0.0
 20
0.0
 30
0.0
  3
*D1
  1

  0
LINE
  5
C6
330
C4
100
AcDbEntity
  8
SUNPO
 62
     0
370
    -2
100
AcDbLine
 10
238.394467125103
 20
-20.63117616359944
 30
0.0
 11
238.394467125103
 21
-12.63117616359943
 31
0.0
  0
LINE
  5
C7
330
C4
100
AcDbEntity
  8
SUNPO
 62
     0
370
    -2
100
AcDbLine
 10
258.394467125103
 20
-20.63117616359944
 30
0.0
 11
258.394467125103
 21
-12.63117616359943
 31
0.0
  0
LINE
  5
C8
330
C4
100
AcDbEntity
  8
SUNPO
 62
     0
370
    -2
100
AcDbLine
 10
240.394467125103
 20
-14.63117616359943
 30
0.0
 11
256.394467125103
 21
-14.63117616359943
 31
0.0
  0
INSERT
  5
C9
330
C4
100
AcDbEntity
  8
SUNPO
 62
     0
370
    -2
100
AcDbBlockReference
  2
_OPEN30
 10
238.394467125103
 20
-14.63117616359943
 30
0.0
 41
2.0
 42
2.0
 43
2.0
 50
180.0
  0
INSERT
  5
CA
330
C4
100
AcDbEntity
  8
SUNPO
 62
     0
370
    -2
100
AcDbBlockReference
  2
_OPEN30
 10
258.394467125103
 20
-14.63117616359943
 30
0.0
 41
2.0
 42
2.0
 43
2.0
  0
MTEXT
  5
CB
330
C4
100
AcDbEntity
  8
SUNPO
 62
     0
100
AcDbMText
 10
248.394467125103
 20
-12.88117616359943
 30
0.0
 40
2.5
 41
0.0
 71
     5
 72
     1
  1
\A1;100
 73
     1
 44
1.0
1001
ACAD
1000
MTEXTBEGIN
1070
    73
1070
     1
1070
    44
1040
1.0
1070
    74
1070
     0
1000
MTEXTEND
  0
POINT
  5
CC
330
C4
100
AcDbEntity
  8
DEFPOINTS
 62
     0
100
AcDbPoint
 10
238.394467125103
 20
-22.63117616359943
 30
0.0
  0
POINT
  5
CE
330
C4
100
AcDbEntity
  8
DEFPOINTS
 62
     0
100
AcDbPoint
 10
258.394467125103
 20
-22.63117616359943
 30
0.0
  0
POINT
  5
CF
330
C4
100
AcDbEntity
  8
DEFPOINTS
 62
     0
100
AcDbPoint
 10
258.394467125103
 20
-14.63117616359943
 30
0.0
  0
ENDBLK
  5
D0
330
C4
100
AcDbEntity
  8
0
100
AcDbBlockEnd
  0
BLOCK
  5
D3
330
D2
100
AcDbEntity
  8
0
100
AcDbBlockBegin
  2
*D2
 70
     1
 10
0.0
 20
0.0
 30
0.0
  3
*D2
  1

  0
LINE
  5
D4
330
D2
100
AcDbEntity
  8
SUNPO
 62
     0
370
    -2
100
AcDbLine
 10
260.394759344856
 20
-47.23681616401733
 30
0.0
 11
268.394759344856
 21
-47.23681616401733
 31
0.0
  0
LINE
  5
D5
330
D2
100
AcDbEntity
  8
SUNPO
 62
     0
370
    -2
100
AcDbLine
 10
260.394759344856
 20
-22.63681616401732
 30
0.0
 11
268.394759344856
 21
-22.63681616401732
 31
0.0
  0
LINE
  5
D6
330
D2
100
AcDbEntity
  8
SUNPO
 62
     0
370
    -2
100
AcDbLine
 10
266.394759344856
 20
-45.23681616401733
 30
0.0
 11
266.394759344856
 21
-24.63681616401732
 31
0.0
  0
INSERT
  5
D7
330
D2
100
AcDbEntity
  8
SUNPO
 62
     0
370
    -2
100
AcDbBlockReference
  2
_OPEN30
 10
266.394759344856
 20
-47.23681616401733
 30
0.0
 41
2.0
 42
2.0
 43
2.0
 50
270.0
  0
INSERT
  5
D8
330
D2
100
AcDbEntity
  8
SUNPO
 62
     0
370
    -2
100
AcDbBlockReference
  2
_OPEN30
 10
266.394759344856
 20
-22.63681616401732
 30
0.0
 41
2.0
 42
2.0
 43
2.0
 50
90.0
  0
MTEXT
  5
D9
330
D2
100
AcDbEntity
  8
SUNPO
 62
     0
100
AcDbMText
 10
264.644759344856
 20
-34.93681616401728
 30
0.0
 40
2.5
 41
0.0
 71
     5
 72
     1
  1
\A1;123
 11
0.0000000000000001
 21
1.0
 31
0.0
 73
     1
 44
1.0
1001
ACAD
1000
MTEXTBEGIN
1070
    73
1070
     1
1070
    44
1040
1.0
1070
    74
1070
     0
1000
MTEXTEND
  0
POINT
  5
DA
330
D2
100
AcDbEntity
  8
DEFPOINTS
 62
     0
100
AcDbPoint
 10
258.394759344856
 20
-47.23681616401733
 30
0.0
  0
POINT
  5
DB
330
D2
100
AcDbEntity
  8
DEFPOINTS
 62
     0
100
AcDbPoint
 10
258.394759344856
 20
-22.63681616401732
 30
0.0
  0
POINT
  5
DC
330
D2
100
AcDbEntity
  8
DEFPOINTS
 62
     0
100
AcDbPoint
 10
266.394759344856
 20
-22.63681616401732
 30
0.0
  0
ENDBLK
  5
DD
330
D2
100
AcDbEntity
  8
0
100
AcDbBlockEnd
  0
BLOCK
  5
E0
330
DF
100
AcDbEntity
  8
0
100
AcDbBlockBegin
  2
*D3
 70
     1
 10
0.0
 20
0.0
 30
0.0
  3
*D3
  1

  0
LINE
  5
E1
330
DF
100
AcDbEntity
  8
SUNPO
 62
     0
370
    -2
100
AcDbLine
 10
278.6291047472504
 20
-20.63117616359944
 30
0.0
 11
278.6291047472504
 21
-12.63117616359943
 31
0.0
  0
LINE
  5
E2
330
DF
100
AcDbEntity
  8
SUNPO
 62
     0
370
    -2
100
AcDbLine
 10
288.5291047472504
 20
-20.63117616359944
 30
0.0
 11
288.5291047472504
 21
-12.63117616359943
 31
0.0
  0
LINE
  5
E3
330
DF
100
AcDbEntity
  8
SUNPO
 62
     0
370
    -2
100
AcDbLine
 10
280.6291047472504
 20
-14.63117616359943
 30
0.0
 11
286.5291047472504
 21
-14.63117616359943
 31
0.0
  0
LINE
  5
E4
330
DF
100
AcDbEntity
  8
SUNPO
 62
     0
370
    -2
100
AcDbLine
 10
288.5291047472504
 20
-14.63117616359943
 30
0.0
 11
300.695771413917
 21
-14.63117616359943
 31
0.0
  0
INSERT
  5
E5
330
DF
100
AcDbEntity
  8
SUNPO
 62
     0
370
    -2
100
AcDbBlockReference
  2
_OPEN30
 10
278.6291047472504
 20
-14.63117616359943
 30
0.0
 41
2.0
 42
2.0
 43
2.0
 50
180.0
  0
INSERT
  5
E6
330
DF
100
AcDbEntity
  8
SUNPO
 62
     0
370
    -2
100
AcDbBlockReference
  2
_OPEN30
 10
288.5291047472504
 20
-14.63117616359943
 30
0.0
 41
2.0
 42
2.0
 43
2.0
  0
MTEXT
  5
E7
330
DF
100
AcDbEntity
  8
SUNPO
 62
     0
100
AcDbMText
 10
295.6124380805837
 20
-12.88117616359943
 30
0.0
 40
2.5
 41
0.0
 71
     5
 72
     1
  1
\A1;49.5
 73
     1
 44
1.0
1001
ACAD
1000
MTEXTBEGIN
1070
    73
1070
     1
1070
    44
1040
1.0
1070
    74
1070
     0
1000
MTEXTEND
  0
POINT
  5
E8
330
DF
100
AcDbEntity
  8
DEFPOINTS
 62
     0
100
AcDbPoint
 10
278.6291047472504
 20
-22.63117616359943
 30
0.0
  0
POINT
  5
E9
330
DF
100
AcDbEntity
  8
DEFPOINTS
 62
     0
100
AcDbPoint
 10
288.5291047472504
 20
-22.63117616359943
 30
0.0
  0
POINT
  5
EA
330
DF
100
AcDbEntity
  8
DEFPOINTS
 62
     0
100
AcDbPoint
 10
288.5291047472504
 20
-14.63117616359943
 30
0.0
  0
ENDBLK
  5
EB
330
DF
100
AcDbEntity
  8
0
100
AcDbBlockEnd
  0
BLOCK
  5
127
330
11C
100
AcDbEntity
  8
0
100
AcDbBlockBegin
  2
*D4
 70
     1
 10
0.0
 20
0.0
 30
0.0
  3
*D4
  1

  0
LINE
  5
11D
330
11C
100
AcDbEntity
  8
SUNPO
 62
     0
370
    -2
100
AcDbLine
 10
12.66438250262479
 20
29.21770840026363
 30
0.0
 11
12.66438250262479
 21
37.21770840026363
 31
0.0
  0
LINE
  5
11E
330
11C
100
AcDbEntity
  8
SUNPO
 62
     0
370
    -2
100
AcDbLine
 10
22.56438250262477
 20
29.21770840026363
 30
0.0
 11
22.56438250262477
 21
37.21770840026363
 31
0.0
  0
LINE
  5
11F
330
11C
100
AcDbEntity
  8
SUNPO
 62
     0
370
    -2
100
AcDbLine
 10
14.66438250262479
 20
35.21770840026363
 30
0.0
 11
20.56438250262477
 21
35.21770840026363
 31
0.0
  0
LINE
  5
120
330
11C
100
AcDbEntity
  8
SUNPO
 62
     0
370
    -2
100
AcDbLine
 10
22.56438250262477
 20
35.21770840026363
 30
0.0
 11
34.73104916929143
 21
35.21770840026363
 31
0.0
  0
INSERT
  5
121
330
11C
100
AcDbEntity
  8
SUNPO
 62
     0
370
    -2
100
AcDbBlockReference
  2
_OPEN30
 10
12.66438250262479
 20
35.21770840026363
 30
0.0
 41
2.0
 42
2.0
 43
2.0
 50
180.0
  0
INSERT
  5
122
330
11C
100
AcDbEntity
  8
SUNPO
 62
     0
370
    -2
100
AcDbBlockReference
  2
_OPEN30
 10
22.56438250262477
 20
35.21770840026363
 30
0.0
 41
2.0
 42
2.0
 43
2.0
  0
MTEXT
  5
123
330
11C
100
AcDbEntity
  8
SUNPO
 62
     0
100
AcDbMText
 10
29.6477158359581
 20
36.96770840026363
 30
0.0
 40
2.5
 41
0.0
 71
     5
 72
     1
  1
\A1;49.5
 73
     1
 44
1.0
1001
ACAD
1000
MTEXTBEGIN
1070
    73
1070
     1
1070
    44
1040
1.0
1070
    74
1070
     0
1000
MTEXTEND
  0
POINT
  5
124
330
11C
100
AcDbEntity
  8
DEFPOINTS
 62
     0
100
AcDbPoint
 10
12.66438250262479
 20
27.21770840026363
 30
0.0
  0
POINT
  5
125
330
11C
100
AcDbEntity
  8
DEFPOINTS
 62
     0
100
AcDbPoint
 10
22.56438250262477
 20
27.21770840026363
 30
0.0
  0
POINT
  5
126
330
11C
100
AcDbEntity
  8
DEFPOINTS
 62
     0
100
AcDbPoint
 10
22.56438250262477
 20
35.21770840026363
 30
0.0
  0
ENDBLK
  5
128
330
11C
100
AcDbEntity
  8
0
100
AcDbBlockEnd
  0
BLOCK
  5
133
330
129
100
AcDbEntity
  8
0
100
AcDbBlockBegin
  2
*D5
 70
     1
 10
0.0
 20
0.0
 30
0.0
  3
*D5
  1

  0
LINE
  5
12A
330
129
100
AcDbEntity
  8
SUNPO
 62
     0
370
    -2
100
AcDbLine
 10
-5.56996289976962
 20
2.612068399845739
 30
0.0
 11
2.430037100230373
 21
2.612068399845736
 31
0.0
  0
LINE
  5
12B
330
129
100
AcDbEntity
  8
SUNPO
 62
     0
370
    -2
100
AcDbLine
 10
-5.56996289976962
 20
27.21206839984575
 30
0.0
 11
2.430037100230379
 21
27.21206839984575
 31
0.0
  0
LINE
  5
12C
330
129
100
AcDbEntity
  8
SUNPO
 62
     0
370
    -2
100
AcDbLine
 10
0.4300371002303741
 20
4.612068399845737
 30
0.0
 11
0.4300371002303787
 21
25.21206839984575
 31
0.0
  0
INSERT
  5
12D
330
129
100
AcDbEntity
  8
SUNPO
 62
     0
370
    -2
100
AcDbBlockReference
  2
_OPEN30
 10
0.4300371002303736
 20
2.612068399845737
 30
0.0
 41
2.0
 42
2.0
 43
2.0
 50
270.0
  0
INSERT
  5
12E
330
129
100
AcDbEntity
  8
SUNPO
 62
     0
370
    -2
100
AcDbBlockReference
  2
_OPEN30
 10
0.4300371002303791
 20
27.21206839984575
 30
0.0
 41
2.0
 42
2.0
 43
2.0
 50
90.0
  0
MTEXT
  5
12F
330
129
100
AcDbEntity
  8
SUNPO
 62
     0
100
AcDbMText
 10
-1.319962899769626
 20
14.91206839984574
 30
0.0
 40
2.5
 41
0.0
 71
     5
 72
     1
  1
\A1;123
 11
0.0000000000000001
 21
1.0
 31
0.0
 73
     1
 44
1.0
1001
ACAD
1000
MTEXTBEGIN
1070
    73
1070
     1
1070
    44
1040
1.0
1070
    74
1070
     0
1000
MTEXTEND
  0
POINT
  5
130
330
129
100
AcDbEntity
  8
DEFPOINTS
 62
     0
100
AcDbPoint
 10
-7.56996289976962
 20
2.612068399845739
 30
0.0
  0
POINT
  5
131
330
129
100
AcDbEntity
  8
DEFPOINTS
 62
     0
100
AcDbPoint
 10
-7.56996289976962
 20
27.21206839984575
 30
0.0
  0
POINT
  5
132
330
129
100
AcDbEntity
  8
DEFPOINTS
 62
     0
100
AcDbPoint
 10
0.4300371002303791
 20
27.21206839984575
 30
0.0
  0
ENDBLK
  5
134
330
129
100
AcDbEntity
  8
0
100
AcDbBlockEnd
  0
BLOCK
  5
13F
330
135
100
AcDbEntity
  8
0
100
AcDbBlockBegin
  2
*D6
 70
     1
 10
0.0
 20
0.0
 30
0.0
  3
*D6
  1

  0
LINE
  5
136
330
135
100
AcDbEntity
  8
SUNPO
 62
     0
370
    -2
100
AcDbLine
 10
-27.57025511952259
 20
29.21770840026363
 30
0.0
 11
-27.57025511952259
 21
37.21770840026363
 31
0.0
  0
LINE
  5
137
330
135
100
AcDbEntity
  8
SUNPO
 62
     0
370
    -2
100
AcDbLine
 10
-7.570255119522585
 20
29.21770840026363
 30
0.0
 11
-7.570255119522584
 21
37.21770840026363
 31
0.0
  0
LINE
  5
138
330
135
100
AcDbEntity
  8
SUNPO
 62
     0
370
    -2
100
AcDbLine
 10
-25.57025511952259
 20
35.21770840026363
 30
0.0
 11
-9.570255119522585
 21
35.21770840026363
 31
0.0
  0
INSERT
  5
139
330
135
100
AcDbEntity
  8
SUNPO
 62
     0
370
    -2
100
AcDbBlockReference
  2
_OPEN30
 10
-27.57025511952259
 20
35.21770840026363
 30
0.0
 41
2.0
 42
2.0
 43
2.0
 50
180.0
  0
INSERT
  5
13A
330
135
100
AcDbEntity
  8
SUNPO
 62
     0
370
    -2
100
AcDbBlockReference
  2
_OPEN30
 10
-7.570255119522584
 20
35.21770840026363
 30
0.0
 41
2.0
 42
2.0
 43
2.0
  0
MTEXT
  5
13B
330
135
100
AcDbEntity
  8
SUNPO
 62
     0
100
AcDbMText
 10
-17.57025511952258
 20
36.96770840026363
 30
0.0
 40
2.5
 41
0.0
 71
     5
 72
     1
  1
\A1;100
 73
     1
 44
1.0
1001
ACAD
1000
MTEXTBEGIN
1070
    73
1070
     1
1070
    44
1040
1.0
1070
    74
1070
     0
1000
MTEXTEND
  0
POINT
  5
13C
330
135
100
AcDbEntity
  8
DEFPOINTS
 62
     0
100
AcDbPoint
 10
-27.57025511952259
 20
27.21770840026363
 30
0.0
  0
POINT
  5
13D
330
135
100
AcDbEntity
  8
DEFPOINTS
 62
     0
100
AcDbPoint
 10
-7.570255119522585
 20
27.21770840026363
 30
0.0
  0
POINT
  5
13E
330
135
100
AcDbEntity
  8
DEFPOINTS
 62
     0
100
AcDbPoint
 10
-7.570255119522584
 20
35.21770840026363
 30
0.0
  0
ENDBLK
  5
140
330
135
100
AcDbEntity
  8
0
100
AcDbBlockEnd
  0
ENDSEC
  0
SECTION
  2
ENTITIES
  0
TEXT
  5
34
330
2
100
AcDbEntity
  8
MOJI1
100
AcDbText
 10
-29.89255824296251
 20
56.79113725559094
 30
0.0
 40
4.0
  1
イーサネット受電アダプター
100
AcDbText
  0
TEXT
  5
36
330
2
100
AcDbEntity
  8
TOUROKU
100
AcDbText
 10
55.0407251232981
 20
50.79113725559079
 30
0.0
 40
2.0
  1
ＢＢＨＰＥ１
 72
     2
 11
68.10739178996477
 21
50.79113725559079
 31
0.0
100
AcDbText
  0
ARC
  5
38
330
2
100
AcDbEntity
  8
GAIKEI
 62
     1
100
AcDbCircle
 10
-85.27775723226318
 20
13.15101861384194
 30
0.0
 40
60.89354155864954
100
AcDbArc
 50
0.8040192178311993
 51
8.608626633497353
  0
ARC
  5
3A
330
2
100
AcDbEntity
  8
GAIKEI
 62
     1
100
AcDbCircle
 10
50.10557159321809
 20
13.15101861384194
 30
0.0
 40
60.89354155864954
100
AcDbArc
 50
171.3913733665026
 51
179.1959807821688
  0
ARC
  5
3B
330
2
100
AcDbEntity
  8
GAIKEI
  6
Continuous
 62
     1
100
AcDbCircle
 10
-10.27025511952263
 20
22.41206839984574
 30
0.0
 40
0.2
100
AcDbArc
 50
0.0
 51
90.0
  0
ARC
  5
3C
330
2
100
AcDbEntity
  8
GAIKEI
  6
Continuous
 62
     1
100
AcDbCircle
 10
-24.87025511952254
 20
22.41206839984574
 30
0.0
 40
0.2
100
AcDbArc
 50
90.0
 51
180.0
  0
LINE
  5
3D
330
2
100
AcDbEntity
  8
GAIKEI
  6
Continuous
100
AcDbLine
 10
-19.57025511952258
 20
4.612068399845739
 30
0.0
 11
-13.47025511952256
 21
4.612068399845739
 31
0.0
  0
LINE
  5
3E
330
2
100
AcDbEntity
  8
GAIKEI
  6
Continuous
100
AcDbLine
 10
-19.57025511952258
 20
4.612068399845739
 30
0.0
 11
-19.58771011952262
 21
5.612068399845739
 31
0.0
  0
LINE
  5
3F
330
2
100
AcDbEntity
  8
GAIKEI
  6
Continuous
100
AcDbLine
 10
-20.37025511952254
 20
8.612068399845739
 30
0.0
 11
-19.58771011952262
 21
5.612068399845739
 31
0.0
  0
LINE
  5
40
330
2
100
AcDbEntity
  8
GAIKEI
  6
Continuous
 62
     1
100
AcDbLine
 10
21.10438250262473
 20
11.77206839984575
 30
0.0
 11
21.00438250262482
 21
11.77206839984575
 31
0.0
  0
ARC
  5
41
330
2
100
AcDbEntity
  8
GAIKEI
  6
Continuous
 62
     1
100
AcDbCircle
 10
22.26438250262481
 20
11.93313579984574
 30
0.0
 40
0.2
100
AcDbArc
 50
272.9999999999991
 51
0.0
  0
LINE
  5
42
330
2
100
AcDbEntity
  8
GAIKEI
  6
Continuous
 62
     1
100
AcDbLine
 10
22.27484970262481
 20
11.73340999984574
 30
0.0
 11
21.10438250262473
 21
11.67206839984574
 31
0.0
  0
LINE
  5
43
330
2
100
AcDbEntity
  8
GAIKEI
  6
Continuous
 62
     1
100
AcDbLine
 10
21.10438250262473
 20
27.11206839984574
 30
0.0
 11
21.00438250262482
 21
27.11206839984574
 31
0.0
  0
LINE
  5
44
330
2
100
AcDbEntity
  8
GAIKEI
  6
Continuous
 62
     1
100
AcDbLine
 10
21.10438250262473
 20
11.61032279984574
 30
0.0
 11
21.10438250262473
 21
27.21206839984575
 31
0.0
  0
LINE
  5
45
330
2
100
AcDbEntity
  8
GAIKEI
  6
Continuous
100
AcDbLine
 10
22.56438250262477
 20
25.09206839984575
 30
0.0
 11
22.56438250262477
 21
26.33206839984574
 31
0.0
  0
ARC
  5
46
330
2
100
AcDbEntity
  8
GAIKEI
  6
Continuous
100
AcDbCircle
 10
22.26438250262481
 20
26.95100099984575
 30
0.0
 40
0.2
100
AcDbArc
 50
0.0
 51
87.00000200000237
  0
LINE
  5
47
330
2
100
AcDbEntity
  8
GAIKEI
  6
Continuous
100
AcDbLine
 10
22.46438250262475
 20
26.33206839984574
 30
0.0
 11
22.56438250262477
 21
26.33206839984574
 31
0.0
  0
LINE
  5
48
330
2
100
AcDbEntity
  8
GAIKEI
  6
Continuous
100
AcDbLine
 10
22.46438250262475
 20
25.09206839984575
 30
0.0
 11
22.56438250262477
 21
25.09206839984575
 31
0.0
  0
LINE
  5
49
330
2
100
AcDbEntity
  8
GAIKEI
  6
Continuous
100
AcDbLine
 10
21.10438250262473
 20
27.21206839984575
 30
0.0
 11
22.27484970262481
 21
27.15072679984575
 31
0.0
  0
LINE
  5
4A
330
2
100
AcDbEntity
  8
GAIKEI
  6
Continuous
100
AcDbLine
 10
22.46438250262475
 20
9.410322799845744
 30
0.0
 11
22.56438250262477
 21
9.412068399845736
 31
0.0
  0
LINE
  5
4B
330
2
100
AcDbEntity
  8
GAIKEI
  6
Continuous
100
AcDbLine
 10
22.46438250262475
 20
10.81381399984573
 30
0.0
 11
22.56438250262477
 21
10.81206839984574
 31
0.0
  0
LINE
  5
4C
330
2
100
AcDbEntity
  8
GAIKEI
  6
Continuous
100
AcDbLine
 10
22.46438250262475
 20
25.09206839984575
 30
0.0
 11
22.56438250262477
 21
25.09206839984575
 31
0.0
  0
LINE
  5
4D
330
2
100
AcDbEntity
  8
GAIKEI
  6
Continuous
100
AcDbLine
 10
22.46438250262475
 20
26.33206839984574
 30
0.0
 11
22.56438250262477
 21
26.33206839984574
 31
0.0
  0
LINE
  5
4E
330
2
100
AcDbEntity
  8
GAIKEI
  6
Continuous
100
AcDbLine
 10
-7.570255119522585
 20
8.812068399845742
 30
0.0
 11
-7.570255119522585
 21
27.01206839984575
 31
0.0
  0
LINE
  5
4F
330
2
100
AcDbEntity
  8
GAIKEI
  6
Continuous
100
AcDbLine
 10
-27.37025511952254
 20
27.21206839984575
 30
0.0
 11
-7.77025511952263
 21
27.21206839984575
 31
0.0
  0
LINE
  5
50
330
2
100
AcDbEntity
  8
GAIKEI
  6
Continuous
100
AcDbLine
 10
-27.57025511952259
 20
8.812068399845742
 30
0.0
 11
-27.57025511952259
 21
27.01206839984575
 31
0.0
  0
LINE
  5
51
330
2
100
AcDbEntity
  8
GAIKEI
  6
Continuous
 62
     1
100
AcDbLine
 10
-27.16370711952254
 20
26.60600639984574
 30
0.0
 11
-27.16370111952256
 21
26.60600439984575
 31
0.0
  0
LINE
  5
52
330
2
100
AcDbEntity
  8
GAIKEI
  6
Continuous
 62
     1
100
AcDbLine
 10
-10.07025511952258
 20
22.41206839984574
 30
0.0
 11
-10.07025511952258
 21
8.612068399845739
 31
0.0
  0
LINE
  5
53
330
2
100
AcDbEntity
  8
GAIKEI
  6
Continuous
 62
     1
100
AcDbLine
 10
-24.53021111952262
 20
14.00984039984574
 30
0.0
 11
-24.53014311952256
 21
14.00984439984575
 31
0.0
  0
LINE
  5
54
330
2
100
AcDbEntity
  8
GAIKEI
  6
Continuous
 62
     1
100
AcDbLine
 10
-10.61036311952261
 20
14.00984439984575
 30
0.0
 11
-10.61029511952256
 21
14.00984039984574
 31
0.0
  0
LINE
  5
55
330
2
100
AcDbEntity
  8
GAIKEI
  6
Continuous
 62
     1
100
AcDbLine
 10
-25.07025511952259
 20
22.41206839984574
 30
0.0
 11
-25.07025511952259
 21
8.612068399845739
 31
0.0
  0
LINE
  5
56
330
2
100
AcDbEntity
  8
GAIKEI
  6
Continuous
 62
     1
100
AcDbLine
 10
-24.23920511952258
 20
14.00984439984575
 30
0.0
 11
-10.93298051952263
 21
14.00984439984575
 31
0.0
  0
LINE
  5
57
330
2
100
AcDbEntity
  8
GAIKEI
  6
Continuous
 62
     1
100
AcDbLine
 10
-10.27025511952263
 20
22.61206839984574
 30
0.0
 11
-24.87025511952254
 21
22.61206839984574
 31
0.0
  0
LINE
  5
58
330
2
100
AcDbEntity
  8
GAIKEI
  6
Continuous
 62
     1
100
AcDbLine
 10
-10.75029911952253
 20
8.612068399845739
 30
0.0
 11
-10.75029911952253
 21
14.00549639984574
 31
0.0
  0
SPLINE
  5
59
330
2
100
AcDbEntity
  8
GAIKEI
  6
Continuous
 62
     1
100
AcDbSpline
210
0.0
220
0.0
230
1.0
 70
     8
 71
     3
 72
    62
 73
    58
 74
    56
 42
0.0000000001
 43
0.0000000001
 44
0.000001
 12
-0.9977142003744825
 22
0.067574953726267
 32
0.0
 13
-0.9999999991649366
 23
-0.0000408671890971
 33
0.0
 40
0.0
 40
0.0
 40
0.0
 40
0.0
 40
0.0015966329449667
 40
0.0032835860182869
 40
0.0050561964043839
 40
0.0069102130000047
 40
0.0088418219783198
 40
0.0108476824705323
 40
0.012924961810174
 40
0.0150713706323175
 40
0.017285197889126
 40
0.0195653458078932
 40
0.0219113648085991
 40
0.0243234883939792
 40
0.0268026680200073
 40
0.02935060795083
 40
0.03196964899688
 40
0.0346622525297411
 40
0.0374311371223927
 40
0.0402791761736887
 40
0.0432091775393351
 40
0.0462236631510497
 40
0.0493246486269201
 40
0.052513422876712
 40
0.055790327706212
 40
0.0591545374210345
 40
0.0626038384325593
 40
0.066134408866091
 40
0.0697405981739105
 40
0.073414706822803
 40
0.0771485798255817
 40
0.0809389992708196
 40
0.0847840023103917
 40
0.0886816041023855
 40
0.0926297987518372
 40
0.0966265599798963
 40
0.1006698416962388
 40
0.104757578588433
 40
0.1088876867915563
 40
0.1130580646595981
 40
0.1172665936329394
 40
0.1215111391718734
 40
0.1257895517106567
 40
0.1300996675769388
 40
0.1344393098185879
 40
0.1388062888761055
 40
0.1431984030475617
 40
0.1476134386994135
 40
0.1520491701887165
 40
0.1565033594819001
 40
0.1609737554749295
 40
0.1654580930518994
 40
0.1699540919728559
 40
0.1744594558392461
 40
0.178971872067979
 40
0.1834890183629709
 40
0.188008622254821
 40
0.188008622254821
 40
0.188008622254821
 40
0.188008622254821
 10
-10.75029711952243
 20
14.00549639984574
 30
0.0
 10
-10.75082811397641
 20
14.0055323639782
 30
0.0
 10
-10.75192017887184
 20
14.00560582085538
 30
0.0
 10
-10.75360241333618
 20
14.00570915962294
 30
0.0
 10
-10.75537057488466
 20
14.00581277243463
 30
0.0
 10
-10.75722048079899
 20
14.00591536235175
 30
0.0
 10
-10.75914829017949
 20
14.00601719734152
 30
0.0
 10
-10.7611506661002
 20
14.00611812897503
 30
0.0
 10
-10.76322477313965
 20
14.00621815737819
 30
0.0
 10
-10.76536832293226
 20
14.00631726645955
 30
0.0
 10
-10.76757960597166
 20
14.00641546717216
 30
0.0
 10
-10.76985752729794
 20
14.00651278182788
 30
0.0
 10
-10.77220164107484
 20
14.00660924509237
 30
0.0
 10
-10.77461218547682
 20
14.00670490031238
 30
0.0
 10
-10.77709011748288
 20
14.0067997971482
 30
0.0
 10
-10.77963709736039
 20
14.00689398706963
 30
0.0
 10
-10.78225528962772
 20
14.00698751248294
 30
0.0
 10
-10.78494719661438
 20
14.00708043575321
 30
0.0
 10
-10.78771549864609
 20
14.00717281519283
 30
0.0
 10
-10.79056299188616
 20
14.00726470610389
 30
0.0
 10
-10.79349240728675
 20
14.00735615732184
 30
0.0
 10
-10.79650619023761
 20
14.00744720630228
 30
0.0
 10
-10.79960628021547
 20
14.00753787423127
 30
0.0
 10
-10.8027938904315
 20
14.00762816112957
 30
0.0
 10
-10.8060692874767
 20
14.00771804099642
 30
0.0
 10
-10.80943157097164
 20
14.00780745684294
 30
0.0
 10
-10.81287845320054
 20
14.00789631620721
 30
0.0
 10
-10.8164060387956
 20
14.00798448486646
 30
0.0
 10
-10.82000860425674
 20
14.00807178758915
 30
0.0
 10
-10.82367898265554
 20
14.00815799607034
 30
0.0
 10
-10.82741081614793
 20
14.00824296040134
 30
0.0
 10
-10.83119963426929
 20
14.00832768061058
 30
0.0
 10
-10.83504303211415
 20
14.00841285152881
 30
0.0
 10
-10.83893901451486
 20
14.00849892813055
 30
0.0
 10
-10.84288557069612
 20
14.00858611946175
 30
0.0
 10
-10.84688067418887
 20
14.00867442029825
 30
0.0
 10
-10.85092228292103
 20
14.00876363513863
 30
0.0
 10
-10.85500833922754
 20
14.00885340430078
 30
0.0
 10
-10.85913676985308
 20
14.00894322944992
 30
0.0
 10
-10.86330548593912
 20
14.00903249928704
 30
0.0
 10
-10.86751238299945
 20
14.00912051519769
 30
0.0
 10
-10.87175534088771
 20
14.00920651691591
 30
0.0
 10
-10.87603222376151
 20
14.0092897081869
 30
0.0
 10
-10.88034088004238
 20
14.00936928243274
 30
0.0
 10
-10.88467914237657
 20
14.00944444842002
 30
0.0
 10
-10.8890448275969
 20
14.00951445593098
 30
0.0
 10
-10.89343573668753
 20
14.00957862142635
 30
0.0
 10
-10.89784965475411
 20
14.00963635374849
 30
0.0
 10
-10.90228435099854
 20
14.00968717967508
 30
0.0
 10
-10.90673757870314
 20
14.00973077003704
 30
0.0
 10
-10.91120707522526
 20
14.0097669637168
 30
0.0
 10
-10.91569056201859
 20
14.00979579959228
 30
0.0
 10
-10.92018574475088
 20
14.00981751868153
 30
0.0
 10
-10.92469031381489
 20
14.00983267792879
 30
0.0
 10
-10.92920194745562
 20
14.00984184612672
 30
0.0
 10
-10.93371833446238
 20
14.00984686352016
 30
0.0
 10
-10.93673058489321
 20
14.00984646141358
 30
0.0
 10
-10.93823711952257
 20
14.00984639984574
 30
0.0
 11
-10.75029711952243
 21
14.00549639984574
 31
0.0
 11
-10.75189030906108
 21
14.00560130232853
 31
0.0
 11
-10.7535740303465
 21
14.00570563949728
 31
0.0
 11
-10.75534360665119
 21
14.00580928432794
 31
0.0
 11
-10.75719476681752
 21
14.00591213916939
 31
0.0
 11
-10.75912368006504
 21
14.0060141331609
 31
0.0
 11
-10.76112699079635
 21
14.00611521964957
 31
0.0
 11
-10.76320185340466
 21
14.00621537360811
 31
0.0
 11
-10.76534596707972
 21
14.00631458905232
 31
0.0
 11
-10.76755761061497
 21
14.00641287645868
 31
0.0
 11
-10.76983567721424
 21
14.00651026018198
 31
0.0
 11
-10.77217970929814
 21
14.00660677587282
 31
0.0
 11
-10.77458993331072
 21
14.00670246789519
 31
0.0
 11
-10.77706729452666
 21
14.00679738674414
 31
0.0
 11
-10.77961349185659
 21
14.00689158646327
 31
0.0
 11
-10.78223086143441
 21
14.00698512245341
 31
0.0
 11
-10.78492186016683
 21
14.00707805266226
 31
0.0
 11
-10.78768920244454
 21
14.00717043737006
 31
0.0
 11
-10.79053575782586
 21
14.0072623347272
 31
0.0
 11
-10.79346433067996
 21
14.00735379591815
 31
0.0
 11
-10.79647743983105
 21
14.00744486032533
 31
0.0
 11
-10.79957709820235
 21
14.00753555069312
 31
0.0
 11
-10.80276459245954
 21
14.0076258682918
 31
0.0
 11
-10.80604026265507
 21
14.00771578808141
 31
0.0
 11
-10.80940328187193
 21
14.00780525387577
 31
0.0
 11
-10.81285143586763
 21
14.00789417350637
 31
0.0
 11
-10.81638090271758
 21
14.00798241398631
 31
0.0
 11
-10.81998603245984
 21
14.00806979667423
 31
0.0
 11
-10.82365912680882
 21
14.00815609244984
 31
0.0
 11
-10.8273920271564
 21
14.00824128148957
 31
0.0
 11
-10.83118149567986
 21
14.00832614953211
 31
0.0
 11
-10.83502555239715
 21
14.00841142185946
 31
0.0
 11
-10.83892220174004
 21
14.00849755632059
 31
0.0
 11
-10.84286943254403
 21
14.00858476903247
 31
0.0
 11
-10.84686521803951
 21
14.00867306008169
 31
0.0
 11
-10.85090751584243
 21
14.00876223922591
 31
0.0
 11
-10.85499426794456
 21
14.00885195159524
 31
0.0
 11
-10.85912340070456
 21
14.00894170339373
 31
0.0
 11
-10.86329282483825
 21
14.00903088760074
 31
0.0
 11
-10.8675004354094
 21
14.0091188096724
 31
0.0
 11
-10.87174411182036
 21
14.00920471324315
 31
0.0
 11
-10.87602171780293
 21
14.00928780582714
 31
0.0
 11
-10.88033110140827
 21
14.0093672845195
 31
0.0
 11
-10.88467009499845
 21
14.00944236169801
 31
0.0
 11
-10.88903651523651
 21
14.00951229072439
 31
0.0
 11
-10.89342816307703
 21
14.00957639164588
 31
0.0
 11
-10.8978428237574
 21
14.00963407689656
 31
0.0
 11
-10.90227826678767
 21
14.00968487699879
 31
0.0
 11
-10.90673224594161
 21
14.00972846626473
 31
0.0
 11
-10.91120249924734
 21
14.00976468849774
 31
0.0
 11
-10.91568674897803
 21
14.00979358269379
 31
0.0
 11
-10.92018270164192
 21
14.00981540874295
 31
0.0
 11
-10.92468804797397
 21
14.00983067313085
 31
0.0
 11
-10.92920046292579
 21
14.00984015463999
 31
0.0
 11
-10.93371760565628
 21
14.00984493005137
 31
0.0
 11
-10.93823711952257
 21
14.00984639984574
 31
0.0
  0
SPLINE
  5
5A
330
2
100
AcDbEntity
  8
GAIKEI
  6
Continuous
 62
     1
100
AcDbSpline
210
0.0
220
0.0
230
1.0
 70
     8
 71
     3
 72
    62
 73
    58
 74
    56
 42
0.0000000001
 43
0.0000000001
 44
0.000001
 12
-0.9999999991645276
 22
0.0000408771916488
 32
0.0
 13
-0.9977121950922224
 23
-0.0676045543159589
 33
0.0
 40
0.0
 40
0.0
 40
0.0
 40
0.0
 40
0.0045202902937788
 40
0.0090380198878702
 40
0.0135509229785095
 40
0.0180566842449222
 40
0.0225529983758282
 40
0.0270375764595106
 40
0.0315081458960957
 40
0.0359624493034489
 40
0.0403982433449877
 40
0.0448132977301556
 40
0.0492053944748212
 40
0.0535723274602488
 40
0.0579119022965728
 40
0.0622219364744833
 40
0.0665002597703902
 40
0.0707447148603251
 40
0.0749531580872969
 40
0.0791234603217945
 40
0.0832535078572121
 40
0.0873412032833066
 40
0.0913844662956099
 40
0.0953812344067866
 40
0.099329463557763
 40
0.1032271286472488
 40
0.1070722240454206
 40
0.1108627642027593
 40
0.1145967845321478
 40
0.1182710562284782
 40
0.1218773845063751
 40
0.1254080404732121
 40
0.1288573631487712
 40
0.1322215350478928
 40
0.135498357689019
 40
0.138687027098472
 40
0.1417879093117528
 40
0.1448023158739592
 40
0.1477322793406198
 40
0.1505803287810914
 40
0.1533492652874437
 40
0.1560419374921224
 40
0.1586610171011315
 40
0.1612089140404869
 40
0.1636879863267313
 40
0.1660999686960389
 40
0.1684458345503131
 40
0.1707258312624762
 40
0.1729395154970061
 40
0.1750857885500655
 40
0.1771629317184602
 40
0.179168641709173
 40
0.1811000661069897
 40
0.1829538389275839
 40
0.1847261163171394
 40
0.1864126126939396
 40
0.1880086267729071
 40
0.1880086267729071
 40
0.1880086267729071
 40
0.1880086267729071
 10
-24.20227112250279
 20
14.00984639984574
 30
0.0
 10
-24.2037778859328
 20
14.009846461438
 30
0.0
 10
-24.20679055959721
 20
14.00984686353429
 30
0.0
 10
-24.21130753212532
 20
14.00984184620936
 30
0.0
 10
-24.2158196549542
 20
14.00983267804328
 30
0.0
 10
-24.22032462384442
 20
14.00981751884339
 30
0.0
 10
-24.22482012428634
 20
14.00979579979012
 30
0.0
 10
-24.22930385413827
 20
14.00976696394258
 30
0.0
 10
-24.23377352668808
 20
14.00973077027794
 30
0.0
 10
-24.23822687110174
 20
14.0096871799174
 30
0.0
 10
-24.24266163248399
 20
14.0096363539778
 30
0.0
 10
-24.24707557183854
 20
14.00957862162912
 30
0.0
 10
-24.25146646600541
 20
14.00951445609434
 30
0.0
 10
-24.25583210758475
 20
14.0094444485333
 30
0.0
 10
-24.26017030485298
 20
14.00936928248745
 30
0.0
 10
-24.26447888167371
 20
14.00928970817705
 30
0.0
 10
-24.26875567740302
 20
14.00920651683839
 30
0.0
 10
-24.27299854679234
 20
14.00912051505197
 30
0.0
 10
-24.27720535988988
 20
14.00903249907544
 30
0.0
 10
-24.2813740019418
 20
14.00894322917697
 30
0.0
 10
-24.28550237329626
 20
14.00885340397315
 30
0.0
 10
-24.28958838931271
 20
14.0087636347644
 30
0.0
 10
-24.29362998027745
 20
14.00867441988661
 30
0.0
 10
-24.29762509133158
 20
14.00858611902242
 30
0.0
 10
-24.30157168241499
 20
14.00849892767324
 30
0.0
 10
-24.30546772821691
 20
14.00841285106293
 30
0.0
 10
-24.30931121820697
 20
14.00832768014436
 30
0.0
 10
-24.31310015649106
 20
14.00824295994381
 30
0.0
 10
-24.31683213371747
 20
14.00815799568632
 30
0.0
 10
-24.32050266195068
 20
14.00807178770721
 30
0.0
 10
-24.32410535664269
 20
14.00798448535678
 30
0.0
 10
-24.32763302432363
 20
14.00789631686166
 30
0.0
 10
-24.33107992968758
 20
14.00780745748296
 30
0.0
 10
-24.33444218038693
 20
14.0077180414756
 30
0.0
 10
-24.33771750244881
 20
14.00762816133969
 30
0.0
 10
-24.34090501585297
 20
14.00753787410989
 30
0.0
 10
-24.34400501006241
 20
14.00744720584065
 30
0.0
 10
-24.34701871956725
 20
14.0073561565753
 30
0.0
 10
-24.34994809942526
 20
14.0072647052026
 30
0.0
 10
-24.35279560080565
 20
14.00717281435285
 30
0.0
 10
-24.35556394653213
 20
14.00708043529401
 30
0.0
 10
-24.35825590662739
 20
14.00698751282421
 30
0.0
 10
-24.3608741203646
 20
14.00689398855302
 30
0.0
 10
-24.36342106294993
 20
14.0067997983053
 30
0.0
 10
-24.36589889768311
 20
14.00670490094485
 30
0.0
 10
-24.36830930806377
 20
14.00660924532864
 30
0.0
 10
-24.37065327318106
 20
14.00651278179528
 30
0.0
 10
-24.37293104524062
 20
14.00641546701065
 30
0.0
 10
-24.37514218480715
 20
14.00631726631929
 30
0.0
 10
-24.37728559613953
 20
14.00621815742336
 30
0.0
 10
-24.37935956221935
 20
14.00611812938361
 30
0.0
 10
-24.38136178088624
 20
14.00601719832228
 30
0.0
 10
-24.38328939708839
 20
14.00591536410992
 30
0.0
 10
-24.3851390488974
 20
14.00581277532329
 30
0.0
 10
-24.38690686543814
 20
14.00570916369412
 30
0.0
 10
-24.38858862966777
 20
14.0056058273381
 30
0.0
 10
-24.38968033493268
 20
14.0055323657859
 30
0.0
 10
-24.39021112250271
 20
14.00549639984574
 30
0.0
 11
-24.20227112250279
 21
14.00984639984574
 31
0.0
 11
-24.20679132279918
 21
14.00984493005113
 31
0.0
 11
-24.21130904883091
 21
14.00984015463885
 31
0.0
 11
-24.21582195062615
 21
14.00983067312788
 31
0.0
 11
-24.22032769434554
 21
14.00981540873701
 31
0.0
 11
-24.22482396221369
 21
14.00979358268364
 31
0.0
 11
-24.22930845245048
 21
14.00976468848209
 31
0.0
 11
-24.23377887920219
 21
14.00972846624243
 31
0.0
 11
-24.23823297247395
 21
14.00968487696876
 31
0.0
 11
-24.24266847805962
 21
14.00963407685788
 31
0.0
 11
-24.24708315747444
 21
14.00957639159796
 31
0.0
 11
-24.2514747878862
 21
14.00951229066669
 31
0.0
 11
-24.2558411620463
 21
14.00944236163039
 31
0.0
 11
-24.26018008822121
 21
14.00936728444205
 31
0.0
 11
-24.26448939012448
 21
14.00928780574018
 31
0.0
 11
-24.26876690684753
 21
14.00920471314728
 31
0.0
 11
-24.27301049279118
 21
14.00911880956838
 31
0.0
 11
-24.27721801759742
 21
14.00903088748959
 31
0.0
 11
-24.28138736608048
 21
14.00894170327655
 31
0.0
 11
-24.28551643815865
 21
14.00885195147326
 31
0.0
 11
-24.28960314878486
 21
14.00876223910026
 31
0.0
 11
-24.29364542787937
 21
14.00867305995346
 31
0.0
 11
-24.29764122025984
 21
14.00858476890259
 31
0.0
 11
-24.30158848557392
 21
14.00849755618975
 31
0.0
 11
-24.30548519822992
 21
14.00841142172794
 31
0.0
 11
-24.30932934732869
 21
14.00832614939963
 31
0.0
 11
-24.31311893659461
 21
14.00824128135529
 31
0.0
 11
-24.31685198430717
 21
14.00815609231202
 31
0.0
 11
-24.32052524174856
 21
14.00806979653197
 31
0.0
 11
-24.32413051050173
 21
14.00798241384058
 31
0.0
 11
-24.32766006291184
 21
14.00789417335838
 31
0.0
 11
-24.33110823857897
 21
14.00780525372684
 31
0.0
 11
-24.3344712199671
 21
14.00771578793294
 31
0.0
 11
-24.33774680794375
 21
14.00762586814505
 31
0.0
 11
-24.34093419731903
 21
14.00753555054942
 31
0.0
 11
-24.34403375238412
 21
14.0074448601857
 31
0.0
 11
-24.34704678245021
 21
14.00735379578347
 31
0.0
 11
-24.34997531738736
 21
14.00726233459812
 31
0.0
 11
-24.35282188316376
 21
14.0071704372471
 31
0.0
 11
-24.35558927738441
 21
14.00707805254569
 31
0.0
 11
-24.35828034482984
 21
14.00698512234339
 31
0.0
 11
-24.36089775299547
 21
14.00689158635993
 31
0.0
 11
-24.36344390730494
 21
14.00679738664743
 31
0.0
 11
-24.36592116110296
 21
14.00670246780521
 31
0.0
 11
-24.36833124378893
 21
14.00660677578963
 31
0.0
 11
-24.3706751225975
 21
14.00651026010573
 31
0.0
 11
-24.372953037853
 21
14.00641287638943
 31
0.0
 11
-24.37516453822571
 21
14.00631458899019
 31
0.0
 11
-24.37730851598724
 21
14.00621537355323
 31
0.0
 11
-24.3793832422665
 21
14.00611521960209
 31
0.0
 11
-24.38138640230534
 21
14.00601413312097
 31
0.0
 11
-24.38331513071466
 21
14.00591213913718
 31
0.0
 11
-24.38516604672964
 21
14.00580928430358
 31
0.0
 11
-24.38693528946601
 21
14.00570563948086
 31
0.0
 11
-24.38861855317578
 21
14.0056013023203
 31
0.0
 11
-24.39021112250271
 21
14.00549639984574
 31
0.0
  0
LINE
  5
5B
330
2
100
AcDbEntity
  8
GAIKEI
  6
Continuous
 62
     1
100
AcDbLine
 10
-24.39021111952263
 20
14.00549639984574
 30
0.0
 11
-24.39021111952263
 21
8.612068399845739
 31
0.0
  0
ARC
  5
5C
330
2
100
AcDbEntity
  8
GAIKEI
  6
Continuous
100
AcDbCircle
 10
-7.77025511952263
 20
27.01206839984575
 30
0.0
 40
0.2
100
AcDbArc
 50
0.0
 51
90.0
  0
ARC
  5
5D
330
2
100
AcDbEntity
  8
GAIKEI
  6
Continuous
100
AcDbCircle
 10
-27.37025511952254
 20
27.01206839984575
 30
0.0
 40
0.2
100
AcDbArc
 50
90.0
 51
180.0
  0
ARC
  5
5E
330
2
100
AcDbEntity
  8
GAIKEI
  6
Continuous
100
AcDbCircle
 10
-27.37025511952254
 20
8.812068399845742
 30
0.0
 40
0.2
100
AcDbArc
 50
180.0
 51
270.0
  0
ARC
  5
5F
330
2
100
AcDbEntity
  8
GAIKEI
  6
Continuous
100
AcDbCircle
 10
-7.77025511952263
 20
8.812068399845742
 30
0.0
 40
0.2
100
AcDbArc
 50
270.0
 51
0.0
  0
ARC
  5
60
330
2
100
AcDbEntity
  8
GAIKEI
  6
Continuous
100
AcDbCircle
 10
12.86438250262483
 20
8.812068399845742
 30
0.0
 40
0.2
100
AcDbArc
 50
180.0
 51
270.0
  0
ARC
  5
61
330
2
100
AcDbEntity
  8
GAIKEI
  6
Continuous
100
AcDbCircle
 10
14.86438250262483
 20
8.812068399845742
 30
0.0
 40
0.2
100
AcDbArc
 50
180.0
 51
270.0
  0
LINE
  5
62
330
2
100
AcDbEntity
  8
GAIKEI
  6
Continuous
100
AcDbLine
 10
12.86438250262483
 20
8.612068399845739
 30
0.0
 11
22.26438250262481
 21
8.612068399845739
 31
0.0
  0
LINE
  5
63
330
2
100
AcDbEntity
  8
GAIKEI
  6
Continuous
100
AcDbLine
 10
12.66438250262479
 20
14.00984639984574
 30
0.0
 11
12.66438250262479
 21
8.812070399845737
 31
0.0
  0
LINE
  5
64
330
2
100
AcDbEntity
  8
GAIKEI
  6
Continuous
100
AcDbLine
 10
14.66438250262479
 20
8.812070399845737
 30
0.0
 11
14.66438250262479
 21
26.58222939984574
 31
0.0
  0
ARC
  5
65
330
2
100
AcDbEntity
  8
GAIKEI
  6
Continuous
100
AcDbCircle
 10
36.64179110262478
 20
12.96875419984573
 30
0.0
 40
24.0
100
AcDbArc
 50
156.3089489999995
 51
177.5137950000007
  0
LINE
  5
66
330
2
100
AcDbEntity
  8
GAIKEI
  6
Continuous
100
AcDbLine
 10
22.56438250262477
 20
25.09206839984575
 30
0.0
 11
22.56438250262477
 21
26.33206839984574
 31
0.0
  0
LINE
  5
67
330
2
100
AcDbEntity
  8
GAIKEI
  6
Continuous
100
AcDbLine
 10
14.85043130262477
 20
26.78174219984575
 30
0.0
 11
21.00438250262482
 21
27.21206839984575
 31
0.0
  0
ARC
  5
68
330
2
100
AcDbEntity
  8
GAIKEI
  6
Continuous
100
AcDbCircle
 10
14.86438250262483
 20
26.58222939984574
 30
0.0
 40
0.2
100
AcDbArc
 50
93.99999800000061
 51
180.0
  0
LINE
  5
69
330
2
100
AcDbEntity
  8
GAIKEI
  6
Continuous
 62
     1
100
AcDbLine
 10
21.00438250262482
 20
8.612068399845739
 30
0.0
 11
21.00438250262482
 21
27.21206839984575
 31
0.0
  0
LINE
  5
6A
330
2
100
AcDbEntity
  8
GAIKEI
  6
Continuous
 62
     1
100
AcDbLine
 10
-26.96370511952262
 20
26.76873239984575
 30
0.0
 11
-8.213591119522561
 21
26.76873239984575
 31
0.0
  0
LINE
  5
6B
330
2
100
AcDbEntity
  8
GAIKEI
  6
Continuous
 62
     1
100
AcDbLine
 10
-8.013591119522629
 20
8.612068399845739
 30
0.0
 11
-8.013591119522629
 21
26.56873239984574
 31
0.0
  0
LINE
  5
6C
330
2
100
AcDbEntity
  8
GAIKEI
  6
Continuous
 62
     1
100
AcDbLine
 10
-27.16370511952255
 20
8.612068399845739
 30
0.0
 11
-27.16370511952255
 21
26.56873239984574
 31
0.0
  0
ARC
  5
6D
330
2
100
AcDbEntity
  8
GAIKEI
  6
Continuous
 62
     1
100
AcDbCircle
 10
-8.213591119522561
 20
26.56873239984574
 30
0.0
 40
0.2
100
AcDbArc
 50
0.0
 51
90.0
  0
ARC
  5
6E
330
2
100
AcDbEntity
  8
GAIKEI
  6
Continuous
 62
     1
100
AcDbCircle
 10
-26.96370511952262
 20
26.56873239984574
 30
0.0
 40
0.2
100
AcDbArc
 50
90.0
 51
180.0
  0
LINE
  5
6F
330
2
100
AcDbEntity
  8
GAIKEI
  6
Continuous
 62
     1
100
AcDbLine
 10
21.00438250262482
 20
11.61206839984574
 30
0.0
 11
22.26787290262473
 21
11.59001399984574
 31
0.0
  0
LINE
  5
70
330
2
100
AcDbEntity
  8
GAIKEI
  6
Continuous
 62
     1
100
AcDbLine
 10
-9.890695119522547
 20
9.002101399845741
 30
0.0
 11
-9.890695119522547
 21
11.32203539984574
 31
0.0
  0
LINE
  5
71
330
2
100
AcDbEntity
  8
GAIKEI
  6
Continuous
 62
     1
100
AcDbLine
 10
-8.249815119522622
 20
9.002101399845741
 30
0.0
 11
-8.249815119522622
 21
11.32203539984574
 31
0.0
  0
CIRCLE
  5
72
330
2
100
AcDbEntity
  8
GAIKEI
  6
Continuous
 62
     1
100
AcDbCircle
 10
-9.070255119522585
 20
10.11206839984574
 30
0.0
 40
0.4
  0
LINE
  5
73
330
2
100
AcDbEntity
  8
GAIKEI
  6
Continuous
 62
     1
100
AcDbLine
 10
-8.370255119522539
 20
9.112068399845739
 30
0.0
 11
-8.370255119522539
 21
11.21206839984575
 31
0.0
  0
LINE
  5
74
330
2
100
AcDbEntity
  8
GAIKEI
  6
Continuous
 62
     1
100
AcDbLine
 10
-9.77025511952263
 20
9.112068399845739
 30
0.0
 11
-9.77025511952263
 21
11.21206839984575
 31
0.0
  0
LINE
  5
75
330
2
100
AcDbEntity
  8
GAIKEI
  6
Continuous
 62
     1
100
AcDbLine
 10
-9.890695119522547
 20
9.002101399845741
 30
0.0
 11
-8.249815119522622
 21
9.002101399845741
 31
0.0
  0
LINE
  5
76
330
2
100
AcDbEntity
  8
GAIKEI
  6
Continuous
 62
     1
100
AcDbLine
 10
-9.77025511952263
 20
9.112068399845739
 30
0.0
 11
-8.370255119522539
 21
9.112068399845739
 31
0.0
  0
LINE
  5
77
330
2
100
AcDbEntity
  8
GAIKEI
  6
Continuous
 62
     1
100
AcDbLine
 10
-8.370255119522539
 20
9.112068399845739
 30
0.0
 11
-8.249815119522622
 21
9.002101399845741
 31
0.0
  0
LINE
  5
78
330
2
100
AcDbEntity
  8
GAIKEI
  6
Continuous
 62
     1
100
AcDbLine
 10
-9.77025511952263
 20
9.112068399845739
 30
0.0
 11
-9.890695119522547
 21
9.002101399845741
 31
0.0
  0
CIRCLE
  5
79
330
2
100
AcDbEntity
  8
GAIKEI
  6
Continuous
 62
     1
100
AcDbCircle
 10
-26.07025511952258
 20
10.11206839984574
 30
0.0
 40
0.4
  0
LINE
  5
7A
330
2
100
AcDbEntity
  8
GAIKEI
  6
Continuous
 62
     1
100
AcDbLine
 10
-25.37025511952254
 20
9.112068399845739
 30
0.0
 11
-26.77025511952263
 21
9.112068399845739
 31
0.0
  0
LINE
  5
7B
330
2
100
AcDbEntity
  8
GAIKEI
  6
Continuous
 62
     1
100
AcDbLine
 10
-26.77025511952263
 20
9.112068399845739
 30
0.0
 11
-26.89069511952255
 21
9.002101399845741
 31
0.0
  0
LINE
  5
7C
330
2
100
AcDbEntity
  8
GAIKEI
  6
Continuous
 62
     1
100
AcDbLine
 10
-25.24981511952262
 20
9.002101399845741
 30
0.0
 11
-26.89069511952255
 21
9.002101399845741
 31
0.0
  0
LINE
  5
7D
330
2
100
AcDbEntity
  8
GAIKEI
  6
Continuous
 62
     1
100
AcDbLine
 10
-25.37025511952254
 20
9.112068399845739
 30
0.0
 11
-25.24981511952262
 21
9.002101399845741
 31
0.0
  0
LINE
  5
7E
330
2
100
AcDbEntity
  8
GAIKEI
  6
Continuous
 62
     1
100
AcDbLine
 10
-9.890695119522547
 20
26.53250839984574
 30
0.0
 11
-8.249815119522622
 21
26.53250839984574
 31
0.0
  0
LINE
  5
7F
330
2
100
AcDbEntity
  8
GAIKEI
  6
Continuous
 62
     1
100
AcDbLine
 10
-9.890695119522547
 20
24.89162839984575
 30
0.0
 11
-8.249815119522622
 21
24.89162839984575
 31
0.0
  0
LINE
  5
80
330
2
100
AcDbEntity
  8
GAIKEI
  6
Continuous
 62
     1
100
AcDbLine
 10
-8.249815119522622
 20
24.89162839984575
 30
0.0
 11
-8.249815119522622
 21
26.53250839984574
 31
0.0
  0
LINE
  5
81
330
2
100
AcDbEntity
  8
GAIKEI
  6
Continuous
 62
     1
100
AcDbLine
 10
-9.890695119522547
 20
24.89162839984575
 30
0.0
 11
-9.890695119522547
 21
26.53250839984574
 31
0.0
  0
LINE
  5
82
330
2
100
AcDbEntity
  8
GAIKEI
  6
Continuous
 62
     1
100
AcDbLine
 10
-8.370255119522539
 20
25.01206839984575
 30
0.0
 11
-8.370255119522539
 21
26.41206839984574
 31
0.0
  0
LINE
  5
83
330
2
100
AcDbEntity
  8
GAIKEI
  6
Continuous
 62
     1
100
AcDbLine
 10
-9.77025511952263
 20
25.01206839984575
 30
0.0
 11
-9.77025511952263
 21
26.41206839984574
 31
0.0
  0
LINE
  5
84
330
2
100
AcDbEntity
  8
GAIKEI
  6
Continuous
 62
     1
100
AcDbLine
 10
-9.77025511952263
 20
25.01206839984575
 30
0.0
 11
-8.370255119522539
 21
25.01206839984575
 31
0.0
  0
LINE
  5
85
330
2
100
AcDbEntity
  8
GAIKEI
  6
Continuous
 62
     1
100
AcDbLine
 10
-9.77025511952263
 20
26.41206839984574
 30
0.0
 11
-8.370255119522539
 21
26.41206839984574
 31
0.0
  0
LINE
  5
86
330
2
100
AcDbEntity
  8
GAIKEI
  6
Continuous
 62
     1
100
AcDbLine
 10
-8.249815119522622
 20
26.53250839984574
 30
0.0
 11
-8.370255119522539
 21
26.41206839984574
 31
0.0
  0
LINE
  5
87
330
2
100
AcDbEntity
  8
GAIKEI
  6
Continuous
 62
     1
100
AcDbLine
 10
-8.249815119522622
 20
24.89162839984575
 30
0.0
 11
-8.370255119522539
 21
25.01206839984575
 31
0.0
  0
LINE
  5
88
330
2
100
AcDbEntity
  8
GAIKEI
  6
Continuous
 62
     1
100
AcDbLine
 10
-9.890695119522547
 20
24.89162839984575
 30
0.0
 11
-9.77025511952263
 21
25.01206839984575
 31
0.0
  0
LINE
  5
89
330
2
100
AcDbEntity
  8
GAIKEI
  6
Continuous
 62
     1
100
AcDbLine
 10
-9.77025511952263
 20
26.41206839984574
 30
0.0
 11
-9.890695119522547
 21
26.53250839984574
 31
0.0
  0
CIRCLE
  5
8A
330
2
100
AcDbEntity
  8
GAIKEI
  6
Continuous
 62
     1
100
AcDbCircle
 10
-9.070255119522585
 20
25.71206839984575
 30
0.0
 40
0.4
  0
LINE
  5
8B
330
2
100
AcDbEntity
  8
GAIKEI
  6
Continuous
 62
     1
100
AcDbLine
 10
-25.24981511952262
 20
26.53250839984574
 30
0.0
 11
-26.89069511952255
 21
26.53250839984574
 31
0.0
  0
LINE
  5
8C
330
2
100
AcDbEntity
  8
GAIKEI
  6
Continuous
 62
     1
100
AcDbLine
 10
-25.24981511952262
 20
24.89162839984575
 30
0.0
 11
-25.24981511952262
 21
26.53250839984574
 31
0.0
  0
LINE
  5
8D
330
2
100
AcDbEntity
  8
GAIKEI
  6
Continuous
 62
     1
100
AcDbLine
 10
-25.37025511952254
 20
25.01206839984575
 30
0.0
 11
-25.37025511952254
 21
26.41206839984574
 31
0.0
  0
LINE
  5
8E
330
2
100
AcDbEntity
  8
GAIKEI
  6
Continuous
 62
     1
100
AcDbLine
 10
-25.37025511952254
 20
26.41206839984574
 30
0.0
 11
-26.77025511952263
 21
26.41206839984574
 31
0.0
  0
LINE
  5
8F
330
2
100
AcDbEntity
  8
GAIKEI
  6
Continuous
 62
     1
100
AcDbLine
 10
-25.37025511952254
 20
26.41206839984574
 30
0.0
 11
-25.24981511952262
 21
26.53250839984574
 31
0.0
  0
CIRCLE
  5
90
330
2
100
AcDbEntity
  8
GAIKEI
  6
Continuous
 62
     1
100
AcDbCircle
 10
-26.07025511952258
 20
25.71206839984575
 30
0.0
 40
0.4
  0
LINE
  5
91
330
2
100
AcDbEntity
  8
GAIKEI
  6
Continuous
 62
     1
100
AcDbLine
 10
-25.24981511952262
 20
24.89162839984575
 30
0.0
 11
-26.89069511952255
 21
24.89162839984575
 31
0.0
  0
LINE
  5
92
330
2
100
AcDbEntity
  8
GAIKEI
  6
Continuous
 62
     1
100
AcDbLine
 10
-26.89069511952255
 20
24.89162839984575
 30
0.0
 11
-26.89069511952255
 21
26.53250839984574
 31
0.0
  0
LINE
  5
93
330
2
100
AcDbEntity
  8
GAIKEI
  6
Continuous
 62
     1
100
AcDbLine
 10
-26.77025511952263
 20
25.01206839984575
 30
0.0
 11
-26.77025511952263
 21
26.41206839984574
 31
0.0
  0
LINE
  5
94
330
2
100
AcDbEntity
  8
GAIKEI
  6
Continuous
 62
     1
100
AcDbLine
 10
-25.37025511952254
 20
25.01206839984575
 30
0.0
 11
-26.77025511952263
 21
25.01206839984575
 31
0.0
  0
LINE
  5
95
330
2
100
AcDbEntity
  8
GAIKEI
  6
Continuous
 62
     1
100
AcDbLine
 10
-26.89069511952255
 20
24.89162839984575
 30
0.0
 11
-26.77025511952263
 21
25.01206839984575
 31
0.0
  0
LINE
  5
96
330
2
100
AcDbEntity
  8
GAIKEI
  6
Continuous
 62
     1
100
AcDbLine
 10
-25.24981511952262
 20
24.89162839984575
 30
0.0
 11
-25.37025511952254
 21
25.01206839984575
 31
0.0
  0
LINE
  5
97
330
2
100
AcDbEntity
  8
GAIKEI
  6
Continuous
 62
     1
100
AcDbLine
 10
-26.89069511952255
 20
26.53250839984574
 30
0.0
 11
-26.77025511952263
 21
26.41206839984574
 31
0.0
  0
LINE
  5
98
330
2
100
AcDbEntity
  8
GAIKEI
  6
Continuous
 62
     1
100
AcDbLine
 10
-9.890695119522547
 20
11.32203539984574
 30
0.0
 11
-8.249815119522622
 21
11.32203539984574
 31
0.0
  0
LINE
  5
99
330
2
100
AcDbEntity
  8
GAIKEI
  6
Continuous
 62
     1
100
AcDbLine
 10
-9.77025511952263
 20
11.21206839984575
 30
0.0
 11
-8.370255119522539
 21
11.21206839984575
 31
0.0
  0
LINE
  5
9A
330
2
100
AcDbEntity
  8
GAIKEI
  6
Continuous
 62
     1
100
AcDbLine
 10
-8.249815119522622
 20
11.32203539984574
 30
0.0
 11
-8.370255119522539
 21
11.21206839984575
 31
0.0
  0
LINE
  5
9B
330
2
100
AcDbEntity
  8
GAIKEI
  6
Continuous
 62
     1
100
AcDbLine
 10
-9.890695119522547
 20
11.32203539984574
 30
0.0
 11
-9.77025511952263
 21
11.21206839984575
 31
0.0
  0
LINE
  5
9C
330
2
100
AcDbEntity
  8
GAIKEI
  6
Continuous
 62
     1
100
AcDbLine
 10
-25.37025511952254
 20
9.112068399845739
 30
0.0
 11
-25.37025511952254
 21
11.21206839984575
 31
0.0
  0
LINE
  5
9D
330
2
100
AcDbEntity
  8
GAIKEI
  6
Continuous
 62
     1
100
AcDbLine
 10
-25.24981511952262
 20
9.002101399845741
 30
0.0
 11
-25.24981511952262
 21
11.32203539984574
 31
0.0
  0
LINE
  5
9E
330
2
100
AcDbEntity
  8
GAIKEI
  6
Continuous
 62
     1
100
AcDbLine
 10
-25.24981511952262
 20
11.32203539984574
 30
0.0
 11
-26.89069511952255
 21
11.32203539984574
 31
0.0
  0
LINE
  5
9F
330
2
100
AcDbEntity
  8
GAIKEI
  6
Continuous
 62
     1
100
AcDbLine
 10
-25.37025511952254
 20
11.21206839984575
 30
0.0
 11
-26.77025511952263
 21
11.21206839984575
 31
0.0
  0
LINE
  5
A0
330
2
100
AcDbEntity
  8
GAIKEI
  6
Continuous
 62
     1
100
AcDbLine
 10
-25.24981511952262
 20
11.32203539984574
 30
0.0
 11
-25.37025511952254
 21
11.21206839984575
 31
0.0
  0
LINE
  5
A1
330
2
100
AcDbEntity
  8
GAIKEI
  6
Continuous
 62
     1
100
AcDbLine
 10
-26.89069511952255
 20
9.002101399845741
 30
0.0
 11
-26.89069511952255
 21
11.32203539984574
 31
0.0
  0
LINE
  5
A2
330
2
100
AcDbEntity
  8
GAIKEI
  6
Continuous
 62
     1
100
AcDbLine
 10
-26.77025511952263
 20
9.112068399845739
 30
0.0
 11
-26.77025511952263
 21
11.21206839984575
 31
0.0
  0
LINE
  5
A3
330
2
100
AcDbEntity
  8
GAIKEI
  6
Continuous
 62
     1
100
AcDbLine
 10
-26.89069511952255
 20
11.32203539984574
 30
0.0
 11
-26.77025511952263
 21
11.21206839984575
 31
0.0
  0
LINE
  5
A4
330
2
100
AcDbEntity
  8
GAIKEI
  6
Continuous
100
AcDbLine
 10
22.46438250262475
 20
26.95100099984575
 30
0.0
 11
22.46438250262475
 21
8.812068399845742
 31
0.0
  0
ARC
  5
A5
330
2
100
AcDbEntity
  8
GAIKEI
  6
Continuous
 62
     1
100
AcDbCircle
 10
22.26438250262481
 20
11.39004459984573
 30
0.0
 40
0.2
100
AcDbArc
 50
0.0
 51
88.99999999999822
  0
LINE
  5
A6
330
2
100
AcDbEntity
  8
GAIKEI
  6
Continuous
100
AcDbLine
 10
22.46438250262475
 20
10.81381399984573
 30
0.0
 11
22.56438250262477
 21
10.81206839984574
 31
0.0
  0
LINE
  5
A7
330
2
100
AcDbEntity
  8
GAIKEI
  6
Continuous
100
AcDbLine
 10
22.46438250262475
 20
9.410322799845744
 30
0.0
 11
22.56438250262477
 21
9.412068399845736
 31
0.0
  0
LINE
  5
A8
330
2
100
AcDbEntity
  8
GAIKEI
  6
Continuous
100
AcDbLine
 10
22.56438250262477
 20
9.412068399845736
 30
0.0
 11
22.56438250262477
 21
10.81206839984574
 31
0.0
  0
LINE
  5
A9
330
2
100
AcDbEntity
  8
GAIKEI
  6
Continuous
100
AcDbLine
 10
-27.37025511952254
 20
8.612068399845739
 30
0.0
 11
-7.77025511952263
 21
8.612068399845739
 31
0.0
  0
LINE
  5
AA
330
2
100
AcDbEntity
  8
GAIKEI
  6
Continuous
100
AcDbLine
 10
-20.37025511952254
 20
8.612068399845739
 30
0.0
 11
-19.58771011952262
 21
5.612068399845739
 31
0.0
  0
LINE
  5
AB
330
2
100
AcDbEntity
  8
GAIKEI
  6
Continuous
100
AcDbLine
 10
-19.57025511952258
 20
4.612068399845739
 30
0.0
 11
-19.58771011952262
 21
5.612068399845739
 31
0.0
  0
LINE
  5
AC
330
2
100
AcDbEntity
  8
GAIKEI
  6
Continuous
100
AcDbLine
 10
-19.57025511952258
 20
4.612068399845739
 30
0.0
 11
-19.45025511952258
 21
2.612068399845739
 31
0.0
  0
LINE
  5
AD
330
2
100
AcDbEntity
  8
GAIKEI
  6
Continuous
100
AcDbLine
 10
-19.45025511952258
 20
2.612068399845739
 30
0.0
 11
-13.59025511952256
 21
2.612068399845739
 31
0.0
  0
LINE
  5
AE
330
2
100
AcDbEntity
  8
GAIKEI
  6
Continuous
100
AcDbLine
 10
-13.47025511952256
 20
4.612068399845739
 30
0.0
 11
-13.59025511952256
 21
2.612068399845739
 31
0.0
  0
LINE
  5
AF
330
2
100
AcDbEntity
  8
GAIKEI
  6
Continuous
100
AcDbLine
 10
-13.47025511952256
 20
4.612068399845739
 30
0.0
 11
-11.5883951195226
 21
4.612068399845739
 31
0.0
  0
ARC
  5
B0
330
2
100
AcDbEntity
  8
GAIKEI
  6
Continuous
100
AcDbCircle
 10
-11.5883951195226
 20
5.012068399845745
 30
0.0
 40
0.4
100
AcDbArc
 50
270.0
 51
356.9999999999995
  0
LINE
  5
B1
330
2
100
AcDbEntity
  8
GAIKEI
  6
Continuous
100
AcDbLine
 10
-10.99917831952257
 20
8.612068399845739
 30
0.0
 11
-11.18894331952265
 21
4.991133999845743
 31
0.0
  0
LINE
  5
B2
330
2
100
AcDbEntity
  8
GAIKEI
  6
Continuous
100
AcDbLine
 10
16.09434710262474
 20
8.624397199845745
 30
0.0
 11
16.16438250262479
 21
4.612068399845739
 31
0.0
  0
LINE
  5
B3
330
2
100
AcDbEntity
  8
GAIKEI
  6
Continuous
100
AcDbLine
 10
20.23420270262477
 20
8.612068399845739
 30
0.0
 11
20.16438250262479
 21
4.612068399845739
 31
0.0
  0
LINE
  5
B4
330
2
100
AcDbEntity
  8
GAIKEI
  6
Continuous
100
AcDbLine
 10
20.23441790262473
 20
8.624397199845745
 30
0.0
 11
20.16438250262479
 21
4.612068399845739
 31
0.0
  0
LINE
  5
B5
330
2
100
AcDbEntity
  8
GAIKEI
  6
Continuous
100
AcDbLine
 10
16.09456230262481
 20
8.612068399845739
 30
0.0
 11
16.16438250262479
 21
4.612068399845739
 31
0.0
  0
LINE
  5
B6
330
2
100
AcDbEntity
  8
GAIKEI
  6
Continuous
100
AcDbLine
 10
20.23441790262473
 20
8.624397199845745
 30
0.0
 11
20.16438250262479
 21
4.612068399845739
 31
0.0
  0
LINE
  5
B7
330
2
100
AcDbEntity
  8
GAIKEI
  6
Continuous
100
AcDbLine
 10
16.09448750262481
 20
8.616355199845742
 30
0.0
 11
16.16438250262479
 21
4.612068399845739
 31
0.0
  0
LINE
  5
B8
330
2
100
AcDbEntity
  8
GAIKEI
  6
Continuous
100
AcDbLine
 10
16.28438250262479
 20
2.612068399845739
 30
0.0
 11
20.04438250262479
 21
2.612068399845739
 31
0.0
  0
LINE
  5
B9
330
2
100
AcDbEntity
  8
GAIKEI
  6
Continuous
100
AcDbLine
 10
20.16438250262479
 20
4.612068399845739
 30
0.0
 11
20.04438250262479
 21
2.612068399845739
 31
0.0
  0
LINE
  5
BA
330
2
100
AcDbEntity
  8
GAIKEI
  6
Continuous
100
AcDbLine
 10
16.16438250262479
 20
4.612068399845739
 30
0.0
 11
16.28438250262479
 21
2.612068399845739
 31
0.0
  0
LINE
  5
BB
330
2
100
AcDbEntity
  8
GAIKEI
  6
Continuous
100
AcDbLine
 10
16.16438250262479
 20
4.612068399845739
 30
0.0
 11
16.5574613026248
 21
4.612068399845739
 31
0.0
  0
ARC
  5
BC
330
2
100
AcDbEntity
  8
GAIKEI
  6
Continuous
100
AcDbCircle
 10
16.5574613026248
 20
5.012068399845745
 30
0.0
 40
0.4
100
AcDbArc
 50
181.0000000000002
 51
270.0
  0
LINE
  5
BD
330
2
100
AcDbEntity
  8
GAIKEI
  6
Continuous
100
AcDbLine
 10
16.5574613026248
 20
4.612068399845739
 30
0.0
 11
19.77130350262473
 21
4.612068399845739
 31
0.0
  0
ARC
  5
BE
330
2
100
AcDbEntity
  8
GAIKEI
  6
Continuous
100
AcDbCircle
 10
19.77130350262473
 20
5.012068399845745
 30
0.0
 40
0.4
100
AcDbArc
 50
270.0
 51
358.9999999999998
  0
LINE
  5
BF
330
2
100
AcDbEntity
  8
GAIKEI
  6
Continuous
100
AcDbLine
 10
19.77130350262473
 20
4.612068399845739
 30
0.0
 11
20.16438250262479
 21
4.612068399845739
 31
0.0
  0
LINE
  5
C0
330
2
100
AcDbEntity
  8
GAIKEI
  6
Continuous
100
AcDbLine
 10
16.16438250262479
 20
4.612068399845739
 30
0.0
 11
20.16438250262479
 21
4.612068399845739
 31
0.0
  0
LINE
  5
C1
330
2
100
AcDbEntity
  8
GAIKEI
  6
Continuous
100
AcDbLine
 10
20.16438250262479
 20
4.612068399845739
 30
0.0
 11
16.16438250262479
 21
4.612068399845739
 31
0.0
  0
ARC
  5
C2
330
2
100
AcDbEntity
  8
GAIKEI
  6
Continuous
100
AcDbCircle
 10
22.26438250262481
 20
8.812068399845742
 30
0.0
 40
0.2
100
AcDbArc
 50
270.0
 51
0.0
  0
DIMENSION
  5
C3
330
2
100
AcDbEntity
  8
SUNPO
100
AcDbDimension
  2
*D6
 10
-7.570255119522584
 20
35.21770840026363
 30
0.0
 11
-17.57025511952258
 21
36.96770840026363
 31
0.0
 70
    33
  1
100
 71
     5
 42
20.0
  3
STANDARD
100
AcDbAlignedDimension
 13
-27.57025511952259
 23
27.21770840026363
 33
0.0
 14
-7.570255119522585
 24
27.21770840026363
 34
0.0
1001
ACAD
1000
DSTYLE
1002
{
1070
    40
1040
1.0
1070
   140
1040
2.5
1070
   147
1040
0.5
1070
   172
1070
     1
1070
   279
1070
     0
1070
   288
1070
     0
1002
}
  0
DIMENSION
  5
D1
330
2
100
AcDbEntity
  8
SUNPO
100
AcDbDimension
  2
*D5
 10
0.4300371002303791
 20
27.21206839984575
 30
0.0
 11
-1.319962899769626
 21
14.91206839984574
 31
0.0
 70
    33
  1
123
 71
     5
 42
24.60000000000001
  3
STANDARD
100
AcDbAlignedDimension
 13
-7.56996289976962
 23
2.612068399845739
 33
0.0
 14
-7.56996289976962
 24
27.21206839984575
 34
0.0
1001
ACAD
1000
DSTYLE
1002
{
1070
    40
1040
1.0
1070
   140
1040
2.5
1070
   147
1040
0.5
1070
   172
1070
     1
1070
   279
1070
     0
1070
   288
1070
     0
1002
}
  0
DIMENSION
  5
DE
330
2
100
AcDbEntity
  8
SUNPO
100
AcDbDimension
  2
*D4
 10
22.56438250262477
 20
35.21770840026363
 30
0.0
 11
29.6477158359581
 21
36.96770840026363
 31
0.0
 70
    33
  1
49.5
 71
     5
 42
9.899999999999977
  3
STANDARD
100
AcDbAlignedDimension
 13
12.66438250262479
 23
27.21770840026363
 33
0.0
 14
22.56438250262477
 24
27.21770840026363
 34
0.0
1001
ACAD
1000
DSTYLE
1002
{
1070
    40
1040
1.0
1070
   140
1040
2.5
1070
   147
1040
0.5
1070
   172
1070
     1
1070
   279
1070
     0
1070
   288
1070
     0
1002
}
  0
TEXT
  5
EC
330
2
100
AcDbEntity
  8
MOJI1
100
AcDbText
 10
-54.39255824296242
 20
-31.9248282512131
 30
0.0
 40
3.0
  1
入力電圧
100
AcDbText
  0
TEXT
  5
ED
330
2
100
AcDbEntity
  8
MOJI1
100
AcDbText
 10
-14.39255824296242
 20
-31.9248282512131
 30
0.0
 40
3.0
  1
３６Ｖ～５７Ｖ
100
AcDbText
  0
LINE
  5
EE
330
2
100
AcDbEntity
  8
WAKU
 62
     1
100
AcDbLine
 10
68.10744175703757
 20
-32.9248282512131
 30
0.0
 11
-56.8925582429625
 21
-32.9248282512131
 31
0.0
  0
TEXT
  5
F0
330
2
100
AcDbEntity
  8
MOJI1
100
AcDbText
 10
-14.39255824296242
 20
-36.9248282512131
 30
0.0
 40
3.0
  1
最大１２．９５Ｗ
100
AcDbText
  0
LINE
  5
F1
330
2
100
AcDbEntity
  8
WAKU
 62
     4
100
AcDbLine
 10
-16.686977012444
 20
-52.92482825121284
 30
0.0
 11
-16.686977012444
 21
-12.92482825121286
 31
0.0
  0
LINE
  5
F2
330
2
100
AcDbEntity
  8
WAKU
 62
     4
100
AcDbLine
 10
68.10744175703757
 20
-52.92482825121304
 30
0.0
 11
68.10744175703757
 21
-12.92482825121308
 31
0.0
  0
LINE
  5
F3
330
2
100
AcDbEntity
  8
WAKU
 62
     4
100
AcDbLine
 10
-56.8925582429625
 20
-12.92482825121308
 30
0.0
 11
-56.8925582429625
 21
-52.92482825121304
 31
0.0
  0
LINE
  5
F4
330
2
100
AcDbEntity
  8
WAKU
 62
     1
100
AcDbLine
 10
68.10744175703757
 20
-17.92482825121308
 30
0.0
 11
-56.8925582429625
 21
-17.92482825121308
 31
0.0
  0
LINE
  5
F5
330
2
100
AcDbEntity
  8
WAKU
 62
     4
100
AcDbLine
 10
68.10744175703757
 20
-12.92482825121308
 30
0.0
 11
-56.8925582429625
 21
-12.92482825121308
 31
0.0
  0
LINE
  5
F6
330
2
100
AcDbEntity
  8
WAKU
 62
     1
100
AcDbLine
 10
68.10744175703757
 20
-22.9248282512131
 30
0.0
 11
-56.8925582429625
 21
-22.9248282512131
 31
0.0
  0
LINE
  5
F7
330
2
100
AcDbEntity
  8
WAKU
 62
     1
100
AcDbLine
 10
68.10744175703757
 20
-27.9248282512131
 30
0.0
 11
-56.8925582429625
 21
-27.9248282512131
 31
0.0
  0
LINE
  5
F8
330
2
100
AcDbEntity
  8
WAKU
 62
     1
100
AcDbLine
 10
68.10744175703757
 20
-37.9248282512131
 30
0.0
 11
-56.8925582429625
 21
-37.9248282512131
 31
0.0
  0
LINE
  5
F9
330
2
100
AcDbEntity
  8
WAKU
 62
     1
100
AcDbLine
 10
68.10744175703757
 20
-42.9248282512131
 30
0.0
 11
-56.8925582429625
 21
-42.9248282512131
 31
0.0
  0
LINE
  5
FA
330
2
100
AcDbEntity
  8
WAKU
 62
     4
100
AcDbLine
 10
-56.8925582429625
 20
-52.92482825121304
 30
0.0
 11
68.10744175703757
 21
-52.92482825121304
 31
0.0
  0
TEXT
  5
FB
330
2
100
AcDbEntity
  8
MOJI1
100
AcDbText
 10
-54.39255824296242
 20
-16.92482825121308
 30
0.0
 40
3.0
  1
電　源
100
AcDbText
  0
TEXT
  5
FC
330
2
100
AcDbEntity
  8
MOJI1
100
AcDbText
 10
-54.39255824296242
 20
-51.92482825121304
 30
0.0
 40
3.0
  1
防水レベル
100
AcDbText
  0
TEXT
  5
FD
330
2
100
AcDbEntity
  8
MOJI1
100
AcDbText
 10
-54.39255824296242
 20
-41.92482825121309
 30
0.0
 40
3.0
  1
電源障害防止
100
AcDbText
  0
TEXT
  5
FE
330
2
100
AcDbEntity
  8
MOJI1
100
AcDbText
 10
-54.39255824296242
 20
-21.9248282512131
 30
0.0
 40
3.0
  1
規　格
100
AcDbText
  0
TEXT
  5
FF
330
2
100
AcDbEntity
  8
MOJI1
100
AcDbText
 10
-54.39255824296242
 20
-26.9248282512131
 30
0.0
 40
3.0
  1
インターフェイス
100
AcDbText
  0
TEXT
  5
100
330
2
100
AcDbEntity
  8
MOJI1
100
AcDbText
 10
-54.39255824296242
 20
-36.9248282512131
 30
0.0
 40
3.0
  1
入力電力
100
AcDbText
  0
TEXT
  5
101
330
2
100
AcDbEntity
  8
MOJI1
100
AcDbText
 10
-14.39255824296242
 20
-41.92482825121309
 30
0.0
 40
3.0
  1
ＶＣＣクラス
100
AcDbText
  0
TEXT
  5
102
330
2
100
AcDbEntity
  8
MOJI1
100
AcDbText
 10
-14.39255824296242
 20
-21.9248282512131
 30
0.0
 40
3.0
  1
ＩＥＥＥ８０２．３ａｆ準拠
100
AcDbText
  0
TEXT
  5
103
330
2
100
AcDbEntity
  8
MOJI1
100
AcDbText
 10
-13.39255824296242
 20
-16.92482825121308
 30
0.0
 40
3.0
  1
ＩＥＥＥ８０２．３ａｆ準拠ＰｏＥより供給
100
AcDbText
  0
TEXT
  5
104
330
2
100
AcDbEntity
  8
MOJI1
100
AcDbText
 10
-14.39255824296242
 20
-46.92482825121309
 30
0.0
 40
3.0
  1
最大１００Ｍ
100
AcDbText
  0
TEXT
  5
105
330
2
100
AcDbEntity
  8
MOJI1
100
AcDbText
 10
-54.39255824296242
 20
-46.92482825121309
 30
0.0
 40
3.0
  1
伝送距離
100
AcDbText
  0
TEXT
  5
106
330
2
100
AcDbEntity
  8
MOJI1
100
AcDbText
 10
-14.39255824296242
 20
-26.9248282512131
 30
0.0
 40
3.0
  1
１０Bａｓｅ－Ｔ／１００Ｂａｓｅ－ＴＸ（ＬＡＮ×１ Ｐｏｅ出力×１）
 41
0.6800000000000001
100
AcDbText
  0
LINE
  5
107
330
2
100
AcDbEntity
  8
WAKU
 62
     1
100
AcDbLine
 10
68.10744175703757
 20
-47.9248282512131
 30
0.0
 11
-56.8925582429625
 21
-47.9248282512131
 31
0.0
  0
TEXT
  5
108
330
2
100
AcDbEntity
  8
MOJI1
100
AcDbText
 10
-14.39255824296242
 20
-51.92482825121304
 30
0.0
 40
3.0
  1
ＪＩＳ　Ｃ　０９２０準拠　ＩＰＸ４相当　坊まつ型
 41
0.95
100
AcDbText
  0
ENDSEC
  0
SECTION
  2
OBJECTS
  0
DICTIONARY
  5
9
330
0
100
AcDbDictionary
281
     1
  3
ACAD_COLOR
350
31
  3
ACAD_GROUP
350
2D
  3
ACAD_LAYOUT
350
D
  3
ACAD_MATERIAL
350
30
  3
ACAD_MLINESTYLE
350
2E
  3
ACAD_PLOTSETTINGS
350
2F
  3
ACAD_PLOTSTYLENAME
350
8
  3
ACDBHEADERROUNDTRIPXREC
350
146
  3
AcDbVariableDictionary
350
141
  0
DICTIONARY
  5
15
330
14
100
AcDbDictionary
280
     1
281
     1
  3
ACAD_LAYERFILTERS
360
16
  3
ACAD_LAYERSTATES
360
17
  0
DICTIONARY
  5
3
330
2
100
AcDbDictionary
280
     1
281
     1
  3
ACAD_LAYOUTSELFREF
360
4
  0
DICTIONARY
  5
F
330
E
100
AcDbDictionary
280
     1
281
     1
  3
ACAD_LAYOUTSELFREF
360
10
  0
DICTIONARY
  5
31
102
{ACAD_REACTORS
330
9
102
}
330
9
100
AcDbDictionary
281
     1
  0
DICTIONARY
  5
2D
102
{ACAD_REACTORS
330
9
102
}
330
9
100
AcDbDictionary
281
     1
  0
DICTIONARY
  5
D
102
{ACAD_REACTORS
330
9
102
}
330
9
100
AcDbDictionary
281
     1
  3
Model
350
C
  3
ﾚｲｱｳﾄ1
350
13
  0
DICTIONARY
  5
30
102
{ACAD_REACTORS
330
9
102
}
330
9
100
AcDbDictionary
281
     1
  0
DICTIONARY
  5
2E
102
{ACAD_REACTORS
330
9
102
}
330
9
100
AcDbDictionary
281
     1
  3
STANDARD
350
33
  0
DICTIONARY
  5
2F
102
{ACAD_REACTORS
330
9
102
}
330
9
100
AcDbDictionary
281
     1
  0
ACDBDICTIONARYWDFLT
  5
8
102
{ACAD_REACTORS
330
9
102
}
330
9
100
AcDbDictionary
281
     1
  3
Normal
350
7
100
AcDbDictionaryWithDefault
340
7
  0
DICTIONARY
  5
146
102
{ACAD_REACTORS
330
9
102
}
330
9
100
AcDbDictionary
281
     1
  3
COLORDICT
350
148
  3
MATERIALDICT
350
147
  0
DICTIONARY
  5
141
102
{ACAD_REACTORS
330
9
102
}
330
9
100
AcDbDictionary
281
     1
  3
DIMASSOC
350
143
  3
HIDETEXT
350
142
  3
PROJECTNAME
350
144
  0
DICTIONARY
  5
16
102
{ACAD_REACTORS
330
15
102
}
330
15
100
AcDbDictionary
280
     1
281
     1
  0
DICTIONARY
  5
17
102
{ACAD_REACTORS
330
15
102
}
330
15
100
AcDbDictionary
281
     1
  0
XRECORD
  5
4
102
{ACAD_REACTORS
330
3
102
}
330
3
100
AcDbXrecord
280
     1
340
2
  0
XRECORD
  5
10
102
{ACAD_REACTORS
330
F
102
}
330
F
100
AcDbXrecord
280
     1
340
E
  0
LAYOUT
  5
C
102
{ACAD_XDICTIONARY
360
149
102
}
102
{ACAD_REACTORS
330
D
102
}
330
D
100
AcDbPlotSettings
  1

  2
\\URANUS\8FPAM09
  4
A4
  6

 40
4.180416584014891
 41
4.349743366241455
 42
4.222747802734375
 43
4.349761962890625
 44
210.0156707763672
 45
297.0106506347656
 46
6.08
 47
0.0
 48
-4.081672432805361
 49
-3.962786491116958
140
262.2093763083678
141
394.6340021064198
142
1.0
143
1.367741666490767
 70
 11956
 72
     1
 73
     0
 74
     1
  7
tmsacad.ctb
 75
     0
147
0.7311322192630961
148
-77.50331774332335
149
107.6497320618591
100
AcDbLayout
  1
Model
 70
     1
 71
     0
 10
0.0
 20
0.0
 11
12.0
 21
9.0
 12
0.0
 22
0.0
 32
0.0
 14
0.0
 24
0.0
 34
0.0
 15
0.0
 25
0.0
 35
0.0
146
0.0
 13
0.0
 23
0.0
 33
0.0
 16
1.0
 26
0.0
 36
0.0
 17
0.0
 27
1.0
 37
0.0
 76
     0
330
2
  0
LAYOUT
  5
13
102
{ACAD_XDICTIONARY
360
14B
102
}
102
{ACAD_REACTORS
330
D
102
}
330
D
100
AcDbPlotSettings
  1

  2
C:\Program Files\ACAD2000\plotters\DWF ePlot.pc3
  4

  6

 40
0.0
 41
0.0
 42
0.0
 43
0.0
 44
0.0
 45
0.0
 46
0.0
 47
0.0
 48
0.0
 49
0.0
140
0.0
141
0.0
142
1.0
143
1.0
 70
   688
 72
     0
 73
     0
 74
     5
  7
tmsacad.ctb
 75
    16
147
1.0
148
0.0
149
0.0
100
AcDbLayout
  1
ﾚｲｱｳﾄ1
 70
     1
 71
     1
 10
0.0
 20
0.0
 11
12.0
 21
9.0
 12
0.0
 22
0.0
 32
0.0
 14
1.000000000000000E+20
 24
1.000000000000000E+20
 34
1.000000000000000E+20
 15
-1.000000000000000E+20
 25
-1.000000000000000E+20
 35
-1.000000000000000E+20
146
0.0
 13
0.0
 23
0.0
 33
0.0
 16
1.0
 26
0.0
 36
0.0
 17
0.0
 27
1.0
 37
0.0
 76
     0
330
E
  0
MLINESTYLE
  5
33
102
{ACAD_REACTORS
330
2E
102
}
330
2E
100
AcDbMlineStyle
  2
STANDARD
 70
     0
  3

 62
   256
 51
90.0
 52
90.0
 71
     2
 49
0.5
 62
   256
  6
BYLAYER
 49
-0.5
 62
   256
  6
BYLAYER
  0
ACDBPLACEHOLDER
  5
7
102
{ACAD_REACTORS
330
8
102
}
330
8
  0
XRECORD
  5
148
102
{ACAD_REACTORS
330
146
102
}
330
146
100
AcDbXrecord
280
     1
340
31
  0
XRECORD
  5
147
102
{ACAD_REACTORS
330
146
102
}
330
146
100
AcDbXrecord
280
     1
340
30
  0
DICTIONARYVAR
  5
143
102
{ACAD_REACTORS
330
141
102
}
330
141
100
DictionaryVariables
280
     0
  1
1
  0
DICTIONARYVAR
  5
142
102
{ACAD_REACTORS
330
141
102
}
330
141
100
DictionaryVariables
280
     0
  1
1
  0
DICTIONARYVAR
  5
144
102
{ACAD_REACTORS
330
141
102
}
330
141
100
DictionaryVariables
280
     0
  1

  0
DICTIONARY
  5
149
330
C
100
AcDbDictionary
280
     1
281
     1
  3
ACAD_XREC_ROUNDTRIP
360
14A
  0
DICTIONARY
  5
14B
330
13
100
AcDbDictionary
280
     1
281
     1
  3
ACAD_XREC_ROUNDTRIP
360
14C
  0
XRECORD
  5
14A
102
{ACAD_REACTORS
330
149
102
}
330
149
100
AcDbXrecord
280
     1
102
SHADEPLOT
 70
     0
102
SHADEPLOTRESLEVEL
 70
     2
102
SHADEPLOTCUSTOMDPI
 70
   300
  0
XRECORD
  5
14C
102
{ACAD_REACTORS
330
14B
102
}
330
14B
100
AcDbXrecord
280
     1
102
SHADEPLOT
 70
     0
102
SHADEPLOTRESLEVEL
 70
     2
102
SHADEPLOTCUSTOMDPI
 70
   300
  0
ENDSEC
  0
EOF
