  0
SECTION
  2
HEADER
  9
$ACADVER
  1
AC1015
  9
$ACADMAINTVER
 70
    20
  9
$DWGCODEPAGE
  3
ANSI_932
  9
$INSBASE
 10
0.0
 20
246.4992141396417
 30
0.0
  9
$EXTMIN
 10
-65.81786831658201
 20
-74.83897716708634
 30
-0.0015258207003583
  9
$EXTMAX
 10
59.45151730010366
 20
37.98235470376949
 30
0.0000000349246037
  9
$LIMMIN
 10
-1101.784450318844
 20
-1579.160531687244
  9
$LIMMAX
 10
-508.2420711400536
 20
-1161.440814074914
  9
$ORTHOMODE
 70
     1
  9
$REGENMODE
 70
     1
  9
$FILLMODE
 70
     1
  9
$QTEXTMODE
 70
     0
  9
$MIRRTEXT
 70
     1
  9
$LTSCALE
 40
1.0
  9
$ATTMODE
 70
     1
  9
$TEXTSIZE
 40
3.0
  9
$TRACEWID
 40
0.5
  9
$TEXTSTYLE
  7
STANDARD
  9
$CLAYER
  8
GAIKEI
  9
$CELTYPE
  6
BYLAYER
  9
$CECOLOR
 62
   256
  9
$CELTSCALE
 40
1.0
  9
$DISPSILH
 70
     0
  9
$DIMSCALE
 40
1.0
  9
$DIMASZ
 40
2.0
  9
$DIMEXO
 40
2.0
  9
$DIMDLI
 40
8.0
  9
$DIMRND
 40
0.0
  9
$DIMDLE
 40
0.0
  9
$DIMEXE
 40
2.0
  9
$DIMTP
 40
0.0
  9
$DIMTM
 40
0.0
  9
$DIMTXT
 40
2.5
  9
$DIMCEN
 40
0.0
  9
$DIMTSZ
 40
0.0
  9
$DIMTOL
 70
     0
  9
$DIMLIM
 70
     0
  9
$DIMTIH
 70
     0
  9
$DIMTOH
 70
     0
  9
$DIMSE1
 70
     0
  9
$DIMSE2
 70
     0
  9
$DIMTAD
 70
     3
  9
$DIMZIN
 70
     0
  9
$DIMBLK
  1

  9
$DIMASO
 70
     1
  9
$DIMSHO
 70
     1
  9
$DIMPOST
  1

  9
$DIMAPOST
  1

  9
$DIMALT
 70
     0
  9
$DIMALTD
 70
     2
  9
$DIMALTF
 40
25.4
  9
$DIMLFAC
 40
1.0
  9
$DIMTOFL
 70
     1
  9
$DIMTVP
 40
0.0
  9
$DIMTIX
 70
     0
  9
$DIMSOXD
 70
     0
  9
$DIMSAH
 70
     1
  9
$DIMBLK1
  1
OPEN30
  9
$DIMBLK2
  1
OPEN30
  9
$DIMSTYLE
  2
STANDARD
  9
$DIMCLRD
 70
     0
  9
$DIMCLRE
 70
     0
  9
$DIMCLRT
 70
     0
  9
$DIMTFAC
 40
1.0
  9
$DIMGAP
 40
0.5
  9
$DIMJUST
 70
     0
  9
$DIMSD1
 70
     0
  9
$DIMSD2
 70
     0
  9
$DIMTOLJ
 70
     1
  9
$DIMTZIN
 70
     0
  9
$DIMALTZ
 70
     0
  9
$DIMALTTZ
 70
     0
  9
$DIMUPT
 70
     0
  9
$DIMDEC
 70
     4
  9
$DIMTDEC
 70
     4
  9
$DIMALTU
 70
     2
  9
$DIMALTTD
 70
     2
  9
$DIMTXSTY
  7
STANDARD
  9
$DIMAUNIT
 70
     0
  9
$DIMADEC
 70
     0
  9
$DIMALTRND
 40
0.0
  9
$DIMAZIN
 70
     0
  9
$DIMDSEP
 70
    46
  9
$DIMATFIT
 70
     3
  9
$DIMFRAC
 70
     0
  9
$DIMLDRBLK
  1
OPEN30
  9
$DIMLUNIT
 70
     2
  9
$DIMLWD
 70
    -2
  9
$DIMLWE
 70
    -2
  9
$DIMTMOVE
 70
     0
  9
$LUNITS
 70
     2
  9
$LUPREC
 70
     4
  9
$SKETCHINC
 40
0.1
  9
$FILLETRAD
 40
2.6
  9
$AUNITS
 70
     0
  9
$AUPREC
 70
     0
  9
$MENU
  1
ACAD
  9
$ELEVATION
 40
0.0
  9
$PELEVATION
 40
0.0
  9
$THICKNESS
 40
0.0
  9
$LIMCHECK
 70
     0
  9
$CHAMFERA
 40
0.0
  9
$CHAMFERB
 40
0.0
  9
$CHAMFERC
 40
0.0
  9
$CHAMFERD
 40
0.0
  9
$SKPOLY
 70
     0
  9
$TDCREATE
 40
2451815.565532581
  9
$TDUCREATE
 40
2451815.190532581
  9
$TDUPDATE
 40
2456624.558644202
  9
$TDUUPDATE
 40
2456624.183644202
  9
$TDINDWG
 40
0.6293853704
  9
$TDUSRTIMER
 40
0.6293853704
  9
$USRTIMER
 70
     1
  9
$ANGBASE
 50
0.0
  9
$ANGDIR
 70
     0
  9
$PDMODE
 70
     0
  9
$PDSIZE
 40
0.0
  9
$PLINEWID
 40
0.0
  9
$SPLFRAME
 70
     0
  9
$SPLINETYPE
 70
     6
  9
$SPLINESEGS
 70
     8
  9
$HANDSEED
  5
72E
  9
$SURFTAB1
 70
     6
  9
$SURFTAB2
 70
     6
  9
$SURFTYPE
 70
     6
  9
$SURFU
 70
     6
  9
$SURFV
 70
     6
  9
$UCSBASE
  2

  9
$UCSNAME
  2

  9
$UCSORG
 10
0.0
 20
0.0
 30
0.0
  9
$UCSXDIR
 10
1.0
 20
0.0
 30
0.0
  9
$UCSYDIR
 10
0.0
 20
1.0
 30
0.0
  9
$UCSORTHOREF
  2

  9
$UCSORTHOVIEW
 70
     0
  9
$UCSORGTOP
 10
0.0
 20
0.0
 30
0.0
  9
$UCSORGBOTTOM
 10
0.0
 20
0.0
 30
0.0
  9
$UCSORGLEFT
 10
0.0
 20
0.0
 30
0.0
  9
$UCSORGRIGHT
 10
0.0
 20
0.0
 30
0.0
  9
$UCSORGFRONT
 10
0.0
 20
0.0
 30
0.0
  9
$UCSORGBACK
 10
0.0
 20
0.0
 30
0.0
  9
$PUCSBASE
  2

  9
$PUCSNAME
  2

  9
$PUCSORG
 10
0.0
 20
0.0
 30
0.0
  9
$PUCSXDIR
 10
1.0
 20
0.0
 30
0.0
  9
$PUCSYDIR
 10
0.0
 20
1.0
 30
0.0
  9
$PUCSORTHOREF
  2

  9
$PUCSORTHOVIEW
 70
     0
  9
$PUCSORGTOP
 10
0.0
 20
0.0
 30
0.0
  9
$PUCSORGBOTTOM
 10
0.0
 20
0.0
 30
0.0
  9
$PUCSORGLEFT
 10
0.0
 20
0.0
 30
0.0
  9
$PUCSORGRIGHT
 10
0.0
 20
0.0
 30
0.0
  9
$PUCSORGFRONT
 10
0.0
 20
0.0
 30
0.0
  9
$PUCSORGBACK
 10
0.0
 20
0.0
 30
0.0
  9
$USERI1
 70
     0
  9
$USERI2
 70
     0
  9
$USERI3
 70
     0
  9
$USERI4
 70
     0
  9
$USERI5
 70
     0
  9
$USERR1
 40
0.0
  9
$USERR2
 40
0.0
  9
$USERR3
 40
0.0
  9
$USERR4
 40
0.0
  9
$USERR5
 40
0.0
  9
$WORLDVIEW
 70
     1
  9
$SHADEDGE
 70
     3
  9
$SHADEDIF
 70
    70
  9
$TILEMODE
 70
     1
  9
$MAXACTVP
 70
    48
  9
$PINSBASE
 10
0.0
 20
0.0
 30
0.0
  9
$PLIMCHECK
 70
     0
  9
$PEXTMIN
 10
1.000000000000000E+20
 20
1.000000000000000E+20
 30
1.000000000000000E+20
  9
$PEXTMAX
 10
-1.000000000000000E+20
 20
-1.000000000000000E+20
 30
-1.000000000000000E+20
  9
$PLIMMIN
 10
0.0
 20
0.0
  9
$PLIMMAX
 10
12.0
 20
9.0
  9
$UNITMODE
 70
     0
  9
$VISRETAIN
 70
     1
  9
$PLINEGEN
 70
     0
  9
$PSLTSCALE
 70
     1
  9
$TREEDEPTH
 70
  3020
  9
$CMLSTYLE
  2
STANDARD
  9
$CMLJUST
 70
     0
  9
$CMLSCALE
 40
1.0
  9
$PROXYGRAPHICS
 70
     1
  9
$MEASUREMENT
 70
     0
  9
$CELWEIGHT
370
    -1
  9
$ENDCAPS
280
     0
  9
$JOINSTYLE
280
     0
  9
$LWDISPLAY
290
     0
  9
$INSUNITS
 70
     0
  9
$HYPERLINKBASE
  1

  9
$STYLESHEET
  1

  9
$XEDIT
290
     1
  9
$CEPSNTYPE
380
     0
  9
$PSTYLEMODE
290
     1
  9
$FINGERPRINTGUID
  2
{1754B7AB-9B3C-11D4-AD9E-00104B1004F2}
  9
$VERSIONGUID
  2
{BE73D16F-F373-425E-A445-03D2F84617FE}
  9
$EXTNAMES
290
     1
  9
$PSVPSCALE
 40
0.0
  9
$OLESTARTUP
290
     0
  0
ENDSEC
  0
SECTION
  2
CLASSES
  0
CLASS
  1
ACDBDICTIONARYWDFLT
  2
AcDbDictionaryWithDefault
  3
ObjectDBX Classes
 90
        0
280
     0
281
     0
  0
CLASS
  1
ACDBPLACEHOLDER
  2
AcDbPlaceHolder
  3
ObjectDBX Classes
 90
        0
280
     0
281
     0
  0
CLASS
  1
LAYOUT
  2
AcDbLayout
  3
ObjectDBX Classes
 90
        0
280
     0
281
     0
  0
CLASS
  1
DICTIONARYVAR
  2
AcDbDictionaryVar
  3
ObjectDBX Classes
 90
        0
280
     0
281
     0
  0
CLASS
  1
SORTENTSTABLE
  2
AcDbSortentsTable
  3
ObjectDBX Classes
 90
    32768
280
     0
281
     0
  0
ENDSEC
  0
SECTION
  2
TABLES
  0
TABLE
  2
VPORT
  5
21
330
0
100
AcDbSymbolTable
 70
     2
  0
VPORT
  5
726
330
21
100
AcDbSymbolTableRecord
100
AcDbViewportTableRecord
  2
*Active
 70
     0
 10
0.0
 20
0.0
 11
1.0
 21
1.0
 12
-3.18317550823918
 22
-18.42831123165843
 13
0.0
 23
0.0
 14
1.0
 24
1.0
 15
0.0
 25
0.0
 16
0.0
 26
0.0
 36
1.0
 17
0.0
 27
0.0
 37
0.0
 40
113.6792887672121
 41
2.16497461928934
 42
50.0
 43
0.0
 44
0.0
 50
0.0
 51
0.0
 71
     0
 72
 10000
 73
     1
 74
     0
 75
     0
 76
     1
 77
     0
 78
     0
281
     0
 65
     1
110
0.0
120
0.0
130
0.0
111
1.0
121
0.0
131
0.0
112
0.0
122
1.0
132
0.0
 79
     0
146
0.0
  0
ENDTAB
  0
TABLE
  2
LTYPE
  5
1C
330
0
100
AcDbSymbolTable
 70
     1
  0
LTYPE
  5
1D
330
1C
100
AcDbSymbolTableRecord
100
AcDbLinetypeTableRecord
  2
BYBLOCK
 70
     0
  3

 72
    65
 73
     0
 40
0.0
  0
LTYPE
  5
1E
330
1C
100
AcDbSymbolTableRecord
100
AcDbLinetypeTableRecord
  2
BYLAYER
 70
     0
  3

 72
    65
 73
     0
 40
0.0
  0
LTYPE
  5
A
330
1C
100
AcDbSymbolTableRecord
100
AcDbLinetypeTableRecord
  2
CONTINUOUS
 70
     0
  3
Solid line
 72
    65
 73
     0
 40
0.0
  0
ENDTAB
  0
TABLE
  2
LAYER
  5
14
102
{ACAD_XDICTIONARY
360
15
102
}
330
0
100
AcDbSymbolTable
 70
     7
  0
LAYER
  5
6
330
14
100
AcDbSymbolTableRecord
100
AcDbLayerTableRecord
  2
0
 70
     0
 62
     7
  6
CONTINUOUS
370
    -3
390
7
  0
LAYER
  5
68F
330
14
100
AcDbSymbolTableRecord
100
AcDbLayerTableRecord
  2
DEFPOINTS
 70
     0
 62
     7
  6
CONTINUOUS
290
     0
370
    -3
390
7
  0
LAYER
  5
6B3
330
14
100
AcDbSymbolTableRecord
100
AcDbLayerTableRecord
  2
WAKU
 70
     0
 62
     4
  6
CONTINUOUS
370
    -3
390
7
  0
LAYER
  5
6B0
330
14
100
AcDbSymbolTableRecord
100
AcDbLayerTableRecord
  2
MOJI1
 70
     0
 62
     2
  6
CONTINUOUS
370
    -3
390
7
  0
LAYER
  5
2C
330
14
100
AcDbSymbolTableRecord
100
AcDbLayerTableRecord
  2
GAIKEI
 70
     0
 62
     7
  6
CONTINUOUS
370
    -3
390
7
  0
LAYER
  5
685
330
14
100
AcDbSymbolTableRecord
100
AcDbLayerTableRecord
  2
SUNPO
 70
     0
 62
     3
  6
CONTINUOUS
370
    -3
390
7
  0
LAYER
  5
6AE
330
14
100
AcDbSymbolTableRecord
100
AcDbLayerTableRecord
  2
TOUROKU
 70
     0
 62
     1
  6
CONTINUOUS
370
    -3
390
7
  0
ENDTAB
  0
TABLE
  2
STYLE
  5
19
330
0
100
AcDbSymbolTable
 70
     2
  0
STYLE
  5
1A
330
19
100
AcDbSymbolTableRecord
100
AcDbTextStyleTableRecord
  2
STANDARD
 70
     0
 40
0.0
 41
1.0
 50
0.0
 71
     0
 42
3.0
  3
MONOTXT.shx
  4
BIGFONT.shx
  0
STYLE
  5
6DE
330
19
100
AcDbSymbolTableRecord
100
AcDbTextStyleTableRecord
  2
KANJI
 70
     0
 40
0.0
 41
1.0
 50
0.0
 71
     0
 42
3.5
  3
MONOTXT
  4
BIGFONT
  0
ENDTAB
  0
TABLE
  2
VIEW
  5
1F
330
0
100
AcDbSymbolTable
 70
     0
  0
ENDTAB
  0
TABLE
  2
UCS
  5
20
330
0
100
AcDbSymbolTable
 70
     0
  0
ENDTAB
  0
TABLE
  2
APPID
  5
23
330
0
100
AcDbSymbolTable
 70
     1
  0
APPID
  5
24
330
23
100
AcDbSymbolTableRecord
100
AcDbRegAppTableRecord
  2
ACAD
 70
     0
  0
ENDTAB
  0
TABLE
  2
DIMSTYLE
  5
25
330
0
100
AcDbSymbolTable
 70
     1
100
AcDbDimStyleTable
 71
     0
  0
DIMSTYLE
105
34
102
{ACAD_REACTORS
330
684
330
693
330
6A0
102
}
330
25
100
AcDbSymbolTableRecord
100
AcDbDimStyleTableRecord
  2
STANDARD
 70
     0
 40
0.0
 41
2.0
 42
2.0
 43
8.0
 44
2.0
 73
     0
 74
     0
 77
     3
140
3.0
141
0.0
173
     1
279
     2
288
     1
340
1A
341
2D
343
2D
344
2D
  0
ENDTAB
  0
TABLE
  2
BLOCK_RECORD
  5
1
330
0
100
AcDbSymbolTable
 70
     7
  0
BLOCK_RECORD
  5
2
102
{ACAD_XDICTIONARY
360
3
102
}
330
1
100
AcDbSymbolTableRecord
100
AcDbBlockTableRecord
  2
*MODEL_SPACE
340
C
  0
BLOCK_RECORD
  5
E
102
{ACAD_XDICTIONARY
360
F
102
}
330
1
100
AcDbSymbolTableRecord
100
AcDbBlockTableRecord
  2
*PAPER_SPACE
340
13
  0
BLOCK_RECORD
  5
2D
330
1
100
AcDbSymbolTableRecord
100
AcDbBlockTableRecord
  2
_OPEN30
340
0
102
{BLKREFS
331
68B
331
68C
331
699
331
69A
331
6A6
331
6A7
331
706
331
707
331
712
331
713
331
71E
331
71F
102
}
  0
BLOCK_RECORD
  5
686
330
1
100
AcDbSymbolTableRecord
100
AcDbBlockTableRecord
  2
*D1
340
0
  0
BLOCK_RECORD
  5
694
330
1
100
AcDbSymbolTableRecord
100
AcDbBlockTableRecord
  2
*D2
340
0
  0
BLOCK_RECORD
  5
6A1
330
1
100
AcDbSymbolTableRecord
100
AcDbBlockTableRecord
  2
*D3
340
0
  0
BLOCK_RECORD
  5
702
330
1
100
AcDbSymbolTableRecord
100
AcDbBlockTableRecord
  2
*D4
340
0
  0
BLOCK_RECORD
  5
70E
330
1
100
AcDbSymbolTableRecord
100
AcDbBlockTableRecord
  2
*D5
340
0
  0
BLOCK_RECORD
  5
71A
330
1
100
AcDbSymbolTableRecord
100
AcDbBlockTableRecord
  2
*D6
340
0
  0
ENDTAB
  0
ENDSEC
  0
SECTION
  2
BLOCKS
  0
BLOCK
  5
5
330
2
100
AcDbEntity
  8
0
100
AcDbBlockBegin
  2
*MODEL_SPACE
 70
     0
 10
0.0
 20
0.0
 30
0.0
  3
*MODEL_SPACE
  1

  0
ENDBLK
  5
B
330
2
100
AcDbEntity
  8
0
100
AcDbBlockEnd
  0
BLOCK
  5
11
330
E
100
AcDbEntity
 67
     1
  8
0
100
AcDbBlockBegin
  2
*PAPER_SPACE
 70
     0
 10
0.0
 20
0.0
 30
0.0
  3
*PAPER_SPACE
  1

  0
ENDBLK
  5
12
330
E
100
AcDbEntity
 67
     1
  8
0
100
AcDbBlockEnd
  0
BLOCK
  5
2E
330
2D
100
AcDbEntity
  8
0
100
AcDbBlockBegin
  2
_OPEN30
 70
     0
 10
0.0
 20
0.0
 30
0.0
  3
_OPEN30
  1

  0
LINE
  5
2F
330
2D
100
AcDbEntity
  8
0
  6
ByBlock
 62
     0
100
AcDbLine
 10
-1.0
 20
0.26794919
 30
0.0
 11
0.0
 21
0.0
 31
0.0
  0
LINE
  5
30
330
2D
100
AcDbEntity
  8
0
  6
ByBlock
 62
     0
100
AcDbLine
 10
0.0
 20
0.0
 30
0.0
 11
-1.0
 21
-0.26794919
 31
0.0
  0
LINE
  5
31
330
2D
100
AcDbEntity
  8
0
  6
ByBlock
 62
     0
100
AcDbLine
 10
0.0
 20
0.0
 30
0.0
 11
-1.0
 21
0.0
 31
0.0
  0
ENDBLK
  5
32
330
2D
100
AcDbEntity
  8
0
100
AcDbBlockEnd
  0
BLOCK
  5
687
330
686
100
AcDbEntity
  8
0
100
AcDbBlockBegin
  2
*D1
 70
     1
 10
0.0
 20
0.0
 30
0.0
  3
*D1
  1

  0
LINE
  5
688
330
686
100
AcDbEntity
  8
SUNPO
 62
     0
370
    -2
100
AcDbLine
 10
47.43608285970544
 20
213.889207809112
 30
0.0
 11
47.43608285970544
 21
205.889207809112
 31
0.0
  0
LINE
  5
689
330
686
100
AcDbEntity
  8
SUNPO
 62
     0
370
    -2
100
AcDbLine
 10
57.44706851369324
 20
213.889207809112
 30
0.0
 11
57.44706851369324
 21
205.889207809112
 31
0.0
  0
LINE
  5
68A
330
686
100
AcDbEntity
  8
SUNPO
 62
     0
370
    -2
100
AcDbLine
 10
49.43608285970544
 20
207.889207809112
 30
0.0
 11
55.44706851369324
 21
207.889207809112
 31
0.0
  0
INSERT
  5
68B
330
686
100
AcDbEntity
  8
SUNPO
 62
     0
370
    -2
100
AcDbBlockReference
  2
_OPEN30
 10
47.43608285970544
 20
207.889207809112
 30
0.0
 41
2.0
 42
2.0
 43
2.0
 50
180.0
  0
INSERT
  5
68C
330
686
100
AcDbEntity
  8
SUNPO
 62
     0
370
    -2
100
AcDbBlockReference
  2
_OPEN30
 10
57.44706851369324
 20
207.889207809112
 30
0.0
 41
2.0
 42
2.0
 43
2.0
  0
MTEXT
  5
68D
330
686
100
AcDbEntity
  8
SUNPO
 62
     0
100
AcDbMText
 10
52.44157568669933
 20
209.639207809112
 30
0.0
 40
2.5
 41
0.0
 71
     5
 72
     1
  1
\A1;100
 73
     1
 44
1.0
1001
ACAD
1000
MTEXTBEGIN
1070
    73
1070
     1
1070
    44
1040
1.0
1070
    74
1070
     0
1000
MTEXTEND
  0
POINT
  5
68E
330
686
100
AcDbEntity
  8
DEFPOINTS
 62
     0
100
AcDbPoint
 10
47.43608285970544
 20
215.889207809112
 30
0.0
  0
POINT
  5
690
330
686
100
AcDbEntity
  8
DEFPOINTS
 62
     0
100
AcDbPoint
 10
57.44706851369324
 20
215.889207809112
 30
0.0
  0
POINT
  5
691
330
686
100
AcDbEntity
  8
DEFPOINTS
 62
     0
100
AcDbPoint
 10
57.44706851369324
 20
207.889207809112
 30
0.0
  0
ENDBLK
  5
692
330
686
100
AcDbEntity
  8
0
100
AcDbBlockEnd
  0
BLOCK
  5
695
330
694
100
AcDbEntity
  8
0
100
AcDbBlockBegin
  2
*D2
 70
     1
 10
0.0
 20
0.0
 30
0.0
  3
*D2
  1

  0
LINE
  5
696
330
694
100
AcDbEntity
  8
SUNPO
 62
     0
370
    -2
100
AcDbLine
 10
59.44319156230518
 20
225.8611894237803
 30
0.0
 11
67.44319156230519
 21
225.8611894237803
 31
0.0
  0
LINE
  5
697
330
694
100
AcDbEntity
  8
SUNPO
 62
     0
370
    -2
100
AcDbLine
 10
59.44319156230517
 20
215.8692672760193
 30
0.0
 11
67.44319156230517
 21
215.8692672760193
 31
0.0
  0
LINE
  5
698
330
694
100
AcDbEntity
  8
SUNPO
 62
     0
370
    -2
100
AcDbLine
 10
65.44319156230518
 20
223.8611894237803
 30
0.0
 11
65.44319156230518
 21
217.8692672760193
 31
0.0
  0
INSERT
  5
699
330
694
100
AcDbEntity
  8
SUNPO
 62
     0
370
    -2
100
AcDbBlockReference
  2
_OPEN30
 10
65.44319156230518
 20
225.8611894237803
 30
0.0
 41
2.0
 42
2.0
 43
2.0
 50
90.0
  0
INSERT
  5
69A
330
694
100
AcDbEntity
  8
SUNPO
 62
     0
370
    -2
100
AcDbBlockReference
  2
_OPEN30
 10
65.44319156230518
 20
215.8692672760193
 30
0.0
 41
2.0
 42
2.0
 43
2.0
 50
270.0
  0
MTEXT
  5
69B
330
694
100
AcDbEntity
  8
SUNPO
 62
     0
100
AcDbMText
 10
63.69319156230514
 20
220.8652283498998
 30
0.0
 40
2.5
 41
0.0
 71
     5
 72
     1
  1
\A1;100
 11
0.0000000000000001
 21
1.0
 31
0.0
 73
     1
 44
1.0
1001
ACAD
1000
MTEXTBEGIN
1070
    73
1070
     1
1070
    44
1040
1.0
1070
    74
1070
     0
1000
MTEXTEND
  0
POINT
  5
69C
330
694
100
AcDbEntity
  8
DEFPOINTS
 62
     0
100
AcDbPoint
 10
57.44319156230518
 20
225.8611894237803
 30
0.0
  0
POINT
  5
69D
330
694
100
AcDbEntity
  8
DEFPOINTS
 62
     0
100
AcDbPoint
 10
57.44319156230517
 20
215.8692672760193
 30
0.0
  0
POINT
  5
69E
330
694
100
AcDbEntity
  8
DEFPOINTS
 62
     0
100
AcDbPoint
 10
65.44319156230518
 20
215.8692672760193
 30
0.0
  0
ENDBLK
  5
69F
330
694
100
AcDbEntity
  8
0
100
AcDbBlockEnd
  0
BLOCK
  5
6A2
330
6A1
100
AcDbEntity
  8
0
100
AcDbBlockBegin
  2
*D3
 70
     1
 10
0.0
 20
0.0
 30
0.0
  3
*D3
  1

  0
LINE
  5
6A3
330
6A1
100
AcDbEntity
  8
SUNPO
 62
     0
370
    -2
100
AcDbLine
 10
45.43995981109349
 20
233.9392670260193
 30
0.0
 11
37.4399598110935
 21
233.9392670260193
 31
0.0
  0
LINE
  5
6A4
330
6A1
100
AcDbEntity
  8
SUNPO
 62
     0
370
    -2
100
AcDbLine
 10
45.43995981109349
 20
215.8692672760193
 30
0.0
 11
37.4399598110935
 21
215.8692672760193
 31
0.0
  0
LINE
  5
6A5
330
6A1
100
AcDbEntity
  8
SUNPO
 62
     0
370
    -2
100
AcDbLine
 10
39.4399598110935
 20
231.9392670260193
 30
0.0
 11
39.4399598110935
 21
217.8692672760193
 31
0.0
  0
INSERT
  5
6A6
330
6A1
100
AcDbEntity
  8
SUNPO
 62
     0
370
    -2
100
AcDbBlockReference
  2
_OPEN30
 10
39.4399598110935
 20
233.9392670260193
 30
0.0
 41
2.0
 42
2.0
 43
2.0
 50
90.0
  0
INSERT
  5
6A7
330
6A1
100
AcDbEntity
  8
SUNPO
 62
     0
370
    -2
100
AcDbBlockReference
  2
_OPEN30
 10
39.4399598110935
 20
215.8692672760193
 30
0.0
 41
2.0
 42
2.0
 43
2.0
 50
270.0
  0
MTEXT
  5
6A8
330
6A1
100
AcDbEntity
  8
SUNPO
 62
     0
100
AcDbMText
 10
37.68995981109347
 20
224.9042671510193
 30
0.0
 40
2.5
 41
0.0
 71
     5
 72
     1
  1
\A1;181
 11
0.0000000000000001
 21
1.0
 31
0.0
 73
     1
 44
1.0
1001
ACAD
1000
MTEXTBEGIN
1070
    73
1070
     1
1070
    44
1040
1.0
1070
    74
1070
     0
1000
MTEXTEND
  0
POINT
  5
6A9
330
6A1
100
AcDbEntity
  8
DEFPOINTS
 62
     0
100
AcDbPoint
 10
47.43995981109349
 20
233.9392670260193
 30
0.0
  0
POINT
  5
6AA
330
6A1
100
AcDbEntity
  8
DEFPOINTS
 62
     0
100
AcDbPoint
 10
47.4399598110935
 20
215.8692672760193
 30
0.0
  0
POINT
  5
6AB
330
6A1
100
AcDbEntity
  8
DEFPOINTS
 62
     0
100
AcDbPoint
 10
39.4399598110935
 20
215.8692672760193
 30
0.0
  0
ENDBLK
  5
6AC
330
6A1
100
AcDbEntity
  8
0
100
AcDbBlockEnd
  0
BLOCK
  5
70C
330
702
100
AcDbEntity
  8
0
100
AcDbBlockBegin
  2
*D4
 70
     1
 10
0.0
 20
0.0
 30
0.0
  3
*D4
  1

  0
LINE
  5
703
330
702
100
AcDbEntity
  8
SUNPO
 62
     0
370
    -2
100
AcDbLine
 10
-22.32058231397497
 20
27.64261139381907
 30
0.0
 11
-30.32058231397496
 21
27.64261139381907
 31
0.0
  0
LINE
  5
704
330
702
100
AcDbEntity
  8
SUNPO
 62
     0
370
    -2
100
AcDbLine
 10
-22.32058231397497
 20
9.572611643819044
 30
0.0
 11
-30.32058231397497
 21
9.572611643819046
 31
0.0
  0
LINE
  5
705
330
702
100
AcDbEntity
  8
SUNPO
 62
     0
370
    -2
100
AcDbLine
 10
-28.32058231397497
 20
25.64261139381907
 30
0.0
 11
-28.32058231397497
 21
11.57261164381904
 31
0.0
  0
INSERT
  5
706
330
702
100
AcDbEntity
  8
SUNPO
 62
     0
370
    -2
100
AcDbBlockReference
  2
_OPEN30
 10
-28.32058231397497
 20
27.64261139381907
 30
0.0
 41
2.0
 42
2.0
 43
2.0
 50
90.0
  0
INSERT
  5
707
330
702
100
AcDbEntity
  8
SUNPO
 62
     0
370
    -2
100
AcDbBlockReference
  2
_OPEN30
 10
-28.32058231397497
 20
9.572611643819046
 30
0.0
 41
2.0
 42
2.0
 43
2.0
 50
270.0
  0
MTEXT
  5
708
330
702
100
AcDbEntity
  8
SUNPO
 62
     0
100
AcDbMText
 10
-30.07058231397497
 20
18.60761151881905
 30
0.0
 40
2.5
 41
0.0
 71
     5
 72
     1
  1
\A1;181
 11
0.0000000000000001
 21
1.0
 31
0.0
 73
     1
 44
1.0
1001
ACAD
1000
MTEXTBEGIN
1070
    73
1070
     1
1070
    44
1040
1.0
1070
    74
1070
     0
1000
MTEXTEND
  0
POINT
  5
709
330
702
100
AcDbEntity
  8
DEFPOINTS
 62
     0
100
AcDbPoint
 10
-20.32058231397497
 20
27.64261139381907
 30
0.0
  0
POINT
  5
70A
330
702
100
AcDbEntity
  8
DEFPOINTS
 62
     0
100
AcDbPoint
 10
-20.32058231397497
 20
9.572611643819044
 30
0.0
  0
POINT
  5
70B
330
702
100
AcDbEntity
  8
DEFPOINTS
 62
     0
100
AcDbPoint
 10
-28.32058231397497
 20
9.572611643819046
 30
0.0
  0
ENDBLK
  5
70D
330
702
100
AcDbEntity
  8
0
100
AcDbBlockEnd
  0
BLOCK
  5
718
330
70E
100
AcDbEntity
  8
0
100
AcDbBlockBegin
  2
*D5
 70
     1
 10
0.0
 20
0.0
 30
0.0
  3
*D5
  1

  0
LINE
  5
70F
330
70E
100
AcDbEntity
  8
SUNPO
 62
     0
370
    -2
100
AcDbLine
 10
-8.317350562763287
 20
19.56453379158003
 30
0.0
 11
-0.3173505627632923
 21
19.56453379158003
 31
0.0
  0
LINE
  5
710
330
70E
100
AcDbEntity
  8
SUNPO
 62
     0
370
    -2
100
AcDbLine
 10
-8.317350562763294
 20
9.572611643819044
 30
0.0
 11
-0.3173505627632945
 21
9.572611643819042
 31
0.0
  0
LINE
  5
711
330
70E
100
AcDbEntity
  8
SUNPO
 62
     0
370
    -2
100
AcDbLine
 10
-2.317350562763293
 20
17.56453379158003
 30
0.0
 11
-2.317350562763294
 21
11.57261164381904
 31
0.0
  0
INSERT
  5
712
330
70E
100
AcDbEntity
  8
SUNPO
 62
     0
370
    -2
100
AcDbBlockReference
  2
_OPEN30
 10
-2.317350562763292
 20
19.56453379158003
 30
0.0
 41
2.0
 42
2.0
 43
2.0
 50
90.0
  0
INSERT
  5
713
330
70E
100
AcDbEntity
  8
SUNPO
 62
     0
370
    -2
100
AcDbBlockReference
  2
_OPEN30
 10
-2.317350562763294
 20
9.572611643819042
 30
0.0
 41
2.0
 42
2.0
 43
2.0
 50
270.0
  0
MTEXT
  5
714
330
70E
100
AcDbEntity
  8
SUNPO
 62
     0
100
AcDbMText
 10
-4.067350562763296
 20
14.56857271769953
 30
0.0
 40
2.5
 41
0.0
 71
     5
 72
     1
  1
\A1;100
 11
0.0000000000000001
 21
1.0
 31
0.0
 73
     1
 44
1.0
1001
ACAD
1000
MTEXTBEGIN
1070
    73
1070
     1
1070
    44
1040
1.0
1070
    74
1070
     0
1000
MTEXTEND
  0
POINT
  5
715
330
70E
100
AcDbEntity
  8
DEFPOINTS
 62
     0
100
AcDbPoint
 10
-10.31735056276328
 20
19.56453379158003
 30
0.0
  0
POINT
  5
716
330
70E
100
AcDbEntity
  8
DEFPOINTS
 62
     0
100
AcDbPoint
 10
-10.31735056276329
 20
9.572611643819044
 30
0.0
  0
POINT
  5
717
330
70E
100
AcDbEntity
  8
DEFPOINTS
 62
     0
100
AcDbPoint
 10
-2.317350562763294
 20
9.572611643819042
 30
0.0
  0
ENDBLK
  5
719
330
70E
100
AcDbEntity
  8
0
100
AcDbBlockEnd
  0
BLOCK
  5
724
330
71A
100
AcDbEntity
  8
0
100
AcDbBlockBegin
  2
*D6
 70
     1
 10
0.0
 20
0.0
 30
0.0
  3
*D6
  1

  0
LINE
  5
71B
330
71A
100
AcDbEntity
  8
SUNPO
 62
     0
370
    -2
100
AcDbLine
 10
-20.32445926536303
 20
7.592552176911709
 30
0.0
 11
-20.32445926536303
 21
-0.4074478230882903
 31
0.0
  0
LINE
  5
71C
330
71A
100
AcDbEntity
  8
SUNPO
 62
     0
370
    -2
100
AcDbLine
 10
-10.31347361137523
 20
7.592552176911709
 30
0.0
 11
-10.31347361137523
 21
-0.4074478230882903
 31
0.0
  0
LINE
  5
71D
330
71A
100
AcDbEntity
  8
SUNPO
 62
     0
370
    -2
100
AcDbLine
 10
-18.32445926536303
 20
1.592552176911709
 30
0.0
 11
-12.31347361137523
 21
1.592552176911709
 31
0.0
  0
INSERT
  5
71E
330
71A
100
AcDbEntity
  8
SUNPO
 62
     0
370
    -2
100
AcDbBlockReference
  2
_OPEN30
 10
-20.32445926536303
 20
1.592552176911709
 30
0.0
 41
2.0
 42
2.0
 43
2.0
 50
180.0
  0
INSERT
  5
71F
330
71A
100
AcDbEntity
  8
SUNPO
 62
     0
370
    -2
100
AcDbBlockReference
  2
_OPEN30
 10
-10.31347361137523
 20
1.592552176911709
 30
0.0
 41
2.0
 42
2.0
 43
2.0
  0
MTEXT
  5
720
330
71A
100
AcDbEntity
  8
SUNPO
 62
     0
100
AcDbMText
 10
-15.31896643836913
 20
3.342552176911709
 30
0.0
 40
2.5
 41
0.0
 71
     5
 72
     1
  1
\A1;100
 73
     1
 44
1.0
1001
ACAD
1000
MTEXTBEGIN
1070
    73
1070
     1
1070
    44
1040
1.0
1070
    74
1070
     0
1000
MTEXTEND
  0
POINT
  5
721
330
71A
100
AcDbEntity
  8
DEFPOINTS
 62
     0
100
AcDbPoint
 10
-20.32445926536303
 20
9.592552176911709
 30
0.0
  0
POINT
  5
722
330
71A
100
AcDbEntity
  8
DEFPOINTS
 62
     0
100
AcDbPoint
 10
-10.31347361137523
 20
9.592552176911709
 30
0.0
  0
POINT
  5
723
330
71A
100
AcDbEntity
  8
DEFPOINTS
 62
     0
100
AcDbPoint
 10
-10.31347361137523
 20
1.592552176911709
 30
0.0
  0
ENDBLK
  5
725
330
71A
100
AcDbEntity
  8
0
100
AcDbBlockEnd
  0
ENDSEC
  0
SECTION
  2
ENTITIES
  0
ARC
  5
35
330
2
100
AcDbEntity
  8
GAIKEI
  6
Continuous
370
    40
100
AcDbCircle
 10
16.5019689650137
 20
9.506672768819072
 30
0.0
 40
0.05
100
AcDbArc
 50
179.9999910000004
 51
269.9999969999991
  0
LINE
  5
36
330
2
100
AcDbEntity
  8
GAIKEI
  6
Continuous
 48
0.000175
370
    40
100
AcDbLine
 10
16.50284259001371
 20
9.456681143819054
 30
0.0
 11
16.5019689650137
 21
9.45667351881903
 31
0.0
  0
ARC
  5
37
330
2
100
AcDbEntity
  8
GAIKEI
  6
Continuous
370
    40
100
AcDbCircle
 10
19.60197121501372
 20
13.57269751881907
 30
0.0
 40
1.10000025
100
AcDbArc
 50
27.35881300000043
 51
32.91648499999948
  0
LINE
  5
38
330
2
100
AcDbEntity
  8
GAIKEI
  6
Continuous
 48
0.000413
370
    40
100
AcDbLine
 10
20.70196971501372
 20
12.05885401881906
 30
0.0
 11
20.70196596501371
 21
12.06091776881905
 31
0.0
  0
ARC
  5
39
330
2
100
AcDbEntity
  8
GAIKEI
  6
Continuous
370
    40
100
AcDbCircle
 10
20.4067464650137
 20
12.06005376881907
 30
0.0
 40
0.295086875
100
AcDbArc
 50
9.684081000000587
 51
16.60503700000091
  0
LINE
  5
3A
330
2
100
AcDbEntity
  8
GAIKEI
  6
Continuous
 48
0.220208
370
    40
100
AcDbLine
 10
17.60371459001371
 20
9.475895768819071
 30
0.0
 11
16.50284259001371
 21
9.456681143819054
 31
0.0
  0
ARC
  5
3B
330
2
100
AcDbEntity
  8
GAIKEI
  6
Continuous
370
    40
100
AcDbCircle
 10
17.60197121501372
 20
9.575880893819061
 30
0.0
 40
0.1
100
AcDbArc
 50
270.9999989999979
 51
0.0
  0
LINE
  5
3C
330
2
100
AcDbEntity
  8
GAIKEI
  6
Continuous
 48
0.161245
370
    40
100
AcDbLine
 10
18.0019689650137
 20
8.172610143819071
 30
0.0
 11
17.9019704650137
 21
8.972611268819065
 31
0.0
  0
LINE
  5
3D
330
2
100
AcDbEntity
  8
GAIKEI
  6
Continuous
 48
0.161245
370
    40
100
AcDbLine
 10
20.4019704650137
 20
8.172610143819071
 30
0.0
 11
20.5019689650137
 21
8.972611268819065
 31
0.0
  0
LINE
  5
3E
330
2
100
AcDbEntity
  8
GAIKEI
  6
Continuous
 48
0.18
370
    40
100
AcDbLine
 10
17.9019704650137
 20
8.972611268819065
 30
0.0
 11
17.9019704650137
 21
9.872610893819029
 31
0.0
  0
LINE
  5
3F
330
2
100
AcDbEntity
  8
GAIKEI
  6
Continuous
 48
0.18
370
    40
100
AcDbLine
 10
20.5019689650137
 20
8.972611268819065
 30
0.0
 11
20.5019689650137
 21
9.872610893819029
 31
0.0
  0
LINE
  5
40
330
2
100
AcDbEntity
  8
GAIKEI
  6
Continuous
 48
0.136496
370
    40
100
AcDbLine
 10
20.65197046501371
 20
9.872610893819029
 30
0.0
 11
20.65197046501371
 21
10.55509076881904
 31
0.0
  0
LINE
  5
41
330
2
100
AcDbEntity
  8
GAIKEI
  6
Continuous
 62
     1
 48
0.031803
370
    40
100
AcDbLine
 10
17.7449880900137
 20
9.872610893819029
 30
0.0
 11
17.7449880900137
 21
10.03162464381907
 31
0.0
  0
LINE
  5
42
330
2
100
AcDbEntity
  8
GAIKEI
  6
Continuous
 48
0.05131
370
    40
100
AcDbLine
 10
16.45196971501372
 20
9.506672768819072
 30
0.0
 11
16.45196971501372
 21
9.763224518819043
 31
0.0
  0
ELLIPSE
  5
43
330
2
100
AcDbEntity
  8
GAIKEI
  6
Continuous
 62
     1
370
    13
100
AcDbEllipse
 10
20.81743296501371
 20
12.33704651881905
 30
0.0
 11
0.1661872863769531
 21
0.1112747192382813
 31
0.0
210
0.0
220
0.0
230
1.0
 40
0.8261969999999996
 41
2.460512186578522
 42
3.14159688696421
  0
POLYLINE
  5
44
330
2
100
AcDbEntity
  8
GAIKEI
  6
Continuous
 62
     1
370
    13
100
AcDb2dPolyline
 66
     1
 10
0.0
 20
0.0
 30
0.0
  0
VERTEX
  5
45
330
44
100
AcDbEntity
  8
GAIKEI
  6
Continuous
 62
     1
370
     0
100
AcDbVertex
100
AcDb2dVertex
 10
20.01793734001372
 20
14.37261089381903
 30
0.0
  0
VERTEX
  5
46
330
44
100
AcDbEntity
  8
GAIKEI
  6
Continuous
 62
     1
370
     0
100
AcDbVertex
100
AcDb2dVertex
 10
20.07664171501371
 20
14.48811614381904
 30
0.0
  0
VERTEX
  5
47
330
44
100
AcDbEntity
  8
GAIKEI
  6
Continuous
 62
     1
370
     0
100
AcDbVertex
100
AcDb2dVertex
 10
20.09825571501371
 20
14.53220639381905
 30
0.0
  0
VERTEX
  5
48
330
44
100
AcDbEntity
  8
GAIKEI
  6
Continuous
 62
     1
370
     0
100
AcDbVertex
100
AcDb2dVertex
 10
20.10496959001372
 20
14.54687389381902
 30
0.0
  0
VERTEX
  5
49
330
44
100
AcDbEntity
  8
GAIKEI
  6
Continuous
 62
     1
370
     0
100
AcDbVertex
100
AcDb2dVertex
 10
20.10611784001371
 20
14.55000201881907
 30
0.0
  0
VERTEX
  5
4A
330
44
100
AcDbEntity
  8
GAIKEI
  6
Continuous
 62
     1
370
     0
100
AcDbVertex
100
AcDb2dVertex
 10
20.10615221501371
 20
14.55023464381904
 30
0.0
  0
VERTEX
  5
4B
330
44
100
AcDbEntity
  8
GAIKEI
  6
Continuous
 62
     1
370
     0
100
AcDbVertex
100
AcDb2dVertex
 10
20.10611021501372
 20
14.55037201881905
 30
0.0
  0
SEQEND
  5
4C
330
44
100
AcDbEntity
  8
GAIKEI
  6
Continuous
 62
     1
370
     0
  0
POLYLINE
  5
4D
330
2
100
AcDbEntity
  8
GAIKEI
  6
Continuous
 62
     1
370
    13
100
AcDb2dPolyline
 66
     1
 10
0.0
 20
0.0
 30
0.0
  0
VERTEX
  5
4E
330
4D
100
AcDbEntity
  8
GAIKEI
  6
Continuous
 62
     1
370
     0
100
AcDbVertex
100
AcDb2dVertex
 10
20.20805796501371
 20
13.62339676881905
 30
0.0
  0
VERTEX
  5
4F
330
4D
100
AcDbEntity
  8
GAIKEI
  6
Continuous
 62
     1
370
     0
100
AcDbVertex
100
AcDb2dVertex
 10
20.27267896501371
 20
13.62341589381904
 30
0.0
  0
VERTEX
  5
50
330
4D
100
AcDbEntity
  8
GAIKEI
  6
Continuous
 62
     1
370
     0
100
AcDbVertex
100
AcDb2dVertex
 10
20.33578171501371
 20
13.62643714381906
 30
0.0
  0
VERTEX
  5
51
330
4D
100
AcDbEntity
  8
GAIKEI
  6
Continuous
 62
     1
370
     0
100
AcDbVertex
100
AcDb2dVertex
 10
20.3730130900137
 20
13.63023839381904
 30
0.0
  0
VERTEX
  5
52
330
4D
100
AcDbEntity
  8
GAIKEI
  6
Continuous
 62
     1
370
     0
100
AcDbVertex
100
AcDb2dVertex
 10
20.4091192150137
 20
13.63590139381907
 30
0.0
  0
VERTEX
  5
53
330
4D
100
AcDbEntity
  8
GAIKEI
  6
Continuous
 62
     1
370
     0
100
AcDbVertex
100
AcDb2dVertex
 10
20.45463996501371
 20
13.64682276881902
 30
0.0
  0
VERTEX
  5
54
330
4D
100
AcDbEntity
  8
GAIKEI
  6
Continuous
 62
     1
370
     0
100
AcDbVertex
100
AcDb2dVertex
 10
20.49683821501369
 20
13.66242114381904
 30
0.0
  0
VERTEX
  5
55
330
4D
100
AcDbEntity
  8
GAIKEI
  6
Continuous
 62
     1
370
     0
100
AcDbVertex
100
AcDb2dVertex
 10
20.53110559001371
 20
13.68108264381905
 30
0.0
  0
VERTEX
  5
56
330
4D
100
AcDbEntity
  8
GAIKEI
  6
Continuous
 62
     1
370
     0
100
AcDbVertex
100
AcDb2dVertex
 10
20.56108909001371
 20
13.70466126881902
 30
0.0
  0
VERTEX
  5
57
330
4D
100
AcDbEntity
  8
GAIKEI
  6
Continuous
 62
     1
370
     0
100
AcDbVertex
100
AcDb2dVertex
 10
20.58591134001371
 20
13.73337064381903
 30
0.0
  0
VERTEX
  5
58
330
4D
100
AcDbEntity
  8
GAIKEI
  6
Continuous
 62
     1
370
     0
100
AcDbVertex
100
AcDb2dVertex
 10
20.60483996501371
 20
13.76706976881903
 30
0.0
  0
VERTEX
  5
59
330
4D
100
AcDbEntity
  8
GAIKEI
  6
Continuous
 62
     1
370
     0
100
AcDbVertex
100
AcDb2dVertex
 10
20.61540659001372
 20
13.79718289381904
 30
0.0
  0
VERTEX
  5
5A
330
4D
100
AcDbEntity
  8
GAIKEI
  6
Continuous
 62
     1
370
     0
100
AcDbVertex
100
AcDb2dVertex
 10
20.62186109001371
 20
13.82966126881902
 30
0.0
  0
VERTEX
  5
5B
330
4D
100
AcDbEntity
  8
GAIKEI
  6
Continuous
 62
     1
370
     0
100
AcDbVertex
100
AcDb2dVertex
 10
20.62431396501371
 20
13.86400501881903
 30
0.0
  0
VERTEX
  5
5C
330
4D
100
AcDbEntity
  8
GAIKEI
  6
Continuous
 62
     1
370
     0
100
AcDbVertex
100
AcDb2dVertex
 10
20.62365396501371
 20
13.89067739381906
 30
0.0
  0
VERTEX
  5
5D
330
4D
100
AcDbEntity
  8
GAIKEI
  6
Continuous
 62
     1
370
     0
100
AcDbVertex
100
AcDb2dVertex
 10
20.62097221501372
 20
13.91790664381906
 30
0.0
  0
VERTEX
  5
5E
330
4D
100
AcDbEntity
  8
GAIKEI
  6
Continuous
 62
     1
370
     0
100
AcDbVertex
100
AcDb2dVertex
 10
20.6158262150137
 20
13.94843189381905
 30
0.0
  0
VERTEX
  5
5F
330
4D
100
AcDbEntity
  8
GAIKEI
  6
Continuous
 62
     1
370
     0
100
AcDbVertex
100
AcDb2dVertex
 10
20.60854784001371
 20
13.97921264381906
 30
0.0
  0
VERTEX
  5
60
330
4D
100
AcDbEntity
  8
GAIKEI
  6
Continuous
 62
     1
370
     0
100
AcDbVertex
100
AcDb2dVertex
 10
20.59805734001371
 20
14.01384626881904
 30
0.0
  0
VERTEX
  5
61
330
4D
100
AcDbEntity
  8
GAIKEI
  6
Continuous
 62
     1
370
     0
100
AcDbVertex
100
AcDb2dVertex
 10
20.58532396501371
 20
14.04835789381903
 30
0.0
  0
VERTEX
  5
62
330
4D
100
AcDbEntity
  8
GAIKEI
  6
Continuous
 62
     1
370
     0
100
AcDbVertex
100
AcDb2dVertex
 10
20.55584396501371
 20
14.11265839381903
 30
0.0
  0
VERTEX
  5
63
330
4D
100
AcDbEntity
  8
GAIKEI
  6
Continuous
 62
     1
370
     0
100
AcDbVertex
100
AcDb2dVertex
 10
20.5216794650137
 20
14.17273226881903
 30
0.0
  0
VERTEX
  5
64
330
4D
100
AcDbEntity
  8
GAIKEI
  6
Continuous
 62
     1
370
     0
100
AcDbVertex
100
AcDb2dVertex
 10
20.48265521501371
 20
14.23048676881907
 30
0.0
  0
VERTEX
  5
65
330
4D
100
AcDbEntity
  8
GAIKEI
  6
Continuous
 62
     1
370
     0
100
AcDbVertex
100
AcDb2dVertex
 10
20.43939646501371
 20
14.28554051881903
 30
0.0
  0
VERTEX
  5
66
330
4D
100
AcDbEntity
  8
GAIKEI
  6
Continuous
 62
     1
370
     0
100
AcDbVertex
100
AcDb2dVertex
 10
20.3924032150137
 20
14.33761114381903
 30
0.0
  0
VERTEX
  5
67
330
4D
100
AcDbEntity
  8
GAIKEI
  6
Continuous
 62
     1
370
     0
100
AcDbVertex
100
AcDb2dVertex
 10
20.32879696501371
 20
14.39836401881902
 30
0.0
  0
SEQEND
  5
68
330
4D
100
AcDbEntity
  8
GAIKEI
  6
Continuous
 62
     1
370
     0
  0
LINE
  5
69
330
2
100
AcDbEntity
  8
GAIKEI
  6
Continuous
 62
     1
 48
0.114037
370
    13
100
AcDbLine
 10
19.63795909001371
 20
13.63334739381903
 30
0.0
 11
20.20805796501371
 21
13.62339676881905
 31
0.0
  0
ELLIPSE
  5
6A
330
2
100
AcDbEntity
  8
GAIKEI
  6
Continuous
 62
     1
370
    13
100
AcDbEllipse
 10
20.0978628400137
 20
13.61417851881904
 30
0.0
 11
-0.0034904479980469
 21
-0.1999702453613282
 31
0.0
210
0.0
220
0.0
230
1.0
 40
0.5509569999999999
 41
1.626524566612126
 42
3.141592653577048
  0
LINE
  5
6B
330
2
100
AcDbEntity
  8
GAIKEI
  6
Continuous
 62
     1
 48
0.003151
370
    13
100
AcDbLine
 10
19.62220446501371
 20
13.63362201881907
 30
0.0
 11
19.63795909001371
 21
13.63334739381903
 31
0.0
  0
POLYLINE
  5
6C
330
2
100
AcDbEntity
  8
GAIKEI
  6
Continuous
 62
     1
370
    13
100
AcDb2dPolyline
 66
     1
 10
0.0
 20
0.0
 30
0.0
  0
VERTEX
  5
6D
330
6C
100
AcDbEntity
  8
GAIKEI
  6
Continuous
 62
     1
370
     0
100
AcDbVertex
100
AcDb2dVertex
 10
20.0669027150137
 20
12.36474889381904
 30
0.0
  0
VERTEX
  5
6E
330
6C
100
AcDbEntity
  8
GAIKEI
  6
Continuous
 62
     1
370
     0
100
AcDbVertex
100
AcDb2dVertex
 10
20.05931146501371
 20
12.36600201881904
 30
0.0
  0
VERTEX
  5
6F
330
6C
100
AcDbEntity
  8
GAIKEI
  6
Continuous
 62
     1
370
     0
100
AcDbVertex
100
AcDb2dVertex
 10
20.05190334001369
 20
12.36943901881906
 30
0.0
  0
VERTEX
  5
70
330
6C
100
AcDbEntity
  8
GAIKEI
  6
Continuous
 62
     1
370
     0
100
AcDbVertex
100
AcDb2dVertex
 10
20.03812084001371
 20
12.38226789381903
 30
0.0
  0
VERTEX
  5
71
330
6C
100
AcDbEntity
  8
GAIKEI
  6
Continuous
 62
     1
370
     0
100
AcDbVertex
100
AcDb2dVertex
 10
20.02896171501371
 20
12.39633839381903
 30
0.0
  0
VERTEX
  5
72
330
6C
100
AcDbEntity
  8
GAIKEI
  6
Continuous
 62
     1
370
     0
100
AcDbVertex
100
AcDb2dVertex
 10
20.02099671501373
 20
12.41336526881903
 30
0.0
  0
VERTEX
  5
73
330
6C
100
AcDbEntity
  8
GAIKEI
  6
Continuous
 62
     1
370
     0
100
AcDbVertex
100
AcDb2dVertex
 10
20.01298584001371
 20
12.43705839381906
 30
0.0
  0
VERTEX
  5
74
330
6C
100
AcDbEntity
  8
GAIKEI
  6
Continuous
 62
     1
370
     0
100
AcDbVertex
100
AcDb2dVertex
 10
20.00679459001371
 20
12.46304976881905
 30
0.0
  0
VERTEX
  5
75
330
6C
100
AcDbEntity
  8
GAIKEI
  6
Continuous
 62
     1
370
     0
100
AcDbVertex
100
AcDb2dVertex
 10
20.00001209001371
 20
12.51279726881907
 30
0.0
  0
VERTEX
  5
76
330
6C
100
AcDbEntity
  8
GAIKEI
  6
Continuous
 62
     1
370
     0
100
AcDbVertex
100
AcDb2dVertex
 10
19.99832971501371
 20
12.56471914381907
 30
0.0
  0
SEQEND
  5
77
330
6C
100
AcDbEntity
  8
GAIKEI
  6
Continuous
 62
     1
370
     0
  0
POLYLINE
  5
78
330
2
100
AcDbEntity
  8
GAIKEI
  6
Continuous
 62
     1
370
    13
100
AcDb2dPolyline
 66
     1
 10
0.0
 20
0.0
 30
0.0
  0
VERTEX
  5
79
330
78
100
AcDbEntity
  8
GAIKEI
  6
Continuous
 62
     1
370
     0
100
AcDbVertex
100
AcDb2dVertex
 10
20.0669027150137
 20
12.36474889381904
 30
0.0
  0
VERTEX
  5
7A
330
78
100
AcDbEntity
  8
GAIKEI
  6
Continuous
 62
     1
370
     0
100
AcDbVertex
100
AcDb2dVertex
 10
20.16527621501371
 20
12.36192214381904
 30
0.0
  0
VERTEX
  5
7B
330
78
100
AcDbEntity
  8
GAIKEI
  6
Continuous
 62
     1
370
     0
100
AcDbVertex
100
AcDb2dVertex
 10
20.26018584001372
 20
12.35647289381907
 30
0.0
  0
VERTEX
  5
7C
330
78
100
AcDbEntity
  8
GAIKEI
  6
Continuous
 62
     1
370
     0
100
AcDbVertex
100
AcDb2dVertex
 10
20.3479658400137
 20
12.34792226881907
 30
0.0
  0
VERTEX
  5
7D
330
78
100
AcDbEntity
  8
GAIKEI
  6
Continuous
 62
     1
370
     0
100
AcDbVertex
100
AcDb2dVertex
 10
20.42977196501372
 20
12.33530126881905
 30
0.0
  0
VERTEX
  5
7E
330
78
100
AcDbEntity
  8
GAIKEI
  6
Continuous
 62
     1
370
     0
100
AcDbVertex
100
AcDb2dVertex
 10
20.4883543400137
 20
12.32194226881907
 30
0.0
  0
VERTEX
  5
7F
330
78
100
AcDbEntity
  8
GAIKEI
  6
Continuous
 62
     1
370
     0
100
AcDbVertex
100
AcDb2dVertex
 10
20.54092846501371
 20
12.30492101881904
 30
0.0
  0
VERTEX
  5
80
330
78
100
AcDbEntity
  8
GAIKEI
  6
Continuous
 62
     1
370
     0
100
AcDbVertex
100
AcDb2dVertex
 10
20.56703246501371
 20
12.29370201881906
 30
0.0
  0
VERTEX
  5
81
330
78
100
AcDbEntity
  8
GAIKEI
  6
Continuous
 62
     1
370
     0
100
AcDbVertex
100
AcDb2dVertex
 10
20.59100396501371
 20
12.28090176881906
 30
0.0
  0
VERTEX
  5
82
330
78
100
AcDbEntity
  8
GAIKEI
  6
Continuous
 62
     1
370
     0
100
AcDbVertex
100
AcDb2dVertex
 10
20.60798709001371
 20
12.26974764381904
 30
0.0
  0
VERTEX
  5
83
330
78
100
AcDbEntity
  8
GAIKEI
  6
Continuous
 62
     1
370
     0
100
AcDbVertex
100
AcDb2dVertex
 10
20.62346709001372
 20
12.25736889381906
 30
0.0
  0
VERTEX
  5
84
330
78
100
AcDbEntity
  8
GAIKEI
  6
Continuous
 62
     1
370
     0
100
AcDbVertex
100
AcDb2dVertex
 10
20.63834821501371
 20
12.24249164381902
 30
0.0
  0
VERTEX
  5
85
330
78
100
AcDbEntity
  8
GAIKEI
  6
Continuous
 62
     1
370
     0
100
AcDbVertex
100
AcDb2dVertex
 10
20.65124946501371
 20
12.22576989381903
 30
0.0
  0
SEQEND
  5
86
330
78
100
AcDbEntity
  8
GAIKEI
  6
Continuous
 62
     1
370
     0
  0
POLYLINE
  5
87
330
2
100
AcDbEntity
  8
GAIKEI
  6
Continuous
 62
     1
370
    13
100
AcDb2dPolyline
 66
     1
 10
0.0
 20
0.0
 30
0.0
  0
VERTEX
  5
88
330
87
100
AcDbEntity
  8
GAIKEI
  6
Continuous
 62
     1
370
     0
100
AcDbVertex
100
AcDb2dVertex
 10
20.63044034001371
 20
12.33704651881905
 30
0.0
  0
VERTEX
  5
89
330
87
100
AcDbEntity
  8
GAIKEI
  6
Continuous
 62
     1
370
     0
100
AcDbVertex
100
AcDb2dVertex
 10
20.65634596501372
 20
12.28471839381908
 30
0.0
  0
VERTEX
  5
8A
330
87
100
AcDbEntity
  8
GAIKEI
  6
Continuous
 62
     1
370
     0
100
AcDbVertex
100
AcDb2dVertex
 10
20.67629684001372
 20
12.23038564381906
 30
0.0
  0
VERTEX
  5
8B
330
87
100
AcDbEntity
  8
GAIKEI
  6
Continuous
 62
     1
370
     0
100
AcDbVertex
100
AcDb2dVertex
 10
20.69047221501371
 20
12.17463764381907
 30
0.0
  0
VERTEX
  5
8C
330
87
100
AcDbEntity
  8
GAIKEI
  6
Continuous
 62
     1
370
     0
100
AcDbVertex
100
AcDb2dVertex
 10
20.69900184001369
 20
12.11799701881907
 30
0.0
  0
VERTEX
  5
8D
330
87
100
AcDbEntity
  8
GAIKEI
  6
Continuous
 62
     1
370
     0
100
AcDbVertex
100
AcDb2dVertex
 10
20.70196596501371
 20
12.06091964381906
 30
0.0
  0
SEQEND
  5
8E
330
87
100
AcDbEntity
  8
GAIKEI
  6
Continuous
 62
     1
370
     0
  0
POLYLINE
  5
8F
330
2
100
AcDbEntity
  8
GAIKEI
  6
Continuous
 62
     1
370
    13
100
AcDb2dPolyline
 66
     1
 10
0.0
 20
0.0
 30
0.0
  0
VERTEX
  5
90
330
8F
100
AcDbEntity
  8
GAIKEI
  6
Continuous
 62
     1
370
     0
100
AcDbVertex
100
AcDb2dVertex
 10
19.99832971501371
 20
12.56471914381907
 30
0.0
  0
VERTEX
  5
91
330
8F
100
AcDbEntity
  8
GAIKEI
  6
Continuous
 62
     1
370
     0
100
AcDbVertex
100
AcDb2dVertex
 10
20.0703855900137
 20
12.56216901881905
 30
0.0
  0
VERTEX
  5
92
330
8F
100
AcDbEntity
  8
GAIKEI
  6
Continuous
 62
     1
370
     0
100
AcDbVertex
100
AcDb2dVertex
 10
20.14138471501372
 20
12.55726714381902
 30
0.0
  0
VERTEX
  5
93
330
8F
100
AcDbEntity
  8
GAIKEI
  6
Continuous
 62
     1
370
     0
100
AcDbVertex
100
AcDb2dVertex
 10
20.2020994650137
 20
12.55077251881906
 30
0.0
  0
VERTEX
  5
94
330
8F
100
AcDbEntity
  8
GAIKEI
  6
Continuous
 62
     1
370
     0
100
AcDbVertex
100
AcDb2dVertex
 10
20.2612615900137
 20
12.54194539381908
 30
0.0
  0
VERTEX
  5
95
330
8F
100
AcDbEntity
  8
GAIKEI
  6
Continuous
 62
     1
370
     0
100
AcDbVertex
100
AcDb2dVertex
 10
20.32253709001371
 20
12.52957239381905
 30
0.0
  0
VERTEX
  5
96
330
8F
100
AcDbEntity
  8
GAIKEI
  6
Continuous
 62
     1
370
     0
100
AcDbVertex
100
AcDb2dVertex
 10
20.38102021501371
 20
12.51384251881907
 30
0.0
  0
VERTEX
  5
97
330
8F
100
AcDbEntity
  8
GAIKEI
  6
Continuous
 62
     1
370
     0
100
AcDbVertex
100
AcDb2dVertex
 10
20.4444280900137
 20
12.49093326881907
 30
0.0
  0
VERTEX
  5
98
330
8F
100
AcDbEntity
  8
GAIKEI
  6
Continuous
 62
     1
370
     0
100
AcDbVertex
100
AcDb2dVertex
 10
20.47525846501371
 20
12.47681889381906
 30
0.0
  0
VERTEX
  5
99
330
8F
100
AcDbEntity
  8
GAIKEI
  6
Continuous
 62
     1
370
     0
100
AcDbVertex
100
AcDb2dVertex
 10
20.5044408400137
 20
12.46106426881906
 30
0.0
  0
VERTEX
  5
9A
330
8F
100
AcDbEntity
  8
GAIKEI
  6
Continuous
 62
     1
370
     0
100
AcDbVertex
100
AcDb2dVertex
 10
20.5297857150137
 20
12.44496239381905
 30
0.0
  0
VERTEX
  5
9B
330
8F
100
AcDbEntity
  8
GAIKEI
  6
Continuous
 62
     1
370
     0
100
AcDbVertex
100
AcDb2dVertex
 10
20.55350171501371
 20
12.42724889381904
 30
0.0
  0
VERTEX
  5
9C
330
8F
100
AcDbEntity
  8
GAIKEI
  6
Continuous
 62
     1
370
     0
100
AcDbVertex
100
AcDb2dVertex
 10
20.5825658400137
 20
12.40076339381906
 30
0.0
  0
VERTEX
  5
9D
330
8F
100
AcDbEntity
  8
GAIKEI
  6
Continuous
 62
     1
370
     0
100
AcDbVertex
100
AcDb2dVertex
 10
20.6082807150137
 20
12.37083139381903
 30
0.0
  0
VERTEX
  5
9E
330
8F
100
AcDbEntity
  8
GAIKEI
  6
Continuous
 62
     1
370
     0
100
AcDbVertex
100
AcDb2dVertex
 10
20.63044034001371
 20
12.33704651881905
 30
0.0
  0
SEQEND
  5
9F
330
8F
100
AcDbEntity
  8
GAIKEI
  6
Continuous
 62
     1
370
     0
  0
LINE
  5
A0
330
2
100
AcDbEntity
  8
GAIKEI
  6
Continuous
 62
     1
 48
0.075448
370
    13
100
AcDbLine
 10
19.99832971501371
 20
12.56471914381907
 30
0.0
 11
19.6211705900137
 21
12.57249914381904
 31
0.0
  0
LINE
  5
A1
330
2
100
AcDbEntity
  8
GAIKEI
  6
Continuous
 62
     1
 48
0.21616
370
    13
100
AcDbLine
 10
19.6211705900137
 20
13.57269751881907
 30
0.0
 11
20.70196971501372
 21
13.57269751881907
 31
0.0
  0
ARC
  5
A2
330
2
100
AcDbEntity
  8
GAIKEI
  6
Continuous
370
    40
100
AcDbCircle
 10
19.60197121501372
 20
13.57269751881907
 30
0.0
 40
1.100000124999999
100
AcDbArc
 50
0.0
 51
27.35908899999881
  0
ARC
  5
A3
330
2
100
AcDbEntity
  8
GAIKEI
  6
Continuous
370
    40
100
AcDbCircle
 10
19.60197121501372
 20
13.57269751881907
 30
0.0
 40
1.100000124999999
100
AcDbArc
 50
32.91672700000026
 51
89.00054800000059
  0
ARC
  5
A4
330
2
100
AcDbEntity
  8
GAIKEI
  6
Continuous
 62
     1
370
    40
100
AcDbCircle
 10
20.4019704650137
 20
12.05885401881906
 30
0.0
 40
0.3
100
AcDbArc
 50
0.0
 51
33.80618899999969
  0
LINE
  5
A5
330
2
100
AcDbEntity
  8
GAIKEI
  6
Continuous
 48
0.008123
370
    13
100
AcDbLine
 10
17.66135471501371
 20
9.922612143819065
 30
0.0
 11
17.70196971501372
 21
9.922612143819065
 31
0.0
  0
LINE
  5
A6
330
2
100
AcDbEntity
  8
GAIKEI
  6
Continuous
 48
0.32789
370
    40
100
AcDbLine
 10
19.6211705900137
 20
14.67253001881906
 30
0.0
 11
17.98196846501371
 21
14.70114026881904
 31
0.0
  0
ELLIPSE
  5
A7
330
2
100
AcDbEntity
  8
GAIKEI
  6
Continuous
 62
     1
370
    13
100
AcDbEllipse
 10
19.6176802150137
 20
14.47255976881908
 30
0.0
 11
0.0034904479980469
 21
0.1999702453613282
 31
0.0
210
0.0
220
0.0
230
1.0
 40
0.01745
 41
4.712693567169329
 42
6.283185307178528
  0
LINE
  5
A8
330
2
100
AcDbEntity
  8
GAIKEI
  6
Continuous
 62
     1
 48
0.32789
370
    13
100
AcDbLine
 10
19.6211705900137
 20
14.47255976881902
 30
0.0
 11
17.98197234001371
 21
14.50117389381907
 31
0.0
  0
ARC
  5
A9
330
2
100
AcDbEntity
  8
GAIKEI
  6
Continuous
 62
     1
370
    13
100
AcDbCircle
 10
19.60545784001371
 20
13.57268414381903
 30
0.0
 40
0.900012875
100
AcDbArc
 50
62.7222759999997
 51
88.99982399999908
  0
LINE
  5
AA
330
2
100
AcDbEntity
  8
GAIKEI
  6
Continuous
 62
     1
 48
0.4071920000000001
370
    13
100
AcDbLine
 10
20.01792971501371
 20
14.37261089381903
 30
0.0
 11
17.98196846501371
 21
14.37261089381903
 31
0.0
  0
ARC
  5
AB
330
2
100
AcDbEntity
  8
GAIKEI
  6
Continuous
 62
     1
370
    13
100
AcDbCircle
 10
19.6801190900137
 20
13.47323314381904
 30
0.0
 40
0.9606905000000001
100
AcDbArc
 50
57.22633000000153
 51
69.4134640000007
  0
POLYLINE
  5
AC
330
2
100
AcDbEntity
  8
GAIKEI
  6
Continuous
 62
     1
370
    13
100
AcDb2dPolyline
 66
     1
 10
0.0
 20
0.0
 30
0.0
  0
VERTEX
  5
AD
330
AC
100
AcDbEntity
  8
GAIKEI
  6
Continuous
 62
     1
370
     0
100
AcDbVertex
100
AcDb2dVertex
 10
20.1013533400137
 20
13.81414689381907
 30
0.0
  0
VERTEX
  5
AE
330
AC
100
AcDbEntity
  8
GAIKEI
  6
Continuous
 62
     1
370
     0
100
AcDbVertex
100
AcDb2dVertex
 10
20.18630659001372
 20
13.81463901881906
 30
0.0
  0
VERTEX
  5
AF
330
AC
100
AcDbEntity
  8
GAIKEI
  6
Continuous
 62
     1
370
     0
100
AcDbVertex
100
AcDb2dVertex
 10
20.25371609001371
 20
13.81942639381904
 30
0.0
  0
VERTEX
  5
B0
330
AC
100
AcDbEntity
  8
GAIKEI
  6
Continuous
 62
     1
370
     0
100
AcDbVertex
100
AcDb2dVertex
 10
20.30221234001371
 20
13.82717414381906
 30
0.0
  0
VERTEX
  5
B1
330
AC
100
AcDbEntity
  8
GAIKEI
  6
Continuous
 62
     1
370
     0
100
AcDbVertex
100
AcDb2dVertex
 10
20.34218271501371
 20
13.83817189381906
 30
0.0
  0
VERTEX
  5
B2
330
AC
100
AcDbEntity
  8
GAIKEI
  6
Continuous
 62
     1
370
     0
100
AcDbVertex
100
AcDb2dVertex
 10
20.37460771501371
 20
13.85232439381903
 30
0.0
  0
VERTEX
  5
B3
330
AC
100
AcDbEntity
  8
GAIKEI
  6
Continuous
 62
     1
370
     0
100
AcDbVertex
100
AcDb2dVertex
 10
20.40141359001371
 20
13.87056626881903
 30
0.0
  0
VERTEX
  5
B4
330
AC
100
AcDbEntity
  8
GAIKEI
  6
Continuous
 62
     1
370
     0
100
AcDbVertex
100
AcDb2dVertex
 10
20.42119271501372
 20
13.89208114381907
 30
0.0
  0
VERTEX
  5
B5
330
AC
100
AcDbEntity
  8
GAIKEI
  6
Continuous
 62
     1
370
     0
100
AcDbVertex
100
AcDb2dVertex
 10
20.43430771501371
 20
13.91672414381904
 30
0.0
  0
VERTEX
  5
B6
330
AC
100
AcDbEntity
  8
GAIKEI
  6
Continuous
 62
     1
370
     0
100
AcDbVertex
100
AcDb2dVertex
 10
20.44098346501372
 20
13.94434251881907
 30
0.0
  0
VERTEX
  5
B7
330
AC
100
AcDbEntity
  8
GAIKEI
  6
Continuous
 62
     1
370
     0
100
AcDbVertex
100
AcDb2dVertex
 10
20.4419523400137
 20
13.96172989381907
 30
0.0
  0
VERTEX
  5
B8
330
AC
100
AcDbEntity
  8
GAIKEI
  6
Continuous
 62
     1
370
     0
100
AcDbVertex
100
AcDb2dVertex
 10
20.4407735900137
 20
13.98001751881904
 30
0.0
  0
VERTEX
  5
B9
330
AC
100
AcDbEntity
  8
GAIKEI
  6
Continuous
 62
     1
370
     0
100
AcDbVertex
100
AcDb2dVertex
 10
20.43726021501371
 20
13.99994551881903
 30
0.0
  0
VERTEX
  5
BA
330
AC
100
AcDbEntity
  8
GAIKEI
  6
Continuous
 62
     1
370
     0
100
AcDbVertex
100
AcDb2dVertex
 10
20.43140471501371
 20
14.02075089381904
 30
0.0
  0
VERTEX
  5
BB
330
AC
100
AcDbEntity
  8
GAIKEI
  6
Continuous
 62
     1
370
     0
100
AcDbVertex
100
AcDb2dVertex
 10
20.4129568400137
 20
14.06387989381906
 30
0.0
  0
VERTEX
  5
BC
330
AC
100
AcDbEntity
  8
GAIKEI
  6
Continuous
 62
     1
370
     0
100
AcDbVertex
100
AcDb2dVertex
 10
20.39026321501371
 20
14.10192001881907
 30
0.0
  0
VERTEX
  5
BD
330
AC
100
AcDbEntity
  8
GAIKEI
  6
Continuous
 62
     1
370
     0
100
AcDbVertex
100
AcDb2dVertex
 10
20.36050859001369
 20
14.14155851881904
 30
0.0
  0
VERTEX
  5
BE
330
AC
100
AcDbEntity
  8
GAIKEI
  6
Continuous
 62
     1
370
     0
100
AcDbVertex
100
AcDb2dVertex
 10
20.3231893400137
 20
14.18239489381906
 30
0.0
  0
VERTEX
  5
BF
330
AC
100
AcDbEntity
  8
GAIKEI
  6
Continuous
 62
     1
370
     0
100
AcDbVertex
100
AcDb2dVertex
 10
20.2961584650137
 20
14.20792664381903
 30
0.0
  0
VERTEX
  5
C0
330
AC
100
AcDbEntity
  8
GAIKEI
  6
Continuous
 62
     1
370
     0
100
AcDbVertex
100
AcDb2dVertex
 10
20.26562559001371
 20
14.23375601881903
 30
0.0
  0
VERTEX
  5
C1
330
AC
100
AcDbEntity
  8
GAIKEI
  6
Continuous
 62
     1
370
     0
100
AcDbVertex
100
AcDb2dVertex
 10
20.23472659001371
 20
14.25725826881907
 30
0.0
  0
VERTEX
  5
C2
330
AC
100
AcDbEntity
  8
GAIKEI
  6
Continuous
 62
     1
370
     0
100
AcDbVertex
100
AcDb2dVertex
 10
20.20013871501371
 20
14.28095901881906
 30
0.0
  0
SEQEND
  5
C3
330
AC
100
AcDbEntity
  8
GAIKEI
  6
Continuous
 62
     1
370
     0
  0
LINE
  5
C4
330
2
100
AcDbEntity
  8
GAIKEI
  6
Continuous
 62
     1
 48
0.095883
370
    40
100
AcDbLine
 10
20.1013533400137
 20
13.81414689381907
 30
0.0
 11
19.62201371501371
 21
13.82251639381903
 31
0.0
  0
LINE
  5
C5
330
2
100
AcDbEntity
  8
GAIKEI
  6
Continuous
 62
     1
 48
0.328058
370
    40
100
AcDbLine
 10
19.62201371501371
 20
13.82251639381903
 30
0.0
 11
17.98197234001371
 21
13.85114176881907
 31
0.0
  0
ELLIPSE
  5
C6
330
2
100
AcDbEntity
  8
GAIKEI
  6
Continuous
 62
     1
370
    13
100
AcDbEllipse
 10
19.61852321501371
 20
13.62254614381905
 30
0.0
 11
0.0034904479980469
 21
0.1999702453613282
 31
0.0
210
0.0
220
0.0
230
1.0
 40
0.01745
 41
4.768117220202233
 42
6.283185307150296
  0
LINE
  5
C7
330
2
100
AcDbEntity
  8
GAIKEI
  6
Continuous
 62
     1
 48
0.328096
370
    13
100
AcDbLine
 10
19.62220446501371
 20
13.63362201881907
 30
0.0
 11
17.98197234001371
 21
13.66225326881906
 31
0.0
  0
ELLIPSE
  5
C8
330
2
100
AcDbEntity
  8
GAIKEI
  6
Continuous
 62
     1
370
    13
100
AcDbEllipse
 10
19.60197121501372
 20
13.57269751881907
 30
0.0
 11
0.0191993713378906
 21
1.099834442138672
 31
0.0
210
0.0
220
0.0
230
1.0
 40
0.01745
 41
4.712693566879889
 42
4.768117220202983
  0
LINE
  5
C9
330
2
100
AcDbEntity
  8
GAIKEI
  6
Continuous
 62
     1
 48
0.32789
370
    13
100
AcDbLine
 10
19.6211705900137
 20
13.57269751881907
 30
0.0
 11
17.98197234001371
 21
13.60130964381906
 31
0.0
  0
LINE
  5
CA
330
2
100
AcDbEntity
  8
GAIKEI
  6
Continuous
 62
     1
 48
0.20004
370
    13
100
AcDbLine
 10
19.6211705900137
 20
13.57269751881907
 30
0.0
 11
19.6211705900137
 21
12.57249914381904
 31
0.0
  0
LINE
  5
CB
330
2
100
AcDbEntity
  8
GAIKEI
  6
Continuous
 62
     1
 48
0.329848
370
    13
100
AcDbLine
 10
19.6211705900137
 20
12.57249914381904
 30
0.0
 11
17.97218384001371
 21
12.60128301881903
 31
0.0
  0
ELLIPSE
  5
CC
330
2
100
AcDbEntity
  8
GAIKEI
  6
Continuous
 62
     1
370
    13
100
AcDbEllipse
 10
19.62466109001372
 20
12.57249914381904
 30
0.0
 11
0.0034904479980469
 21
0.1999702453613282
 31
0.0
210
0.0
220
0.0
230
1.0
 40
0.01745
 41
1.571100913290058
 42
3.141592653603248
  0
LINE
  5
CD
330
2
100
AcDbEntity
  8
GAIKEI
  6
Continuous
 62
     1
 48
0.128468
370
    40
100
AcDbLine
 10
20.0669027150137
 20
12.36474889381904
 30
0.0
 11
19.4246603400137
 21
12.37596026881905
 31
0.0
  0
LINE
  5
CE
330
2
100
AcDbEntity
  8
GAIKEI
  6
Continuous
 62
     1
 48
0.297734
370
    40
100
AcDbLine
 10
19.4246603400137
 20
12.37596026881905
 30
0.0
 11
17.93621509001372
 21
12.40194026881906
 31
0.0
  0
ELLIPSE
  5
CF
330
2
100
AcDbEntity
  8
GAIKEI
  6
Continuous
 62
     1
370
    13
100
AcDbEllipse
 10
19.41942271501372
 20
12.07600489381903
 30
0.0
 11
0.0052375793457031
 21
0.2999534606933594
 31
0.0
210
0.0
220
0.0
230
1.0
 40
0.01745
 41
4.712693566884792
 42
6.283185307174652
  0
LINE
  5
D0
330
2
100
AcDbEntity
  8
GAIKEI
  6
Continuous
 62
     1
 48
0.255485
370
    13
100
AcDbLine
 10
20.70196971501372
 20
12.05885401881906
 30
0.0
 11
19.4246603400137
 21
12.07600489381903
 31
0.0
  0
LINE
  5
D1
330
2
100
AcDbEntity
  8
GAIKEI
  6
Continuous
 48
0.302769
370
    40
100
AcDbLine
 10
20.70196971501372
 20
13.57269751881907
 30
0.0
 11
20.70196971501372
 21
12.05885401881906
 31
0.0
  0
LINE
  5
D2
330
2
100
AcDbEntity
  8
GAIKEI
  6
Continuous
 48
0.255362
370
    40
100
AcDbLine
 10
20.70196971501372
 20
12.05885401881906
 30
0.0
 11
20.70196971501372
 21
10.78204239381907
 31
0.0
  0
LINE
  5
D3
330
2
100
AcDbEntity
  8
GAIKEI
  6
Continuous
 48
0.069346
370
    40
100
AcDbLine
 10
17.70196971501372
 20
9.922612143819065
 30
0.0
 11
17.70196971501372
 21
9.575880893819061
 31
0.0
  0
LINE
  5
D4
330
2
100
AcDbEntity
  8
GAIKEI
  6
Continuous
 48
0.008907
370
    40
100
AcDbLine
 10
17.70196971501372
 20
9.922612143819065
 30
0.0
 11
17.70196971501372
 21
9.967144893819039
 31
0.0
  0
LINE
  5
D5
330
2
100
AcDbEntity
  8
GAIKEI
  6
Continuous
 62
     1
 48
0.261365
370
    13
100
AcDbLine
 10
19.4246603400137
 20
12.07600489381903
 30
0.0
 11
19.4246603400137
 21
10.76917926881904
 31
0.0
  0
LINE
  5
D6
330
2
100
AcDbEntity
  8
GAIKEI
  6
Continuous
 62
     1
 48
0.300922
370
    13
100
AcDbLine
 10
19.4246603400137
 20
12.07600489381903
 30
0.0
 11
17.92027721501369
 21
12.10226339381907
 31
0.0
  0
LINE
  5
D7
330
2
100
AcDbEntity
  8
GAIKEI
  6
Continuous
 48
0.08
370
    40
100
AcDbLine
 10
19.4019704650137
 20
8.172610143819071
 30
0.0
 11
19.0019689650137
 21
8.172610143819071
 31
0.0
  0
LINE
  5
D8
330
2
100
AcDbEntity
  8
GAIKEI
  6
Continuous
 62
     1
 48
0.16
370
    13
100
AcDbLine
 10
19.0019689650137
 20
8.972611268819065
 30
0.0
 11
19.0019689650137
 21
8.172610143819071
 31
0.0
  0
LINE
  5
D9
330
2
100
AcDbEntity
  8
GAIKEI
  6
Continuous
 48
0.117557
370
    40
100
AcDbLine
 10
19.0019689650137
 20
8.172610143819071
 30
0.0
 11
18.41418521501372
 21
8.172610143819071
 31
0.0
  0
LINE
  5
DA
330
2
100
AcDbEntity
  8
GAIKEI
  6
Continuous
 48
0.082443
370
    40
100
AcDbLine
 10
18.41418521501372
 20
8.172610143819071
 30
0.0
 11
18.0019689650137
 21
8.172610143819071
 31
0.0
  0
LINE
  5
DB
330
2
100
AcDbEntity
  8
GAIKEI
  6
Continuous
 48
0.2
370
    40
100
AcDbLine
 10
20.4019704650137
 20
8.172610143819071
 30
0.0
 11
19.4019704650137
 21
8.172610143819071
 31
0.0
  0
LINE
  5
DC
330
2
100
AcDbEntity
  8
GAIKEI
  6
Continuous
 62
     1
 48
0.16
370
    13
100
AcDbLine
 10
19.4019704650137
 20
8.972611268819065
 30
0.0
 11
19.4019704650137
 21
8.172610143819071
 31
0.0
  0
LINE
  5
DD
330
2
100
AcDbEntity
  8
GAIKEI
  6
Continuous
 62
     1
 48
0.255475
370
    13
100
AcDbLine
 10
20.70196971501372
 20
10.78204239381907
 30
0.0
 11
19.4246603400137
 21
10.76917926881904
 31
0.0
  0
ARC
  5
DE
330
2
100
AcDbEntity
  8
GAIKEI
  6
Continuous
370
    40
100
AcDbCircle
 10
20.1519704650137
 20
10.78204239381907
 30
0.0
 40
0.5500001250000001
100
AcDbArc
 50
335.3800110000005
 51
0.0
  0
LINE
  5
DF
330
2
100
AcDbEntity
  8
GAIKEI
  6
Continuous
 62
     1
 48
0.033909
370
    40
100
AcDbLine
 10
17.97527371501371
 20
10.19396489381907
 30
0.0
 11
17.8057523400137
 21
10.19100464381907
 31
0.0
  0
LINE
  5
E0
330
2
100
AcDbEntity
  8
GAIKEI
  6
Continuous
 62
     1
 48
0.223361
370
    13
100
AcDbLine
 10
19.02390734001371
 20
10.76218501881905
 30
0.0
 11
17.9072729650137
 21
10.74269376881906
 31
0.0
  0
ELLIPSE
  5
E1
330
2
100
AcDbEntity
  8
GAIKEI
  6
Continuous
 62
     1
370
    13
100
AcDbEllipse
 10
19.41505871501371
 20
10.76917926881904
 30
0.0
 11
0.0095977783203125
 21
-0.5499153137207032
 31
0.0
210
0.0
220
0.0
230
1.0
 40
0.01745
 41
1.565112507657689
 42
1.570491740303233
  0
LINE
  5
E2
330
2
100
AcDbEntity
  8
GAIKEI
  6
Continuous
 62
     1
 48
0.080163
370
    13
100
AcDbLine
 10
19.4246603400137
 20
10.76917926881904
 30
0.0
 11
19.02390734001371
 21
10.76218501881905
 31
0.0
  0
LINE
  5
E3
330
2
100
AcDbEntity
  8
GAIKEI
  6
Continuous
 62
     1
 48
0.08
370
    40
100
AcDbLine
 10
19.4019704650137
 20
8.972611268819065
 30
0.0
 11
19.0019689650137
 21
8.972611268819065
 31
0.0
  0
LINE
  5
E4
330
2
100
AcDbEntity
  8
GAIKEI
  6
Continuous
 62
     1
 48
0.18
370
    13
100
AcDbLine
 10
19.0019689650137
 20
9.872610893819029
 30
0.0
 11
19.0019689650137
 21
8.972611268819065
 31
0.0
  0
LINE
  5
E5
330
2
100
AcDbEntity
  8
GAIKEI
  6
Continuous
 62
     1
 48
0.129312
370
    40
100
AcDbLine
 10
19.0019689650137
 20
8.972611268819065
 30
0.0
 11
17.9019704650137
 21
8.972611268819065
 31
0.0
  0
LINE
  5
E6
330
2
100
AcDbEntity
  8
GAIKEI
  6
Continuous
 62
     1
 48
0.22
370
    40
100
AcDbLine
 10
20.5019689650137
 20
8.972611268819065
 30
0.0
 11
19.4019704650137
 21
8.972611268819065
 31
0.0
  0
LINE
  5
E7
330
2
100
AcDbEntity
  8
GAIKEI
  6
Continuous
 62
     1
 48
0.18
370
    13
100
AcDbLine
 10
19.4019704650137
 20
9.872610893819029
 30
0.0
 11
19.4019704650137
 21
8.972611268819065
 31
0.0
  0
LINE
  5
E8
330
2
100
AcDbEntity
  8
GAIKEI
  6
Continuous
 62
     1
 48
0.000185
370
    13
100
AcDbLine
 10
19.4237867150137
 20
10.76626864381902
 30
0.0
 11
19.4247099650137
 21
10.76626864381902
 31
0.0
  0
POLYLINE
  5
E9
330
2
100
AcDbEntity
  8
GAIKEI
  6
Continuous
 62
     1
370
    40
100
AcDb2dPolyline
 66
     1
 10
0.0
 20
0.0
 30
0.0
  0
VERTEX
  5
EA
330
E9
100
AcDbEntity
  8
GAIKEI
  6
Continuous
 62
     1
370
     0
100
AcDbVertex
100
AcDb2dVertex
 10
19.4247099650137
 20
10.76621901881904
 30
0.0
  0
VERTEX
  5
EB
330
E9
100
AcDbEntity
  8
GAIKEI
  6
Continuous
 62
     1
370
     0
100
AcDbVertex
100
AcDb2dVertex
 10
19.8680234650137
 20
10.71195876881907
 30
0.0
  0
VERTEX
  5
EC
330
E9
100
AcDbEntity
  8
GAIKEI
  6
Continuous
 62
     1
370
     0
100
AcDbVertex
100
AcDb2dVertex
 10
20.07554309001371
 20
10.68465514381907
 30
0.0
  0
VERTEX
  5
ED
330
E9
100
AcDbEntity
  8
GAIKEI
  6
Continuous
 62
     1
370
     0
100
AcDbVertex
100
AcDb2dVertex
 10
20.30212084001371
 20
10.65136426881903
 30
0.0
  0
VERTEX
  5
EE
330
E9
100
AcDbEntity
  8
GAIKEI
  6
Continuous
 62
     1
370
     0
100
AcDbVertex
100
AcDb2dVertex
 10
20.42572846501372
 20
10.63010876881904
 30
0.0
  0
VERTEX
  5
EF
330
E9
100
AcDbEntity
  8
GAIKEI
  6
Continuous
 62
     1
370
     0
100
AcDbVertex
100
AcDb2dVertex
 10
20.5027814650137
 20
10.61456576881906
 30
0.0
  0
VERTEX
  5
F0
330
E9
100
AcDbEntity
  8
GAIKEI
  6
Continuous
 62
     1
370
     0
100
AcDbVertex
100
AcDb2dVertex
 10
20.5657964650137
 20
10.59919064381907
 30
0.0
  0
VERTEX
  5
F1
330
E9
100
AcDbEntity
  8
GAIKEI
  6
Continuous
 62
     1
370
     0
100
AcDbVertex
100
AcDb2dVertex
 10
20.6127287150137
 20
10.58410539381904
 30
0.0
  0
VERTEX
  5
F2
330
E9
100
AcDbEntity
  8
GAIKEI
  6
Continuous
 62
     1
370
     0
100
AcDbVertex
100
AcDb2dVertex
 10
20.62959734001371
 20
10.57671826881906
 30
0.0
  0
VERTEX
  5
F3
330
E9
100
AcDbEntity
  8
GAIKEI
  6
Continuous
 62
     1
370
     0
100
AcDbVertex
100
AcDb2dVertex
 10
20.6418348400137
 20
10.56946076881903
 30
0.0
  0
VERTEX
  5
F4
330
E9
100
AcDbEntity
  8
GAIKEI
  6
Continuous
 62
     1
370
     0
100
AcDbVertex
100
AcDb2dVertex
 10
20.64931546501371
 20
10.56235201881904
 30
0.0
  0
VERTEX
  5
F5
330
E9
100
AcDbEntity
  8
GAIKEI
  6
Continuous
 62
     1
370
     0
100
AcDbVertex
100
AcDb2dVertex
 10
20.65197046501371
 20
10.55509076881904
 30
0.0
  0
SEQEND
  5
F6
330
E9
100
AcDbEntity
  8
GAIKEI
  6
Continuous
 62
     1
370
     0
  0
POLYLINE
  5
F7
330
2
100
AcDbEntity
  8
GAIKEI
  6
Continuous
 62
     1
370
    40
100
AcDb2dPolyline
 66
     1
 10
0.0
 20
0.0
 30
0.0
  0
VERTEX
  5
F8
330
F7
100
AcDbEntity
  8
GAIKEI
  6
Continuous
 62
     1
370
     0
100
AcDbVertex
100
AcDb2dVertex
 10
18.98003446501371
 20
10.73240176881907
 30
0.0
  0
VERTEX
  5
F9
330
F7
100
AcDbEntity
  8
GAIKEI
  6
Continuous
 62
     1
370
     0
100
AcDbVertex
100
AcDb2dVertex
 10
18.8556982150137
 20
10.64836589381903
 30
0.0
  0
VERTEX
  5
FA
330
F7
100
AcDbEntity
  8
GAIKEI
  6
Continuous
 62
     1
370
     0
100
AcDbVertex
100
AcDb2dVertex
 10
18.6864287150137
 20
10.53619851881902
 30
0.0
  0
VERTEX
  5
FB
330
F7
100
AcDbEntity
  8
GAIKEI
  6
Continuous
 62
     1
370
     0
100
AcDbVertex
100
AcDb2dVertex
 10
18.60204371501371
 20
10.48188864381907
 30
0.0
  0
VERTEX
  5
FC
330
F7
100
AcDbEntity
  8
GAIKEI
  6
Continuous
 62
     1
370
     0
100
AcDbVertex
100
AcDb2dVertex
 10
18.47617396501371
 20
10.40397539381902
 30
0.0
  0
VERTEX
  5
FD
330
F7
100
AcDbEntity
  8
GAIKEI
  6
Continuous
 62
     1
370
     0
100
AcDbVertex
100
AcDb2dVertex
 10
18.39314709001371
 20
10.35538764381906
 30
0.0
  0
VERTEX
  5
FE
330
F7
100
AcDbEntity
  8
GAIKEI
  6
Continuous
 62
     1
370
     0
100
AcDbVertex
100
AcDb2dVertex
 10
18.31097471501371
 20
10.31034551881905
 30
0.0
  0
VERTEX
  5
FF
330
F7
100
AcDbEntity
  8
GAIKEI
  6
Continuous
 62
     1
370
     0
100
AcDbVertex
100
AcDb2dVertex
 10
18.23974671501372
 20
10.27456364381905
 30
0.0
  0
VERTEX
  5
100
330
F7
100
AcDbEntity
  8
GAIKEI
  6
Continuous
 62
     1
370
     0
100
AcDbVertex
100
AcDb2dVertex
 10
18.1698079650137
 20
10.24339951881907
 30
0.0
  0
VERTEX
  5
101
330
F7
100
AcDbEntity
  8
GAIKEI
  6
Continuous
 62
     1
370
     0
100
AcDbVertex
100
AcDb2dVertex
 10
18.10183396501371
 20
10.21828539381906
 30
0.0
  0
VERTEX
  5
102
330
F7
100
AcDbEntity
  8
GAIKEI
  6
Continuous
 62
     1
370
     0
100
AcDbVertex
100
AcDb2dVertex
 10
18.06877571501371
 20
10.20852551881907
 30
0.0
  0
VERTEX
  5
103
330
F7
100
AcDbEntity
  8
GAIKEI
  6
Continuous
 62
     1
370
     0
100
AcDbVertex
100
AcDb2dVertex
 10
18.03653396501372
 20
10.20100489381903
 30
0.0
  0
VERTEX
  5
104
330
F7
100
AcDbEntity
  8
GAIKEI
  6
Continuous
 62
     1
370
     0
100
AcDbVertex
100
AcDb2dVertex
 10
18.00529921501371
 20
10.19603814381904
 30
0.0
  0
VERTEX
  5
105
330
F7
100
AcDbEntity
  8
GAIKEI
  6
Continuous
 62
     1
370
     0
100
AcDbVertex
100
AcDb2dVertex
 10
17.97527371501371
 20
10.19396489381907
 30
0.0
  0
SEQEND
  5
106
330
F7
100
AcDbEntity
  8
GAIKEI
  6
Continuous
 62
     1
370
     0
  0
LINE
  5
107
330
2
100
AcDbEntity
  8
GAIKEI
  6
Continuous
 62
     1
 48
0.010605
370
    40
100
AcDbLine
 10
19.02390734001371
 20
10.76218501881905
 30
0.0
 11
18.98003446501371
 21
10.73240176881907
 31
0.0
  0
LINE
  5
108
330
2
100
AcDbEntity
  8
GAIKEI
  6
Continuous
 62
     1
 48
0.000571
370
    13
100
AcDbLine
 10
19.02390734001371
 20
10.75932964381903
 30
0.0
 11
19.02390734001371
 21
10.76218501881905
 31
0.0
  0
LINE
  5
109
330
2
100
AcDbEntity
  8
GAIKEI
  6
Continuous
 62
     1
 48
0.079988
370
    13
100
AcDbLine
 10
19.02390734001371
 20
10.75932964381903
 30
0.0
 11
19.4237867150137
 21
10.76626864381902
 31
0.0
  0
LINE
  5
10A
330
2
100
AcDbEntity
  8
GAIKEI
  6
Continuous
 62
     1
 48
0.178732
370
    13
100
AcDbLine
 10
19.4237867150137
 20
9.872610893819029
 30
0.0
 11
19.4237867150137
 21
10.76626864381902
 31
0.0
  0
LINE
  5
10B
330
2
100
AcDbEntity
  8
GAIKEI
  6
Continuous
 62
     1
 48
0.177344
370
    13
100
AcDbLine
 10
19.02390734001371
 20
9.872610893819029
 30
0.0
 11
19.02390734001371
 21
10.75932964381903
 31
0.0
  0
LINE
  5
10C
330
2
100
AcDbEntity
  8
GAIKEI
  6
Continuous
 62
     1
 48
0.245637
370
    40
100
AcDbLine
 10
20.65197046501371
 20
9.872610893819029
 30
0.0
 11
19.4237867150137
 21
9.872610893819029
 31
0.0
  0
LINE
  5
10D
330
2
100
AcDbEntity
  8
GAIKEI
  6
Continuous
 62
     1
 48
0.247009
370
    40
100
AcDbLine
 10
18.98003446501371
 20
9.872610893819029
 30
0.0
 11
17.7449880900137
 21
9.872610893819029
 31
0.0
  0
LINE
  5
10E
330
2
100
AcDbEntity
  8
GAIKEI
  6
Continuous
 62
     1
 48
0.008775
370
    40
100
AcDbLine
 10
19.02390734001371
 20
9.872610893819029
 30
0.0
 11
18.98003446501371
 21
9.872610893819029
 31
0.0
  0
LINE
  5
10F
330
2
100
AcDbEntity
  8
GAIKEI
  6
Continuous
 62
     1
 48
0.079976
370
    40
100
AcDbLine
 10
19.4237867150137
 20
9.872610893819029
 30
0.0
 11
19.02390734001371
 21
9.872610893819029
 31
0.0
  0
LINE
  5
110
330
2
100
AcDbEntity
  8
GAIKEI
  6
Continuous
 48
0.000524
370
    40
100
AcDbLine
 10
18.14967784001371
 20
16.14490401881906
 30
0.0
 11
18.15153184001372
 21
16.14305389381903
 31
0.0
  0
LINE
  5
111
330
2
100
AcDbEntity
  8
GAIKEI
  6
Continuous
 48
0.000524
370
    40
100
AcDbLine
 10
18.14967784001371
 20
18.74032101881906
 30
0.0
 11
18.15153184001372
 21
18.74217114381903
 31
0.0
  0
LINE
  5
112
330
2
100
AcDbEntity
  8
GAIKEI
  6
Continuous
 48
0.033543
370
    40
100
AcDbLine
 10
18.14967784001371
 20
18.74032101881906
 30
0.0
 11
17.98196846501371
 21
18.73885626881903
 31
0.0
  0
LINE
  5
113
330
2
100
AcDbEntity
  8
GAIKEI
  6
Continuous
 48
0.033543
370
    40
100
AcDbLine
 10
18.14967784001371
 20
16.14490401881906
 30
0.0
 11
17.98196846501371
 21
16.14636889381907
 31
0.0
  0
LINE
  5
114
330
2
100
AcDbEntity
  8
GAIKEI
  6
Continuous
 48
0.000367
370
    40
100
AcDbLine
 10
18.15153184001372
 20
16.14488876881907
 30
0.0
 11
18.15153184001372
 21
16.14305389381903
 31
0.0
  0
LINE
  5
115
330
2
100
AcDbEntity
  8
GAIKEI
  6
Continuous
 48
0.033914
370
    40
100
AcDbLine
 10
18.15153184001372
 20
16.14488876881907
 30
0.0
 11
17.98196846501371
 21
16.14636889381907
 31
0.0
  0
LINE
  5
116
330
2
100
AcDbEntity
  8
GAIKEI
  6
Continuous
 48
0.033914
370
    40
100
AcDbLine
 10
18.15153184001372
 20
18.74033626881905
 30
0.0
 11
17.98196846501371
 21
18.73885626881903
 31
0.0
  0
LINE
  5
117
330
2
100
AcDbEntity
  8
GAIKEI
  6
Continuous
 48
0.000367
370
    40
100
AcDbLine
 10
18.15153184001372
 20
18.74217114381903
 30
0.0
 11
18.15153184001372
 21
18.74033626881905
 31
0.0
  0
LINE
  5
118
330
2
100
AcDbEntity
  8
GAIKEI
  6
Continuous
 48
0.010088
370
    40
100
AcDbLine
 10
18.15153184001372
 20
18.74217114381903
 30
0.0
 11
18.20196971501372
 21
18.74261364381905
 31
0.0
  0
LINE
  5
119
330
2
100
AcDbEntity
  8
GAIKEI
  6
Continuous
 48
0.010088
370
    40
100
AcDbLine
 10
18.15153184001372
 20
16.14305389381903
 30
0.0
 11
18.20196971501372
 21
16.14261139381907
 31
0.0
  0
LINE
  5
11A
330
2
100
AcDbEntity
  8
GAIKEI
  6
Continuous
 62
     1
370
    13
100
AcDbLine
 10
18.20196971501372
 20
18.74261364381905
 30
0.0
 11
18.20196971501372
 21
16.14261139381907
 31
0.0
  0
ARC
  5
11B
330
2
100
AcDbEntity
  8
GAIKEI
  6
Continuous
370
    40
100
AcDbCircle
 10
18.20196971501372
 20
18.64261139381907
 30
0.0
 40
0.1
100
AcDbArc
 50
0.0
 51
90.00000299999769
  0
ARC
  5
11C
330
2
100
AcDbEntity
  8
GAIKEI
  6
Continuous
370
    40
100
AcDbCircle
 10
18.20196971501372
 20
16.24261364381905
 30
0.0
 40
0.1
100
AcDbArc
 50
269.9999969999991
 51
0.0
  0
LINE
  5
11D
330
2
100
AcDbEntity
  8
GAIKEI
  6
Continuous
 48
0.48
370
    40
100
AcDbLine
 10
18.3019719650137
 20
18.64261139381907
 30
0.0
 11
18.3019719650137
 21
16.24261364381905
 31
0.0
  0
LINE
  5
11E
330
2
100
AcDbEntity
  8
GAIKEI
  6
Continuous
 62
     1
 48
0.300414
370
    40
100
AcDbLine
 10
20.55197196501371
 20
20.74261364381905
 30
0.0
 11
19.0499044650137
 21
20.74261364381905
 31
0.0
  0
LINE
  5
11F
330
2
100
AcDbEntity
  8
GAIKEI
  6
Continuous
 48
0.135902
370
    40
100
AcDbLine
 10
18.98055419945248
 20
17.74261364381905
 30
0.0
 11
18.3019719650137
 21
17.74261364381905
 31
0.0
  0
LINE
  5
120
330
2
100
AcDbEntity
  8
GAIKEI
  6
Continuous
 48
0.152157
370
    40
100
AcDbLine
 10
19.06275621501371
 20
17.14261139381906
 30
0.0
 11
18.3019719650137
 21
17.14261139381906
 31
0.0
  0
LINE
  5
121
330
2
100
AcDbEntity
  8
GAIKEI
  6
Continuous
 48
0.008039
370
    40
100
AcDbLine
 10
18.3019719650137
 20
17.74261364381905
 30
0.0
 11
18.3019719650137
 21
17.70241826881906
 31
0.0
  0
LINE
  5
122
330
2
100
AcDbEntity
  8
GAIKEI
  6
Continuous
 48
0.103923
370
    40
100
AcDbLine
 10
18.3019719650137
 20
17.18280301881904
 30
0.0
 11
18.3019719650137
 21
17.70241826881906
 31
0.0
  0
LINE
  5
123
330
2
100
AcDbEntity
  8
GAIKEI
  6
Continuous
 48
0.008038
370
    40
100
AcDbLine
 10
18.3019719650137
 20
17.14261139381906
 30
0.0
 11
18.3019719650137
 21
17.18280301881904
 31
0.0
  0
ARC
  5
124
330
2
100
AcDbEntity
  8
GAIKEI
  6
Continuous
370
    40
100
AcDbCircle
 10
20.4287000900137
 20
16.74261364381905
 30
0.0
 40
0.099999875
100
AcDbArc
 50
269.8497879999978
 51
359.0000539999995
  0
LINE
  5
125
330
2
100
AcDbEntity
  8
GAIKEI
  6
Continuous
 48
0.27039
370
    40
100
AcDbLine
 10
20.52868709001371
 20
16.74086651881905
 30
0.0
 11
20.55228096501371
 21
18.09261214381902
 31
0.0
  0
POLYLINE
  5
126
330
2
100
AcDbEntity
  8
GAIKEI
  6
Continuous
370
    40
100
AcDb2dPolyline
 66
     1
 10
0.0
 20
0.0
 30
0.0
  0
VERTEX
  5
127
330
126
100
AcDbEntity
  8
GAIKEI
  6
Continuous
370
     0
100
AcDbVertex
100
AcDb2dVertex
 10
19.0536885900137
 20
17.44801989381906
 30
0.0
  0
VERTEX
  5
128
330
126
100
AcDbEntity
  8
GAIKEI
  6
Continuous
370
     0
100
AcDbVertex
100
AcDb2dVertex
 10
19.0480390900137
 20
17.51664251881905
 30
0.0
  0
VERTEX
  5
129
330
126
100
AcDbEntity
  8
GAIKEI
  6
Continuous
370
     0
100
AcDbVertex
100
AcDb2dVertex
 10
19.03609521501372
 20
17.58156864381905
 30
0.0
  0
VERTEX
  5
12A
330
126
100
AcDbEntity
  8
GAIKEI
  6
Continuous
370
     0
100
AcDbVertex
100
AcDb2dVertex
 10
19.02003534001372
 20
17.64041414381907
 30
0.0
  0
VERTEX
  5
12B
330
126
100
AcDbEntity
  8
GAIKEI
  6
Continuous
370
     0
100
AcDbVertex
100
AcDb2dVertex
 10
18.9965253400137
 20
17.70655714381902
 30
0.0
  0
VERTEX
  5
12C
330
126
100
AcDbEntity
  8
GAIKEI
  6
Continuous
370
     0
100
AcDbVertex
100
AcDb2dVertex
 10
18.96011034001371
 20
17.78876776881904
 30
0.0
  0
SEQEND
  5
12D
330
126
100
AcDbEntity
  8
GAIKEI
  6
Continuous
370
     0
  0
LINE
  5
12E
330
2
100
AcDbEntity
  8
GAIKEI
  6
Continuous
 48
0.058114
370
    40
100
AcDbLine
 10
18.95673434001371
 20
17.80208864381907
 30
0.0
 11
18.9516607150137
 21
18.09261214381902
 31
0.0
  0
LINE
  5
12F
330
2
100
AcDbEntity
  8
GAIKEI
  6
Continuous
 48
0.141569
370
    40
100
AcDbLine
 10
19.0536885900137
 20
17.44801989381906
 30
0.0
 11
19.07469996501371
 21
16.74048514381903
 31
0.0
  0
POLYLINE
  5
130
330
2
100
AcDbEntity
  8
GAIKEI
  6
Continuous
370
    40
100
AcDb2dPolyline
 66
     1
 10
0.0
 20
0.0
 30
0.0
  0
VERTEX
  5
131
330
130
100
AcDbEntity
  8
GAIKEI
  6
Continuous
370
     0
100
AcDbVertex
100
AcDb2dVertex
 10
19.07469996501371
 20
16.74048514381903
 30
0.0
  0
VERTEX
  5
132
330
130
100
AcDbEntity
  8
GAIKEI
  6
Continuous
370
     0
100
AcDbVertex
100
AcDb2dVertex
 10
19.07872446501371
 20
16.71631139381904
 30
0.0
  0
VERTEX
  5
133
330
130
100
AcDbEntity
  8
GAIKEI
  6
Continuous
370
     0
100
AcDbVertex
100
AcDb2dVertex
 10
19.08879146501371
 20
16.69422801881902
 30
0.0
  0
VERTEX
  5
134
330
130
100
AcDbEntity
  8
GAIKEI
  6
Continuous
370
     0
100
AcDbVertex
100
AcDb2dVertex
 10
19.1037374650137
 20
16.67554364381905
 30
0.0
  0
VERTEX
  5
135
330
130
100
AcDbEntity
  8
GAIKEI
  6
Continuous
370
     0
100
AcDbVertex
100
AcDb2dVertex
 10
19.1222120900137
 20
16.66095251881907
 30
0.0
  0
VERTEX
  5
136
330
130
100
AcDbEntity
  8
GAIKEI
  6
Continuous
370
     0
100
AcDbVertex
100
AcDb2dVertex
 10
19.14299071501371
 20
16.65065276881907
 30
0.0
  0
VERTEX
  5
137
330
130
100
AcDbEntity
  8
GAIKEI
  6
Continuous
370
     0
100
AcDbVertex
100
AcDb2dVertex
 10
19.17070071501371
 20
16.64372151881903
 30
0.0
  0
VERTEX
  5
138
330
130
100
AcDbEntity
  8
GAIKEI
  6
Continuous
370
     0
100
AcDbVertex
100
AcDb2dVertex
 10
19.18764934001371
 20
16.64261139381906
 30
0.0
  0
SEQEND
  5
139
330
130
100
AcDbEntity
  8
GAIKEI
  6
Continuous
370
     0
  0
LINE
  5
13A
330
2
100
AcDbEntity
  8
GAIKEI
  6
Continuous
 48
0.000272
370
    40
100
AcDbLine
 10
20.1260687150137
 20
16.64261139381906
 30
0.0
 11
20.12471071501371
 21
16.64261139381906
 31
0.0
  0
LINE
  5
13B
330
2
100
AcDbEntity
  8
GAIKEI
  6
Continuous
 48
0.177753
370
    40
100
AcDbLine
 10
20.07641284001372
 20
16.64261139381906
 30
0.0
 11
19.18764934001371
 21
16.64261139381906
 31
0.0
  0
LINE
  5
13C
330
2
100
AcDbEntity
  8
GAIKEI
  6
Continuous
 48
0.070457
370
    40
100
AcDbLine
 10
20.4287000900137
 20
16.64261139381906
 30
0.0
 11
20.07641284001372
 21
16.64261139381906
 31
0.0
  0
ARC
  5
13D
330
2
100
AcDbEntity
  8
GAIKEI
  6
Continuous
370
    40
100
AcDbCircle
 10
18.98667209001371
 20
17.80260739381904
 30
0.0
 40
0.029945125
100
AcDbArc
 50
180.9967790000005
 51
208.4274339999993
  0
LINE
  5
13E
330
2
100
AcDbEntity
  8
GAIKEI
  6
Continuous
 48
0.000716
370
    13
100
AcDbLine
 10
19.05370384001369
 20
17.44801989381906
 30
0.0
 11
19.05726684001371
 21
17.44837076881904
 31
0.0
  0
LINE
  5
13F
330
2
100
AcDbEntity
  8
GAIKEI
  6
Continuous
 48
0.0008
370
    13
100
AcDbLine
 10
19.07469996501371
 20
16.74048514381903
 30
0.0
 11
19.0786825900137
 21
16.74086651881905
 31
0.0
  0
LINE
  5
140
330
2
100
AcDbEntity
  8
GAIKEI
  6
Continuous
 48
0.000518
370
    40
100
AcDbLine
 10
18.55824334001372
 20
20.33634076881904
 30
0.0
 11
18.55641234001371
 21
20.33817189381907
 31
0.0
  0
LINE
  5
141
330
2
100
AcDbEntity
  8
GAIKEI
  6
Continuous
 48
0.050896
370
    40
100
AcDbLine
 10
20.9475294650137
 20
20.33817189381907
 30
0.0
 11
20.95196971501372
 21
20.59261214381903
 31
0.0
  0
LINE
  5
142
330
2
100
AcDbEntity
  8
GAIKEI
  6
Continuous
 48
0.050896
370
    40
100
AcDbLine
 10
18.55641234001371
 20
20.33817189381907
 30
0.0
 11
18.5519719650137
 21
20.59261214381903
 31
0.0
  0
ARC
  5
143
330
2
100
AcDbEntity
  8
GAIKEI
  6
Continuous
370
    40
100
AcDbCircle
 10
20.71258221501371
 20
18.33784764381906
 30
0.0
 40
0.2
100
AcDbArc
 50
288.3328669999997
 51
319.0559150000008
  0
ARC
  5
144
330
2
100
AcDbEntity
  8
GAIKEI
  6
Continuous
370
    40
100
AcDbCircle
 10
18.79135959001371
 20
18.33784764381906
 30
0.0
 40
0.2
100
AcDbArc
 50
220.9440829999996
 51
251.6671349999985
  0
LINE
  5
145
330
2
100
AcDbEntity
  8
GAIKEI
  6
Continuous
 48
0.035219
370
    40
100
AcDbLine
 10
20.60833421501371
 20
18.09261214381902
 30
0.0
 11
20.7754903400137
 21
18.14800151881903
 31
0.0
  0
LINE
  5
146
330
2
100
AcDbEntity
  8
GAIKEI
  6
Continuous
 48
0.035219
370
    40
100
AcDbLine
 10
18.89560759001369
 20
18.09261214381902
 30
0.0
 11
18.7284513400137
 21
18.14800151881903
 31
0.0
  0
ARC
  5
147
330
2
100
AcDbEntity
  8
GAIKEI
  6
Continuous
 62
     1
370
    40
100
AcDbCircle
 10
19.75197284001371
 20
19.19261064381905
 30
0.0
 40
0.325
100
AcDbArc
 50
90.00000299999769
 51
96.24484400000122
  0
CIRCLE
  5
148
330
2
100
AcDbEntity
  8
GAIKEI
  6
Continuous
 62
     1
370
    40
100
AcDbCircle
 10
19.75197284001371
 20
19.19261064381905
 30
0.0
 40
0.26
  0
ARC
  5
149
330
2
100
AcDbEntity
  8
GAIKEI
  6
Continuous
 62
     1
370
    40
100
AcDbCircle
 10
19.75197284001371
 20
19.19261064381905
 30
0.0
 40
0.325
100
AcDbArc
 50
276.2448389999984
 51
348.1328890000003
  0
LINE
  5
14A
330
2
100
AcDbEntity
  8
GAIKEI
  6
Continuous
 62
     1
 48
0.024969
370
    40
100
AcDbLine
 10
20.07175509001371
 20
19.25060926881903
 30
0.0
 11
20.07002321501371
 21
19.12577714381908
 31
0.0
  0
ARC
  5
14B
330
2
100
AcDbEntity
  8
GAIKEI
  6
Continuous
 62
     1
370
    40
100
AcDbCircle
 10
19.75197284001371
 20
19.19261064381905
 30
0.0
 40
0.325
100
AcDbArc
 50
10.27992099999983
 51
68.3914490000018
  0
ARC
  5
14C
330
2
100
AcDbEntity
  8
GAIKEI
  6
Continuous
 62
     1
370
    40
100
AcDbCircle
 10
19.75197284001371
 20
19.19261064381905
 30
0.0
 40
0.325
100
AcDbArc
 50
68.39146300000047
 51
90.00002299999971
  0
LINE
  5
14D
330
2
100
AcDbEntity
  8
GAIKEI
  6
Continuous
 48
0.4004570000000001
370
    40
100
AcDbLine
 10
20.9456983400137
 20
20.33633701881902
 30
0.0
 11
20.9107023400137
 21
18.33435714381906
 31
0.0
  0
LINE
  5
14E
330
2
100
AcDbEntity
  8
GAIKEI
  6
Continuous
 48
0.400824
370
    40
100
AcDbLine
 10
20.94572884001371
 20
20.33817189381907
 30
0.0
 11
20.9107023400137
 21
18.33435714381906
 31
0.0
  0
ARC
  5
14F
330
2
100
AcDbEntity
  8
GAIKEI
  6
Continuous
 62
     1
370
    40
100
AcDbCircle
 10
19.75197284001371
 20
19.19261064381905
 30
0.0
 40
0.325
100
AcDbArc
 50
96.24484400000122
 51
131.2933929999997
  0
LINE
  5
150
330
2
100
AcDbEntity
  8
GAIKEI
  6
Continuous
 48
0.400824
370
    40
100
AcDbLine
 10
18.55821284001371
 20
20.33817189381907
 30
0.0
 11
18.59323946501371
 21
18.33435714381906
 31
0.0
  0
LINE
  5
151
330
2
100
AcDbEntity
  8
GAIKEI
  6
Continuous
 48
0.00036
370
    40
100
AcDbLine
 10
18.55641234001371
 20
20.33817189381907
 30
0.0
 11
18.55821284001371
 21
20.33817189381907
 31
0.0
  0
LINE
  5
152
330
2
100
AcDbEntity
  8
GAIKEI
  6
Continuous
 48
0.4004570000000001
370
    40
100
AcDbLine
 10
18.55824334001372
 20
20.33633701881902
 30
0.0
 11
18.59323946501371
 21
18.33435714381906
 31
0.0
  0
ARC
  5
153
330
2
100
AcDbEntity
  8
GAIKEI
  6
Continuous
 62
     1
370
    40
100
AcDbCircle
 10
19.75197284001371
 20
19.19261064381905
 30
0.0
 40
0.325
100
AcDbArc
 50
131.293365999999
 51
169.7202010000006
  0
LINE
  5
154
330
2
100
AcDbEntity
  8
GAIKEI
  6
Continuous
 62
     1
 48
0.024969
370
    40
100
AcDbLine
 10
19.4321867150137
 20
19.25060926881903
 30
0.0
 11
19.43391859001372
 21
19.12577714381908
 31
0.0
  0
ARC
  5
155
330
2
100
AcDbEntity
  8
GAIKEI
  6
Continuous
 62
     1
370
    40
100
AcDbCircle
 10
19.75197284001371
 20
19.19261064381905
 30
0.0
 40
0.325
100
AcDbArc
 50
191.8671889999998
 51
276.2447919999988
  0
ARC
  5
156
330
2
100
AcDbEntity
  8
GAIKEI
  6
Continuous
370
    40
100
AcDbCircle
 10
20.7060475900137
 20
18.33707326881907
 30
0.0
 40
0.20463475
100
AcDbArc
 50
327.5291710000004
 51
359.2405849999995
  0
ARC
  5
157
330
2
100
AcDbEntity
  8
GAIKEI
  6
Continuous
370
    40
100
AcDbCircle
 10
20.7019468400137
 20
18.34114351881905
 30
0.0
 40
0.210242875
100
AcDbArc
 50
320.2853079999982
 51
327.1930069999984
  0
ARC
  5
158
330
2
100
AcDbEntity
  8
GAIKEI
  6
Continuous
370
    40
100
AcDbCircle
 10
20.7060475900137
 20
18.33707326881907
 30
0.0
 40
0.20463475
100
AcDbArc
 50
327.5291710000004
 51
359.2405849999995
  0
ARC
  5
159
330
2
100
AcDbEntity
  8
GAIKEI
  6
Continuous
370
    40
100
AcDbCircle
 10
18.8018575900137
 20
18.34104051881903
 30
0.0
 40
0.210067625
100
AcDbArc
 50
212.8036310000006
 51
219.7247300000003
  0
ARC
  5
15A
330
2
100
AcDbEntity
  8
GAIKEI
  6
Continuous
370
    40
100
AcDbCircle
 10
18.79789409001371
 20
18.33707326881907
 30
0.0
 40
0.20463475
100
AcDbArc
 50
180.7594160000002
 51
212.470824
  0
LINE
  5
15B
330
2
100
AcDbEntity
  8
GAIKEI
  6
Continuous
 48
0.05335
370
    40
100
AcDbLine
 10
19.75197284001371
 20
18.09261214381902
 30
0.0
 11
20.01872309001371
 21
18.09261214381902
 31
0.0
  0
LINE
  5
15C
330
2
100
AcDbEntity
  8
GAIKEI
  6
Continuous
 48
0.117922
370
    40
100
AcDbLine
 10
20.01872309001371
 20
18.09261214381902
 30
0.0
 11
20.60833421501371
 21
18.09261214381902
 31
0.0
  0
LINE
  5
15D
330
2
100
AcDbEntity
  8
GAIKEI
  6
Continuous
 48
0.171273
370
    40
100
AcDbLine
 10
18.89560759001369
 20
18.09261214381902
 30
0.0
 11
19.75197284001371
 21
18.09261214381902
 31
0.0
  0
LINE
  5
15E
330
2
100
AcDbEntity
  8
GAIKEI
  6
Continuous
 48
0.019826
370
    40
100
AcDbLine
 10
20.9502417150137
 20
20.69172564381907
 30
0.0
 11
20.95196971501372
 21
20.59261214381903
 31
0.0
  0
LINE
  5
15F
330
2
100
AcDbEntity
  8
GAIKEI
  6
Continuous
 48
0.019826
370
    40
100
AcDbLine
 10
18.5537000900137
 20
20.69172564381907
 30
0.0
 11
18.5519719650137
 21
20.59261214381903
 31
0.0
  0
LINE
  5
160
330
2
100
AcDbEntity
  8
GAIKEI
  6
Continuous
 48
0.014393
370
    40
100
AcDbLine
 10
20.8993535900137
 20
20.74261364381905
 30
0.0
 11
20.9502417150137
 21
20.69172564381907
 31
0.0
  0
LINE
  5
161
330
2
100
AcDbEntity
  8
GAIKEI
  6
Continuous
 48
0.014393
370
    40
100
AcDbLine
 10
18.6045880900137
 20
20.74261364381905
 30
0.0
 11
18.5537000900137
 21
20.69172564381907
 31
0.0
  0
LINE
  5
162
330
2
100
AcDbEntity
  8
GAIKEI
  6
Continuous
 62
     1
 48
0.24363
370
    40
100
AcDbLine
 10
19.73209059001371
 20
20.69172564381907
 30
0.0
 11
20.9502417150137
 21
20.69172564381907
 31
0.0
  0
LINE
  5
163
330
2
100
AcDbEntity
  8
GAIKEI
  6
Continuous
 62
     1
 48
0.11092
370
    40
100
AcDbLine
 10
19.73209059001371
 20
20.69172564381907
 30
0.0
 11
18.5537000900137
 21
20.69172564381907
 31
0.0
  0
LINE
  5
164
330
2
100
AcDbEntity
  8
GAIKEI
  6
Continuous
 62
     1
 48
0.233284
370
    40
100
AcDbLine
 10
19.7329335900137
 20
20.74261364381905
 30
0.0
 11
20.8993535900137
 21
20.74261364381905
 31
0.0
  0
LINE
  5
165
330
2
100
AcDbEntity
  8
GAIKEI
  6
Continuous
 62
     1
 48
0.10621
370
    40
100
AcDbLine
 10
19.20188584001371
 20
20.74261364381905
 30
0.0
 11
19.7329335900137
 21
20.74261364381905
 31
0.0
  0
LINE
  5
166
330
2
100
AcDbEntity
  8
GAIKEI
  6
Continuous
 48
0.11946
370
    40
100
AcDbLine
 10
18.6045880900137
 20
20.74261364381905
 30
0.0
 11
19.20188584001371
 21
20.74261364381905
 31
0.0
  0
LINE
  5
167
330
2
100
AcDbEntity
  8
GAIKEI
  6
Continuous
 48
0.000736
370
    40
100
AcDbLine
 10
21.12629759001371
 20
27.64261139381907
 30
0.0
 11
21.12997871501371
 21
27.64261139381907
 31
0.0
  0
LINE
  5
168
330
2
100
AcDbEntity
  8
GAIKEI
  6
Continuous
 48
0.000056
370
    40
100
AcDbLine
 10
18.7022482150137
 20
27.64261526881907
 30
0.0
 11
18.70196971501371
 21
27.64261139381907
 31
0.0
  0
LINE
  5
169
330
2
100
AcDbEntity
  8
GAIKEI
  6
Continuous
 48
0.000685
370
    40
100
AcDbLine
 10
24.93590984001372
 20
27.64247401881906
 30
0.0
 11
24.93933159001372
 21
27.64261139381907
 31
0.0
  0
POLYLINE
  5
16A
330
2
100
AcDbEntity
  8
GAIKEI
  6
Continuous
370
    40
100
AcDb2dPolyline
 66
     1
 10
0.0
 20
0.0
 30
0.0
  0
VERTEX
  5
16B
330
16A
100
AcDbEntity
  8
GAIKEI
  6
Continuous
370
     0
100
AcDbVertex
100
AcDb2dVertex
 10
25.24445396501372
 20
27.59261214381903
 30
0.0
  0
VERTEX
  5
16C
330
16A
100
AcDbEntity
  8
GAIKEI
  6
Continuous
370
     0
100
AcDbVertex
100
AcDb2dVertex
 10
25.24242846501372
 20
27.60669989381907
 30
0.0
  0
VERTEX
  5
16D
330
16A
100
AcDbEntity
  8
GAIKEI
  6
Continuous
370
     0
100
AcDbVertex
100
AcDb2dVertex
 10
25.23651559001371
 20
27.61964689381907
 30
0.0
  0
VERTEX
  5
16E
330
16A
100
AcDbEntity
  8
GAIKEI
  6
Continuous
370
     0
100
AcDbVertex
100
AcDb2dVertex
 10
25.22719634001371
 20
27.63040051881907
 30
0.0
  0
VERTEX
  5
16F
330
16A
100
AcDbEntity
  8
GAIKEI
  6
Continuous
370
     0
100
AcDbVertex
100
AcDb2dVertex
 10
25.21522584001372
 20
27.63809476881906
 30
0.0
  0
VERTEX
  5
170
330
16A
100
AcDbEntity
  8
GAIKEI
  6
Continuous
370
     0
100
AcDbVertex
100
AcDb2dVertex
 10
25.20156921501371
 20
27.64210401881903
 30
0.0
  0
VERTEX
  5
171
330
16A
100
AcDbEntity
  8
GAIKEI
  6
Continuous
370
     0
100
AcDbVertex
100
AcDb2dVertex
 10
25.1933867150137
 20
27.64276776881903
 30
0.0
  0
VERTEX
  5
172
330
16A
100
AcDbEntity
  8
GAIKEI
  6
Continuous
370
     0
100
AcDbVertex
100
AcDb2dVertex
 10
25.1768460900137
 20
27.64261139381907
 30
0.0
  0
SEQEND
  5
173
330
16A
100
AcDbEntity
  8
GAIKEI
  6
Continuous
370
     0
  0
LINE
  5
174
330
2
100
AcDbEntity
  8
GAIKEI
  6
Continuous
 48
0.014924
370
    40
100
AcDbLine
 10
20.87697284001371
 20
20.74261364381905
 30
0.0
 11
20.92973771501371
 21
20.79537851881903
 31
0.0
  0
POLYLINE
  5
175
330
2
100
AcDbEntity
  8
GAIKEI
  6
Continuous
370
    40
100
AcDb2dPolyline
 66
     1
 10
0.0
 20
0.0
 30
0.0
  0
VERTEX
  5
176
330
175
100
AcDbEntity
  8
GAIKEI
  6
Continuous
370
     0
100
AcDbVertex
100
AcDb2dVertex
 10
21.11979359001372
 20
24.56417364381903
 30
0.0
  0
VERTEX
  5
177
330
175
100
AcDbEntity
  8
GAIKEI
  6
Continuous
370
     0
100
AcDbVertex
100
AcDb2dVertex
 10
21.0317007150137
 20
24.43165864381908
 30
0.0
  0
VERTEX
  5
178
330
175
100
AcDbEntity
  8
GAIKEI
  6
Continuous
370
     0
100
AcDbVertex
100
AcDb2dVertex
 10
20.95807321501371
 20
24.30938614381907
 30
0.0
  0
VERTEX
  5
179
330
175
100
AcDbEntity
  8
GAIKEI
  6
Continuous
370
     0
100
AcDbVertex
100
AcDb2dVertex
 10
20.9071660900137
 20
24.21481976881907
 30
0.0
  0
VERTEX
  5
17A
330
175
100
AcDbEntity
  8
GAIKEI
  6
Continuous
370
     0
100
AcDbVertex
100
AcDb2dVertex
 10
20.87374171501371
 20
24.14555639381902
 30
0.0
  0
VERTEX
  5
17B
330
175
100
AcDbEntity
  8
GAIKEI
  6
Continuous
370
     0
100
AcDbVertex
100
AcDb2dVertex
 10
20.85631234001372
 20
24.10610851881907
 30
0.0
  0
VERTEX
  5
17C
330
175
100
AcDbEntity
  8
GAIKEI
  6
Continuous
370
     0
100
AcDbVertex
100
AcDb2dVertex
 10
20.83258121501371
 20
24.04714476881904
 30
0.0
  0
VERTEX
  5
17D
330
175
100
AcDbEntity
  8
GAIKEI
  6
Continuous
370
     0
100
AcDbVertex
100
AcDb2dVertex
 10
20.80820909001371
 20
23.97677126881902
 30
0.0
  0
VERTEX
  5
17E
330
175
100
AcDbEntity
  8
GAIKEI
  6
Continuous
370
     0
100
AcDbVertex
100
AcDb2dVertex
 10
20.7948042150137
 20
23.93149839381905
 30
0.0
  0
VERTEX
  5
17F
330
175
100
AcDbEntity
  8
GAIKEI
  6
Continuous
370
     0
100
AcDbVertex
100
AcDb2dVertex
 10
20.78356234001372
 20
23.88568014381903
 30
0.0
  0
VERTEX
  5
180
330
175
100
AcDbEntity
  8
GAIKEI
  6
Continuous
370
     0
100
AcDbVertex
100
AcDb2dVertex
 10
20.7745558400137
 20
23.83716476881907
 30
0.0
  0
VERTEX
  5
181
330
175
100
AcDbEntity
  8
GAIKEI
  6
Continuous
370
     0
100
AcDbVertex
100
AcDb2dVertex
 10
20.76977596501371
 20
23.80458339381906
 30
0.0
  0
VERTEX
  5
182
330
175
100
AcDbEntity
  8
GAIKEI
  6
Continuous
370
     0
100
AcDbVertex
100
AcDb2dVertex
 10
20.76175371501371
 20
23.73911939381904
 30
0.0
  0
SEQEND
  5
183
330
175
100
AcDbEntity
  8
GAIKEI
  6
Continuous
370
     0
  0
ARC
  5
184
330
2
100
AcDbEntity
  8
GAIKEI
  6
Continuous
370
    40
100
AcDbCircle
 10
21.07853371501372
 20
24.59267314381904
 30
0.0
 40
0.05014425
100
AcDbArc
 50
325.3628539999989
 51
356.9387139999994
  0
ARC
  5
185
330
2
100
AcDbEntity
  8
GAIKEI
  6
Continuous
370
    40
100
AcDbCircle
 10
23.82098446501371
 20
22.66372951881905
 30
0.0
 40
3.302368374999999
100
AcDbArc
 50
146.5542899999999
 51
149.207012000001
  0
ARC
  5
186
330
2
100
AcDbEntity
  8
GAIKEI
  6
Continuous
370
    40
100
AcDbCircle
 10
-357.4399942849863
 20
50.16687289381906
 30
0.0
 40
379.124005125
100
AcDbArc
 50
355.7830899999995
 51
356.0028169999997
  0
ARC
  5
187
330
2
100
AcDbEntity
  8
GAIKEI
  6
Continuous
370
    40
100
AcDbCircle
 10
23.3652502150137
 20
23.11962789381906
 30
0.0
 40
2.92032325
100
AcDbArc
 50
209.5469700000004
 51
214.3779490000012
  0
ARC
  5
188
330
2
100
AcDbEntity
  8
GAIKEI
  6
Continuous
370
    40
100
AcDbCircle
 10
20.9135824650137
 20
21.44260301881903
 30
0.0
 40
0.05000375
100
AcDbArc
 50
357.0007870000004
 51
34.11268999999957
  0
POLYLINE
  5
189
330
2
100
AcDbEntity
  8
GAIKEI
  6
Continuous
370
    40
100
AcDb2dPolyline
 66
     1
 10
0.0
 20
0.0
 30
0.0
  0
VERTEX
  5
18A
330
189
100
AcDbEntity
  8
GAIKEI
  6
Continuous
370
     0
100
AcDbVertex
100
AcDb2dVertex
 10
20.95498334001371
 20
21.47064489381907
 30
0.0
  0
VERTEX
  5
18B
330
189
100
AcDbEntity
  8
GAIKEI
  6
Continuous
370
     0
100
AcDbVertex
100
AcDb2dVertex
 10
20.87824309001371
 20
21.58882039381902
 30
0.0
  0
VERTEX
  5
18C
330
189
100
AcDbEntity
  8
GAIKEI
  6
Continuous
370
     0
100
AcDbVertex
100
AcDb2dVertex
 10
20.81644496501372
 20
21.69461339381908
 30
0.0
  0
VERTEX
  5
18D
330
189
100
AcDbEntity
  8
GAIKEI
  6
Continuous
370
     0
100
AcDbVertex
100
AcDb2dVertex
 10
20.7649885900137
 20
21.79514964381903
 30
0.0
  0
VERTEX
  5
18E
330
189
100
AcDbEntity
  8
GAIKEI
  6
Continuous
370
     0
100
AcDbVertex
100
AcDb2dVertex
 10
20.73071734001371
 20
21.87331664381904
 30
0.0
  0
VERTEX
  5
18F
330
189
100
AcDbEntity
  8
GAIKEI
  6
Continuous
370
     0
100
AcDbVertex
100
AcDb2dVertex
 10
20.7130094650137
 20
21.91979489381905
 30
0.0
  0
VERTEX
  5
190
330
189
100
AcDbEntity
  8
GAIKEI
  6
Continuous
370
     0
100
AcDbVertex
100
AcDb2dVertex
 10
20.69513384001371
 20
21.97383014381907
 30
0.0
  0
VERTEX
  5
191
330
189
100
AcDbEntity
  8
GAIKEI
  6
Continuous
370
     0
100
AcDbVertex
100
AcDb2dVertex
 10
20.67752896501372
 20
22.03987401881907
 30
0.0
  0
VERTEX
  5
192
330
189
100
AcDbEntity
  8
GAIKEI
  6
Continuous
370
     0
100
AcDbVertex
100
AcDb2dVertex
 10
20.66820584001371
 20
22.08485301881902
 30
0.0
  0
VERTEX
  5
193
330
189
100
AcDbEntity
  8
GAIKEI
  6
Continuous
370
     0
100
AcDbVertex
100
AcDb2dVertex
 10
20.66153396501372
 20
22.13023651881903
 30
0.0
  0
VERTEX
  5
194
330
189
100
AcDbEntity
  8
GAIKEI
  6
Continuous
370
     0
100
AcDbVertex
100
AcDb2dVertex
 10
20.65769259001371
 20
22.18292514381906
 30
0.0
  0
VERTEX
  5
195
330
189
100
AcDbEntity
  8
GAIKEI
  6
Continuous
370
     0
100
AcDbVertex
100
AcDb2dVertex
 10
20.65691059001371
 20
22.21819964381908
 30
0.0
  0
VERTEX
  5
196
330
189
100
AcDbEntity
  8
GAIKEI
  6
Continuous
370
     0
100
AcDbVertex
100
AcDb2dVertex
 10
20.65759721501371
 20
22.28892789381908
 30
0.0
  0
SEQEND
  5
197
330
189
100
AcDbEntity
  8
GAIKEI
  6
Continuous
370
     0
  0
ARC
  5
198
330
2
100
AcDbEntity
  8
GAIKEI
  6
Continuous
370
    40
100
AcDbCircle
 10
14.30949084001371
 20
27.59261214381903
 30
0.0
 40
0.05
100
AcDbArc
 50
90.0000089999996
 51
179.9999949999995
  0
ARC
  5
199
330
2
100
AcDbEntity
  8
GAIKEI
  6
Continuous
370
    40
100
AcDbCircle
 10
25.19445096501371
 20
27.59261214381903
 30
0.0
 40
0.050000375
100
AcDbArc
 50
352.0000260000002
 51
359.9999739999993
  0
LINE
  5
19A
330
2
100
AcDbEntity
  8
GAIKEI
  6
Continuous
 48
0.00041
370
    40
100
AcDbLine
 10
16.46690046501371
 20
25.44724164381907
 30
0.0
 11
16.46495884001371
 21
25.44789776881905
 31
0.0
  0
LINE
  5
19B
330
2
100
AcDbEntity
  8
GAIKEI
  6
Continuous
 48
0.095546
370
    40
100
AcDbLine
 10
16.92651809001371
 20
25.31693539381902
 30
0.0
 11
16.46690046501371
 21
25.44724164381907
 31
0.0
  0
LINE
  5
19C
330
2
100
AcDbEntity
  8
GAIKEI
  6
Continuous
 48
0.014925
370
    40
100
AcDbLine
 10
18.6269728400137
 20
20.74261364381905
 30
0.0
 11
18.57420409001371
 21
20.79537851881903
 31
0.0
  0
POLYLINE
  5
19D
330
2
100
AcDbEntity
  8
GAIKEI
  6
Continuous
370
    40
100
AcDb2dPolyline
 66
     1
 10
0.0
 20
0.0
 30
0.0
  0
VERTEX
  5
19E
330
19D
100
AcDbEntity
  8
GAIKEI
  6
Continuous
370
     0
100
AcDbVertex
100
AcDb2dVertex
 10
20.82479159001372
 20
21.67955676881903
 30
0.0
  0
VERTEX
  5
19F
330
19D
100
AcDbEntity
  8
GAIKEI
  6
Continuous
370
     0
100
AcDbVertex
100
AcDb2dVertex
 10
20.7752272150137
 20
21.77384839381907
 30
0.0
  0
VERTEX
  5
1A0
330
19D
100
AcDbEntity
  8
GAIKEI
  6
Continuous
370
     0
100
AcDbVertex
100
AcDb2dVertex
 10
20.73611121501369
 20
21.86015589381904
 30
0.0
  0
VERTEX
  5
1A1
330
19D
100
AcDbEntity
  8
GAIKEI
  6
Continuous
370
     0
100
AcDbVertex
100
AcDb2dVertex
 10
20.70359859001371
 20
21.94710439381905
 30
0.0
  0
VERTEX
  5
1A2
330
19D
100
AcDbEntity
  8
GAIKEI
  6
Continuous
370
     0
100
AcDbVertex
100
AcDb2dVertex
 10
20.68903409001371
 20
21.99476139381906
 30
0.0
  0
SEQEND
  5
1A3
330
19D
100
AcDbEntity
  8
GAIKEI
  6
Continuous
370
     0
  0
ARC
  5
1A4
330
2
100
AcDbEntity
  8
GAIKEI
  6
Continuous
370
    40
100
AcDbCircle
 10
-357.5740274099863
 20
50.17609676881903
 30
0.0
 40
379.2583355
100
AcDbArc
 50
355.783189
 51
356.0028389999993
  0
ARC
  5
1A5
330
2
100
AcDbEntity
  8
GAIKEI
  6
Continuous
370
    40
100
AcDbCircle
 10
14.30949084001371
 20
27.59261214381903
 30
0.0
 40
0.050000375
100
AcDbArc
 50
180.0000219999999
 51
187.9999770000003
  0
LINE
  5
1A6
330
2
100
AcDbEntity
  8
GAIKEI
  6
Continuous
 48
0.013376
370
    40
100
AcDbLine
 10
21.12860546501371
 20
24.58999526881902
 30
0.0
 11
21.13210359001371
 21
24.65678301881903
 31
0.0
  0
LINE
  5
1A7
330
2
100
AcDbEntity
  8
GAIKEI
  6
Continuous
 48
0.1291
370
    40
100
AcDbLine
 10
20.92973771501371
 20
20.79537851881903
 30
0.0
 11
20.9635205900137
 21
21.43999376881905
 31
0.0
  0
LINE
  5
1A8
330
2
100
AcDbEntity
  8
GAIKEI
  6
Continuous
 48
0.272549
370
    40
100
AcDbLine
 10
25.05431046501371
 20
26.23617064381907
 30
0.0
 11
25.2439657150137
 21
27.58565414381903
 31
0.0
  0
ARC
  5
1A9
330
2
100
AcDbEntity
  8
GAIKEI
  6
Continuous
370
    40
100
AcDbCircle
 10
16.93194634001371
 20
25.33621114381904
 30
0.0
 40
0.020026375
100
AcDbArc
 50
254.2624770000003
 51
359.9846659999995
  0
ARC
  5
1AA
330
2
100
AcDbEntity
  8
GAIKEI
  6
Continuous
370
    40
100
AcDbCircle
 10
16.4723554650137
 20
25.46648301881905
 30
0.0
 40
0.02
100
AcDbArc
 50
179.9999949999995
 51
248.2937520000004
  0
LINE
  5
1AB
330
2
100
AcDbEntity
  8
GAIKEI
  6
Continuous
370
    40
100
AcDbLine
 10
18.57420409001371
 20
20.79537851881903
 30
0.0
 11
18.37183821501369
 21
24.65678301881903
 31
0.0
  0
LINE
  5
1AC
330
2
100
AcDbEntity
  8
GAIKEI
  6
Continuous
 48
0.272549
370
    40
100
AcDbLine
 10
14.44963134001371
 20
26.23617064381907
 30
0.0
 11
14.25997596501371
 21
27.58565414381903
 31
0.0
  0
POLYLINE
  5
1AD
330
2
100
AcDbEntity
  8
GAIKEI
  6
Continuous
 62
     1
370
    40
100
AcDb2dPolyline
 66
     1
 10
0.0
 20
0.0
 30
0.0
  0
VERTEX
  5
1AE
330
1AD
100
AcDbEntity
  8
GAIKEI
  6
Continuous
 62
     1
370
     0
100
AcDbVertex
100
AcDb2dVertex
 10
22.37515321501371
 20
25.87650576881904
 30
0.0
  0
VERTEX
  5
1AF
330
1AD
100
AcDbEntity
  8
GAIKEI
  6
Continuous
 62
     1
370
     0
100
AcDbVertex
100
AcDb2dVertex
 10
22.33961921501371
 20
25.88821689381908
 30
0.0
  0
VERTEX
  5
1B0
330
1AD
100
AcDbEntity
  8
GAIKEI
  6
Continuous
 62
     1
370
     0
100
AcDbVertex
100
AcDb2dVertex
 10
22.28832684001369
 20
25.89696014381903
 30
0.0
  0
VERTEX
  5
1B1
330
1AD
100
AcDbEntity
  8
GAIKEI
  6
Continuous
 62
     1
370
     0
100
AcDbVertex
100
AcDb2dVertex
 10
22.21793421501371
 20
25.90289201881907
 30
0.0
  0
VERTEX
  5
1B2
330
1AD
100
AcDbEntity
  8
GAIKEI
  6
Continuous
 62
     1
370
     0
100
AcDbVertex
100
AcDb2dVertex
 10
22.1165357150137
 20
25.90462389381904
 30
0.0
  0
VERTEX
  5
1B3
330
1AD
100
AcDbEntity
  8
GAIKEI
  6
Continuous
 62
     1
370
     0
100
AcDbVertex
100
AcDb2dVertex
 10
21.9922948400137
 20
25.89955414381908
 30
0.0
  0
VERTEX
  5
1B4
330
1AD
100
AcDbEntity
  8
GAIKEI
  6
Continuous
 62
     1
370
     0
100
AcDbVertex
100
AcDb2dVertex
 10
21.85642296501371
 20
25.88694276881907
 30
0.0
  0
VERTEX
  5
1B5
330
1AD
100
AcDbEntity
  8
GAIKEI
  6
Continuous
 62
     1
370
     0
100
AcDbVertex
100
AcDb2dVertex
 10
21.7276808400137
 20
25.86860926881903
 30
0.0
  0
VERTEX
  5
1B6
330
1AD
100
AcDbEntity
  8
GAIKEI
  6
Continuous
 62
     1
370
     0
100
AcDbVertex
100
AcDb2dVertex
 10
21.66944559001371
 20
25.85815701881907
 30
0.0
  0
SEQEND
  5
1B7
330
1AD
100
AcDbEntity
  8
GAIKEI
  6
Continuous
 62
     1
370
     0
  0
POLYLINE
  5
1B8
330
2
100
AcDbEntity
  8
GAIKEI
  6
Continuous
 62
     1
370
    40
100
AcDb2dPolyline
 66
     1
 10
0.0
 20
0.0
 30
0.0
  0
VERTEX
  5
1B9
330
1B8
100
AcDbEntity
  8
GAIKEI
  6
Continuous
 62
     1
370
     0
100
AcDbVertex
100
AcDb2dVertex
 10
21.2913709650137
 20
25.72469601881906
 30
0.0
  0
VERTEX
  5
1BA
330
1B8
100
AcDbEntity
  8
GAIKEI
  6
Continuous
 62
     1
370
     0
100
AcDbVertex
100
AcDb2dVertex
 10
21.31850109001371
 20
25.74581039381903
 30
0.0
  0
VERTEX
  5
1BB
330
1B8
100
AcDbEntity
  8
GAIKEI
  6
Continuous
 62
     1
370
     0
100
AcDbVertex
100
AcDb2dVertex
 10
21.35797559001371
 20
25.76695139381903
 30
0.0
  0
VERTEX
  5
1BC
330
1B8
100
AcDbEntity
  8
GAIKEI
  6
Continuous
 62
     1
370
     0
100
AcDbVertex
100
AcDb2dVertex
 10
21.41651971501372
 20
25.79120526881903
 30
0.0
  0
VERTEX
  5
1BD
330
1B8
100
AcDbEntity
  8
GAIKEI
  6
Continuous
 62
     1
370
     0
100
AcDbVertex
100
AcDb2dVertex
 10
21.49763934001371
 20
25.81759914381908
 30
0.0
  0
VERTEX
  5
1BE
330
1B8
100
AcDbEntity
  8
GAIKEI
  6
Continuous
 62
     1
370
     0
100
AcDbVertex
100
AcDb2dVertex
 10
21.60264259001372
 20
25.84430201881904
 30
0.0
  0
VERTEX
  5
1BF
330
1B8
100
AcDbEntity
  8
GAIKEI
  6
Continuous
 62
     1
370
     0
100
AcDbVertex
100
AcDb2dVertex
 10
21.66944559001371
 20
25.85815701881907
 30
0.0
  0
SEQEND
  5
1C0
330
1B8
100
AcDbEntity
  8
GAIKEI
  6
Continuous
 62
     1
370
     0
  0
ARC
  5
1C1
330
2
100
AcDbEntity
  8
GAIKEI
  6
Continuous
370
    40
100
AcDbCircle
 10
21.53155571501371
 20
24.63584789381903
 30
0.0
 40
0.400000125
100
AcDbArc
 50
105.8282209999992
 51
176.9999950000005
  0
ARC
  5
1C2
330
2
100
AcDbEntity
  8
GAIKEI
  6
Continuous
370
    40
100
AcDbCircle
 10
24.75722946501369
 20
26.27792639381906
 30
0.0
 40
0.3
100
AcDbArc
 50
285.8282230000013
 51
351.9999990000006
  0
LINE
  5
1C3
330
2
100
AcDbEntity
  8
GAIKEI
  6
Continuous
 48
0.000056
370
    40
100
AcDbLine
 10
20.80169359001371
 20
27.64261526881907
 30
0.0
 11
20.80197196501371
 21
27.64261139381907
 31
0.0
  0
LINE
  5
1C4
330
2
100
AcDbEntity
  8
GAIKEI
  6
Continuous
 48
0.000685
370
    40
100
AcDbLine
 10
24.93590984001372
 20
27.64247401881906
 30
0.0
 11
24.93933159001372
 21
27.64261139381907
 31
0.0
  0
LINE
  5
1C5
330
2
100
AcDbEntity
  8
GAIKEI
  6
Continuous
 48
0.003209
370
    40
100
AcDbLine
 10
16.45235496501371
 20
25.46648301881905
 30
0.0
 11
16.45235496501371
 21
25.48252764381905
 31
0.0
  0
LINE
  5
1C6
330
2
100
AcDbEntity
  8
GAIKEI
  6
Continuous
 48
0.003801
370
    40
100
AcDbLine
 10
16.20300346501372
 20
25.55328264381908
 30
0.0
 11
16.18497146501371
 21
25.55928701881905
 31
0.0
  0
POLYLINE
  5
1C7
330
2
100
AcDbEntity
  8
GAIKEI
  6
Continuous
370
    40
100
AcDb2dPolyline
 66
     1
 10
0.0
 20
0.0
 30
0.0
  0
VERTEX
  5
1C8
330
1C7
100
AcDbEntity
  8
GAIKEI
  6
Continuous
370
     0
100
AcDbVertex
100
AcDb2dVertex
 10
16.20602471501371
 20
25.55238239381905
 30
0.0
  0
VERTEX
  5
1C9
330
1C7
100
AcDbEntity
  8
GAIKEI
  6
Continuous
370
     0
100
AcDbVertex
100
AcDb2dVertex
 10
16.18479221501371
 20
25.55934414381906
 30
0.0
  0
VERTEX
  5
1CA
330
1C7
100
AcDbEntity
  8
GAIKEI
  6
Continuous
370
     0
100
AcDbVertex
100
AcDb2dVertex
 10
15.91406309001371
 20
25.64554876881905
 30
0.0
  0
VERTEX
  5
1CB
330
1C7
100
AcDbEntity
  8
GAIKEI
  6
Continuous
370
     0
100
AcDbVertex
100
AcDb2dVertex
 10
15.63733734001371
 20
25.72708026881904
 30
0.0
  0
VERTEX
  5
1CC
330
1C7
100
AcDbEntity
  8
GAIKEI
  6
Continuous
370
     0
100
AcDbVertex
100
AcDb2dVertex
 10
15.57499759001371
 20
25.74467364381903
 30
0.0
  0
SEQEND
  5
1CD
330
1C7
100
AcDbEntity
  8
GAIKEI
  6
Continuous
370
     0
  0
ARC
  5
1CE
330
2
100
AcDbEntity
  8
GAIKEI
  6
Continuous
370
    40
100
AcDbCircle
 10
10.02668059001371
 20
5.830658768819063
 30
0.0
 40
20.67255987500001
100
AcDbArc
 50
74.4314330000022
 51
76.21377800000169
  0
LINE
  5
1CF
330
2
100
AcDbEntity
  8
GAIKEI
  6
Continuous
 48
0.000698
370
    40
100
AcDbLine
 10
14.9529539650137
 20
25.90769476881903
 30
0.0
 11
14.94958171501372
 21
25.90858739381904
 31
0.0
  0
ARC
  5
1D0
330
2
100
AcDbEntity
  8
GAIKEI
  6
Continuous
370
    40
100
AcDbCircle
 10
17.9723859650137
 20
24.63584789381903
 30
0.0
 40
0.400000125
100
AcDbArc
 50
3.000000000000716
 51
74.17177699999871
  0
ARC
  5
1D1
330
2
100
AcDbEntity
  8
GAIKEI
  6
Continuous
370
    40
100
AcDbCircle
 10
14.74671234001371
 20
26.27792639381906
 30
0.0
 40
0.3
100
AcDbArc
 50
188.0000039999999
 51
254.1717790000007
  0
LINE
  5
1D2
330
2
100
AcDbEntity
  8
GAIKEI
  6
Continuous
370
    40
100
AcDbLine
 10
21.42245546501371
 20
25.02068226881906
 30
0.0
 11
24.8390547150137
 21
25.98929876881906
 31
0.0
  0
LINE
  5
1D3
330
2
100
AcDbEntity
  8
GAIKEI
  6
Continuous
 48
0.059183
370
    40
100
AcDbLine
 10
14.94958171501372
 20
25.90858739381904
 30
0.0
 11
14.6648870900137
 21
25.98929876881906
 31
0.0
  0
LINE
  5
1D4
330
2
100
AcDbEntity
  8
GAIKEI
  6
Continuous
 48
0.05122
370
    40
100
AcDbLine
 10
16.45241221501371
 20
25.48252764381905
 30
0.0
 11
16.20602471501371
 21
25.55238239381905
 31
0.0
  0
LINE
  5
1D5
330
2
100
AcDbEntity
  8
GAIKEI
  6
Continuous
 48
0.234806
370
    40
100
AcDbLine
 10
18.08148634001371
 20
25.02068226881906
 30
0.0
 11
16.95197359001371
 21
25.34090314381908
 31
0.0
  0
LINE
  5
1D6
330
2
100
AcDbEntity
  8
GAIKEI
  6
Continuous
 48
0.000094
370
    40
100
AcDbLine
 10
22.5278517150137
 20
27.64261139381907
 30
0.0
 11
22.52738246501372
 21
27.64261139381907
 31
0.0
  0
LINE
  5
1D7
330
2
100
AcDbEntity
  8
GAIKEI
  6
Continuous
 48
0.140173
370
    40
100
AcDbLine
 10
22.52783646501371
 20
27.64261139381907
 30
0.0
 11
21.82696971501372
 21
27.64261139381907
 31
0.0
  0
LINE
  5
1D8
330
2
100
AcDbEntity
  8
GAIKEI
  6
Continuous
 48
0.04784
370
    40
100
AcDbLine
 10
21.82696971501372
 20
27.64261139381907
 30
0.0
 11
21.58776909001372
 21
27.64261139381907
 31
0.0
  0
LINE
  5
1D9
330
2
100
AcDbEntity
  8
GAIKEI
  6
Continuous
 48
0.091558
370
    40
100
AcDbLine
 10
21.58776909001372
 20
27.64261139381907
 30
0.0
 11
21.12997871501371
 21
27.64261139381907
 31
0.0
  0
LINE
  5
1DA
330
2
100
AcDbEntity
  8
GAIKEI
  6
Continuous
 48
0.027366
370
    40
100
AcDbLine
 10
15.60197121501372
 20
27.64261139381907
 30
0.0
 11
15.4651418400137
 21
27.64261139381907
 31
0.0
  0
LINE
  5
1DB
330
2
100
AcDbEntity
  8
GAIKEI
  6
Continuous
 48
0.111927
370
    40
100
AcDbLine
 10
15.4651418400137
 20
27.64261139381907
 30
0.0
 11
14.9055067150137
 21
27.64261139381907
 31
0.0
  0
LINE
  5
1DC
330
2
100
AcDbEntity
  8
GAIKEI
  6
Continuous
 48
0.139568
370
    40
100
AcDbLine
 10
16.29981296501371
 20
27.64261139381907
 30
0.0
 11
15.60197121501372
 21
27.64261139381907
 31
0.0
  0
LINE
  5
1DD
330
2
100
AcDbEntity
  8
GAIKEI
  6
Continuous
 48
0.009211
370
    40
100
AcDbLine
 10
25.1768460900137
 20
27.64261139381907
 30
0.0
 11
25.1307913400137
 21
27.64261139381907
 31
0.0
  0
LINE
  5
1DE
330
2
100
AcDbEntity
  8
GAIKEI
  6
Continuous
 48
0.002448
370
    40
100
AcDbLine
 10
18.75549371501371
 20
27.64261139381907
 30
0.0
 11
18.7677350900137
 21
27.64261139381907
 31
0.0
  0
LINE
  5
1DF
330
2
100
AcDbEntity
  8
GAIKEI
  6
Continuous
 48
0.393694
370
    40
100
AcDbLine
 10
20.73620659001372
 20
27.64261139381907
 30
0.0
 11
18.7677350900137
 21
27.64261139381907
 31
0.0
  0
LINE
  5
1E0
330
2
100
AcDbEntity
  8
GAIKEI
  6
Continuous
 48
0.002448
370
    40
100
AcDbLine
 10
20.73620659001372
 20
27.64261139381907
 30
0.0
 11
20.74844796501371
 21
27.64261139381907
 31
0.0
  0
LINE
  5
1E1
330
2
100
AcDbEntity
  8
GAIKEI
  6
Continuous
370
    40
100
AcDbLine
 10
25.09220559001372
 20
27.64261139381907
 30
0.0
 11
20.74844796501371
 21
27.64261139381907
 31
0.0
  0
LINE
  5
1E2
330
2
100
AcDbEntity
  8
GAIKEI
  6
Continuous
 48
0.007717
370
    40
100
AcDbLine
 10
25.1307913400137
 20
27.64261139381907
 30
0.0
 11
25.09220559001372
 21
27.64261139381907
 31
0.0
  0
LINE
  5
1E3
330
2
100
AcDbEntity
  8
GAIKEI
  6
Continuous
 62
     1
 48
0.4224560000000001
370
    40
100
AcDbLine
 10
20.87697284001371
 20
20.74261364381905
 30
0.0
 11
18.6269728400137
 21
20.74261364381905
 31
0.0
  0
LINE
  5
1E4
330
2
100
AcDbEntity
  8
GAIKEI
  6
Continuous
 48
0.11413
370
    40
100
AcDbLine
 10
15.03006046501372
 20
27.64261139381907
 30
0.0
 11
14.45940834001371
 21
27.64261139381907
 31
0.0
  0
LINE
  5
1E5
330
2
100
AcDbEntity
  8
GAIKEI
  6
Continuous
370
    40
100
AcDbLine
 10
18.75549371501371
 20
27.64261139381907
 30
0.0
 11
14.97574296501369
 21
27.64261139381907
 31
0.0
  0
LINE
  5
1E6
330
2
100
AcDbEntity
  8
GAIKEI
  6
Continuous
 48
0.13325
370
    40
100
AcDbLine
 10
14.97574296501369
 20
27.64261139381907
 30
0.0
 11
14.30949084001371
 21
27.64261139381907
 31
0.0
  0
LINE
  5
1E7
330
2
100
AcDbEntity
  8
GAIKEI
  6
Continuous
 48
0.002448
370
    40
100
AcDbLine
 10
20.74844796501371
 20
27.64261139381907
 30
0.0
 11
20.73620659001372
 21
27.64261139381907
 31
0.0
  0
LINE
  5
1E8
330
2
100
AcDbEntity
  8
GAIKEI
  6
Continuous
 48
0.393694
370
    40
100
AcDbLine
 10
20.73620659001372
 20
27.64261139381907
 30
0.0
 11
18.7677350900137
 21
27.64261139381907
 31
0.0
  0
LINE
  5
1E9
330
2
100
AcDbEntity
  8
GAIKEI
  6
Continuous
 48
0.002448
370
    40
100
AcDbLine
 10
18.7677350900137
 20
27.64261139381907
 30
0.0
 11
18.75549371501371
 21
27.64261139381907
 31
0.0
  0
POLYLINE
  5
1EA
330
2
100
AcDbEntity
  8
GAIKEI
  6
Continuous
 62
     1
370
    13
100
AcDb2dPolyline
 66
     1
 10
0.0
 20
0.0
 30
0.0
  0
VERTEX
  5
1EB
330
1EA
100
AcDbEntity
  8
GAIKEI
  6
Continuous
 62
     1
370
     0
100
AcDbVertex
100
AcDb2dVertex
 10
22.33966121501371
 20
25.88827414381902
 30
0.0
  0
VERTEX
  5
1EC
330
1EA
100
AcDbEntity
  8
GAIKEI
  6
Continuous
 62
     1
370
     0
100
AcDbVertex
100
AcDb2dVertex
 10
22.3286367150137
 20
25.87533464381906
 30
0.0
  0
VERTEX
  5
1ED
330
1EA
100
AcDbEntity
  8
GAIKEI
  6
Continuous
 62
     1
370
     0
100
AcDbVertex
100
AcDb2dVertex
 10
22.31449946501371
 20
25.86203664381904
 30
0.0
  0
VERTEX
  5
1EE
330
1EA
100
AcDbEntity
  8
GAIKEI
  6
Continuous
 62
     1
370
     0
100
AcDbVertex
100
AcDb2dVertex
 10
22.2932210900137
 20
25.84545789381903
 30
0.0
  0
VERTEX
  5
1EF
330
1EA
100
AcDbEntity
  8
GAIKEI
  6
Continuous
 62
     1
370
     0
100
AcDbVertex
100
AcDb2dVertex
 10
22.26762446501371
 20
25.82856264381903
 30
0.0
  0
VERTEX
  5
1F0
330
1EA
100
AcDbEntity
  8
GAIKEI
  6
Continuous
 62
     1
370
     0
100
AcDbVertex
100
AcDb2dVertex
 10
22.21065584001371
 20
25.79745764381906
 30
0.0
  0
VERTEX
  5
1F1
330
1EA
100
AcDbEntity
  8
GAIKEI
  6
Continuous
 62
     1
370
     0
100
AcDbVertex
100
AcDb2dVertex
 10
22.14897596501371
 20
25.76968664381903
 30
0.0
  0
VERTEX
  5
1F2
330
1EA
100
AcDbEntity
  8
GAIKEI
  6
Continuous
 62
     1
370
     0
100
AcDbVertex
100
AcDb2dVertex
 10
22.07948359001369
 20
25.74311726881902
 30
0.0
  0
VERTEX
  5
1F3
330
1EA
100
AcDbEntity
  8
GAIKEI
  6
Continuous
 62
     1
370
     0
100
AcDbVertex
100
AcDb2dVertex
 10
21.97636859001372
 20
25.71044439381907
 30
0.0
  0
SEQEND
  5
1F4
330
1EA
100
AcDbEntity
  8
GAIKEI
  6
Continuous
 62
     1
370
     0
  0
POLYLINE
  5
1F5
330
2
100
AcDbEntity
  8
GAIKEI
  6
Continuous
 62
     1
370
    13
100
AcDb2dPolyline
 66
     1
 10
0.0
 20
0.0
 30
0.0
  0
VERTEX
  5
1F6
330
1F5
100
AcDbEntity
  8
GAIKEI
  6
Continuous
 62
     1
370
     0
100
AcDbVertex
100
AcDb2dVertex
 10
21.97636859001372
 20
25.71044439381907
 30
0.0
  0
VERTEX
  5
1F7
330
1F5
100
AcDbEntity
  8
GAIKEI
  6
Continuous
 62
     1
370
     0
100
AcDbVertex
100
AcDb2dVertex
 10
21.88476621501371
 20
25.68705639381906
 30
0.0
  0
VERTEX
  5
1F8
330
1F5
100
AcDbEntity
  8
GAIKEI
  6
Continuous
 62
     1
370
     0
100
AcDbVertex
100
AcDb2dVertex
 10
21.7911459650137
 20
25.66828814381907
 30
0.0
  0
VERTEX
  5
1F9
330
1F5
100
AcDbEntity
  8
GAIKEI
  6
Continuous
 62
     1
370
     0
100
AcDbVertex
100
AcDb2dVertex
 10
21.69873109001372
 20
25.65506251881905
 30
0.0
  0
VERTEX
  5
1FA
330
1F5
100
AcDbEntity
  8
GAIKEI
  6
Continuous
 62
     1
370
     0
100
AcDbVertex
100
AcDb2dVertex
 10
21.61033684001372
 20
25.64798251881908
 30
0.0
  0
VERTEX
  5
1FB
330
1F5
100
AcDbEntity
  8
GAIKEI
  6
Continuous
 62
     1
370
     0
100
AcDbVertex
100
AcDb2dVertex
 10
21.52867946501371
 20
25.64739889381903
 30
0.0
  0
VERTEX
  5
1FC
330
1F5
100
AcDbEntity
  8
GAIKEI
  6
Continuous
 62
     1
370
     0
100
AcDbVertex
100
AcDb2dVertex
 10
21.45634521501371
 20
25.65333451881904
 30
0.0
  0
VERTEX
  5
1FD
330
1F5
100
AcDbEntity
  8
GAIKEI
  6
Continuous
 62
     1
370
     0
100
AcDbVertex
100
AcDb2dVertex
 10
21.42392784001371
 20
25.65875901881904
 30
0.0
  0
VERTEX
  5
1FE
330
1F5
100
AcDbEntity
  8
GAIKEI
  6
Continuous
 62
     1
370
     0
100
AcDbVertex
100
AcDb2dVertex
 10
21.39473784001371
 20
25.66573226881903
 30
0.0
  0
VERTEX
  5
1FF
330
1F5
100
AcDbEntity
  8
GAIKEI
  6
Continuous
 62
     1
370
     0
100
AcDbVertex
100
AcDb2dVertex
 10
21.36972871501371
 20
25.67389189381905
 30
0.0
  0
VERTEX
  5
200
330
1F5
100
AcDbEntity
  8
GAIKEI
  6
Continuous
 62
     1
370
     0
100
AcDbVertex
100
AcDb2dVertex
 10
21.3481794650137
 20
25.68333326881904
 30
0.0
  0
VERTEX
  5
201
330
1F5
100
AcDbEntity
  8
GAIKEI
  6
Continuous
 62
     1
370
     0
100
AcDbVertex
100
AcDb2dVertex
 10
21.32486784001371
 20
25.69793589381905
 30
0.0
  0
VERTEX
  5
202
330
1F5
100
AcDbEntity
  8
GAIKEI
  6
Continuous
 62
     1
370
     0
100
AcDbVertex
100
AcDb2dVertex
 10
21.30853709001371
 20
25.71439639381905
 30
0.0
  0
VERTEX
  5
203
330
1F5
100
AcDbEntity
  8
GAIKEI
  6
Continuous
 62
     1
370
     0
100
AcDbVertex
100
AcDb2dVertex
 10
21.2994199650137
 20
25.73237126881904
 30
0.0
  0
SEQEND
  5
204
330
1F5
100
AcDbEntity
  8
GAIKEI
  6
Continuous
 62
     1
370
     0
  0
ELLIPSE
  5
205
330
2
100
AcDbEntity
  8
GAIKEI
  6
Continuous
 62
     1
370
    13
100
AcDbEllipse
 10
22.0045400900137
 20
25.71219151881908
 30
0.0
 11
0.023162841796875
 21
-0.0972824096679688
 31
0.0
210
0.0
220
0.0
230
1.0
 40
0.2784200000000001
 41
4.664116419492199
 42
6.054392682051273
  0
LINE
  5
206
330
2
100
AcDbEntity
  8
GAIKEI
  6
Continuous
 62
     1
370
    13
100
AcDbLine
 10
21.13210359001371
 20
24.65678301881903
 30
0.0
 11
18.37183821501369
 21
24.65678301881903
 31
0.0
  0
LINE
  5
207
330
2
100
AcDbEntity
  8
GAIKEI
  6
Continuous
 62
     1
370
    13
100
AcDbLine
 10
25.05431046501371
 20
26.23617064381907
 30
0.0
 11
14.44963134001371
 21
26.23617064381907
 31
0.0
  0
LINE
  5
208
330
2
100
AcDbEntity
  8
GAIKEI
  6
Continuous
 48
0.000701
370
    40
100
AcDbLine
 10
16.95196971501372
 20
25.33970914381908
 30
0.0
 11
16.95196971501372
 21
25.33620351881908
 31
0.0
  0
LINE
  5
209
330
2
100
AcDbEntity
  8
GAIKEI
  6
Continuous
 48
0.00095
370
    40
100
AcDbLine
 10
16.95196971501372
 20
25.33970914381908
 30
0.0
 11
16.95196971501372
 21
25.34445851881904
 31
0.0
  0
POLYLINE
  5
20A
330
2
100
AcDbEntity
  8
GAIKEI
  6
Continuous
 62
     1
370
    13
100
AcDb2dPolyline
 66
     1
 10
0.0
 20
0.0
 30
0.0
  0
VERTEX
  5
20B
330
20A
100
AcDbEntity
  8
GAIKEI
  6
Continuous
 62
     1
370
     0
100
AcDbVertex
100
AcDb2dVertex
 10
21.6618543400137
 20
25.86015976881905
 30
0.0
  0
VERTEX
  5
20C
330
20A
100
AcDbEntity
  8
GAIKEI
  6
Continuous
 62
     1
370
     0
100
AcDbVertex
100
AcDb2dVertex
 10
21.7796522150137
 20
25.87989314381903
 30
0.0
  0
VERTEX
  5
20D
330
20A
100
AcDbEntity
  8
GAIKEI
  6
Continuous
 62
     1
370
     0
100
AcDbVertex
100
AcDb2dVertex
 10
21.8939672150137
 20
25.89416014381905
 30
0.0
  0
VERTEX
  5
20E
330
20A
100
AcDbEntity
  8
GAIKEI
  6
Continuous
 62
     1
370
     0
100
AcDbVertex
100
AcDb2dVertex
 10
22.00349109001371
 20
25.90347189381905
 30
0.0
  0
VERTEX
  5
20F
330
20A
100
AcDbEntity
  8
GAIKEI
  6
Continuous
 62
     1
370
     0
100
AcDbVertex
100
AcDb2dVertex
 10
22.11414396501371
 20
25.90820964381905
 30
0.0
  0
VERTEX
  5
210
330
20A
100
AcDbEntity
  8
GAIKEI
  6
Continuous
 62
     1
370
     0
100
AcDbVertex
100
AcDb2dVertex
 10
22.21561109001371
 20
25.90750776881904
 30
0.0
  0
VERTEX
  5
211
330
20A
100
AcDbEntity
  8
GAIKEI
  6
Continuous
 62
     1
370
     0
100
AcDbVertex
100
AcDb2dVertex
 10
22.26890246501371
 20
25.90456289381908
 30
0.0
  0
VERTEX
  5
212
330
20A
100
AcDbEntity
  8
GAIKEI
  6
Continuous
 62
     1
370
     0
100
AcDbVertex
100
AcDb2dVertex
 10
22.31788309001371
 20
25.89966864381907
 30
0.0
  0
VERTEX
  5
213
330
20A
100
AcDbEntity
  8
GAIKEI
  6
Continuous
 62
     1
370
     0
100
AcDbVertex
100
AcDb2dVertex
 10
22.35097559001372
 20
25.89471326881906
 30
0.0
  0
VERTEX
  5
214
330
20A
100
AcDbEntity
  8
GAIKEI
  6
Continuous
 62
     1
370
     0
100
AcDbVertex
100
AcDb2dVertex
 10
22.3810202150137
 20
25.88856401881904
 30
0.0
  0
VERTEX
  5
215
330
20A
100
AcDbEntity
  8
GAIKEI
  6
Continuous
 62
     1
370
     0
100
AcDbVertex
100
AcDb2dVertex
 10
22.40738359001369
 20
25.88121689381907
 30
0.0
  0
VERTEX
  5
216
330
20A
100
AcDbEntity
  8
GAIKEI
  6
Continuous
 62
     1
370
     0
100
AcDbVertex
100
AcDb2dVertex
 10
22.4299169650137
 20
25.87253089381906
 30
0.0
  0
VERTEX
  5
217
330
20A
100
AcDbEntity
  8
GAIKEI
  6
Continuous
 62
     1
370
     0
100
AcDbVertex
100
AcDb2dVertex
 10
22.44565259001371
 20
25.86402401881904
 30
0.0
  0
VERTEX
  5
218
330
20A
100
AcDbEntity
  8
GAIKEI
  6
Continuous
 62
     1
370
     0
100
AcDbVertex
100
AcDb2dVertex
 10
22.4578710900137
 20
25.85438426881902
 30
0.0
  0
VERTEX
  5
219
330
20A
100
AcDbEntity
  8
GAIKEI
  6
Continuous
 62
     1
370
     0
100
AcDbVertex
100
AcDb2dVertex
 10
22.4666219650137
 20
25.84246714381905
 30
0.0
  0
VERTEX
  5
21A
330
20A
100
AcDbEntity
  8
GAIKEI
  6
Continuous
 62
     1
370
     0
100
AcDbVertex
100
AcDb2dVertex
 10
22.46986446501372
 20
25.82890976881905
 30
0.0
  0
VERTEX
  5
21B
330
20A
100
AcDbEntity
  8
GAIKEI
  6
Continuous
 62
     1
370
     0
100
AcDbVertex
100
AcDb2dVertex
 10
22.4661604650137
 20
25.81248364381904
 30
0.0
  0
VERTEX
  5
21C
330
20A
100
AcDbEntity
  8
GAIKEI
  6
Continuous
 62
     1
370
     0
100
AcDbVertex
100
AcDb2dVertex
 10
22.4536329650137
 20
25.79376876881904
 30
0.0
  0
VERTEX
  5
21D
330
20A
100
AcDbEntity
  8
GAIKEI
  6
Continuous
 62
     1
370
     0
100
AcDbVertex
100
AcDb2dVertex
 10
22.43061884001371
 20
25.77265826881907
 30
0.0
  0
VERTEX
  5
21E
330
20A
100
AcDbEntity
  8
GAIKEI
  6
Continuous
 62
     1
370
     0
100
AcDbVertex
100
AcDb2dVertex
 10
22.3890272150137
 20
25.74544039381905
 30
0.0
  0
VERTEX
  5
21F
330
20A
100
AcDbEntity
  8
GAIKEI
  6
Continuous
 62
     1
370
     0
100
AcDbVertex
100
AcDb2dVertex
 10
22.3319898400137
 20
25.71669664381906
 30
0.0
  0
VERTEX
  5
220
330
20A
100
AcDbEntity
  8
GAIKEI
  6
Continuous
 62
     1
370
     0
100
AcDbVertex
100
AcDb2dVertex
 10
22.29015796501371
 20
25.69887814381903
 30
0.0
  0
VERTEX
  5
221
330
20A
100
AcDbEntity
  8
GAIKEI
  6
Continuous
 62
     1
370
     0
100
AcDbVertex
100
AcDb2dVertex
 10
22.24614771501371
 20
25.68210114381904
 30
0.0
  0
VERTEX
  5
222
330
20A
100
AcDbEntity
  8
GAIKEI
  6
Continuous
 62
     1
370
     0
100
AcDbVertex
100
AcDb2dVertex
 10
22.17977959001371
 20
25.65963251881905
 30
0.0
  0
VERTEX
  5
223
330
20A
100
AcDbEntity
  8
GAIKEI
  6
Continuous
 62
     1
370
     0
100
AcDbVertex
100
AcDb2dVertex
 10
22.1153913400137
 20
25.64041414381907
 30
0.0
  0
VERTEX
  5
224
330
20A
100
AcDbEntity
  8
GAIKEI
  6
Continuous
 62
     1
370
     0
100
AcDbVertex
100
AcDb2dVertex
 10
22.02095471501372
 20
25.61598101881904
 30
0.0
  0
SEQEND
  5
225
330
20A
100
AcDbEntity
  8
GAIKEI
  6
Continuous
 62
     1
370
     0
  0
POLYLINE
  5
226
330
2
100
AcDbEntity
  8
GAIKEI
  6
Continuous
 62
     1
370
    13
100
AcDb2dPolyline
 66
     1
 10
0.0
 20
0.0
 30
0.0
  0
VERTEX
  5
227
330
226
100
AcDbEntity
  8
GAIKEI
  6
Continuous
 62
     1
370
     0
100
AcDbVertex
100
AcDb2dVertex
 10
22.02095471501372
 20
25.61598101881904
 30
0.0
  0
VERTEX
  5
228
330
226
100
AcDbEntity
  8
GAIKEI
  6
Continuous
 62
     1
370
     0
100
AcDbVertex
100
AcDb2dVertex
 10
21.95302646501372
 20
25.60085951881902
 30
0.0
  0
VERTEX
  5
229
330
226
100
AcDbEntity
  8
GAIKEI
  6
Continuous
 62
     1
370
     0
100
AcDbVertex
100
AcDb2dVertex
 10
21.88932484001371
 20
25.58843501881907
 30
0.0
  0
VERTEX
  5
22A
330
226
100
AcDbEntity
  8
GAIKEI
  6
Continuous
 62
     1
370
     0
100
AcDbVertex
100
AcDb2dVertex
 10
21.77283159001371
 20
25.57008251881908
 30
0.0
  0
VERTEX
  5
22B
330
226
100
AcDbEntity
  8
GAIKEI
  6
Continuous
 62
     1
370
     0
100
AcDbVertex
100
AcDb2dVertex
 10
21.68196159001372
 20
25.55991251881906
 30
0.0
  0
VERTEX
  5
22C
330
226
100
AcDbEntity
  8
GAIKEI
  6
Continuous
 62
     1
370
     0
100
AcDbVertex
100
AcDb2dVertex
 10
21.59804209001371
 20
25.55412564381905
 30
0.0
  0
VERTEX
  5
22D
330
226
100
AcDbEntity
  8
GAIKEI
  6
Continuous
 62
     1
370
     0
100
AcDbVertex
100
AcDb2dVertex
 10
21.52031009001371
 20
25.55239001881907
 30
0.0
  0
VERTEX
  5
22E
330
226
100
AcDbEntity
  8
GAIKEI
  6
Continuous
 62
     1
370
     0
100
AcDbVertex
100
AcDb2dVertex
 10
21.4452329650137
 20
25.55481989381903
 30
0.0
  0
VERTEX
  5
22F
330
226
100
AcDbEntity
  8
GAIKEI
  6
Continuous
 62
     1
370
     0
100
AcDbVertex
100
AcDb2dVertex
 10
21.3760763400137
 20
25.56184276881905
 30
0.0
  0
VERTEX
  5
230
330
226
100
AcDbEntity
  8
GAIKEI
  6
Continuous
 62
     1
370
     0
100
AcDbVertex
100
AcDb2dVertex
 10
21.34381921501371
 20
25.56729014381907
 30
0.0
  0
VERTEX
  5
231
330
226
100
AcDbEntity
  8
GAIKEI
  6
Continuous
 62
     1
370
     0
100
AcDbVertex
100
AcDb2dVertex
 10
21.31334746501371
 20
25.57421001881906
 30
0.0
  0
VERTEX
  5
232
330
226
100
AcDbEntity
  8
GAIKEI
  6
Continuous
 62
     1
370
     0
100
AcDbVertex
100
AcDb2dVertex
 10
21.2859769650137
 20
25.58246889381903
 30
0.0
  0
VERTEX
  5
233
330
226
100
AcDbEntity
  8
GAIKEI
  6
Continuous
 62
     1
370
     0
100
AcDbVertex
100
AcDb2dVertex
 10
21.26102884001371
 20
25.59253201881907
 30
0.0
  0
VERTEX
  5
234
330
226
100
AcDbEntity
  8
GAIKEI
  6
Continuous
 62
     1
370
     0
100
AcDbVertex
100
AcDb2dVertex
 10
21.23993359001371
 20
25.60426226881904
 30
0.0
  0
VERTEX
  5
235
330
226
100
AcDbEntity
  8
GAIKEI
  6
Continuous
 62
     1
370
     0
100
AcDbVertex
100
AcDb2dVertex
 10
21.22264534001371
 20
25.61853689381903
 30
0.0
  0
VERTEX
  5
236
330
226
100
AcDbEntity
  8
GAIKEI
  6
Continuous
 62
     1
370
     0
100
AcDbVertex
100
AcDb2dVertex
 10
21.21183459001371
 20
25.63401689381905
 30
0.0
  0
VERTEX
  5
237
330
226
100
AcDbEntity
  8
GAIKEI
  6
Continuous
 62
     1
370
     0
100
AcDbVertex
100
AcDb2dVertex
 10
21.2087140900137
 20
25.64290126881903
 30
0.0
  0
VERTEX
  5
238
330
226
100
AcDbEntity
  8
GAIKEI
  6
Continuous
 62
     1
370
     0
100
AcDbVertex
100
AcDb2dVertex
 10
21.20757346501371
 20
25.65263264381903
 30
0.0
  0
VERTEX
  5
239
330
226
100
AcDbEntity
  8
GAIKEI
  6
Continuous
 62
     1
370
     0
100
AcDbVertex
100
AcDb2dVertex
 10
21.21137684001372
 20
25.67122539381907
 30
0.0
  0
VERTEX
  5
23A
330
226
100
AcDbEntity
  8
GAIKEI
  6
Continuous
 62
     1
370
     0
100
AcDbVertex
100
AcDb2dVertex
 10
21.2243085900137
 20
25.69229776881903
 30
0.0
  0
VERTEX
  5
23B
330
226
100
AcDbEntity
  8
GAIKEI
  6
Continuous
 62
     1
370
     0
100
AcDbVertex
100
AcDb2dVertex
 10
21.24126109001371
 20
25.70955164381909
 30
0.0
  0
VERTEX
  5
23C
330
226
100
AcDbEntity
  8
GAIKEI
  6
Continuous
 62
     1
370
     0
100
AcDbVertex
100
AcDb2dVertex
 10
21.26378309001371
 20
25.72682089381905
 30
0.0
  0
VERTEX
  5
23D
330
226
100
AcDbEntity
  8
GAIKEI
  6
Continuous
 62
     1
370
     0
100
AcDbVertex
100
AcDb2dVertex
 10
21.29163421501372
 20
25.74395264381903
 30
0.0
  0
VERTEX
  5
23E
330
226
100
AcDbEntity
  8
GAIKEI
  6
Continuous
 62
     1
370
     0
100
AcDbVertex
100
AcDb2dVertex
 10
21.32270109001371
 20
25.75993626881908
 30
0.0
  0
VERTEX
  5
23F
330
226
100
AcDbEntity
  8
GAIKEI
  6
Continuous
 62
     1
370
     0
100
AcDbVertex
100
AcDb2dVertex
 10
21.36599796501372
 20
25.77879614381905
 30
0.0
  0
VERTEX
  5
240
330
226
100
AcDbEntity
  8
GAIKEI
  6
Continuous
 62
     1
370
     0
100
AcDbVertex
100
AcDb2dVertex
 10
21.41106096501372
 20
25.79557314381904
 30
0.0
  0
VERTEX
  5
241
330
226
100
AcDbEntity
  8
GAIKEI
  6
Continuous
 62
     1
370
     0
100
AcDbVertex
100
AcDb2dVertex
 10
21.4785887150137
 20
25.81693539381902
 30
0.0
  0
VERTEX
  5
242
330
226
100
AcDbEntity
  8
GAIKEI
  6
Continuous
 62
     1
370
     0
100
AcDbVertex
100
AcDb2dVertex
 10
21.5467382150137
 20
25.83512776881903
 30
0.0
  0
VERTEX
  5
243
330
226
100
AcDbEntity
  8
GAIKEI
  6
Continuous
 62
     1
370
     0
100
AcDbVertex
100
AcDb2dVertex
 10
21.6618505900137
 20
25.86015976881905
 30
0.0
  0
SEQEND
  5
244
330
226
100
AcDbEntity
  8
GAIKEI
  6
Continuous
 62
     1
370
     0
  0
LINE
  5
245
330
2
100
AcDbEntity
  8
GAIKEI
  6
Continuous
 62
     1
370
    13
100
AcDbLine
 10
21.42245546501371
 20
25.02068226881906
 30
0.0
 11
18.08148634001371
 21
25.02068226881906
 31
0.0
  0
LINE
  5
246
330
2
100
AcDbEntity
  8
GAIKEI
  6
Continuous
370
    13
100
AcDbLine
 10
24.8390547150137
 20
25.98929876881906
 30
0.0
 11
15.2876363400137
 21
25.98929876881906
 31
0.0
  0
ARC
  5
247
330
2
100
AcDbEntity
  8
GAIKEI
  6
Continuous
370
    40
100
AcDbCircle
 10
16.83393921501371
 20
24.99712651881905
 30
0.0
 40
0.36692025
100
AcDbArc
 50
71.23105199999956
 51
76.12077099999858
  0
ARC
  5
248
330
2
100
AcDbEntity
  8
GAIKEI
  6
Continuous
370
    40
100
AcDbCircle
 10
24.80072459001372
 20
54.9106472688191
 30
0.0
 40
30.589322375
100
AcDbArc
 50
254.181511999999
 51
255.0743330000014
  0
LINE
  5
249
330
2
100
AcDbEntity
  8
GAIKEI
  6
Continuous
 48
0.002078
370
    40
100
AcDbLine
 10
16.45235496501371
 20
25.48252764381905
 30
0.0
 11
16.46235721501371
 21
25.47972376881907
 31
0.0
  0
LINE
  5
24A
330
2
100
AcDbEntity
  8
GAIKEI
  6
Continuous
 48
0.12455
370
    13
100
AcDbLine
 10
14.6648870900137
 20
25.98929876881906
 30
0.0
 11
15.2876363400137
 21
25.98929876881906
 31
0.0
  0
LINE
  5
24B
330
2
100
AcDbEntity
  8
GAIKEI
  6
Continuous
 48
0.008008
370
    40
100
AcDbLine
 10
12.80194909001371
 20
9.748549393819047
 30
0.0
 11
12.76191009001371
 21
9.748396768819048
 31
0.0
  0
LINE
  5
24C
330
2
100
AcDbEntity
  8
GAIKEI
  6
Continuous
 48
0.001987
370
    40
100
AcDbLine
 10
12.75197284001371
 20
9.748406268819081
 30
0.0
 11
12.76191009001371
 21
9.748396768819048
 31
0.0
  0
POLYLINE
  5
24D
330
2
100
AcDbEntity
  8
GAIKEI
  6
Continuous
370
    40
100
AcDb2dPolyline
 66
     1
 10
0.0
 20
0.0
 30
0.0
  0
VERTEX
  5
24E
330
24D
100
AcDbEntity
  8
GAIKEI
  6
Continuous
370
     0
100
AcDbVertex
100
AcDb2dVertex
 10
17.92027721501369
 20
12.17261214381906
 30
0.0
  0
VERTEX
  5
24F
330
24D
100
AcDbEntity
  8
GAIKEI
  6
Continuous
370
     0
100
AcDbVertex
100
AcDb2dVertex
 10
17.92353121501371
 20
12.27545251881904
 30
0.0
  0
VERTEX
  5
250
330
24D
100
AcDbEntity
  8
GAIKEI
  6
Continuous
370
     0
100
AcDbVertex
100
AcDb2dVertex
 10
17.93420846501371
 20
12.38676351881904
 30
0.0
  0
VERTEX
  5
251
330
24D
100
AcDbEntity
  8
GAIKEI
  6
Continuous
370
     0
100
AcDbVertex
100
AcDb2dVertex
 10
17.95283184001371
 20
12.50420651881907
 30
0.0
  0
VERTEX
  5
252
330
24D
100
AcDbEntity
  8
GAIKEI
  6
Continuous
370
     0
100
AcDbVertex
100
AcDb2dVertex
 10
17.97402634001369
 20
12.61054701881906
 30
0.0
  0
VERTEX
  5
253
330
24D
100
AcDbEntity
  8
GAIKEI
  6
Continuous
370
     0
100
AcDbVertex
100
AcDb2dVertex
 10
17.9803625900137
 20
12.64720614381903
 30
0.0
  0
VERTEX
  5
254
330
24D
100
AcDbEntity
  8
GAIKEI
  6
Continuous
370
     0
100
AcDbVertex
100
AcDb2dVertex
 10
17.98197234001371
 20
12.66948214381907
 30
0.0
  0
SEQEND
  5
255
330
24D
100
AcDbEntity
  8
GAIKEI
  6
Continuous
370
     0
  0
POLYLINE
  5
256
330
2
100
AcDbEntity
  8
GAIKEI
  6
Continuous
370
    40
100
AcDb2dPolyline
 66
     1
 10
0.0
 20
0.0
 30
0.0
  0
VERTEX
  5
257
330
256
100
AcDbEntity
  8
GAIKEI
  6
Continuous
370
     0
100
AcDbVertex
100
AcDb2dVertex
 10
17.6685033400137
 20
9.929564393819049
 30
0.0
  0
VERTEX
  5
258
330
256
100
AcDbEntity
  8
GAIKEI
  6
Continuous
370
     0
100
AcDbVertex
100
AcDb2dVertex
 10
17.70245421501371
 20
9.967760893819018
 30
0.0
  0
VERTEX
  5
259
330
256
100
AcDbEntity
  8
GAIKEI
  6
Continuous
370
     0
100
AcDbVertex
100
AcDb2dVertex
 10
17.7325292150137
 20
10.01113976881905
 30
0.0
  0
VERTEX
  5
25A
330
256
100
AcDbEntity
  8
GAIKEI
  6
Continuous
370
     0
100
AcDbVertex
100
AcDb2dVertex
 10
17.7589650900137
 20
10.06034364381904
 30
0.0
  0
VERTEX
  5
25B
330
256
100
AcDbEntity
  8
GAIKEI
  6
Continuous
370
     0
100
AcDbVertex
100
AcDb2dVertex
 10
17.77850021501371
 20
10.10810364381907
 30
0.0
  0
SEQEND
  5
25C
330
256
100
AcDbEntity
  8
GAIKEI
  6
Continuous
370
     0
  0
POLYLINE
  5
25D
330
2
100
AcDbEntity
  8
GAIKEI
  6
Continuous
370
    40
100
AcDb2dPolyline
 66
     1
 10
0.0
 20
0.0
 30
0.0
  0
VERTEX
  5
25E
330
25D
100
AcDbEntity
  8
GAIKEI
  6
Continuous
370
     0
100
AcDbVertex
100
AcDb2dVertex
 10
17.77850021501371
 20
10.10810364381907
 30
0.0
  0
VERTEX
  5
25F
330
25D
100
AcDbEntity
  8
GAIKEI
  6
Continuous
370
     0
100
AcDbVertex
100
AcDb2dVertex
 10
17.80640471501371
 20
10.19312939381908
 30
0.0
  0
VERTEX
  5
260
330
25D
100
AcDbEntity
  8
GAIKEI
  6
Continuous
370
     0
100
AcDbVertex
100
AcDb2dVertex
 10
17.8303343400137
 20
10.27774126881903
 30
0.0
  0
VERTEX
  5
261
330
25D
100
AcDbEntity
  8
GAIKEI
  6
Continuous
370
     0
100
AcDbVertex
100
AcDb2dVertex
 10
17.85945946501371
 20
10.40304839381903
 30
0.0
  0
VERTEX
  5
262
330
25D
100
AcDbEntity
  8
GAIKEI
  6
Continuous
370
     0
100
AcDbVertex
100
AcDb2dVertex
 10
17.8814893400137
 20
10.52558789381905
 30
0.0
  0
VERTEX
  5
263
330
25D
100
AcDbEntity
  8
GAIKEI
  6
Continuous
370
     0
100
AcDbVertex
100
AcDb2dVertex
 10
17.8975798400137
 20
10.64496126881906
 30
0.0
  0
VERTEX
  5
264
330
25D
100
AcDbEntity
  8
GAIKEI
  6
Continuous
370
     0
100
AcDbVertex
100
AcDb2dVertex
 10
17.91157971501371
 20
10.79943739381903
 30
0.0
  0
VERTEX
  5
265
330
25D
100
AcDbEntity
  8
GAIKEI
  6
Continuous
370
     0
100
AcDbVertex
100
AcDb2dVertex
 10
17.91872459001371
 20
10.94972501881906
 30
0.0
  0
VERTEX
  5
266
330
25D
100
AcDbEntity
  8
GAIKEI
  6
Continuous
370
     0
100
AcDbVertex
100
AcDb2dVertex
 10
17.92027721501369
 20
11.06105701881907
 30
0.0
  0
SEQEND
  5
267
330
25D
100
AcDbEntity
  8
GAIKEI
  6
Continuous
370
     0
  0
LINE
  5
268
330
2
100
AcDbEntity
  8
GAIKEI
  6
Continuous
 48
0.222311
370
    40
100
AcDbLine
 10
17.92027721501369
 20
12.17261214381906
 30
0.0
 11
17.92027721501369
 21
11.06105701881907
 31
0.0
  0
POLYLINE
  5
269
330
2
100
AcDbEntity
  8
GAIKEI
  6
Continuous
370
    40
100
AcDb2dPolyline
 66
     1
 10
0.0
 20
0.0
 30
0.0
  0
VERTEX
  5
26A
330
269
100
AcDbEntity
  8
GAIKEI
  6
Continuous
370
     0
100
AcDbVertex
100
AcDb2dVertex
 10
12.04094371501371
 20
10.12072076881904
 30
0.0
  0
VERTEX
  5
26B
330
269
100
AcDbEntity
  8
GAIKEI
  6
Continuous
370
     0
100
AcDbVertex
100
AcDb2dVertex
 10
12.07903346501371
 20
10.06263439381908
 30
0.0
  0
VERTEX
  5
26C
330
269
100
AcDbEntity
  8
GAIKEI
  6
Continuous
370
     0
100
AcDbVertex
100
AcDb2dVertex
 10
12.1202093400137
 20
10.01139539381907
 30
0.0
  0
VERTEX
  5
26D
330
269
100
AcDbEntity
  8
GAIKEI
  6
Continuous
370
     0
100
AcDbVertex
100
AcDb2dVertex
 10
12.17028484001372
 20
9.960268893819062
 30
0.0
  0
VERTEX
  5
26E
330
269
100
AcDbEntity
  8
GAIKEI
  6
Continuous
370
     0
100
AcDbVertex
100
AcDb2dVertex
 10
12.21942584001371
 20
9.91888326881903
 30
0.0
  0
VERTEX
  5
26F
330
269
100
AcDbEntity
  8
GAIKEI
  6
Continuous
370
     0
100
AcDbVertex
100
AcDb2dVertex
 10
12.2799498400137
 20
9.876997893819037
 30
0.0
  0
VERTEX
  5
270
330
269
100
AcDbEntity
  8
GAIKEI
  6
Continuous
370
     0
100
AcDbVertex
100
AcDb2dVertex
 10
12.33764321501371
 20
9.844489018819018
 30
0.0
  0
VERTEX
  5
271
330
269
100
AcDbEntity
  8
GAIKEI
  6
Continuous
370
     0
100
AcDbVertex
100
AcDb2dVertex
 10
12.40768109001371
 20
9.812924268819045
 30
0.0
  0
VERTEX
  5
272
330
269
100
AcDbEntity
  8
GAIKEI
  6
Continuous
370
     0
100
AcDbVertex
100
AcDb2dVertex
 10
12.4709097150137
 20
9.790694143819024
 30
0.0
  0
VERTEX
  5
273
330
269
100
AcDbEntity
  8
GAIKEI
  6
Continuous
370
     0
100
AcDbVertex
100
AcDb2dVertex
 10
12.54968321501371
 20
9.770159643819027
 30
0.0
  0
VERTEX
  5
274
330
269
100
AcDbEntity
  8
GAIKEI
  6
Continuous
370
     0
100
AcDbVertex
100
AcDb2dVertex
 10
12.6264959650137
 20
9.756932143819057
 30
0.0
  0
VERTEX
  5
275
330
269
100
AcDbEntity
  8
GAIKEI
  6
Continuous
370
     0
100
AcDbVertex
100
AcDb2dVertex
 10
12.70448359001371
 20
9.749791018819024
 30
0.0
  0
VERTEX
  5
276
330
269
100
AcDbEntity
  8
GAIKEI
  6
Continuous
370
     0
100
AcDbVertex
100
AcDb2dVertex
 10
12.76191009001371
 20
9.748396768819048
 30
0.0
  0
SEQEND
  5
277
330
269
100
AcDbEntity
  8
GAIKEI
  6
Continuous
370
     0
  0
ARC
  5
278
330
2
100
AcDbEntity
  8
GAIKEI
  6
Continuous
370
    40
100
AcDbCircle
 10
-18.56774078498628
 20
8269.42971314382
 30
0.0
 40
8259.741377500001
100
AcDbArc
 50
270.2173269999981
 51
270.2491899999986
  0
POLYLINE
  5
279
330
2
100
AcDbEntity
  8
GAIKEI
  6
Continuous
370
    40
100
AcDb2dPolyline
 66
     1
 10
0.0
 20
0.0
 30
0.0
  0
VERTEX
  5
27A
330
279
100
AcDbEntity
  8
GAIKEI
  6
Continuous
370
     0
100
AcDbVertex
100
AcDb2dVertex
 10
17.35498109001372
 20
9.767096393819059
 30
0.0
  0
VERTEX
  5
27B
330
279
100
AcDbEntity
  8
GAIKEI
  6
Continuous
370
     0
100
AcDbVertex
100
AcDb2dVertex
 10
17.4014517150137
 20
9.770152018819061
 30
0.0
  0
VERTEX
  5
27C
330
279
100
AcDbEntity
  8
GAIKEI
  6
Continuous
370
     0
100
AcDbVertex
100
AcDb2dVertex
 10
17.4475675900137
 20
9.779097393819057
 30
0.0
  0
VERTEX
  5
27D
330
279
100
AcDbEntity
  8
GAIKEI
  6
Continuous
370
     0
100
AcDbVertex
100
AcDb2dVertex
 10
17.49172271501371
 20
9.793963268819055
 30
0.0
  0
VERTEX
  5
27E
330
279
100
AcDbEntity
  8
GAIKEI
  6
Continuous
370
     0
100
AcDbVertex
100
AcDb2dVertex
 10
17.52914484001371
 20
9.812544768819037
 30
0.0
  0
VERTEX
  5
27F
330
279
100
AcDbEntity
  8
GAIKEI
  6
Continuous
370
     0
100
AcDbVertex
100
AcDb2dVertex
 10
17.56284009001371
 20
9.835633143819023
 30
0.0
  0
SEQEND
  5
280
330
279
100
AcDbEntity
  8
GAIKEI
  6
Continuous
370
     0
  0
ARC
  5
281
330
2
100
AcDbEntity
  8
GAIKEI
  6
Continuous
370
    40
100
AcDbCircle
 10
16.7309309650137
 20
10.87816889381904
 30
0.0
 40
1.33376325
100
AcDbArc
 50
308.588732
 51
314.6649059999987
  0
ARC
  5
282
330
2
100
AcDbEntity
  8
GAIKEI
  6
Continuous
370
    40
100
AcDbCircle
 10
16.0728232150137
 20
12.48980989381905
 30
0.0
 40
4.676397
100
AcDbArc
 50
208.7896109999994
 51
210.4381180000006
  0
POLYLINE
  5
283
330
2
100
AcDbEntity
  8
GAIKEI
  6
Continuous
370
    40
100
AcDb2dPolyline
 66
     1
 10
0.0
 20
0.0
 30
0.0
  0
VERTEX
  5
284
330
283
100
AcDbEntity
  8
GAIKEI
  6
Continuous
370
     0
100
AcDbVertex
100
AcDb2dVertex
 10
10.35435921501371
 20
19.22386064381905
 30
0.0
  0
VERTEX
  5
285
330
283
100
AcDbEntity
  8
GAIKEI
  6
Continuous
370
     0
100
AcDbVertex
100
AcDb2dVertex
 10
10.4634863400137
 20
19.15812576881902
 30
0.0
  0
VERTEX
  5
286
330
283
100
AcDbEntity
  8
GAIKEI
  6
Continuous
370
     0
100
AcDbVertex
100
AcDb2dVertex
 10
10.57016434001372
 20
19.08839314381905
 30
0.0
  0
VERTEX
  5
287
330
283
100
AcDbEntity
  8
GAIKEI
  6
Continuous
370
     0
100
AcDbVertex
100
AcDb2dVertex
 10
10.67440096501371
 20
19.01468176881903
 30
0.0
  0
VERTEX
  5
288
330
283
100
AcDbEntity
  8
GAIKEI
  6
Continuous
370
     0
100
AcDbVertex
100
AcDb2dVertex
 10
10.77615034001371
 20
18.93698776881902
 30
0.0
  0
VERTEX
  5
289
330
283
100
AcDbEntity
  8
GAIKEI
  6
Continuous
370
     0
100
AcDbVertex
100
AcDb2dVertex
 10
10.87533246501371
 20
18.85527689381902
 30
0.0
  0
VERTEX
  5
28A
330
283
100
AcDbEntity
  8
GAIKEI
  6
Continuous
370
     0
100
AcDbVertex
100
AcDb2dVertex
 10
10.97181384001371
 20
18.76947676881903
 30
0.0
  0
VERTEX
  5
28B
330
283
100
AcDbEntity
  8
GAIKEI
  6
Continuous
370
     0
100
AcDbVertex
100
AcDb2dVertex
 10
11.0653959650137
 20
18.67949564381902
 30
0.0
  0
VERTEX
  5
28C
330
283
100
AcDbEntity
  8
GAIKEI
  6
Continuous
370
     0
100
AcDbVertex
100
AcDb2dVertex
 10
11.15580421501372
 20
18.58521926881903
 30
0.0
  0
VERTEX
  5
28D
330
283
100
AcDbEntity
  8
GAIKEI
  6
Continuous
370
     0
100
AcDbVertex
100
AcDb2dVertex
 10
11.2249457150137
 20
18.50738801881906
 30
0.0
  0
VERTEX
  5
28E
330
283
100
AcDbEntity
  8
GAIKEI
  6
Continuous
370
     0
100
AcDbVertex
100
AcDb2dVertex
 10
11.2916494650137
 20
18.42668426881906
 30
0.0
  0
VERTEX
  5
28F
330
283
100
AcDbEntity
  8
GAIKEI
  6
Continuous
370
     0
100
AcDbVertex
100
AcDb2dVertex
 10
11.34068734001371
 20
18.36319626881905
 30
0.0
  0
VERTEX
  5
290
330
283
100
AcDbEntity
  8
GAIKEI
  6
Continuous
370
     0
100
AcDbVertex
100
AcDb2dVertex
 10
11.38799346501371
 20
18.29798401881905
 30
0.0
  0
VERTEX
  5
291
330
283
100
AcDbEntity
  8
GAIKEI
  6
Continuous
370
     0
100
AcDbVertex
100
AcDb2dVertex
 10
11.4333768400137
 20
18.23102839381906
 30
0.0
  0
VERTEX
  5
292
330
283
100
AcDbEntity
  8
GAIKEI
  6
Continuous
370
     0
100
AcDbVertex
100
AcDb2dVertex
 10
11.47663934001372
 20
18.16233714381903
 30
0.0
  0
SEQEND
  5
293
330
283
100
AcDbEntity
  8
GAIKEI
  6
Continuous
370
     0
  0
ARC
  5
294
330
2
100
AcDbEntity
  8
GAIKEI
  6
Continuous
370
    40
100
AcDbCircle
 10
8.589520090013706
 20
10.96446689381903
 30
0.0
 40
3.29599675
100
AcDbArc
 50
355.9353839999994
 51
359.9962199999995
  0
POLYLINE
  5
295
330
2
100
AcDbEntity
  8
GAIKEI
  6
Continuous
370
    40
100
AcDb2dPolyline
 66
     1
 10
0.0
 20
0.0
 30
0.0
  0
VERTEX
  5
296
330
295
100
AcDbEntity
  8
GAIKEI
  6
Continuous
370
     0
100
AcDbVertex
100
AcDb2dVertex
 10
11.97445734001371
 20
10.23768126881904
 30
0.0
  0
VERTEX
  5
297
330
295
100
AcDbEntity
  8
GAIKEI
  6
Continuous
370
     0
100
AcDbVertex
100
AcDb2dVertex
 10
11.94202096501371
 20
10.30445951881907
 30
0.0
  0
VERTEX
  5
298
330
295
100
AcDbEntity
  8
GAIKEI
  6
Continuous
370
     0
100
AcDbVertex
100
AcDb2dVertex
 10
11.91795021501372
 20
10.36871614381905
 30
0.0
  0
VERTEX
  5
299
330
295
100
AcDbEntity
  8
GAIKEI
  6
Continuous
370
     0
100
AcDbVertex
100
AcDb2dVertex
 10
11.89804521501371
 20
10.44064601881902
 30
0.0
  0
VERTEX
  5
29A
330
295
100
AcDbEntity
  8
GAIKEI
  6
Continuous
370
     0
100
AcDbVertex
100
AcDb2dVertex
 10
11.88440759001371
 20
10.51394926881906
 30
0.0
  0
VERTEX
  5
29B
330
295
100
AcDbEntity
  8
GAIKEI
  6
Continuous
370
     0
100
AcDbVertex
100
AcDb2dVertex
 10
11.87667909001371
 20
10.58825389381903
 30
0.0
  0
VERTEX
  5
29C
330
295
100
AcDbEntity
  8
GAIKEI
  6
Continuous
370
     0
100
AcDbVertex
100
AcDb2dVertex
 10
11.87452759001371
 20
10.65955439381903
 30
0.0
  0
VERTEX
  5
29D
330
295
100
AcDbEntity
  8
GAIKEI
  6
Continuous
370
     0
100
AcDbVertex
100
AcDb2dVertex
 10
11.87722834001371
 20
10.73084151881906
 30
0.0
  0
SEQEND
  5
29E
330
295
100
AcDbEntity
  8
GAIKEI
  6
Continuous
370
     0
  0
POLYLINE
  5
29F
330
2
100
AcDbEntity
  8
GAIKEI
  6
Continuous
370
    40
100
AcDb2dPolyline
 66
     1
 10
0.0
 20
0.0
 30
0.0
  0
VERTEX
  5
2A0
330
29F
100
AcDbEntity
  8
GAIKEI
  6
Continuous
370
     0
100
AcDbVertex
100
AcDb2dVertex
 10
11.47663934001372
 20
18.16233714381903
 30
0.0
  0
VERTEX
  5
2A1
330
29F
100
AcDbEntity
  8
GAIKEI
  6
Continuous
370
     0
100
AcDbVertex
100
AcDb2dVertex
 10
11.55033171501371
 20
18.03333551881903
 30
0.0
  0
VERTEX
  5
2A2
330
29F
100
AcDbEntity
  8
GAIKEI
  6
Continuous
370
     0
100
AcDbVertex
100
AcDb2dVertex
 10
11.61727196501371
 20
17.90089314381904
 30
0.0
  0
VERTEX
  5
2A3
330
29F
100
AcDbEntity
  8
GAIKEI
  6
Continuous
370
     0
100
AcDbVertex
100
AcDb2dVertex
 10
11.67792571501371
 20
17.76373564381905
 30
0.0
  0
VERTEX
  5
2A4
330
29F
100
AcDbEntity
  8
GAIKEI
  6
Continuous
370
     0
100
AcDbVertex
100
AcDb2dVertex
 10
11.7189450900137
 20
17.65811051881903
 30
0.0
  0
VERTEX
  5
2A5
330
29F
100
AcDbEntity
  8
GAIKEI
  6
Continuous
370
     0
100
AcDbVertex
100
AcDb2dVertex
 10
11.7591062150137
 20
17.54030126881903
 30
0.0
  0
VERTEX
  5
2A6
330
29F
100
AcDbEntity
  8
GAIKEI
  6
Continuous
370
     0
100
AcDbVertex
100
AcDb2dVertex
 10
11.79403359001371
 20
17.42071426881907
 30
0.0
  0
VERTEX
  5
2A7
330
29F
100
AcDbEntity
  8
GAIKEI
  6
Continuous
370
     0
100
AcDbVertex
100
AcDb2dVertex
 10
11.82358996501371
 20
17.29949464381903
 30
0.0
  0
VERTEX
  5
2A8
330
29F
100
AcDbEntity
  8
GAIKEI
  6
Continuous
370
     0
100
AcDbVertex
100
AcDb2dVertex
 10
11.84761871501371
 20
17.17678726881902
 30
0.0
  0
VERTEX
  5
2A9
330
29F
100
AcDbEntity
  8
GAIKEI
  6
Continuous
370
     0
100
AcDbVertex
100
AcDb2dVertex
 10
11.86594446501371
 20
17.05276389381905
 30
0.0
  0
VERTEX
  5
2AA
330
29F
100
AcDbEntity
  8
GAIKEI
  6
Continuous
370
     0
100
AcDbVertex
100
AcDb2dVertex
 10
11.87838046501372
 20
16.92758839381903
 30
0.0
  0
VERTEX
  5
2AB
330
29F
100
AcDbEntity
  8
GAIKEI
  6
Continuous
370
     0
100
AcDbVertex
100
AcDb2dVertex
 10
11.8847128400137
 20
16.80145539381905
 30
0.0
  0
VERTEX
  5
2AC
330
29F
100
AcDbEntity
  8
GAIKEI
  6
Continuous
370
     0
100
AcDbVertex
100
AcDb2dVertex
 10
11.88551384001371
 20
16.73809714381903
 30
0.0
  0
SEQEND
  5
2AD
330
29F
100
AcDbEntity
  8
GAIKEI
  6
Continuous
370
     0
  0
LINE
  5
2AE
330
2
100
AcDbEntity
  8
GAIKEI
  6
Continuous
370
    40
100
AcDbLine
 10
11.88551384001371
 20
10.96424951881906
 30
0.0
 11
11.88551384001371
 21
16.73809714381903
 31
0.0
  0
LINE
  5
2AF
330
2
100
AcDbEntity
  8
GAIKEI
  6
Continuous
 48
0.006403
370
    40
100
AcDbLine
 10
17.98197234001371
 20
18.62261089381903
 30
0.0
 11
17.98197234001371
 21
18.59059801881906
 31
0.0
  0
LINE
  5
2B0
330
2
100
AcDbEntity
  8
GAIKEI
  6
Continuous
 48
0.035514
370
    40
100
AcDbLine
 10
17.98197234001371
 20
18.80018126881904
 30
0.0
 11
17.98197234001371
 21
18.62261089381903
 31
0.0
  0
ARC
  5
2B1
330
2
100
AcDbEntity
  8
GAIKEI
  6
Continuous
370
    40
100
AcDbCircle
 10
16.33197084001371
 20
18.80018126881904
 30
0.0
 40
1.65000025
100
AcDbArc
 50
0.0
 51
41.01850299999973
  0
POLYLINE
  5
2B2
330
2
100
AcDbEntity
  8
GAIKEI
  6
Continuous
 62
     1
370
    13
100
AcDb2dPolyline
 66
     1
 10
0.0
 20
0.0
 30
0.0
  0
VERTEX
  5
2B3
330
2B2
100
AcDbEntity
  8
GAIKEI
  6
Continuous
 62
     1
370
     0
100
AcDbVertex
100
AcDb2dVertex
 10
17.5768895900137
 20
18.08423514381903
 30
0.0
  0
VERTEX
  5
2B4
330
2B2
100
AcDbEntity
  8
GAIKEI
  6
Continuous
 62
     1
370
     0
100
AcDbVertex
100
AcDb2dVertex
 10
17.96381059001371
 20
18.08417789381903
 30
0.0
  0
VERTEX
  5
2B5
330
2B2
100
AcDbEntity
  8
GAIKEI
  6
Continuous
 62
     1
370
     0
100
AcDbVertex
100
AcDb2dVertex
 10
17.96489396501371
 20
18.08408251881903
 30
0.0
  0
VERTEX
  5
2B6
330
2B2
100
AcDbEntity
  8
GAIKEI
  6
Continuous
 62
     1
370
     0
100
AcDbVertex
100
AcDb2dVertex
 10
17.96594296501371
 20
18.08417026881906
 30
0.0
  0
VERTEX
  5
2B7
330
2B2
100
AcDbEntity
  8
GAIKEI
  6
Continuous
 62
     1
370
     0
100
AcDbVertex
100
AcDb2dVertex
 10
17.9669577150137
 20
18.08417401881903
 30
0.0
  0
VERTEX
  5
2B8
330
2B2
100
AcDbEntity
  8
GAIKEI
  6
Continuous
 62
     1
370
     0
100
AcDbVertex
100
AcDb2dVertex
 10
17.97712384001371
 20
18.08415501881907
 30
0.0
  0
VERTEX
  5
2B9
330
2B2
100
AcDbEntity
  8
GAIKEI
  6
Continuous
 62
     1
370
     0
100
AcDbVertex
100
AcDb2dVertex
 10
17.9774938400137
 20
18.08409389381907
 30
0.0
  0
VERTEX
  5
2BA
330
2B2
100
AcDbEntity
  8
GAIKEI
  6
Continuous
 62
     1
370
     0
100
AcDbVertex
100
AcDb2dVertex
 10
17.97794021501372
 20
18.08409014381905
 30
0.0
  0
VERTEX
  5
2BB
330
2B2
100
AcDbEntity
  8
GAIKEI
  6
Continuous
 62
     1
370
     0
100
AcDbVertex
100
AcDb2dVertex
 10
17.9786497150137
 20
18.08414739381905
 30
0.0
  0
VERTEX
  5
2BC
330
2B2
100
AcDbEntity
  8
GAIKEI
  6
Continuous
 62
     1
370
     0
100
AcDbVertex
100
AcDb2dVertex
 10
17.98197234001371
 20
18.08403289381906
 30
0.0
  0
SEQEND
  5
2BD
330
2B2
100
AcDbEntity
  8
GAIKEI
  6
Continuous
 62
     1
370
     0
  0
POLYLINE
  5
2BE
330
2
100
AcDbEntity
  8
GAIKEI
  6
Continuous
 62
     1
370
    13
100
AcDb2dPolyline
 66
     1
 10
0.0
 20
0.0
 30
0.0
  0
VERTEX
  5
2BF
330
2BE
100
AcDbEntity
  8
GAIKEI
  6
Continuous
 62
     1
370
     0
100
AcDbVertex
100
AcDb2dVertex
 10
17.57688584001371
 20
18.08674514381906
 30
0.0
  0
VERTEX
  5
2C0
330
2BE
100
AcDbEntity
  8
GAIKEI
  6
Continuous
 62
     1
370
     0
100
AcDbVertex
100
AcDb2dVertex
 10
17.5757872150137
 20
19.29830826881905
 30
0.0
  0
VERTEX
  5
2C1
330
2BE
100
AcDbEntity
  8
GAIKEI
  6
Continuous
 62
     1
370
     0
100
AcDbVertex
100
AcDb2dVertex
 10
17.5764013400137
 20
19.85060776881906
 30
0.0
  0
VERTEX
  5
2C2
330
2BE
100
AcDbEntity
  8
GAIKEI
  6
Continuous
 62
     1
370
     0
100
AcDbVertex
100
AcDb2dVertex
 10
17.57683246501371
 20
19.88268176881902
 30
0.0
  0
VERTEX
  5
2C3
330
2BE
100
AcDbEntity
  8
GAIKEI
  6
Continuous
 62
     1
370
     0
100
AcDbVertex
100
AcDb2dVertex
 10
17.5768895900137
 20
19.88307851881907
 30
0.0
  0
SEQEND
  5
2C4
330
2BE
100
AcDbEntity
  8
GAIKEI
  6
Continuous
 62
     1
370
     0
  0
ARC
  5
2C5
330
2
100
AcDbEntity
  8
GAIKEI
  6
Continuous
370
    40
100
AcDbCircle
 10
17.35052934001371
 20
19.68616376881906
 30
0.0
 40
0.300024625
100
AcDbArc
 50
41.02061999999862
 51
88.99795200000061
  0
LINE
  5
2C6
330
2
100
AcDbEntity
  8
GAIKEI
  6
Continuous
 62
     1
 48
0.000502
370
    13
100
AcDbLine
 10
17.5768895900137
 20
18.08423514381903
 30
0.0
 11
17.5769010900137
 21
18.08674514381906
 31
0.0
  0
LINE
  5
2C7
330
2
100
AcDbEntity
  8
GAIKEI
  6
Continuous
 62
     1
 48
0.044222
370
    13
100
AcDbLine
 10
17.35577446501371
 20
18.08643239381902
 30
0.0
 11
17.57688584001371
 21
18.08674901881906
 31
0.0
  0
LINE
  5
2C8
330
2
100
AcDbEntity
  8
GAIKEI
  6
Continuous
 62
     1
370
    13
100
AcDbLine
 10
17.57689346501371
 20
18.08423514381903
 30
0.0
 11
17.57689346501371
 21
11.06100164381902
 31
0.0
  0
LINE
  5
2C9
330
2
100
AcDbEntity
  8
GAIKEI
  6
Continuous
 62
     1
 48
0.044223
370
    13
100
AcDbLine
 10
17.35577446501371
 20
18.08419689381904
 30
0.0
 11
17.5768895900137
 21
18.08423514381903
 31
0.0
  0
LINE
  5
2CA
330
2
100
AcDbEntity
  8
GAIKEI
  6
Continuous
 62
     1
 48
0.044223
370
    13
100
AcDbLine
 10
17.3557783400137
 20
11.06102451881904
 30
0.0
 11
17.57689346501371
 21
11.06102451881904
 31
0.0
  0
LINE
  5
2CB
330
2
100
AcDbEntity
  8
GAIKEI
  6
Continuous
 62
     1
 48
0.044222
370
    13
100
AcDbLine
 10
17.3557783400137
 20
11.05879101881905
 30
0.0
 11
17.5768895900137
 21
11.05848014381902
 31
0.0
  0
ARC
  5
2CC
330
2
100
AcDbEntity
  8
GAIKEI
  6
Continuous
 62
     1
370
    13
100
AcDbCircle
 10
946.2559897150137
 20
9.568730268819052
 30
0.0
 40
928.6802758749999
100
AcDbArc
 50
179.908084
 51
179.9813999999997
  0
LINE
  5
2CD
330
2
100
AcDbEntity
  8
GAIKEI
  6
Continuous
 62
     1
 48
0.000502
370
    13
100
AcDbLine
 10
17.5768895900137
 20
11.06098826881904
 30
0.0
 11
17.5769048400137
 21
11.05848014381902
 31
0.0
  0
LINE
  5
2CE
330
2
100
AcDbEntity
  8
GAIKEI
  6
Continuous
 62
     1
 48
0.06788
370
    13
100
AcDbLine
 10
17.57689346501371
 20
11.06100164381902
 30
0.0
 11
17.91629471501372
 21
11.06100164381902
 31
0.0
  0
LINE
  5
2CF
330
2
100
AcDbEntity
  8
GAIKEI
  6
Continuous
370
    40
100
AcDbLine
 10
17.98197234001371
 20
18.08412451881904
 30
0.0
 11
17.98197234001371
 21
12.66948214381907
 31
0.0
  0
LINE
  5
2D0
330
2
100
AcDbEntity
  8
GAIKEI
  6
Continuous
 48
0.143211
370
    40
100
AcDbLine
 10
17.98197234001371
 20
18.80018126881904
 30
0.0
 11
17.98197234001371
 21
18.08412451881904
 31
0.0
  0
LINE
  5
2D1
330
2
100
AcDbEntity
  8
GAIKEI
  6
Continuous
 48
0.000797
370
    13
100
AcDbLine
 10
17.92027721501369
 20
11.06105701881907
 30
0.0
 11
17.91629471501372
 21
11.06101689381907
 31
0.0
  0
LINE
  5
2D2
330
2
100
AcDbEntity
  8
GAIKEI
  6
Continuous
370
    40
100
AcDbLine
 10
17.3557783400137
 20
19.98614401881903
 30
0.0
 11
8.967918965013708
 21
20.13255201881904
 31
0.0
  0
POLYLINE
  5
2D3
330
2
100
AcDbEntity
  8
GAIKEI
  6
Continuous
 62
     1
370
    13
100
AcDb2dPolyline
 66
     1
 10
0.0
 20
0.0
 30
0.0
  0
VERTEX
  5
2D4
330
2D3
100
AcDbEntity
  8
GAIKEI
  6
Continuous
 62
     1
370
     0
100
AcDbVertex
100
AcDb2dVertex
 10
17.35577446501371
 20
18.08643239381902
 30
0.0
  0
VERTEX
  5
2D5
330
2D3
100
AcDbEntity
  8
GAIKEI
  6
Continuous
 62
     1
370
     0
100
AcDbVertex
100
AcDb2dVertex
 10
17.35698759001371
 20
19.25981039381904
 30
0.0
  0
VERTEX
  5
2D6
330
2D3
100
AcDbEntity
  8
GAIKEI
  6
Continuous
 62
     1
370
     0
100
AcDbVertex
100
AcDb2dVertex
 10
17.35687696501371
 20
19.73038376881905
 30
0.0
  0
VERTEX
  5
2D7
330
2D3
100
AcDbEntity
  8
GAIKEI
  6
Continuous
 62
     1
370
     0
100
AcDbVertex
100
AcDb2dVertex
 10
17.35608346501371
 20
19.97518051881903
 30
0.0
  0
VERTEX
  5
2D8
330
2D3
100
AcDbEntity
  8
GAIKEI
  6
Continuous
 62
     1
370
     0
100
AcDbVertex
100
AcDb2dVertex
 10
17.35588509001371
 20
19.98491939381907
 30
0.0
  0
VERTEX
  5
2D9
330
2D3
100
AcDbEntity
  8
GAIKEI
  6
Continuous
 62
     1
370
     0
100
AcDbVertex
100
AcDb2dVertex
 10
17.35581271501371
 20
19.98600664381902
 30
0.0
  0
VERTEX
  5
2DA
330
2D3
100
AcDbEntity
  8
GAIKEI
  6
Continuous
 62
     1
370
     0
100
AcDbVertex
100
AcDb2dVertex
 10
17.3557783400137
 20
19.98614401881903
 30
0.0
  0
SEQEND
  5
2DB
330
2D3
100
AcDbEntity
  8
GAIKEI
  6
Continuous
 62
     1
370
     0
  0
ARC
  5
2DC
330
2
100
AcDbEntity
  8
GAIKEI
  6
Continuous
 62
     1
370
    13
100
AcDbCircle
 10
-1693.088187534987
 20
-2854.648411856182
 30
0.0
 40
3340.86246
100
AcDbArc
 50
59.34224799999989
 51
59.37172000000074
  0
ARC
  5
2DD
330
2
100
AcDbEntity
  8
GAIKEI
  6
Continuous
370
    40
100
AcDbCircle
 10
8.967045465013711
 20
20.08256039381902
 30
0.0
 40
0.05
100
AcDbArc
 50
89.00000100000212
 51
239.9999970000012
  0
LINE
  5
2DE
330
2
100
AcDbEntity
  8
GAIKEI
  6
Continuous
 62
     1
370
    13
100
AcDbLine
 10
17.35577446501371
 20
18.08643239381902
 30
0.0
 11
11.5910459650137
 21
18.18705639381906
 31
0.0
  0
LINE
  5
2DF
330
2
100
AcDbEntity
  8
GAIKEI
  6
Continuous
 62
     1
 48
0.000447
370
    13
100
AcDbLine
 10
17.35577446501371
 20
18.08419689381904
 30
0.0
 11
17.35577446501371
 21
18.08643239381902
 31
0.0
  0
LINE
  5
2E0
330
2
100
AcDbEntity
  8
GAIKEI
  6
Continuous
 62
     1
370
    13
100
AcDbLine
 10
17.3557783400137
 20
11.06102451881904
 30
0.0
 11
17.3557783400137
 21
18.08421976881905
 31
0.0
  0
LINE
  5
2E1
330
2
100
AcDbEntity
  8
GAIKEI
  6
Continuous
 62
     1
 48
0.000447
370
    13
100
AcDbLine
 10
17.3557783400137
 20
11.06102451881904
 30
0.0
 11
17.3557783400137
 21
11.05879101881905
 31
0.0
  0
LINE
  5
2E2
330
2
100
AcDbEntity
  8
GAIKEI
  6
Continuous
 62
     1
370
    13
100
AcDbLine
 10
17.3557783400137
 20
11.05879101881905
 30
0.0
 11
12.0615774650137
 21
10.96638001881902
 31
0.0
  0
ARC
  5
2E3
330
2
100
AcDbEntity
  8
GAIKEI
  6
Continuous
 62
     1
370
    13
100
AcDbCircle
 10
-933.1089395349863
 20
9.485062518819034
 30
0.0
 40
950.4661213750001
100
AcDbArc
 50
0.0190370000003882
 51
0.0948669999995365
  0
LINE
  5
2E4
330
2
100
AcDbEntity
  8
GAIKEI
  6
Continuous
 62
     1
 48
0.005072
370
    13
100
AcDbLine
 10
12.0405203400137
 20
10.56666464381905
 30
0.0
 11
12.04273284001371
 21
10.59192551881906
 31
0.0
  0
POLYLINE
  5
2E5
330
2
100
AcDbEntity
  8
GAIKEI
  6
Continuous
 62
     1
370
    13
100
AcDb2dPolyline
 66
     1
 10
0.0
 20
0.0
 30
0.0
  0
VERTEX
  5
2E6
330
2E5
100
AcDbEntity
  8
GAIKEI
  6
Continuous
 62
     1
370
     0
100
AcDbVertex
100
AcDb2dVertex
 10
12.0405203400137
 20
10.56666464381905
 30
0.0
  0
VERTEX
  5
2E7
330
2E5
100
AcDbEntity
  8
GAIKEI
  6
Continuous
 62
     1
370
     0
100
AcDbVertex
100
AcDb2dVertex
 10
12.03820096501371
 20
10.48524939381903
 30
0.0
  0
VERTEX
  5
2E8
330
2E5
100
AcDbEntity
  8
GAIKEI
  6
Continuous
 62
     1
370
     0
100
AcDbVertex
100
AcDb2dVertex
 10
12.0432707150137
 20
10.40508551881905
 30
0.0
  0
VERTEX
  5
2E9
330
2E5
100
AcDbEntity
  8
GAIKEI
  6
Continuous
 62
     1
370
     0
100
AcDbVertex
100
AcDb2dVertex
 10
12.05581721501372
 20
10.32668776881902
 30
0.0
  0
VERTEX
  5
2EA
330
2E5
100
AcDbEntity
  8
GAIKEI
  6
Continuous
 62
     1
370
     0
100
AcDbVertex
100
AcDb2dVertex
 10
12.0649534650137
 20
10.28833289381904
 30
0.0
  0
VERTEX
  5
2EB
330
2E5
100
AcDbEntity
  8
GAIKEI
  6
Continuous
 62
     1
370
     0
100
AcDbVertex
100
AcDb2dVertex
 10
12.07603134001371
 20
10.25064364381901
 30
0.0
  0
VERTEX
  5
2EC
330
2E5
100
AcDbEntity
  8
GAIKEI
  6
Continuous
 62
     1
370
     0
100
AcDbVertex
100
AcDb2dVertex
 10
12.09388409001372
 20
10.20157701881905
 30
0.0
  0
VERTEX
  5
2ED
330
2E5
100
AcDbEntity
  8
GAIKEI
  6
Continuous
 62
     1
370
     0
100
AcDbVertex
100
AcDb2dVertex
 10
12.11531121501372
 20
10.15406889381907
 30
0.0
  0
VERTEX
  5
2EE
330
2E5
100
AcDbEntity
  8
GAIKEI
  6
Continuous
 62
     1
370
     0
100
AcDbVertex
100
AcDb2dVertex
 10
12.14037759001371
 20
10.10835351881903
 30
0.0
  0
VERTEX
  5
2EF
330
2E5
100
AcDbEntity
  8
GAIKEI
  6
Continuous
 62
     1
370
     0
100
AcDbVertex
100
AcDb2dVertex
 10
12.18005046501372
 20
10.04994864381902
 30
0.0
  0
VERTEX
  5
2F0
330
2E5
100
AcDbEntity
  8
GAIKEI
  6
Continuous
 62
     1
370
     0
100
AcDbVertex
100
AcDb2dVertex
 10
12.20236646501371
 20
10.02239889381903
 30
0.0
  0
VERTEX
  5
2F1
330
2E5
100
AcDbEntity
  8
GAIKEI
  6
Continuous
 62
     1
370
     0
100
AcDbVertex
100
AcDb2dVertex
 10
12.2262960900137
 20
9.996071768819064
 30
0.0
  0
VERTEX
  5
2F2
330
2E5
100
AcDbEntity
  8
GAIKEI
  6
Continuous
 62
     1
370
     0
100
AcDbVertex
100
AcDb2dVertex
 10
12.2606359650137
 20
9.963017393819058
 30
0.0
  0
VERTEX
  5
2F3
330
2E5
100
AcDbEntity
  8
GAIKEI
  6
Continuous
 62
     1
370
     0
100
AcDbVertex
100
AcDb2dVertex
 10
12.29763471501371
 20
9.932465393819057
 30
0.0
  0
VERTEX
  5
2F4
330
2E5
100
AcDbEntity
  8
GAIKEI
  6
Continuous
 62
     1
370
     0
100
AcDbVertex
100
AcDb2dVertex
 10
12.33712446501371
 20
9.904578143819065
 30
0.0
  0
VERTEX
  5
2F5
330
2E5
100
AcDbEntity
  8
GAIKEI
  6
Continuous
 62
     1
370
     0
100
AcDbVertex
100
AcDb2dVertex
 10
12.3682447150137
 20
9.885491268819038
 30
0.0
  0
VERTEX
  5
2F6
330
2E5
100
AcDbEntity
  8
GAIKEI
  6
Continuous
 62
     1
370
     0
100
AcDbVertex
100
AcDb2dVertex
 10
12.40054384001371
 20
9.868025643819038
 30
0.0
  0
VERTEX
  5
2F7
330
2E5
100
AcDbEntity
  8
GAIKEI
  6
Continuous
 62
     1
370
     0
100
AcDbVertex
100
AcDb2dVertex
 10
12.45763834001371
 20
9.842217393819026
 30
0.0
  0
VERTEX
  5
2F8
330
2E5
100
AcDbEntity
  8
GAIKEI
  6
Continuous
 62
     1
370
     0
100
AcDbVertex
100
AcDb2dVertex
 10
12.51718959001371
 20
9.821259393819076
 30
0.0
  0
VERTEX
  5
2F9
330
2E5
100
AcDbEntity
  8
GAIKEI
  6
Continuous
 62
     1
370
     0
100
AcDbVertex
100
AcDb2dVertex
 10
12.57858721501371
 20
9.805170893819052
 30
0.0
  0
VERTEX
  5
2FA
330
2E5
100
AcDbEntity
  8
GAIKEI
  6
Continuous
 62
     1
370
     0
100
AcDbVertex
100
AcDb2dVertex
 10
12.64120159001371
 20
9.793919518819024
 30
0.0
  0
VERTEX
  5
2FB
330
2E5
100
AcDbEntity
  8
GAIKEI
  6
Continuous
 62
     1
370
     0
100
AcDbVertex
100
AcDb2dVertex
 10
12.7026182150137
 20
9.787545143819073
 30
0.0
  0
VERTEX
  5
2FC
330
2E5
100
AcDbEntity
  8
GAIKEI
  6
Continuous
 62
     1
370
     0
100
AcDbVertex
100
AcDb2dVertex
 10
12.76398521501372
 20
9.78556914381906
 30
0.0
  0
SEQEND
  5
2FD
330
2E5
100
AcDbEntity
  8
GAIKEI
  6
Continuous
 62
     1
370
     0
  0
ARC
  5
2FE
330
2
100
AcDbEntity
  8
GAIKEI
  6
Continuous
 62
     1
370
    13
100
AcDbCircle
 10
-11.00086915998629
 20
7838.20119751882
 30
0.0
 40
7828.452476125001
100
AcDbArc
 50
270.1739349999991
 51
270.207546000002
  0
POLYLINE
  5
2FF
330
2
100
AcDbEntity
  8
GAIKEI
  6
Continuous
 62
     1
370
    13
100
AcDb2dPolyline
 66
     1
 10
0.0
 20
0.0
 30
0.0
  0
VERTEX
  5
300
330
2FF
100
AcDbEntity
  8
GAIKEI
  6
Continuous
 62
     1
370
     0
100
AcDbVertex
100
AcDb2dVertex
 10
12.76191009001371
 20
9.748396768819048
 30
0.0
  0
VERTEX
  5
301
330
2FF
100
AcDbEntity
  8
GAIKEI
  6
Continuous
 62
     1
370
     0
100
AcDbVertex
100
AcDb2dVertex
 10
12.76201309001371
 20
9.748461643819069
 30
0.0
  0
VERTEX
  5
302
330
2FF
100
AcDbEntity
  8
GAIKEI
  6
Continuous
 62
     1
370
     0
100
AcDbVertex
100
AcDb2dVertex
 10
12.7620779650137
 20
9.748576018819022
 30
0.0
  0
VERTEX
  5
303
330
2FF
100
AcDbEntity
  8
GAIKEI
  6
Continuous
 62
     1
370
     0
100
AcDbVertex
100
AcDb2dVertex
 10
12.7622114650137
 20
9.748970893819063
 30
0.0
  0
VERTEX
  5
304
330
2FF
100
AcDbEntity
  8
GAIKEI
  6
Continuous
 62
     1
370
     0
100
AcDbVertex
100
AcDb2dVertex
 10
12.7627759650137
 20
9.753336768819082
 30
0.0
  0
VERTEX
  5
305
330
2FF
100
AcDbEntity
  8
GAIKEI
  6
Continuous
 62
     1
370
     0
100
AcDbVertex
100
AcDb2dVertex
 10
12.76398521501372
 20
9.78556914381906
 30
0.0
  0
SEQEND
  5
306
330
2FF
100
AcDbEntity
  8
GAIKEI
  6
Continuous
 62
     1
370
     0
  0
POLYLINE
  5
307
330
2
100
AcDbEntity
  8
GAIKEI
  6
Continuous
 62
     1
370
    13
100
AcDb2dPolyline
 66
     1
 10
0.0
 20
0.0
 30
0.0
  0
VERTEX
  5
308
330
307
100
AcDbEntity
  8
GAIKEI
  6
Continuous
 62
     1
370
     0
100
AcDbVertex
100
AcDb2dVertex
 10
17.35498109001372
 20
9.767096393819059
 30
0.0
  0
VERTEX
  5
309
330
307
100
AcDbEntity
  8
GAIKEI
  6
Continuous
 62
     1
370
     0
100
AcDbVertex
100
AcDb2dVertex
 10
17.3551069650137
 20
9.76719176881906
 30
0.0
  0
VERTEX
  5
30A
330
307
100
AcDbEntity
  8
GAIKEI
  6
Continuous
 62
     1
370
     0
100
AcDbVertex
100
AcDb2dVertex
 10
17.3551908400137
 20
9.767359643819048
 30
0.0
  0
VERTEX
  5
30B
330
307
100
AcDbEntity
  8
GAIKEI
  6
Continuous
 62
     1
370
     0
100
AcDbVertex
100
AcDb2dVertex
 10
17.3553548400137
 20
9.767947143819043
 30
0.0
  0
VERTEX
  5
30C
330
307
100
AcDbEntity
  8
GAIKEI
  6
Continuous
 62
     1
370
     0
100
AcDbVertex
100
AcDb2dVertex
 10
17.35603771501371
 20
9.774390143819033
 30
0.0
  0
VERTEX
  5
30D
330
307
100
AcDbEntity
  8
GAIKEI
  6
Continuous
 62
     1
370
     0
100
AcDbVertex
100
AcDb2dVertex
 10
17.3570104650137
 20
9.800860268819036
 30
0.0
  0
SEQEND
  5
30E
330
307
100
AcDbEntity
  8
GAIKEI
  6
Continuous
 62
     1
370
     0
  0
POLYLINE
  5
30F
330
2
100
AcDbEntity
  8
GAIKEI
  6
Continuous
 62
     1
370
    13
100
AcDb2dPolyline
 66
     1
 10
0.0
 20
0.0
 30
0.0
  0
VERTEX
  5
310
330
30F
100
AcDbEntity
  8
GAIKEI
  6
Continuous
 62
     1
370
     0
100
AcDbVertex
100
AcDb2dVertex
 10
17.56284009001371
 20
9.835633143819023
 30
0.0
  0
VERTEX
  5
311
330
30F
100
AcDbEntity
  8
GAIKEI
  6
Continuous
 62
     1
370
     0
100
AcDbVertex
100
AcDb2dVertex
 10
17.57059159001372
 20
9.844937268819052
 30
0.0
  0
VERTEX
  5
312
330
30F
100
AcDbEntity
  8
GAIKEI
  6
Continuous
 62
     1
370
     0
100
AcDbVertex
100
AcDb2dVertex
 10
17.57486784001371
 20
9.857279643819055
 30
0.0
  0
VERTEX
  5
313
330
30F
100
AcDbEntity
  8
GAIKEI
  6
Continuous
 62
     1
370
     0
100
AcDbVertex
100
AcDb2dVertex
 10
17.5757643400137
 20
9.870221018819023
 30
0.0
  0
SEQEND
  5
314
330
30F
100
AcDbEntity
  8
GAIKEI
  6
Continuous
 62
     1
370
     0
  0
POLYLINE
  5
315
330
2
100
AcDbEntity
  8
GAIKEI
  6
Continuous
 62
     1
370
    13
100
AcDb2dPolyline
 66
     1
 10
0.0
 20
0.0
 30
0.0
  0
VERTEX
  5
316
330
315
100
AcDbEntity
  8
GAIKEI
  6
Continuous
 62
     1
370
     0
100
AcDbVertex
100
AcDb2dVertex
 10
11.5910459650137
 20
18.18705639381906
 30
0.0
  0
VERTEX
  5
317
330
315
100
AcDbEntity
  8
GAIKEI
  6
Continuous
 62
     1
370
     0
100
AcDbVertex
100
AcDb2dVertex
 10
11.5234457150137
 20
18.28782551881906
 30
0.0
  0
VERTEX
  5
318
330
315
100
AcDbEntity
  8
GAIKEI
  6
Continuous
 62
     1
370
     0
100
AcDbVertex
100
AcDb2dVertex
 10
11.45139759001371
 20
18.38510789381908
 30
0.0
  0
VERTEX
  5
319
330
315
100
AcDbEntity
  8
GAIKEI
  6
Continuous
 62
     1
370
     0
100
AcDbVertex
100
AcDb2dVertex
 10
11.3754202150137
 20
18.47892276881905
 30
0.0
  0
VERTEX
  5
31A
330
315
100
AcDbEntity
  8
GAIKEI
  6
Continuous
 62
     1
370
     0
100
AcDbVertex
100
AcDb2dVertex
 10
11.2959714650137
 20
18.56931964381906
 30
0.0
  0
VERTEX
  5
31B
330
315
100
AcDbEntity
  8
GAIKEI
  6
Continuous
 62
     1
370
     0
100
AcDbVertex
100
AcDb2dVertex
 10
11.24128021501372
 20
18.62772639381907
 30
0.0
  0
VERTEX
  5
31C
330
315
100
AcDbEntity
  8
GAIKEI
  6
Continuous
 62
     1
370
     0
100
AcDbVertex
100
AcDb2dVertex
 10
11.1853262150137
 20
18.68467989381904
 30
0.0
  0
VERTEX
  5
31D
330
315
100
AcDbEntity
  8
GAIKEI
  6
Continuous
 62
     1
370
     0
100
AcDbVertex
100
AcDb2dVertex
 10
11.07001171501372
 20
18.79433714381903
 30
0.0
  0
VERTEX
  5
31E
330
315
100
AcDbEntity
  8
GAIKEI
  6
Continuous
 62
     1
370
     0
100
AcDbVertex
100
AcDb2dVertex
 10
10.95065371501371
 20
18.89848601881906
 30
0.0
  0
VERTEX
  5
31F
330
315
100
AcDbEntity
  8
GAIKEI
  6
Continuous
 62
     1
370
     0
100
AcDbVertex
100
AcDb2dVertex
 10
10.8293805900137
 20
18.99598201881903
 30
0.0
  0
VERTEX
  5
320
330
315
100
AcDbEntity
  8
GAIKEI
  6
Continuous
 62
     1
370
     0
100
AcDbVertex
100
AcDb2dVertex
 10
10.7048574650137
 20
19.08831676881905
 30
0.0
  0
VERTEX
  5
321
330
315
100
AcDbEntity
  8
GAIKEI
  6
Continuous
 62
     1
370
     0
100
AcDbVertex
100
AcDb2dVertex
 10
10.57725971501371
 20
19.17531864381905
 30
0.0
  0
VERTEX
  5
322
330
315
100
AcDbEntity
  8
GAIKEI
  6
Continuous
 62
     1
370
     0
100
AcDbVertex
100
AcDb2dVertex
 10
10.4466292150137
 20
19.25663651881908
 30
0.0
  0
SEQEND
  5
323
330
315
100
AcDbEntity
  8
GAIKEI
  6
Continuous
 62
     1
370
     0
  0
POLYLINE
  5
324
330
2
100
AcDbEntity
  8
GAIKEI
  6
Continuous
 62
     1
370
    13
100
AcDb2dPolyline
 66
     1
 10
0.0
 20
0.0
 30
0.0
  0
VERTEX
  5
325
330
324
100
AcDbEntity
  8
GAIKEI
  6
Continuous
 62
     1
370
     0
100
AcDbVertex
100
AcDb2dVertex
 10
12.0615774650137
 20
16.66516764381904
 30
0.0
  0
VERTEX
  5
326
330
324
100
AcDbEntity
  8
GAIKEI
  6
Continuous
 62
     1
370
     0
100
AcDbVertex
100
AcDb2dVertex
 10
12.06057796501371
 20
16.73682301881902
 30
0.0
  0
VERTEX
  5
327
330
324
100
AcDbEntity
  8
GAIKEI
  6
Continuous
 62
     1
370
     0
100
AcDbVertex
100
AcDb2dVertex
 10
12.05759109001371
 20
16.80840576881903
 30
0.0
  0
VERTEX
  5
328
330
324
100
AcDbEntity
  8
GAIKEI
  6
Continuous
 62
     1
370
     0
100
AcDbVertex
100
AcDb2dVertex
 10
12.04573121501371
 20
16.95110976881906
 30
0.0
  0
VERTEX
  5
329
330
324
100
AcDbEntity
  8
GAIKEI
  6
Continuous
 62
     1
370
     0
100
AcDbVertex
100
AcDb2dVertex
 10
12.0261655900137
 20
17.09279139381905
 30
0.0
  0
VERTEX
  5
32A
330
324
100
AcDbEntity
  8
GAIKEI
  6
Continuous
 62
     1
370
     0
100
AcDbVertex
100
AcDb2dVertex
 10
11.99908509001372
 20
17.23301589381904
 30
0.0
  0
VERTEX
  5
32B
330
324
100
AcDbEntity
  8
GAIKEI
  6
Continuous
 62
     1
370
     0
100
AcDbVertex
100
AcDb2dVertex
 10
11.96469171501371
 20
17.37137876881902
 30
0.0
  0
VERTEX
  5
32C
330
324
100
AcDbEntity
  8
GAIKEI
  6
Continuous
 62
     1
370
     0
100
AcDbVertex
100
AcDb2dVertex
 10
11.9232183400137
 20
17.50753301881903
 30
0.0
  0
VERTEX
  5
32D
330
324
100
AcDbEntity
  8
GAIKEI
  6
Continuous
 62
     1
370
     0
100
AcDbVertex
100
AcDb2dVertex
 10
11.87490521501371
 20
17.64115801881902
 30
0.0
  0
VERTEX
  5
32E
330
324
100
AcDbEntity
  8
GAIKEI
  6
Continuous
 62
     1
370
     0
100
AcDbVertex
100
AcDb2dVertex
 10
11.8199964650137
 20
17.77197539381907
 30
0.0
  0
VERTEX
  5
32F
330
324
100
AcDbEntity
  8
GAIKEI
  6
Continuous
 62
     1
370
     0
100
AcDbVertex
100
AcDb2dVertex
 10
11.76909696501371
 20
17.87923326881903
 30
0.0
  0
VERTEX
  5
330
330
324
100
AcDbEntity
  8
GAIKEI
  6
Continuous
 62
     1
370
     0
100
AcDbVertex
100
AcDb2dVertex
 10
11.71388309001371
 20
17.98423276881905
 30
0.0
  0
VERTEX
  5
331
330
324
100
AcDbEntity
  8
GAIKEI
  6
Continuous
 62
     1
370
     0
100
AcDbVertex
100
AcDb2dVertex
 10
11.6544919650137
 20
18.08686726881902
 30
0.0
  0
VERTEX
  5
332
330
324
100
AcDbEntity
  8
GAIKEI
  6
Continuous
 62
     1
370
     0
100
AcDbVertex
100
AcDb2dVertex
 10
11.5910459650137
 20
18.18705639381906
 30
0.0
  0
SEQEND
  5
333
330
324
100
AcDbEntity
  8
GAIKEI
  6
Continuous
 62
     1
370
     0
  0
ARC
  5
334
330
2
100
AcDbEntity
  8
GAIKEI
  6
Continuous
 62
     1
370
    13
100
AcDbCircle
 10
9.782593340013704
 20
21.03925214381903
 30
0.0
 40
3.377171249999999
100
AcDbArc
 50
301.1363779999994
 51
302.3770540000001
  0
LINE
  5
335
330
2
100
AcDbEntity
  8
GAIKEI
  6
Continuous
 48
0.341415
370
    40
100
AcDbLine
 10
10.42041834001369
 20
19.18572126881904
 30
0.0
 11
8.9420477150137
 21
20.03925976881905
 31
0.0
  0
LINE
  5
336
330
2
100
AcDbEntity
  8
GAIKEI
  6
Continuous
 62
     1
370
    13
100
AcDbLine
 10
12.0615774650137
 20
10.96638001881902
 30
0.0
 11
12.0615774650137
 21
16.66516764381904
 31
0.0
  0
ARC
  5
337
330
2
100
AcDbEntity
  8
GAIKEI
  6
Continuous
 62
     1
370
    13
100
AcDbCircle
 10
8.386265340013707
 20
10.96374401881903
 30
0.0
 40
3.675316874999999
100
AcDbArc
 50
354.1936750000005
 51
0.0410949999991873
  0
LINE
  5
338
330
2
100
AcDbEntity
  8
GAIKEI
  6
Continuous
 62
     1
 48
0.017839
370
    13
100
AcDbLine
 10
11.97238221501371
 20
10.96638001881902
 30
0.0
 11
12.0615774650137
 21
10.96638001881902
 31
0.0
  0
LINE
  5
339
330
2
100
AcDbEntity
  8
GAIKEI
  6
Continuous
 62
     1
 48
0.005382
370
    13
100
AcDbLine
 10
11.94954746501371
 20
10.58489889381903
 30
0.0
 11
11.9527974650137
 21
10.61161126881907
 31
0.0
  0
POLYLINE
  5
33A
330
2
100
AcDbEntity
  8
GAIKEI
  6
Continuous
 62
     1
370
    13
100
AcDb2dPolyline
 66
     1
 10
0.0
 20
0.0
 30
0.0
  0
VERTEX
  5
33B
330
33A
100
AcDbEntity
  8
GAIKEI
  6
Continuous
 62
     1
370
     0
100
AcDbVertex
100
AcDb2dVertex
 10
11.94954746501371
 20
10.58489889381903
 30
0.0
  0
VERTEX
  5
33C
330
33A
100
AcDbEntity
  8
GAIKEI
  6
Continuous
 62
     1
370
     0
100
AcDbVertex
100
AcDb2dVertex
 10
11.94473709001371
 20
10.50572864381902
 30
0.0
  0
VERTEX
  5
33D
330
33A
100
AcDbEntity
  8
GAIKEI
  6
Continuous
 62
     1
370
     0
100
AcDbVertex
100
AcDb2dVertex
 10
11.9471975900137
 20
10.42777914381904
 30
0.0
  0
VERTEX
  5
33E
330
33A
100
AcDbEntity
  8
GAIKEI
  6
Continuous
 62
     1
370
     0
100
AcDbVertex
100
AcDb2dVertex
 10
11.95697459001371
 20
10.35140501881906
 30
0.0
  0
VERTEX
  5
33F
330
33A
100
AcDbEntity
  8
GAIKEI
  6
Continuous
 62
     1
370
     0
100
AcDbVertex
100
AcDb2dVertex
 10
11.9648214650137
 20
10.31321414381906
 30
0.0
  0
VERTEX
  5
340
330
33A
100
AcDbEntity
  8
GAIKEI
  6
Continuous
 62
     1
370
     0
100
AcDbVertex
100
AcDb2dVertex
 10
11.97464434001371
 20
10.27556889381904
 30
0.0
  0
VERTEX
  5
341
330
33A
100
AcDbEntity
  8
GAIKEI
  6
Continuous
 62
     1
370
     0
100
AcDbVertex
100
AcDb2dVertex
 10
11.9860120900137
 20
10.23988814381906
 30
0.0
  0
VERTEX
  5
342
330
33A
100
AcDbEntity
  8
GAIKEI
  6
Continuous
 62
     1
370
     0
100
AcDbVertex
100
AcDb2dVertex
 10
11.9992948400137
 20
10.20483289381903
 30
0.0
  0
VERTEX
  5
343
330
33A
100
AcDbEntity
  8
GAIKEI
  6
Continuous
 62
     1
370
     0
100
AcDbVertex
100
AcDb2dVertex
 10
12.01857434001371
 20
10.16214451881902
 30
0.0
  0
VERTEX
  5
344
330
33A
100
AcDbEntity
  8
GAIKEI
  6
Continuous
 62
     1
370
     0
100
AcDbVertex
100
AcDb2dVertex
 10
12.04094371501371
 20
10.12072076881904
 30
0.0
  0
SEQEND
  5
345
330
33A
100
AcDbEntity
  8
GAIKEI
  6
Continuous
 62
     1
370
     0
  0
POLYLINE
  5
346
330
2
100
AcDbEntity
  8
GAIKEI
  6
Continuous
 62
     1
370
    13
100
AcDb2dPolyline
 66
     1
 10
0.0
 20
0.0
 30
0.0
  0
VERTEX
  5
347
330
346
100
AcDbEntity
  8
GAIKEI
  6
Continuous
 62
     1
370
     0
100
AcDbVertex
100
AcDb2dVertex
 10
11.5288282150137
 20
18.14863101881903
 30
0.0
  0
VERTEX
  5
348
330
346
100
AcDbEntity
  8
GAIKEI
  6
Continuous
 62
     1
370
     0
100
AcDbVertex
100
AcDb2dVertex
 10
11.47212284001371
 20
18.23530089381907
 30
0.0
  0
VERTEX
  5
349
330
346
100
AcDbEntity
  8
GAIKEI
  6
Continuous
 62
     1
370
     0
100
AcDbVertex
100
AcDb2dVertex
 10
11.4119002150137
 20
18.31952939381906
 30
0.0
  0
VERTEX
  5
34A
330
346
100
AcDbEntity
  8
GAIKEI
  6
Continuous
 62
     1
370
     0
100
AcDbVertex
100
AcDb2dVertex
 10
11.34849221501371
 20
18.40130889381905
 30
0.0
  0
VERTEX
  5
34B
330
346
100
AcDbEntity
  8
GAIKEI
  6
Continuous
 62
     1
370
     0
100
AcDbVertex
100
AcDb2dVertex
 10
11.29901559001371
 20
18.46103176881902
 30
0.0
  0
VERTEX
  5
34C
330
346
100
AcDbEntity
  8
GAIKEI
  6
Continuous
 62
     1
370
     0
100
AcDbVertex
100
AcDb2dVertex
 10
11.2480130900137
 20
18.51937764381907
 30
0.0
  0
VERTEX
  5
34D
330
346
100
AcDbEntity
  8
GAIKEI
  6
Continuous
 62
     1
370
     0
100
AcDbVertex
100
AcDb2dVertex
 10
11.1417814650137
 20
18.63193026881905
 30
0.0
  0
VERTEX
  5
34E
330
346
100
AcDbEntity
  8
GAIKEI
  6
Continuous
 62
     1
370
     0
100
AcDbVertex
100
AcDb2dVertex
 10
11.03043421501371
 20
18.73896689381902
 30
0.0
  0
VERTEX
  5
34F
330
346
100
AcDbEntity
  8
GAIKEI
  6
Continuous
 62
     1
370
     0
100
AcDbVertex
100
AcDb2dVertex
 10
10.9145055900137
 20
18.84047589381905
 30
0.0
  0
VERTEX
  5
350
330
346
100
AcDbEntity
  8
GAIKEI
  6
Continuous
 62
     1
370
     0
100
AcDbVertex
100
AcDb2dVertex
 10
10.79616221501371
 20
18.93509564381904
 30
0.0
  0
VERTEX
  5
351
330
346
100
AcDbEntity
  8
GAIKEI
  6
Continuous
 62
     1
370
     0
100
AcDbVertex
100
AcDb2dVertex
 10
10.6741834650137
 20
19.02423376881907
 30
0.0
  0
VERTEX
  5
352
330
346
100
AcDbEntity
  8
GAIKEI
  6
Continuous
 62
     1
370
     0
100
AcDbVertex
100
AcDb2dVertex
 10
10.54886309001371
 20
19.10781376881906
 30
0.0
  0
VERTEX
  5
353
330
346
100
AcDbEntity
  8
GAIKEI
  6
Continuous
 62
     1
370
     0
100
AcDbVertex
100
AcDb2dVertex
 10
10.42041834001369
 20
19.18572126881904
 30
0.0
  0
SEQEND
  5
354
330
346
100
AcDbEntity
  8
GAIKEI
  6
Continuous
 62
     1
370
     0
  0
POLYLINE
  5
355
330
2
100
AcDbEntity
  8
GAIKEI
  6
Continuous
 62
     1
370
    13
100
AcDb2dPolyline
 66
     1
 10
0.0
 20
0.0
 30
0.0
  0
VERTEX
  5
356
330
355
100
AcDbEntity
  8
GAIKEI
  6
Continuous
 62
     1
370
     0
100
AcDbVertex
100
AcDb2dVertex
 10
11.97238221501371
 20
16.66516764381904
 30
0.0
  0
VERTEX
  5
357
330
355
100
AcDbEntity
  8
GAIKEI
  6
Continuous
 62
     1
370
     0
100
AcDbVertex
100
AcDb2dVertex
 10
11.96772059001371
 20
16.80047876881903
 30
0.0
  0
VERTEX
  5
358
330
355
100
AcDbEntity
  8
GAIKEI
  6
Continuous
 62
     1
370
     0
100
AcDbVertex
100
AcDb2dVertex
 10
11.95600184001371
 20
16.93533214381907
 30
0.0
  0
VERTEX
  5
359
330
355
100
AcDbEntity
  8
GAIKEI
  6
Continuous
 62
     1
370
     0
100
AcDbVertex
100
AcDb2dVertex
 10
11.9375158400137
 20
17.06933101881904
 30
0.0
  0
VERTEX
  5
35A
330
355
100
AcDbEntity
  8
GAIKEI
  6
Continuous
 62
     1
370
     0
100
AcDbVertex
100
AcDb2dVertex
 10
11.9125295900137
 20
17.20212451881903
 30
0.0
  0
VERTEX
  5
35B
330
355
100
AcDbEntity
  8
GAIKEI
  6
Continuous
 62
     1
370
     0
100
AcDbVertex
100
AcDb2dVertex
 10
11.88128721501371
 20
17.33341114381906
 30
0.0
  0
VERTEX
  5
35C
330
355
100
AcDbEntity
  8
GAIKEI
  6
Continuous
 62
     1
370
     0
100
AcDbVertex
100
AcDb2dVertex
 10
11.84400996501371
 20
17.46291626881904
 30
0.0
  0
VERTEX
  5
35D
330
355
100
AcDbEntity
  8
GAIKEI
  6
Continuous
 62
     1
370
     0
100
AcDbVertex
100
AcDb2dVertex
 10
11.8008809650137
 20
17.59040726881906
 30
0.0
  0
VERTEX
  5
35E
330
355
100
AcDbEntity
  8
GAIKEI
  6
Continuous
 62
     1
370
     0
100
AcDbVertex
100
AcDb2dVertex
 10
11.75586384001372
 20
17.70649226881906
 30
0.0
  0
VERTEX
  5
35F
330
355
100
AcDbEntity
  8
GAIKEI
  6
Continuous
 62
     1
370
     0
100
AcDbVertex
100
AcDb2dVertex
 10
11.70606671501372
 20
17.82049839381906
 30
0.0
  0
VERTEX
  5
360
330
355
100
AcDbEntity
  8
GAIKEI
  6
Continuous
 62
     1
370
     0
100
AcDbVertex
100
AcDb2dVertex
 10
11.65158521501371
 20
17.93228426881902
 30
0.0
  0
VERTEX
  5
361
330
355
100
AcDbEntity
  8
GAIKEI
  6
Continuous
 62
     1
370
     0
100
AcDbVertex
100
AcDb2dVertex
 10
11.59248409001371
 20
18.04170889381905
 30
0.0
  0
VERTEX
  5
362
330
355
100
AcDbEntity
  8
GAIKEI
  6
Continuous
 62
     1
370
     0
100
AcDbVertex
100
AcDb2dVertex
 10
11.5288282150137
 20
18.14863101881903
 30
0.0
  0
SEQEND
  5
363
330
355
100
AcDbEntity
  8
GAIKEI
  6
Continuous
 62
     1
370
     0
  0
LINE
  5
364
330
2
100
AcDbEntity
  8
GAIKEI
  6
Continuous
 62
     1
370
    13
100
AcDbLine
 10
11.97238221501371
 20
10.96638001881902
 30
0.0
 11
11.97238221501371
 21
16.66516764381904
 31
0.0
  0
ARC
  5
365
330
2
100
AcDbEntity
  8
GAIKEI
  6
Continuous
 62
     1
370
    13
100
AcDbCircle
 10
8.737568465013708
 20
10.96716014381903
 30
0.0
 40
3.234820374999999
100
AcDbArc
 50
353.6897259999995
 51
359.9861959999994
  0
LINE
  5
366
330
2
100
AcDbEntity
  8
GAIKEI
  6
Continuous
 48
0.00023
370
    13
100
AcDbLine
 10
11.4776693400137
 20
18.16284839381902
 30
0.0
 11
11.47663934001372
 21
18.16233714381903
 31
0.0
  0
LINE
  5
367
330
2
100
AcDbEntity
  8
GAIKEI
  6
Continuous
 48
0.01
370
    40
100
AcDbLine
 10
16.45196971501372
 20
9.64761051881905
 30
0.0
 11
16.4019704650137
 21
9.64761051881905
 31
0.0
  0
LINE
  5
368
330
2
100
AcDbEntity
  8
GAIKEI
  6
Continuous
370
    40
100
AcDbLine
 10
12.8019719650137
 20
9.572611643819044
 30
0.0
 11
16.4019704650137
 21
9.572611643819044
 31
0.0
  0
LINE
  5
369
330
2
100
AcDbEntity
  8
GAIKEI
  6
Continuous
 48
0.03808
370
    40
100
AcDbLine
 10
16.4019704650137
 20
9.763010893819028
 30
0.0
 11
16.4019704650137
 21
9.572611643819044
 31
0.0
  0
ARC
  5
36A
330
2
100
AcDbEntity
  8
GAIKEI
  6
Continuous
370
    40
100
AcDbCircle
 10
16.18275509001371
 20
9.899996643819036
 30
0.0
 40
0.1499995
100
AcDbArc
 50
273.0000009999998
 51
293.6240650000014
  0
ARC
  5
36B
330
2
100
AcDbEntity
  8
GAIKEI
  6
Continuous
370
    13
100
AcDbCircle
 10
16.1036649650137
 20
9.760197518819069
 30
0.0
 40
0.087553375
100
AcDbArc
 50
353.4409010000004
 51
1.290449000000071
  0
LINE
  5
36C
330
2
100
AcDbEntity
  8
GAIKEI
  6
Continuous
 62
     1
370
    40
100
AcDbLine
 10
12.8019719650137
 20
9.572611643819044
 30
0.0
 11
16.1906057150137
 21
9.750203018819064
 31
0.0
  0
LINE
  5
36D
330
2
100
AcDbEntity
  8
GAIKEI
  6
Continuous
 48
0.035195
370
    40
100
AcDbLine
 10
12.8019719650137
 20
9.74858751881905
 30
0.0
 11
12.8019719650137
 21
9.572611643819044
 31
0.0
  0
LINE
  5
36E
330
2
100
AcDbEntity
  8
GAIKEI
  6
Continuous
 48
0.057787
370
    40
100
AcDbLine
 10
11.41063371501371
 20
11.98205076881905
 30
0.0
 11
11.4224668400137
 21
11.69335639381907
 31
0.0
  0
ARC
  5
36F
330
2
100
AcDbEntity
  8
GAIKEI
  6
Continuous
370
    40
100
AcDbCircle
 10
42.7853780900137
 20
13.15724076881904
 30
0.0
 40
31.39678587500001
100
AcDbArc
 50
181.3333439999997
 51
182.1450979999997
  0
LINE
  5
370
330
2
100
AcDbEntity
  8
GAIKEI
  6
Continuous
 48
0.004399
370
    40
100
AcDbLine
 10
11.3970343400137
 20
12.42666714381906
 30
0.0
 11
11.39648496501371
 21
12.44865501881904
 31
0.0
  0
LINE
  5
371
330
2
100
AcDbEntity
  8
GAIKEI
  6
Continuous
 48
0.013066
370
    40
100
AcDbLine
 10
11.39648496501371
 20
12.44865501881904
 30
0.0
 11
11.39488659001369
 21
12.51396639381906
 31
0.0
  0
POLYLINE
  5
372
330
2
100
AcDbEntity
  8
GAIKEI
  6
Continuous
370
    40
100
AcDb2dPolyline
 66
     1
 10
0.0
 20
0.0
 30
0.0
  0
VERTEX
  5
373
330
372
100
AcDbEntity
  8
GAIKEI
  6
Continuous
370
     0
100
AcDbVertex
100
AcDb2dVertex
 10
11.39488659001369
 20
12.51396639381906
 30
0.0
  0
VERTEX
  5
374
330
372
100
AcDbEntity
  8
GAIKEI
  6
Continuous
370
     0
100
AcDbVertex
100
AcDb2dVertex
 10
11.37923871501371
 20
13.29673664381906
 30
0.0
  0
VERTEX
  5
375
330
372
100
AcDbEntity
  8
GAIKEI
  6
Continuous
370
     0
100
AcDbVertex
100
AcDb2dVertex
 10
11.37145671501372
 20
14.03260701881905
 30
0.0
  0
VERTEX
  5
376
330
372
100
AcDbEntity
  8
GAIKEI
  6
Continuous
370
     0
100
AcDbVertex
100
AcDb2dVertex
 10
11.37013684001371
 20
14.51292689381907
 30
0.0
  0
SEQEND
  5
377
330
372
100
AcDbEntity
  8
GAIKEI
  6
Continuous
370
     0
  0
LINE
  5
378
330
2
100
AcDbEntity
  8
GAIKEI
  6
Continuous
 48
0.000157
370
    40
100
AcDbLine
 10
11.37013684001371
 20
14.51292689381907
 30
0.0
 11
11.37013684001371
 21
14.51371276881903
 31
0.0
  0
LINE
  5
379
330
2
100
AcDbEntity
  8
GAIKEI
  6
Continuous
 48
0.02356
370
    40
100
AcDbLine
 10
11.37013684001371
 20
14.51371276881903
 30
0.0
 11
11.37013684001371
 21
14.63151064381904
 31
0.0
  0
LINE
  5
37A
330
2
100
AcDbEntity
  8
GAIKEI
  6
Continuous
 48
0.000157
370
    40
100
AcDbLine
 10
11.37013684001371
 20
14.63151064381904
 30
0.0
 11
11.37013684001371
 21
14.63229651881906
 31
0.0
  0
POLYLINE
  5
37B
330
2
100
AcDbEntity
  8
GAIKEI
  6
Continuous
370
    40
100
AcDb2dPolyline
 66
     1
 10
0.0
 20
0.0
 30
0.0
  0
VERTEX
  5
37C
330
37B
100
AcDbEntity
  8
GAIKEI
  6
Continuous
370
     0
100
AcDbVertex
100
AcDb2dVertex
 10
11.37013684001371
 20
14.63229651881906
 30
0.0
  0
VERTEX
  5
37D
330
37B
100
AcDbEntity
  8
GAIKEI
  6
Continuous
370
     0
100
AcDbVertex
100
AcDb2dVertex
 10
11.3732077150137
 20
15.35204976881906
 30
0.0
  0
VERTEX
  5
37E
330
37B
100
AcDbEntity
  8
GAIKEI
  6
Continuous
370
     0
100
AcDbVertex
100
AcDb2dVertex
 10
11.3835493400137
 20
16.10266764381904
 30
0.0
  0
VERTEX
  5
37F
330
37B
100
AcDbEntity
  8
GAIKEI
  6
Continuous
370
     0
100
AcDbVertex
100
AcDb2dVertex
 10
11.39488659001369
 20
16.63125501881907
 30
0.0
  0
SEQEND
  5
380
330
37B
100
AcDbEntity
  8
GAIKEI
  6
Continuous
370
     0
  0
LINE
  5
381
330
2
100
AcDbEntity
  8
GAIKEI
  6
Continuous
 48
0.013066
370
    40
100
AcDbLine
 10
11.39488659001369
 20
16.63125501881907
 30
0.0
 11
11.39648496501371
 21
16.69656651881908
 31
0.0
  0
LINE
  5
382
330
2
100
AcDbEntity
  8
GAIKEI
  6
Continuous
 48
0.0044
370
    40
100
AcDbLine
 10
11.3970343400137
 20
16.71855814381902
 30
0.0
 11
11.39648496501371
 21
16.69656651881908
 31
0.0
  0
ARC
  5
383
330
2
100
AcDbEntity
  8
GAIKEI
  6
Continuous
370
    40
100
AcDbCircle
 10
42.76870021501371
 20
15.98797114381907
 30
0.0
 40
31.3801155
100
AcDbArc
 50
177.8537410000001
 51
178.6659319999994
  0
LINE
  5
384
330
2
100
AcDbEntity
  8
GAIKEI
  6
Continuous
 48
0.057788
370
    40
100
AcDbLine
 10
11.4224707150137
 20
17.45186889381907
 30
0.0
 11
11.41064134001371
 21
17.16317264381902
 31
0.0
  0
POLYLINE
  5
385
330
2
100
AcDbEntity
  8
GAIKEI
  6
Continuous
370
    40
100
AcDb2dPolyline
 66
     1
 10
0.0
 20
0.0
 30
0.0
  0
VERTEX
  5
386
330
385
100
AcDbEntity
  8
GAIKEI
  6
Continuous
370
     0
100
AcDbVertex
100
AcDb2dVertex
 10
11.4328504650137
 20
18.00673564381904
 30
0.0
  0
VERTEX
  5
387
330
385
100
AcDbEntity
  8
GAIKEI
  6
Continuous
370
     0
100
AcDbVertex
100
AcDb2dVertex
 10
11.43452896501371
 20
17.97348301881905
 30
0.0
  0
VERTEX
  5
388
330
385
100
AcDbEntity
  8
GAIKEI
  6
Continuous
370
     0
100
AcDbVertex
100
AcDb2dVertex
 10
11.43502109001372
 20
17.88662614381903
 30
0.0
  0
VERTEX
  5
389
330
385
100
AcDbEntity
  8
GAIKEI
  6
Continuous
370
     0
100
AcDbVertex
100
AcDb2dVertex
 10
11.43156871501371
 20
17.71196264381902
 30
0.0
  0
VERTEX
  5
38A
330
385
100
AcDbEntity
  8
GAIKEI
  6
Continuous
370
     0
100
AcDbVertex
100
AcDb2dVertex
 10
11.4224707150137
 20
17.45186889381907
 30
0.0
  0
SEQEND
  5
38B
330
385
100
AcDbEntity
  8
GAIKEI
  6
Continuous
370
     0
  0
ARC
  5
38C
330
2
100
AcDbEntity
  8
GAIKEI
  6
Continuous
370
    40
100
AcDbCircle
 10
11.3332449650137
 20
17.99959839381907
 30
0.0
 40
0.099845125
100
AcDbArc
 50
4.0970290000007
 51
9.920845000000614
  0
ARC
  5
38D
330
2
100
AcDbEntity
  8
GAIKEI
  6
Continuous
370
    40
100
AcDbCircle
 10
11.0171362150137
 20
11.41301626881906
 30
0.0
 40
0.4704255
100
AcDbArc
 50
324.1810499999989
 51
332.6805699999998
  0
ARC
  5
38E
330
2
100
AcDbEntity
  8
GAIKEI
  6
Continuous
370
    40
100
AcDbCircle
 10
11.01713234001371
 20
17.73220339381905
 30
0.0
 40
0.4704307500000001
100
AcDbArc
 50
27.3211490000005
 51
35.81891599999909
  0
ARC
  5
38F
330
2
100
AcDbEntity
  8
GAIKEI
  6
Continuous
370
    40
100
AcDbCircle
 10
11.4391943400137
 20
11.10852139381907
 30
0.0
 40
0.050002125
100
AcDbArc
 50
144.2869679999995
 51
186.4451249999993
  0
LINE
  5
390
330
2
100
AcDbEntity
  8
GAIKEI
  6
Continuous
 48
0.000251
370
    13
100
AcDbLine
 10
11.43149621501371
 20
18.00762839381903
 30
0.0
 11
11.43275134001371
 21
18.00764364381908
 31
0.0
  0
LINE
  5
391
330
2
100
AcDbEntity
  8
GAIKEI
  6
Continuous
 48
0.000123
370
    13
100
AcDbLine
 10
11.43088209001371
 20
18.00762451881903
 30
0.0
 11
11.43149621501371
 21
18.00762839381903
 31
0.0
  0
LINE
  5
392
330
2
100
AcDbEntity
  8
GAIKEI
  6
Continuous
 48
0.000257
370
    13
100
AcDbLine
 10
11.42959659001371
 20
18.00761301881905
 30
0.0
 11
11.43088209001371
 21
18.00762451881903
 31
0.0
  0
LINE
  5
393
330
2
100
AcDbEntity
  8
GAIKEI
  6
Continuous
 48
0.0062
370
    13
100
AcDbLine
 10
11.3985944650137
 20
18.00751389381904
 30
0.0
 11
11.42959659001371
 21
18.00761301881905
 31
0.0
  0
ARC
  5
394
330
2
100
AcDbEntity
  8
GAIKEI
  6
Continuous
370
    40
100
AcDbCircle
 10
11.4391943400137
 20
18.03670401881905
 30
0.0
 40
0.050002375
100
AcDbArc
 50
173.5549290000007
 51
215.7129779999996
  0
POLYLINE
  5
395
330
2
100
AcDbEntity
  8
GAIKEI
  6
Continuous
370
    40
100
AcDb2dPolyline
 66
     1
 10
0.0
 20
0.0
 30
0.0
  0
VERTEX
  5
396
330
395
100
AcDbEntity
  8
GAIKEI
  6
Continuous
370
     0
100
AcDbVertex
100
AcDb2dVertex
 10
11.3895078400137
 20
11.10290801881902
 30
0.0
  0
VERTEX
  5
397
330
395
100
AcDbEntity
  8
GAIKEI
  6
Continuous
370
     0
100
AcDbVertex
100
AcDb2dVertex
 10
11.4164702150137
 20
10.89687051881904
 30
0.0
  0
VERTEX
  5
398
330
395
100
AcDbEntity
  8
GAIKEI
  6
Continuous
370
     0
100
AcDbVertex
100
AcDb2dVertex
 10
11.4506803400137
 20
10.69187826881907
 30
0.0
  0
VERTEX
  5
399
330
395
100
AcDbEntity
  8
GAIKEI
  6
Continuous
370
     0
100
AcDbVertex
100
AcDb2dVertex
 10
11.49210421501371
 20
10.48805126881908
 30
0.0
  0
VERTEX
  5
39A
330
395
100
AcDbEntity
  8
GAIKEI
  6
Continuous
370
     0
100
AcDbVertex
100
AcDb2dVertex
 10
11.54069584001371
 20
10.28551189381906
 30
0.0
  0
VERTEX
  5
39B
330
395
100
AcDbEntity
  8
GAIKEI
  6
Continuous
370
     0
100
AcDbVertex
100
AcDb2dVertex
 10
11.5963865900137
 20
10.08437051881904
 30
0.0
  0
VERTEX
  5
39C
330
395
100
AcDbEntity
  8
GAIKEI
  6
Continuous
370
     0
100
AcDbVertex
100
AcDb2dVertex
 10
11.65910396501371
 20
9.884735893819055
 30
0.0
  0
VERTEX
  5
39D
330
395
100
AcDbEntity
  8
GAIKEI
  6
Continuous
370
     0
100
AcDbVertex
100
AcDb2dVertex
 10
11.72874509001371
 20
9.686713143819048
 30
0.0
  0
SEQEND
  5
39E
330
395
100
AcDbEntity
  8
GAIKEI
  6
Continuous
370
     0
  0
LINE
  5
39F
330
2
100
AcDbEntity
  8
GAIKEI
  6
Continuous
 48
0.006236
370
    13
100
AcDbLine
 10
11.42068546501372
 20
11.10316551881905
 30
0.0
 11
11.3895078400137
 21
11.10290801881902
 31
0.0
  0
LINE
  5
3A0
330
2
100
AcDbEntity
  8
GAIKEI
  6
Continuous
 48
0.000263
370
    13
100
AcDbLine
 10
11.4219977150137
 20
11.10319601881903
 30
0.0
 11
11.42068546501372
 21
11.10316551881905
 31
0.0
  0
LINE
  5
3A1
330
2
100
AcDbEntity
  8
GAIKEI
  6
Continuous
 48
0.000125
370
    13
100
AcDbLine
 10
11.42262321501371
 20
11.10321126881902
 30
0.0
 11
11.4219977150137
 21
11.10319601881903
 31
0.0
  0
POLYLINE
  5
3A2
330
2
100
AcDbEntity
  8
GAIKEI
  6
Continuous
 62
     1
370
    13
100
AcDb2dPolyline
 66
     1
 10
0.0
 20
0.0
 30
0.0
  0
VERTEX
  5
3A3
330
3A2
100
AcDbEntity
  8
GAIKEI
  6
Continuous
 62
     1
370
     0
100
AcDbVertex
100
AcDb2dVertex
 10
11.5748144650137
 20
10.67144864381905
 30
0.0
  0
VERTEX
  5
3A4
330
3A2
100
AcDbEntity
  8
GAIKEI
  6
Continuous
 62
     1
370
     0
100
AcDbVertex
100
AcDb2dVertex
 10
11.5657010900137
 20
10.73940364381903
 30
0.0
  0
VERTEX
  5
3A5
330
3A2
100
AcDbEntity
  8
GAIKEI
  6
Continuous
 62
     1
370
     0
100
AcDbVertex
100
AcDb2dVertex
 10
11.55476821501371
 20
10.80288214381906
 30
0.0
  0
VERTEX
  5
3A6
330
3A2
100
AcDbEntity
  8
GAIKEI
  6
Continuous
 62
     1
370
     0
100
AcDbVertex
100
AcDb2dVertex
 10
11.5428625900137
 20
10.85418789381904
 30
0.0
  0
VERTEX
  5
3A7
330
3A2
100
AcDbEntity
  8
GAIKEI
  6
Continuous
 62
     1
370
     0
100
AcDbVertex
100
AcDb2dVertex
 10
11.5337873400137
 20
10.87984926881907
 30
0.0
  0
VERTEX
  5
3A8
330
3A2
100
AcDbEntity
  8
GAIKEI
  6
Continuous
 62
     1
370
     0
100
AcDbVertex
100
AcDb2dVertex
 10
11.5297018400137
 20
10.88630376881903
 30
0.0
  0
VERTEX
  5
3A9
330
3A2
100
AcDbEntity
  8
GAIKEI
  6
Continuous
 62
     1
370
     0
100
AcDbVertex
100
AcDb2dVertex
 10
11.5280385900137
 20
10.88765614381904
 30
0.0
  0
VERTEX
  5
3AA
330
3A2
100
AcDbEntity
  8
GAIKEI
  6
Continuous
 62
     1
370
     0
100
AcDbVertex
100
AcDb2dVertex
 10
11.52724896501371
 20
10.88797464381903
 30
0.0
  0
VERTEX
  5
3AB
330
3A2
100
AcDbEntity
  8
GAIKEI
  6
Continuous
 62
     1
370
     0
100
AcDbVertex
100
AcDb2dVertex
 10
11.5261198400137
 20
10.88800139381905
 30
0.0
  0
VERTEX
  5
3AC
330
3A2
100
AcDbEntity
  8
GAIKEI
  6
Continuous
 62
     1
370
     0
100
AcDbVertex
100
AcDb2dVertex
 10
11.5245519650137
 20
10.88703814381907
 30
0.0
  0
VERTEX
  5
3AD
330
3A2
100
AcDbEntity
  8
GAIKEI
  6
Continuous
 62
     1
370
     0
100
AcDbVertex
100
AcDb2dVertex
 10
11.52319396501372
 20
10.88496101881904
 30
0.0
  0
VERTEX
  5
3AE
330
3A2
100
AcDbEntity
  8
GAIKEI
  6
Continuous
 62
     1
370
     0
100
AcDbVertex
100
AcDb2dVertex
 10
11.5209814650137
 20
10.87761776881908
 30
0.0
  0
VERTEX
  5
3AF
330
3A2
100
AcDbEntity
  8
GAIKEI
  6
Continuous
 62
     1
370
     0
100
AcDbVertex
100
AcDb2dVertex
 10
11.5194784650137
 20
10.86642351881906
 30
0.0
  0
VERTEX
  5
3B0
330
3A2
100
AcDbEntity
  8
GAIKEI
  6
Continuous
 62
     1
370
     0
100
AcDbVertex
100
AcDb2dVertex
 10
11.51850184001371
 20
10.83482451881903
 30
0.0
  0
VERTEX
  5
3B1
330
3A2
100
AcDbEntity
  8
GAIKEI
  6
Continuous
 62
     1
370
     0
100
AcDbVertex
100
AcDb2dVertex
 10
11.5225149650137
 20
10.75847714381908
 30
0.0
  0
VERTEX
  5
3B2
330
3A2
100
AcDbEntity
  8
GAIKEI
  6
Continuous
 62
     1
370
     0
100
AcDbVertex
100
AcDb2dVertex
 10
11.5320325900137
 20
10.67131126881904
 30
0.0
  0
SEQEND
  5
3B3
330
3A2
100
AcDbEntity
  8
GAIKEI
  6
Continuous
 62
     1
370
     0
  0
POLYLINE
  5
3B4
330
2
100
AcDbEntity
  8
GAIKEI
  6
Continuous
 62
     1
370
    13
100
AcDb2dPolyline
 66
     1
 10
0.0
 20
0.0
 30
0.0
  0
VERTEX
  5
3B5
330
3B4
100
AcDbEntity
  8
GAIKEI
  6
Continuous
 62
     1
370
     0
100
AcDbVertex
100
AcDb2dVertex
 10
11.5320325900137
 20
10.67131126881904
 30
0.0
  0
VERTEX
  5
3B6
330
3B4
100
AcDbEntity
  8
GAIKEI
  6
Continuous
 62
     1
370
     0
100
AcDbVertex
100
AcDb2dVertex
 10
11.54119546501371
 20
10.60872539381907
 30
0.0
  0
VERTEX
  5
3B7
330
3B4
100
AcDbEntity
  8
GAIKEI
  6
Continuous
 62
     1
370
     0
100
AcDbVertex
100
AcDb2dVertex
 10
11.55190334001371
 20
10.54877176881908
 30
0.0
  0
VERTEX
  5
3B8
330
3B4
100
AcDbEntity
  8
GAIKEI
  6
Continuous
 62
     1
370
     0
100
AcDbVertex
100
AcDb2dVertex
 10
11.56369846501371
 20
10.49595539381906
 30
0.0
  0
VERTEX
  5
3B9
330
3B4
100
AcDbEntity
  8
GAIKEI
  6
Continuous
 62
     1
370
     0
100
AcDbVertex
100
AcDb2dVertex
 10
11.56960359001371
 20
10.47524151881904
 30
0.0
  0
VERTEX
  5
3BA
330
3B4
100
AcDbEntity
  8
GAIKEI
  6
Continuous
 62
     1
370
     0
100
AcDbVertex
100
AcDb2dVertex
 10
11.5750967150137
 20
10.46076101881905
 30
0.0
  0
VERTEX
  5
3BB
330
3B4
100
AcDbEntity
  8
GAIKEI
  6
Continuous
 62
     1
370
     0
100
AcDbVertex
100
AcDb2dVertex
 10
11.5775724650137
 20
10.45637601881904
 30
0.0
  0
VERTEX
  5
3BC
330
3B4
100
AcDbEntity
  8
GAIKEI
  6
Continuous
 62
     1
370
     0
100
AcDbVertex
100
AcDb2dVertex
 10
11.57983071501371
 20
10.45407001881907
 30
0.0
  0
VERTEX
  5
3BD
330
3B4
100
AcDbEntity
  8
GAIKEI
  6
Continuous
 62
     1
370
     0
100
AcDbVertex
100
AcDb2dVertex
 10
11.58085696501371
 20
10.45373426881903
 30
0.0
  0
VERTEX
  5
3BE
330
3B4
100
AcDbEntity
  8
GAIKEI
  6
Continuous
 62
     1
370
     0
100
AcDbVertex
100
AcDb2dVertex
 10
11.58157784001371
 20
10.45383914381907
 30
0.0
  0
VERTEX
  5
3BF
330
3B4
100
AcDbEntity
  8
GAIKEI
  6
Continuous
 62
     1
370
     0
100
AcDbVertex
100
AcDb2dVertex
 10
11.58226071501371
 20
10.45424926881904
 30
0.0
  0
VERTEX
  5
3C0
330
3B4
100
AcDbEntity
  8
GAIKEI
  6
Continuous
 62
     1
370
     0
100
AcDbVertex
100
AcDb2dVertex
 10
11.5831037150137
 20
10.45526014381906
 30
0.0
  0
VERTEX
  5
3C1
330
3B4
100
AcDbEntity
  8
GAIKEI
  6
Continuous
 62
     1
370
     0
100
AcDbVertex
100
AcDb2dVertex
 10
11.58455334001371
 20
10.45882314381904
 30
0.0
  0
VERTEX
  5
3C2
330
3B4
100
AcDbEntity
  8
GAIKEI
  6
Continuous
 62
     1
370
     0
100
AcDbVertex
100
AcDb2dVertex
 10
11.58709396501371
 20
10.48030751881904
 30
0.0
  0
VERTEX
  5
3C3
330
3B4
100
AcDbEntity
  8
GAIKEI
  6
Continuous
 62
     1
370
     0
100
AcDbVertex
100
AcDb2dVertex
 10
11.58735334001372
 20
10.50673764381903
 30
0.0
  0
VERTEX
  5
3C4
330
3B4
100
AcDbEntity
  8
GAIKEI
  6
Continuous
 62
     1
370
     0
100
AcDbVertex
100
AcDb2dVertex
 10
11.5840955900137
 20
10.57470976881907
 30
0.0
  0
VERTEX
  5
3C5
330
3B4
100
AcDbEntity
  8
GAIKEI
  6
Continuous
 62
     1
370
     0
100
AcDbVertex
100
AcDb2dVertex
 10
11.5748144650137
 20
10.67144864381905
 30
0.0
  0
SEQEND
  5
3C6
330
3B4
100
AcDbEntity
  8
GAIKEI
  6
Continuous
 62
     1
370
     0
  0
LINE
  5
3C7
330
2
100
AcDbEntity
  8
GAIKEI
  6
Continuous
 48
0.000363
370
    13
100
AcDbLine
 10
11.4244390900137
 20
11.10325901881904
 30
0.0
 11
11.42262321501371
 21
11.10321126881902
 31
0.0
  0
POLYLINE
  5
3C8
330
2
100
AcDbEntity
  8
GAIKEI
  6
Continuous
370
    13
100
AcDb2dPolyline
 66
     1
 10
0.0
 20
0.0
 30
0.0
  0
VERTEX
  5
3C9
330
3C8
100
AcDbEntity
  8
GAIKEI
  6
Continuous
370
     0
100
AcDbVertex
100
AcDb2dVertex
 10
11.4244390900137
 20
11.10325901881904
 30
0.0
  0
VERTEX
  5
3CA
330
3C8
100
AcDbEntity
  8
GAIKEI
  6
Continuous
370
     0
100
AcDbVertex
100
AcDb2dVertex
 10
11.4263197150137
 20
11.10356039381904
 30
0.0
  0
VERTEX
  5
3CB
330
3C8
100
AcDbEntity
  8
GAIKEI
  6
Continuous
370
     0
100
AcDbVertex
100
AcDb2dVertex
 10
11.42726196501371
 20
11.10414214381902
 30
0.0
  0
VERTEX
  5
3CC
330
3C8
100
AcDbEntity
  8
GAIKEI
  6
Continuous
370
     0
100
AcDbVertex
100
AcDb2dVertex
 10
11.42864284001371
 20
11.10597689381907
 30
0.0
  0
VERTEX
  5
3CD
330
3C8
100
AcDbEntity
  8
GAIKEI
  6
Continuous
370
     0
100
AcDbVertex
100
AcDb2dVertex
 10
11.4305693400137
 20
11.11170476881906
 30
0.0
  0
VERTEX
  5
3CE
330
3C8
100
AcDbEntity
  8
GAIKEI
  6
Continuous
370
     0
100
AcDbVertex
100
AcDb2dVertex
 10
11.4329610900137
 20
11.12901389381906
 30
0.0
  0
SEQEND
  5
3CF
330
3C8
100
AcDbEntity
  8
GAIKEI
  6
Continuous
370
     0
  0
POLYLINE
  5
3D0
330
2
100
AcDbEntity
  8
GAIKEI
  6
Continuous
370
    13
100
AcDb2dPolyline
 66
     1
 10
0.0
 20
0.0
 30
0.0
  0
VERTEX
  5
3D1
330
3D0
100
AcDbEntity
  8
GAIKEI
  6
Continuous
370
     0
100
AcDbVertex
100
AcDb2dVertex
 10
11.4329610900137
 20
11.12901389381906
 30
0.0
  0
VERTEX
  5
3D2
330
3D0
100
AcDbEntity
  8
GAIKEI
  6
Continuous
370
     0
100
AcDbVertex
100
AcDb2dVertex
 10
11.43467009001371
 20
11.16104401881907
 30
0.0
  0
VERTEX
  5
3D3
330
3D0
100
AcDbEntity
  8
GAIKEI
  6
Continuous
370
     0
100
AcDbVertex
100
AcDb2dVertex
 10
11.43517746501371
 20
11.26684851881904
 30
0.0
  0
VERTEX
  5
3D4
330
3D0
100
AcDbEntity
  8
GAIKEI
  6
Continuous
370
     0
100
AcDbVertex
100
AcDb2dVertex
 10
11.43346459001371
 20
11.36578639381903
 30
0.0
  0
VERTEX
  5
3D5
330
3D0
100
AcDbEntity
  8
GAIKEI
  6
Continuous
370
     0
100
AcDbVertex
100
AcDb2dVertex
 10
11.4226499650137
 20
11.69268889381905
 30
0.0
  0
SEQEND
  5
3D6
330
3D0
100
AcDbEntity
  8
GAIKEI
  6
Continuous
370
     0
  0
LINE
  5
3D7
330
2
100
AcDbEntity
  8
GAIKEI
  6
Continuous
 48
0.057922
370
    13
100
AcDbLine
 10
11.4226499650137
 20
11.69268889381905
 30
0.0
 11
11.41080534001371
 21
11.98205464381905
 31
0.0
  0
ARC
  5
3D8
330
2
100
AcDbEntity
  8
GAIKEI
  6
Continuous
370
    13
100
AcDbCircle
 10
42.9429632150137
 20
13.16321264381903
 30
0.0
 40
31.5543025
100
AcDbArc
 50
181.3375240000005
 51
182.1452339999997
  0
LINE
  5
3D9
330
2
100
AcDbEntity
  8
GAIKEI
  6
Continuous
 48
0.004399
370
    13
100
AcDbLine
 10
11.3966680900137
 20
12.44865889381904
 30
0.0
 11
11.39721734001369
 21
12.42667089381908
 31
0.0
  0
LINE
  5
3DA
330
2
100
AcDbEntity
  8
GAIKEI
  6
Continuous
 48
0.013066
370
    13
100
AcDbLine
 10
11.39506584001371
 20
12.51397026881906
 30
0.0
 11
11.3966680900137
 21
12.44865889381904
 31
0.0
  0
LINE
  5
3DB
330
2
100
AcDbEntity
  8
GAIKEI
  6
Continuous
 48
0.000157
370
    13
100
AcDbLine
 10
11.37028946501371
 20
14.51371664381904
 30
0.0
 11
11.37028946501371
 21
14.51293076881907
 31
0.0
  0
LINE
  5
3DC
330
2
100
AcDbEntity
  8
GAIKEI
  6
Continuous
 48
0.02356
370
    13
100
AcDbLine
 10
11.37028946501371
 20
14.63151064381904
 30
0.0
 11
11.37028946501371
 21
14.51371276881903
 31
0.0
  0
LINE
  5
3DD
330
2
100
AcDbEntity
  8
GAIKEI
  6
Continuous
 48
0.000156
370
    13
100
AcDbLine
 10
11.37028946501371
 20
14.63229264381905
 30
0.0
 11
11.37028946501371
 21
14.63151064381904
 31
0.0
  0
LINE
  5
3DE
330
2
100
AcDbEntity
  8
GAIKEI
  6
Continuous
 48
0.013066
370
    13
100
AcDbLine
 10
11.3966680900137
 20
16.69656264381902
 30
0.0
 11
11.39506584001371
 21
16.63125126881906
 31
0.0
  0
LINE
  5
3DF
330
2
100
AcDbEntity
  8
GAIKEI
  6
Continuous
 48
0.0044
370
    13
100
AcDbLine
 10
11.3966680900137
 20
16.69656264381902
 30
0.0
 11
11.39721734001369
 21
16.71855439381906
 31
0.0
  0
ARC
  5
3E0
330
2
100
AcDbEntity
  8
GAIKEI
  6
Continuous
370
    13
100
AcDbCircle
 10
42.9073492150137
 20
15.98259251881907
 30
0.0
 40
31.518686875
100
AcDbArc
 50
177.8533989999995
 51
178.6620259999996
  0
LINE
  5
3E1
330
2
100
AcDbEntity
  8
GAIKEI
  6
Continuous
 48
0.057922
370
    13
100
AcDbLine
 10
11.4108092150137
 20
17.16316876881907
 30
0.0
 11
11.42265384001371
 21
17.45253651881907
 31
0.0
  0
POLYLINE
  5
3E2
330
2
100
AcDbEntity
  8
GAIKEI
  6
Continuous
370
    13
100
AcDb2dPolyline
 66
     1
 10
0.0
 20
0.0
 30
0.0
  0
VERTEX
  5
3E3
330
3E2
100
AcDbEntity
  8
GAIKEI
  6
Continuous
370
     0
100
AcDbVertex
100
AcDb2dVertex
 10
11.42265384001371
 20
17.45253651881907
 30
0.0
  0
VERTEX
  5
3E4
330
3E2
100
AcDbEntity
  8
GAIKEI
  6
Continuous
370
     0
100
AcDbVertex
100
AcDb2dVertex
 10
11.4329000900137
 20
17.75582401881903
 30
0.0
  0
VERTEX
  5
3E5
330
3E2
100
AcDbEntity
  8
GAIKEI
  6
Continuous
370
     0
100
AcDbVertex
100
AcDb2dVertex
 10
11.43519271501371
 20
17.88013739381907
 30
0.0
  0
VERTEX
  5
3E6
330
3E2
100
AcDbEntity
  8
GAIKEI
  6
Continuous
370
     0
100
AcDbVertex
100
AcDb2dVertex
 10
11.4346509650137
 20
17.98454564381907
 30
0.0
  0
VERTEX
  5
3E7
330
3E2
100
AcDbEntity
  8
GAIKEI
  6
Continuous
370
     0
100
AcDbVertex
100
AcDb2dVertex
 10
11.43295346501371
 20
18.01621139381907
 30
0.0
  0
SEQEND
  5
3E8
330
3E2
100
AcDbEntity
  8
GAIKEI
  6
Continuous
370
     0
  0
POLYLINE
  5
3E9
330
2
100
AcDbEntity
  8
GAIKEI
  6
Continuous
370
    13
100
AcDb2dPolyline
 66
     1
 10
0.0
 20
0.0
 30
0.0
  0
VERTEX
  5
3EA
330
3E9
100
AcDbEntity
  8
GAIKEI
  6
Continuous
370
     0
100
AcDbVertex
100
AcDb2dVertex
 10
11.43295346501371
 20
18.01621139381907
 30
0.0
  0
VERTEX
  5
3EB
330
3E9
100
AcDbEntity
  8
GAIKEI
  6
Continuous
370
     0
100
AcDbVertex
100
AcDb2dVertex
 10
11.4305654650137
 20
18.03351101881904
 30
0.0
  0
VERTEX
  5
3EC
330
3E9
100
AcDbEntity
  8
GAIKEI
  6
Continuous
370
     0
100
AcDbVertex
100
AcDb2dVertex
 10
11.42863909001372
 20
18.03924076881904
 30
0.0
  0
VERTEX
  5
3ED
330
3E9
100
AcDbEntity
  8
GAIKEI
  6
Continuous
370
     0
100
AcDbVertex
100
AcDb2dVertex
 10
11.42726196501371
 20
18.04107564381903
 30
0.0
  0
VERTEX
  5
3EE
330
3E9
100
AcDbEntity
  8
GAIKEI
  6
Continuous
370
     0
100
AcDbVertex
100
AcDb2dVertex
 10
11.4263197150137
 20
18.04166301881904
 30
0.0
  0
VERTEX
  5
3EF
330
3E9
100
AcDbEntity
  8
GAIKEI
  6
Continuous
370
     0
100
AcDbVertex
100
AcDb2dVertex
 10
11.4244390900137
 20
18.04196439381903
 30
0.0
  0
SEQEND
  5
3F0
330
3E9
100
AcDbEntity
  8
GAIKEI
  6
Continuous
370
     0
  0
LINE
  5
3F1
330
2
100
AcDbEntity
  8
GAIKEI
  6
Continuous
 48
0.000363
370
    13
100
AcDbLine
 10
11.42262321501371
 20
18.04201014381905
 30
0.0
 11
11.4244390900137
 21
18.04196439381903
 31
0.0
  0
LINE
  5
3F2
330
2
100
AcDbEntity
  8
GAIKEI
  6
Continuous
 48
0.000125
370
    13
100
AcDbLine
 10
11.4219977150137
 20
18.04202551881903
 30
0.0
 11
11.42262321501371
 21
18.04201014381905
 31
0.0
  0
LINE
  5
3F3
330
2
100
AcDbEntity
  8
GAIKEI
  6
Continuous
 48
0.000263
370
    13
100
AcDbLine
 10
11.42068546501372
 20
18.04205601881907
 30
0.0
 11
11.4219977150137
 21
18.04202551881903
 31
0.0
  0
LINE
  5
3F4
330
2
100
AcDbEntity
  8
GAIKEI
  6
Continuous
 48
0.006236
370
    13
100
AcDbLine
 10
11.3895078400137
 20
18.04231539381905
 30
0.0
 11
11.42068546501372
 21
18.04205601881907
 31
0.0
  0
ARC
  5
3F5
330
2
100
AcDbEntity
  8
GAIKEI
  6
Continuous
370
    40
100
AcDbCircle
 10
17.2491193400137
 20
17.38030901881908
 30
0.0
 40
5.896889749999999
100
AcDbArc
 50
171.4695089999993
 51
173.5541779999997
  0
LINE
  5
3F6
330
2
100
AcDbEntity
  8
GAIKEI
  6
Continuous
 48
0.001151
370
    13
100
AcDbLine
 10
11.7310568400137
 20
9.691985018819053
 30
0.0
 11
11.72874509001371
 21
9.686713143819048
 31
0.0
  0
ARC
  5
3F7
330
2
100
AcDbEntity
  8
GAIKEI
  6
Continuous
370
    40
100
AcDbCircle
 10
11.8225332150137
 20
9.721486018819035
 30
0.0
 40
0.100028875
100
AcDbArc
 50
200.343085
 51
266.9895440000021
  0
LINE
  5
3F8
330
2
100
AcDbEntity
  8
GAIKEI
  6
Continuous
 48
0.000052
370
    13
100
AcDbLine
 10
11.73114459001371
 20
9.692227268819038
 30
0.0
 11
11.7310568400137
 21
9.691985018819053
 31
0.0
  0
LINE
  5
3F9
330
2
100
AcDbEntity
  8
GAIKEI
  6
Continuous
 48
0.000607
370
    13
100
AcDbLine
 10
11.73181971501371
 20
9.695183643819035
 30
0.0
 11
11.73114459001371
 21
9.692227268819038
 31
0.0
  0
POLYLINE
  5
3FA
330
2
100
AcDbEntity
  8
GAIKEI
  6
Continuous
370
    13
100
AcDb2dPolyline
 66
     1
 10
0.0
 20
0.0
 30
0.0
  0
VERTEX
  5
3FB
330
3FA
100
AcDbEntity
  8
GAIKEI
  6
Continuous
370
     0
100
AcDbVertex
100
AcDb2dVertex
 10
11.7314688400137
 20
11.00596126881905
 30
0.0
  0
VERTEX
  5
3FC
330
3FA
100
AcDbEntity
  8
GAIKEI
  6
Continuous
370
     0
100
AcDbVertex
100
AcDb2dVertex
 10
11.73442134001371
 20
10.51146014381905
 30
0.0
  0
VERTEX
  5
3FD
330
3FA
100
AcDbEntity
  8
GAIKEI
  6
Continuous
370
     0
100
AcDbVertex
100
AcDb2dVertex
 10
11.73550471501372
 20
10.06434714381905
 30
0.0
  0
VERTEX
  5
3FE
330
3FA
100
AcDbEntity
  8
GAIKEI
  6
Continuous
370
     0
100
AcDbVertex
100
AcDb2dVertex
 10
11.7348295900137
 20
9.815985518819076
 30
0.0
  0
VERTEX
  5
3FF
330
3FA
100
AcDbEntity
  8
GAIKEI
  6
Continuous
370
     0
100
AcDbVertex
100
AcDb2dVertex
 10
11.73380721501371
 20
9.738318393819071
 30
0.0
  0
VERTEX
  5
400
330
3FA
100
AcDbEntity
  8
GAIKEI
  6
Continuous
370
     0
100
AcDbVertex
100
AcDb2dVertex
 10
11.73181971501371
 20
9.695183643819035
 30
0.0
  0
SEQEND
  5
401
330
3FA
100
AcDbEntity
  8
GAIKEI
  6
Continuous
370
     0
  0
LINE
  5
402
330
2
100
AcDbEntity
  8
GAIKEI
  6
Continuous
 48
0.032799
370
    13
100
AcDbLine
 10
11.7307707150137
 20
11.16995701881902
 30
0.0
 11
11.7314688400137
 21
11.00596126881905
 31
0.0
  0
POLYLINE
  5
403
330
2
100
AcDbEntity
  8
GAIKEI
  6
Continuous
 62
     1
370
    13
100
AcDb2dPolyline
 66
     1
 10
0.0
 20
0.0
 30
0.0
  0
VERTEX
  5
404
330
403
100
AcDbEntity
  8
GAIKEI
  6
Continuous
 62
     1
370
     0
100
AcDbVertex
100
AcDb2dVertex
 10
11.82189996501371
 20
11.00481689381902
 30
0.0
  0
VERTEX
  5
405
330
403
100
AcDbEntity
  8
GAIKEI
  6
Continuous
 62
     1
370
     0
100
AcDbVertex
100
AcDb2dVertex
 10
11.75789321501371
 20
11.00498851881903
 30
0.0
  0
VERTEX
  5
406
330
403
100
AcDbEntity
  8
GAIKEI
  6
Continuous
 62
     1
370
     0
100
AcDbVertex
100
AcDb2dVertex
 10
11.7314688400137
 20
11.00596126881905
 30
0.0
  0
SEQEND
  5
407
330
403
100
AcDbEntity
  8
GAIKEI
  6
Continuous
 62
     1
370
     0
  0
LINE
  5
408
330
2
100
AcDbEntity
  8
GAIKEI
  6
Continuous
 48
0.011051
370
    13
100
AcDbLine
 10
11.73067909001371
 20
11.22520914381905
 30
0.0
 11
11.7307707150137
 21
11.16995514381907
 31
0.0
  0
ARC
  5
409
330
2
100
AcDbEntity
  8
GAIKEI
  6
Continuous
370
    13
100
AcDbCircle
 10
1813.991402215014
 20
13.87211126881905
 30
0.0
 40
1802.26286975
100
AcDbArc
 50
179.9810029999993
 51
180.0841429999996
  0
LINE
  5
40A
330
2
100
AcDbEntity
  8
GAIKEI
  6
Continuous
 48
0.041162
370
    13
100
AcDbLine
 10
11.72874134001371
 20
14.67551701881908
 30
0.0
 11
11.72874134001371
 21
14.46970639381905
 31
0.0
  0
ARC
  5
40B
330
2
100
AcDbEntity
  8
GAIKEI
  6
Continuous
370
    13
100
AcDbCircle
 10
1933.612251840014
 20
15.22873964381907
 30
0.0
 40
1921.88368825
100
AcDbArc
 50
179.9283970000001
 51
180.0164970000002
  0
LINE
  5
40C
330
2
100
AcDbEntity
  8
GAIKEI
  6
Continuous
 48
0.000835
370
    40
100
AcDbLine
 10
11.82144984001371
 20
9.621378768819027
 30
0.0
 11
11.81728046501371
 21
9.621596268819047
 31
0.0
  0
LINE
  5
40D
330
2
100
AcDbEntity
  8
GAIKEI
  6
Continuous
 48
0.000033
370
    40
100
AcDbLine
 10
11.82161384001371
 20
9.621369268819051
 30
0.0
 11
11.82144984001371
 21
9.621378768819027
 31
0.0
  0
LINE
  5
40E
330
2
100
AcDbEntity
  8
GAIKEI
  6
Continuous
 48
0.186326
370
    40
100
AcDbLine
 10
11.82161384001371
 20
9.621369268819051
 30
0.0
 11
12.7519689650137
 21
9.572611643819044
 31
0.0
  0
ARC
  5
40F
330
2
100
AcDbEntity
  8
GAIKEI
  6
Continuous
370
    13
100
AcDbCircle
 10
11.8209539650137
 20
9.622614768819033
 30
0.0
 40
0.00145525
100
AcDbArc
 50
297.826249999998
 51
12.90376400000017
  0
LINE
  5
410
330
2
100
AcDbEntity
  8
GAIKEI
  6
Continuous
 62
     1
 48
0.01273
370
    13
100
AcDbLine
 10
11.82189996501371
 20
11.00481689381902
 30
0.0
 11
11.88551384001371
 21
11.00261389381907
 31
0.0
  0
LINE
  5
411
330
2
100
AcDbEntity
  8
GAIKEI
  6
Continuous
 48
0.005535
370
    40
100
AcDbLine
 10
12.7243314650137
 20
9.574059393819055
 30
0.0
 11
12.7519689650137
 21
9.572611643819044
 31
0.0
  0
LINE
  5
412
330
2
100
AcDbEntity
  8
GAIKEI
  6
Continuous
 48
0.035168
370
    40
100
AcDbLine
 10
12.7519689650137
 20
9.572611643819044
 30
0.0
 11
12.7519689650137
 21
9.748454018819046
 31
0.0
  0
ARC
  5
413
330
2
100
AcDbEntity
  8
GAIKEI
  6
Continuous
370
    40
100
AcDbCircle
 10
12.4019704650137
 20
14.57261164381904
 30
0.0
 40
3.050000499999999
100
AcDbArc
 50
108.7249930000001
 51
251.2749309999999
  0
POINT
  5
414
330
2
100
AcDbEntity
  8
GAIKEI
  6
Continuous
370
     5
100
AcDbPoint
 10
9.351971215013705
 20
14.57261164381904
 30
0.0
  0
POINT
  5
415
330
2
100
AcDbEntity
  8
GAIKEI
  6
Continuous
370
     5
100
AcDbPoint
 10
8.917076715013706
 20
20.08433039381904
 30
0.0
  0
ARC
  5
416
330
2
100
AcDbEntity
  8
GAIKEI
  6
Continuous
 62
     1
370
    40
100
AcDbCircle
 10
-20.28191086137524
 20
10.68418589381903
 30
0.0
 40
0.0999775
100
AcDbArc
 50
179.9960980000006
 51
270.0038910000018
  0
LINE
  5
417
330
2
100
AcDbEntity
  8
GAIKEI
  6
Continuous
 62
     1
 48
0.087709
370
    40
100
AcDbLine
 10
-20.38189023637524
 20
11.12274064381907
 30
0.0
 11
-20.38189023637524
 21
10.68419351881906
 31
0.0
  0
ARC
  5
418
330
2
100
AcDbEntity
  8
GAIKEI
  6
Continuous
 62
     1
370
    40
100
AcDbCircle
 10
-20.28191273637523
 20
11.12274639381903
 30
0.0
 40
0.099976875
100
AcDbArc
 50
108.4043640000002
 51
180.0040929999991
  0
ARC
  5
419
330
2
100
AcDbEntity
  8
GAIKEI
  6
Continuous
 62
     1
370
    40
100
AcDbCircle
 10
-16.81347361137523
 20
9.922612143819065
 30
0.0
 40
0.4659385000000001
100
AcDbArc
 50
228.692522999999
 51
311.3079429999979
  0
ARC
  5
41A
330
2
100
AcDbEntity
  8
GAIKEI
  6
Continuous
 62
     1
370
    40
100
AcDbCircle
 10
-13.81347361137523
 20
9.922612143819065
 30
0.0
 40
0.4659385000000001
100
AcDbArc
 50
228.692522999999
 51
311.3074819999996
  0
LINE
  5
41B
330
2
100
AcDbEntity
  8
GAIKEI
  6
Continuous
 62
     1
 48
0.004684
370
    40
100
AcDbLine
 10
-20.25848673637523
 20
10.58420839381907
 30
0.0
 11
-20.28190511137524
 21
10.58420839381907
 31
0.0
  0
ARC
  5
41C
330
2
100
AcDbEntity
  8
GAIKEI
  6
Continuous
 62
     1
370
    40
100
AcDbCircle
 10
-10.34503648637523
 20
11.12274639381903
 30
0.0
 40
0.09997675
100
AcDbArc
 50
359.9958210000004
 51
71.59894000000026
  0
LINE
  5
41D
330
2
100
AcDbEntity
  8
GAIKEI
  6
Continuous
 62
     1
 48
0.087709
370
    40
100
AcDbLine
 10
-10.24505711137523
 20
10.68419351881906
 30
0.0
 11
-10.24505711137523
 21
11.12274064381907
 31
0.0
  0
ARC
  5
41E
330
2
100
AcDbEntity
  8
GAIKEI
  6
Continuous
 62
     1
370
    40
100
AcDbCircle
 10
-10.34503648637523
 20
10.68418589381903
 30
0.0
 40
0.0999775
100
AcDbArc
 50
269.9960909999989
 51
0.0038929999997375
  0
LINE
  5
41F
330
2
100
AcDbEntity
  8
GAIKEI
  6
Continuous
 62
     1
 48
0.00456
370
    40
100
AcDbLine
 10
-10.34504411137523
 20
10.58420839381907
 30
0.0
 11
-10.36784448637523
 21
10.58420839381907
 31
0.0
  0
LINE
  5
420
330
2
100
AcDbEntity
  8
GAIKEI
  6
Continuous
 48
0.161245
370
    40
100
AcDbLine
 10
-11.10224623637523
 20
8.972611268819065
 30
0.0
 11
-11.20224473637523
 21
8.172610143819071
 31
0.0
  0
LINE
  5
421
330
2
100
AcDbEntity
  8
GAIKEI
  6
Continuous
 48
0.038197
370
    40
100
AcDbLine
 10
-11.20224473637523
 20
8.172610143819071
 30
0.0
 11
-11.39322748637524
 21
8.172610143819071
 31
0.0
  0
LINE
  5
422
330
2
100
AcDbEntity
  8
GAIKEI
  6
Continuous
 48
0.361803
370
    40
100
AcDbLine
 10
-11.39322748637524
 20
8.172610143819071
 30
0.0
 11
-13.20224473637523
 21
8.172610143819071
 31
0.0
  0
LINE
  5
423
330
2
100
AcDbEntity
  8
GAIKEI
  6
Continuous
 48
0.161245
370
    40
100
AcDbLine
 10
-13.20224473637523
 20
8.172610143819071
 30
0.0
 11
-13.30224698637524
 21
8.972611268819065
 31
0.0
  0
LINE
  5
424
330
2
100
AcDbEntity
  8
GAIKEI
  6
Continuous
 48
0.147903
370
    40
100
AcDbLine
 10
-11.10224623637523
 20
9.712128518819071
 30
0.0
 11
-11.10224623637523
 21
8.972611268819065
 31
0.0
  0
LINE
  5
425
330
2
100
AcDbEntity
  8
GAIKEI
  6
Continuous
 62
     1
 48
0.397984
370
    40
100
AcDbLine
 10
-11.10224623637523
 20
8.972611268819065
 30
0.0
 11
-13.30224698637524
 21
8.972611268819065
 31
0.0
  0
LINE
  5
426
330
2
100
AcDbEntity
  8
GAIKEI
  6
Continuous
 48
0.119999
370
    40
100
AcDbLine
 10
-13.30224698637524
 20
8.972611268819065
 30
0.0
 11
-13.30224698637524
 21
9.572606018819072
 31
0.0
  0
ARC
  5
427
330
2
100
AcDbEntity
  8
GAIKEI
  6
Continuous
 62
     1
370
    40
100
AcDbCircle
 10
-17.82370086137524
 20
20.07563289381906
 30
0.0
 40
0.103712375
100
AcDbArc
 50
90.86866599999959
 51
117.7112070000019
  0
LINE
  5
428
330
2
100
AcDbEntity
  8
GAIKEI
  6
Continuous
 62
     1
 48
0.001397
370
    13
100
AcDbLine
 10
-17.89648911137523
 20
20.13267026881905
 30
0.0
 11
-17.90347386137523
 21
20.13255201881904
 31
0.0
  0
ARC
  5
429
330
2
100
AcDbEntity
  8
GAIKEI
  6
Continuous
 62
     1
370
    40
100
AcDbCircle
 10
-17.82464686137524
 20
20.07886401881902
 30
0.0
 40
0.100395625
100
AcDbArc
 50
90.3564839999996
 51
141.7955600000003
  0
ARC
  5
42A
330
2
100
AcDbEntity
  8
GAIKEI
  6
Continuous
 62
     1
370
    40
100
AcDbCircle
 10
-17.82103061137523
 20
20.07771964381905
 30
0.0
 40
0.103872875
100
AcDbArc
 50
142.5331659999989
 51
148.1283620000013
  0
LINE
  5
42B
330
2
100
AcDbEntity
  8
GAIKEI
  6
Continuous
 62
     1
 48
0.001545
370
    40
100
AcDbLine
 10
-17.90794461137523
 20
20.13460439381905
 30
0.0
 11
-17.90347386137523
 21
20.14090626881907
 31
0.0
  0
LINE
  5
42C
330
2
100
AcDbEntity
  8
GAIKEI
  6
Continuous
 62
     1
 48
0.13238
370
    40
100
AcDbLine
 10
-17.16347211137523
 20
20.19091314381908
 30
0.0
 11
-17.82527248637524
 21
20.17933926881906
 31
0.0
  0
LINE
  5
42D
330
2
100
AcDbEntity
  8
GAIKEI
  6
Continuous
 62
     1
 48
0.13238
370
    40
100
AcDbLine
 10
-17.16347211137523
 20
20.19091314381908
 30
0.0
 11
-17.82527248637524
 21
20.17933926881906
 31
0.0
  0
ARC
  5
42E
330
2
100
AcDbEntity
  8
GAIKEI
  6
Continuous
 62
     1
370
    40
100
AcDbCircle
 10
-17.16383836137524
 20
20.09078114381904
 30
0.0
 40
0.101255125
100
AcDbArc
 50
31.39992699999946
 51
37.50528899999945
  0
ARC
  5
42F
330
2
100
AcDbEntity
  8
GAIKEI
  6
Continuous
 62
     1
370
    40
100
AcDbCircle
 10
-17.16243448637525
 20
20.09031951881903
 30
0.0
 40
0.100513375
100
AcDbArc
 50
38.20076000000119
 51
90.59211199999849
  0
ARC
  5
430
330
2
100
AcDbEntity
  8
GAIKEI
  6
Continuous
 62
     1
370
    40
100
AcDbCircle
 10
-17.16347211137523
 20
20.09261214381902
 30
0.0
 40
0.1
100
AcDbArc
 50
23.54148999999921
 51
30.61244000000098
  0
ARC
  5
431
330
2
100
AcDbEntity
  8
GAIKEI
  6
Continuous
 62
     1
370
    40
100
AcDbCircle
 10
-17.16243448637525
 20
20.09031951881903
 30
0.0
 40
0.100513375
100
AcDbArc
 50
38.20076000000119
 51
90.59211199999849
  0
ARC
  5
432
330
2
100
AcDbEntity
  8
GAIKEI
  6
Continuous
 62
     1
370
    40
100
AcDbCircle
 10
-17.16383836137524
 20
20.09078114381904
 30
0.0
 40
0.101255125
100
AcDbArc
 50
31.39992699999946
 51
37.50528899999945
  0
LINE
  5
433
330
2
100
AcDbEntity
  8
GAIKEI
  6
Continuous
 48
0.050896
370
    40
100
AcDbLine
 10
-16.50544596133582
 20
20.13255964381906
 30
0.0
 11
-16.51347436137524
 21
20.59261214381903
 31
0.0
  0
LINE
  5
434
330
2
100
AcDbEntity
  8
GAIKEI
  6
Continuous
 48
0.050896
370
    40
100
AcDbLine
 10
-14.1215014874267
 20
20.13255964381906
 30
0.0
 11
-14.11347286137524
 21
20.59261214381903
 31
0.0
  0
LINE
  5
435
330
2
100
AcDbEntity
  8
GAIKEI
  6
Continuous
 48
0.019826
370
    40
100
AcDbLine
 10
-14.11520473637523
 20
20.69172564381907
 30
0.0
 11
-14.11347286137524
 21
20.59261214381903
 31
0.0
  0
LINE
  5
436
330
2
100
AcDbEntity
  8
GAIKEI
  6
Continuous
 48
0.019826
370
    40
100
AcDbLine
 10
-16.51174248637522
 20
20.69172564381907
 30
0.0
 11
-16.51347436137524
 21
20.59261214381903
 31
0.0
  0
LINE
  5
437
330
2
100
AcDbEntity
  8
GAIKEI
  6
Continuous
 48
0.014393
370
    40
100
AcDbLine
 10
-14.16609286137523
 20
20.74261364381905
 30
0.0
 11
-14.11520473637523
 21
20.69172564381907
 31
0.0
  0
LINE
  5
438
330
2
100
AcDbEntity
  8
GAIKEI
  6
Continuous
 48
0.014393
370
    40
100
AcDbLine
 10
-16.46085448637524
 20
20.74261364381905
 30
0.0
 11
-16.51174248637522
 21
20.69172564381907
 31
0.0
  0
LINE
  5
439
330
2
100
AcDbEntity
  8
GAIKEI
  6
Continuous
 48
0.000033
370
    40
100
AcDbLine
 10
-14.11536873637524
 20
20.69172564381907
 30
0.0
 11
-14.11520473637523
 21
20.69172564381907
 31
0.0
  0
LINE
  5
43A
330
2
100
AcDbEntity
  8
GAIKEI
  6
Continuous
 48
0.000031
370
    40
100
AcDbLine
 10
-14.16624923637523
 20
20.74261364381905
 30
0.0
 11
-14.16609286137523
 21
20.74261364381905
 31
0.0
  0
LINE
  5
43B
330
2
100
AcDbEntity
  8
GAIKEI
  6
Continuous
 62
     1
 48
0.430861
370
    40
100
AcDbLine
 10
-16.46085448637524
 20
20.74261364381905
 30
0.0
 11
-14.16624923637523
 21
20.74261364381905
 31
0.0
  0
LINE
  5
43C
330
2
100
AcDbEntity
  8
GAIKEI
  6
Continuous
 48
0.000686
370
    40
100
AcDbLine
 10
-10.12953661137524
 20
27.64247401881906
 30
0.0
 11
-10.12611098637524
 21
27.64261139381907
 31
0.0
  0
LINE
  5
43D
330
2
100
AcDbEntity
  8
GAIKEI
  6
Continuous
 48
0.000207
370
    40
100
AcDbLine
 10
-20.49980061137524
 20
27.64260376881904
 30
0.0
 11
-20.50083636137523
 21
27.64261139381907
 31
0.0
  0
LINE
  5
43E
330
2
100
AcDbEntity
  8
GAIKEI
  6
Continuous
 48
0.000686
370
    40
100
AcDbLine
 10
-10.12953661137524
 20
27.64247401881906
 30
0.0
 11
-10.12611098637524
 21
27.64261139381907
 31
0.0
  0
LINE
  5
43F
330
2
100
AcDbEntity
  8
GAIKEI
  6
Continuous
 48
0.000056
370
    40
100
AcDbLine
 10
-14.26375286137524
 20
27.64261526881907
 30
0.0
 11
-14.26347436137524
 21
27.64261139381907
 31
0.0
  0
ARC
  5
440
330
2
100
AcDbEntity
  8
GAIKEI
  6
Continuous
370
    40
100
AcDbCircle
 10
-9.870991611375245
 20
27.59261214381903
 30
0.0
 40
0.05
100
AcDbArc
 50
0.0
 51
89.4369080000021
  0
LINE
  5
441
330
2
100
AcDbEntity
  8
GAIKEI
  6
Continuous
 48
0.014924
370
    40
100
AcDbLine
 10
-14.18847361137523
 20
20.74261364381905
 30
0.0
 11
-14.13570873637523
 21
20.79537851881903
 31
0.0
  0
ARC
  5
442
330
2
100
AcDbEntity
  8
GAIKEI
  6
Continuous
370
    40
100
AcDbCircle
 10
-9.870991611375245
 20
27.59261214381903
 30
0.0
 40
0.050000375
100
AcDbArc
 50
352.0000260000002
 51
359.9999739999993
  0
ARC
  5
443
330
2
100
AcDbEntity
  8
GAIKEI
  6
Continuous
 62
     1
370
    40
100
AcDbCircle
 10
-15.57883548637522
 20
25.33970914381908
 30
0.0
 40
0.01999575
100
AcDbArc
 50
192.7429969999993
 51
268.4881209999976
  0
LINE
  5
444
330
2
100
AcDbEntity
  8
GAIKEI
  6
Continuous
 48
0.014924
370
    40
100
AcDbLine
 10
-16.43847361137523
 20
20.74261364381905
 30
0.0
 11
-16.49123848637524
 21
20.79537851881903
 31
0.0
  0
LINE
  5
445
330
2
100
AcDbEntity
  8
GAIKEI
  6
Continuous
370
    40
100
AcDbLine
 10
-14.13570873637523
 20
20.79537851881903
 30
0.0
 11
-13.93333911137523
 21
24.65678301881903
 31
0.0
  0
ARC
  5
446
330
2
100
AcDbEntity
  8
GAIKEI
  6
Continuous
370
    40
100
AcDbCircle
 10
-20.75595561137524
 20
27.59261214381903
 30
0.0
 40
0.05
100
AcDbArc
 50
90.56308999999947
 51
180.0000050000005
  0
ARC
  5
447
330
2
100
AcDbEntity
  8
GAIKEI
  6
Continuous
370
    40
100
AcDbCircle
 10
-20.75595561137524
 20
27.59261214381903
 30
0.0
 40
0.050000375
100
AcDbArc
 50
180.0000219999999
 51
187.9999770000003
  0
LINE
  5
448
330
2
100
AcDbEntity
  8
GAIKEI
  6
Continuous
 48
0.272549
370
    40
100
AcDbLine
 10
-10.01113598637523
 20
26.23617064381907
 30
0.0
 11
-9.821476861375231
 21
27.58565414381903
 31
0.0
  0
ARC
  5
449
330
2
100
AcDbEntity
  8
GAIKEI
  6
Continuous
 62
     1
370
    40
100
AcDbCircle
 10
-15.31346598637523
 20
35.30639539381903
 30
0.0
 40
9.990213624999999
100
AcDbArc
 50
268.4748499999998
 51
271.525069
  0
ARC
  5
44A
330
2
100
AcDbEntity
  8
GAIKEI
  6
Continuous
 62
     1
370
    40
100
AcDbCircle
 10
-15.04811573637524
 20
25.33970914381908
 30
0.0
 40
0.02
100
AcDbArc
 50
271.5213059999996
 51
0.0
  0
ARC
  5
44B
330
2
100
AcDbEntity
  8
GAIKEI
  6
Continuous
 62
     1
370
    40
100
AcDbCircle
 10
-15.57883161137523
 20
25.33970914381908
 30
0.0
 40
0.020000375
100
AcDbArc
 50
180.0001039999994
 51
192.7486929999993
  0
LINE
  5
44C
330
2
100
AcDbEntity
  8
GAIKEI
  6
Continuous
370
    40
100
AcDbLine
 10
-16.49123848637524
 20
20.79537851881903
 30
0.0
 11
-16.69360823637524
 21
24.65678301881903
 31
0.0
  0
LINE
  5
44D
330
2
100
AcDbEntity
  8
GAIKEI
  6
Continuous
 48
0.272549
370
    40
100
AcDbLine
 10
-20.61581123637524
 20
26.23617064381907
 30
0.0
 11
-20.80546848637523
 21
27.58565414381903
 31
0.0
  0
ARC
  5
44E
330
2
100
AcDbEntity
  8
GAIKEI
  6
Continuous
370
    40
100
AcDbCircle
 10
-13.53389061137522
 20
24.63584789381903
 30
0.0
 40
0.400000125
100
AcDbArc
 50
105.8282209999992
 51
176.9999950000005
  0
ARC
  5
44F
330
2
100
AcDbEntity
  8
GAIKEI
  6
Continuous
370
    40
100
AcDbCircle
 10
-10.30821698637524
 20
26.27792639381906
 30
0.0
 40
0.3
100
AcDbArc
 50
285.8282230000013
 51
351.9999990000006
  0
LINE
  5
450
330
2
100
AcDbEntity
  8
GAIKEI
  6
Continuous
 48
0.000207
370
    40
100
AcDbLine
 10
-20.49980061137524
 20
27.64260376881904
 30
0.0
 11
-20.50083636137523
 21
27.64261139381907
 31
0.0
  0
LINE
  5
451
330
2
100
AcDbEntity
  8
GAIKEI
  6
Continuous
 48
0.000056
370
    40
100
AcDbLine
 10
-16.36319436137523
 20
27.64261526881907
 30
0.0
 11
-16.36347286137524
 21
27.64261139381907
 31
0.0
  0
LINE
  5
452
330
2
100
AcDbEntity
  8
GAIKEI
  6
Continuous
 62
     1
 48
0.00219
370
    40
100
AcDbLine
 10
-15.02811523637524
 20
25.33970914381908
 30
0.0
 11
-15.02811523637524
 21
25.35065739381904
 31
0.0
  0
LINE
  5
453
330
2
100
AcDbEntity
  8
GAIKEI
  6
Continuous
 62
     1
 48
0.00219
370
    40
100
AcDbLine
 10
-15.59883211137523
 20
25.33970914381908
 30
0.0
 11
-15.59883211137523
 21
25.35065739381904
 31
0.0
  0
ARC
  5
454
330
2
100
AcDbEntity
  8
GAIKEI
  6
Continuous
370
    40
100
AcDbCircle
 10
-17.09305661137523
 20
24.63584789381903
 30
0.0
 40
0.400000125
100
AcDbArc
 50
3.000000000000716
 51
74.17177699999871
  0
ARC
  5
455
330
2
100
AcDbEntity
  8
GAIKEI
  6
Continuous
370
    40
100
AcDbCircle
 10
-20.31873223637524
 20
26.27792639381906
 30
0.0
 40
0.3
100
AcDbArc
 50
188.0000039999999
 51
254.1717790000007
  0
LINE
  5
456
330
2
100
AcDbEntity
  8
GAIKEI
  6
Continuous
370
    40
100
AcDbLine
 10
-13.64299098637522
 20
25.02068226881906
 30
0.0
 11
-10.22638798637524
 21
25.98929876881906
 31
0.0
  0
LINE
  5
457
330
2
100
AcDbEntity
  8
GAIKEI
  6
Continuous
370
    40
100
AcDbLine
 10
-16.98395623637523
 20
25.02068226881906
 30
0.0
 11
-20.40055748637524
 21
25.98929876881906
 31
0.0
  0
LINE
  5
458
330
2
100
AcDbEntity
  8
GAIKEI
  6
Continuous
 48
0.000306
370
    40
100
AcDbLine
 10
-16.14347548637524
 20
27.64261139381907
 30
0.0
 11
-16.14498611137523
 21
27.64236726881907
 31
0.0
  0
LINE
  5
459
330
2
100
AcDbEntity
  8
GAIKEI
  6
Continuous
 48
0.002698
370
    40
100
AcDbLine
 10
-14.61260698637522
 20
27.64261139381907
 30
0.0
 11
-14.62609573637523
 21
27.64261139381907
 31
0.0
  0
LINE
  5
45A
330
2
100
AcDbEntity
  8
GAIKEI
  6
Continuous
 48
0.277649
370
    40
100
AcDbLine
 10
-14.62609573637523
 20
27.64261139381907
 30
0.0
 11
-16.01434036137523
 21
27.64261139381907
 31
0.0
  0
LINE
  5
45B
330
2
100
AcDbEntity
  8
GAIKEI
  6
Continuous
 48
0.000553
370
    40
100
AcDbLine
 10
-9.962994486375237
 20
27.64261139381907
 30
0.0
 11
-9.960228861375242
 21
27.64261139381907
 31
0.0
  0
LINE
  5
45C
330
2
100
AcDbEntity
  8
GAIKEI
  6
Continuous
 48
0.017946
370
    40
100
AcDbLine
 10
-9.870499611375237
 20
27.64261139381907
 30
0.0
 11
-9.960228861375242
 21
27.64261139381907
 31
0.0
  0
LINE
  5
45D
330
2
100
AcDbEntity
  8
GAIKEI
  6
Continuous
 48
0.000553
370
    40
100
AcDbLine
 10
-9.960228861375242
 20
27.64261139381907
 30
0.0
 11
-9.962994486375237
 21
27.64261139381907
 31
0.0
  0
LINE
  5
45E
330
2
100
AcDbEntity
  8
GAIKEI
  6
Continuous
370
    40
100
AcDbLine
 10
-9.962994486375237
 20
27.64261139381907
 30
0.0
 11
-12.70420923637523
 21
27.64261139381907
 31
0.0
  0
LINE
  5
45F
330
2
100
AcDbEntity
  8
GAIKEI
  6
Continuous
370
    40
100
AcDbLine
 10
-12.70420923637523
 20
27.64261139381907
 30
0.0
 11
-16.00993061137524
 21
27.64261139381907
 31
0.0
  0
LINE
  5
460
330
2
100
AcDbEntity
  8
GAIKEI
  6
Continuous
 48
0.000553
370
    40
100
AcDbLine
 10
-20.66395473637523
 20
27.64261139381907
 30
0.0
 11
-20.66671848637523
 21
27.64261139381907
 31
0.0
  0
LINE
  5
461
330
2
100
AcDbEntity
  8
GAIKEI
  6
Continuous
 48
0.017946
370
    40
100
AcDbLine
 10
-20.66671848637523
 20
27.64261139381907
 30
0.0
 11
-20.75644773637524
 21
27.64261139381907
 31
0.0
  0
LINE
  5
462
330
2
100
AcDbEntity
  8
GAIKEI
  6
Continuous
 48
0.000553
370
    40
100
AcDbLine
 10
-20.66671848637523
 20
27.64261139381907
 30
0.0
 11
-20.66395473637523
 21
27.64261139381907
 31
0.0
  0
LINE
  5
463
330
2
100
AcDbEntity
  8
GAIKEI
  6
Continuous
370
    40
100
AcDbLine
 10
-16.00993061137524
 20
27.64261139381907
 30
0.0
 11
-20.66395473637523
 21
27.64261139381907
 31
0.0
  0
LINE
  5
464
330
2
100
AcDbEntity
  8
GAIKEI
  6
Continuous
 62
     1
 48
0.4083610000000001
370
    13
100
AcDbLine
 10
-16.69360823637524
 20
24.65678301881903
 30
0.0
 11
-13.93333911137523
 21
24.65678301881903
 31
0.0
  0
LINE
  5
465
330
2
100
AcDbEntity
  8
GAIKEI
  6
Continuous
 62
     1
370
    13
100
AcDbLine
 10
-20.61581123637524
 20
26.23617064381907
 30
0.0
 11
-10.01113598637523
 21
26.23617064381907
 31
0.0
  0
LINE
  5
466
330
2
100
AcDbEntity
  8
GAIKEI
  6
Continuous
370
    13
100
AcDbLine
 10
-10.22638798637524
 20
25.98929876881906
 30
0.0
 11
-12.87459648637524
 21
25.98929876881906
 31
0.0
  0
ARC
  5
467
330
2
100
AcDbEntity
  8
GAIKEI
  6
Continuous
 62
     1
370
    40
100
AcDbCircle
 10
-15.03167048637523
 20
25.34973414381906
 30
0.0
 40
0.00371275
100
AcDbArc
 50
14.54071099999956
 51
76.55859299999963
  0
ARC
  5
468
330
2
100
AcDbEntity
  8
GAIKEI
  6
Continuous
 62
     1
370
    40
100
AcDbCircle
 10
-9.82399461137524
 20
36.62961089381904
 30
0.0
 40
12.42031175
100
AcDbArc
 50
243.8590399999997
 51
245.2148190000004
  0
POLYLINE
  5
469
330
2
100
AcDbEntity
  8
GAIKEI
  6
Continuous
 62
     1
370
    40
100
AcDb2dPolyline
 66
     1
 10
0.0
 20
0.0
 30
0.0
  0
VERTEX
  5
46A
330
469
100
AcDbEntity
  8
GAIKEI
  6
Continuous
 62
     1
370
     0
100
AcDbVertex
100
AcDb2dVertex
 10
-15.33079236137524
 20
25.47972376881907
 30
0.0
  0
VERTEX
  5
46B
330
469
100
AcDbEntity
  8
GAIKEI
  6
Continuous
 62
     1
370
     0
100
AcDbVertex
100
AcDb2dVertex
 10
-15.32338036137523
 20
25.48181051881906
 30
0.0
  0
VERTEX
  5
46C
330
469
100
AcDbEntity
  8
GAIKEI
  6
Continuous
 62
     1
370
     0
100
AcDbVertex
100
AcDb2dVertex
 10
-15.30588236137524
 20
25.48213089381906
 30
0.0
  0
VERTEX
  5
46D
330
469
100
AcDbEntity
  8
GAIKEI
  6
Continuous
 62
     1
370
     0
100
AcDbVertex
100
AcDb2dVertex
 10
-15.29615486137524
 20
25.47972376881907
 30
0.0
  0
SEQEND
  5
46E
330
469
100
AcDbEntity
  8
GAIKEI
  6
Continuous
 62
     1
370
     0
  0
ARC
  5
46F
330
2
100
AcDbEntity
  8
GAIKEI
  6
Continuous
 62
     1
370
    40
100
AcDbCircle
 10
-20.80295461137524
 20
36.62961089381904
 30
0.0
 40
12.42031175
100
AcDbArc
 50
294.7851759999986
 51
296.1409550000004
  0
ARC
  5
470
330
2
100
AcDbEntity
  8
GAIKEI
  6
Continuous
 62
     1
370
    40
100
AcDbCircle
 10
-15.59527673637524
 20
25.34973414381906
 30
0.0
 40
0.00371275
100
AcDbArc
 50
103.4414050000013
 51
165.4592839999994
  0
POLYLINE
  5
471
330
2
100
AcDbEntity
  8
GAIKEI
  6
Continuous
 62
     1
370
    13
100
AcDb2dPolyline
 66
     1
 10
0.0
 20
0.0
 30
0.0
  0
VERTEX
  5
472
330
471
100
AcDbEntity
  8
GAIKEI
  6
Continuous
 62
     1
370
     0
100
AcDbVertex
100
AcDb2dVertex
 10
-15.94552698637523
 20
25.74475751881906
 30
0.0
  0
VERTEX
  5
473
330
471
100
AcDbEntity
  8
GAIKEI
  6
Continuous
 62
     1
370
     0
100
AcDbVertex
100
AcDb2dVertex
 10
-15.94213198637524
 20
25.72532926881903
 30
0.0
  0
VERTEX
  5
474
330
471
100
AcDbEntity
  8
GAIKEI
  6
Continuous
 62
     1
370
     0
100
AcDbVertex
100
AcDb2dVertex
 10
-15.93139736137523
 20
25.70610326881902
 30
0.0
  0
VERTEX
  5
475
330
471
100
AcDbEntity
  8
GAIKEI
  6
Continuous
 62
     1
370
     0
100
AcDbVertex
100
AcDb2dVertex
 10
-15.91582198637523
 20
25.68912014381905
 30
0.0
  0
VERTEX
  5
476
330
471
100
AcDbEntity
  8
GAIKEI
  6
Continuous
 62
     1
370
     0
100
AcDbVertex
100
AcDb2dVertex
 10
-15.89635561137524
 20
25.67355626881905
 30
0.0
  0
VERTEX
  5
477
330
471
100
AcDbEntity
  8
GAIKEI
  6
Continuous
 62
     1
370
     0
100
AcDbVertex
100
AcDb2dVertex
 10
-15.86968698637523
 20
25.65692414381905
 30
0.0
  0
VERTEX
  5
478
330
471
100
AcDbEntity
  8
GAIKEI
  6
Continuous
 62
     1
370
     0
100
AcDbVertex
100
AcDb2dVertex
 10
-15.84071823637524
 20
25.64229864381903
 30
0.0
  0
VERTEX
  5
479
330
471
100
AcDbEntity
  8
GAIKEI
  6
Continuous
 62
     1
370
     0
100
AcDbVertex
100
AcDb2dVertex
 10
-15.79858486137523
 20
25.62494939381904
 30
0.0
  0
VERTEX
  5
47A
330
471
100
AcDbEntity
  8
GAIKEI
  6
Continuous
 62
     1
370
     0
100
AcDbVertex
100
AcDb2dVertex
 10
-15.75524611137524
 20
25.61036189381904
 30
0.0
  0
VERTEX
  5
47B
330
471
100
AcDbEntity
  8
GAIKEI
  6
Continuous
 62
     1
370
     0
100
AcDbVertex
100
AcDb2dVertex
 10
-15.69348236137523
 20
25.59361164381906
 30
0.0
  0
VERTEX
  5
47C
330
471
100
AcDbEntity
  8
GAIKEI
  6
Continuous
 62
     1
370
     0
100
AcDbVertex
100
AcDb2dVertex
 10
-15.63144398637524
 20
25.58042039381908
 30
0.0
  0
VERTEX
  5
47D
330
471
100
AcDbEntity
  8
GAIKEI
  6
Continuous
 62
     1
370
     0
100
AcDbVertex
100
AcDb2dVertex
 10
-15.53590098637524
 20
25.56568801881903
 30
0.0
  0
VERTEX
  5
47E
330
471
100
AcDbEntity
  8
GAIKEI
  6
Continuous
 62
     1
370
     0
100
AcDbVertex
100
AcDb2dVertex
 10
-15.44090748637524
 20
25.55667389381907
 30
0.0
  0
VERTEX
  5
47F
330
471
100
AcDbEntity
  8
GAIKEI
  6
Continuous
 62
     1
370
     0
100
AcDbVertex
100
AcDb2dVertex
 10
-15.34622661137524
 20
25.55266089381902
 30
0.0
  0
VERTEX
  5
480
330
471
100
AcDbEntity
  8
GAIKEI
  6
Continuous
 62
     1
370
     0
100
AcDbVertex
100
AcDb2dVertex
 10
-15.27614686137524
 20
25.55274476881905
 30
0.0
  0
VERTEX
  5
481
330
471
100
AcDbEntity
  8
GAIKEI
  6
Continuous
 62
     1
370
     0
100
AcDbVertex
100
AcDb2dVertex
 10
-15.20602123637523
 20
25.55542264381907
 30
0.0
  0
VERTEX
  5
482
330
471
100
AcDbEntity
  8
GAIKEI
  6
Continuous
 62
     1
370
     0
100
AcDbVertex
100
AcDb2dVertex
 10
-15.13557911137523
 20
25.56080901881907
 30
0.0
  0
VERTEX
  5
483
330
471
100
AcDbEntity
  8
GAIKEI
  6
Continuous
 62
     1
370
     0
100
AcDbVertex
100
AcDb2dVertex
 10
-15.06486598637522
 20
25.56912126881903
 30
0.0
  0
VERTEX
  5
484
330
471
100
AcDbEntity
  8
GAIKEI
  6
Continuous
 62
     1
370
     0
100
AcDbVertex
100
AcDb2dVertex
 10
-14.99322986137523
 20
25.58084764381906
 30
0.0
  0
VERTEX
  5
485
330
471
100
AcDbEntity
  8
GAIKEI
  6
Continuous
 62
     1
370
     0
100
AcDbVertex
100
AcDb2dVertex
 10
-14.92149823637524
 20
25.59654889381906
 30
0.0
  0
VERTEX
  5
486
330
471
100
AcDbEntity
  8
GAIKEI
  6
Continuous
 62
     1
370
     0
100
AcDbVertex
100
AcDb2dVertex
 10
-14.87320423637523
 20
25.60990414381902
 30
0.0
  0
VERTEX
  5
487
330
471
100
AcDbEntity
  8
GAIKEI
  6
Continuous
 62
     1
370
     0
100
AcDbVertex
100
AcDb2dVertex
 10
-14.82556623637524
 20
25.62599076881904
 30
0.0
  0
VERTEX
  5
488
330
471
100
AcDbEntity
  8
GAIKEI
  6
Continuous
 62
     1
370
     0
100
AcDbVertex
100
AcDb2dVertex
 10
-14.79018486137524
 20
25.64050951881907
 30
0.0
  0
VERTEX
  5
489
330
471
100
AcDbEntity
  8
GAIKEI
  6
Continuous
 62
     1
370
     0
100
AcDbVertex
100
AcDb2dVertex
 10
-14.75639048637524
 20
25.65741626881905
 30
0.0
  0
VERTEX
  5
48A
330
471
100
AcDbEntity
  8
GAIKEI
  6
Continuous
 62
     1
370
     0
100
AcDbVertex
100
AcDb2dVertex
 10
-14.72583473637523
 20
25.67700476881905
 30
0.0
  0
VERTEX
  5
48B
330
471
100
AcDbEntity
  8
GAIKEI
  6
Continuous
 62
     1
370
     0
100
AcDbVertex
100
AcDb2dVertex
 10
-14.71014873637523
 20
25.69001664381906
 30
0.0
  0
VERTEX
  5
48C
330
471
100
AcDbEntity
  8
GAIKEI
  6
Continuous
 62
     1
370
     0
100
AcDbVertex
100
AcDb2dVertex
 10
-14.69716736137523
 20
25.70398601881905
 30
0.0
  0
VERTEX
  5
48D
330
471
100
AcDbEntity
  8
GAIKEI
  6
Continuous
 62
     1
370
     0
100
AcDbVertex
100
AcDb2dVertex
 10
-14.68871011137523
 20
25.71673101881905
 30
0.0
  0
VERTEX
  5
48E
330
471
100
AcDbEntity
  8
GAIKEI
  6
Continuous
 62
     1
370
     0
100
AcDbVertex
100
AcDb2dVertex
 10
-14.68336961137524
 20
25.72978489381907
 30
0.0
  0
VERTEX
  5
48F
330
471
100
AcDbEntity
  8
GAIKEI
  6
Continuous
 62
     1
370
     0
100
AcDbVertex
100
AcDb2dVertex
 10
-14.68142023637523
 20
25.74475751881906
 30
0.0
  0
SEQEND
  5
490
330
471
100
AcDbEntity
  8
GAIKEI
  6
Continuous
 62
     1
370
     0
  0
POLYLINE
  5
491
330
2
100
AcDbEntity
  8
GAIKEI
  6
Continuous
 62
     1
370
    13
100
AcDb2dPolyline
 66
     1
 10
0.0
 20
0.0
 30
0.0
  0
VERTEX
  5
492
330
491
100
AcDbEntity
  8
GAIKEI
  6
Continuous
 62
     1
370
     0
100
AcDbVertex
100
AcDb2dVertex
 10
-14.68142023637523
 20
25.74475751881906
 30
0.0
  0
VERTEX
  5
493
330
491
100
AcDbEntity
  8
GAIKEI
  6
Continuous
 62
     1
370
     0
100
AcDbVertex
100
AcDb2dVertex
 10
-14.68334673637523
 20
25.75742239381904
 30
0.0
  0
VERTEX
  5
494
330
491
100
AcDbEntity
  8
GAIKEI
  6
Continuous
 62
     1
370
     0
100
AcDbVertex
100
AcDb2dVertex
 10
-14.68835536137524
 20
25.76949589381903
 30
0.0
  0
VERTEX
  5
495
330
491
100
AcDbEntity
  8
GAIKEI
  6
Continuous
 62
     1
370
     0
100
AcDbVertex
100
AcDb2dVertex
 10
-14.69605723637524
 20
25.78086364381906
 30
0.0
  0
VERTEX
  5
496
330
491
100
AcDbEntity
  8
GAIKEI
  6
Continuous
 62
     1
370
     0
100
AcDbVertex
100
AcDb2dVertex
 10
-14.70602511137524
 20
25.79146464381907
 30
0.0
  0
VERTEX
  5
497
330
491
100
AcDbEntity
  8
GAIKEI
  6
Continuous
 62
     1
370
     0
100
AcDbVertex
100
AcDb2dVertex
 10
-14.73116773637523
 20
25.81038939381907
 30
0.0
  0
VERTEX
  5
498
330
491
100
AcDbEntity
  8
GAIKEI
  6
Continuous
 62
     1
370
     0
100
AcDbVertex
100
AcDb2dVertex
 10
-14.76014036137523
 20
25.82605251881907
 30
0.0
  0
VERTEX
  5
499
330
491
100
AcDbEntity
  8
GAIKEI
  6
Continuous
 62
     1
370
     0
100
AcDbVertex
100
AcDb2dVertex
 10
-14.79254998637523
 20
25.83966726881906
 30
0.0
  0
VERTEX
  5
49A
330
491
100
AcDbEntity
  8
GAIKEI
  6
Continuous
 62
     1
370
     0
100
AcDbVertex
100
AcDb2dVertex
 10
-14.83198636137524
 20
25.85289664381904
 30
0.0
  0
VERTEX
  5
49B
330
491
100
AcDbEntity
  8
GAIKEI
  6
Continuous
 62
     1
370
     0
100
AcDbVertex
100
AcDb2dVertex
 10
-14.87376498637523
 20
25.86423764381905
 30
0.0
  0
VERTEX
  5
49C
330
491
100
AcDbEntity
  8
GAIKEI
  6
Continuous
 62
     1
370
     0
100
AcDbVertex
100
AcDb2dVertex
 10
-14.91758823637524
 20
25.87399951881903
 30
0.0
  0
VERTEX
  5
49D
330
491
100
AcDbEntity
  8
GAIKEI
  6
Continuous
 62
     1
370
     0
100
AcDbVertex
100
AcDb2dVertex
 10
-14.96276948637524
 20
25.88230026881902
 30
0.0
  0
VERTEX
  5
49E
330
491
100
AcDbEntity
  8
GAIKEI
  6
Continuous
 62
     1
370
     0
100
AcDbVertex
100
AcDb2dVertex
 10
-15.05608461137524
 20
25.89509476881906
 30
0.0
  0
VERTEX
  5
49F
330
491
100
AcDbEntity
  8
GAIKEI
  6
Continuous
 62
     1
370
     0
100
AcDbVertex
100
AcDb2dVertex
 10
-15.15222636137522
 20
25.90345276881905
 30
0.0
  0
VERTEX
  5
4A0
330
491
100
AcDbEntity
  8
GAIKEI
  6
Continuous
 62
     1
370
     0
100
AcDbVertex
100
AcDb2dVertex
 10
-15.27770323637523
 20
25.90833939381904
 30
0.0
  0
VERTEX
  5
4A1
330
491
100
AcDbEntity
  8
GAIKEI
  6
Continuous
 62
     1
370
     0
100
AcDbVertex
100
AcDb2dVertex
 10
-15.40338611137523
 20
25.90701189381903
 30
0.0
  0
VERTEX
  5
4A2
330
491
100
AcDbEntity
  8
GAIKEI
  6
Continuous
 62
     1
370
     0
100
AcDbVertex
100
AcDb2dVertex
 10
-15.52776048637523
 20
25.89937864381906
 30
0.0
  0
VERTEX
  5
4A3
330
491
100
AcDbEntity
  8
GAIKEI
  6
Continuous
 62
     1
370
     0
100
AcDbVertex
100
AcDb2dVertex
 10
-15.58891386137523
 20
25.89301576881903
 30
0.0
  0
VERTEX
  5
4A4
330
491
100
AcDbEntity
  8
GAIKEI
  6
Continuous
 62
     1
370
     0
100
AcDbVertex
100
AcDb2dVertex
 10
-15.64891523637524
 20
25.88476451881903
 30
0.0
  0
VERTEX
  5
4A5
330
491
100
AcDbEntity
  8
GAIKEI
  6
Continuous
 62
     1
370
     0
100
AcDbVertex
100
AcDb2dVertex
 10
-15.70320598637524
 20
25.87522776881903
 30
0.0
  0
VERTEX
  5
4A6
330
491
100
AcDbEntity
  8
GAIKEI
  6
Continuous
 62
     1
370
     0
100
AcDbVertex
100
AcDb2dVertex
 10
-15.75549023637524
 20
25.86366926881905
 30
0.0
  0
VERTEX
  5
4A7
330
491
100
AcDbEntity
  8
GAIKEI
  6
Continuous
 62
     1
370
     0
100
AcDbVertex
100
AcDb2dVertex
 10
-15.79629611137522
 20
25.85249601881904
 30
0.0
  0
VERTEX
  5
4A8
330
491
100
AcDbEntity
  8
GAIKEI
  6
Continuous
 62
     1
370
     0
100
AcDbVertex
100
AcDb2dVertex
 10
-15.83486648637523
 20
25.83949176881905
 30
0.0
  0
VERTEX
  5
4A9
330
491
100
AcDbEntity
  8
GAIKEI
  6
Continuous
 62
     1
370
     0
100
AcDbVertex
100
AcDb2dVertex
 10
-15.86388873637523
 20
25.82741064381904
 30
0.0
  0
VERTEX
  5
4AA
330
491
100
AcDbEntity
  8
GAIKEI
  6
Continuous
 62
     1
370
     0
100
AcDbVertex
100
AcDb2dVertex
 10
-15.89049623637524
 20
25.81359376881906
 30
0.0
  0
VERTEX
  5
4AB
330
491
100
AcDbEntity
  8
GAIKEI
  6
Continuous
 62
     1
370
     0
100
AcDbVertex
100
AcDb2dVertex
 10
-15.90608686137523
 20
25.80350389381905
 30
0.0
  0
VERTEX
  5
4AC
330
491
100
AcDbEntity
  8
GAIKEI
  6
Continuous
 62
     1
370
     0
100
AcDbVertex
100
AcDb2dVertex
 10
-15.91977023637523
 20
25.79252514381906
 30
0.0
  0
VERTEX
  5
4AD
330
491
100
AcDbEntity
  8
GAIKEI
  6
Continuous
 62
     1
370
     0
100
AcDbVertex
100
AcDb2dVertex
 10
-15.93359086137524
 20
25.77734651881903
 30
0.0
  0
VERTEX
  5
4AE
330
491
100
AcDbEntity
  8
GAIKEI
  6
Continuous
 62
     1
370
     0
100
AcDbVertex
100
AcDb2dVertex
 10
-15.94253248637523
 20
25.76076401881906
 30
0.0
  0
VERTEX
  5
4AF
330
491
100
AcDbEntity
  8
GAIKEI
  6
Continuous
 62
     1
370
     0
100
AcDbVertex
100
AcDb2dVertex
 10
-15.94552698637523
 20
25.74475751881906
 30
0.0
  0
SEQEND
  5
4B0
330
491
100
AcDbEntity
  8
GAIKEI
  6
Continuous
 62
     1
370
     0
  0
LINE
  5
4B1
330
2
100
AcDbEntity
  8
GAIKEI
  6
Continuous
 62
     1
 48
0.494271
370
    13
100
AcDbLine
 10
-16.98395623637523
 20
25.02068226881906
 30
0.0
 11
-13.64299098637522
 21
25.02068226881906
 31
0.0
  0
LINE
  5
4B2
330
2
100
AcDbEntity
  8
GAIKEI
  6
Continuous
370
    13
100
AcDbLine
 10
-20.40055748637524
 20
25.98929876881906
 30
0.0
 11
-12.87459648637524
 21
25.98929876881906
 31
0.0
  0
LINE
  5
4B3
330
2
100
AcDbEntity
  8
GAIKEI
  6
Continuous
 48
0.024973
370
    40
100
AcDbLine
 10
-19.96660698637524
 20
9.92898639381903
 30
0.0
 11
-20.05609986137523
 21
9.84191214381903
 31
0.0
  0
POLYLINE
  5
4B4
330
2
100
AcDbEntity
  8
GAIKEI
  6
Continuous
370
    40
100
AcDb2dPolyline
 66
     1
 10
0.0
 20
0.0
 30
0.0
  0
VERTEX
  5
4B5
330
4B4
100
AcDbEntity
  8
GAIKEI
  6
Continuous
370
     0
100
AcDbVertex
100
AcDb2dVertex
 10
-20.05609986137523
 20
9.84191214381903
 30
0.0
  0
VERTEX
  5
4B6
330
4B4
100
AcDbEntity
  8
GAIKEI
  6
Continuous
370
     0
100
AcDbVertex
100
AcDb2dVertex
 10
-20.10026636137523
 20
9.799998143819067
 30
0.0
  0
VERTEX
  5
4B7
330
4B4
100
AcDbEntity
  8
GAIKEI
  6
Continuous
370
     0
100
AcDbVertex
100
AcDb2dVertex
 10
-20.12088673637524
 20
9.783505393819069
 30
0.0
  0
VERTEX
  5
4B8
330
4B4
100
AcDbEntity
  8
GAIKEI
  6
Continuous
370
     0
100
AcDbVertex
100
AcDb2dVertex
 10
-20.14249511137524
 20
9.772833768819026
 30
0.0
  0
VERTEX
  5
4B9
330
4B4
100
AcDbEntity
  8
GAIKEI
  6
Continuous
370
     0
100
AcDbVertex
100
AcDb2dVertex
 10
-20.16108986137523
 20
9.76820076881907
 30
0.0
  0
SEQEND
  5
4BA
330
4B4
100
AcDbEntity
  8
GAIKEI
  6
Continuous
370
     0
  0
ARC
  5
4BB
330
2
100
AcDbEntity
  8
GAIKEI
  6
Continuous
370
    40
100
AcDbCircle
 10
-21.39006323637524
 20
17.96612826881906
 30
0.0
 40
8.289533749999998
100
AcDbArc
 50
277.5926270000003
 51
278.5258699999994
  0
POLYLINE
  5
4BC
330
2
100
AcDbEntity
  8
GAIKEI
  6
Continuous
370
    40
100
AcDb2dPolyline
 66
     1
 10
0.0
 20
0.0
 30
0.0
  0
VERTEX
  5
4BD
330
4BC
100
AcDbEntity
  8
GAIKEI
  6
Continuous
370
     0
100
AcDbVertex
100
AcDb2dVertex
 10
-20.29442498637523
 20
9.749321893819029
 30
0.0
  0
VERTEX
  5
4BE
330
4BC
100
AcDbEntity
  8
GAIKEI
  6
Continuous
370
     0
100
AcDbVertex
100
AcDb2dVertex
 10
-20.31370248637523
 20
9.748543643819033
 30
0.0
  0
VERTEX
  5
4BF
330
4BC
100
AcDbEntity
  8
GAIKEI
  6
Continuous
370
     0
100
AcDbVertex
100
AcDb2dVertex
 10
-20.33066461137523
 20
9.750922143819053
 30
0.0
  0
VERTEX
  5
4C0
330
4BC
100
AcDbEntity
  8
GAIKEI
  6
Continuous
370
     0
100
AcDbVertex
100
AcDb2dVertex
 10
-20.34719561137524
 20
9.756188268819045
 30
0.0
  0
VERTEX
  5
4C1
330
4BC
100
AcDbEntity
  8
GAIKEI
  6
Continuous
370
     0
100
AcDbVertex
100
AcDb2dVertex
 10
-20.36973848637524
 20
9.768910268819041
 30
0.0
  0
VERTEX
  5
4C2
330
4BC
100
AcDbEntity
  8
GAIKEI
  6
Continuous
370
     0
100
AcDbVertex
100
AcDb2dVertex
 10
-20.39101498637524
 20
9.787554643819049
 30
0.0
  0
VERTEX
  5
4C3
330
4BC
100
AcDbEntity
  8
GAIKEI
  6
Continuous
370
     0
100
AcDbVertex
100
AcDb2dVertex
 10
-20.42126936137524
 20
9.820605143819051
 30
0.0
  0
VERTEX
  5
4C4
330
4BC
100
AcDbEntity
  8
GAIKEI
  6
Continuous
370
     0
100
AcDbVertex
100
AcDb2dVertex
 10
-20.46869173637523
 20
9.879710143819039
 30
0.0
  0
VERTEX
  5
4C5
330
4BC
100
AcDbEntity
  8
GAIKEI
  6
Continuous
370
     0
100
AcDbVertex
100
AcDb2dVertex
 10
-20.52673998637523
 20
9.962164768819064
 30
0.0
  0
VERTEX
  5
4C6
330
4BC
100
AcDbEntity
  8
GAIKEI
  6
Continuous
370
     0
100
AcDbVertex
100
AcDb2dVertex
 10
-20.58106511137524
 20
10.05070201881906
 30
0.0
  0
VERTEX
  5
4C7
330
4BC
100
AcDbEntity
  8
GAIKEI
  6
Continuous
370
     0
100
AcDbVertex
100
AcDb2dVertex
 10
-20.63399023637524
 20
10.15061464381907
 30
0.0
  0
VERTEX
  5
4C8
330
4BC
100
AcDbEntity
  8
GAIKEI
  6
Continuous
370
     0
100
AcDbVertex
100
AcDb2dVertex
 10
-20.68233011137524
 20
10.25840651881904
 30
0.0
  0
VERTEX
  5
4C9
330
4BC
100
AcDbEntity
  8
GAIKEI
  6
Continuous
370
     0
100
AcDbVertex
100
AcDb2dVertex
 10
-20.71873373637524
 20
10.35520251881902
 30
0.0
  0
VERTEX
  5
4CA
330
4BC
100
AcDbEntity
  8
GAIKEI
  6
Continuous
370
     0
100
AcDbVertex
100
AcDb2dVertex
 10
-20.74985973637523
 20
10.45509989381904
 30
0.0
  0
VERTEX
  5
4CB
330
4BC
100
AcDbEntity
  8
GAIKEI
  6
Continuous
370
     0
100
AcDbVertex
100
AcDb2dVertex
 10
-20.77539148637524
 20
10.55752264381905
 30
0.0
  0
VERTEX
  5
4CC
330
4BC
100
AcDbEntity
  8
GAIKEI
  6
Continuous
370
     0
100
AcDbVertex
100
AcDb2dVertex
 10
-20.78261273637523
 20
10.59213526881902
 30
0.0
  0
SEQEND
  5
4CD
330
4BC
100
AcDbEntity
  8
GAIKEI
  6
Continuous
370
     0
  0
ARC
  5
4CE
330
2
100
AcDbEntity
  8
GAIKEI
  6
Continuous
370
    40
100
AcDbCircle
 10
-18.89754386137524
 20
10.96653264381908
 30
0.0
 40
1.921888625
100
AcDbArc
 50
180.0045439999999
 51
191.2334429999992
  0
LINE
  5
4CF
330
2
100
AcDbEntity
  8
GAIKEI
  6
Continuous
370
    40
100
AcDbLine
 10
-20.81943036137524
 20
10.96638001881902
 30
0.0
 11
-20.81943036137524
 21
16.66516764381904
 31
0.0
  0
ARC
  5
4D0
330
2
100
AcDbEntity
  8
GAIKEI
  6
Continuous
370
    40
100
AcDbCircle
 10
-156.0702256113752
 20
16.70479101881906
 30
0.0
 40
135.250767875
100
AcDbArc
 50
359.9832150000003
 51
0.6275910000006875
  0
ARC
  5
4D1
330
2
100
AcDbEntity
  8
GAIKEI
  6
Continuous
370
    40
100
AcDbCircle
 10
-18.82674873637524
 20
18.20860951881903
 30
0.0
 40
2.001033
100
AcDbArc
 50
148.4672479999992
 51
180.6406799999995
  0
POLYLINE
  5
4D2
330
2
100
AcDbEntity
  8
GAIKEI
  6
Continuous
370
    40
100
AcDb2dPolyline
 66
     1
 10
0.0
 20
0.0
 30
0.0
  0
VERTEX
  5
4D3
330
4D2
100
AcDbEntity
  8
GAIKEI
  6
Continuous
370
     0
100
AcDbVertex
100
AcDb2dVertex
 10
-20.53234186137524
 20
19.25513739381907
 30
0.0
  0
VERTEX
  5
4D4
330
4D2
100
AcDbEntity
  8
GAIKEI
  6
Continuous
370
     0
100
AcDbVertex
100
AcDb2dVertex
 10
-20.46644111137523
 20
19.35540289381904
 30
0.0
  0
VERTEX
  5
4D5
330
4D2
100
AcDbEntity
  8
GAIKEI
  6
Continuous
370
     0
100
AcDbVertex
100
AcDb2dVertex
 10
-20.43043223637524
 20
19.40481464381903
 30
0.0
  0
VERTEX
  5
4D6
330
4D2
100
AcDbEntity
  8
GAIKEI
  6
Continuous
370
     0
100
AcDbVertex
100
AcDb2dVertex
 10
-20.39226436137523
 20
19.45371139381908
 30
0.0
  0
VERTEX
  5
4D7
330
4D2
100
AcDbEntity
  8
GAIKEI
  6
Continuous
370
     0
100
AcDbVertex
100
AcDb2dVertex
 10
-20.35182661137523
 20
19.50207414381904
 30
0.0
  0
VERTEX
  5
4D8
330
4D2
100
AcDbEntity
  8
GAIKEI
  6
Continuous
370
     0
100
AcDbVertex
100
AcDb2dVertex
 10
-20.30899711137523
 20
19.54986089381904
 30
0.0
  0
VERTEX
  5
4D9
330
4D2
100
AcDbEntity
  8
GAIKEI
  6
Continuous
370
     0
100
AcDbVertex
100
AcDb2dVertex
 10
-20.26363648637524
 20
19.59703726881904
 30
0.0
  0
VERTEX
  5
4DA
330
4D2
100
AcDbEntity
  8
GAIKEI
  6
Continuous
370
     0
100
AcDbVertex
100
AcDb2dVertex
 10
-20.21558473637524
 20
19.64354214381902
 30
0.0
  0
VERTEX
  5
4DB
330
4D2
100
AcDbEntity
  8
GAIKEI
  6
Continuous
370
     0
100
AcDbVertex
100
AcDb2dVertex
 10
-20.16466036137524
 20
19.68931851881908
 30
0.0
  0
VERTEX
  5
4DC
330
4D2
100
AcDbEntity
  8
GAIKEI
  6
Continuous
370
     0
100
AcDbVertex
100
AcDb2dVertex
 10
-20.11067486137523
 20
19.73426714381904
 30
0.0
  0
VERTEX
  5
4DD
330
4D2
100
AcDbEntity
  8
GAIKEI
  6
Continuous
370
     0
100
AcDbVertex
100
AcDb2dVertex
 10
-20.05341048637524
 20
19.77827726881904
 30
0.0
  0
VERTEX
  5
4DE
330
4D2
100
AcDbEntity
  8
GAIKEI
  6
Continuous
370
     0
100
AcDbVertex
100
AcDb2dVertex
 10
-19.99262711137524
 20
19.82121939381906
 30
0.0
  0
VERTEX
  5
4DF
330
4D2
100
AcDbEntity
  8
GAIKEI
  6
Continuous
370
     0
100
AcDbVertex
100
AcDb2dVertex
 10
-19.92803848637524
 20
19.86292926881904
 30
0.0
  0
VERTEX
  5
4E0
330
4D2
100
AcDbEntity
  8
GAIKEI
  6
Continuous
370
     0
100
AcDbVertex
100
AcDb2dVertex
 10
-19.85939686137523
 20
19.90317814381907
 30
0.0
  0
VERTEX
  5
4E1
330
4D2
100
AcDbEntity
  8
GAIKEI
  6
Continuous
370
     0
100
AcDbVertex
100
AcDb2dVertex
 10
-19.78649611137524
 20
19.94164939381906
 30
0.0
  0
VERTEX
  5
4E2
330
4D2
100
AcDbEntity
  8
GAIKEI
  6
Continuous
370
     0
100
AcDbVertex
100
AcDb2dVertex
 10
-19.70918936137524
 20
19.97797289381904
 30
0.0
  0
VERTEX
  5
4E3
330
4D2
100
AcDbEntity
  8
GAIKEI
  6
Continuous
370
     0
100
AcDbVertex
100
AcDb2dVertex
 10
-19.62738886137524
 20
20.01171389381906
 30
0.0
  0
VERTEX
  5
4E4
330
4D2
100
AcDbEntity
  8
GAIKEI
  6
Continuous
370
     0
100
AcDbVertex
100
AcDb2dVertex
 10
-19.54110048637523
 20
20.04238401881904
 30
0.0
  0
VERTEX
  5
4E5
330
4D2
100
AcDbEntity
  8
GAIKEI
  6
Continuous
370
     0
100
AcDbVertex
100
AcDb2dVertex
 10
-19.45061011137524
 20
20.06939976881907
 30
0.0
  0
VERTEX
  5
4E6
330
4D2
100
AcDbEntity
  8
GAIKEI
  6
Continuous
370
     0
100
AcDbVertex
100
AcDb2dVertex
 10
-19.35660073637524
 20
20.09215064381905
 30
0.0
  0
VERTEX
  5
4E7
330
4D2
100
AcDbEntity
  8
GAIKEI
  6
Continuous
370
     0
100
AcDbVertex
100
AcDb2dVertex
 10
-19.26019948637523
 20
20.11007589381907
 30
0.0
  0
VERTEX
  5
4E8
330
4D2
100
AcDbEntity
  8
GAIKEI
  6
Continuous
370
     0
100
AcDbVertex
100
AcDb2dVertex
 10
-19.16297048637523
 20
20.12279401881906
 30
0.0
  0
VERTEX
  5
4E9
330
4D2
100
AcDbEntity
  8
GAIKEI
  6
Continuous
370
     0
100
AcDbVertex
100
AcDb2dVertex
 10
-19.06682486137524
 20
20.13020601881905
 30
0.0
  0
VERTEX
  5
4EA
330
4D2
100
AcDbEntity
  8
GAIKEI
  6
Continuous
370
     0
100
AcDbVertex
100
AcDb2dVertex
 10
-18.97370623637523
 20
20.13255964381906
 30
0.0
  0
SEQEND
  5
4EB
330
4D2
100
AcDbEntity
  8
GAIKEI
  6
Continuous
370
     0
  0
LINE
  5
4EC
330
2
100
AcDbEntity
  8
GAIKEI
  6
Continuous
370
    40
100
AcDbLine
 10
-11.65324111137524
 20
20.13255964381906
 30
0.0
 11
-18.97370623637523
 21
20.13255964381906
 31
0.0
  0
POLYLINE
  5
4ED
330
2
100
AcDbEntity
  8
GAIKEI
  6
Continuous
370
    40
100
AcDb2dPolyline
 66
     1
 10
0.0
 20
0.0
 30
0.0
  0
VERTEX
  5
4EE
330
4ED
100
AcDbEntity
  8
GAIKEI
  6
Continuous
370
     0
100
AcDbVertex
100
AcDb2dVertex
 10
-11.65324111137524
 20
20.13255964381906
 30
0.0
  0
VERTEX
  5
4EF
330
4ED
100
AcDbEntity
  8
GAIKEI
  6
Continuous
370
     0
100
AcDbVertex
100
AcDb2dVertex
 10
-11.56010911137522
 20
20.13020601881905
 30
0.0
  0
VERTEX
  5
4F0
330
4ED
100
AcDbEntity
  8
GAIKEI
  6
Continuous
370
     0
100
AcDbVertex
100
AcDb2dVertex
 10
-11.46400161137524
 20
20.12279789381907
 30
0.0
  0
VERTEX
  5
4F1
330
4ED
100
AcDbEntity
  8
GAIKEI
  6
Continuous
370
     0
100
AcDbVertex
100
AcDb2dVertex
 10
-11.36676873637523
 20
20.11007964381903
 30
0.0
  0
VERTEX
  5
4F2
330
4ED
100
AcDbEntity
  8
GAIKEI
  6
Continuous
370
     0
100
AcDbVertex
100
AcDb2dVertex
 10
-11.27033323637523
 20
20.09214676881905
 30
0.0
  0
VERTEX
  5
4F3
330
4ED
100
AcDbEntity
  8
GAIKEI
  6
Continuous
370
     0
100
AcDbVertex
100
AcDb2dVertex
 10
-11.17628186137523
 20
20.06938064381907
 30
0.0
  0
VERTEX
  5
4F4
330
4ED
100
AcDbEntity
  8
GAIKEI
  6
Continuous
370
     0
100
AcDbVertex
100
AcDb2dVertex
 10
-11.08576298637524
 20
20.04235351881906
 30
0.0
  0
VERTEX
  5
4F5
330
4ED
100
AcDbEntity
  8
GAIKEI
  6
Continuous
370
     0
100
AcDbVertex
100
AcDb2dVertex
 10
-10.99945923637523
 20
20.01167576881906
 30
0.0
  0
VERTEX
  5
4F6
330
4ED
100
AcDbEntity
  8
GAIKEI
  6
Continuous
370
     0
100
AcDbVertex
100
AcDb2dVertex
 10
-10.91764161137524
 20
19.97792326881907
 30
0.0
  0
VERTEX
  5
4F7
330
4ED
100
AcDbEntity
  8
GAIKEI
  6
Continuous
370
     0
100
AcDbVertex
100
AcDb2dVertex
 10
-10.84033673637523
 20
19.94159589381903
 30
0.0
  0
VERTEX
  5
4F8
330
4ED
100
AcDbEntity
  8
GAIKEI
  6
Continuous
370
     0
100
AcDbVertex
100
AcDb2dVertex
 10
-10.76748361137524
 20
19.90314001881907
 30
0.0
  0
VERTEX
  5
4F9
330
4ED
100
AcDbEntity
  8
GAIKEI
  6
Continuous
370
     0
100
AcDbVertex
100
AcDb2dVertex
 10
-10.69891061137524
 20
19.86292926881904
 30
0.0
  0
VERTEX
  5
4FA
330
4ED
100
AcDbEntity
  8
GAIKEI
  6
Continuous
370
     0
100
AcDbVertex
100
AcDb2dVertex
 10
-10.63436211137524
 20
19.82124601881904
 30
0.0
  0
VERTEX
  5
4FB
330
4ED
100
AcDbEntity
  8
GAIKEI
  6
Continuous
370
     0
100
AcDbVertex
100
AcDb2dVertex
 10
-10.57357111137523
 20
19.77830401881906
 30
0.0
  0
VERTEX
  5
4FC
330
4ED
100
AcDbEntity
  8
GAIKEI
  6
Continuous
370
     0
100
AcDbVertex
100
AcDb2dVertex
 10
-10.51628961137524
 20
19.73427851881902
 30
0.0
  0
VERTEX
  5
4FD
330
4ED
100
AcDbEntity
  8
GAIKEI
  6
Continuous
370
     0
100
AcDbVertex
100
AcDb2dVertex
 10
-10.46228123637523
 20
19.68931089381905
 30
0.0
  0
VERTEX
  5
4FE
330
4ED
100
AcDbEntity
  8
GAIKEI
  6
Continuous
370
     0
100
AcDbVertex
100
AcDb2dVertex
 10
-10.41133586137523
 20
19.64351551881904
 30
0.0
  0
VERTEX
  5
4FF
330
4ED
100
AcDbEntity
  8
GAIKEI
  6
Continuous
370
     0
100
AcDbVertex
100
AcDb2dVertex
 10
-10.36327073637522
 20
19.59699139381902
 30
0.0
  0
VERTEX
  5
500
330
4ED
100
AcDbEntity
  8
GAIKEI
  6
Continuous
370
     0
100
AcDbVertex
100
AcDb2dVertex
 10
-10.31790248637523
 20
19.54980739381906
 30
0.0
  0
VERTEX
  5
501
330
4ED
100
AcDbEntity
  8
GAIKEI
  6
Continuous
370
     0
100
AcDbVertex
100
AcDb2dVertex
 10
-10.27507111137524
 20
19.50201689381905
 30
0.0
  0
VERTEX
  5
502
330
4ED
100
AcDbEntity
  8
GAIKEI
  6
Continuous
370
     0
100
AcDbVertex
100
AcDb2dVertex
 10
-10.23463911137523
 20
19.45365801881903
 30
0.0
  0
VERTEX
  5
503
330
4ED
100
AcDbEntity
  8
GAIKEI
  6
Continuous
370
     0
100
AcDbVertex
100
AcDb2dVertex
 10
-10.19648073637523
 20
19.40477264381903
 30
0.0
  0
VERTEX
  5
504
330
4ED
100
AcDbEntity
  8
GAIKEI
  6
Continuous
370
     0
100
AcDbVertex
100
AcDb2dVertex
 10
-10.12655348637523
 20
19.30549139381904
 30
0.0
  0
VERTEX
  5
505
330
4ED
100
AcDbEntity
  8
GAIKEI
  6
Continuous
370
     0
100
AcDbVertex
100
AcDb2dVertex
 10
-10.09460536137524
 20
19.25513739381907
 30
0.0
  0
SEQEND
  5
506
330
4ED
100
AcDbEntity
  8
GAIKEI
  6
Continuous
370
     0
  0
LINE
  5
507
330
2
100
AcDbEntity
  8
GAIKEI
  6
Continuous
 48
0.00517
370
    40
100
AcDbLine
 10
-9.844334611375245
 20
10.59213526881902
 30
0.0
 11
-9.849549236375224
 21
10.56681526881905
 31
0.0
  0
POLYLINE
  5
508
330
2
100
AcDbEntity
  8
GAIKEI
  6
Continuous
370
    40
100
AcDb2dPolyline
 66
     1
 10
0.0
 20
0.0
 30
0.0
  0
VERTEX
  5
509
330
508
100
AcDbEntity
  8
GAIKEI
  6
Continuous
370
     0
100
AcDbVertex
100
AcDb2dVertex
 10
-10.33216948637523
 20
9.749274143819064
 30
0.0
  0
VERTEX
  5
50A
330
508
100
AcDbEntity
  8
GAIKEI
  6
Continuous
370
     0
100
AcDbVertex
100
AcDb2dVertex
 10
-10.31324098637523
 20
9.748543643819033
 30
0.0
  0
VERTEX
  5
50B
330
508
100
AcDbEntity
  8
GAIKEI
  6
Continuous
370
     0
100
AcDbVertex
100
AcDb2dVertex
 10
-10.29628461137523
 20
9.750922143819053
 30
0.0
  0
VERTEX
  5
50C
330
508
100
AcDbEntity
  8
GAIKEI
  6
Continuous
370
     0
100
AcDbVertex
100
AcDb2dVertex
 10
-10.27975173637523
 20
9.756188268819045
 30
0.0
  0
VERTEX
  5
50D
330
508
100
AcDbEntity
  8
GAIKEI
  6
Continuous
370
     0
100
AcDbVertex
100
AcDb2dVertex
 10
-10.25721448637523
 20
9.768904518819027
 30
0.0
  0
VERTEX
  5
50E
330
508
100
AcDbEntity
  8
GAIKEI
  6
Continuous
370
     0
100
AcDbVertex
100
AcDb2dVertex
 10
-10.23557373637524
 20
9.787913268819039
 30
0.0
  0
VERTEX
  5
50F
330
508
100
AcDbEntity
  8
GAIKEI
  6
Continuous
370
     0
100
AcDbVertex
100
AcDb2dVertex
 10
-10.20513248637523
 20
9.821238393819072
 30
0.0
  0
VERTEX
  5
510
330
508
100
AcDbEntity
  8
GAIKEI
  6
Continuous
370
     0
100
AcDbVertex
100
AcDb2dVertex
 10
-10.15125361137524
 20
9.889058018819042
 30
0.0
  0
VERTEX
  5
511
330
508
100
AcDbEntity
  8
GAIKEI
  6
Continuous
370
     0
100
AcDbVertex
100
AcDb2dVertex
 10
-10.09346861137524
 20
9.972500643819017
 30
0.0
  0
VERTEX
  5
512
330
508
100
AcDbEntity
  8
GAIKEI
  6
Continuous
370
     0
100
AcDbVertex
100
AcDb2dVertex
 10
-10.04069223637523
 20
10.05984201881907
 30
0.0
  0
VERTEX
  5
513
330
508
100
AcDbEntity
  8
GAIKEI
  6
Continuous
370
     0
100
AcDbVertex
100
AcDb2dVertex
 10
-9.99002548637523
 20
10.15664376881906
 30
0.0
  0
VERTEX
  5
514
330
508
100
AcDbEntity
  8
GAIKEI
  6
Continuous
370
     0
100
AcDbVertex
100
AcDb2dVertex
 10
-9.943974486375225
 20
10.25998389381905
 30
0.0
  0
VERTEX
  5
515
330
508
100
AcDbEntity
  8
GAIKEI
  6
Continuous
370
     0
100
AcDbVertex
100
AcDb2dVertex
 10
-9.903698861375232
 20
10.36851201881907
 30
0.0
  0
VERTEX
  5
516
330
508
100
AcDbEntity
  8
GAIKEI
  6
Continuous
370
     0
100
AcDbVertex
100
AcDb2dVertex
 10
-9.869709861375241
 20
10.48222239381906
 30
0.0
  0
VERTEX
  5
517
330
508
100
AcDbEntity
  8
GAIKEI
  6
Continuous
370
     0
100
AcDbVertex
100
AcDb2dVertex
 10
-9.849549236375224
 20
10.56681526881905
 30
0.0
  0
SEQEND
  5
518
330
508
100
AcDbEntity
  8
GAIKEI
  6
Continuous
370
     0
  0
ARC
  5
519
330
2
100
AcDbEntity
  8
GAIKEI
  6
Continuous
370
    40
100
AcDbCircle
 10
-11.80024048637523
 20
18.20860564381902
 30
0.0
 40
2.001074124999999
100
AcDbArc
 50
359.3594080000001
 51
31.53211099999845
  0
ARC
  5
51A
330
2
100
AcDbEntity
  8
GAIKEI
  6
Continuous
370
    40
100
AcDbCircle
 10
125.4400206386248
 20
16.70478714381906
 30
0.0
 40
135.247502625
100
AcDbArc
 50
179.3723930000005
 51
180.0167839999999
  0
LINE
  5
51B
330
2
100
AcDbEntity
  8
GAIKEI
  6
Continuous
370
    40
100
AcDbLine
 10
-9.807515111375238
 20
16.66516764381904
 30
0.0
 11
-9.807515111375238
 21
10.96638001881902
 31
0.0
  0
ARC
  5
51C
330
2
100
AcDbEntity
  8
GAIKEI
  6
Continuous
370
    40
100
AcDbCircle
 10
-11.72923748637524
 20
10.96652114381905
 30
0.0
 40
1.921724125
100
AcDbArc
 50
348.7659190000004
 51
359.9957760000007
  0
LINE
  5
51D
330
2
100
AcDbEntity
  8
GAIKEI
  6
Continuous
 48
0.000247
370
    13
100
AcDbLine
 10
-19.96574111137524
 20
9.929863768819046
 30
0.0
 11
-19.96660698637524
 21
9.92898639381903
 31
0.0
  0
LINE
  5
51E
330
2
100
AcDbEntity
  8
GAIKEI
  6
Continuous
 48
0.000304
370
    13
100
AcDbLine
 10
-20.05502786137524
 20
9.842989768819023
 30
0.0
 11
-20.05609986137523
 21
9.84191214381903
 31
0.0
  0
ARC
  5
51F
330
2
100
AcDbEntity
  8
GAIKEI
  6
Continuous
370
    13
100
AcDbCircle
 10
-20.30789848637524
 20
9.848149143819028
 30
0.0
 40
0.099740375
100
AcDbArc
 50
277.7639010000023
 51
315.0223539999996
  0
ARC
  5
520
330
2
100
AcDbEntity
  8
GAIKEI
  6
Continuous
370
    13
100
AcDbCircle
 10
-20.18547336137524
 20
9.901726643819046
 30
0.0
 40
0.050049375
100
AcDbArc
 50
315.0662350000001
 51
40.05967400000042
  0
LINE
  5
521
330
2
100
AcDbEntity
  8
GAIKEI
  6
Continuous
 48
0.000609
370
    13
100
AcDbLine
 10
-19.96574111137524
 20
9.929863768819046
 30
0.0
 11
-19.96855248637524
 21
9.931027268819065
 31
0.0
  0
LINE
  5
522
330
2
100
AcDbEntity
  8
GAIKEI
  6
Continuous
 48
0.024915
370
    13
100
AcDbLine
 10
-20.05502786137524
 20
9.842989768819023
 30
0.0
 11
-19.96574111137524
 21
9.929863768819046
 31
0.0
  0
ELLIPSE
  5
523
330
2
100
AcDbEntity
  8
GAIKEI
  6
Continuous
370
    13
100
AcDbEllipse
 10
-19.96364498637524
 20
9.938094018819043
 30
0.0
 11
-0.1417121887207031
 21
-0.1417198181152344
 31
0.0
210
0.0
220
0.0
230
1.0
 40
0.017421
 41
0.0235636935689041
 42
0.8526968597128577
  0
POLYLINE
  5
524
330
2
100
AcDbEntity
  8
GAIKEI
  6
Continuous
370
    13
100
AcDb2dPolyline
 66
     1
 10
0.0
 20
0.0
 30
0.0
  0
VERTEX
  5
525
330
524
100
AcDbEntity
  8
GAIKEI
  6
Continuous
370
     0
100
AcDbVertex
100
AcDb2dVertex
 10
-20.01607798637524
 20
9.886479268819044
 30
0.0
  0
VERTEX
  5
526
330
524
100
AcDbEntity
  8
GAIKEI
  6
Continuous
370
     0
100
AcDbVertex
100
AcDb2dVertex
 10
-20.01597498637523
 20
9.886511643819034
 30
0.0
  0
VERTEX
  5
527
330
524
100
AcDbEntity
  8
GAIKEI
  6
Continuous
370
     0
100
AcDbVertex
100
AcDb2dVertex
 10
-20.01565448637524
 20
9.886692893819059
 30
0.0
  0
VERTEX
  5
528
330
524
100
AcDbEntity
  8
GAIKEI
  6
Continuous
370
     0
100
AcDbVertex
100
AcDb2dVertex
 10
-20.01377573637524
 20
9.888153893819065
 30
0.0
  0
VERTEX
  5
529
330
524
100
AcDbEntity
  8
GAIKEI
  6
Continuous
370
     0
100
AcDbVertex
100
AcDb2dVertex
 10
-19.97616661137523
 20
9.923626768819048
 30
0.0
  0
SEQEND
  5
52A
330
524
100
AcDbEntity
  8
GAIKEI
  6
Continuous
370
     0
  0
ARC
  5
52B
330
2
100
AcDbEntity
  8
GAIKEI
  6
Continuous
370
    13
100
AcDbCircle
 10
-21.41379823637523
 20
17.99666101881908
 30
0.0
 40
8.161609625
100
AcDbArc
 50
278.9280180000003
 51
279.8699080000003
  0
POLYLINE
  5
52C
330
2
100
AcDbEntity
  8
GAIKEI
  6
Continuous
370
    13
100
AcDb2dPolyline
 66
     1
 10
0.0
 20
0.0
 30
0.0
  0
VERTEX
  5
52D
330
52C
100
AcDbEntity
  8
GAIKEI
  6
Continuous
370
     0
100
AcDbVertex
100
AcDb2dVertex
 10
-20.52537048637524
 20
10.73439114381907
 30
0.0
  0
VERTEX
  5
52E
330
52C
100
AcDbEntity
  8
GAIKEI
  6
Continuous
370
     0
100
AcDbVertex
100
AcDb2dVertex
 10
-20.50982561137523
 20
10.64387026881903
 30
0.0
  0
VERTEX
  5
52F
330
52C
100
AcDbEntity
  8
GAIKEI
  6
Continuous
370
     0
100
AcDbVertex
100
AcDb2dVertex
 10
-20.48890198637524
 20
10.55408939381905
 30
0.0
  0
VERTEX
  5
530
330
52C
100
AcDbEntity
  8
GAIKEI
  6
Continuous
370
     0
100
AcDbVertex
100
AcDb2dVertex
 10
-20.46271223637524
 20
10.46576964381907
 30
0.0
  0
VERTEX
  5
531
330
52C
100
AcDbEntity
  8
GAIKEI
  6
Continuous
370
     0
100
AcDbVertex
100
AcDb2dVertex
 10
-20.43153661137524
 20
10.37973489381906
 30
0.0
  0
VERTEX
  5
532
330
52C
100
AcDbEntity
  8
GAIKEI
  6
Continuous
370
     0
100
AcDbVertex
100
AcDb2dVertex
 10
-20.40097898637524
 20
10.30803389381904
 30
0.0
  0
VERTEX
  5
533
330
52C
100
AcDbEntity
  8
GAIKEI
  6
Continuous
370
     0
100
AcDbVertex
100
AcDb2dVertex
 10
-20.36746498637524
 20
10.23932351881902
 30
0.0
  0
VERTEX
  5
534
330
52C
100
AcDbEntity
  8
GAIKEI
  6
Continuous
370
     0
100
AcDbVertex
100
AcDb2dVertex
 10
-20.33163536137523
 20
10.17440114381904
 30
0.0
  0
VERTEX
  5
535
330
52C
100
AcDbEntity
  8
GAIKEI
  6
Continuous
370
     0
100
AcDbVertex
100
AcDb2dVertex
 10
-20.30378998637524
 20
10.12877364381907
 30
0.0
  0
VERTEX
  5
536
330
52C
100
AcDbEntity
  8
GAIKEI
  6
Continuous
370
     0
100
AcDbVertex
100
AcDb2dVertex
 10
-20.27568523637524
 20
10.08629889381907
 30
0.0
  0
VERTEX
  5
537
330
52C
100
AcDbEntity
  8
GAIKEI
  6
Continuous
370
     0
100
AcDbVertex
100
AcDb2dVertex
 10
-20.22627923637523
 20
10.01915439381903
 30
0.0
  0
VERTEX
  5
538
330
52C
100
AcDbEntity
  8
GAIKEI
  6
Continuous
370
     0
100
AcDbVertex
100
AcDb2dVertex
 10
-20.18369198637524
 20
9.968417018819053
 30
0.0
  0
VERTEX
  5
539
330
52C
100
AcDbEntity
  8
GAIKEI
  6
Continuous
370
     0
100
AcDbVertex
100
AcDb2dVertex
 10
-20.16569986137523
 20
9.949324518819054
 30
0.0
  0
VERTEX
  5
53A
330
52C
100
AcDbEntity
  8
GAIKEI
  6
Continuous
370
     0
100
AcDbVertex
100
AcDb2dVertex
 10
-20.15320486137523
 20
9.937628643819067
 30
0.0
  0
VERTEX
  5
53B
330
52C
100
AcDbEntity
  8
GAIKEI
  6
Continuous
370
     0
100
AcDbVertex
100
AcDb2dVertex
 10
-20.14842511137524
 20
9.934256393819026
 30
0.0
  0
VERTEX
  5
53C
330
52C
100
AcDbEntity
  8
GAIKEI
  6
Continuous
370
     0
100
AcDbVertex
100
AcDb2dVertex
 10
-20.14750386137524
 20
9.933941768819039
 30
0.0
  0
VERTEX
  5
53D
330
52C
100
AcDbEntity
  8
GAIKEI
  6
Continuous
370
     0
100
AcDbVertex
100
AcDb2dVertex
 10
-20.14716998637523
 20
9.933936018819025
 30
0.0
  0
SEQEND
  5
53E
330
52C
100
AcDbEntity
  8
GAIKEI
  6
Continuous
370
     0
  0
ARC
  5
53F
330
2
100
AcDbEntity
  8
GAIKEI
  6
Continuous
 62
     7
370
    13
100
AcDbCircle
 10
-18.90407848637522
 20
10.96429339381908
 30
0.0
 40
1.637511624999999
100
AcDbArc
 50
180.0015390000007
 51
188.0708330000006
  0
LINE
  5
540
330
2
100
AcDbEntity
  8
GAIKEI
  6
Continuous
 48
0.024895
370
    13
100
AcDbLine
 10
-20.23734561137523
 20
9.777651643819041
 30
0.0
 11
-20.15004436137524
 21
9.866379643819044
 31
0.0
  0
POLYLINE
  5
541
330
2
100
AcDbEntity
  8
GAIKEI
  6
Continuous
370
    13
100
AcDb2dPolyline
 66
     1
 10
0.0
 20
0.0
 30
0.0
  0
VERTEX
  5
542
330
541
100
AcDbEntity
  8
GAIKEI
  6
Continuous
370
     0
100
AcDbVertex
100
AcDb2dVertex
 10
-20.01480386137524
 20
9.955845768819045
 30
0.0
  0
VERTEX
  5
543
330
541
100
AcDbEntity
  8
GAIKEI
  6
Continuous
370
     0
100
AcDbVertex
100
AcDb2dVertex
 10
-20.01453486137524
 20
9.955937268819042
 30
0.0
  0
VERTEX
  5
544
330
541
100
AcDbEntity
  8
GAIKEI
  6
Continuous
370
     0
100
AcDbVertex
100
AcDb2dVertex
 10
-20.01345536137524
 20
9.956683018819063
 30
0.0
  0
VERTEX
  5
545
330
541
100
AcDbEntity
  8
GAIKEI
  6
Continuous
370
     0
100
AcDbVertex
100
AcDb2dVertex
 10
-20.00632561137523
 20
9.963028768819043
 30
0.0
  0
VERTEX
  5
546
330
541
100
AcDbEntity
  8
GAIKEI
  6
Continuous
370
     0
100
AcDbVertex
100
AcDb2dVertex
 10
-19.98820961137524
 20
9.980626018819037
 30
0.0
  0
SEQEND
  5
547
330
541
100
AcDbEntity
  8
GAIKEI
  6
Continuous
370
     0
  0
POLYLINE
  5
548
330
2
100
AcDbEntity
  8
GAIKEI
  6
Continuous
370
    13
100
AcDb2dPolyline
 66
     1
 10
0.0
 20
0.0
 30
0.0
  0
VERTEX
  5
549
330
548
100
AcDbEntity
  8
GAIKEI
  6
Continuous
370
     0
100
AcDbVertex
100
AcDb2dVertex
 10
-19.96855248637524
 20
9.931027268819065
 30
0.0
  0
VERTEX
  5
54A
330
548
100
AcDbEntity
  8
GAIKEI
  6
Continuous
370
     0
100
AcDbVertex
100
AcDb2dVertex
 10
-19.96449561137524
 20
9.937220518819032
 30
0.0
  0
VERTEX
  5
54B
330
548
100
AcDbEntity
  8
GAIKEI
  6
Continuous
370
     0
100
AcDbVertex
100
AcDb2dVertex
 10
-19.96258061137524
 20
9.944764018819029
 30
0.0
  0
VERTEX
  5
54C
330
548
100
AcDbEntity
  8
GAIKEI
  6
Continuous
370
     0
100
AcDbVertex
100
AcDb2dVertex
 10
-19.96341411137523
 20
9.956896643819078
 30
0.0
  0
VERTEX
  5
54D
330
548
100
AcDbEntity
  8
GAIKEI
  6
Continuous
370
     0
100
AcDbVertex
100
AcDb2dVertex
 10
-19.96779723637523
 20
9.969202893819073
 30
0.0
  0
VERTEX
  5
54E
330
548
100
AcDbEntity
  8
GAIKEI
  6
Continuous
370
     0
100
AcDbVertex
100
AcDb2dVertex
 10
-19.98086636137523
 20
9.987769018819022
 30
0.0
  0
SEQEND
  5
54F
330
548
100
AcDbEntity
  8
GAIKEI
  6
Continuous
370
     0
  0
LINE
  5
550
330
2
100
AcDbEntity
  8
GAIKEI
  6
Continuous
 48
0.002124
370
    13
100
AcDbLine
 10
-19.96855248637524
 20
9.931027268819065
 30
0.0
 11
-19.97616661137523
 21
9.923626768819048
 31
0.0
  0
ARC
  5
551
330
2
100
AcDbEntity
  8
GAIKEI
  6
Continuous
 62
     1
370
    40
100
AcDbCircle
 10
-20.41723911137524
 20
12.19746676881905
 30
0.0
 40
0.8328682500000002
100
AcDbArc
 50
267.9051919999982
 51
270.4145830000022
  0
ARC
  5
552
330
2
100
AcDbEntity
  8
GAIKEI
  6
Continuous
 62
     1
370
    40
100
AcDbCircle
 10
-20.41723911137524
 20
10.74775589381906
 30
0.0
 40
0.8328682500000002
100
AcDbArc
 50
89.58541699999788
 51
92.0948079999985
  0
ARC
  5
553
330
2
100
AcDbEntity
  8
GAIKEI
  6
Continuous
 62
     1
370
    40
100
AcDbCircle
 10
-20.41723911137524
 20
14.79746526881902
 30
0.0
 40
0.8328682500000002
100
AcDbArc
 50
267.9051919999982
 51
270.4145830000022
  0
ARC
  5
554
330
2
100
AcDbEntity
  8
GAIKEI
  6
Continuous
 62
     1
370
    40
100
AcDbCircle
 10
-20.41723911137524
 20
13.34775626881904
 30
0.0
 40
0.8328682500000002
100
AcDbArc
 50
89.58541699999788
 51
92.0948079999985
  0
ARC
  5
555
330
2
100
AcDbEntity
  8
GAIKEI
  6
Continuous
 62
     1
370
    40
100
AcDbCircle
 10
-20.41723911137524
 20
18.29746526881902
 30
0.0
 40
0.8328682500000002
100
AcDbArc
 50
267.9051919999982
 51
270.4145830000022
  0
ARC
  5
556
330
2
100
AcDbEntity
  8
GAIKEI
  6
Continuous
 62
     1
370
    40
100
AcDbCircle
 10
-20.41723911137524
 20
16.84775814381905
 30
0.0
 40
0.8328682500000002
100
AcDbArc
 50
89.58541699999788
 51
92.0948079999985
  0
LINE
  5
557
330
2
100
AcDbEntity
  8
GAIKEI
  6
Continuous
 62
     1
 48
0.014297
370
    40
100
AcDbLine
 10
-20.51162048637523
 20
14.14804351881904
 30
0.0
 11
-20.44768036137524
 21
14.18001064381903
 31
0.0
  0
POLYLINE
  5
558
330
2
100
AcDbEntity
  8
GAIKEI
  6
Continuous
 62
     1
370
    40
100
AcDb2dPolyline
 66
     1
 10
0.0
 20
0.0
 30
0.0
  0
VERTEX
  5
559
330
558
100
AcDbEntity
  8
GAIKEI
  6
Continuous
 62
     1
370
     0
100
AcDbVertex
100
AcDb2dVertex
 10
-20.51248448637524
 20
14.09804426881905
 30
0.0
  0
VERTEX
  5
55A
330
558
100
AcDbEntity
  8
GAIKEI
  6
Continuous
 62
     1
370
     0
100
AcDbVertex
100
AcDb2dVertex
 10
-20.51187611137523
 20
14.14570889381903
 30
0.0
  0
VERTEX
  5
55B
330
558
100
AcDbEntity
  8
GAIKEI
  6
Continuous
 62
     1
370
     0
100
AcDbVertex
100
AcDb2dVertex
 10
-20.51170636137525
 20
14.14774976881907
 30
0.0
  0
VERTEX
  5
55C
330
558
100
AcDbEntity
  8
GAIKEI
  6
Continuous
 62
     1
370
     0
100
AcDbVertex
100
AcDb2dVertex
 10
-20.51162048637523
 20
14.14804351881904
 30
0.0
  0
SEQEND
  5
55D
330
558
100
AcDbEntity
  8
GAIKEI
  6
Continuous
 62
     1
370
     0
  0
LINE
  5
55E
330
2
100
AcDbEntity
  8
GAIKEI
  6
Continuous
 62
     1
 48
0.010173
370
    40
100
AcDbLine
 10
-20.51248448637524
 20
14.04717914381902
 30
0.0
 11
-20.51248448637524
 21
14.09804426881905
 31
0.0
  0
POLYLINE
  5
55F
330
2
100
AcDbEntity
  8
GAIKEI
  6
Continuous
 62
     1
370
    40
100
AcDb2dPolyline
 66
     1
 10
0.0
 20
0.0
 30
0.0
  0
VERTEX
  5
560
330
55F
100
AcDbEntity
  8
GAIKEI
  6
Continuous
 62
     1
370
     0
100
AcDbVertex
100
AcDb2dVertex
 10
-20.51248448637524
 20
14.04717914381902
 30
0.0
  0
VERTEX
  5
561
330
55F
100
AcDbEntity
  8
GAIKEI
  6
Continuous
 62
     1
370
     0
100
AcDbVertex
100
AcDb2dVertex
 10
-20.51187611137523
 20
13.99951451881904
 30
0.0
  0
VERTEX
  5
562
330
55F
100
AcDbEntity
  8
GAIKEI
  6
Continuous
 62
     1
370
     0
100
AcDbVertex
100
AcDb2dVertex
 10
-20.51170636137525
 20
13.99747364381906
 30
0.0
  0
VERTEX
  5
563
330
55F
100
AcDbEntity
  8
GAIKEI
  6
Continuous
 62
     1
370
     0
100
AcDbVertex
100
AcDb2dVertex
 10
-20.51162048637523
 20
13.99717989381904
 30
0.0
  0
SEQEND
  5
564
330
55F
100
AcDbEntity
  8
GAIKEI
  6
Continuous
 62
     1
370
     0
  0
LINE
  5
565
330
2
100
AcDbEntity
  8
GAIKEI
  6
Continuous
 62
     1
 48
0.014297
370
    40
100
AcDbLine
 10
-20.51162048637523
 20
13.99717989381904
 30
0.0
 11
-20.44768036137524
 21
13.96521276881904
 31
0.0
  0
LINE
  5
566
330
2
100
AcDbEntity
  8
GAIKEI
  6
Continuous
 62
     1
 48
0.014297
370
    40
100
AcDbLine
 10
-20.51162048637523
 20
11.54804314381906
 30
0.0
 11
-20.44768036137524
 21
11.58001226881904
 31
0.0
  0
POLYLINE
  5
567
330
2
100
AcDbEntity
  8
GAIKEI
  6
Continuous
 62
     1
370
    40
100
AcDb2dPolyline
 66
     1
 10
0.0
 20
0.0
 30
0.0
  0
VERTEX
  5
568
330
567
100
AcDbEntity
  8
GAIKEI
  6
Continuous
 62
     1
370
     0
100
AcDbVertex
100
AcDb2dVertex
 10
-20.51248448637524
 20
11.49804576881902
 30
0.0
  0
VERTEX
  5
569
330
567
100
AcDbEntity
  8
GAIKEI
  6
Continuous
 62
     1
370
     0
100
AcDbVertex
100
AcDb2dVertex
 10
-20.51187611137523
 20
11.54570851881905
 30
0.0
  0
VERTEX
  5
56A
330
567
100
AcDbEntity
  8
GAIKEI
  6
Continuous
 62
     1
370
     0
100
AcDbVertex
100
AcDb2dVertex
 10
-20.51170636137525
 20
11.54775126881904
 30
0.0
  0
VERTEX
  5
56B
330
567
100
AcDbEntity
  8
GAIKEI
  6
Continuous
 62
     1
370
     0
100
AcDbVertex
100
AcDb2dVertex
 10
-20.51162048637523
 20
11.54804314381906
 30
0.0
  0
SEQEND
  5
56C
330
567
100
AcDbEntity
  8
GAIKEI
  6
Continuous
 62
     1
370
     0
  0
LINE
  5
56D
330
2
100
AcDbEntity
  8
GAIKEI
  6
Continuous
 62
     1
 48
0.010174
370
    40
100
AcDbLine
 10
-20.51248448637524
 20
11.44717676881905
 30
0.0
 11
-20.51248448637524
 21
11.49804576881902
 31
0.0
  0
POLYLINE
  5
56E
330
2
100
AcDbEntity
  8
GAIKEI
  6
Continuous
 62
     1
370
    40
100
AcDb2dPolyline
 66
     1
 10
0.0
 20
0.0
 30
0.0
  0
VERTEX
  5
56F
330
56E
100
AcDbEntity
  8
GAIKEI
  6
Continuous
 62
     1
370
     0
100
AcDbVertex
100
AcDb2dVertex
 10
-20.51248448637524
 20
11.44717676881905
 30
0.0
  0
VERTEX
  5
570
330
56E
100
AcDbEntity
  8
GAIKEI
  6
Continuous
 62
     1
370
     0
100
AcDbVertex
100
AcDb2dVertex
 10
-20.51187611137523
 20
11.39951414381906
 30
0.0
  0
VERTEX
  5
571
330
56E
100
AcDbEntity
  8
GAIKEI
  6
Continuous
 62
     1
370
     0
100
AcDbVertex
100
AcDb2dVertex
 10
-20.51170636137525
 20
11.39747326881902
 30
0.0
  0
VERTEX
  5
572
330
56E
100
AcDbEntity
  8
GAIKEI
  6
Continuous
 62
     1
370
     0
100
AcDbVertex
100
AcDb2dVertex
 10
-20.51162048637523
 20
11.39717951881906
 30
0.0
  0
SEQEND
  5
573
330
56E
100
AcDbEntity
  8
GAIKEI
  6
Continuous
 62
     1
370
     0
  0
LINE
  5
574
330
2
100
AcDbEntity
  8
GAIKEI
  6
Continuous
 62
     1
 48
0.014297
370
    40
100
AcDbLine
 10
-20.51162048637523
 20
11.39717951881906
 30
0.0
 11
-20.44768036137524
 21
11.36521039381907
 31
0.0
  0
LINE
  5
575
330
2
100
AcDbEntity
  8
GAIKEI
  6
Continuous
 62
     7
370
    13
100
AcDbLine
 10
-20.54158873637523
 20
16.73809714381903
 30
0.0
 11
-20.54158873637523
 21
10.96424951881906
 31
0.0
  0
LINE
  5
576
330
2
100
AcDbEntity
  8
GAIKEI
  6
Continuous
 62
     1
 48
0.014297
370
    40
100
AcDbLine
 10
-20.51162048637523
 20
17.64804351881904
 30
0.0
 11
-20.44768036137524
 21
17.68001064381903
 31
0.0
  0
POLYLINE
  5
577
330
2
100
AcDbEntity
  8
GAIKEI
  6
Continuous
 62
     1
370
    40
100
AcDb2dPolyline
 66
     1
 10
0.0
 20
0.0
 30
0.0
  0
VERTEX
  5
578
330
577
100
AcDbEntity
  8
GAIKEI
  6
Continuous
 62
     1
370
     0
100
AcDbVertex
100
AcDb2dVertex
 10
-20.51248448637524
 20
17.59804814381906
 30
0.0
  0
VERTEX
  5
579
330
577
100
AcDbEntity
  8
GAIKEI
  6
Continuous
 62
     1
370
     0
100
AcDbVertex
100
AcDb2dVertex
 10
-20.51187611137523
 20
17.64570889381903
 30
0.0
  0
VERTEX
  5
57A
330
577
100
AcDbEntity
  8
GAIKEI
  6
Continuous
 62
     1
370
     0
100
AcDbVertex
100
AcDb2dVertex
 10
-20.51170636137525
 20
17.64774976881907
 30
0.0
  0
VERTEX
  5
57B
330
577
100
AcDbEntity
  8
GAIKEI
  6
Continuous
 62
     1
370
     0
100
AcDbVertex
100
AcDb2dVertex
 10
-20.51162048637523
 20
17.64804351881904
 30
0.0
  0
SEQEND
  5
57C
330
577
100
AcDbEntity
  8
GAIKEI
  6
Continuous
 62
     1
370
     0
  0
LINE
  5
57D
330
2
100
AcDbEntity
  8
GAIKEI
  6
Continuous
 62
     1
 48
0.010174
370
    40
100
AcDbLine
 10
-20.51248448637524
 20
17.54717914381902
 30
0.0
 11
-20.51248448637524
 21
17.59804814381906
 31
0.0
  0
POLYLINE
  5
57E
330
2
100
AcDbEntity
  8
GAIKEI
  6
Continuous
 62
     1
370
    40
100
AcDb2dPolyline
 66
     1
 10
0.0
 20
0.0
 30
0.0
  0
VERTEX
  5
57F
330
57E
100
AcDbEntity
  8
GAIKEI
  6
Continuous
 62
     1
370
     0
100
AcDbVertex
100
AcDb2dVertex
 10
-20.51248448637524
 20
17.54717914381902
 30
0.0
  0
VERTEX
  5
580
330
57E
100
AcDbEntity
  8
GAIKEI
  6
Continuous
 62
     1
370
     0
100
AcDbVertex
100
AcDb2dVertex
 10
-20.51187611137523
 20
17.49951451881904
 30
0.0
  0
VERTEX
  5
581
330
57E
100
AcDbEntity
  8
GAIKEI
  6
Continuous
 62
     1
370
     0
100
AcDbVertex
100
AcDb2dVertex
 10
-20.51170636137525
 20
17.49747364381906
 30
0.0
  0
VERTEX
  5
582
330
57E
100
AcDbEntity
  8
GAIKEI
  6
Continuous
 62
     1
370
     0
100
AcDbVertex
100
AcDb2dVertex
 10
-20.51162048637523
 20
17.49717989381904
 30
0.0
  0
SEQEND
  5
583
330
57E
100
AcDbEntity
  8
GAIKEI
  6
Continuous
 62
     1
370
     0
  0
LINE
  5
584
330
2
100
AcDbEntity
  8
GAIKEI
  6
Continuous
 62
     1
 48
0.014297
370
    40
100
AcDbLine
 10
-20.51162048637523
 20
17.49717989381904
 30
0.0
 11
-20.44768036137524
 21
17.46521276881904
 31
0.0
  0
ARC
  5
585
330
2
100
AcDbEntity
  8
GAIKEI
  6
Continuous
370
    13
100
AcDbCircle
 10
-18.85319986137523
 20
18.20692339381904
 30
0.0
 40
1.695729625
100
AcDbArc
 50
142.6589919999986
 51
180.6314459999998
  0
ARC
  5
586
330
2
100
AcDbEntity
  8
GAIKEI
  6
Continuous
370
    13
100
AcDbCircle
 10
-161.6067704863752
 20
16.76298414381907
 30
0.0
 40
141.06516775
100
AcDbArc
 50
359.9898909999997
 51
0.5788979999994954
  0
ARC
  5
587
330
2
100
AcDbEntity
  8
GAIKEI
  6
Continuous
 62
     1
370
    13
100
AcDbCircle
 10
-18.82835673637524
 20
11.05769814381907
 30
0.0
 40
1.582828624999999
100
AcDbArc
 50
196.5348989999995
 51
222.8806190000004
  0
ARC
  5
588
330
2
100
AcDbEntity
  8
GAIKEI
  6
Continuous
 62
     1
370
    13
100
AcDbCircle
 10
-18.82777298637524
 20
11.05788701881906
 30
0.0
 40
1.58343975
100
AcDbArc
 50
179.9949780000001
 51
191.0459410000007
  0
LINE
  5
589
330
2
100
AcDbEntity
  8
GAIKEI
  6
Continuous
 48
0.002049
370
    13
100
AcDbLine
 10
-19.98086636137523
 20
9.987769018819022
 30
0.0
 11
-19.98821161137523
 21
9.980627893819047
 31
0.0
  0
LINE
  5
58A
330
2
100
AcDbEntity
  8
GAIKEI
  6
Continuous
 62
     1
 48
0.060707
370
    13
100
AcDbLine
 10
-20.41121186137524
 20
11.06101889381907
 30
0.0
 11
-20.41121186137524
 21
11.36455239381908
 31
0.0
  0
LINE
  5
58B
330
2
100
AcDbEntity
  8
GAIKEI
  6
Continuous
 62
     1
 48
0.019548
370
    40
100
AcDbLine
 10
-20.31347361137523
 20
11.36391339381904
 30
0.0
 11
-20.41121186137524
 21
11.36455239381908
 31
0.0
  0
LINE
  5
58C
330
2
100
AcDbEntity
  8
GAIKEI
  6
Continuous
 62
     1
 48
0.019548
370
    40
100
AcDbLine
 10
-20.31347361137523
 20
11.58130926881907
 30
0.0
 11
-20.41121186137524
 21
11.58067026881903
 31
0.0
  0
LINE
  5
58D
330
2
100
AcDbEntity
  8
GAIKEI
  6
Continuous
 62
     1
 48
0.4767770000000001
370
    13
100
AcDbLine
 10
-20.41121186137524
 20
11.58067026881903
 30
0.0
 11
-20.41121186137524
 21
13.96455276881906
 31
0.0
  0
LINE
  5
58E
330
2
100
AcDbEntity
  8
GAIKEI
  6
Continuous
 62
     1
 48
0.019548
370
    40
100
AcDbLine
 10
-20.31347361137523
 20
13.96391189381907
 30
0.0
 11
-20.41121186137524
 21
13.96455276881906
 31
0.0
  0
LINE
  5
58F
330
2
100
AcDbEntity
  8
GAIKEI
  6
Continuous
 62
     1
 48
0.019548
370
    40
100
AcDbLine
 10
-20.31347361137523
 20
14.18131151881906
 30
0.0
 11
-20.41121186137524
 21
14.18067064381907
 31
0.0
  0
LINE
  5
590
330
2
100
AcDbEntity
  8
GAIKEI
  6
Continuous
 62
     1
370
    13
100
AcDbLine
 10
-20.41121186137524
 20
14.18067064381907
 30
0.0
 11
-20.41121186137524
 21
17.46455276881906
 31
0.0
  0
LINE
  5
591
330
2
100
AcDbEntity
  8
GAIKEI
  6
Continuous
 62
     1
 48
0.019548
370
    40
100
AcDbLine
 10
-20.31347361137523
 20
17.46391189381907
 30
0.0
 11
-20.41121186137524
 21
17.46455276881906
 31
0.0
  0
LINE
  5
592
330
2
100
AcDbEntity
  8
GAIKEI
  6
Continuous
 62
     1
 48
0.019548
370
    40
100
AcDbLine
 10
-20.31347361137523
 20
17.68131151881906
 30
0.0
 11
-20.41121186137524
 21
17.68067064381907
 31
0.0
  0
LINE
  5
593
330
2
100
AcDbEntity
  8
GAIKEI
  6
Continuous
 62
     1
 48
0.080709
370
    13
100
AcDbLine
 10
-20.41121186137524
 20
17.68067064381907
 30
0.0
 11
-20.41121186137524
 21
18.08421601881903
 31
0.0
  0
ARC
  5
594
330
2
100
AcDbEntity
  8
GAIKEI
  6
Continuous
370
    13
100
AcDbCircle
 10
-18.97027673637524
 20
18.30309576881908
 30
0.0
 40
1.543762875
100
AcDbArc
 50
89.91687200000161
 51
136.9338999999998
  0
ARC
  5
595
330
2
100
AcDbEntity
  8
GAIKEI
  6
Continuous
370
    13
100
AcDbCircle
 10
-18.94552898637524
 20
18.27667889381902
 30
0.0
 40
1.57997875
100
AcDbArc
 50
136.8468290000006
 51
142.6391570000001
  0
LINE
  5
596
330
2
100
AcDbEntity
  8
GAIKEI
  6
Continuous
 48
0.000598
370
    13
100
AcDbLine
 10
-20.41121186137524
 20
18.08420451881906
 30
0.0
 11
-20.41119286137524
 21
18.08719526881904
 31
0.0
  0
ARC
  5
597
330
2
100
AcDbEntity
  8
GAIKEI
  6
Continuous
 62
     1
370
    13
100
AcDbCircle
 10
-18.82826698637524
 20
18.08740514381904
 30
0.0
 40
1.582964624999999
100
AcDbArc
 50
89.99249599999975
 51
180.0075490000002
  0
LINE
  5
598
330
2
100
AcDbEntity
  8
GAIKEI
  6
Continuous
 48
0.000599
370
    13
100
AcDbLine
 10
-18.82805911137524
 20
19.67035189381906
 30
0.0
 11
-18.82506648637523
 21
19.67037089381907
 31
0.0
  0
ARC
  5
599
330
2
100
AcDbEntity
  8
GAIKEI
  6
Continuous
 62
     1
370
    40
100
AcDbCircle
 10
-16.38861936137523
 20
19.67637526881904
 30
0.0
 40
0.8328682500000002
100
AcDbArc
 50
177.9051999999997
 51
180.4145739999998
  0
ARC
  5
59A
330
2
100
AcDbEntity
  8
GAIKEI
  6
Continuous
 62
     1
370
    40
100
AcDbCircle
 10
-17.83833023637524
 20
19.67637526881904
 30
0.0
 40
0.8328682500000002
100
AcDbArc
 50
359.5854199999991
 51
2.094805000000571
  0
ARC
  5
59B
330
2
100
AcDbEntity
  8
GAIKEI
  6
Continuous
 62
     1
370
    40
100
AcDbCircle
 10
-12.78861711137523
 20
19.67637526881904
 30
0.0
 40
0.8328682500000002
100
AcDbArc
 50
177.9051999999997
 51
180.4145739999998
  0
ARC
  5
59C
330
2
100
AcDbEntity
  8
GAIKEI
  6
Continuous
 62
     1
370
    40
100
AcDbCircle
 10
-14.23832798637524
 20
19.67637526881904
 30
0.0
 40
0.8328682500000002
100
AcDbArc
 50
359.5854199999991
 51
2.094805000000571
  0
LINE
  5
59D
330
2
100
AcDbEntity
  8
GAIKEI
  6
Continuous
 62
     1
 48
0.014297
370
    40
100
AcDbLine
 10
-17.03804111137523
 20
19.77075851881906
 30
0.0
 11
-17.00607386137523
 21
19.70682039381907
 31
0.0
  0
POLYLINE
  5
59E
330
2
100
AcDbEntity
  8
GAIKEI
  6
Continuous
 62
     1
370
    40
100
AcDb2dPolyline
 66
     1
 10
0.0
 20
0.0
 30
0.0
  0
VERTEX
  5
59F
330
59E
100
AcDbEntity
  8
GAIKEI
  6
Continuous
 62
     1
370
     0
100
AcDbVertex
100
AcDb2dVertex
 10
-17.08804036137523
 20
19.77162451881904
 30
0.0
  0
VERTEX
  5
5A0
330
59E
100
AcDbEntity
  8
GAIKEI
  6
Continuous
 62
     1
370
     0
100
AcDbVertex
100
AcDb2dVertex
 10
-17.04037561137522
 20
19.77101414381903
 30
0.0
  0
VERTEX
  5
5A1
330
59E
100
AcDbEntity
  8
GAIKEI
  6
Continuous
 62
     1
370
     0
100
AcDbVertex
100
AcDb2dVertex
 10
-17.03833473637523
 20
19.77084626881904
 30
0.0
  0
VERTEX
  5
5A2
330
59E
100
AcDbEntity
  8
GAIKEI
  6
Continuous
 62
     1
370
     0
100
AcDbVertex
100
AcDb2dVertex
 10
-17.03804111137523
 20
19.77075851881906
 30
0.0
  0
SEQEND
  5
5A3
330
59E
100
AcDbEntity
  8
GAIKEI
  6
Continuous
 62
     1
370
     0
  0
LINE
  5
5A4
330
2
100
AcDbEntity
  8
GAIKEI
  6
Continuous
 62
     1
 48
0.010174
370
    40
100
AcDbLine
 10
-17.13890923637524
 20
19.77162451881904
 30
0.0
 11
-17.08804036137523
 21
19.77162451881904
 31
0.0
  0
POLYLINE
  5
5A5
330
2
100
AcDbEntity
  8
GAIKEI
  6
Continuous
 62
     1
370
    40
100
AcDb2dPolyline
 66
     1
 10
0.0
 20
0.0
 30
0.0
  0
VERTEX
  5
5A6
330
5A5
100
AcDbEntity
  8
GAIKEI
  6
Continuous
 62
     1
370
     0
100
AcDbVertex
100
AcDb2dVertex
 10
-17.13890923637524
 20
19.77162451881904
 30
0.0
  0
VERTEX
  5
5A7
330
5A5
100
AcDbEntity
  8
GAIKEI
  6
Continuous
 62
     1
370
     0
100
AcDbVertex
100
AcDb2dVertex
 10
-17.18657011137523
 20
19.77101414381903
 30
0.0
  0
VERTEX
  5
5A8
330
5A5
100
AcDbEntity
  8
GAIKEI
  6
Continuous
 62
     1
370
     0
100
AcDbVertex
100
AcDb2dVertex
 10
-17.18861098637524
 20
19.77084626881904
 30
0.0
  0
VERTEX
  5
5A9
330
5A5
100
AcDbEntity
  8
GAIKEI
  6
Continuous
 62
     1
370
     0
100
AcDbVertex
100
AcDb2dVertex
 10
-17.18890473637523
 20
19.77075851881906
 30
0.0
  0
SEQEND
  5
5AA
330
5A5
100
AcDbEntity
  8
GAIKEI
  6
Continuous
 62
     1
370
     0
  0
LINE
  5
5AB
330
2
100
AcDbEntity
  8
GAIKEI
  6
Continuous
 62
     1
 48
0.014297
370
    40
100
AcDbLine
 10
-17.18890473637523
 20
19.77075851881906
 30
0.0
 11
-17.22087186137523
 21
19.70682039381907
 31
0.0
  0
LINE
  5
5AC
330
2
100
AcDbEntity
  8
GAIKEI
  6
Continuous
 62
     1
 48
0.014297
370
    40
100
AcDbLine
 10
-13.43804261137524
 20
19.77075851881906
 30
0.0
 11
-13.40607548637524
 21
19.70682039381907
 31
0.0
  0
POLYLINE
  5
5AD
330
2
100
AcDbEntity
  8
GAIKEI
  6
Continuous
 62
     1
370
    40
100
AcDb2dPolyline
 66
     1
 10
0.0
 20
0.0
 30
0.0
  0
VERTEX
  5
5AE
330
5AD
100
AcDbEntity
  8
GAIKEI
  6
Continuous
 62
     1
370
     0
100
AcDbVertex
100
AcDb2dVertex
 10
-13.48803798637523
 20
19.77162451881904
 30
0.0
  0
VERTEX
  5
5AF
330
5AD
100
AcDbEntity
  8
GAIKEI
  6
Continuous
 62
     1
370
     0
100
AcDbVertex
100
AcDb2dVertex
 10
-13.44037723637524
 20
19.77101414381903
 30
0.0
  0
VERTEX
  5
5B0
330
5AD
100
AcDbEntity
  8
GAIKEI
  6
Continuous
 62
     1
370
     0
100
AcDbVertex
100
AcDb2dVertex
 10
-13.43833636137523
 20
19.77084626881904
 30
0.0
  0
VERTEX
  5
5B1
330
5AD
100
AcDbEntity
  8
GAIKEI
  6
Continuous
 62
     1
370
     0
100
AcDbVertex
100
AcDb2dVertex
 10
-13.43804261137524
 20
19.77075851881906
 30
0.0
  0
SEQEND
  5
5B2
330
5AD
100
AcDbEntity
  8
GAIKEI
  6
Continuous
 62
     1
370
     0
  0
LINE
  5
5B3
330
2
100
AcDbEntity
  8
GAIKEI
  6
Continuous
 62
     1
 48
0.010174
370
    40
100
AcDbLine
 10
-13.53890698637524
 20
19.77162451881904
 30
0.0
 11
-13.48803798637523
 21
19.77162451881904
 31
0.0
  0
POLYLINE
  5
5B4
330
2
100
AcDbEntity
  8
GAIKEI
  6
Continuous
 62
     1
370
    40
100
AcDb2dPolyline
 66
     1
 10
0.0
 20
0.0
 30
0.0
  0
VERTEX
  5
5B5
330
5B4
100
AcDbEntity
  8
GAIKEI
  6
Continuous
 62
     1
370
     0
100
AcDbVertex
100
AcDb2dVertex
 10
-13.53890698637524
 20
19.77162451881904
 30
0.0
  0
VERTEX
  5
5B6
330
5B4
100
AcDbEntity
  8
GAIKEI
  6
Continuous
 62
     1
370
     0
100
AcDbVertex
100
AcDb2dVertex
 10
-13.58657161137523
 20
19.77101414381903
 30
0.0
  0
VERTEX
  5
5B7
330
5B4
100
AcDbEntity
  8
GAIKEI
  6
Continuous
 62
     1
370
     0
100
AcDbVertex
100
AcDb2dVertex
 10
-13.58861248637524
 20
19.77084626881904
 30
0.0
  0
VERTEX
  5
5B8
330
5B4
100
AcDbEntity
  8
GAIKEI
  6
Continuous
 62
     1
370
     0
100
AcDbVertex
100
AcDb2dVertex
 10
-13.58890623637523
 20
19.77075851881906
 30
0.0
  0
SEQEND
  5
5B9
330
5B4
100
AcDbEntity
  8
GAIKEI
  6
Continuous
 62
     1
370
     0
  0
LINE
  5
5BA
330
2
100
AcDbEntity
  8
GAIKEI
  6
Continuous
 62
     1
 48
0.014297
370
    40
100
AcDbLine
 10
-13.58890623637523
 20
19.77075851881906
 30
0.0
 11
-13.62087336137523
 21
19.70682039381907
 31
0.0
  0
LINE
  5
5BB
330
2
100
AcDbEntity
  8
GAIKEI
  6
Continuous
370
    13
100
AcDbLine
 10
-11.65890973637523
 20
19.84693039381906
 30
0.0
 11
-18.96803761137524
 21
19.84693039381906
 31
0.0
  0
LINE
  5
5BC
330
2
100
AcDbEntity
  8
GAIKEI
  6
Continuous
 62
     1
 48
0.320707
370
    13
100
AcDbLine
 10
-18.82506648637523
 20
19.67034801881905
 30
0.0
 11
-17.22153186137524
 21
19.67034801881905
 31
0.0
  0
LINE
  5
5BD
330
2
100
AcDbEntity
  8
GAIKEI
  6
Continuous
 62
     1
 48
0.019548
370
    40
100
AcDbLine
 10
-17.22217273637523
 20
19.57261164381904
 30
0.0
 11
-17.22153186137524
 21
19.67034801881905
 31
0.0
  0
LINE
  5
5BE
330
2
100
AcDbEntity
  8
GAIKEI
  6
Continuous
 62
     1
 48
0.019548
370
    40
100
AcDbLine
 10
-17.00477686137523
 20
19.57261164381904
 30
0.0
 11
-17.00541398637523
 21
19.67034801881905
 31
0.0
  0
LINE
  5
5BF
330
2
100
AcDbEntity
  8
GAIKEI
  6
Continuous
 62
     1
370
    13
100
AcDbLine
 10
-17.00541398637523
 20
19.67034801881905
 30
0.0
 11
-13.62153336137524
 21
19.67034801881905
 31
0.0
  0
LINE
  5
5C0
330
2
100
AcDbEntity
  8
GAIKEI
  6
Continuous
 62
     1
 48
0.019548
370
    40
100
AcDbLine
 10
-13.62217036137522
 20
19.57261164381904
 30
0.0
 11
-13.62153336137524
 21
19.67034801881905
 31
0.0
  0
LINE
  5
5C1
330
2
100
AcDbEntity
  8
GAIKEI
  6
Continuous
 62
     1
 48
0.019548
370
    40
100
AcDbLine
 10
-13.40477461137524
 20
19.57261164381904
 30
0.0
 11
-13.40541548637523
 21
19.67034801881905
 31
0.0
  0
LINE
  5
5C2
330
2
100
AcDbEntity
  8
GAIKEI
  6
Continuous
 62
     1
 48
0.320709
370
    13
100
AcDbLine
 10
-13.40541548637523
 20
19.67034801881905
 30
0.0
 11
-11.80186936137522
 21
19.67034801881905
 31
0.0
  0
ARC
  5
5C3
330
2
100
AcDbEntity
  8
GAIKEI
  6
Continuous
370
    13
100
AcDbCircle
 10
-11.65665911137523
 20
18.30312239381905
 30
0.0
 40
1.54373675
100
AcDbArc
 50
43.0656810000014
 51
90.08351499999973
  0
LINE
  5
5C4
330
2
100
AcDbEntity
  8
GAIKEI
  6
Continuous
 48
0.000598
370
    13
100
AcDbLine
 10
-11.80188073637524
 20
19.67035189381906
 30
0.0
 11
-11.79889011137524
 21
19.67033276881906
 31
0.0
  0
ARC
  5
5C5
330
2
100
AcDbEntity
  8
GAIKEI
  6
Continuous
 62
     1
370
    13
100
AcDbCircle
 10
-11.79868023637523
 20
18.08740514381904
 30
0.0
 40
1.582964624999999
100
AcDbArc
 50
359.9924979999993
 51
90.00755700000018
  0
ARC
  5
5C6
330
2
100
AcDbEntity
  8
GAIKEI
  6
Continuous
 62
     1
370
    13
100
AcDbCircle
 10
-11.79909223637523
 20
11.05787364381902
 30
0.0
 40
1.583356
100
AcDbArc
 50
348.9535899999992
 51
0.0055609999997533
  0
ARC
  5
5C7
330
2
100
AcDbEntity
  8
GAIKEI
  6
Continuous
 62
     1
370
    40
100
AcDbCircle
 10
-10.20971011137524
 20
14.79746526881902
 30
0.0
 40
0.8328682500000002
100
AcDbArc
 50
269.5854189999977
 51
272.0948030000014
  0
ARC
  5
5C8
330
2
100
AcDbEntity
  8
GAIKEI
  6
Continuous
 62
     1
370
    40
100
AcDbCircle
 10
-10.20971011137524
 20
13.34775626881904
 30
0.0
 40
0.8328682500000002
100
AcDbArc
 50
87.90519700000183
 51
90.41458100000234
  0
ARC
  5
5C9
330
2
100
AcDbEntity
  8
GAIKEI
  6
Continuous
 62
     1
370
    40
100
AcDbCircle
 10
-10.20971011137524
 20
18.29746526881902
 30
0.0
 40
0.8328682500000002
100
AcDbArc
 50
269.5854189999977
 51
272.0948030000014
  0
LINE
  5
5CA
330
2
100
AcDbEntity
  8
GAIKEI
  6
Continuous
 48
0.000599
370
    13
100
AcDbLine
 10
-10.21573348637523
 20
18.08719914381905
 30
0.0
 11
-10.21571436137523
 21
18.08420451881906
 31
0.0
  0
ARC
  5
5CB
330
2
100
AcDbEntity
  8
GAIKEI
  6
Continuous
370
    13
100
AcDbCircle
 10
-11.68090523637522
 20
18.27712139381904
 30
0.0
 40
1.579301375
100
AcDbArc
 50
37.35931100000048
 51
43.15414599999978
  0
ARC
  5
5CC
330
2
100
AcDbEntity
  8
GAIKEI
  6
Continuous
370
    13
100
AcDbCircle
 10
-11.77383898637524
 20
18.20689289381906
 30
0.0
 40
1.695822124999999
100
AcDbArc
 50
359.3695969999995
 51
37.33993399999981
  0
ARC
  5
5CD
330
2
100
AcDbEntity
  8
GAIKEI
  6
Continuous
370
    13
100
AcDbCircle
 10
-11.72296998637523
 20
10.96429914381903
 30
0.0
 40
1.637613125
100
AcDbArc
 50
351.9294679999998
 51
359.9982649999994
  0
POLYLINE
  5
5CE
330
2
100
AcDbEntity
  8
GAIKEI
  6
Continuous
370
    13
100
AcDb2dPolyline
 66
     1
 10
0.0
 20
0.0
 30
0.0
  0
VERTEX
  5
5CF
330
5CE
100
AcDbEntity
  8
GAIKEI
  6
Continuous
370
     0
100
AcDbVertex
100
AcDb2dVertex
 10
-10.10157486137524
 20
10.73439114381907
 30
0.0
  0
VERTEX
  5
5D0
330
5CE
100
AcDbEntity
  8
GAIKEI
  6
Continuous
370
     0
100
AcDbVertex
100
AcDb2dVertex
 10
-10.11712361137523
 20
10.64386839381907
 30
0.0
  0
VERTEX
  5
5D1
330
5CE
100
AcDbEntity
  8
GAIKEI
  6
Continuous
370
     0
100
AcDbVertex
100
AcDb2dVertex
 10
-10.13803573637523
 20
10.55409139381905
 30
0.0
  0
VERTEX
  5
5D2
330
5CE
100
AcDbEntity
  8
GAIKEI
  6
Continuous
370
     0
100
AcDbVertex
100
AcDb2dVertex
 10
-10.16420836137524
 20
10.46578114381904
 30
0.0
  0
VERTEX
  5
5D3
330
5CE
100
AcDbEntity
  8
GAIKEI
  6
Continuous
370
     0
100
AcDbVertex
100
AcDb2dVertex
 10
-10.19537448637524
 20
10.37974826881904
 30
0.0
  0
VERTEX
  5
5D4
330
5CE
100
AcDbEntity
  8
GAIKEI
  6
Continuous
370
     0
100
AcDbVertex
100
AcDb2dVertex
 10
-10.22594161137523
 20
10.30804151881906
 30
0.0
  0
VERTEX
  5
5D5
330
5CE
100
AcDbEntity
  8
GAIKEI
  6
Continuous
370
     0
100
AcDbVertex
100
AcDb2dVertex
 10
-10.25946898637522
 20
10.23932539381903
 30
0.0
  0
VERTEX
  5
5D6
330
5CE
100
AcDbEntity
  8
GAIKEI
  6
Continuous
370
     0
100
AcDbVertex
100
AcDb2dVertex
 10
-10.29531573637524
 20
10.17439164381906
 30
0.0
  0
VERTEX
  5
5D7
330
5CE
100
AcDbEntity
  8
GAIKEI
  6
Continuous
370
     0
100
AcDbVertex
100
AcDb2dVertex
 10
-10.32317448637523
 20
10.12875064381902
 30
0.0
  0
VERTEX
  5
5D8
330
5CE
100
AcDbEntity
  8
GAIKEI
  6
Continuous
370
     0
100
AcDbVertex
100
AcDb2dVertex
 10
-10.35130786137523
 20
10.08625114381905
 30
0.0
  0
VERTEX
  5
5D9
330
5CE
100
AcDbEntity
  8
GAIKEI
  6
Continuous
370
     0
100
AcDbVertex
100
AcDb2dVertex
 10
-10.40072336137524
 20
10.01909726881902
 30
0.0
  0
VERTEX
  5
5DA
330
5CE
100
AcDbEntity
  8
GAIKEI
  6
Continuous
370
     0
100
AcDbVertex
100
AcDb2dVertex
 10
-10.44332211137524
 20
9.96834651881906
 30
0.0
  0
VERTEX
  5
5DB
330
5CE
100
AcDbEntity
  8
GAIKEI
  6
Continuous
370
     0
100
AcDbVertex
100
AcDb2dVertex
 10
-10.46126648637522
 20
9.94930351881905
 30
0.0
  0
VERTEX
  5
5DC
330
5CE
100
AcDbEntity
  8
GAIKEI
  6
Continuous
370
     0
100
AcDbVertex
100
AcDb2dVertex
 10
-10.47373673637523
 20
9.937634393819081
 30
0.0
  0
VERTEX
  5
5DD
330
5CE
100
AcDbEntity
  8
GAIKEI
  6
Continuous
370
     0
100
AcDbVertex
100
AcDb2dVertex
 10
-10.47852036137523
 20
9.934258393819078
 30
0.0
  0
VERTEX
  5
5DE
330
5CE
100
AcDbEntity
  8
GAIKEI
  6
Continuous
370
     0
100
AcDbVertex
100
AcDb2dVertex
 10
-10.47944348637523
 20
9.933941768819039
 30
0.0
  0
VERTEX
  5
5DF
330
5CE
100
AcDbEntity
  8
GAIKEI
  6
Continuous
370
     0
100
AcDbVertex
100
AcDb2dVertex
 10
-10.47977923637523
 20
9.933936018819025
 30
0.0
  0
SEQEND
  5
5E0
330
5CE
100
AcDbEntity
  8
GAIKEI
  6
Continuous
370
     0
  0
ARC
  5
5E1
330
2
100
AcDbEntity
  8
GAIKEI
  6
Continuous
 62
     1
370
    40
100
AcDbCircle
 10
-10.20971011137524
 20
12.19746676881905
 30
0.0
 40
0.8328682500000002
100
AcDbArc
 50
269.5854189999977
 51
272.0948030000014
  0
ARC
  5
5E2
330
2
100
AcDbEntity
  8
GAIKEI
  6
Continuous
 62
     1
370
    40
100
AcDbCircle
 10
-10.20971011137524
 20
10.74775589381906
 30
0.0
 40
0.8328682500000002
100
AcDbArc
 50
87.90519700000183
 51
90.41458100000234
  0
LINE
  5
5E3
330
2
100
AcDbEntity
  8
GAIKEI
  6
Continuous
 62
     1
 48
0.019548
370
    40
100
AcDbLine
 10
-10.31347361137523
 20
17.46391189381907
 30
0.0
 11
-10.21573723637523
 21
17.46455276881906
 31
0.0
  0
LINE
  5
5E4
330
2
100
AcDbEntity
  8
GAIKEI
  6
Continuous
 62
     1
 48
0.019548
370
    40
100
AcDbLine
 10
-10.31347361137523
 20
14.18131151881906
 30
0.0
 11
-10.21573723637523
 21
14.18067064381907
 31
0.0
  0
LINE
  5
5E5
330
2
100
AcDbEntity
  8
GAIKEI
  6
Continuous
 62
     1
 48
0.019548
370
    40
100
AcDbLine
 10
-10.31347361137523
 20
13.96391189381907
 30
0.0
 11
-10.21573723637523
 21
13.96455276881906
 31
0.0
  0
LINE
  5
5E6
330
2
100
AcDbEntity
  8
GAIKEI
  6
Continuous
 62
     1
 48
0.019548
370
    40
100
AcDbLine
 10
-10.31347361137523
 20
11.58130926881907
 30
0.0
 11
-10.21573723637523
 21
11.58067026881903
 31
0.0
  0
LINE
  5
5E7
330
2
100
AcDbEntity
  8
GAIKEI
  6
Continuous
 62
     1
 48
0.019548
370
    40
100
AcDbLine
 10
-10.31347361137523
 20
11.36391339381904
 30
0.0
 11
-10.21573723637523
 21
11.36455239381908
 31
0.0
  0
LINE
  5
5E8
330
2
100
AcDbEntity
  8
GAIKEI
  6
Continuous
 62
     1
 48
0.060709
370
    13
100
AcDbLine
 10
-10.21573723637523
 20
11.36455239381908
 30
0.0
 11
-10.21573723637523
 21
11.06100551881903
 31
0.0
  0
LINE
  5
5E9
330
2
100
AcDbEntity
  8
GAIKEI
  6
Continuous
 62
     1
 48
0.014297
370
    40
100
AcDbLine
 10
-10.11532686137524
 20
13.99717989381904
 30
0.0
 11
-10.17926498637524
 21
13.96521276881904
 31
0.0
  0
POLYLINE
  5
5EA
330
2
100
AcDbEntity
  8
GAIKEI
  6
Continuous
 62
     1
370
    40
100
AcDb2dPolyline
 66
     1
 10
0.0
 20
0.0
 30
0.0
  0
VERTEX
  5
5EB
330
5EA
100
AcDbEntity
  8
GAIKEI
  6
Continuous
 62
     1
370
     0
100
AcDbVertex
100
AcDb2dVertex
 10
-10.11446086137523
 20
14.04717914381902
 30
0.0
  0
VERTEX
  5
5EC
330
5EA
100
AcDbEntity
  8
GAIKEI
  6
Continuous
 62
     1
370
     0
100
AcDbVertex
100
AcDb2dVertex
 10
-10.11507123637523
 20
13.99951451881904
 30
0.0
  0
VERTEX
  5
5ED
330
5EA
100
AcDbEntity
  8
GAIKEI
  6
Continuous
 62
     1
370
     0
100
AcDbVertex
100
AcDb2dVertex
 10
-10.11523911137523
 20
13.99747364381906
 30
0.0
  0
VERTEX
  5
5EE
330
5EA
100
AcDbEntity
  8
GAIKEI
  6
Continuous
 62
     1
370
     0
100
AcDbVertex
100
AcDb2dVertex
 10
-10.11532686137524
 20
13.99717989381904
 30
0.0
  0
SEQEND
  5
5EF
330
5EA
100
AcDbEntity
  8
GAIKEI
  6
Continuous
 62
     1
370
     0
  0
LINE
  5
5F0
330
2
100
AcDbEntity
  8
GAIKEI
  6
Continuous
 62
     1
 48
0.010173
370
    40
100
AcDbLine
 10
-10.11446086137523
 20
14.04717914381902
 30
0.0
 11
-10.11446086137523
 21
14.09804426881905
 31
0.0
  0
POLYLINE
  5
5F1
330
2
100
AcDbEntity
  8
GAIKEI
  6
Continuous
 62
     1
370
    40
100
AcDb2dPolyline
 66
     1
 10
0.0
 20
0.0
 30
0.0
  0
VERTEX
  5
5F2
330
5F1
100
AcDbEntity
  8
GAIKEI
  6
Continuous
 62
     1
370
     0
100
AcDbVertex
100
AcDb2dVertex
 10
-10.11446086137523
 20
14.09804426881905
 30
0.0
  0
VERTEX
  5
5F3
330
5F1
100
AcDbEntity
  8
GAIKEI
  6
Continuous
 62
     1
370
     0
100
AcDbVertex
100
AcDb2dVertex
 10
-10.11507123637523
 20
14.14570889381903
 30
0.0
  0
VERTEX
  5
5F4
330
5F1
100
AcDbEntity
  8
GAIKEI
  6
Continuous
 62
     1
370
     0
100
AcDbVertex
100
AcDb2dVertex
 10
-10.11523911137523
 20
14.14774976881907
 30
0.0
  0
VERTEX
  5
5F5
330
5F1
100
AcDbEntity
  8
GAIKEI
  6
Continuous
 62
     1
370
     0
100
AcDbVertex
100
AcDb2dVertex
 10
-10.11532686137524
 20
14.14804351881904
 30
0.0
  0
SEQEND
  5
5F6
330
5F1
100
AcDbEntity
  8
GAIKEI
  6
Continuous
 62
     1
370
     0
  0
LINE
  5
5F7
330
2
100
AcDbEntity
  8
GAIKEI
  6
Continuous
 62
     1
 48
0.014297
370
    40
100
AcDbLine
 10
-10.11532686137524
 20
14.14804351881904
 30
0.0
 11
-10.17926498637524
 21
14.18001064381903
 31
0.0
  0
LINE
  5
5F8
330
2
100
AcDbEntity
  8
GAIKEI
  6
Continuous
 62
     1
 48
0.014297
370
    40
100
AcDbLine
 10
-10.11532686137524
 20
17.49717989381904
 30
0.0
 11
-10.17926498637524
 21
17.46521276881904
 31
0.0
  0
POLYLINE
  5
5F9
330
2
100
AcDbEntity
  8
GAIKEI
  6
Continuous
 62
     1
370
    40
100
AcDb2dPolyline
 66
     1
 10
0.0
 20
0.0
 30
0.0
  0
VERTEX
  5
5FA
330
5F9
100
AcDbEntity
  8
GAIKEI
  6
Continuous
 62
     1
370
     0
100
AcDbVertex
100
AcDb2dVertex
 10
-10.11446086137523
 20
17.54717914381902
 30
0.0
  0
VERTEX
  5
5FB
330
5F9
100
AcDbEntity
  8
GAIKEI
  6
Continuous
 62
     1
370
     0
100
AcDbVertex
100
AcDb2dVertex
 10
-10.11507123637523
 20
17.49951451881904
 30
0.0
  0
VERTEX
  5
5FC
330
5F9
100
AcDbEntity
  8
GAIKEI
  6
Continuous
 62
     1
370
     0
100
AcDbVertex
100
AcDb2dVertex
 10
-10.11523911137523
 20
17.49747364381906
 30
0.0
  0
VERTEX
  5
5FD
330
5F9
100
AcDbEntity
  8
GAIKEI
  6
Continuous
 62
     1
370
     0
100
AcDbVertex
100
AcDb2dVertex
 10
-10.11532686137524
 20
17.49717989381904
 30
0.0
  0
SEQEND
  5
5FE
330
5F9
100
AcDbEntity
  8
GAIKEI
  6
Continuous
 62
     1
370
     0
  0
ARC
  5
5FF
330
2
100
AcDbEntity
  8
GAIKEI
  6
Continuous
370
    13
100
AcDbCircle
 10
131.0442381386248
 20
16.76265614381904
 30
0.0
 40
141.129585875
100
AcDbArc
 50
179.4212280000006
 51
180.0099670000007
  0
LINE
  5
600
330
2
100
AcDbEntity
  8
GAIKEI
  6
Continuous
370
    13
100
AcDbLine
 10
-10.08535861137523
 20
10.96424951881906
 30
0.0
 11
-10.08535861137523
 21
16.73809714381903
 31
0.0
  0
LINE
  5
601
330
2
100
AcDbEntity
  8
GAIKEI
  6
Continuous
 62
     1
 48
0.014297
370
    40
100
AcDbLine
 10
-10.11532686137524
 20
11.39717951881906
 30
0.0
 11
-10.17926498637524
 21
11.36521039381907
 31
0.0
  0
POLYLINE
  5
602
330
2
100
AcDbEntity
  8
GAIKEI
  6
Continuous
 62
     1
370
    40
100
AcDb2dPolyline
 66
     1
 10
0.0
 20
0.0
 30
0.0
  0
VERTEX
  5
603
330
602
100
AcDbEntity
  8
GAIKEI
  6
Continuous
 62
     1
370
     0
100
AcDbVertex
100
AcDb2dVertex
 10
-10.11446086137523
 20
11.44717676881905
 30
0.0
  0
VERTEX
  5
604
330
602
100
AcDbEntity
  8
GAIKEI
  6
Continuous
 62
     1
370
     0
100
AcDbVertex
100
AcDb2dVertex
 10
-10.11507123637523
 20
11.39951414381906
 30
0.0
  0
VERTEX
  5
605
330
602
100
AcDbEntity
  8
GAIKEI
  6
Continuous
 62
     1
370
     0
100
AcDbVertex
100
AcDb2dVertex
 10
-10.11523911137523
 20
11.39747326881902
 30
0.0
  0
VERTEX
  5
606
330
602
100
AcDbEntity
  8
GAIKEI
  6
Continuous
 62
     1
370
     0
100
AcDbVertex
100
AcDb2dVertex
 10
-10.11532686137524
 20
11.39717951881906
 30
0.0
  0
SEQEND
  5
607
330
602
100
AcDbEntity
  8
GAIKEI
  6
Continuous
 62
     1
370
     0
  0
LINE
  5
608
330
2
100
AcDbEntity
  8
GAIKEI
  6
Continuous
 62
     1
 48
0.010174
370
    40
100
AcDbLine
 10
-10.11446086137523
 20
11.44717676881905
 30
0.0
 11
-10.11446086137523
 21
11.49804576881902
 31
0.0
  0
POLYLINE
  5
609
330
2
100
AcDbEntity
  8
GAIKEI
  6
Continuous
 62
     1
370
    40
100
AcDb2dPolyline
 66
     1
 10
0.0
 20
0.0
 30
0.0
  0
VERTEX
  5
60A
330
609
100
AcDbEntity
  8
GAIKEI
  6
Continuous
 62
     1
370
     0
100
AcDbVertex
100
AcDb2dVertex
 10
-10.11446086137523
 20
11.49804576881902
 30
0.0
  0
VERTEX
  5
60B
330
609
100
AcDbEntity
  8
GAIKEI
  6
Continuous
 62
     1
370
     0
100
AcDbVertex
100
AcDb2dVertex
 10
-10.11507123637523
 20
11.54570851881905
 30
0.0
  0
VERTEX
  5
60C
330
609
100
AcDbEntity
  8
GAIKEI
  6
Continuous
 62
     1
370
     0
100
AcDbVertex
100
AcDb2dVertex
 10
-10.11523911137523
 20
11.54775126881904
 30
0.0
  0
VERTEX
  5
60D
330
609
100
AcDbEntity
  8
GAIKEI
  6
Continuous
 62
     1
370
     0
100
AcDbVertex
100
AcDb2dVertex
 10
-10.11532686137524
 20
11.54804314381906
 30
0.0
  0
SEQEND
  5
60E
330
609
100
AcDbEntity
  8
GAIKEI
  6
Continuous
 62
     1
370
     0
  0
LINE
  5
60F
330
2
100
AcDbEntity
  8
GAIKEI
  6
Continuous
 62
     1
 48
0.014297
370
    40
100
AcDbLine
 10
-10.11532686137524
 20
11.54804314381906
 30
0.0
 11
-10.17926498637524
 21
11.58001226881904
 31
0.0
  0
LINE
  5
610
330
2
100
AcDbEntity
  8
GAIKEI
  6
Continuous
 62
     1
 48
0.010174
370
    40
100
AcDbLine
 10
-10.11446086137523
 20
17.54717914381902
 30
0.0
 11
-10.11446086137523
 21
17.59804814381906
 31
0.0
  0
LINE
  5
611
330
2
100
AcDbEntity
  8
GAIKEI
  6
Continuous
 62
     1
 48
0.019548
370
    40
100
AcDbLine
 10
-10.31347361137523
 20
17.68131151881906
 30
0.0
 11
-10.21573723637523
 21
17.68067064381907
 31
0.0
  0
ARC
  5
612
330
2
100
AcDbEntity
  8
GAIKEI
  6
Continuous
 62
     1
370
    40
100
AcDbCircle
 10
-10.20971011137524
 20
16.84775814381905
 30
0.0
 40
0.8328682500000002
100
AcDbArc
 50
87.90519700000183
 51
90.41458100000234
  0
LINE
  5
613
330
2
100
AcDbEntity
  8
GAIKEI
  6
Continuous
 62
     1
 48
0.014297
370
    40
100
AcDbLine
 10
-10.11532686137524
 20
17.64804351881904
 30
0.0
 11
-10.17926498637524
 21
17.68001064381903
 31
0.0
  0
POLYLINE
  5
614
330
2
100
AcDbEntity
  8
GAIKEI
  6
Continuous
 62
     1
370
    40
100
AcDb2dPolyline
 66
     1
 10
0.0
 20
0.0
 30
0.0
  0
VERTEX
  5
615
330
614
100
AcDbEntity
  8
GAIKEI
  6
Continuous
 62
     1
370
     0
100
AcDbVertex
100
AcDb2dVertex
 10
-10.11446086137523
 20
17.59804814381906
 30
0.0
  0
VERTEX
  5
616
330
614
100
AcDbEntity
  8
GAIKEI
  6
Continuous
 62
     1
370
     0
100
AcDbVertex
100
AcDb2dVertex
 10
-10.11507123637523
 20
17.64570889381903
 30
0.0
  0
VERTEX
  5
617
330
614
100
AcDbEntity
  8
GAIKEI
  6
Continuous
 62
     1
370
     0
100
AcDbVertex
100
AcDb2dVertex
 10
-10.11523911137523
 20
17.64774976881907
 30
0.0
  0
VERTEX
  5
618
330
614
100
AcDbEntity
  8
GAIKEI
  6
Continuous
 62
     1
370
     0
100
AcDbVertex
100
AcDb2dVertex
 10
-10.11532686137524
 20
17.64804351881904
 30
0.0
  0
SEQEND
  5
619
330
614
100
AcDbEntity
  8
GAIKEI
  6
Continuous
 62
     1
370
     0
  0
LINE
  5
61A
330
2
100
AcDbEntity
  8
GAIKEI
  6
Continuous
 48
0.00035
370
    40
100
AcDbLine
 10
-18.91364373637523
 20
9.572611643819044
 30
0.0
 11
-18.91539286137524
 21
9.572611643819044
 31
0.0
  0
ARC
  5
61B
330
2
100
AcDbEntity
  8
GAIKEI
  6
Continuous
370
    40
100
AcDbCircle
 10
-18.91625686137523
 20
10.96982851881907
 30
0.0
 40
1.397154875
100
AcDbArc
 50
179.9645430000005
 51
270.0354599999994
  0
LINE
  5
61C
330
2
100
AcDbEntity
  8
GAIKEI
  6
Continuous
 48
0.00035
370
    40
100
AcDbLine
 10
-20.31347361137523
 20
18.17452901881907
 30
0.0
 11
-20.31347361137523
 21
18.17277801881906
 31
0.0
  0
LINE
  5
61D
330
2
100
AcDbEntity
  8
GAIKEI
  6
Continuous
 62
     1
 48
0.000351
370
    40
100
AcDbLine
 10
-20.31347361137523
 20
10.97244726881902
 30
0.0
 11
-20.31347361137523
 21
10.97069251881905
 31
0.0
  0
ARC
  5
61E
330
2
100
AcDbEntity
  8
GAIKEI
  6
Continuous
370
    40
100
AcDbCircle
 10
-18.91625686137523
 20
18.17539489381906
 30
0.0
 40
1.397154875
100
AcDbArc
 50
89.96454699999871
 51
180.0354569999995
  0
LINE
  5
61F
330
2
100
AcDbEntity
  8
GAIKEI
  6
Continuous
370
    40
100
AcDbLine
 10
-18.91539286137524
 20
19.57261164381904
 30
0.0
 11
-11.71155636137524
 21
19.57261164381904
 31
0.0
  0
ARC
  5
620
330
2
100
AcDbEntity
  8
GAIKEI
  6
Continuous
370
    40
100
AcDbCircle
 10
-11.71069048637523
 20
18.17539489381906
 30
0.0
 40
1.397154875
100
AcDbArc
 50
359.9645390000006
 51
90.03545799999947
  0
LINE
  5
621
330
2
100
AcDbEntity
  8
GAIKEI
  6
Continuous
370
    40
100
AcDbLine
 10
-10.31347361137523
 20
10.97069251881905
 30
0.0
 11
-10.31347361137523
 21
18.17452901881907
 31
0.0
  0
ARC
  5
622
330
2
100
AcDbEntity
  8
GAIKEI
  6
Continuous
370
    40
100
AcDbCircle
 10
-11.71069048637523
 20
10.96982851881907
 30
0.0
 40
1.397154875
100
AcDbArc
 50
269.9645420000005
 51
0.0354609999993806
  0
LINE
  5
623
330
2
100
AcDbEntity
  8
GAIKEI
  6
Continuous
 48
0.000349
370
    40
100
AcDbLine
 10
-11.71155636137524
 20
9.572611643819044
 30
0.0
 11
-11.71330348637522
 21
9.572611643819044
 31
0.0
  0
LINE
  5
624
330
2
100
AcDbEntity
  8
GAIKEI
  6
Continuous
 62
     1
 48
0.059283
370
    13
100
AcDbLine
 10
-12.95853136137523
 20
10.81914801881905
 30
0.0
 11
-12.95944298637524
 21
10.52273639381903
 31
0.0
  0
ARC
  5
625
330
2
100
AcDbEntity
  8
GAIKEI
  6
Continuous
 62
     1
370
    13
100
AcDbCircle
 10
-12.88823786137523
 20
10.52239889381903
 30
0.0
 40
0.071205
100
AcDbArc
 50
179.7283820000007
 51
0.2905600000005903
  0
LINE
  5
626
330
2
100
AcDbEntity
  8
GAIKEI
  6
Continuous
 62
     1
 48
0.05928
370
    13
100
AcDbLine
 10
-12.81782623637524
 20
10.81916126881904
 30
0.0
 11
-12.81700223637523
 21
10.52276126881904
 31
0.0
  0
ARC
  5
627
330
2
100
AcDbEntity
  8
GAIKEI
  6
Continuous
 62
     1
370
    13
100
AcDbCircle
 10
-12.88817311137524
 20
10.81908689381904
 30
0.0
 40
0.070338625
100
AcDbArc
 50
0.0610489999996901
 51
179.9496940000001
  0
LINE
  5
628
330
2
100
AcDbEntity
  8
GAIKEI
  6
Continuous
 62
     1
 48
0.437386
370
    13
100
AcDbLine
 10
-12.74370867827858
 20
11.10320275275157
 30
0.0
 11
-17.88166178068734
 21
11.10259778401226
 31
0.0
  0
LINE
  5
629
330
2
100
AcDbEntity
  8
GAIKEI
  6
Continuous
 62
     1
 48
0.039321
370
    13
100
AcDbLine
 10
-12.70857364899592
 20
10.82275124651497
 30
0.0
 11
-12.70953461137523
 21
10.52077001881903
 31
0.0
  0
ARC
  5
62A
330
2
100
AcDbEntity
  8
GAIKEI
  6
Continuous
 62
     1
370
    13
100
AcDbCircle
 10
-12.63821498637523
 20
10.52043614381907
 30
0.0
 40
0.071319625
100
AcDbArc
 50
179.7318930000006
 51
0.2875740000003366
  0
LINE
  5
62B
330
2
100
AcDbEntity
  8
GAIKEI
  6
Continuous
 62
     1
 48
0.000161
370
    13
100
AcDbLine
 10
-12.56688023637522
 20
10.52159964381903
 30
0.0
 11
-12.56687636137523
 21
10.52079476881906
 31
0.0
  0
LINE
  5
62C
330
2
100
AcDbEntity
  8
GAIKEI
  6
Continuous
 62
     1
 48
0.059925
370
    13
100
AcDbLine
 10
-12.56763161137523
 20
10.82122501881903
 30
0.0
 11
-12.56688023637522
 21
10.52159964381903
 31
0.0
  0
ARC
  5
62D
330
2
100
AcDbEntity
  8
GAIKEI
  6
Continuous
 62
     1
370
    13
100
AcDbCircle
 10
-12.63810823637524
 20
10.82111639381904
 30
0.0
 40
0.070484375
100
AcDbArc
 50
0.0883869999996698
 51
179.9449540000002
  0
LINE
  5
62E
330
2
100
AcDbEntity
  8
GAIKEI
  6
Continuous
 62
     1
 48
0.399792
370
    13
100
AcDbLine
 10
-12.04520787464294
 20
17.34280692242364
 30
0.0
 11
-12.04379112273374
 21
11.80338177844444
 31
0.0
  0
LINE
  5
62F
330
2
100
AcDbEntity
  8
GAIKEI
  6
Continuous
 62
     1
 48
0.437386
370
    13
100
AcDbLine
 10
-17.88323843376653
 20
18.04201851379585
 30
0.0
 11
-12.74529087346182
 21
18.0426278869551
 31
0.0
  0
LINE
  5
630
330
2
100
AcDbEntity
  8
GAIKEI
  6
Continuous
 62
     1
 48
0.399792
370
    13
100
AcDbLine
 10
-18.58174417953275
 20
11.80241944881126
 30
0.0
 11
-18.58315538933787
 21
17.34184018837052
 31
0.0
  0
ARC
  5
631
330
2
100
AcDbEntity
  8
GAIKEI
  6
Continuous
 62
     1
370
    13
100
AcDbCircle
 10
-15.02046298637523
 20
903.8284557688186
 30
0.0
 40
894.141783875
100
AcDbArc
 50
269.7514184126472
 51
270.2109766119239
  0
ARC
  5
632
330
2
100
AcDbEntity
  8
GAIKEI
  6
Continuous
 62
     1
370
    13
100
AcDbCircle
 10
-945.227981086753
 20
14.1654878018962
 30
0.0
 40
934.8005570736381
100
AcDbArc
 50
359.8052638798439
 51
0.2447125930774822
  0
ARC
  5
633
330
2
100
AcDbEntity
  8
GAIKEI
  6
Continuous
 62
     1
370
    13
100
AcDbCircle
 10
-15.02046298637523
 20
-874.7617541061808
 30
0.0
 40
894.2202893750001
100
AcDbArc
 50
89.78924230362487
 51
90.24823099513431
  0
ARC
  5
634
330
2
100
AcDbEntity
  8
GAIKEI
  6
Continuous
 62
     1
370
    13
100
AcDbCircle
 10
806.4495116386249
 20
13.98166164381908
 30
0.0
 40
826.649020125
100
AcDbArc
 50
179.7106216934071
 51
180.2073294846788
  0
LINE
  5
635
330
2
100
AcDbEntity
  8
GAIKEI
  6
Continuous
370
    40
100
AcDbLine
 10
-11.88046736137524
 20
9.572611643819044
 30
0.0
 11
-18.74647998637523
 21
9.572611643819044
 31
0.0
  0
LINE
  5
636
330
2
100
AcDbEntity
  8
GAIKEI
  6
Continuous
 48
0.033398
370
    40
100
AcDbLine
 10
-11.88046736137524
 20
9.572611643819044
 30
0.0
 11
-11.71347523637524
 21
9.572611643819044
 31
0.0
  0
LINE
  5
637
330
2
100
AcDbEntity
  8
GAIKEI
  6
Continuous
 48
0.033399
370
    40
100
AcDbLine
 10
-10.31347361137523
 20
10.97261126881906
 30
0.0
 11
-10.31347361137523
 21
11.13960539381904
 31
0.0
  0
LINE
  5
638
330
2
100
AcDbEntity
  8
GAIKEI
  6
Continuous
370
    40
100
AcDbLine
 10
-10.31347361137523
 20
18.00561801881903
 30
0.0
 11
-10.31347361137523
 21
11.13960539381904
 31
0.0
  0
LINE
  5
639
330
2
100
AcDbEntity
  8
GAIKEI
  6
Continuous
 48
0.033398
370
    40
100
AcDbLine
 10
-10.31347361137523
 20
18.00561801881903
 30
0.0
 11
-10.31347361137523
 21
18.17261014381907
 31
0.0
  0
LINE
  5
63A
330
2
100
AcDbEntity
  8
GAIKEI
  6
Continuous
 48
0.033398
370
    40
100
AcDbLine
 10
-11.88046736137524
 20
19.57261164381904
 30
0.0
 11
-11.71347523637524
 21
19.57261164381904
 31
0.0
  0
LINE
  5
63B
330
2
100
AcDbEntity
  8
GAIKEI
  6
Continuous
370
    40
100
AcDbLine
 10
-15.31347361137523
 20
19.57261164381904
 30
0.0
 11
-11.88046736137524
 21
19.57261164381904
 31
0.0
  0
LINE
  5
63C
330
2
100
AcDbEntity
  8
GAIKEI
  6
Continuous
 48
0.033399
370
    40
100
AcDbLine
 10
-18.91347398637524
 20
19.57261164381904
 30
0.0
 11
-18.74647998637523
 21
19.57261164381904
 31
0.0
  0
ARC
  5
63D
330
2
100
AcDbEntity
  8
GAIKEI
  6
Continuous
370
    40
100
AcDbCircle
 10
-18.91344161137523
 20
18.17257964381903
 30
0.0
 40
1.400022749999999
100
AcDbArc
 50
90.00134099999959
 51
179.9986800000005
  0
LINE
  5
63E
330
2
100
AcDbEntity
  8
GAIKEI
  6
Continuous
 48
0.033398
370
    40
100
AcDbLine
 10
-20.31347361137523
 20
18.00561801881903
 30
0.0
 11
-20.31347361137523
 21
18.17261014381907
 31
0.0
  0
LINE
  5
63F
330
2
100
AcDbEntity
  8
GAIKEI
  6
Continuous
370
    40
100
AcDbLine
 10
-20.31347361137523
 20
18.00561801881903
 30
0.0
 11
-20.31347361137523
 21
11.13960539381904
 31
0.0
  0
LINE
  5
640
330
2
100
AcDbEntity
  8
GAIKEI
  6
Continuous
 62
     7
 48
0.033399
370
    40
100
AcDbLine
 10
-20.31347361137523
 20
10.97261126881906
 30
0.0
 11
-20.31347361137523
 21
11.13960539381904
 31
0.0
  0
LINE
  5
641
330
2
100
AcDbEntity
  8
GAIKEI
  6
Continuous
 48
0.033399
370
    40
100
AcDbLine
 10
-18.91347398637524
 20
9.572611643819044
 30
0.0
 11
-18.74647998637523
 21
9.572611643819044
 31
0.0
  0
CIRCLE
  5
642
330
2
100
AcDbEntity
  8
GAIKEI
  6
Continuous
 62
     1
370
    40
100
AcDbCircle
 10
-15.31347361137523
 20
14.57260789381908
 30
0.0
 40
2.98422275
  0
LINE
  5
643
330
2
100
AcDbEntity
  8
GAIKEI
  6
Continuous
 62
     1
 48
0.080709
370
    13
100
AcDbLine
 10
-10.21398836137525
 20
17.68067064381907
 30
0.0
 11
-10.21398836137525
 21
18.08421601881903
 31
0.0
  0
LINE
  5
644
330
2
100
AcDbEntity
  8
GAIKEI
  6
Continuous
 62
     1
370
    13
100
AcDbLine
 10
-10.21398836137525
 20
14.18067064381907
 30
0.0
 11
-10.21398836137525
 21
17.46455276881906
 31
0.0
  0
LINE
  5
645
330
2
100
AcDbEntity
  8
GAIKEI
  6
Continuous
 62
     1
 48
0.4767770000000001
370
    13
100
AcDbLine
 10
-10.21573536137522
 20
11.58067026881903
 30
0.0
 11
-10.21573536137522
 21
13.96455276881906
 31
0.0
  0
ARC
  5
646
330
2
100
AcDbEntity
  8
GAIKEI
  6
Continuous
 62
     1
 48
0.399792
370
    13
100
AcDbCircle
 10
-17.88315541205338
 20
17.34201851871913
 30
0.0
 40
0.7
100
AcDbArc
 50
90.00679541968919
 51
180.0145965377778
  0
ARC
  5
647
330
2
100
AcDbEntity
  8
GAIKEI
  6
Continuous
 62
     1
 48
0.399792
370
    13
100
AcDbCircle
 10
-12.74520785174869
 20
17.34262789187838
 30
0.0
 40
0.7
100
AcDbArc
 50
0.0146538496566991
 51
90.00679541968821
  0
ARC
  5
648
330
2
100
AcDbEntity
  8
GAIKEI
  6
Continuous
 62
     1
 48
0.437386
370
    13
100
AcDbCircle
 10
-12.74379109983948
 20
11.80320274789917
 30
0.0
 40
0.7
100
AcDbArc
 50
270.0067462965606
 51
0.01465384965675
  0
ARC
  5
649
330
2
100
AcDbEntity
  8
GAIKEI
  6
Continuous
 62
     1
 48
0.399792
370
    13
100
AcDbCircle
 10
-17.88174420224826
 20
11.80259777915987
 30
0.0
 40
0.7
100
AcDbArc
 50
180.0145965377778
 51
270.0067462965605
  0
CIRCLE
  5
64A
330
2
100
AcDbEntity
  8
GAIKEI
  6
Continuous
 62
     1
100
AcDbCircle
 10
-15.31347361137523
 20
14.57260789381908
 30
0.0
 40
3.060297749393015
  0
CIRCLE
  5
64B
330
2
100
AcDbEntity
  8
GAIKEI
  6
Continuous
 62
     1
100
AcDbCircle
 10
-11.61206523637523
 20
10.67092601881907
 30
0.0
 40
0.2172713246045476
  0
ARC
  5
64C
330
2
100
AcDbEntity
  8
GAIKEI
  6
Continuous
 62
     1
370
    13
100
AcDbCircle
 10
-11.73281579020428
 20
10.99272484794792
 30
0.0
 40
1.3
100
AcDbArc
 50
270.2109766118953
 51
359.805263879835
  0
ARC
  5
64D
330
2
100
AcDbEntity
  8
GAIKEI
  6
Continuous
 62
     1
370
    13
100
AcDbCircle
 10
-18.89410487581017
 20
10.99507493474382
 30
0.0
 40
1.3
100
AcDbArc
 50
180.2073294846708
 51
269.7514184126604
  0
ARC
  5
64E
330
2
100
AcDbEntity
  8
GAIKEI
  6
Continuous
 62
     1
370
    13
100
AcDbCircle
 10
-18.88898175845429
 20
18.15015517717293
 30
0.0
 40
1.3
100
AcDbArc
 50
90.24823099512635
 51
179.7106216933981
  0
ARC
  5
64F
330
2
100
AcDbEntity
  8
GAIKEI
  6
Continuous
 62
     1
370
    13
100
AcDbCircle
 10
-11.73593835919436
 20
18.15249433848785
 30
0.0
 40
1.3
100
AcDbArc
 50
0.2447125930771136
 51
89.7892423036272
  0
LINE
  5
650
330
2
100
AcDbEntity
  8
GAIKEI
  6
Continuous
 48
0.002049
370
    13
100
AcDbLine
 10
-10.64608098637524
 20
9.987769018819022
 30
0.0
 11
-10.63873573637524
 21
9.980627893819047
 31
0.0
  0
POLYLINE
  5
651
330
2
100
AcDbEntity
  8
GAIKEI
  6
Continuous
370
    13
100
AcDb2dPolyline
 66
     1
 10
0.0
 20
0.0
 30
0.0
  0
VERTEX
  5
652
330
651
100
AcDbEntity
  8
GAIKEI
  6
Continuous
370
     0
100
AcDbVertex
100
AcDb2dVertex
 10
-10.65078073637524
 20
9.923626768819048
 30
0.0
  0
VERTEX
  5
653
330
651
100
AcDbEntity
  8
GAIKEI
  6
Continuous
370
     0
100
AcDbVertex
100
AcDb2dVertex
 10
-10.65489673637523
 20
9.929860018819027
 30
0.0
  0
VERTEX
  5
654
330
651
100
AcDbEntity
  8
GAIKEI
  6
Continuous
370
     0
100
AcDbVertex
100
AcDb2dVertex
 10
-10.65687273637523
 20
9.93748564381903
 30
0.0
  0
VERTEX
  5
655
330
651
100
AcDbEntity
  8
GAIKEI
  6
Continuous
370
     0
100
AcDbVertex
100
AcDb2dVertex
 10
-10.65611361137523
 20
9.949643018819045
 30
0.0
  0
VERTEX
  5
656
330
651
100
AcDbEntity
  8
GAIKEI
  6
Continuous
370
     0
100
AcDbVertex
100
AcDb2dVertex
 10
-10.65174386137524
 20
9.962082768819044
 30
0.0
  0
VERTEX
  5
657
330
651
100
AcDbEntity
  8
GAIKEI
  6
Continuous
370
     0
100
AcDbVertex
100
AcDb2dVertex
 10
-10.63873773637523
 20
9.980626018819037
 30
0.0
  0
SEQEND
  5
658
330
651
100
AcDbEntity
  8
GAIKEI
  6
Continuous
370
     0
  0
LINE
  5
659
330
2
100
AcDbEntity
  8
GAIKEI
  6
Continuous
 48
0.002124
370
    13
100
AcDbLine
 10
-10.65839486137523
 20
9.931027268819065
 30
0.0
 11
-10.65078073637524
 21
9.923626768819048
 31
0.0
  0
POLYLINE
  5
65A
330
2
100
AcDbEntity
  8
GAIKEI
  6
Continuous
370
    13
100
AcDb2dPolyline
 66
     1
 10
0.0
 20
0.0
 30
0.0
  0
VERTEX
  5
65B
330
65A
100
AcDbEntity
  8
GAIKEI
  6
Continuous
370
     0
100
AcDbVertex
100
AcDb2dVertex
 10
-10.65839486137523
 20
9.931027268819065
 30
0.0
  0
VERTEX
  5
65C
330
65A
100
AcDbEntity
  8
GAIKEI
  6
Continuous
370
     0
100
AcDbVertex
100
AcDb2dVertex
 10
-10.66245173637523
 20
9.937220518819032
 30
0.0
  0
VERTEX
  5
65D
330
65A
100
AcDbEntity
  8
GAIKEI
  6
Continuous
370
     0
100
AcDbVertex
100
AcDb2dVertex
 10
-10.66436673637523
 20
9.944764018819029
 30
0.0
  0
VERTEX
  5
65E
330
65A
100
AcDbEntity
  8
GAIKEI
  6
Continuous
370
     0
100
AcDbVertex
100
AcDb2dVertex
 10
-10.66353323637524
 20
9.956896643819078
 30
0.0
  0
VERTEX
  5
65F
330
65A
100
AcDbEntity
  8
GAIKEI
  6
Continuous
370
     0
100
AcDbVertex
100
AcDb2dVertex
 10
-10.65915011137524
 20
9.969202893819073
 30
0.0
  0
VERTEX
  5
660
330
65A
100
AcDbEntity
  8
GAIKEI
  6
Continuous
370
     0
100
AcDbVertex
100
AcDb2dVertex
 10
-10.64608098637524
 20
9.987769018819022
 30
0.0
  0
SEQEND
  5
661
330
65A
100
AcDbEntity
  8
GAIKEI
  6
Continuous
370
     0
  0
POLYLINE
  5
662
330
2
100
AcDbEntity
  8
GAIKEI
  6
Continuous
370
    13
100
AcDb2dPolyline
 66
     1
 10
0.0
 20
0.0
 30
0.0
  0
VERTEX
  5
663
330
662
100
AcDbEntity
  8
GAIKEI
  6
Continuous
370
     0
100
AcDbVertex
100
AcDb2dVertex
 10
-10.61214348637523
 20
9.955845768819045
 30
0.0
  0
VERTEX
  5
664
330
662
100
AcDbEntity
  8
GAIKEI
  6
Continuous
370
     0
100
AcDbVertex
100
AcDb2dVertex
 10
-10.61241248637523
 20
9.955937268819042
 30
0.0
  0
VERTEX
  5
665
330
662
100
AcDbEntity
  8
GAIKEI
  6
Continuous
370
     0
100
AcDbVertex
100
AcDb2dVertex
 10
-10.61349198637524
 20
9.956683018819063
 30
0.0
  0
VERTEX
  5
666
330
662
100
AcDbEntity
  8
GAIKEI
  6
Continuous
370
     0
100
AcDbVertex
100
AcDb2dVertex
 10
-10.62062173637524
 20
9.963028768819043
 30
0.0
  0
VERTEX
  5
667
330
662
100
AcDbEntity
  8
GAIKEI
  6
Continuous
370
     0
100
AcDbVertex
100
AcDb2dVertex
 10
-10.63873773637523
 20
9.980626018819037
 30
0.0
  0
SEQEND
  5
668
330
662
100
AcDbEntity
  8
GAIKEI
  6
Continuous
370
     0
  0
LINE
  5
669
330
2
100
AcDbEntity
  8
GAIKEI
  6
Continuous
 48
0.024895
370
    13
100
AcDbLine
 10
-10.38960173637524
 20
9.777651643819041
 30
0.0
 11
-10.47690298637523
 21
9.866379643819044
 31
0.0
  0
ARC
  5
66A
330
2
100
AcDbEntity
  8
GAIKEI
  6
Continuous
370
    13
100
AcDbCircle
 10
-9.213149111375244
 20
17.99666101881908
 30
0.0
 40
8.161609625
100
AcDbArc
 50
260.1300919999997
 51
261.0719819999996
  0
POLYLINE
  5
66B
330
2
100
AcDbEntity
  8
GAIKEI
  6
Continuous
370
    13
100
AcDb2dPolyline
 66
     1
 10
0.0
 20
0.0
 30
0.0
  0
VERTEX
  5
66C
330
66B
100
AcDbEntity
  8
GAIKEI
  6
Continuous
370
     0
100
AcDbVertex
100
AcDb2dVertex
 10
-10.61086936137523
 20
9.886479268819044
 30
0.0
  0
VERTEX
  5
66D
330
66B
100
AcDbEntity
  8
GAIKEI
  6
Continuous
370
     0
100
AcDbVertex
100
AcDb2dVertex
 10
-10.61097236137524
 20
9.886511643819034
 30
0.0
  0
VERTEX
  5
66E
330
66B
100
AcDbEntity
  8
GAIKEI
  6
Continuous
370
     0
100
AcDbVertex
100
AcDb2dVertex
 10
-10.61129286137523
 20
9.886692893819059
 30
0.0
  0
VERTEX
  5
66F
330
66B
100
AcDbEntity
  8
GAIKEI
  6
Continuous
370
     0
100
AcDbVertex
100
AcDb2dVertex
 10
-10.61317161137523
 20
9.888153893819065
 30
0.0
  0
VERTEX
  5
670
330
66B
100
AcDbEntity
  8
GAIKEI
  6
Continuous
370
     0
100
AcDbVertex
100
AcDb2dVertex
 10
-10.65078073637524
 20
9.923626768819048
 30
0.0
  0
SEQEND
  5
671
330
66B
100
AcDbEntity
  8
GAIKEI
  6
Continuous
370
     0
  0
ELLIPSE
  5
672
330
2
100
AcDbEntity
  8
GAIKEI
  6
Continuous
370
    13
100
AcDbEllipse
 10
-10.66330236137523
 20
9.938094018819043
 30
0.0
 11
0.1417121887207031
 21
-0.1417198181152344
 31
0.0
210
0.0
220
0.0
230
-1.0
 40
0.017421
 41
0.0235636935689041
 42
0.8526968597128577
  0
LINE
  5
673
330
2
100
AcDbEntity
  8
GAIKEI
  6
Continuous
 48
0.024915
370
    13
100
AcDbLine
 10
-10.57191948637523
 20
9.842989768819023
 30
0.0
 11
-10.66120623637523
 21
9.929863768819046
 31
0.0
  0
LINE
  5
674
330
2
100
AcDbEntity
  8
GAIKEI
  6
Continuous
 48
0.000609
370
    13
100
AcDbLine
 10
-10.66120623637523
 20
9.929863768819046
 30
0.0
 11
-10.65839486137523
 21
9.931027268819065
 31
0.0
  0
ARC
  5
675
330
2
100
AcDbEntity
  8
GAIKEI
  6
Continuous
370
    13
100
AcDbCircle
 10
-10.44147398637523
 20
9.901726643819046
 30
0.0
 40
0.050049375
100
AcDbArc
 50
139.9403259999995
 51
224.9337649999999
  0
ARC
  5
676
330
2
100
AcDbEntity
  8
GAIKEI
  6
Continuous
370
    13
100
AcDbCircle
 10
-10.31904886137523
 20
9.848149143819028
 30
0.0
 40
0.099740375
100
AcDbArc
 50
224.9776460000004
 51
262.2360989999977
  0
ARC
  5
677
330
2
100
AcDbEntity
  8
GAIKEI
  6
Continuous
370
    13
100
AcDbCircle
 10
-10.45111936137523
 20
9.866867893819033
 30
0.0
 40
0.09975875
100
AcDbArc
 50
224.9771030000012
 51
261.5043129999999
  0
LINE
  5
678
330
2
100
AcDbEntity
  8
GAIKEI
  6
Continuous
 48
0.000304
370
    13
100
AcDbLine
 10
-10.57191948637523
 20
9.842989768819023
 30
0.0
 11
-10.57084748637524
 21
9.84191214381903
 31
0.0
  0
LINE
  5
679
330
2
100
AcDbEntity
  8
GAIKEI
  6
Continuous
 48
0.000247
370
    13
100
AcDbLine
 10
-10.66120623637523
 20
9.929863768819046
 30
0.0
 11
-10.66034036137523
 21
9.92898639381903
 31
0.0
  0
ARC
  5
67A
330
2
100
AcDbEntity
  8
GAIKEI
  6
Continuous
370
    40
100
AcDbCircle
 10
-9.236884111375232
 20
17.96612826881906
 30
0.0
 40
8.289533749999998
100
AcDbArc
 50
261.4741300000006
 51
262.4073729999996
  0
POLYLINE
  5
67B
330
2
100
AcDbEntity
  8
GAIKEI
  6
Continuous
370
    40
100
AcDb2dPolyline
 66
     1
 10
0.0
 20
0.0
 30
0.0
  0
VERTEX
  5
67C
330
67B
100
AcDbEntity
  8
GAIKEI
  6
Continuous
370
     0
100
AcDbVertex
100
AcDb2dVertex
 10
-10.57084748637524
 20
9.84191214381903
 30
0.0
  0
VERTEX
  5
67D
330
67B
100
AcDbEntity
  8
GAIKEI
  6
Continuous
370
     0
100
AcDbVertex
100
AcDb2dVertex
 10
-10.52668098637524
 20
9.799998143819067
 30
0.0
  0
VERTEX
  5
67E
330
67B
100
AcDbEntity
  8
GAIKEI
  6
Continuous
370
     0
100
AcDbVertex
100
AcDb2dVertex
 10
-10.50606061137523
 20
9.783505393819069
 30
0.0
  0
VERTEX
  5
67F
330
67B
100
AcDbEntity
  8
GAIKEI
  6
Continuous
370
     0
100
AcDbVertex
100
AcDb2dVertex
 10
-10.48445223637523
 20
9.772833768819026
 30
0.0
  0
VERTEX
  5
680
330
67B
100
AcDbEntity
  8
GAIKEI
  6
Continuous
370
     0
100
AcDbVertex
100
AcDb2dVertex
 10
-10.46585748637524
 20
9.76820076881907
 30
0.0
  0
SEQEND
  5
681
330
67B
100
AcDbEntity
  8
GAIKEI
  6
Continuous
370
     0
  0
LINE
  5
682
330
2
100
AcDbEntity
  8
GAIKEI
  6
Continuous
 48
0.024973
370
    40
100
AcDbLine
 10
-10.66034036137523
 20
9.92898639381903
 30
0.0
 11
-10.57084748637524
 21
9.84191214381903
 31
0.0
  0
ARC
  5
683
330
2
100
AcDbEntity
  8
GAIKEI
  6
Continuous
 62
     1
370
    13
100
AcDbCircle
 10
-11.79859061137523
 20
11.05769814381907
 30
0.0
 40
1.582828624999999
100
AcDbArc
 50
317.1193809999997
 51
343.4651010000005
  0
DIMENSION
  5
684
330
2
100
AcDbEntity
  8
SUNPO
100
AcDbDimension
  2
*D6
 10
-10.31347361137523
 20
1.592552176911709
 30
0.0
 11
-15.31896643836913
 21
3.342552176911709
 31
0.0
 70
    33
  1
100
 71
     5
 42
10.0109856539878
  3
STANDARD
100
AcDbAlignedDimension
 13
-20.32445926536303
 23
9.592552176911709
 33
0.0
 14
-10.31347361137523
 24
9.592552176911709
 34
0.0
1001
ACAD
1000
DSTYLE
1002
{
1070
   287
1070
     3
1070
    40
1040
1.0
1070
   140
1040
2.5
1070
   147
1040
0.5
1070
   172
1070
     1
1070
   279
1070
     0
1070
   288
1070
     0
1002
}
  0
DIMENSION
  5
693
330
2
100
AcDbEntity
  8
SUNPO
100
AcDbDimension
  2
*D5
 10
-2.317350562763294
 20
9.572611643819042
 30
0.0
 11
-4.067350562763296
 21
14.56857271769953
 31
0.0
 70
    33
  1
100
 71
     5
 42
9.991922147760986
  3
STANDARD
100
AcDbAlignedDimension
 13
-10.31735056276328
 23
19.56453379158003
 33
0.0
 14
-10.31735056276329
 24
9.572611643819044
 34
0.0
1001
ACAD
1000
DSTYLE
1002
{
1070
   287
1070
     3
1070
    40
1040
1.0
1070
   140
1040
2.5
1070
   147
1040
0.5
1070
   172
1070
     1
1070
   279
1070
     0
1070
   288
1070
     0
1002
}
  0
DIMENSION
  5
6A0
330
2
100
AcDbEntity
  8
SUNPO
100
AcDbDimension
  2
*D4
 10
-28.32058231397497
 20
9.572611643819046
 30
0.0
 11
-30.07058231397497
 21
18.60761151881905
 31
0.0
 70
    33
  1
181
 71
     5
 42
18.06999975000002
  3
STANDARD
100
AcDbAlignedDimension
 13
-20.32058231397497
 23
27.64261139381907
 33
0.0
 14
-20.32058231397497
 24
9.572611643819044
 34
0.0
1001
ACAD
1000
DSTYLE
1002
{
1070
   287
1070
     3
1070
    40
1040
1.0
1070
   140
1040
2.5
1070
   147
1040
0.5
1070
   172
1070
     1
1070
   279
1070
     0
1070
   288
1070
     0
1002
}
  0
TEXT
  5
6AD
330
2
100
AcDbEntity
  8
TOUROKU
100
AcDbText
 10
40.7060745745256
 20
28.20255850744155
 30
0.0
 40
2.0
  1
ＢＢＳＷ１７２Ａ
 72
     2
 11
59.23940790785895
 21
28.20255850744155
 31
0.0
100
AcDbText
  0
TEXT
  5
6AF
330
2
100
AcDbEntity
  8
MOJI1
100
AcDbText
 10
-23.95300189567479
 20
-73.95926087962613
 30
0.0
 40
3.0
  1
ＩＰ５５
100
AcDbText
  0
TEXT
  5
6B1
330
2
100
AcDbEntity
  8
MOJI1
100
AcDbText
 10
-63.47180399101069
 20
-73.79737331124943
 30
0.0
 40
3.0
  1
防塵性・防水性
100
AcDbText
  0
LINE
  5
6B2
330
2
100
AcDbEntity
  8
WAKU
 62
     4
100
AcDbLine
 10
-65.7605088885964
 20
-74.79748842803252
 30
0.0
 11
59.44520815224007
 21
-74.7974884280325
 31
0.0
  0
TEXT
  5
6B4
330
2
100
AcDbEntity
  8
MOJI1
100
AcDbText
 10
-63.80808568223449
 20
-58.78387642015787
 30
0.0
 40
3.0
  1
対応プロコトル
100
AcDbText
  0
TEXT
  5
6B5
330
2
100
AcDbEntity
  8
MOJI1
100
AcDbText
 10
-23.80808568223449
 20
-58.78387642015787
 30
0.0
 40
3.0
  1
ＴＣＰ／ＩＰ、ＵＤＰ／ＩＰ、ＨＴＴＰ、ＲＴＰ、ＦＴＰ、ＳＭＴＰ、他
 41
0.7
100
AcDbText
  0
LINE
  5
6B6
330
2
100
AcDbEntity
  8
WAKU
 62
     1
100
AcDbLine
 10
59.44520815224007
 20
-49.79748842803252
 30
0.0
 11
-65.7605088885964
 21
-49.79748842803252
 31
0.0
  0
TEXT
  5
6B7
330
2
100
AcDbEntity
  8
MOJI1
100
AcDbText
 10
-24.16429699808907
 20
-68.70955401996707
 30
0.0
 40
3.0
  1
プリセット（６４ヶ所）、ＳＤＨＣ／ＳＤカード対応
 41
0.75
100
AcDbText
  0
TEXT
  5
6B8
330
2
100
AcDbEntity
  8
MOJI1
100
AcDbText
 10
-24.16429699808907
 20
-63.78555205936436
 30
0.0
 40
3.0
  1
暗部補正、簡易白黒切換、画像認識・顔検出、ＶＭＤ（４エリア）
 41
0.75
100
AcDbText
  0
TEXT
  5
6B9
330
2
100
AcDbEntity
  8
MOJI1
100
AcDbText
 10
-63.47180399101069
 20
-63.78555205936436
 30
0.0
 40
3.0
  1
機　能
100
AcDbText
  0
LINE
  5
6BA
330
2
100
AcDbEntity
  8
WAKU
 62
     1
100
AcDbLine
 10
59.44520815224007
 20
-39.79748842803252
 30
0.0
 11
-65.7605088885964
 21
-39.79748842803252
 31
0.0
  0
TEXT
  5
6BB
330
2
100
AcDbEntity
  8
MOJI1
100
AcDbText
 10
-24.2603187982603
 20
-38.7174124346177
 30
0.0
 40
3.0
  1
＜１６：９＞６４０×３６０／３２０×１８０
100
AcDbText
  0
LINE
  5
6BC
330
2
100
AcDbEntity
  8
WAKU
 62
     1
100
AcDbLine
 10
59.44520815224007
 20
-34.79748842803252
 30
0.0
 11
-65.7605088885964
 21
-34.79748842803252
 31
0.0
  0
TEXT
  5
6BD
330
2
100
AcDbEntity
  8
MOJI1
100
AcDbText
 10
-24.2603187982603
 20
-33.53763908559495
 30
0.0
 40
3.0
  1
＜４：３＞８００×６００／６４０×４８０／３２０×２４０
 41
0.8
100
AcDbText
  0
TEXT
  5
6BE
330
2
100
AcDbEntity
  8
MOJI1
100
AcDbText
 10
-63.56782579118192
 20
-33.53763908559495
 30
0.0
 40
3.0
  1
画像解像度
100
AcDbText
  0
TEXT
  5
6BF
330
2
100
AcDbEntity
  8
MOJI1
100
AcDbText
 10
-24.1421198613042
 20
-28.74072100564212
 30
0.0
 40
3.0
  1
１０ＢＡＳＥ－Ｔ／１００ＢＡＳＥ－ＴＸ、ＲＪ４５コネクター
 41
0.7800000000000001
100
AcDbText
  0
TEXT
  5
6C0
330
2
100
AcDbEntity
  8
MOJI1
100
AcDbText
 10
-63.44962685422581
 20
-28.74072100564212
 30
0.0
 40
3.0
  1
ネットワーク
100
AcDbText
  0
TEXT
  5
6C1
330
2
100
AcDbEntity
  8
MOJI1
100
AcDbText
 10
-63.2605088885964
 20
-48.63949204957709
 30
0.0
 40
3.0
  1
レンズ部
100
AcDbText
  0
TEXT
  5
6C2
330
2
100
AcDbEntity
  8
MOJI1
100
AcDbText
 10
-23.95300189567479
 20
-48.63949204957709
 30
0.0
 40
3.0
  1
ｆ＝１．９５ｍｍ(２倍ＥＸズーム）、画角：水平／８５°、垂直／６８°
 41
0.69
100
AcDbText
  0
TEXT
  5
6C3
330
2
100
AcDbEntity
  8
MOJI1
100
AcDbText
 10
-63.2605088885964
 20
-18.7208176720888
 30
0.0
 40
3.0
  1
有効画素数／操作方式
100
AcDbText
  0
TEXT
  5
6C4
330
2
100
AcDbEntity
  8
MOJI1
100
AcDbText
 10
-23.95300189567479
 20
-18.7208176720888
 30
0.0
 40
3.0
  1
約１３０万画素／プログレッシブ
100
AcDbText
  0
TEXT
  5
6C5
330
2
100
AcDbEntity
  8
MOJI1
100
AcDbText
 10
-23.95300189567479
 20
-43.64422146815678
 30
0.0
 40
3.0
  1
Ｈ．２６４×２、ＪＰＥＧ
100
AcDbText
  0
LINE
  5
6C6
330
2
100
AcDbEntity
  8
WAKU
 62
     1
100
AcDbLine
 10
59.44520815224007
 20
-64.79748842803258
 30
0.0
 11
-65.7605088885964
 21
-64.79748842803252
 31
0.0
  0
TEXT
  5
6C7
330
2
100
AcDbEntity
  8
MOJI1
100
AcDbText
 10
-63.2605088885964
 20
-23.69644126059944
 30
0.0
 40
3.0
  1
最低照度
100
AcDbText
  0
TEXT
  5
6C8
330
2
100
AcDbEntity
  8
MOJI1
100
AcDbText
 10
-23.95300189567479
 20
-23.69644126059944
 30
0.0
 40
3.0
  1
カラー：０．６ルクス、白黒：０．５ルクス（Ｆ２．２）
 41
0.88
100
AcDbText
  0
LINE
  5
6C9
330
2
100
AcDbEntity
  8
WAKU
 62
     1
100
AcDbLine
 10
59.44520815224007
 20
-44.79748842803252
 30
0.0
 11
-65.7605088885964
 21
-44.79748842803252
 31
0.0
  0
TEXT
  5
6CA
330
2
100
AcDbEntity
  8
MOJI1
100
AcDbText
 10
-63.58555975316789
 20
-43.64422146815678
 30
0.0
 40
3.0
  1
画像圧縮方式
100
AcDbText
  0
LINE
  5
6CB
330
2
100
AcDbEntity
  8
WAKU
 62
     1
100
AcDbLine
 10
59.44520815224007
 20
-59.79748842803258
 30
0.0
 11
-65.7605088885964
 21
-59.79748842803252
 31
0.0
  0
LINE
  5
6CC
330
2
100
AcDbEntity
  8
WAKU
 62
     1
100
AcDbLine
 10
59.44520815224007
 20
-54.79748842803252
 30
0.0
 11
-65.7605088885964
 21
-54.79748842803252
 31
0.0
  0
LINE
  5
6CD
330
2
100
AcDbEntity
  8
WAKU
 62
     1
100
AcDbLine
 10
-65.7605088885964
 20
-69.79748842803252
 30
0.0
 11
59.44520815224007
 21
-69.79748842803258
 31
0.0
  0
TEXT
  5
6CE
330
2
100
AcDbEntity
  8
MOJI1
100
AcDbText
 10
-63.51815122383801
 20
-54.02513510847104
 30
0.0
 40
3.0
  1
回転角度
100
AcDbText
  0
TEXT
  5
6CF
330
2
100
AcDbEntity
  8
MOJI1
100
AcDbText
 10
-23.95300189567479
 20
-54.02513510847104
 30
0.0
 40
3.0
  1
水平：－４７．５°～＋４７．５°／垂直：－４５°～＋１０°
 41
0.8
100
AcDbText
  0
LINE
  5
6D0
330
2
100
AcDbEntity
  8
WAKU
 62
     4
100
AcDbLine
 10
-25.55492765807799
 20
-74.7974884280325
 30
0.0
 11
-25.55492765807797
 21
-4.797488428032522
 31
0.0
  0
LINE
  5
6D1
330
2
100
AcDbEntity
  8
WAKU
 62
     4
100
AcDbLine
 10
59.44520815224007
 20
-74.79748842803255
 30
0.0
 11
59.44520815224007
 21
-4.797488428032522
 31
0.0
  0
LINE
  5
6D2
330
2
100
AcDbEntity
  8
WAKU
 62
     4
100
AcDbLine
 10
-65.76050888859637
 20
-4.797488428032522
 30
0.0
 11
-65.76050888859637
 21
-74.79748842803255
 31
0.0
  0
LINE
  5
6D3
330
2
100
AcDbEntity
  8
WAKU
100
AcDbLine
 10
59.44520815224007
 20
-4.797488428032522
 30
0.0
 11
-65.7605088885964
 21
-4.797488428032522
 31
0.0
  0
LINE
  5
6D4
330
2
100
AcDbEntity
  8
WAKU
 62
     1
100
AcDbLine
 10
59.44520815224007
 20
-9.797488428032522
 30
0.0
 11
-65.7605088885964
 21
-9.797488428032522
 31
0.0
  0
LINE
  5
6D5
330
2
100
AcDbEntity
  8
WAKU
 62
     1
100
AcDbLine
 10
59.44520815224007
 20
-14.79748842803252
 30
0.0
 11
-65.7605088885964
 21
-14.79748842803252
 31
0.0
  0
LINE
  5
6D6
330
2
100
AcDbEntity
  8
WAKU
 62
     1
100
AcDbLine
 10
59.44520815224007
 20
-19.79748842803252
 30
0.0
 11
-65.7605088885964
 21
-19.79748842803252
 31
0.0
  0
LINE
  5
6D7
330
2
100
AcDbEntity
  8
WAKU
 62
     1
100
AcDbLine
 10
59.44520815224007
 20
-24.79748842803252
 30
0.0
 11
-65.7605088885964
 21
-24.79748842803252
 31
0.0
  0
TEXT
  5
6D8
330
2
100
AcDbEntity
  8
MOJI1
100
AcDbText
 10
-63.48319778013274
 20
-8.886897554049994
 30
0.0
 40
3.0
  1
電　源
100
AcDbText
  0
TEXT
  5
6D9
330
2
100
AcDbEntity
  8
MOJI1
100
AcDbText
 10
-63.29836978809976
 20
-13.72081872705536
 30
0.0
 40
3.0
  1
撮像素子
100
AcDbText
  0
TEXT
  5
6DA
330
2
100
AcDbEntity
  8
MOJI1
100
AcDbText
 10
-23.64183846762785
 20
-13.72081872705536
 30
0.0
 40
3.0
  1
１／４型　ＭＯＳセンサー
 41
0.9
100
AcDbText
  0
TEXT
  5
6DB
330
2
100
AcDbEntity
  8
MOJI1
100
AcDbText
 10
-22.95300189567479
 20
-8.696441260599442
 30
0.0
 40
3.0
  1
ＤＣ１２Ｖ、ＰｏＥ（ＩＥＥＥ８０２．３ａｆ準拠）
 41
0.95
100
AcDbText
  0
LINE
  5
6DC
330
2
100
AcDbEntity
  8
WAKU
 62
     1
100
AcDbLine
 10
59.44520815224007
 20
-29.79748842803252
 30
0.0
 11
-65.7605088885964
 21
-29.79748842803252
 31
0.0
  0
TEXT
  5
6DD
330
2
100
AcDbEntity
  8
MOJI1
100
AcDbText
 10
-38.82526793347631
 20
34.20255850744164
 30
0.0
 40
4.0
  1
ネットワークカメラ
  7
KANJI
100
AcDbText
  0
ENDSEC
  0
SECTION
  2
OBJECTS
  0
DICTIONARY
  5
9
330
0
100
AcDbDictionary
281
     1
  3
ACAD_COLOR
350
2B
  3
ACAD_GROUP
350
27
  3
ACAD_LAYOUT
350
D
  3
ACAD_MATERIAL
350
2A
  3
ACAD_MLINESTYLE
350
28
  3
ACAD_PLOTSETTINGS
350
29
  3
ACAD_PLOTSTYLENAME
350
8
  3
ACDBHEADERROUNDTRIPXREC
350
727
  3
AcDbVariableDictionary
350
6EE
  0
DICTIONARY
  5
15
330
14
100
AcDbDictionary
280
     1
281
     1
  3
ACAD_LAYERFILTERS
360
16
  3
ACAD_LAYERSTATES
360
18
  0
DICTIONARY
  5
3
330
2
100
AcDbDictionary
280
     1
281
     1
  3
ACAD_LAYOUTSELFREF
360
4
  0
DICTIONARY
  5
F
330
E
100
AcDbDictionary
280
     1
281
     1
  3
ACAD_LAYOUTSELFREF
360
10
  0
DICTIONARY
  5
2B
102
{ACAD_REACTORS
330
9
102
}
330
9
100
AcDbDictionary
281
     1
  0
DICTIONARY
  5
27
102
{ACAD_REACTORS
330
9
102
}
330
9
100
AcDbDictionary
281
     1
  0
DICTIONARY
  5
D
102
{ACAD_REACTORS
330
9
102
}
330
9
100
AcDbDictionary
281
     1
  3
Model
350
C
  3
ﾚｲｱｳﾄ1
350
13
  0
DICTIONARY
  5
2A
102
{ACAD_REACTORS
330
9
102
}
330
9
100
AcDbDictionary
281
     1
  0
DICTIONARY
  5
28
102
{ACAD_REACTORS
330
9
102
}
330
9
100
AcDbDictionary
281
     1
  3
STANDARD
350
33
  0
DICTIONARY
  5
29
102
{ACAD_REACTORS
330
9
102
}
330
9
100
AcDbDictionary
281
     1
  0
ACDBDICTIONARYWDFLT
  5
8
102
{ACAD_REACTORS
330
9
102
}
330
9
100
AcDbDictionary
281
     1
  3
Normal
350
7
100
AcDbDictionaryWithDefault
340
7
  0
DICTIONARY
  5
727
102
{ACAD_REACTORS
330
9
102
}
330
9
100
AcDbDictionary
281
     1
  3
COLORDICT
350
729
  3
MATERIALDICT
350
728
  0
DICTIONARY
  5
6EE
102
{ACAD_REACTORS
330
9
102
}
330
9
100
AcDbDictionary
281
     1
  3
DIMASSOC
350
6F0
  3
HIDETEXT
350
6EF
  3
PROJECTNAME
350
6F1
  0
DICTIONARY
  5
16
102
{ACAD_REACTORS
330
15
102
}
330
15
100
AcDbDictionary
280
     1
281
     1
  3
ロック画層
360
17
  0
DICTIONARY
  5
18
102
{ACAD_REACTORS
330
15
102
}
330
15
100
AcDbDictionary
281
     1
  0
XRECORD
  5
4
102
{ACAD_REACTORS
330
3
102
}
330
3
100
AcDbXrecord
280
     1
340
2
  0
XRECORD
  5
10
102
{ACAD_REACTORS
330
F
102
}
330
F
100
AcDbXrecord
280
     1
340
E
  0
LAYOUT
  5
C
102
{ACAD_XDICTIONARY
360
72A
102
}
102
{ACAD_REACTORS
330
D
102
}
330
D
100
AcDbPlotSettings
  1

  2
\\MARS\NX800A(RPDL)
  4
A4
  6

 40
5.831416606903076
 41
4.942422866821289
 42
7.609405517578125
 43
5.789093017578125
 44
209.9733276367187
 45
296.9683227539062
 46
4.23
 47
0.0
 48
0.0
 49
0.0
140
0.0
141
0.0
142
1.0
143
1.377557041813
 70
 11956
 72
     1
 73
     0
 74
     1
  7
tmsacad.ctb
 75
     0
147
0.7259227528494222
148
0.5228791232484547
149
0.0333900090324306
100
AcDbLayout
  1
Model
 70
     1
 71
     0
 10
0.0
 20
0.0
 11
12.0
 21
9.0
 12
0.0
 22
0.0
 32
0.0
 14
0.0
 24
0.0
 34
0.0
 15
0.0
 25
0.0
 35
0.0
146
0.0
 13
0.0
 23
0.0
 33
0.0
 16
1.0
 26
0.0
 36
0.0
 17
0.0
 27
1.0
 37
0.0
 76
     0
330
2
  0
LAYOUT
  5
13
102
{ACAD_XDICTIONARY
360
72C
102
}
102
{ACAD_REACTORS
330
D
102
}
330
D
100
AcDbPlotSettings
  1

  2
C:\Program Files\ACAD2000\plotters\DWF ePlot.pc3
  4

  6

 40
0.0
 41
0.0
 42
0.0
 43
0.0
 44
0.0
 45
0.0
 46
0.0
 47
0.0
 48
0.0
 49
0.0
140
0.0
141
0.0
142
1.0
143
1.0
 70
   688
 72
     0
 73
     0
 74
     5
  7
tmsacad.ctb
 75
    16
147
1.0
148
0.0
149
0.0
100
AcDbLayout
  1
ﾚｲｱｳﾄ1
 70
     1
 71
     1
 10
0.0
 20
0.0
 11
12.0
 21
9.0
 12
0.0
 22
0.0
 32
0.0
 14
1.000000000000000E+20
 24
1.000000000000000E+20
 34
1.000000000000000E+20
 15
-1.000000000000000E+20
 25
-1.000000000000000E+20
 35
-1.000000000000000E+20
146
0.0
 13
0.0
 23
0.0
 33
0.0
 16
1.0
 26
0.0
 36
0.0
 17
0.0
 27
1.0
 37
0.0
 76
     0
330
E
  0
MLINESTYLE
  5
33
102
{ACAD_REACTORS
330
28
102
}
330
28
100
AcDbMlineStyle
  2
STANDARD
 70
     0
  3

 62
   256
 51
90.0
 52
90.0
 71
     2
 49
0.5
 62
   256
  6
BYLAYER
 49
-0.5
 62
   256
  6
BYLAYER
  0
ACDBPLACEHOLDER
  5
7
102
{ACAD_REACTORS
330
8
102
}
330
8
  0
XRECORD
  5
729
102
{ACAD_REACTORS
330
727
102
}
330
727
100
AcDbXrecord
280
     1
340
2B
  0
XRECORD
  5
728
102
{ACAD_REACTORS
330
727
102
}
330
727
100
AcDbXrecord
280
     1
340
2A
  0
DICTIONARYVAR
  5
6F0
102
{ACAD_REACTORS
330
6EE
102
}
330
6EE
100
DictionaryVariables
280
     0
  1
1
  0
DICTIONARYVAR
  5
6EF
102
{ACAD_REACTORS
330
6EE
102
}
330
6EE
100
DictionaryVariables
280
     0
  1
1
  0
DICTIONARYVAR
  5
6F1
102
{ACAD_REACTORS
330
6EE
102
}
330
6EE
100
DictionaryVariables
280
     0
  1

  0
XRECORD
  5
17
102
{ACAD_REACTORS
330
16
102
}
330
16
100
AcDbXrecord
280
     1
  1
ロック画層
  1
*
  1
*
  1
*
 70
   256
  1
*
  1
*
  0
DICTIONARY
  5
72A
330
C
100
AcDbDictionary
280
     1
281
     1
  3
ACAD_XREC_ROUNDTRIP
360
72B
  0
DICTIONARY
  5
72C
330
13
100
AcDbDictionary
280
     1
281
     1
  3
ACAD_XREC_ROUNDTRIP
360
72D
  0
XRECORD
  5
72B
102
{ACAD_REACTORS
330
72A
102
}
330
72A
100
AcDbXrecord
280
     1
102
SHADEPLOT
 70
     0
102
SHADEPLOTRESLEVEL
 70
     2
102
SHADEPLOTCUSTOMDPI
 70
   300
  0
XRECORD
  5
72D
102
{ACAD_REACTORS
330
72C
102
}
330
72C
100
AcDbXrecord
280
     1
102
SHADEPLOT
 70
     0
102
SHADEPLOTRESLEVEL
 70
     2
102
SHADEPLOTCUSTOMDPI
 70
   300
  0
ENDSEC
  0
EOF
