  0
SECTION
  2
HEADER
  9
$ACADVER
  1
AC1015
  9
$ACADMAINTVER
 70
    20
  9
$DWGCODEPAGE
  3
ANSI_932
  9
$INSBASE
 10
0.0
 20
246.4992141396417
 30
0.0
  9
$EXTMIN
 10
-59.31236714281613
 20
-72.24003476056987
 30
-0.0015258207003583
  9
$EXTMAX
 10
65.93626079254182
 20
40.65008638028666
 30
0.0000000349246037
  9
$LIMMIN
 10
-1101.784450318844
 20
-1579.160531687244
  9
$LIMMAX
 10
-508.2420711400536
 20
-1161.440814074914
  9
$ORTHOMODE
 70
     1
  9
$REGENMODE
 70
     1
  9
$FILLMODE
 70
     1
  9
$QTEXTMODE
 70
     0
  9
$MIRRTEXT
 70
     1
  9
$LTSCALE
 40
1.0
  9
$ATTMODE
 70
     1
  9
$TEXTSIZE
 40
3.0
  9
$TRACEWID
 40
0.5
  9
$TEXTSTYLE
  7
STANDARD
  9
$CLAYER
  8
GAIKEI
  9
$CELTYPE
  6
BYLAYER
  9
$CECOLOR
 62
   256
  9
$CELTSCALE
 40
1.0
  9
$DISPSILH
 70
     0
  9
$DIMSCALE
 40
1.0
  9
$DIMASZ
 40
2.0
  9
$DIMEXO
 40
2.0
  9
$DIMDLI
 40
8.0
  9
$DIMRND
 40
0.0
  9
$DIMDLE
 40
0.0
  9
$DIMEXE
 40
2.0
  9
$DIMTP
 40
0.0
  9
$DIMTM
 40
0.0
  9
$DIMTXT
 40
2.5
  9
$DIMCEN
 40
0.0
  9
$DIMTSZ
 40
0.0
  9
$DIMTOL
 70
     0
  9
$DIMLIM
 70
     0
  9
$DIMTIH
 70
     0
  9
$DIMTOH
 70
     0
  9
$DIMSE1
 70
     0
  9
$DIMSE2
 70
     0
  9
$DIMTAD
 70
     3
  9
$DIMZIN
 70
     0
  9
$DIMBLK
  1

  9
$DIMASO
 70
     1
  9
$DIMSHO
 70
     1
  9
$DIMPOST
  1

  9
$DIMAPOST
  1

  9
$DIMALT
 70
     0
  9
$DIMALTD
 70
     2
  9
$DIMALTF
 40
25.4
  9
$DIMLFAC
 40
1.0
  9
$DIMTOFL
 70
     1
  9
$DIMTVP
 40
0.0
  9
$DIMTIX
 70
     0
  9
$DIMSOXD
 70
     0
  9
$DIMSAH
 70
     1
  9
$DIMBLK1
  1
OPEN30
  9
$DIMBLK2
  1
OPEN30
  9
$DIMSTYLE
  2
STANDARD
  9
$DIMCLRD
 70
     0
  9
$DIMCLRE
 70
     0
  9
$DIMCLRT
 70
     0
  9
$DIMTFAC
 40
1.0
  9
$DIMGAP
 40
0.5
  9
$DIMJUST
 70
     0
  9
$DIMSD1
 70
     0
  9
$DIMSD2
 70
     0
  9
$DIMTOLJ
 70
     1
  9
$DIMTZIN
 70
     0
  9
$DIMALTZ
 70
     0
  9
$DIMALTTZ
 70
     0
  9
$DIMUPT
 70
     0
  9
$DIMDEC
 70
     4
  9
$DIMTDEC
 70
     4
  9
$DIMALTU
 70
     2
  9
$DIMALTTD
 70
     2
  9
$DIMTXSTY
  7
STANDARD
  9
$DIMAUNIT
 70
     0
  9
$DIMADEC
 70
     0
  9
$DIMALTRND
 40
0.0
  9
$DIMAZIN
 70
     0
  9
$DIMDSEP
 70
    46
  9
$DIMATFIT
 70
     3
  9
$DIMFRAC
 70
     0
  9
$DIMLDRBLK
  1
OPEN30
  9
$DIMLUNIT
 70
     2
  9
$DIMLWD
 70
    -2
  9
$DIMLWE
 70
    -2
  9
$DIMTMOVE
 70
     0
  9
$LUNITS
 70
     2
  9
$LUPREC
 70
     4
  9
$SKETCHINC
 40
0.1
  9
$FILLETRAD
 40
2.6
  9
$AUNITS
 70
     0
  9
$AUPREC
 70
     0
  9
$MENU
  1
ACAD
  9
$ELEVATION
 40
0.0
  9
$PELEVATION
 40
0.0
  9
$THICKNESS
 40
0.0
  9
$LIMCHECK
 70
     0
  9
$CHAMFERA
 40
0.0
  9
$CHAMFERB
 40
0.0
  9
$CHAMFERC
 40
0.0
  9
$CHAMFERD
 40
0.0
  9
$SKPOLY
 70
     0
  9
$TDCREATE
 40
2451815.565532581
  9
$TDUCREATE
 40
2451815.190532581
  9
$TDUPDATE
 40
2455943.463785822
  9
$TDUUPDATE
 40
2455943.088785822
  9
$TDINDWG
 40
0.6287435532
  9
$TDUSRTIMER
 40
0.6287435532
  9
$USRTIMER
 70
     1
  9
$ANGBASE
 50
0.0
  9
$ANGDIR
 70
     0
  9
$PDMODE
 70
     0
  9
$PDSIZE
 40
0.0
  9
$PLINEWID
 40
0.0
  9
$SPLFRAME
 70
     0
  9
$SPLINETYPE
 70
     6
  9
$SPLINESEGS
 70
     8
  9
$HANDSEED
  5
722
  9
$SURFTAB1
 70
     6
  9
$SURFTAB2
 70
     6
  9
$SURFTYPE
 70
     6
  9
$SURFU
 70
     6
  9
$SURFV
 70
     6
  9
$UCSBASE
  2

  9
$UCSNAME
  2

  9
$UCSORG
 10
0.0
 20
0.0
 30
0.0
  9
$UCSXDIR
 10
1.0
 20
0.0
 30
0.0
  9
$UCSYDIR
 10
0.0
 20
1.0
 30
0.0
  9
$UCSORTHOREF
  2

  9
$UCSORTHOVIEW
 70
     0
  9
$UCSORGTOP
 10
0.0
 20
0.0
 30
0.0
  9
$UCSORGBOTTOM
 10
0.0
 20
0.0
 30
0.0
  9
$UCSORGLEFT
 10
0.0
 20
0.0
 30
0.0
  9
$UCSORGRIGHT
 10
0.0
 20
0.0
 30
0.0
  9
$UCSORGFRONT
 10
0.0
 20
0.0
 30
0.0
  9
$UCSORGBACK
 10
0.0
 20
0.0
 30
0.0
  9
$PUCSBASE
  2

  9
$PUCSNAME
  2

  9
$PUCSORG
 10
0.0
 20
0.0
 30
0.0
  9
$PUCSXDIR
 10
1.0
 20
0.0
 30
0.0
  9
$PUCSYDIR
 10
0.0
 20
1.0
 30
0.0
  9
$PUCSORTHOREF
  2

  9
$PUCSORTHOVIEW
 70
     0
  9
$PUCSORGTOP
 10
0.0
 20
0.0
 30
0.0
  9
$PUCSORGBOTTOM
 10
0.0
 20
0.0
 30
0.0
  9
$PUCSORGLEFT
 10
0.0
 20
0.0
 30
0.0
  9
$PUCSORGRIGHT
 10
0.0
 20
0.0
 30
0.0
  9
$PUCSORGFRONT
 10
0.0
 20
0.0
 30
0.0
  9
$PUCSORGBACK
 10
0.0
 20
0.0
 30
0.0
  9
$USERI1
 70
     0
  9
$USERI2
 70
     0
  9
$USERI3
 70
     0
  9
$USERI4
 70
     0
  9
$USERI5
 70
     0
  9
$USERR1
 40
0.0
  9
$USERR2
 40
0.0
  9
$USERR3
 40
0.0
  9
$USERR4
 40
0.0
  9
$USERR5
 40
0.0
  9
$WORLDVIEW
 70
     1
  9
$SHADEDGE
 70
     3
  9
$SHADEDIF
 70
    70
  9
$TILEMODE
 70
     1
  9
$MAXACTVP
 70
    48
  9
$PINSBASE
 10
0.0
 20
0.0
 30
0.0
  9
$PLIMCHECK
 70
     0
  9
$PEXTMIN
 10
1.000000000000000E+20
 20
1.000000000000000E+20
 30
1.000000000000000E+20
  9
$PEXTMAX
 10
-1.000000000000000E+20
 20
-1.000000000000000E+20
 30
-1.000000000000000E+20
  9
$PLIMMIN
 10
0.0
 20
0.0
  9
$PLIMMAX
 10
12.0
 20
9.0
  9
$UNITMODE
 70
     0
  9
$VISRETAIN
 70
     1
  9
$PLINEGEN
 70
     0
  9
$PSLTSCALE
 70
     1
  9
$TREEDEPTH
 70
  3020
  9
$CMLSTYLE
  2
STANDARD
  9
$CMLJUST
 70
     0
  9
$CMLSCALE
 40
1.0
  9
$PROXYGRAPHICS
 70
     1
  9
$MEASUREMENT
 70
     0
  9
$CELWEIGHT
370
    -1
  9
$ENDCAPS
280
     0
  9
$JOINSTYLE
280
     0
  9
$LWDISPLAY
290
     0
  9
$INSUNITS
 70
     0
  9
$HYPERLINKBASE
  1

  9
$STYLESHEET
  1

  9
$XEDIT
290
     1
  9
$CEPSNTYPE
380
     0
  9
$PSTYLEMODE
290
     1
  9
$FINGERPRINTGUID
  2
{1754B7AB-9B3C-11D4-AD9E-00104B1004F2}
  9
$VERSIONGUID
  2
{61C23648-4D78-4706-A6D4-F68A60C4057E}
  9
$EXTNAMES
290
     1
  9
$PSVPSCALE
 40
0.0
  9
$OLESTARTUP
290
     0
  0
ENDSEC
  0
SECTION
  2
CLASSES
  0
CLASS
  1
ACDBDICTIONARYWDFLT
  2
AcDbDictionaryWithDefault
  3
ObjectDBX Classes
 90
        0
280
     0
281
     0
  0
CLASS
  1
ACDBPLACEHOLDER
  2
AcDbPlaceHolder
  3
ObjectDBX Classes
 90
        0
280
     0
281
     0
  0
CLASS
  1
LAYOUT
  2
AcDbLayout
  3
ObjectDBX Classes
 90
        0
280
     0
281
     0
  0
CLASS
  1
DICTIONARYVAR
  2
AcDbDictionaryVar
  3
ObjectDBX Classes
 90
        0
280
     0
281
     0
  0
CLASS
  1
SORTENTSTABLE
  2
AcDbSortentsTable
  3
ObjectDBX Classes
 90
    32768
280
     0
281
     0
  0
ENDSEC
  0
SECTION
  2
TABLES
  0
TABLE
  2
VPORT
  5
21
330
0
100
AcDbSymbolTable
 70
     3
  0
VPORT
  5
71A
330
21
100
AcDbSymbolTableRecord
100
AcDbViewportTableRecord
  2
*Active
 70
     0
 10
0.0
 20
0.0
 11
1.0
 21
1.0
 12
3.31194682486285
 22
-15.7949741901416
 13
0.0
 23
0.0
 14
1.0
 24
1.0
 15
0.0
 25
0.0
 16
0.0
 26
0.0
 36
1.0
 17
0.0
 27
0.0
 37
0.0
 40
113.7389190441712
 41
2.124215809284818
 42
50.0
 43
0.0
 44
0.0
 50
0.0
 51
0.0
 71
     0
 72
 10000
 73
     1
 74
     0
 75
     0
 76
     1
 77
     0
 78
     0
281
     0
 65
     1
110
0.0
120
0.0
130
0.0
111
1.0
121
0.0
131
0.0
112
0.0
122
1.0
132
0.0
 79
     0
146
0.0
  0
ENDTAB
  0
TABLE
  2
LTYPE
  5
1C
330
0
100
AcDbSymbolTable
 70
     1
  0
LTYPE
  5
1D
330
1C
100
AcDbSymbolTableRecord
100
AcDbLinetypeTableRecord
  2
BYBLOCK
 70
     0
  3

 72
    65
 73
     0
 40
0.0
  0
LTYPE
  5
1E
330
1C
100
AcDbSymbolTableRecord
100
AcDbLinetypeTableRecord
  2
BYLAYER
 70
     0
  3

 72
    65
 73
     0
 40
0.0
  0
LTYPE
  5
A
330
1C
100
AcDbSymbolTableRecord
100
AcDbLinetypeTableRecord
  2
CONTINUOUS
 70
     0
  3
Solid line
 72
    65
 73
     0
 40
0.0
  0
ENDTAB
  0
TABLE
  2
LAYER
  5
14
102
{ACAD_XDICTIONARY
360
15
102
}
330
0
100
AcDbSymbolTable
 70
     7
  0
LAYER
  5
6
330
14
100
AcDbSymbolTableRecord
100
AcDbLayerTableRecord
  2
0
 70
     0
 62
     7
  6
CONTINUOUS
370
    -3
390
7
  0
LAYER
  5
68F
330
14
100
AcDbSymbolTableRecord
100
AcDbLayerTableRecord
  2
DEFPOINTS
 70
     0
 62
     7
  6
CONTINUOUS
290
     0
370
    -3
390
7
  0
LAYER
  5
6B3
330
14
100
AcDbSymbolTableRecord
100
AcDbLayerTableRecord
  2
WAKU
 70
     0
 62
     4
  6
CONTINUOUS
370
    -3
390
7
  0
LAYER
  5
6B0
330
14
100
AcDbSymbolTableRecord
100
AcDbLayerTableRecord
  2
MOJI1
 70
     0
 62
     2
  6
CONTINUOUS
370
    -3
390
7
  0
LAYER
  5
2C
330
14
100
AcDbSymbolTableRecord
100
AcDbLayerTableRecord
  2
GAIKEI
 70
     0
 62
     7
  6
CONTINUOUS
370
    -3
390
7
  0
LAYER
  5
685
330
14
100
AcDbSymbolTableRecord
100
AcDbLayerTableRecord
  2
SUNPO
 70
     0
 62
     3
  6
CONTINUOUS
370
    -3
390
7
  0
LAYER
  5
6AE
330
14
100
AcDbSymbolTableRecord
100
AcDbLayerTableRecord
  2
TOUROKU
 70
     0
 62
     1
  6
CONTINUOUS
370
    -3
390
7
  0
ENDTAB
  0
TABLE
  2
STYLE
  5
19
330
0
100
AcDbSymbolTable
 70
     2
  0
STYLE
  5
1A
330
19
100
AcDbSymbolTableRecord
100
AcDbTextStyleTableRecord
  2
STANDARD
 70
     0
 40
0.0
 41
1.0
 50
0.0
 71
     0
 42
3.0
  3
MONOTXT.shx
  4
BIGFONT.shx
  0
STYLE
  5
6DE
330
19
100
AcDbSymbolTableRecord
100
AcDbTextStyleTableRecord
  2
KANJI
 70
     0
 40
0.0
 41
1.0
 50
0.0
 71
     0
 42
3.5
  3
MONOTXT
  4
BIGFONT
  0
ENDTAB
  0
TABLE
  2
VIEW
  5
1F
330
0
100
AcDbSymbolTable
 70
     0
  0
ENDTAB
  0
TABLE
  2
UCS
  5
20
330
0
100
AcDbSymbolTable
 70
     0
  0
ENDTAB
  0
TABLE
  2
APPID
  5
23
330
0
100
AcDbSymbolTable
 70
     1
  0
APPID
  5
24
330
23
100
AcDbSymbolTableRecord
100
AcDbRegAppTableRecord
  2
ACAD
 70
     0
  0
ENDTAB
  0
TABLE
  2
DIMSTYLE
  5
25
330
0
100
AcDbSymbolTable
 70
     1
100
AcDbDimStyleTable
 71
     0
  0
DIMSTYLE
105
34
102
{ACAD_REACTORS
330
684
330
693
330
6A0
102
}
330
25
100
AcDbSymbolTableRecord
100
AcDbDimStyleTableRecord
  2
STANDARD
 70
     0
 40
0.0
 41
2.0
 42
2.0
 43
8.0
 44
2.0
 73
     0
 74
     0
 77
     3
140
3.0
141
0.0
173
     1
279
     2
288
     1
340
1A
341
2D
343
2D
344
2D
  0
ENDTAB
  0
TABLE
  2
BLOCK_RECORD
  5
1
330
0
100
AcDbSymbolTable
 70
     7
  0
BLOCK_RECORD
  5
2
102
{ACAD_XDICTIONARY
360
3
102
}
330
1
100
AcDbSymbolTableRecord
100
AcDbBlockTableRecord
  2
*MODEL_SPACE
340
C
  0
BLOCK_RECORD
  5
E
102
{ACAD_XDICTIONARY
360
F
102
}
330
1
100
AcDbSymbolTableRecord
100
AcDbBlockTableRecord
  2
*PAPER_SPACE
340
13
  0
BLOCK_RECORD
  5
2D
330
1
100
AcDbSymbolTableRecord
100
AcDbBlockTableRecord
  2
_OPEN30
340
0
102
{BLKREFS
331
68B
331
68C
331
699
331
69A
331
6A6
331
6A7
331
6F6
331
6F7
331
702
331
703
331
70E
331
70F
102
}
  0
BLOCK_RECORD
  5
686
330
1
100
AcDbSymbolTableRecord
100
AcDbBlockTableRecord
  2
*D1
340
0
  0
BLOCK_RECORD
  5
694
330
1
100
AcDbSymbolTableRecord
100
AcDbBlockTableRecord
  2
*D2
340
0
  0
BLOCK_RECORD
  5
6A1
330
1
100
AcDbSymbolTableRecord
100
AcDbBlockTableRecord
  2
*D3
340
0
  0
BLOCK_RECORD
  5
6F2
330
1
100
AcDbSymbolTableRecord
100
AcDbBlockTableRecord
  2
*D4
340
0
  0
BLOCK_RECORD
  5
6FE
330
1
100
AcDbSymbolTableRecord
100
AcDbBlockTableRecord
  2
*D5
340
0
  0
BLOCK_RECORD
  5
70A
330
1
100
AcDbSymbolTableRecord
100
AcDbBlockTableRecord
  2
*D6
340
0
  0
ENDTAB
  0
ENDSEC
  0
SECTION
  2
BLOCKS
  0
BLOCK
  5
5
330
2
100
AcDbEntity
  8
0
100
AcDbBlockBegin
  2
*MODEL_SPACE
 70
     0
 10
0.0
 20
0.0
 30
0.0
  3
*MODEL_SPACE
  1

  0
ENDBLK
  5
B
330
2
100
AcDbEntity
  8
0
100
AcDbBlockEnd
  0
BLOCK
  5
11
330
E
100
AcDbEntity
 67
     1
  8
0
100
AcDbBlockBegin
  2
*PAPER_SPACE
 70
     0
 10
0.0
 20
0.0
 30
0.0
  3
*PAPER_SPACE
  1

  0
ENDBLK
  5
12
330
E
100
AcDbEntity
 67
     1
  8
0
100
AcDbBlockEnd
  0
BLOCK
  5
2E
330
2D
100
AcDbEntity
  8
0
100
AcDbBlockBegin
  2
_OPEN30
 70
     0
 10
0.0
 20
0.0
 30
0.0
  3
_OPEN30
  1

  0
LINE
  5
2F
330
2D
100
AcDbEntity
  8
0
  6
ByBlock
 62
     0
100
AcDbLine
 10
-1.0
 20
0.26794919
 30
0.0
 11
0.0
 21
0.0
 31
0.0
  0
LINE
  5
30
330
2D
100
AcDbEntity
  8
0
  6
ByBlock
 62
     0
100
AcDbLine
 10
0.0
 20
0.0
 30
0.0
 11
-1.0
 21
-0.26794919
 31
0.0
  0
LINE
  5
31
330
2D
100
AcDbEntity
  8
0
  6
ByBlock
 62
     0
100
AcDbLine
 10
0.0
 20
0.0
 30
0.0
 11
-1.0
 21
0.0
 31
0.0
  0
ENDBLK
  5
32
330
2D
100
AcDbEntity
  8
0
100
AcDbBlockEnd
  0
BLOCK
  5
687
330
686
100
AcDbEntity
  8
0
100
AcDbBlockBegin
  2
*D1
 70
     1
 10
0.0
 20
0.0
 30
0.0
  3
*D1
  1

  0
LINE
  5
688
330
686
100
AcDbEntity
  8
SUNPO
 62
     0
370
    -2
100
AcDbLine
 10
47.43608285970544
 20
213.889207809112
 30
0.0
 11
47.43608285970544
 21
205.889207809112
 31
0.0
  0
LINE
  5
689
330
686
100
AcDbEntity
  8
SUNPO
 62
     0
370
    -2
100
AcDbLine
 10
57.44706851369324
 20
213.889207809112
 30
0.0
 11
57.44706851369324
 21
205.889207809112
 31
0.0
  0
LINE
  5
68A
330
686
100
AcDbEntity
  8
SUNPO
 62
     0
370
    -2
100
AcDbLine
 10
49.43608285970544
 20
207.889207809112
 30
0.0
 11
55.44706851369324
 21
207.889207809112
 31
0.0
  0
INSERT
  5
68B
330
686
100
AcDbEntity
  8
SUNPO
 62
     0
370
    -2
100
AcDbBlockReference
  2
_OPEN30
 10
47.43608285970544
 20
207.889207809112
 30
0.0
 41
2.0
 42
2.0
 43
2.0
 50
180.0
  0
INSERT
  5
68C
330
686
100
AcDbEntity
  8
SUNPO
 62
     0
370
    -2
100
AcDbBlockReference
  2
_OPEN30
 10
57.44706851369324
 20
207.889207809112
 30
0.0
 41
2.0
 42
2.0
 43
2.0
  0
MTEXT
  5
68D
330
686
100
AcDbEntity
  8
SUNPO
 62
     0
100
AcDbMText
 10
52.44157568669933
 20
209.639207809112
 30
0.0
 40
2.5
 41
0.0
 71
     5
 72
     1
  1
\A1;100
 73
     1
 44
1.0
1001
ACAD
1000
MTEXTBEGIN
1070
    73
1070
     1
1070
    44
1040
1.0
1070
    74
1070
     0
1000
MTEXTEND
  0
POINT
  5
68E
330
686
100
AcDbEntity
  8
DEFPOINTS
 62
     0
100
AcDbPoint
 10
47.43608285970544
 20
215.889207809112
 30
0.0
  0
POINT
  5
690
330
686
100
AcDbEntity
  8
DEFPOINTS
 62
     0
100
AcDbPoint
 10
57.44706851369324
 20
215.889207809112
 30
0.0
  0
POINT
  5
691
330
686
100
AcDbEntity
  8
DEFPOINTS
 62
     0
100
AcDbPoint
 10
57.44706851369324
 20
207.889207809112
 30
0.0
  0
ENDBLK
  5
692
330
686
100
AcDbEntity
  8
0
100
AcDbBlockEnd
  0
BLOCK
  5
695
330
694
100
AcDbEntity
  8
0
100
AcDbBlockBegin
  2
*D2
 70
     1
 10
0.0
 20
0.0
 30
0.0
  3
*D2
  1

  0
LINE
  5
696
330
694
100
AcDbEntity
  8
SUNPO
 62
     0
370
    -2
100
AcDbLine
 10
59.44319156230518
 20
225.8611894237803
 30
0.0
 11
67.44319156230519
 21
225.8611894237803
 31
0.0
  0
LINE
  5
697
330
694
100
AcDbEntity
  8
SUNPO
 62
     0
370
    -2
100
AcDbLine
 10
59.44319156230517
 20
215.8692672760193
 30
0.0
 11
67.44319156230517
 21
215.8692672760193
 31
0.0
  0
LINE
  5
698
330
694
100
AcDbEntity
  8
SUNPO
 62
     0
370
    -2
100
AcDbLine
 10
65.44319156230518
 20
223.8611894237803
 30
0.0
 11
65.44319156230518
 21
217.8692672760193
 31
0.0
  0
INSERT
  5
699
330
694
100
AcDbEntity
  8
SUNPO
 62
     0
370
    -2
100
AcDbBlockReference
  2
_OPEN30
 10
65.44319156230518
 20
225.8611894237803
 30
0.0
 41
2.0
 42
2.0
 43
2.0
 50
90.0
  0
INSERT
  5
69A
330
694
100
AcDbEntity
  8
SUNPO
 62
     0
370
    -2
100
AcDbBlockReference
  2
_OPEN30
 10
65.44319156230518
 20
215.8692672760193
 30
0.0
 41
2.0
 42
2.0
 43
2.0
 50
270.0
  0
MTEXT
  5
69B
330
694
100
AcDbEntity
  8
SUNPO
 62
     0
100
AcDbMText
 10
63.69319156230514
 20
220.8652283498998
 30
0.0
 40
2.5
 41
0.0
 71
     5
 72
     1
  1
\A1;100
 11
0.0000000000000001
 21
1.0
 31
0.0
 73
     1
 44
1.0
1001
ACAD
1000
MTEXTBEGIN
1070
    73
1070
     1
1070
    44
1040
1.0
1070
    74
1070
     0
1000
MTEXTEND
  0
POINT
  5
69C
330
694
100
AcDbEntity
  8
DEFPOINTS
 62
     0
100
AcDbPoint
 10
57.44319156230518
 20
225.8611894237803
 30
0.0
  0
POINT
  5
69D
330
694
100
AcDbEntity
  8
DEFPOINTS
 62
     0
100
AcDbPoint
 10
57.44319156230517
 20
215.8692672760193
 30
0.0
  0
POINT
  5
69E
330
694
100
AcDbEntity
  8
DEFPOINTS
 62
     0
100
AcDbPoint
 10
65.44319156230518
 20
215.8692672760193
 30
0.0
  0
ENDBLK
  5
69F
330
694
100
AcDbEntity
  8
0
100
AcDbBlockEnd
  0
BLOCK
  5
6A2
330
6A1
100
AcDbEntity
  8
0
100
AcDbBlockBegin
  2
*D3
 70
     1
 10
0.0
 20
0.0
 30
0.0
  3
*D3
  1

  0
LINE
  5
6A3
330
6A1
100
AcDbEntity
  8
SUNPO
 62
     0
370
    -2
100
AcDbLine
 10
45.43995981109349
 20
233.9392670260193
 30
0.0
 11
37.4399598110935
 21
233.9392670260193
 31
0.0
  0
LINE
  5
6A4
330
6A1
100
AcDbEntity
  8
SUNPO
 62
     0
370
    -2
100
AcDbLine
 10
45.43995981109349
 20
215.8692672760193
 30
0.0
 11
37.4399598110935
 21
215.8692672760193
 31
0.0
  0
LINE
  5
6A5
330
6A1
100
AcDbEntity
  8
SUNPO
 62
     0
370
    -2
100
AcDbLine
 10
39.4399598110935
 20
231.9392670260193
 30
0.0
 11
39.4399598110935
 21
217.8692672760193
 31
0.0
  0
INSERT
  5
6A6
330
6A1
100
AcDbEntity
  8
SUNPO
 62
     0
370
    -2
100
AcDbBlockReference
  2
_OPEN30
 10
39.4399598110935
 20
233.9392670260193
 30
0.0
 41
2.0
 42
2.0
 43
2.0
 50
90.0
  0
INSERT
  5
6A7
330
6A1
100
AcDbEntity
  8
SUNPO
 62
     0
370
    -2
100
AcDbBlockReference
  2
_OPEN30
 10
39.4399598110935
 20
215.8692672760193
 30
0.0
 41
2.0
 42
2.0
 43
2.0
 50
270.0
  0
MTEXT
  5
6A8
330
6A1
100
AcDbEntity
  8
SUNPO
 62
     0
100
AcDbMText
 10
37.68995981109347
 20
224.9042671510193
 30
0.0
 40
2.5
 41
0.0
 71
     5
 72
     1
  1
\A1;181
 11
0.0000000000000001
 21
1.0
 31
0.0
 73
     1
 44
1.0
1001
ACAD
1000
MTEXTBEGIN
1070
    73
1070
     1
1070
    44
1040
1.0
1070
    74
1070
     0
1000
MTEXTEND
  0
POINT
  5
6A9
330
6A1
100
AcDbEntity
  8
DEFPOINTS
 62
     0
100
AcDbPoint
 10
47.43995981109349
 20
233.9392670260193
 30
0.0
  0
POINT
  5
6AA
330
6A1
100
AcDbEntity
  8
DEFPOINTS
 62
     0
100
AcDbPoint
 10
47.4399598110935
 20
215.8692672760193
 30
0.0
  0
POINT
  5
6AB
330
6A1
100
AcDbEntity
  8
DEFPOINTS
 62
     0
100
AcDbPoint
 10
39.4399598110935
 20
215.8692672760193
 30
0.0
  0
ENDBLK
  5
6AC
330
6A1
100
AcDbEntity
  8
0
100
AcDbBlockEnd
  0
BLOCK
  5
6FC
330
6F2
100
AcDbEntity
  8
0
100
AcDbBlockBegin
  2
*D4
 70
     1
 10
0.0
 20
0.0
 30
0.0
  3
*D4
  1

  0
LINE
  5
6F3
330
6F2
100
AcDbEntity
  8
SUNPO
 62
     0
370
    -2
100
AcDbLine
 10
-15.8505379093536
 20
30.25209183582578
 30
0.0
 11
-23.85053790935359
 21
30.25209183582578
 31
0.0
  0
LINE
  5
6F4
330
6F2
100
AcDbEntity
  8
SUNPO
 62
     0
370
    -2
100
AcDbLine
 10
-15.85053790935359
 20
12.18209208582576
 30
0.0
 11
-23.85053790935359
 21
12.18209208582576
 31
0.0
  0
LINE
  5
6F5
330
6F2
100
AcDbEntity
  8
SUNPO
 62
     0
370
    -2
100
AcDbLine
 10
-21.85053790935359
 20
28.25209183582578
 30
0.0
 11
-21.85053790935359
 21
14.18209208582576
 31
0.0
  0
INSERT
  5
6F6
330
6F2
100
AcDbEntity
  8
SUNPO
 62
     0
370
    -2
100
AcDbBlockReference
  2
_OPEN30
 10
-21.85053790935359
 20
30.25209183582578
 30
0.0
 41
2.0
 42
2.0
 43
2.0
 50
90.0
  0
INSERT
  5
6F7
330
6F2
100
AcDbEntity
  8
SUNPO
 62
     0
370
    -2
100
AcDbBlockReference
  2
_OPEN30
 10
-21.85053790935359
 20
12.18209208582576
 30
0.0
 41
2.0
 42
2.0
 43
2.0
 50
270.0
  0
MTEXT
  5
6F8
330
6F2
100
AcDbEntity
  8
SUNPO
 62
     0
100
AcDbMText
 10
-23.6005379093536
 20
21.21709196082576
 30
0.0
 40
2.5
 41
0.0
 71
     5
 72
     1
  1
\A1;181
 11
0.0000000000000001
 21
1.0
 31
0.0
 73
     1
 44
1.0
1001
ACAD
1000
MTEXTBEGIN
1070
    73
1070
     1
1070
    44
1040
1.0
1070
    74
1070
     0
1000
MTEXTEND
  0
POINT
  5
6F9
330
6F2
100
AcDbEntity
  8
DEFPOINTS
 62
     0
100
AcDbPoint
 10
-13.8505379093536
 20
30.25209183582578
 30
0.0
  0
POINT
  5
6FA
330
6F2
100
AcDbEntity
  8
DEFPOINTS
 62
     0
100
AcDbPoint
 10
-13.85053790935359
 20
12.18209208582576
 30
0.0
  0
POINT
  5
6FB
330
6F2
100
AcDbEntity
  8
DEFPOINTS
 62
     0
100
AcDbPoint
 10
-21.85053790935359
 20
12.18209208582576
 30
0.0
  0
ENDBLK
  5
6FD
330
6F2
100
AcDbEntity
  8
0
100
AcDbBlockEnd
  0
BLOCK
  5
708
330
6FE
100
AcDbEntity
  8
0
100
AcDbBlockBegin
  2
*D5
 70
     1
 10
0.0
 20
0.0
 30
0.0
  3
*D5
  1

  0
LINE
  5
6FF
330
6FE
100
AcDbEntity
  8
SUNPO
 62
     0
370
    -2
100
AcDbLine
 10
-1.847306158141911
 20
22.17401423358674
 30
0.0
 11
6.152693841858082
 21
22.17401423358674
 31
0.0
  0
LINE
  5
700
330
6FE
100
AcDbEntity
  8
SUNPO
 62
     0
370
    -2
100
AcDbLine
 10
-1.847306158141918
 20
12.18209208582576
 30
0.0
 11
6.152693841858081
 21
12.18209208582575
 31
0.0
  0
LINE
  5
701
330
6FE
100
AcDbEntity
  8
SUNPO
 62
     0
370
    -2
100
AcDbLine
 10
4.152693841858082
 20
20.17401423358675
 30
0.0
 11
4.152693841858082
 21
14.18209208582575
 31
0.0
  0
INSERT
  5
702
330
6FE
100
AcDbEntity
  8
SUNPO
 62
     0
370
    -2
100
AcDbBlockReference
  2
_OPEN30
 10
4.152693841858083
 20
22.17401423358674
 30
0.0
 41
2.0
 42
2.0
 43
2.0
 50
90.0
  0
INSERT
  5
703
330
6FE
100
AcDbEntity
  8
SUNPO
 62
     0
370
    -2
100
AcDbBlockReference
  2
_OPEN30
 10
4.152693841858081
 20
12.18209208582575
 30
0.0
 41
2.0
 42
2.0
 43
2.0
 50
270.0
  0
MTEXT
  5
704
330
6FE
100
AcDbEntity
  8
SUNPO
 62
     0
100
AcDbMText
 10
2.402693841858079
 20
17.17805315970625
 30
0.0
 40
2.5
 41
0.0
 71
     5
 72
     1
  1
\A1;100
 11
0.0000000000000001
 21
1.0
 31
0.0
 73
     1
 44
1.0
1001
ACAD
1000
MTEXTBEGIN
1070
    73
1070
     1
1070
    44
1040
1.0
1070
    74
1070
     0
1000
MTEXTEND
  0
POINT
  5
705
330
6FE
100
AcDbEntity
  8
DEFPOINTS
 62
     0
100
AcDbPoint
 10
-3.847306158141911
 20
22.17401423358674
 30
0.0
  0
POINT
  5
706
330
6FE
100
AcDbEntity
  8
DEFPOINTS
 62
     0
100
AcDbPoint
 10
-3.847306158141918
 20
12.18209208582576
 30
0.0
  0
POINT
  5
707
330
6FE
100
AcDbEntity
  8
DEFPOINTS
 62
     0
100
AcDbPoint
 10
4.152693841858081
 20
12.18209208582575
 30
0.0
  0
ENDBLK
  5
709
330
6FE
100
AcDbEntity
  8
0
100
AcDbBlockEnd
  0
BLOCK
  5
714
330
70A
100
AcDbEntity
  8
0
100
AcDbBlockBegin
  2
*D6
 70
     1
 10
0.0
 20
0.0
 30
0.0
  3
*D6
  1

  0
LINE
  5
70B
330
70A
100
AcDbEntity
  8
SUNPO
 62
     0
370
    -2
100
AcDbLine
 10
-13.85441486074165
 20
10.20203261891842
 30
0.0
 11
-13.85441486074165
 21
2.202032618918423
 31
0.0
  0
LINE
  5
70C
330
70A
100
AcDbEntity
  8
SUNPO
 62
     0
370
    -2
100
AcDbLine
 10
-3.843429206753853
 20
10.20203261891842
 30
0.0
 11
-3.843429206753853
 21
2.202032618918423
 31
0.0
  0
LINE
  5
70D
330
70A
100
AcDbEntity
  8
SUNPO
 62
     0
370
    -2
100
AcDbLine
 10
-11.85441486074165
 20
4.202032618918423
 30
0.0
 11
-5.843429206753853
 21
4.202032618918423
 31
0.0
  0
INSERT
  5
70E
330
70A
100
AcDbEntity
  8
SUNPO
 62
     0
370
    -2
100
AcDbBlockReference
  2
_OPEN30
 10
-13.85441486074165
 20
4.202032618918423
 30
0.0
 41
2.0
 42
2.0
 43
2.0
 50
180.0
  0
INSERT
  5
70F
330
70A
100
AcDbEntity
  8
SUNPO
 62
     0
370
    -2
100
AcDbBlockReference
  2
_OPEN30
 10
-3.843429206753853
 20
4.202032618918423
 30
0.0
 41
2.0
 42
2.0
 43
2.0
  0
MTEXT
  5
710
330
70A
100
AcDbEntity
  8
SUNPO
 62
     0
100
AcDbMText
 10
-8.848922033747754
 20
5.952032618918423
 30
0.0
 40
2.5
 41
0.0
 71
     5
 72
     1
  1
\A1;100
 73
     1
 44
1.0
1001
ACAD
1000
MTEXTBEGIN
1070
    73
1070
     1
1070
    44
1040
1.0
1070
    74
1070
     0
1000
MTEXTEND
  0
POINT
  5
711
330
70A
100
AcDbEntity
  8
DEFPOINTS
 62
     0
100
AcDbPoint
 10
-13.85441486074165
 20
12.20203261891842
 30
0.0
  0
POINT
  5
712
330
70A
100
AcDbEntity
  8
DEFPOINTS
 62
     0
100
AcDbPoint
 10
-3.843429206753853
 20
12.20203261891842
 30
0.0
  0
POINT
  5
713
330
70A
100
AcDbEntity
  8
DEFPOINTS
 62
     0
100
AcDbPoint
 10
-3.843429206753853
 20
4.202032618918423
 30
0.0
  0
ENDBLK
  5
715
330
70A
100
AcDbEntity
  8
0
100
AcDbBlockEnd
  0
ENDSEC
  0
SECTION
  2
ENTITIES
  0
ARC
  5
35
330
2
100
AcDbEntity
  8
GAIKEI
  6
Continuous
370
    40
100
AcDbCircle
 10
22.97201336963508
 20
12.11615321082578
 30
0.0
 40
0.05
100
AcDbArc
 50
179.9999910000004
 51
269.9999969999991
  0
LINE
  5
36
330
2
100
AcDbEntity
  8
GAIKEI
  6
Continuous
 48
0.000175
370
    40
100
AcDbLine
 10
22.97288699463509
 20
12.06616158582576
 30
0.0
 11
22.97201336963508
 21
12.06615396082574
 31
0.0
  0
ARC
  5
37
330
2
100
AcDbEntity
  8
GAIKEI
  6
Continuous
370
    40
100
AcDbCircle
 10
26.0720156196351
 20
16.18217796082578
 30
0.0
 40
1.10000025
100
AcDbArc
 50
27.35881300000043
 51
32.91648499999948
  0
LINE
  5
38
330
2
100
AcDbEntity
  8
GAIKEI
  6
Continuous
 48
0.000413
370
    40
100
AcDbLine
 10
27.1720141196351
 20
14.66833446082577
 30
0.0
 11
27.17201036963509
 21
14.67039821082576
 31
0.0
  0
ARC
  5
39
330
2
100
AcDbEntity
  8
GAIKEI
  6
Continuous
370
    40
100
AcDbCircle
 10
26.87679086963508
 20
14.66953421082578
 30
0.0
 40
0.295086875
100
AcDbArc
 50
9.684081000000587
 51
16.60503700000091
  0
LINE
  5
3A
330
2
100
AcDbEntity
  8
GAIKEI
  6
Continuous
 48
0.220208
370
    40
100
AcDbLine
 10
24.07375899463509
 20
12.08537621082578
 30
0.0
 11
22.97288699463509
 21
12.06616158582576
 31
0.0
  0
ARC
  5
3B
330
2
100
AcDbEntity
  8
GAIKEI
  6
Continuous
370
    40
100
AcDbCircle
 10
24.0720156196351
 20
12.18536133582577
 30
0.0
 40
0.1
100
AcDbArc
 50
270.9999989999979
 51
0.0
  0
LINE
  5
3C
330
2
100
AcDbEntity
  8
GAIKEI
  6
Continuous
 48
0.161245
370
    40
100
AcDbLine
 10
24.47201336963508
 20
10.78209058582578
 30
0.0
 11
24.37201486963508
 21
11.58209171082578
 31
0.0
  0
LINE
  5
3D
330
2
100
AcDbEntity
  8
GAIKEI
  6
Continuous
 48
0.161245
370
    40
100
AcDbLine
 10
26.87201486963508
 20
10.78209058582578
 30
0.0
 11
26.97201336963508
 21
11.58209171082578
 31
0.0
  0
LINE
  5
3E
330
2
100
AcDbEntity
  8
GAIKEI
  6
Continuous
 48
0.18
370
    40
100
AcDbLine
 10
24.37201486963508
 20
11.58209171082578
 30
0.0
 11
24.37201486963508
 21
12.48209133582574
 31
0.0
  0
LINE
  5
3F
330
2
100
AcDbEntity
  8
GAIKEI
  6
Continuous
 48
0.18
370
    40
100
AcDbLine
 10
26.97201336963508
 20
11.58209171082578
 30
0.0
 11
26.97201336963508
 21
12.48209133582574
 31
0.0
  0
LINE
  5
40
330
2
100
AcDbEntity
  8
GAIKEI
  6
Continuous
 48
0.136496
370
    40
100
AcDbLine
 10
27.12201486963508
 20
12.48209133582574
 30
0.0
 11
27.12201486963508
 21
13.16457121082575
 31
0.0
  0
LINE
  5
41
330
2
100
AcDbEntity
  8
GAIKEI
  6
Continuous
 62
     1
 48
0.031803
370
    40
100
AcDbLine
 10
24.21503249463508
 20
12.48209133582574
 30
0.0
 11
24.21503249463508
 21
12.64110508582578
 31
0.0
  0
LINE
  5
42
330
2
100
AcDbEntity
  8
GAIKEI
  6
Continuous
 48
0.05131
370
    40
100
AcDbLine
 10
22.92201411963509
 20
12.11615321082578
 30
0.0
 11
22.92201411963509
 21
12.37270496082575
 31
0.0
  0
ELLIPSE
  5
43
330
2
100
AcDbEntity
  8
GAIKEI
  6
Continuous
 62
     1
370
    13
100
AcDbEllipse
 10
27.28747736963509
 20
14.94652696082576
 30
0.0
 11
0.1661872863769531
 21
0.1112747192382813
 31
0.0
210
0.0
220
0.0
230
1.0
 40
0.8261969999999996
 41
2.460512186578522
 42
3.14159688696421
  0
POLYLINE
  5
44
330
2
100
AcDbEntity
  8
GAIKEI
  6
Continuous
 62
     1
370
    13
100
AcDb2dPolyline
 66
     1
 10
0.0
 20
0.0
 30
0.0
  0
VERTEX
  5
45
330
44
100
AcDbEntity
  8
GAIKEI
  6
Continuous
 62
     1
370
     0
100
AcDbVertex
100
AcDb2dVertex
 10
26.4879817446351
 20
16.98209133582574
 30
0.0
  0
VERTEX
  5
46
330
44
100
AcDbEntity
  8
GAIKEI
  6
Continuous
 62
     1
370
     0
100
AcDbVertex
100
AcDb2dVertex
 10
26.54668611963508
 20
17.09759658582575
 30
0.0
  0
VERTEX
  5
47
330
44
100
AcDbEntity
  8
GAIKEI
  6
Continuous
 62
     1
370
     0
100
AcDbVertex
100
AcDb2dVertex
 10
26.56830011963509
 20
17.14168683582576
 30
0.0
  0
VERTEX
  5
48
330
44
100
AcDbEntity
  8
GAIKEI
  6
Continuous
 62
     1
370
     0
100
AcDbVertex
100
AcDb2dVertex
 10
26.5750139946351
 20
17.15635433582574
 30
0.0
  0
VERTEX
  5
49
330
44
100
AcDbEntity
  8
GAIKEI
  6
Continuous
 62
     1
370
     0
100
AcDbVertex
100
AcDb2dVertex
 10
26.57616224463509
 20
17.15948246082578
 30
0.0
  0
VERTEX
  5
4A
330
44
100
AcDbEntity
  8
GAIKEI
  6
Continuous
 62
     1
370
     0
100
AcDbVertex
100
AcDb2dVertex
 10
26.57619661963508
 20
17.15971508582575
 30
0.0
  0
VERTEX
  5
4B
330
44
100
AcDbEntity
  8
GAIKEI
  6
Continuous
 62
     1
370
     0
100
AcDbVertex
100
AcDb2dVertex
 10
26.57615461963509
 20
17.15985246082576
 30
0.0
  0
SEQEND
  5
4C
330
44
100
AcDbEntity
  8
GAIKEI
  6
Continuous
 62
     1
370
     0
  0
POLYLINE
  5
4D
330
2
100
AcDbEntity
  8
GAIKEI
  6
Continuous
 62
     1
370
    13
100
AcDb2dPolyline
 66
     1
 10
0.0
 20
0.0
 30
0.0
  0
VERTEX
  5
4E
330
4D
100
AcDbEntity
  8
GAIKEI
  6
Continuous
 62
     1
370
     0
100
AcDbVertex
100
AcDb2dVertex
 10
26.67810236963509
 20
16.23287721082576
 30
0.0
  0
VERTEX
  5
4F
330
4D
100
AcDbEntity
  8
GAIKEI
  6
Continuous
 62
     1
370
     0
100
AcDbVertex
100
AcDb2dVertex
 10
26.74272336963509
 20
16.23289633582575
 30
0.0
  0
VERTEX
  5
50
330
4D
100
AcDbEntity
  8
GAIKEI
  6
Continuous
 62
     1
370
     0
100
AcDbVertex
100
AcDb2dVertex
 10
26.80582611963508
 20
16.23591758582577
 30
0.0
  0
VERTEX
  5
51
330
4D
100
AcDbEntity
  8
GAIKEI
  6
Continuous
 62
     1
370
     0
100
AcDbVertex
100
AcDb2dVertex
 10
26.84305749463508
 20
16.23971883582575
 30
0.0
  0
VERTEX
  5
52
330
4D
100
AcDbEntity
  8
GAIKEI
  6
Continuous
 62
     1
370
     0
100
AcDbVertex
100
AcDb2dVertex
 10
26.87916361963508
 20
16.24538183582578
 30
0.0
  0
VERTEX
  5
53
330
4D
100
AcDbEntity
  8
GAIKEI
  6
Continuous
 62
     1
370
     0
100
AcDbVertex
100
AcDb2dVertex
 10
26.92468436963509
 20
16.25630321082573
 30
0.0
  0
VERTEX
  5
54
330
4D
100
AcDbEntity
  8
GAIKEI
  6
Continuous
 62
     1
370
     0
100
AcDbVertex
100
AcDb2dVertex
 10
26.96688261963507
 20
16.27190158582576
 30
0.0
  0
VERTEX
  5
55
330
4D
100
AcDbEntity
  8
GAIKEI
  6
Continuous
 62
     1
370
     0
100
AcDbVertex
100
AcDb2dVertex
 10
27.00114999463508
 20
16.29056308582576
 30
0.0
  0
VERTEX
  5
56
330
4D
100
AcDbEntity
  8
GAIKEI
  6
Continuous
 62
     1
370
     0
100
AcDbVertex
100
AcDb2dVertex
 10
27.03113349463509
 20
16.31414171082574
 30
0.0
  0
VERTEX
  5
57
330
4D
100
AcDbEntity
  8
GAIKEI
  6
Continuous
 62
     1
370
     0
100
AcDbVertex
100
AcDb2dVertex
 10
27.05595574463508
 20
16.34285108582574
 30
0.0
  0
VERTEX
  5
58
330
4D
100
AcDbEntity
  8
GAIKEI
  6
Continuous
 62
     1
370
     0
100
AcDbVertex
100
AcDb2dVertex
 10
27.07488436963509
 20
16.37655021082574
 30
0.0
  0
VERTEX
  5
59
330
4D
100
AcDbEntity
  8
GAIKEI
  6
Continuous
 62
     1
370
     0
100
AcDbVertex
100
AcDb2dVertex
 10
27.0854509946351
 20
16.40666333582575
 30
0.0
  0
VERTEX
  5
5A
330
4D
100
AcDbEntity
  8
GAIKEI
  6
Continuous
 62
     1
370
     0
100
AcDbVertex
100
AcDb2dVertex
 10
27.09190549463509
 20
16.43914171082573
 30
0.0
  0
VERTEX
  5
5B
330
4D
100
AcDbEntity
  8
GAIKEI
  6
Continuous
 62
     1
370
     0
100
AcDbVertex
100
AcDb2dVertex
 10
27.09435836963509
 20
16.47348546082574
 30
0.0
  0
VERTEX
  5
5C
330
4D
100
AcDbEntity
  8
GAIKEI
  6
Continuous
 62
     1
370
     0
100
AcDbVertex
100
AcDb2dVertex
 10
27.09369836963509
 20
16.50015783582577
 30
0.0
  0
VERTEX
  5
5D
330
4D
100
AcDbEntity
  8
GAIKEI
  6
Continuous
 62
     1
370
     0
100
AcDbVertex
100
AcDb2dVertex
 10
27.0910166196351
 20
16.52738708582578
 30
0.0
  0
VERTEX
  5
5E
330
4D
100
AcDbEntity
  8
GAIKEI
  6
Continuous
 62
     1
370
     0
100
AcDbVertex
100
AcDb2dVertex
 10
27.08587061963508
 20
16.55791233582576
 30
0.0
  0
VERTEX
  5
5F
330
4D
100
AcDbEntity
  8
GAIKEI
  6
Continuous
 62
     1
370
     0
100
AcDbVertex
100
AcDb2dVertex
 10
27.07859224463509
 20
16.58869308582578
 30
0.0
  0
VERTEX
  5
60
330
4D
100
AcDbEntity
  8
GAIKEI
  6
Continuous
 62
     1
370
     0
100
AcDbVertex
100
AcDb2dVertex
 10
27.06810174463509
 20
16.62332671082575
 30
0.0
  0
VERTEX
  5
61
330
4D
100
AcDbEntity
  8
GAIKEI
  6
Continuous
 62
     1
370
     0
100
AcDbVertex
100
AcDb2dVertex
 10
27.05536836963509
 20
16.65783833582574
 30
0.0
  0
VERTEX
  5
62
330
4D
100
AcDbEntity
  8
GAIKEI
  6
Continuous
 62
     1
370
     0
100
AcDbVertex
100
AcDb2dVertex
 10
27.02588836963509
 20
16.72213883582574
 30
0.0
  0
VERTEX
  5
63
330
4D
100
AcDbEntity
  8
GAIKEI
  6
Continuous
 62
     1
370
     0
100
AcDbVertex
100
AcDb2dVertex
 10
26.99172386963508
 20
16.78221271082574
 30
0.0
  0
VERTEX
  5
64
330
4D
100
AcDbEntity
  8
GAIKEI
  6
Continuous
 62
     1
370
     0
100
AcDbVertex
100
AcDb2dVertex
 10
26.95269961963508
 20
16.83996721082579
 30
0.0
  0
VERTEX
  5
65
330
4D
100
AcDbEntity
  8
GAIKEI
  6
Continuous
 62
     1
370
     0
100
AcDbVertex
100
AcDb2dVertex
 10
26.90944086963509
 20
16.89502096082575
 30
0.0
  0
VERTEX
  5
66
330
4D
100
AcDbEntity
  8
GAIKEI
  6
Continuous
 62
     1
370
     0
100
AcDbVertex
100
AcDb2dVertex
 10
26.86244761963508
 20
16.94709158582574
 30
0.0
  0
VERTEX
  5
67
330
4D
100
AcDbEntity
  8
GAIKEI
  6
Continuous
 62
     1
370
     0
100
AcDbVertex
100
AcDb2dVertex
 10
26.79884136963508
 20
17.00784446082574
 30
0.0
  0
SEQEND
  5
68
330
4D
100
AcDbEntity
  8
GAIKEI
  6
Continuous
 62
     1
370
     0
  0
LINE
  5
69
330
2
100
AcDbEntity
  8
GAIKEI
  6
Continuous
 62
     1
 48
0.114037
370
    13
100
AcDbLine
 10
26.10800349463509
 20
16.24282783582575
 30
0.0
 11
26.67810236963509
 21
16.23287721082576
 31
0.0
  0
ELLIPSE
  5
6A
330
2
100
AcDbEntity
  8
GAIKEI
  6
Continuous
 62
     1
370
    13
100
AcDbEllipse
 10
26.56790724463508
 20
16.22365896082576
 30
0.0
 11
-0.0034904479980469
 21
-0.1999702453613282
 31
0.0
210
0.0
220
0.0
230
1.0
 40
0.5509569999999999
 41
1.626524566612126
 42
3.141592653577048
  0
LINE
  5
6B
330
2
100
AcDbEntity
  8
GAIKEI
  6
Continuous
 62
     1
 48
0.003151
370
    13
100
AcDbLine
 10
26.09224886963509
 20
16.24310246082578
 30
0.0
 11
26.10800349463509
 21
16.24282783582575
 31
0.0
  0
POLYLINE
  5
6C
330
2
100
AcDbEntity
  8
GAIKEI
  6
Continuous
 62
     1
370
    13
100
AcDb2dPolyline
 66
     1
 10
0.0
 20
0.0
 30
0.0
  0
VERTEX
  5
6D
330
6C
100
AcDbEntity
  8
GAIKEI
  6
Continuous
 62
     1
370
     0
100
AcDbVertex
100
AcDb2dVertex
 10
26.53694711963507
 20
14.97422933582575
 30
0.0
  0
VERTEX
  5
6E
330
6C
100
AcDbEntity
  8
GAIKEI
  6
Continuous
 62
     1
370
     0
100
AcDbVertex
100
AcDb2dVertex
 10
26.52935586963508
 20
14.97548246082576
 30
0.0
  0
VERTEX
  5
6F
330
6C
100
AcDbEntity
  8
GAIKEI
  6
Continuous
 62
     1
370
     0
100
AcDbVertex
100
AcDb2dVertex
 10
26.52194774463507
 20
14.97891946082578
 30
0.0
  0
VERTEX
  5
70
330
6C
100
AcDbEntity
  8
GAIKEI
  6
Continuous
 62
     1
370
     0
100
AcDbVertex
100
AcDb2dVertex
 10
26.50816524463508
 20
14.99174833582574
 30
0.0
  0
VERTEX
  5
71
330
6C
100
AcDbEntity
  8
GAIKEI
  6
Continuous
 62
     1
370
     0
100
AcDbVertex
100
AcDb2dVertex
 10
26.49900611963508
 20
15.00581883582575
 30
0.0
  0
VERTEX
  5
72
330
6C
100
AcDbEntity
  8
GAIKEI
  6
Continuous
 62
     1
370
     0
100
AcDbVertex
100
AcDb2dVertex
 10
26.4910411196351
 20
15.02284571082575
 30
0.0
  0
VERTEX
  5
73
330
6C
100
AcDbEntity
  8
GAIKEI
  6
Continuous
 62
     1
370
     0
100
AcDbVertex
100
AcDb2dVertex
 10
26.48303024463509
 20
15.04653883582577
 30
0.0
  0
VERTEX
  5
74
330
6C
100
AcDbEntity
  8
GAIKEI
  6
Continuous
 62
     1
370
     0
100
AcDbVertex
100
AcDb2dVertex
 10
26.47683899463509
 20
15.07253021082576
 30
0.0
  0
VERTEX
  5
75
330
6C
100
AcDbEntity
  8
GAIKEI
  6
Continuous
 62
     1
370
     0
100
AcDbVertex
100
AcDb2dVertex
 10
26.47005649463509
 20
15.12227771082578
 30
0.0
  0
VERTEX
  5
76
330
6C
100
AcDbEntity
  8
GAIKEI
  6
Continuous
 62
     1
370
     0
100
AcDbVertex
100
AcDb2dVertex
 10
26.46837411963509
 20
15.17419958582579
 30
0.0
  0
SEQEND
  5
77
330
6C
100
AcDbEntity
  8
GAIKEI
  6
Continuous
 62
     1
370
     0
  0
POLYLINE
  5
78
330
2
100
AcDbEntity
  8
GAIKEI
  6
Continuous
 62
     1
370
    13
100
AcDb2dPolyline
 66
     1
 10
0.0
 20
0.0
 30
0.0
  0
VERTEX
  5
79
330
78
100
AcDbEntity
  8
GAIKEI
  6
Continuous
 62
     1
370
     0
100
AcDbVertex
100
AcDb2dVertex
 10
26.53694711963507
 20
14.97422933582575
 30
0.0
  0
VERTEX
  5
7A
330
78
100
AcDbEntity
  8
GAIKEI
  6
Continuous
 62
     1
370
     0
100
AcDbVertex
100
AcDb2dVertex
 10
26.63532061963508
 20
14.97140258582575
 30
0.0
  0
VERTEX
  5
7B
330
78
100
AcDbEntity
  8
GAIKEI
  6
Continuous
 62
     1
370
     0
100
AcDbVertex
100
AcDb2dVertex
 10
26.7302302446351
 20
14.96595333582579
 30
0.0
  0
VERTEX
  5
7C
330
78
100
AcDbEntity
  8
GAIKEI
  6
Continuous
 62
     1
370
     0
100
AcDbVertex
100
AcDb2dVertex
 10
26.81801024463508
 20
14.95740271082579
 30
0.0
  0
VERTEX
  5
7D
330
78
100
AcDbEntity
  8
GAIKEI
  6
Continuous
 62
     1
370
     0
100
AcDbVertex
100
AcDb2dVertex
 10
26.89981636963509
 20
14.94478171082576
 30
0.0
  0
VERTEX
  5
7E
330
78
100
AcDbEntity
  8
GAIKEI
  6
Continuous
 62
     1
370
     0
100
AcDbVertex
100
AcDb2dVertex
 10
26.95839874463508
 20
14.93142271082578
 30
0.0
  0
VERTEX
  5
7F
330
78
100
AcDbEntity
  8
GAIKEI
  6
Continuous
 62
     1
370
     0
100
AcDbVertex
100
AcDb2dVertex
 10
27.01097286963508
 20
14.91440146082576
 30
0.0
  0
VERTEX
  5
80
330
78
100
AcDbEntity
  8
GAIKEI
  6
Continuous
 62
     1
370
     0
100
AcDbVertex
100
AcDb2dVertex
 10
27.03707686963509
 20
14.90318246082577
 30
0.0
  0
VERTEX
  5
81
330
78
100
AcDbEntity
  8
GAIKEI
  6
Continuous
 62
     1
370
     0
100
AcDbVertex
100
AcDb2dVertex
 10
27.06104836963509
 20
14.89038221082578
 30
0.0
  0
VERTEX
  5
82
330
78
100
AcDbEntity
  8
GAIKEI
  6
Continuous
 62
     1
370
     0
100
AcDbVertex
100
AcDb2dVertex
 10
27.07803149463508
 20
14.87922808582576
 30
0.0
  0
VERTEX
  5
83
330
78
100
AcDbEntity
  8
GAIKEI
  6
Continuous
 62
     1
370
     0
100
AcDbVertex
100
AcDb2dVertex
 10
27.0935114946351
 20
14.86684933582577
 30
0.0
  0
VERTEX
  5
84
330
78
100
AcDbEntity
  8
GAIKEI
  6
Continuous
 62
     1
370
     0
100
AcDbVertex
100
AcDb2dVertex
 10
27.10839261963509
 20
14.85197208582573
 30
0.0
  0
VERTEX
  5
85
330
78
100
AcDbEntity
  8
GAIKEI
  6
Continuous
 62
     1
370
     0
100
AcDbVertex
100
AcDb2dVertex
 10
27.12129386963508
 20
14.83525033582575
 30
0.0
  0
SEQEND
  5
86
330
78
100
AcDbEntity
  8
GAIKEI
  6
Continuous
 62
     1
370
     0
  0
POLYLINE
  5
87
330
2
100
AcDbEntity
  8
GAIKEI
  6
Continuous
 62
     1
370
    13
100
AcDb2dPolyline
 66
     1
 10
0.0
 20
0.0
 30
0.0
  0
VERTEX
  5
88
330
87
100
AcDbEntity
  8
GAIKEI
  6
Continuous
 62
     1
370
     0
100
AcDbVertex
100
AcDb2dVertex
 10
27.10048474463508
 20
14.94652696082576
 30
0.0
  0
VERTEX
  5
89
330
87
100
AcDbEntity
  8
GAIKEI
  6
Continuous
 62
     1
370
     0
100
AcDbVertex
100
AcDb2dVertex
 10
27.12639036963509
 20
14.89419883582579
 30
0.0
  0
VERTEX
  5
8A
330
87
100
AcDbEntity
  8
GAIKEI
  6
Continuous
 62
     1
370
     0
100
AcDbVertex
100
AcDb2dVertex
 10
27.1463412446351
 20
14.83986608582577
 30
0.0
  0
VERTEX
  5
8B
330
87
100
AcDbEntity
  8
GAIKEI
  6
Continuous
 62
     1
370
     0
100
AcDbVertex
100
AcDb2dVertex
 10
27.16051661963509
 20
14.78411808582578
 30
0.0
  0
VERTEX
  5
8C
330
87
100
AcDbEntity
  8
GAIKEI
  6
Continuous
 62
     1
370
     0
100
AcDbVertex
100
AcDb2dVertex
 10
27.16904624463507
 20
14.72747746082578
 30
0.0
  0
VERTEX
  5
8D
330
87
100
AcDbEntity
  8
GAIKEI
  6
Continuous
 62
     1
370
     0
100
AcDbVertex
100
AcDb2dVertex
 10
27.17201036963509
 20
14.67040008582577
 30
0.0
  0
SEQEND
  5
8E
330
87
100
AcDbEntity
  8
GAIKEI
  6
Continuous
 62
     1
370
     0
  0
POLYLINE
  5
8F
330
2
100
AcDbEntity
  8
GAIKEI
  6
Continuous
 62
     1
370
    13
100
AcDb2dPolyline
 66
     1
 10
0.0
 20
0.0
 30
0.0
  0
VERTEX
  5
90
330
8F
100
AcDbEntity
  8
GAIKEI
  6
Continuous
 62
     1
370
     0
100
AcDbVertex
100
AcDb2dVertex
 10
26.46837411963509
 20
15.17419958582579
 30
0.0
  0
VERTEX
  5
91
330
8F
100
AcDbEntity
  8
GAIKEI
  6
Continuous
 62
     1
370
     0
100
AcDbVertex
100
AcDb2dVertex
 10
26.54042999463508
 20
15.17164946082576
 30
0.0
  0
VERTEX
  5
92
330
8F
100
AcDbEntity
  8
GAIKEI
  6
Continuous
 62
     1
370
     0
100
AcDbVertex
100
AcDb2dVertex
 10
26.61142911963509
 20
15.16674758582573
 30
0.0
  0
VERTEX
  5
93
330
8F
100
AcDbEntity
  8
GAIKEI
  6
Continuous
 62
     1
370
     0
100
AcDbVertex
100
AcDb2dVertex
 10
26.67214386963508
 20
15.16025296082577
 30
0.0
  0
VERTEX
  5
94
330
8F
100
AcDbEntity
  8
GAIKEI
  6
Continuous
 62
     1
370
     0
100
AcDbVertex
100
AcDb2dVertex
 10
26.73130599463508
 20
15.15142583582579
 30
0.0
  0
VERTEX
  5
95
330
8F
100
AcDbEntity
  8
GAIKEI
  6
Continuous
 62
     1
370
     0
100
AcDbVertex
100
AcDb2dVertex
 10
26.79258149463509
 20
15.13905283582576
 30
0.0
  0
VERTEX
  5
96
330
8F
100
AcDbEntity
  8
GAIKEI
  6
Continuous
 62
     1
370
     0
100
AcDbVertex
100
AcDb2dVertex
 10
26.85106461963508
 20
15.12332296082579
 30
0.0
  0
VERTEX
  5
97
330
8F
100
AcDbEntity
  8
GAIKEI
  6
Continuous
 62
     1
370
     0
100
AcDbVertex
100
AcDb2dVertex
 10
26.91447249463508
 20
15.10041371082579
 30
0.0
  0
VERTEX
  5
98
330
8F
100
AcDbEntity
  8
GAIKEI
  6
Continuous
 62
     1
370
     0
100
AcDbVertex
100
AcDb2dVertex
 10
26.94530286963509
 20
15.08629933582577
 30
0.0
  0
VERTEX
  5
99
330
8F
100
AcDbEntity
  8
GAIKEI
  6
Continuous
 62
     1
370
     0
100
AcDbVertex
100
AcDb2dVertex
 10
26.97448524463508
 20
15.07054471082577
 30
0.0
  0
VERTEX
  5
9A
330
8F
100
AcDbEntity
  8
GAIKEI
  6
Continuous
 62
     1
370
     0
100
AcDbVertex
100
AcDb2dVertex
 10
26.99983011963508
 20
15.05444283582576
 30
0.0
  0
VERTEX
  5
9B
330
8F
100
AcDbEntity
  8
GAIKEI
  6
Continuous
 62
     1
370
     0
100
AcDbVertex
100
AcDb2dVertex
 10
27.02354611963509
 20
15.03672933582575
 30
0.0
  0
VERTEX
  5
9C
330
8F
100
AcDbEntity
  8
GAIKEI
  6
Continuous
 62
     1
370
     0
100
AcDbVertex
100
AcDb2dVertex
 10
27.05261024463508
 20
15.01024383582577
 30
0.0
  0
VERTEX
  5
9D
330
8F
100
AcDbEntity
  8
GAIKEI
  6
Continuous
 62
     1
370
     0
100
AcDbVertex
100
AcDb2dVertex
 10
27.07832511963508
 20
14.98031183582574
 30
0.0
  0
VERTEX
  5
9E
330
8F
100
AcDbEntity
  8
GAIKEI
  6
Continuous
 62
     1
370
     0
100
AcDbVertex
100
AcDb2dVertex
 10
27.10048474463508
 20
14.94652696082576
 30
0.0
  0
SEQEND
  5
9F
330
8F
100
AcDbEntity
  8
GAIKEI
  6
Continuous
 62
     1
370
     0
  0
LINE
  5
A0
330
2
100
AcDbEntity
  8
GAIKEI
  6
Continuous
 62
     1
 48
0.075448
370
    13
100
AcDbLine
 10
26.46837411963509
 20
15.17419958582579
 30
0.0
 11
26.09121499463508
 21
15.18197958582575
 31
0.0
  0
LINE
  5
A1
330
2
100
AcDbEntity
  8
GAIKEI
  6
Continuous
 62
     1
 48
0.21616
370
    13
100
AcDbLine
 10
26.09121499463508
 20
16.18217796082578
 30
0.0
 11
27.1720141196351
 21
16.18217796082578
 31
0.0
  0
ARC
  5
A2
330
2
100
AcDbEntity
  8
GAIKEI
  6
Continuous
370
    40
100
AcDbCircle
 10
26.0720156196351
 20
16.18217796082578
 30
0.0
 40
1.100000124999999
100
AcDbArc
 50
0.0
 51
27.35908899999881
  0
ARC
  5
A3
330
2
100
AcDbEntity
  8
GAIKEI
  6
Continuous
370
    40
100
AcDbCircle
 10
26.0720156196351
 20
16.18217796082578
 30
0.0
 40
1.100000124999999
100
AcDbArc
 50
32.91672700000026
 51
89.00054800000059
  0
ARC
  5
A4
330
2
100
AcDbEntity
  8
GAIKEI
  6
Continuous
 62
     1
370
    40
100
AcDbCircle
 10
26.87201486963508
 20
14.66833446082577
 30
0.0
 40
0.3
100
AcDbArc
 50
0.0
 51
33.80618899999969
  0
LINE
  5
A5
330
2
100
AcDbEntity
  8
GAIKEI
  6
Continuous
 48
0.008123
370
    13
100
AcDbLine
 10
24.13139911963509
 20
12.53209258582578
 30
0.0
 11
24.17201411963509
 21
12.53209258582578
 31
0.0
  0
LINE
  5
A6
330
2
100
AcDbEntity
  8
GAIKEI
  6
Continuous
 48
0.32789
370
    40
100
AcDbLine
 10
26.09121499463508
 20
17.28201046082577
 30
0.0
 11
24.45201286963508
 21
17.31062071082576
 31
0.0
  0
ELLIPSE
  5
A7
330
2
100
AcDbEntity
  8
GAIKEI
  6
Continuous
 62
     1
370
    13
100
AcDbEllipse
 10
26.08772461963508
 20
17.08204021082579
 30
0.0
 11
0.0034904479980469
 21
0.1999702453613282
 31
0.0
210
0.0
220
0.0
230
1.0
 40
0.01745
 41
4.712693567169329
 42
6.283185307178528
  0
LINE
  5
A8
330
2
100
AcDbEntity
  8
GAIKEI
  6
Continuous
 62
     1
 48
0.32789
370
    13
100
AcDbLine
 10
26.09121499463508
 20
17.08204021082574
 30
0.0
 11
24.45201674463509
 21
17.11065433582578
 31
0.0
  0
ARC
  5
A9
330
2
100
AcDbEntity
  8
GAIKEI
  6
Continuous
 62
     1
370
    13
100
AcDbCircle
 10
26.07550224463509
 20
16.18216458582574
 30
0.0
 40
0.900012875
100
AcDbArc
 50
62.7222759999997
 51
88.99982399999908
  0
LINE
  5
AA
330
2
100
AcDbEntity
  8
GAIKEI
  6
Continuous
 62
     1
 48
0.4071920000000001
370
    13
100
AcDbLine
 10
26.48797411963509
 20
16.98209133582574
 30
0.0
 11
24.45201286963508
 21
16.98209133582574
 31
0.0
  0
ARC
  5
AB
330
2
100
AcDbEntity
  8
GAIKEI
  6
Continuous
 62
     1
370
    13
100
AcDbCircle
 10
26.15016349463508
 20
16.08271358582576
 30
0.0
 40
0.9606905000000001
100
AcDbArc
 50
57.22633000000153
 51
69.4134640000007
  0
POLYLINE
  5
AC
330
2
100
AcDbEntity
  8
GAIKEI
  6
Continuous
 62
     1
370
    13
100
AcDb2dPolyline
 66
     1
 10
0.0
 20
0.0
 30
0.0
  0
VERTEX
  5
AD
330
AC
100
AcDbEntity
  8
GAIKEI
  6
Continuous
 62
     1
370
     0
100
AcDbVertex
100
AcDb2dVertex
 10
26.57139774463508
 20
16.42362733582578
 30
0.0
  0
VERTEX
  5
AE
330
AC
100
AcDbEntity
  8
GAIKEI
  6
Continuous
 62
     1
370
     0
100
AcDbVertex
100
AcDb2dVertex
 10
26.65635099463509
 20
16.42411946082578
 30
0.0
  0
VERTEX
  5
AF
330
AC
100
AcDbEntity
  8
GAIKEI
  6
Continuous
 62
     1
370
     0
100
AcDbVertex
100
AcDb2dVertex
 10
26.72376049463509
 20
16.42890683582576
 30
0.0
  0
VERTEX
  5
B0
330
AC
100
AcDbEntity
  8
GAIKEI
  6
Continuous
 62
     1
370
     0
100
AcDbVertex
100
AcDb2dVertex
 10
26.77225674463509
 20
16.43665458582578
 30
0.0
  0
VERTEX
  5
B1
330
AC
100
AcDbEntity
  8
GAIKEI
  6
Continuous
 62
     1
370
     0
100
AcDbVertex
100
AcDb2dVertex
 10
26.81222711963509
 20
16.44765233582578
 30
0.0
  0
VERTEX
  5
B2
330
AC
100
AcDbEntity
  8
GAIKEI
  6
Continuous
 62
     1
370
     0
100
AcDbVertex
100
AcDb2dVertex
 10
26.84465211963509
 20
16.46180483582574
 30
0.0
  0
VERTEX
  5
B3
330
AC
100
AcDbEntity
  8
GAIKEI
  6
Continuous
 62
     1
370
     0
100
AcDbVertex
100
AcDb2dVertex
 10
26.87145799463508
 20
16.48004671082574
 30
0.0
  0
VERTEX
  5
B4
330
AC
100
AcDbEntity
  8
GAIKEI
  6
Continuous
 62
     1
370
     0
100
AcDbVertex
100
AcDb2dVertex
 10
26.89123711963509
 20
16.50156158582578
 30
0.0
  0
VERTEX
  5
B5
330
AC
100
AcDbEntity
  8
GAIKEI
  6
Continuous
 62
     1
370
     0
100
AcDbVertex
100
AcDb2dVertex
 10
26.90435211963509
 20
16.52620458582575
 30
0.0
  0
VERTEX
  5
B6
330
AC
100
AcDbEntity
  8
GAIKEI
  6
Continuous
 62
     1
370
     0
100
AcDbVertex
100
AcDb2dVertex
 10
26.91102786963509
 20
16.55382296082578
 30
0.0
  0
VERTEX
  5
B7
330
AC
100
AcDbEntity
  8
GAIKEI
  6
Continuous
 62
     1
370
     0
100
AcDbVertex
100
AcDb2dVertex
 10
26.91199674463508
 20
16.57121033582578
 30
0.0
  0
VERTEX
  5
B8
330
AC
100
AcDbEntity
  8
GAIKEI
  6
Continuous
 62
     1
370
     0
100
AcDbVertex
100
AcDb2dVertex
 10
26.91081799463508
 20
16.58949796082575
 30
0.0
  0
VERTEX
  5
B9
330
AC
100
AcDbEntity
  8
GAIKEI
  6
Continuous
 62
     1
370
     0
100
AcDbVertex
100
AcDb2dVertex
 10
26.90730461963509
 20
16.60942596082574
 30
0.0
  0
VERTEX
  5
BA
330
AC
100
AcDbEntity
  8
GAIKEI
  6
Continuous
 62
     1
370
     0
100
AcDbVertex
100
AcDb2dVertex
 10
26.90144911963509
 20
16.63023133582575
 30
0.0
  0
VERTEX
  5
BB
330
AC
100
AcDbEntity
  8
GAIKEI
  6
Continuous
 62
     1
370
     0
100
AcDbVertex
100
AcDb2dVertex
 10
26.88300124463508
 20
16.67336033582578
 30
0.0
  0
VERTEX
  5
BC
330
AC
100
AcDbEntity
  8
GAIKEI
  6
Continuous
 62
     1
370
     0
100
AcDbVertex
100
AcDb2dVertex
 10
26.86030761963508
 20
16.71140046082578
 30
0.0
  0
VERTEX
  5
BD
330
AC
100
AcDbEntity
  8
GAIKEI
  6
Continuous
 62
     1
370
     0
100
AcDbVertex
100
AcDb2dVertex
 10
26.83055299463507
 20
16.75103896082575
 30
0.0
  0
VERTEX
  5
BE
330
AC
100
AcDbEntity
  8
GAIKEI
  6
Continuous
 62
     1
370
     0
100
AcDbVertex
100
AcDb2dVertex
 10
26.79323374463507
 20
16.79187533582578
 30
0.0
  0
VERTEX
  5
BF
330
AC
100
AcDbEntity
  8
GAIKEI
  6
Continuous
 62
     1
370
     0
100
AcDbVertex
100
AcDb2dVertex
 10
26.76620286963508
 20
16.81740708582575
 30
0.0
  0
VERTEX
  5
C0
330
AC
100
AcDbEntity
  8
GAIKEI
  6
Continuous
 62
     1
370
     0
100
AcDbVertex
100
AcDb2dVertex
 10
26.73566999463509
 20
16.84323646082575
 30
0.0
  0
VERTEX
  5
C1
330
AC
100
AcDbEntity
  8
GAIKEI
  6
Continuous
 62
     1
370
     0
100
AcDbVertex
100
AcDb2dVertex
 10
26.70477099463508
 20
16.86673871082578
 30
0.0
  0
VERTEX
  5
C2
330
AC
100
AcDbEntity
  8
GAIKEI
  6
Continuous
 62
     1
370
     0
100
AcDbVertex
100
AcDb2dVertex
 10
26.67018311963508
 20
16.89043946082577
 30
0.0
  0
SEQEND
  5
C3
330
AC
100
AcDbEntity
  8
GAIKEI
  6
Continuous
 62
     1
370
     0
  0
LINE
  5
C4
330
2
100
AcDbEntity
  8
GAIKEI
  6
Continuous
 62
     1
 48
0.095883
370
    40
100
AcDbLine
 10
26.57139774463508
 20
16.42362733582578
 30
0.0
 11
26.09205811963509
 21
16.43199683582574
 31
0.0
  0
LINE
  5
C5
330
2
100
AcDbEntity
  8
GAIKEI
  6
Continuous
 62
     1
 48
0.328058
370
    40
100
AcDbLine
 10
26.09205811963509
 20
16.43199683582574
 30
0.0
 11
24.45201674463509
 21
16.46062221082579
 31
0.0
  0
ELLIPSE
  5
C6
330
2
100
AcDbEntity
  8
GAIKEI
  6
Continuous
 62
     1
370
    13
100
AcDbEllipse
 10
26.08856761963509
 20
16.23202658582576
 30
0.0
 11
0.0034904479980469
 21
0.1999702453613282
 31
0.0
210
0.0
220
0.0
230
1.0
 40
0.01745
 41
4.768117220202233
 42
6.283185307150296
  0
LINE
  5
C7
330
2
100
AcDbEntity
  8
GAIKEI
  6
Continuous
 62
     1
 48
0.328096
370
    13
100
AcDbLine
 10
26.09224886963509
 20
16.24310246082578
 30
0.0
 11
24.45201674463509
 21
16.27173371082577
 31
0.0
  0
ELLIPSE
  5
C8
330
2
100
AcDbEntity
  8
GAIKEI
  6
Continuous
 62
     1
370
    13
100
AcDbEllipse
 10
26.0720156196351
 20
16.18217796082578
 30
0.0
 11
0.0191993713378906
 21
1.099834442138672
 31
0.0
210
0.0
220
0.0
230
1.0
 40
0.01745
 41
4.712693566879889
 42
4.768117220202983
  0
LINE
  5
C9
330
2
100
AcDbEntity
  8
GAIKEI
  6
Continuous
 62
     1
 48
0.32789
370
    13
100
AcDbLine
 10
26.09121499463508
 20
16.18217796082578
 30
0.0
 11
24.45201674463509
 21
16.21079008582578
 31
0.0
  0
LINE
  5
CA
330
2
100
AcDbEntity
  8
GAIKEI
  6
Continuous
 62
     1
 48
0.20004
370
    13
100
AcDbLine
 10
26.09121499463508
 20
16.18217796082578
 30
0.0
 11
26.09121499463508
 21
15.18197958582575
 31
0.0
  0
LINE
  5
CB
330
2
100
AcDbEntity
  8
GAIKEI
  6
Continuous
 62
     1
 48
0.329848
370
    13
100
AcDbLine
 10
26.09121499463508
 20
15.18197958582575
 30
0.0
 11
24.44222824463509
 21
15.21076346082574
 31
0.0
  0
ELLIPSE
  5
CC
330
2
100
AcDbEntity
  8
GAIKEI
  6
Continuous
 62
     1
370
    13
100
AcDbEllipse
 10
26.09470549463509
 20
15.18197958582575
 30
0.0
 11
0.0034904479980469
 21
0.1999702453613282
 31
0.0
210
0.0
220
0.0
230
1.0
 40
0.01745
 41
1.571100913290058
 42
3.141592653603248
  0
LINE
  5
CD
330
2
100
AcDbEntity
  8
GAIKEI
  6
Continuous
 62
     1
 48
0.128468
370
    40
100
AcDbLine
 10
26.53694711963507
 20
14.97422933582575
 30
0.0
 11
25.89470474463508
 21
14.98544071082577
 31
0.0
  0
LINE
  5
CE
330
2
100
AcDbEntity
  8
GAIKEI
  6
Continuous
 62
     1
 48
0.297734
370
    40
100
AcDbLine
 10
25.89470474463508
 20
14.98544071082577
 30
0.0
 11
24.40625949463509
 21
15.01142071082577
 31
0.0
  0
ELLIPSE
  5
CF
330
2
100
AcDbEntity
  8
GAIKEI
  6
Continuous
 62
     1
370
    13
100
AcDbEllipse
 10
25.8894671196351
 20
14.68548533582574
 30
0.0
 11
0.0052375793457031
 21
0.2999534606933594
 31
0.0
210
0.0
220
0.0
230
1.0
 40
0.01745
 41
4.712693566884792
 42
6.283185307174652
  0
LINE
  5
D0
330
2
100
AcDbEntity
  8
GAIKEI
  6
Continuous
 62
     1
 48
0.255485
370
    13
100
AcDbLine
 10
27.1720141196351
 20
14.66833446082577
 30
0.0
 11
25.89470474463508
 21
14.68548533582574
 31
0.0
  0
LINE
  5
D1
330
2
100
AcDbEntity
  8
GAIKEI
  6
Continuous
 48
0.302769
370
    40
100
AcDbLine
 10
27.1720141196351
 20
16.18217796082578
 30
0.0
 11
27.1720141196351
 21
14.66833446082577
 31
0.0
  0
LINE
  5
D2
330
2
100
AcDbEntity
  8
GAIKEI
  6
Continuous
 48
0.255362
370
    40
100
AcDbLine
 10
27.1720141196351
 20
14.66833446082577
 30
0.0
 11
27.1720141196351
 21
13.39152283582578
 31
0.0
  0
LINE
  5
D3
330
2
100
AcDbEntity
  8
GAIKEI
  6
Continuous
 48
0.069346
370
    40
100
AcDbLine
 10
24.17201411963509
 20
12.53209258582578
 30
0.0
 11
24.17201411963509
 21
12.18536133582577
 31
0.0
  0
LINE
  5
D4
330
2
100
AcDbEntity
  8
GAIKEI
  6
Continuous
 48
0.008907
370
    40
100
AcDbLine
 10
24.17201411963509
 20
12.53209258582578
 30
0.0
 11
24.17201411963509
 21
12.57662533582575
 31
0.0
  0
LINE
  5
D5
330
2
100
AcDbEntity
  8
GAIKEI
  6
Continuous
 62
     1
 48
0.261365
370
    13
100
AcDbLine
 10
25.89470474463508
 20
14.68548533582574
 30
0.0
 11
25.89470474463508
 21
13.37865971082576
 31
0.0
  0
LINE
  5
D6
330
2
100
AcDbEntity
  8
GAIKEI
  6
Continuous
 62
     1
 48
0.300922
370
    13
100
AcDbLine
 10
25.89470474463508
 20
14.68548533582574
 30
0.0
 11
24.39032161963508
 21
14.71174383582578
 31
0.0
  0
LINE
  5
D7
330
2
100
AcDbEntity
  8
GAIKEI
  6
Continuous
 48
0.08
370
    40
100
AcDbLine
 10
25.87201486963508
 20
10.78209058582578
 30
0.0
 11
25.47201336963508
 21
10.78209058582578
 31
0.0
  0
LINE
  5
D8
330
2
100
AcDbEntity
  8
GAIKEI
  6
Continuous
 62
     1
 48
0.16
370
    13
100
AcDbLine
 10
25.47201336963508
 20
11.58209171082578
 30
0.0
 11
25.47201336963508
 21
10.78209058582578
 31
0.0
  0
LINE
  5
D9
330
2
100
AcDbEntity
  8
GAIKEI
  6
Continuous
 48
0.117557
370
    40
100
AcDbLine
 10
25.47201336963508
 20
10.78209058582578
 30
0.0
 11
24.8842296196351
 21
10.78209058582578
 31
0.0
  0
LINE
  5
DA
330
2
100
AcDbEntity
  8
GAIKEI
  6
Continuous
 48
0.082443
370
    40
100
AcDbLine
 10
24.8842296196351
 20
10.78209058582578
 30
0.0
 11
24.47201336963508
 21
10.78209058582578
 31
0.0
  0
LINE
  5
DB
330
2
100
AcDbEntity
  8
GAIKEI
  6
Continuous
 48
0.2
370
    40
100
AcDbLine
 10
26.87201486963508
 20
10.78209058582578
 30
0.0
 11
25.87201486963508
 21
10.78209058582578
 31
0.0
  0
LINE
  5
DC
330
2
100
AcDbEntity
  8
GAIKEI
  6
Continuous
 62
     1
 48
0.16
370
    13
100
AcDbLine
 10
25.87201486963508
 20
11.58209171082578
 30
0.0
 11
25.87201486963508
 21
10.78209058582578
 31
0.0
  0
LINE
  5
DD
330
2
100
AcDbEntity
  8
GAIKEI
  6
Continuous
 62
     1
 48
0.255475
370
    13
100
AcDbLine
 10
27.1720141196351
 20
13.39152283582578
 30
0.0
 11
25.89470474463508
 21
13.37865971082576
 31
0.0
  0
ARC
  5
DE
330
2
100
AcDbEntity
  8
GAIKEI
  6
Continuous
370
    40
100
AcDbCircle
 10
26.62201486963508
 20
13.39152283582578
 30
0.0
 40
0.5500001250000001
100
AcDbArc
 50
335.3800110000005
 51
0.0
  0
LINE
  5
DF
330
2
100
AcDbEntity
  8
GAIKEI
  6
Continuous
 62
     1
 48
0.033909
370
    40
100
AcDbLine
 10
24.44531811963509
 20
12.80344533582578
 30
0.0
 11
24.27579674463507
 21
12.80048508582578
 31
0.0
  0
LINE
  5
E0
330
2
100
AcDbEntity
  8
GAIKEI
  6
Continuous
 62
     1
 48
0.223361
370
    13
100
AcDbLine
 10
25.49395174463509
 20
13.37166546082577
 30
0.0
 11
24.37731736963508
 21
13.35217421082578
 31
0.0
  0
ELLIPSE
  5
E1
330
2
100
AcDbEntity
  8
GAIKEI
  6
Continuous
 62
     1
370
    13
100
AcDbEllipse
 10
25.88510311963509
 20
13.37865971082576
 30
0.0
 11
0.0095977783203125
 21
-0.5499153137207032
 31
0.0
210
0.0
220
0.0
230
1.0
 40
0.01745
 41
1.565112507657689
 42
1.570491740303233
  0
LINE
  5
E2
330
2
100
AcDbEntity
  8
GAIKEI
  6
Continuous
 62
     1
 48
0.080163
370
    13
100
AcDbLine
 10
25.89470474463508
 20
13.37865971082576
 30
0.0
 11
25.49395174463509
 21
13.37166546082577
 31
0.0
  0
LINE
  5
E3
330
2
100
AcDbEntity
  8
GAIKEI
  6
Continuous
 62
     1
 48
0.08
370
    40
100
AcDbLine
 10
25.87201486963508
 20
11.58209171082578
 30
0.0
 11
25.47201336963508
 21
11.58209171082578
 31
0.0
  0
LINE
  5
E4
330
2
100
AcDbEntity
  8
GAIKEI
  6
Continuous
 62
     1
 48
0.18
370
    13
100
AcDbLine
 10
25.47201336963508
 20
12.48209133582574
 30
0.0
 11
25.47201336963508
 21
11.58209171082578
 31
0.0
  0
LINE
  5
E5
330
2
100
AcDbEntity
  8
GAIKEI
  6
Continuous
 62
     1
 48
0.129312
370
    40
100
AcDbLine
 10
25.47201336963508
 20
11.58209171082578
 30
0.0
 11
24.37201486963508
 21
11.58209171082578
 31
0.0
  0
LINE
  5
E6
330
2
100
AcDbEntity
  8
GAIKEI
  6
Continuous
 62
     1
 48
0.22
370
    40
100
AcDbLine
 10
26.97201336963508
 20
11.58209171082578
 30
0.0
 11
25.87201486963508
 21
11.58209171082578
 31
0.0
  0
LINE
  5
E7
330
2
100
AcDbEntity
  8
GAIKEI
  6
Continuous
 62
     1
 48
0.18
370
    13
100
AcDbLine
 10
25.87201486963508
 20
12.48209133582574
 30
0.0
 11
25.87201486963508
 21
11.58209171082578
 31
0.0
  0
LINE
  5
E8
330
2
100
AcDbEntity
  8
GAIKEI
  6
Continuous
 62
     1
 48
0.000185
370
    13
100
AcDbLine
 10
25.89383111963508
 20
13.37574908582573
 30
0.0
 11
25.89475436963508
 21
13.37574908582573
 31
0.0
  0
POLYLINE
  5
E9
330
2
100
AcDbEntity
  8
GAIKEI
  6
Continuous
 62
     1
370
    40
100
AcDb2dPolyline
 66
     1
 10
0.0
 20
0.0
 30
0.0
  0
VERTEX
  5
EA
330
E9
100
AcDbEntity
  8
GAIKEI
  6
Continuous
 62
     1
370
     0
100
AcDbVertex
100
AcDb2dVertex
 10
25.89475436963508
 20
13.37569946082576
 30
0.0
  0
VERTEX
  5
EB
330
E9
100
AcDbEntity
  8
GAIKEI
  6
Continuous
 62
     1
370
     0
100
AcDbVertex
100
AcDb2dVertex
 10
26.33806786963508
 20
13.32143921082578
 30
0.0
  0
VERTEX
  5
EC
330
E9
100
AcDbEntity
  8
GAIKEI
  6
Continuous
 62
     1
370
     0
100
AcDbVertex
100
AcDb2dVertex
 10
26.54558749463509
 20
13.29413558582578
 30
0.0
  0
VERTEX
  5
ED
330
E9
100
AcDbEntity
  8
GAIKEI
  6
Continuous
 62
     1
370
     0
100
AcDbVertex
100
AcDb2dVertex
 10
26.77216524463509
 20
13.26084471082575
 30
0.0
  0
VERTEX
  5
EE
330
E9
100
AcDbEntity
  8
GAIKEI
  6
Continuous
 62
     1
370
     0
100
AcDbVertex
100
AcDb2dVertex
 10
26.8957728696351
 20
13.23958921082575
 30
0.0
  0
VERTEX
  5
EF
330
E9
100
AcDbEntity
  8
GAIKEI
  6
Continuous
 62
     1
370
     0
100
AcDbVertex
100
AcDb2dVertex
 10
26.97282586963507
 20
13.22404621082577
 30
0.0
  0
VERTEX
  5
F0
330
E9
100
AcDbEntity
  8
GAIKEI
  6
Continuous
 62
     1
370
     0
100
AcDbVertex
100
AcDb2dVertex
 10
27.03584086963508
 20
13.20867108582578
 30
0.0
  0
VERTEX
  5
F1
330
E9
100
AcDbEntity
  8
GAIKEI
  6
Continuous
 62
     1
370
     0
100
AcDbVertex
100
AcDb2dVertex
 10
27.08277311963508
 20
13.19358583582576
 30
0.0
  0
VERTEX
  5
F2
330
E9
100
AcDbEntity
  8
GAIKEI
  6
Continuous
 62
     1
370
     0
100
AcDbVertex
100
AcDb2dVertex
 10
27.09964174463508
 20
13.18619871082578
 30
0.0
  0
VERTEX
  5
F3
330
E9
100
AcDbEntity
  8
GAIKEI
  6
Continuous
 62
     1
370
     0
100
AcDbVertex
100
AcDb2dVertex
 10
27.11187924463508
 20
13.17894121082574
 30
0.0
  0
VERTEX
  5
F4
330
E9
100
AcDbEntity
  8
GAIKEI
  6
Continuous
 62
     1
370
     0
100
AcDbVertex
100
AcDb2dVertex
 10
27.11935986963509
 20
13.17183246082575
 30
0.0
  0
VERTEX
  5
F5
330
E9
100
AcDbEntity
  8
GAIKEI
  6
Continuous
 62
     1
370
     0
100
AcDbVertex
100
AcDb2dVertex
 10
27.12201486963508
 20
13.16457121082575
 30
0.0
  0
SEQEND
  5
F6
330
E9
100
AcDbEntity
  8
GAIKEI
  6
Continuous
 62
     1
370
     0
  0
POLYLINE
  5
F7
330
2
100
AcDbEntity
  8
GAIKEI
  6
Continuous
 62
     1
370
    40
100
AcDb2dPolyline
 66
     1
 10
0.0
 20
0.0
 30
0.0
  0
VERTEX
  5
F8
330
F7
100
AcDbEntity
  8
GAIKEI
  6
Continuous
 62
     1
370
     0
100
AcDbVertex
100
AcDb2dVertex
 10
25.45007886963509
 20
13.34188221082579
 30
0.0
  0
VERTEX
  5
F9
330
F7
100
AcDbEntity
  8
GAIKEI
  6
Continuous
 62
     1
370
     0
100
AcDbVertex
100
AcDb2dVertex
 10
25.32574261963508
 20
13.25784633582574
 30
0.0
  0
VERTEX
  5
FA
330
F7
100
AcDbEntity
  8
GAIKEI
  6
Continuous
 62
     1
370
     0
100
AcDbVertex
100
AcDb2dVertex
 10
25.15647311963508
 20
13.14567896082573
 30
0.0
  0
VERTEX
  5
FB
330
F7
100
AcDbEntity
  8
GAIKEI
  6
Continuous
 62
     1
370
     0
100
AcDbVertex
100
AcDb2dVertex
 10
25.07208811963508
 20
13.09136908582579
 30
0.0
  0
VERTEX
  5
FC
330
F7
100
AcDbEntity
  8
GAIKEI
  6
Continuous
 62
     1
370
     0
100
AcDbVertex
100
AcDb2dVertex
 10
24.94621836963509
 20
13.01345583582574
 30
0.0
  0
VERTEX
  5
FD
330
F7
100
AcDbEntity
  8
GAIKEI
  6
Continuous
 62
     1
370
     0
100
AcDbVertex
100
AcDb2dVertex
 10
24.86319149463509
 20
12.96486808582577
 30
0.0
  0
VERTEX
  5
FE
330
F7
100
AcDbEntity
  8
GAIKEI
  6
Continuous
 62
     1
370
     0
100
AcDbVertex
100
AcDb2dVertex
 10
24.78101911963509
 20
12.91982596082576
 30
0.0
  0
VERTEX
  5
FF
330
F7
100
AcDbEntity
  8
GAIKEI
  6
Continuous
 62
     1
370
     0
100
AcDbVertex
100
AcDb2dVertex
 10
24.7097911196351
 20
12.88404408582576
 30
0.0
  0
VERTEX
  5
100
330
F7
100
AcDbEntity
  8
GAIKEI
  6
Continuous
 62
     1
370
     0
100
AcDbVertex
100
AcDb2dVertex
 10
24.63985236963508
 20
12.85287996082579
 30
0.0
  0
VERTEX
  5
101
330
F7
100
AcDbEntity
  8
GAIKEI
  6
Continuous
 62
     1
370
     0
100
AcDbVertex
100
AcDb2dVertex
 10
24.57187836963509
 20
12.82776583582577
 30
0.0
  0
VERTEX
  5
102
330
F7
100
AcDbEntity
  8
GAIKEI
  6
Continuous
 62
     1
370
     0
100
AcDbVertex
100
AcDb2dVertex
 10
24.53882011963509
 20
12.81800596082578
 30
0.0
  0
VERTEX
  5
103
330
F7
100
AcDbEntity
  8
GAIKEI
  6
Continuous
 62
     1
370
     0
100
AcDbVertex
100
AcDb2dVertex
 10
24.5065783696351
 20
12.81048533582574
 30
0.0
  0
VERTEX
  5
104
330
F7
100
AcDbEntity
  8
GAIKEI
  6
Continuous
 62
     1
370
     0
100
AcDbVertex
100
AcDb2dVertex
 10
24.47534361963509
 20
12.80551858582575
 30
0.0
  0
VERTEX
  5
105
330
F7
100
AcDbEntity
  8
GAIKEI
  6
Continuous
 62
     1
370
     0
100
AcDbVertex
100
AcDb2dVertex
 10
24.44531811963509
 20
12.80344533582578
 30
0.0
  0
SEQEND
  5
106
330
F7
100
AcDbEntity
  8
GAIKEI
  6
Continuous
 62
     1
370
     0
  0
LINE
  5
107
330
2
100
AcDbEntity
  8
GAIKEI
  6
Continuous
 62
     1
 48
0.010605
370
    40
100
AcDbLine
 10
25.49395174463509
 20
13.37166546082577
 30
0.0
 11
25.45007886963509
 21
13.34188221082579
 31
0.0
  0
LINE
  5
108
330
2
100
AcDbEntity
  8
GAIKEI
  6
Continuous
 62
     1
 48
0.000571
370
    13
100
AcDbLine
 10
25.49395174463509
 20
13.36881008582574
 30
0.0
 11
25.49395174463509
 21
13.37166546082577
 31
0.0
  0
LINE
  5
109
330
2
100
AcDbEntity
  8
GAIKEI
  6
Continuous
 62
     1
 48
0.079988
370
    13
100
AcDbLine
 10
25.49395174463509
 20
13.36881008582574
 30
0.0
 11
25.89383111963508
 21
13.37574908582573
 31
0.0
  0
LINE
  5
10A
330
2
100
AcDbEntity
  8
GAIKEI
  6
Continuous
 62
     1
 48
0.178732
370
    13
100
AcDbLine
 10
25.89383111963508
 20
12.48209133582574
 30
0.0
 11
25.89383111963508
 21
13.37574908582573
 31
0.0
  0
LINE
  5
10B
330
2
100
AcDbEntity
  8
GAIKEI
  6
Continuous
 62
     1
 48
0.177344
370
    13
100
AcDbLine
 10
25.49395174463509
 20
12.48209133582574
 30
0.0
 11
25.49395174463509
 21
13.36881008582574
 31
0.0
  0
LINE
  5
10C
330
2
100
AcDbEntity
  8
GAIKEI
  6
Continuous
 62
     1
 48
0.245637
370
    40
100
AcDbLine
 10
27.12201486963508
 20
12.48209133582574
 30
0.0
 11
25.89383111963508
 21
12.48209133582574
 31
0.0
  0
LINE
  5
10D
330
2
100
AcDbEntity
  8
GAIKEI
  6
Continuous
 62
     1
 48
0.247009
370
    40
100
AcDbLine
 10
25.45007886963509
 20
12.48209133582574
 30
0.0
 11
24.21503249463508
 21
12.48209133582574
 31
0.0
  0
LINE
  5
10E
330
2
100
AcDbEntity
  8
GAIKEI
  6
Continuous
 62
     1
 48
0.008775
370
    40
100
AcDbLine
 10
25.49395174463509
 20
12.48209133582574
 30
0.0
 11
25.45007886963509
 21
12.48209133582574
 31
0.0
  0
LINE
  5
10F
330
2
100
AcDbEntity
  8
GAIKEI
  6
Continuous
 62
     1
 48
0.079976
370
    40
100
AcDbLine
 10
25.89383111963508
 20
12.48209133582574
 30
0.0
 11
25.49395174463509
 21
12.48209133582574
 31
0.0
  0
LINE
  5
110
330
2
100
AcDbEntity
  8
GAIKEI
  6
Continuous
 48
0.000524
370
    40
100
AcDbLine
 10
24.61972224463508
 20
18.75438446082577
 30
0.0
 11
24.6215762446351
 21
18.75253433582574
 31
0.0
  0
LINE
  5
111
330
2
100
AcDbEntity
  8
GAIKEI
  6
Continuous
 48
0.000524
370
    40
100
AcDbLine
 10
24.61972224463508
 20
21.34980146082577
 30
0.0
 11
24.6215762446351
 21
21.35165158582575
 31
0.0
  0
LINE
  5
112
330
2
100
AcDbEntity
  8
GAIKEI
  6
Continuous
 48
0.033543
370
    40
100
AcDbLine
 10
24.61972224463508
 20
21.34980146082577
 30
0.0
 11
24.45201286963508
 21
21.34833671082575
 31
0.0
  0
LINE
  5
113
330
2
100
AcDbEntity
  8
GAIKEI
  6
Continuous
 48
0.033543
370
    40
100
AcDbLine
 10
24.61972224463508
 20
18.75438446082577
 30
0.0
 11
24.45201286963508
 21
18.75584933582578
 31
0.0
  0
LINE
  5
114
330
2
100
AcDbEntity
  8
GAIKEI
  6
Continuous
 48
0.000367
370
    40
100
AcDbLine
 10
24.6215762446351
 20
18.75436921082578
 30
0.0
 11
24.6215762446351
 21
18.75253433582574
 31
0.0
  0
LINE
  5
115
330
2
100
AcDbEntity
  8
GAIKEI
  6
Continuous
 48
0.033914
370
    40
100
AcDbLine
 10
24.6215762446351
 20
18.75436921082578
 30
0.0
 11
24.45201286963508
 21
18.75584933582578
 31
0.0
  0
LINE
  5
116
330
2
100
AcDbEntity
  8
GAIKEI
  6
Continuous
 48
0.033914
370
    40
100
AcDbLine
 10
24.6215762446351
 20
21.34981671082576
 30
0.0
 11
24.45201286963508
 21
21.34833671082575
 31
0.0
  0
LINE
  5
117
330
2
100
AcDbEntity
  8
GAIKEI
  6
Continuous
 48
0.000367
370
    40
100
AcDbLine
 10
24.6215762446351
 20
21.35165158582575
 30
0.0
 11
24.6215762446351
 21
21.34981671082576
 31
0.0
  0
LINE
  5
118
330
2
100
AcDbEntity
  8
GAIKEI
  6
Continuous
 48
0.010088
370
    40
100
AcDbLine
 10
24.6215762446351
 20
21.35165158582575
 30
0.0
 11
24.6720141196351
 21
21.35209408582577
 31
0.0
  0
LINE
  5
119
330
2
100
AcDbEntity
  8
GAIKEI
  6
Continuous
 48
0.010088
370
    40
100
AcDbLine
 10
24.6215762446351
 20
18.75253433582574
 30
0.0
 11
24.6720141196351
 21
18.75209183582578
 31
0.0
  0
LINE
  5
11A
330
2
100
AcDbEntity
  8
GAIKEI
  6
Continuous
 62
     1
370
    13
100
AcDbLine
 10
24.6720141196351
 20
21.35209408582577
 30
0.0
 11
24.6720141196351
 21
18.75209183582578
 31
0.0
  0
ARC
  5
11B
330
2
100
AcDbEntity
  8
GAIKEI
  6
Continuous
370
    40
100
AcDbCircle
 10
24.6720141196351
 20
21.25209183582578
 30
0.0
 40
0.1
100
AcDbArc
 50
0.0
 51
90.00000299999769
  0
ARC
  5
11C
330
2
100
AcDbEntity
  8
GAIKEI
  6
Continuous
370
    40
100
AcDbCircle
 10
24.6720141196351
 20
18.85209408582577
 30
0.0
 40
0.1
100
AcDbArc
 50
269.9999969999991
 51
0.0
  0
LINE
  5
11D
330
2
100
AcDbEntity
  8
GAIKEI
  6
Continuous
 48
0.48
370
    40
100
AcDbLine
 10
24.77201636963509
 20
21.25209183582578
 30
0.0
 11
24.77201636963509
 21
18.85209408582577
 31
0.0
  0
LINE
  5
11E
330
2
100
AcDbEntity
  8
GAIKEI
  6
Continuous
 62
     1
 48
0.300414
370
    40
100
AcDbLine
 10
27.02201636963508
 20
23.35209408582577
 30
0.0
 11
25.51994886963508
 21
23.35209408582577
 31
0.0
  0
LINE
  5
11F
330
2
100
AcDbEntity
  8
GAIKEI
  6
Continuous
 48
0.135902
370
    40
100
AcDbLine
 10
25.45059860407386
 20
20.35209408582577
 30
0.0
 11
24.77201636963509
 21
20.35209408582577
 31
0.0
  0
LINE
  5
120
330
2
100
AcDbEntity
  8
GAIKEI
  6
Continuous
 48
0.152157
370
    40
100
AcDbLine
 10
25.53280061963508
 20
19.75209183582578
 30
0.0
 11
24.77201636963509
 21
19.75209183582578
 31
0.0
  0
LINE
  5
121
330
2
100
AcDbEntity
  8
GAIKEI
  6
Continuous
 48
0.008039
370
    40
100
AcDbLine
 10
24.77201636963509
 20
20.35209408582577
 30
0.0
 11
24.77201636963509
 21
20.31189871082577
 31
0.0
  0
LINE
  5
122
330
2
100
AcDbEntity
  8
GAIKEI
  6
Continuous
 48
0.103923
370
    40
100
AcDbLine
 10
24.77201636963509
 20
19.79228346082576
 30
0.0
 11
24.77201636963509
 21
20.31189871082577
 31
0.0
  0
LINE
  5
123
330
2
100
AcDbEntity
  8
GAIKEI
  6
Continuous
 48
0.008038
370
    40
100
AcDbLine
 10
24.77201636963509
 20
19.75209183582578
 30
0.0
 11
24.77201636963509
 21
19.79228346082576
 31
0.0
  0
ARC
  5
124
330
2
100
AcDbEntity
  8
GAIKEI
  6
Continuous
370
    40
100
AcDbCircle
 10
26.89874449463508
 20
19.35209408582577
 30
0.0
 40
0.099999875
100
AcDbArc
 50
269.8497879999978
 51
359.0000539999995
  0
LINE
  5
125
330
2
100
AcDbEntity
  8
GAIKEI
  6
Continuous
 48
0.27039
370
    40
100
AcDbLine
 10
26.99873149463508
 20
19.35034696082576
 30
0.0
 11
27.02232536963509
 21
20.70209258582574
 31
0.0
  0
POLYLINE
  5
126
330
2
100
AcDbEntity
  8
GAIKEI
  6
Continuous
370
    40
100
AcDb2dPolyline
 66
     1
 10
0.0
 20
0.0
 30
0.0
  0
VERTEX
  5
127
330
126
100
AcDbEntity
  8
GAIKEI
  6
Continuous
370
     0
100
AcDbVertex
100
AcDb2dVertex
 10
25.52373299463508
 20
20.05750033582578
 30
0.0
  0
VERTEX
  5
128
330
126
100
AcDbEntity
  8
GAIKEI
  6
Continuous
370
     0
100
AcDbVertex
100
AcDb2dVertex
 10
25.51808349463508
 20
20.12612296082577
 30
0.0
  0
VERTEX
  5
129
330
126
100
AcDbEntity
  8
GAIKEI
  6
Continuous
370
     0
100
AcDbVertex
100
AcDb2dVertex
 10
25.50613961963509
 20
20.19104908582577
 30
0.0
  0
VERTEX
  5
12A
330
126
100
AcDbEntity
  8
GAIKEI
  6
Continuous
370
     0
100
AcDbVertex
100
AcDb2dVertex
 10
25.4900797446351
 20
20.24989458582579
 30
0.0
  0
VERTEX
  5
12B
330
126
100
AcDbEntity
  8
GAIKEI
  6
Continuous
370
     0
100
AcDbVertex
100
AcDb2dVertex
 10
25.46656974463508
 20
20.31603758582574
 30
0.0
  0
VERTEX
  5
12C
330
126
100
AcDbEntity
  8
GAIKEI
  6
Continuous
370
     0
100
AcDbVertex
100
AcDb2dVertex
 10
25.43015474463509
 20
20.39824821082576
 30
0.0
  0
SEQEND
  5
12D
330
126
100
AcDbEntity
  8
GAIKEI
  6
Continuous
370
     0
  0
LINE
  5
12E
330
2
100
AcDbEntity
  8
GAIKEI
  6
Continuous
 48
0.058114
370
    40
100
AcDbLine
 10
25.42677874463509
 20
20.41156908582579
 30
0.0
 11
25.42170511963508
 21
20.70209258582574
 31
0.0
  0
LINE
  5
12F
330
2
100
AcDbEntity
  8
GAIKEI
  6
Continuous
 48
0.141569
370
    40
100
AcDbLine
 10
25.52373299463508
 20
20.05750033582578
 30
0.0
 11
25.54474436963508
 21
19.34996558582574
 31
0.0
  0
POLYLINE
  5
130
330
2
100
AcDbEntity
  8
GAIKEI
  6
Continuous
370
    40
100
AcDb2dPolyline
 66
     1
 10
0.0
 20
0.0
 30
0.0
  0
VERTEX
  5
131
330
130
100
AcDbEntity
  8
GAIKEI
  6
Continuous
370
     0
100
AcDbVertex
100
AcDb2dVertex
 10
25.54474436963508
 20
19.34996558582574
 30
0.0
  0
VERTEX
  5
132
330
130
100
AcDbEntity
  8
GAIKEI
  6
Continuous
370
     0
100
AcDbVertex
100
AcDb2dVertex
 10
25.54876886963509
 20
19.32579183582575
 30
0.0
  0
VERTEX
  5
133
330
130
100
AcDbEntity
  8
GAIKEI
  6
Continuous
370
     0
100
AcDbVertex
100
AcDb2dVertex
 10
25.55883586963509
 20
19.30370846082573
 30
0.0
  0
VERTEX
  5
134
330
130
100
AcDbEntity
  8
GAIKEI
  6
Continuous
370
     0
100
AcDbVertex
100
AcDb2dVertex
 10
25.57378186963509
 20
19.28502408582577
 30
0.0
  0
VERTEX
  5
135
330
130
100
AcDbEntity
  8
GAIKEI
  6
Continuous
370
     0
100
AcDbVertex
100
AcDb2dVertex
 10
25.59225649463508
 20
19.27043296082579
 30
0.0
  0
VERTEX
  5
136
330
130
100
AcDbEntity
  8
GAIKEI
  6
Continuous
370
     0
100
AcDbVertex
100
AcDb2dVertex
 10
25.61303511963509
 20
19.26013321082578
 30
0.0
  0
VERTEX
  5
137
330
130
100
AcDbEntity
  8
GAIKEI
  6
Continuous
370
     0
100
AcDbVertex
100
AcDb2dVertex
 10
25.64074511963509
 20
19.25320196082575
 30
0.0
  0
VERTEX
  5
138
330
130
100
AcDbEntity
  8
GAIKEI
  6
Continuous
370
     0
100
AcDbVertex
100
AcDb2dVertex
 10
25.65769374463509
 20
19.25209183582578
 30
0.0
  0
SEQEND
  5
139
330
130
100
AcDbEntity
  8
GAIKEI
  6
Continuous
370
     0
  0
LINE
  5
13A
330
2
100
AcDbEntity
  8
GAIKEI
  6
Continuous
 48
0.000272
370
    40
100
AcDbLine
 10
26.59611311963508
 20
19.25209183582578
 30
0.0
 11
26.59475511963508
 21
19.25209183582578
 31
0.0
  0
LINE
  5
13B
330
2
100
AcDbEntity
  8
GAIKEI
  6
Continuous
 48
0.177753
370
    40
100
AcDbLine
 10
26.54645724463509
 20
19.25209183582578
 30
0.0
 11
25.65769374463509
 21
19.25209183582578
 31
0.0
  0
LINE
  5
13C
330
2
100
AcDbEntity
  8
GAIKEI
  6
Continuous
 48
0.070457
370
    40
100
AcDbLine
 10
26.89874449463508
 20
19.25209183582578
 30
0.0
 11
26.54645724463509
 21
19.25209183582578
 31
0.0
  0
ARC
  5
13D
330
2
100
AcDbEntity
  8
GAIKEI
  6
Continuous
370
    40
100
AcDbCircle
 10
25.45671649463509
 20
20.41208783582576
 30
0.0
 40
0.029945125
100
AcDbArc
 50
180.9967790000005
 51
208.4274339999993
  0
LINE
  5
13E
330
2
100
AcDbEntity
  8
GAIKEI
  6
Continuous
 48
0.000716
370
    13
100
AcDbLine
 10
25.52374824463508
 20
20.05750033582578
 30
0.0
 11
25.52731124463509
 21
20.05785121082576
 31
0.0
  0
LINE
  5
13F
330
2
100
AcDbEntity
  8
GAIKEI
  6
Continuous
 48
0.0008
370
    13
100
AcDbLine
 10
25.54474436963508
 20
19.34996558582574
 30
0.0
 11
25.54872699463508
 21
19.35034696082576
 31
0.0
  0
LINE
  5
140
330
2
100
AcDbEntity
  8
GAIKEI
  6
Continuous
 48
0.000518
370
    40
100
AcDbLine
 10
25.02828774463509
 20
22.94582121082576
 30
0.0
 11
25.02645674463508
 21
22.94765233582578
 31
0.0
  0
LINE
  5
141
330
2
100
AcDbEntity
  8
GAIKEI
  6
Continuous
 48
0.050896
370
    40
100
AcDbLine
 10
27.41757386963508
 20
22.94765233582578
 30
0.0
 11
27.4220141196351
 21
23.20209258582574
 31
0.0
  0
LINE
  5
142
330
2
100
AcDbEntity
  8
GAIKEI
  6
Continuous
 48
0.050896
370
    40
100
AcDbLine
 10
25.02645674463508
 20
22.94765233582578
 30
0.0
 11
25.02201636963508
 21
23.20209258582574
 31
0.0
  0
ARC
  5
143
330
2
100
AcDbEntity
  8
GAIKEI
  6
Continuous
370
    40
100
AcDbCircle
 10
27.18262661963509
 20
20.94732808582577
 30
0.0
 40
0.2
100
AcDbArc
 50
288.3328669999997
 51
319.0559150000008
  0
ARC
  5
144
330
2
100
AcDbEntity
  8
GAIKEI
  6
Continuous
370
    40
100
AcDbCircle
 10
25.26140399463509
 20
20.94732808582577
 30
0.0
 40
0.2
100
AcDbArc
 50
220.9440829999996
 51
251.6671349999985
  0
LINE
  5
145
330
2
100
AcDbEntity
  8
GAIKEI
  6
Continuous
 48
0.035219
370
    40
100
AcDbLine
 10
27.07837861963509
 20
20.70209258582574
 30
0.0
 11
27.24553474463508
 21
20.75748196082574
 31
0.0
  0
LINE
  5
146
330
2
100
AcDbEntity
  8
GAIKEI
  6
Continuous
 48
0.035219
370
    40
100
AcDbLine
 10
25.36565199463507
 20
20.70209258582574
 30
0.0
 11
25.19849574463508
 21
20.75748196082574
 31
0.0
  0
ARC
  5
147
330
2
100
AcDbEntity
  8
GAIKEI
  6
Continuous
 62
     1
370
    40
100
AcDbCircle
 10
26.22201724463508
 20
21.80209108582577
 30
0.0
 40
0.325
100
AcDbArc
 50
90.00000299999769
 51
96.24484400000122
  0
CIRCLE
  5
148
330
2
100
AcDbEntity
  8
GAIKEI
  6
Continuous
 62
     1
370
    40
100
AcDbCircle
 10
26.22201724463508
 20
21.80209108582577
 30
0.0
 40
0.26
  0
ARC
  5
149
330
2
100
AcDbEntity
  8
GAIKEI
  6
Continuous
 62
     1
370
    40
100
AcDbCircle
 10
26.22201724463508
 20
21.80209108582577
 30
0.0
 40
0.325
100
AcDbArc
 50
276.2448389999984
 51
348.1328890000003
  0
LINE
  5
14A
330
2
100
AcDbEntity
  8
GAIKEI
  6
Continuous
 62
     1
 48
0.024969
370
    40
100
AcDbLine
 10
26.54179949463509
 20
21.86008971082575
 30
0.0
 11
26.54006761963508
 21
21.73525758582579
 31
0.0
  0
ARC
  5
14B
330
2
100
AcDbEntity
  8
GAIKEI
  6
Continuous
 62
     1
370
    40
100
AcDbCircle
 10
26.22201724463508
 20
21.80209108582577
 30
0.0
 40
0.325
100
AcDbArc
 50
10.27992099999983
 51
68.3914490000018
  0
ARC
  5
14C
330
2
100
AcDbEntity
  8
GAIKEI
  6
Continuous
 62
     1
370
    40
100
AcDbCircle
 10
26.22201724463508
 20
21.80209108582577
 30
0.0
 40
0.325
100
AcDbArc
 50
68.39146300000047
 51
90.00002299999971
  0
LINE
  5
14D
330
2
100
AcDbEntity
  8
GAIKEI
  6
Continuous
 48
0.4004570000000001
370
    40
100
AcDbLine
 10
27.41574274463508
 20
22.94581746082574
 30
0.0
 11
27.38074674463508
 21
20.94383758582578
 31
0.0
  0
LINE
  5
14E
330
2
100
AcDbEntity
  8
GAIKEI
  6
Continuous
 48
0.400824
370
    40
100
AcDbLine
 10
27.41577324463509
 20
22.94765233582578
 30
0.0
 11
27.38074674463508
 21
20.94383758582578
 31
0.0
  0
ARC
  5
14F
330
2
100
AcDbEntity
  8
GAIKEI
  6
Continuous
 62
     1
370
    40
100
AcDbCircle
 10
26.22201724463508
 20
21.80209108582577
 30
0.0
 40
0.325
100
AcDbArc
 50
96.24484400000122
 51
131.2933929999997
  0
LINE
  5
150
330
2
100
AcDbEntity
  8
GAIKEI
  6
Continuous
 48
0.400824
370
    40
100
AcDbLine
 10
25.02825724463509
 20
22.94765233582578
 30
0.0
 11
25.06328386963509
 21
20.94383758582578
 31
0.0
  0
LINE
  5
151
330
2
100
AcDbEntity
  8
GAIKEI
  6
Continuous
 48
0.00036
370
    40
100
AcDbLine
 10
25.02645674463508
 20
22.94765233582578
 30
0.0
 11
25.02825724463509
 21
22.94765233582578
 31
0.0
  0
LINE
  5
152
330
2
100
AcDbEntity
  8
GAIKEI
  6
Continuous
 48
0.4004570000000001
370
    40
100
AcDbLine
 10
25.02828774463509
 20
22.94581746082574
 30
0.0
 11
25.06328386963509
 21
20.94383758582578
 31
0.0
  0
ARC
  5
153
330
2
100
AcDbEntity
  8
GAIKEI
  6
Continuous
 62
     1
370
    40
100
AcDbCircle
 10
26.22201724463508
 20
21.80209108582577
 30
0.0
 40
0.325
100
AcDbArc
 50
131.293365999999
 51
169.7202010000006
  0
LINE
  5
154
330
2
100
AcDbEntity
  8
GAIKEI
  6
Continuous
 62
     1
 48
0.024969
370
    40
100
AcDbLine
 10
25.90223111963508
 20
21.86008971082575
 30
0.0
 11
25.9039629946351
 21
21.73525758582579
 31
0.0
  0
ARC
  5
155
330
2
100
AcDbEntity
  8
GAIKEI
  6
Continuous
 62
     1
370
    40
100
AcDbCircle
 10
26.22201724463508
 20
21.80209108582577
 30
0.0
 40
0.325
100
AcDbArc
 50
191.8671889999998
 51
276.2447919999988
  0
ARC
  5
156
330
2
100
AcDbEntity
  8
GAIKEI
  6
Continuous
370
    40
100
AcDbCircle
 10
27.17609199463507
 20
20.94655371082578
 30
0.0
 40
0.20463475
100
AcDbArc
 50
327.5291710000004
 51
359.2405849999995
  0
ARC
  5
157
330
2
100
AcDbEntity
  8
GAIKEI
  6
Continuous
370
    40
100
AcDbCircle
 10
27.17199124463508
 20
20.95062396082576
 30
0.0
 40
0.210242875
100
AcDbArc
 50
320.2853079999982
 51
327.1930069999984
  0
ARC
  5
158
330
2
100
AcDbEntity
  8
GAIKEI
  6
Continuous
370
    40
100
AcDbCircle
 10
27.17609199463507
 20
20.94655371082578
 30
0.0
 40
0.20463475
100
AcDbArc
 50
327.5291710000004
 51
359.2405849999995
  0
ARC
  5
159
330
2
100
AcDbEntity
  8
GAIKEI
  6
Continuous
370
    40
100
AcDbCircle
 10
25.27190199463507
 20
20.95052096082574
 30
0.0
 40
0.210067625
100
AcDbArc
 50
212.8036310000006
 51
219.7247300000003
  0
ARC
  5
15A
330
2
100
AcDbEntity
  8
GAIKEI
  6
Continuous
370
    40
100
AcDbCircle
 10
25.26793849463509
 20
20.94655371082578
 30
0.0
 40
0.20463475
100
AcDbArc
 50
180.7594160000002
 51
212.470824
  0
LINE
  5
15B
330
2
100
AcDbEntity
  8
GAIKEI
  6
Continuous
 48
0.05335
370
    40
100
AcDbLine
 10
26.22201724463508
 20
20.70209258582574
 30
0.0
 11
26.48876749463509
 21
20.70209258582574
 31
0.0
  0
LINE
  5
15C
330
2
100
AcDbEntity
  8
GAIKEI
  6
Continuous
 48
0.117922
370
    40
100
AcDbLine
 10
26.48876749463509
 20
20.70209258582574
 30
0.0
 11
27.07837861963509
 21
20.70209258582574
 31
0.0
  0
LINE
  5
15D
330
2
100
AcDbEntity
  8
GAIKEI
  6
Continuous
 48
0.171273
370
    40
100
AcDbLine
 10
25.36565199463507
 20
20.70209258582574
 30
0.0
 11
26.22201724463508
 21
20.70209258582574
 31
0.0
  0
LINE
  5
15E
330
2
100
AcDbEntity
  8
GAIKEI
  6
Continuous
 48
0.019826
370
    40
100
AcDbLine
 10
27.42028611963508
 20
23.30120608582578
 30
0.0
 11
27.4220141196351
 21
23.20209258582574
 31
0.0
  0
LINE
  5
15F
330
2
100
AcDbEntity
  8
GAIKEI
  6
Continuous
 48
0.019826
370
    40
100
AcDbLine
 10
25.02374449463508
 20
23.30120608582578
 30
0.0
 11
25.02201636963508
 21
23.20209258582574
 31
0.0
  0
LINE
  5
160
330
2
100
AcDbEntity
  8
GAIKEI
  6
Continuous
 48
0.014393
370
    40
100
AcDbLine
 10
27.36939799463508
 20
23.35209408582577
 30
0.0
 11
27.42028611963508
 21
23.30120608582578
 31
0.0
  0
LINE
  5
161
330
2
100
AcDbEntity
  8
GAIKEI
  6
Continuous
 48
0.014393
370
    40
100
AcDbLine
 10
25.07463249463508
 20
23.35209408582577
 30
0.0
 11
25.02374449463508
 21
23.30120608582578
 31
0.0
  0
LINE
  5
162
330
2
100
AcDbEntity
  8
GAIKEI
  6
Continuous
 62
     1
 48
0.24363
370
    40
100
AcDbLine
 10
26.20213499463509
 20
23.30120608582578
 30
0.0
 11
27.42028611963508
 21
23.30120608582578
 31
0.0
  0
LINE
  5
163
330
2
100
AcDbEntity
  8
GAIKEI
  6
Continuous
 62
     1
 48
0.11092
370
    40
100
AcDbLine
 10
26.20213499463509
 20
23.30120608582578
 30
0.0
 11
25.02374449463508
 21
23.30120608582578
 31
0.0
  0
LINE
  5
164
330
2
100
AcDbEntity
  8
GAIKEI
  6
Continuous
 62
     1
 48
0.233284
370
    40
100
AcDbLine
 10
26.20297799463508
 20
23.35209408582577
 30
0.0
 11
27.36939799463508
 21
23.35209408582577
 31
0.0
  0
LINE
  5
165
330
2
100
AcDbEntity
  8
GAIKEI
  6
Continuous
 62
     1
 48
0.10621
370
    40
100
AcDbLine
 10
25.67193024463509
 20
23.35209408582577
 30
0.0
 11
26.20297799463508
 21
23.35209408582577
 31
0.0
  0
LINE
  5
166
330
2
100
AcDbEntity
  8
GAIKEI
  6
Continuous
 48
0.11946
370
    40
100
AcDbLine
 10
25.07463249463508
 20
23.35209408582577
 30
0.0
 11
25.67193024463509
 21
23.35209408582577
 31
0.0
  0
LINE
  5
167
330
2
100
AcDbEntity
  8
GAIKEI
  6
Continuous
 48
0.000736
370
    40
100
AcDbLine
 10
27.59634199463508
 20
30.25209183582578
 30
0.0
 11
27.60002311963508
 21
30.25209183582578
 31
0.0
  0
LINE
  5
168
330
2
100
AcDbEntity
  8
GAIKEI
  6
Continuous
 48
0.000056
370
    40
100
AcDbLine
 10
25.17229261963507
 20
30.25209571082579
 30
0.0
 11
25.17201411963509
 21
30.25209183582578
 31
0.0
  0
LINE
  5
169
330
2
100
AcDbEntity
  8
GAIKEI
  6
Continuous
 48
0.000685
370
    40
100
AcDbLine
 10
31.4059542446351
 20
30.25195446082577
 30
0.0
 11
31.4093759946351
 21
30.25209183582578
 31
0.0
  0
POLYLINE
  5
16A
330
2
100
AcDbEntity
  8
GAIKEI
  6
Continuous
370
    40
100
AcDb2dPolyline
 66
     1
 10
0.0
 20
0.0
 30
0.0
  0
VERTEX
  5
16B
330
16A
100
AcDbEntity
  8
GAIKEI
  6
Continuous
370
     0
100
AcDbVertex
100
AcDb2dVertex
 10
31.7144983696351
 20
30.20209258582574
 30
0.0
  0
VERTEX
  5
16C
330
16A
100
AcDbEntity
  8
GAIKEI
  6
Continuous
370
     0
100
AcDbVertex
100
AcDb2dVertex
 10
31.71247286963509
 20
30.21618033582579
 30
0.0
  0
VERTEX
  5
16D
330
16A
100
AcDbEntity
  8
GAIKEI
  6
Continuous
370
     0
100
AcDbVertex
100
AcDb2dVertex
 10
31.70655999463509
 20
30.22912733582578
 30
0.0
  0
VERTEX
  5
16E
330
16A
100
AcDbEntity
  8
GAIKEI
  6
Continuous
370
     0
100
AcDbVertex
100
AcDb2dVertex
 10
31.69724074463508
 20
30.23988096082579
 30
0.0
  0
VERTEX
  5
16F
330
16A
100
AcDbEntity
  8
GAIKEI
  6
Continuous
370
     0
100
AcDbVertex
100
AcDb2dVertex
 10
31.68527024463509
 20
30.24757521082577
 30
0.0
  0
VERTEX
  5
170
330
16A
100
AcDbEntity
  8
GAIKEI
  6
Continuous
370
     0
100
AcDbVertex
100
AcDb2dVertex
 10
31.67161361963508
 20
30.25158446082574
 30
0.0
  0
VERTEX
  5
171
330
16A
100
AcDbEntity
  8
GAIKEI
  6
Continuous
370
     0
100
AcDbVertex
100
AcDb2dVertex
 10
31.66343111963508
 20
30.25224821082574
 30
0.0
  0
VERTEX
  5
172
330
16A
100
AcDbEntity
  8
GAIKEI
  6
Continuous
370
     0
100
AcDbVertex
100
AcDb2dVertex
 10
31.64689049463508
 20
30.25209183582578
 30
0.0
  0
SEQEND
  5
173
330
16A
100
AcDbEntity
  8
GAIKEI
  6
Continuous
370
     0
  0
LINE
  5
174
330
2
100
AcDbEntity
  8
GAIKEI
  6
Continuous
 48
0.014924
370
    40
100
AcDbLine
 10
27.34701724463509
 20
23.35209408582577
 30
0.0
 11
27.39978211963509
 21
23.40485896082575
 31
0.0
  0
POLYLINE
  5
175
330
2
100
AcDbEntity
  8
GAIKEI
  6
Continuous
370
    40
100
AcDb2dPolyline
 66
     1
 10
0.0
 20
0.0
 30
0.0
  0
VERTEX
  5
176
330
175
100
AcDbEntity
  8
GAIKEI
  6
Continuous
370
     0
100
AcDbVertex
100
AcDb2dVertex
 10
27.58983799463509
 20
27.17365408582575
 30
0.0
  0
VERTEX
  5
177
330
175
100
AcDbEntity
  8
GAIKEI
  6
Continuous
370
     0
100
AcDbVertex
100
AcDb2dVertex
 10
27.50174511963507
 20
27.04113908582579
 30
0.0
  0
VERTEX
  5
178
330
175
100
AcDbEntity
  8
GAIKEI
  6
Continuous
370
     0
100
AcDbVertex
100
AcDb2dVertex
 10
27.42811761963509
 20
26.91886658582578
 30
0.0
  0
VERTEX
  5
179
330
175
100
AcDbEntity
  8
GAIKEI
  6
Continuous
370
     0
100
AcDbVertex
100
AcDb2dVertex
 10
27.37721049463508
 20
26.82430021082578
 30
0.0
  0
VERTEX
  5
17A
330
175
100
AcDbEntity
  8
GAIKEI
  6
Continuous
370
     0
100
AcDbVertex
100
AcDb2dVertex
 10
27.34378611963509
 20
26.75503683582574
 30
0.0
  0
VERTEX
  5
17B
330
175
100
AcDbEntity
  8
GAIKEI
  6
Continuous
370
     0
100
AcDbVertex
100
AcDb2dVertex
 10
27.32635674463509
 20
26.71558896082578
 30
0.0
  0
VERTEX
  5
17C
330
175
100
AcDbEntity
  8
GAIKEI
  6
Continuous
370
     0
100
AcDbVertex
100
AcDb2dVertex
 10
27.30262561963508
 20
26.65662521082575
 30
0.0
  0
VERTEX
  5
17D
330
175
100
AcDbEntity
  8
GAIKEI
  6
Continuous
370
     0
100
AcDbVertex
100
AcDb2dVertex
 10
27.27825349463508
 20
26.58625171082574
 30
0.0
  0
VERTEX
  5
17E
330
175
100
AcDbEntity
  8
GAIKEI
  6
Continuous
370
     0
100
AcDbVertex
100
AcDb2dVertex
 10
27.26484861963508
 20
26.54097883582577
 30
0.0
  0
VERTEX
  5
17F
330
175
100
AcDbEntity
  8
GAIKEI
  6
Continuous
370
     0
100
AcDbVertex
100
AcDb2dVertex
 10
27.25360674463509
 20
26.49516058582574
 30
0.0
  0
VERTEX
  5
180
330
175
100
AcDbEntity
  8
GAIKEI
  6
Continuous
370
     0
100
AcDbVertex
100
AcDb2dVertex
 10
27.24460024463508
 20
26.44664521082578
 30
0.0
  0
VERTEX
  5
181
330
175
100
AcDbEntity
  8
GAIKEI
  6
Continuous
370
     0
100
AcDbVertex
100
AcDb2dVertex
 10
27.23982036963509
 20
26.41406383582577
 30
0.0
  0
VERTEX
  5
182
330
175
100
AcDbEntity
  8
GAIKEI
  6
Continuous
370
     0
100
AcDbVertex
100
AcDb2dVertex
 10
27.23179811963509
 20
26.34859983582575
 30
0.0
  0
SEQEND
  5
183
330
175
100
AcDbEntity
  8
GAIKEI
  6
Continuous
370
     0
  0
ARC
  5
184
330
2
100
AcDbEntity
  8
GAIKEI
  6
Continuous
370
    40
100
AcDbCircle
 10
27.5485781196351
 20
27.20215358582576
 30
0.0
 40
0.05014425
100
AcDbArc
 50
325.3628539999989
 51
356.9387139999994
  0
ARC
  5
185
330
2
100
AcDbEntity
  8
GAIKEI
  6
Continuous
370
    40
100
AcDbCircle
 10
30.29102886963509
 20
25.27320996082577
 30
0.0
 40
3.302368374999999
100
AcDbArc
 50
146.5542899999999
 51
149.207012000001
  0
ARC
  5
186
330
2
100
AcDbEntity
  8
GAIKEI
  6
Continuous
370
    40
100
AcDbCircle
 10
-350.9699498803649
 20
52.77635333582577
 30
0.0
 40
379.124005125
100
AcDbArc
 50
355.7830899999995
 51
356.0028169999997
  0
ARC
  5
187
330
2
100
AcDbEntity
  8
GAIKEI
  6
Continuous
370
    40
100
AcDbCircle
 10
29.83529461963508
 20
25.72910833582577
 30
0.0
 40
2.92032325
100
AcDbArc
 50
209.5469700000004
 51
214.3779490000012
  0
ARC
  5
188
330
2
100
AcDbEntity
  8
GAIKEI
  6
Continuous
370
    40
100
AcDbCircle
 10
27.38362686963508
 20
24.05208346082574
 30
0.0
 40
0.05000375
100
AcDbArc
 50
357.0007870000004
 51
34.11268999999957
  0
POLYLINE
  5
189
330
2
100
AcDbEntity
  8
GAIKEI
  6
Continuous
370
    40
100
AcDb2dPolyline
 66
     1
 10
0.0
 20
0.0
 30
0.0
  0
VERTEX
  5
18A
330
189
100
AcDbEntity
  8
GAIKEI
  6
Continuous
370
     0
100
AcDbVertex
100
AcDb2dVertex
 10
27.42502774463509
 20
24.08012533582578
 30
0.0
  0
VERTEX
  5
18B
330
189
100
AcDbEntity
  8
GAIKEI
  6
Continuous
370
     0
100
AcDbVertex
100
AcDb2dVertex
 10
27.34828749463509
 20
24.19830083582573
 30
0.0
  0
VERTEX
  5
18C
330
189
100
AcDbEntity
  8
GAIKEI
  6
Continuous
370
     0
100
AcDbVertex
100
AcDb2dVertex
 10
27.28648936963509
 20
24.3040938358258
 30
0.0
  0
VERTEX
  5
18D
330
189
100
AcDbEntity
  8
GAIKEI
  6
Continuous
370
     0
100
AcDbVertex
100
AcDb2dVertex
 10
27.23503299463508
 20
24.40463008582574
 30
0.0
  0
VERTEX
  5
18E
330
189
100
AcDbEntity
  8
GAIKEI
  6
Continuous
370
     0
100
AcDbVertex
100
AcDb2dVertex
 10
27.20076174463509
 20
24.48279708582575
 30
0.0
  0
VERTEX
  5
18F
330
189
100
AcDbEntity
  8
GAIKEI
  6
Continuous
370
     0
100
AcDbVertex
100
AcDb2dVertex
 10
27.18305386963507
 20
24.52927533582576
 30
0.0
  0
VERTEX
  5
190
330
189
100
AcDbEntity
  8
GAIKEI
  6
Continuous
370
     0
100
AcDbVertex
100
AcDb2dVertex
 10
27.16517824463509
 20
24.58331058582579
 30
0.0
  0
VERTEX
  5
191
330
189
100
AcDbEntity
  8
GAIKEI
  6
Continuous
370
     0
100
AcDbVertex
100
AcDb2dVertex
 10
27.1475733696351
 20
24.64935446082578
 30
0.0
  0
VERTEX
  5
192
330
189
100
AcDbEntity
  8
GAIKEI
  6
Continuous
370
     0
100
AcDbVertex
100
AcDb2dVertex
 10
27.13825024463509
 20
24.69433346082573
 30
0.0
  0
VERTEX
  5
193
330
189
100
AcDbEntity
  8
GAIKEI
  6
Continuous
370
     0
100
AcDbVertex
100
AcDb2dVertex
 10
27.13157836963509
 20
24.73971696082575
 30
0.0
  0
VERTEX
  5
194
330
189
100
AcDbEntity
  8
GAIKEI
  6
Continuous
370
     0
100
AcDbVertex
100
AcDb2dVertex
 10
27.12773699463509
 20
24.79240558582578
 30
0.0
  0
VERTEX
  5
195
330
189
100
AcDbEntity
  8
GAIKEI
  6
Continuous
370
     0
100
AcDbVertex
100
AcDb2dVertex
 10
27.12695499463509
 20
24.82768008582579
 30
0.0
  0
VERTEX
  5
196
330
189
100
AcDbEntity
  8
GAIKEI
  6
Continuous
370
     0
100
AcDbVertex
100
AcDb2dVertex
 10
27.12764161963509
 20
24.89840833582579
 30
0.0
  0
SEQEND
  5
197
330
189
100
AcDbEntity
  8
GAIKEI
  6
Continuous
370
     0
  0
ARC
  5
198
330
2
100
AcDbEntity
  8
GAIKEI
  6
Continuous
370
    40
100
AcDbCircle
 10
20.77953524463509
 20
30.20209258582574
 30
0.0
 40
0.05
100
AcDbArc
 50
90.0000089999996
 51
179.9999949999995
  0
ARC
  5
199
330
2
100
AcDbEntity
  8
GAIKEI
  6
Continuous
370
    40
100
AcDbCircle
 10
31.66449536963509
 20
30.20209258582574
 30
0.0
 40
0.050000375
100
AcDbArc
 50
352.0000260000002
 51
359.9999739999993
  0
LINE
  5
19A
330
2
100
AcDbEntity
  8
GAIKEI
  6
Continuous
 48
0.00041
370
    40
100
AcDbLine
 10
22.93694486963508
 20
28.05672208582578
 30
0.0
 11
22.93500324463508
 21
28.05737821082576
 31
0.0
  0
LINE
  5
19B
330
2
100
AcDbEntity
  8
GAIKEI
  6
Continuous
 48
0.095546
370
    40
100
AcDbLine
 10
23.39656249463509
 20
27.92641583582574
 30
0.0
 11
22.93694486963508
 21
28.05672208582578
 31
0.0
  0
LINE
  5
19C
330
2
100
AcDbEntity
  8
GAIKEI
  6
Continuous
 48
0.014925
370
    40
100
AcDbLine
 10
25.09701724463508
 20
23.35209408582577
 30
0.0
 11
25.04424849463509
 21
23.40485896082575
 31
0.0
  0
POLYLINE
  5
19D
330
2
100
AcDbEntity
  8
GAIKEI
  6
Continuous
370
    40
100
AcDb2dPolyline
 66
     1
 10
0.0
 20
0.0
 30
0.0
  0
VERTEX
  5
19E
330
19D
100
AcDbEntity
  8
GAIKEI
  6
Continuous
370
     0
100
AcDbVertex
100
AcDb2dVertex
 10
27.2948359946351
 20
24.28903721082574
 30
0.0
  0
VERTEX
  5
19F
330
19D
100
AcDbEntity
  8
GAIKEI
  6
Continuous
370
     0
100
AcDbVertex
100
AcDb2dVertex
 10
27.24527161963508
 20
24.38332883582578
 30
0.0
  0
VERTEX
  5
1A0
330
19D
100
AcDbEntity
  8
GAIKEI
  6
Continuous
370
     0
100
AcDbVertex
100
AcDb2dVertex
 10
27.20615561963507
 20
24.46963633582575
 30
0.0
  0
VERTEX
  5
1A1
330
19D
100
AcDbEntity
  8
GAIKEI
  6
Continuous
370
     0
100
AcDbVertex
100
AcDb2dVertex
 10
27.17364299463509
 20
24.55658483582576
 30
0.0
  0
VERTEX
  5
1A2
330
19D
100
AcDbEntity
  8
GAIKEI
  6
Continuous
370
     0
100
AcDbVertex
100
AcDb2dVertex
 10
27.15907849463508
 20
24.60424183582578
 30
0.0
  0
SEQEND
  5
1A3
330
19D
100
AcDbEntity
  8
GAIKEI
  6
Continuous
370
     0
  0
ARC
  5
1A4
330
2
100
AcDbEntity
  8
GAIKEI
  6
Continuous
370
    40
100
AcDbCircle
 10
-351.103983005365
 20
52.78557721082575
 30
0.0
 40
379.2583355
100
AcDbArc
 50
355.783189
 51
356.0028389999993
  0
ARC
  5
1A5
330
2
100
AcDbEntity
  8
GAIKEI
  6
Continuous
370
    40
100
AcDbCircle
 10
20.77953524463509
 20
30.20209258582574
 30
0.0
 40
0.050000375
100
AcDbArc
 50
180.0000219999999
 51
187.9999770000003
  0
LINE
  5
1A6
330
2
100
AcDbEntity
  8
GAIKEI
  6
Continuous
 48
0.013376
370
    40
100
AcDbLine
 10
27.59864986963509
 20
27.19947571082574
 30
0.0
 11
27.60214799463509
 21
27.26626346082574
 31
0.0
  0
LINE
  5
1A7
330
2
100
AcDbEntity
  8
GAIKEI
  6
Continuous
 48
0.1291
370
    40
100
AcDbLine
 10
27.39978211963509
 20
23.40485896082575
 30
0.0
 11
27.43356499463508
 21
24.04947421082577
 31
0.0
  0
LINE
  5
1A8
330
2
100
AcDbEntity
  8
GAIKEI
  6
Continuous
 48
0.272549
370
    40
100
AcDbLine
 10
31.52435486963509
 20
28.84565108582578
 30
0.0
 11
31.71401011963508
 21
30.19513458582574
 31
0.0
  0
ARC
  5
1A9
330
2
100
AcDbEntity
  8
GAIKEI
  6
Continuous
370
    40
100
AcDbCircle
 10
23.40199074463509
 20
27.94569158582576
 30
0.0
 40
0.020026375
100
AcDbArc
 50
254.2624770000003
 51
359.9846659999995
  0
ARC
  5
1AA
330
2
100
AcDbEntity
  8
GAIKEI
  6
Continuous
370
    40
100
AcDbCircle
 10
22.94239986963508
 20
28.07596346082576
 30
0.0
 40
0.02
100
AcDbArc
 50
179.9999949999995
 51
248.2937520000004
  0
LINE
  5
1AB
330
2
100
AcDbEntity
  8
GAIKEI
  6
Continuous
370
    40
100
AcDbLine
 10
25.04424849463509
 20
23.40485896082575
 30
0.0
 11
24.84188261963507
 21
27.26626346082574
 31
0.0
  0
LINE
  5
1AC
330
2
100
AcDbEntity
  8
GAIKEI
  6
Continuous
 48
0.272549
370
    40
100
AcDbLine
 10
20.91967574463509
 20
28.84565108582578
 30
0.0
 11
20.73002036963508
 21
30.19513458582574
 31
0.0
  0
POLYLINE
  5
1AD
330
2
100
AcDbEntity
  8
GAIKEI
  6
Continuous
 62
     1
370
    40
100
AcDb2dPolyline
 66
     1
 10
0.0
 20
0.0
 30
0.0
  0
VERTEX
  5
1AE
330
1AD
100
AcDbEntity
  8
GAIKEI
  6
Continuous
 62
     1
370
     0
100
AcDbVertex
100
AcDb2dVertex
 10
28.84519761963509
 20
28.48598621082576
 30
0.0
  0
VERTEX
  5
1AF
330
1AD
100
AcDbEntity
  8
GAIKEI
  6
Continuous
 62
     1
370
     0
100
AcDbVertex
100
AcDb2dVertex
 10
28.80966361963509
 20
28.49769733582579
 30
0.0
  0
VERTEX
  5
1B0
330
1AD
100
AcDbEntity
  8
GAIKEI
  6
Continuous
 62
     1
370
     0
100
AcDbVertex
100
AcDb2dVertex
 10
28.75837124463507
 20
28.50644058582574
 30
0.0
  0
VERTEX
  5
1B1
330
1AD
100
AcDbEntity
  8
GAIKEI
  6
Continuous
 62
     1
370
     0
100
AcDbVertex
100
AcDb2dVertex
 10
28.68797861963509
 20
28.51237246082579
 30
0.0
  0
VERTEX
  5
1B2
330
1AD
100
AcDbEntity
  8
GAIKEI
  6
Continuous
 62
     1
370
     0
100
AcDbVertex
100
AcDb2dVertex
 10
28.58658011963508
 20
28.51410433582575
 30
0.0
  0
VERTEX
  5
1B3
330
1AD
100
AcDbEntity
  8
GAIKEI
  6
Continuous
 62
     1
370
     0
100
AcDbVertex
100
AcDb2dVertex
 10
28.46233924463508
 20
28.50903458582579
 30
0.0
  0
VERTEX
  5
1B4
330
1AD
100
AcDbEntity
  8
GAIKEI
  6
Continuous
 62
     1
370
     0
100
AcDbVertex
100
AcDb2dVertex
 10
28.32646736963508
 20
28.49642321082578
 30
0.0
  0
VERTEX
  5
1B5
330
1AD
100
AcDbEntity
  8
GAIKEI
  6
Continuous
 62
     1
370
     0
100
AcDbVertex
100
AcDb2dVertex
 10
28.19772524463508
 20
28.47808971082574
 30
0.0
  0
VERTEX
  5
1B6
330
1AD
100
AcDbEntity
  8
GAIKEI
  6
Continuous
 62
     1
370
     0
100
AcDbVertex
100
AcDb2dVertex
 10
28.13948999463509
 20
28.46763746082578
 30
0.0
  0
SEQEND
  5
1B7
330
1AD
100
AcDbEntity
  8
GAIKEI
  6
Continuous
 62
     1
370
     0
  0
POLYLINE
  5
1B8
330
2
100
AcDbEntity
  8
GAIKEI
  6
Continuous
 62
     1
370
    40
100
AcDb2dPolyline
 66
     1
 10
0.0
 20
0.0
 30
0.0
  0
VERTEX
  5
1B9
330
1B8
100
AcDbEntity
  8
GAIKEI
  6
Continuous
 62
     1
370
     0
100
AcDbVertex
100
AcDb2dVertex
 10
27.76141536963507
 20
28.33417646082578
 30
0.0
  0
VERTEX
  5
1BA
330
1B8
100
AcDbEntity
  8
GAIKEI
  6
Continuous
 62
     1
370
     0
100
AcDbVertex
100
AcDb2dVertex
 10
27.78854549463509
 20
28.35529083582574
 30
0.0
  0
VERTEX
  5
1BB
330
1B8
100
AcDbEntity
  8
GAIKEI
  6
Continuous
 62
     1
370
     0
100
AcDbVertex
100
AcDb2dVertex
 10
27.82801999463508
 20
28.37643183582574
 30
0.0
  0
VERTEX
  5
1BC
330
1B8
100
AcDbEntity
  8
GAIKEI
  6
Continuous
 62
     1
370
     0
100
AcDbVertex
100
AcDb2dVertex
 10
27.8865641196351
 20
28.40068571082574
 30
0.0
  0
VERTEX
  5
1BD
330
1B8
100
AcDbEntity
  8
GAIKEI
  6
Continuous
 62
     1
370
     0
100
AcDbVertex
100
AcDb2dVertex
 10
27.96768374463508
 20
28.42707958582579
 30
0.0
  0
VERTEX
  5
1BE
330
1B8
100
AcDbEntity
  8
GAIKEI
  6
Continuous
 62
     1
370
     0
100
AcDbVertex
100
AcDb2dVertex
 10
28.07268699463509
 20
28.45378246082575
 30
0.0
  0
VERTEX
  5
1BF
330
1B8
100
AcDbEntity
  8
GAIKEI
  6
Continuous
 62
     1
370
     0
100
AcDbVertex
100
AcDb2dVertex
 10
28.13948999463509
 20
28.46763746082578
 30
0.0
  0
SEQEND
  5
1C0
330
1B8
100
AcDbEntity
  8
GAIKEI
  6
Continuous
 62
     1
370
     0
  0
ARC
  5
1C1
330
2
100
AcDbEntity
  8
GAIKEI
  6
Continuous
370
    40
100
AcDbCircle
 10
28.00160011963509
 20
27.24532833582575
 30
0.0
 40
0.400000125
100
AcDbArc
 50
105.8282209999992
 51
176.9999950000005
  0
ARC
  5
1C2
330
2
100
AcDbEntity
  8
GAIKEI
  6
Continuous
370
    40
100
AcDbCircle
 10
31.22727386963507
 20
28.88740683582577
 30
0.0
 40
0.3
100
AcDbArc
 50
285.8282230000013
 51
351.9999990000006
  0
LINE
  5
1C3
330
2
100
AcDbEntity
  8
GAIKEI
  6
Continuous
 48
0.000056
370
    40
100
AcDbLine
 10
27.27173799463509
 20
30.25209571082579
 30
0.0
 11
27.27201636963509
 21
30.25209183582578
 31
0.0
  0
LINE
  5
1C4
330
2
100
AcDbEntity
  8
GAIKEI
  6
Continuous
 48
0.000685
370
    40
100
AcDbLine
 10
31.4059542446351
 20
30.25195446082577
 30
0.0
 11
31.4093759946351
 21
30.25209183582578
 31
0.0
  0
LINE
  5
1C5
330
2
100
AcDbEntity
  8
GAIKEI
  6
Continuous
 48
0.003209
370
    40
100
AcDbLine
 10
22.92239936963509
 20
28.07596346082576
 30
0.0
 11
22.92239936963509
 21
28.09200808582577
 31
0.0
  0
LINE
  5
1C6
330
2
100
AcDbEntity
  8
GAIKEI
  6
Continuous
 48
0.003801
370
    40
100
AcDbLine
 10
22.6730478696351
 20
28.16276308582579
 30
0.0
 11
22.65501586963509
 21
28.16876746082576
 31
0.0
  0
POLYLINE
  5
1C7
330
2
100
AcDbEntity
  8
GAIKEI
  6
Continuous
370
    40
100
AcDb2dPolyline
 66
     1
 10
0.0
 20
0.0
 30
0.0
  0
VERTEX
  5
1C8
330
1C7
100
AcDbEntity
  8
GAIKEI
  6
Continuous
370
     0
100
AcDbVertex
100
AcDb2dVertex
 10
22.67606911963509
 20
28.16186283582576
 30
0.0
  0
VERTEX
  5
1C9
330
1C7
100
AcDbEntity
  8
GAIKEI
  6
Continuous
370
     0
100
AcDbVertex
100
AcDb2dVertex
 10
22.65483661963509
 20
28.16882458582578
 30
0.0
  0
VERTEX
  5
1CA
330
1C7
100
AcDbEntity
  8
GAIKEI
  6
Continuous
370
     0
100
AcDbVertex
100
AcDb2dVertex
 10
22.38410749463509
 20
28.25502921082577
 30
0.0
  0
VERTEX
  5
1CB
330
1C7
100
AcDbEntity
  8
GAIKEI
  6
Continuous
370
     0
100
AcDbVertex
100
AcDb2dVertex
 10
22.10738174463509
 20
28.33656071082575
 30
0.0
  0
VERTEX
  5
1CC
330
1C7
100
AcDbEntity
  8
GAIKEI
  6
Continuous
370
     0
100
AcDbVertex
100
AcDb2dVertex
 10
22.04504199463508
 20
28.35415408582574
 30
0.0
  0
SEQEND
  5
1CD
330
1C7
100
AcDbEntity
  8
GAIKEI
  6
Continuous
370
     0
  0
ARC
  5
1CE
330
2
100
AcDbEntity
  8
GAIKEI
  6
Continuous
370
    40
100
AcDbCircle
 10
16.49672499463509
 20
8.440139210825776
 30
0.0
 40
20.67255987500001
100
AcDbArc
 50
74.4314330000022
 51
76.21377800000169
  0
LINE
  5
1CF
330
2
100
AcDbEntity
  8
GAIKEI
  6
Continuous
 48
0.000698
370
    40
100
AcDbLine
 10
21.42299836963508
 20
28.51717521082574
 30
0.0
 11
21.4196261196351
 21
28.51806783582575
 31
0.0
  0
ARC
  5
1D0
330
2
100
AcDbEntity
  8
GAIKEI
  6
Continuous
370
    40
100
AcDbCircle
 10
24.44243036963508
 20
27.24532833582575
 30
0.0
 40
0.400000125
100
AcDbArc
 50
3.000000000000716
 51
74.17177699999871
  0
ARC
  5
1D1
330
2
100
AcDbEntity
  8
GAIKEI
  6
Continuous
370
    40
100
AcDbCircle
 10
21.21675674463509
 20
28.88740683582577
 30
0.0
 40
0.3
100
AcDbArc
 50
188.0000039999999
 51
254.1717790000007
  0
LINE
  5
1D2
330
2
100
AcDbEntity
  8
GAIKEI
  6
Continuous
370
    40
100
AcDbLine
 10
27.89249986963509
 20
27.63016271082577
 30
0.0
 11
31.30909911963508
 21
28.59877921082577
 31
0.0
  0
LINE
  5
1D3
330
2
100
AcDbEntity
  8
GAIKEI
  6
Continuous
 48
0.059183
370
    40
100
AcDbLine
 10
21.4196261196351
 20
28.51806783582575
 30
0.0
 11
21.13493149463508
 21
28.59877921082577
 31
0.0
  0
LINE
  5
1D4
330
2
100
AcDbEntity
  8
GAIKEI
  6
Continuous
 48
0.05122
370
    40
100
AcDbLine
 10
22.92245661963509
 20
28.09200808582577
 30
0.0
 11
22.67606911963509
 21
28.16186283582576
 31
0.0
  0
LINE
  5
1D5
330
2
100
AcDbEntity
  8
GAIKEI
  6
Continuous
 48
0.234806
370
    40
100
AcDbLine
 10
24.55153074463509
 20
27.63016271082577
 30
0.0
 11
23.42201799463508
 21
27.95038358582579
 31
0.0
  0
LINE
  5
1D6
330
2
100
AcDbEntity
  8
GAIKEI
  6
Continuous
 48
0.000094
370
    40
100
AcDbLine
 10
28.99789611963507
 20
30.25209183582578
 30
0.0
 11
28.99742686963509
 21
30.25209183582578
 31
0.0
  0
LINE
  5
1D7
330
2
100
AcDbEntity
  8
GAIKEI
  6
Continuous
 48
0.140173
370
    40
100
AcDbLine
 10
28.99788086963508
 20
30.25209183582578
 30
0.0
 11
28.2970141196351
 21
30.25209183582578
 31
0.0
  0
LINE
  5
1D8
330
2
100
AcDbEntity
  8
GAIKEI
  6
Continuous
 48
0.04784
370
    40
100
AcDbLine
 10
28.2970141196351
 20
30.25209183582578
 30
0.0
 11
28.0578134946351
 21
30.25209183582578
 31
0.0
  0
LINE
  5
1D9
330
2
100
AcDbEntity
  8
GAIKEI
  6
Continuous
 48
0.091558
370
    40
100
AcDbLine
 10
28.0578134946351
 20
30.25209183582578
 30
0.0
 11
27.60002311963508
 21
30.25209183582578
 31
0.0
  0
LINE
  5
1DA
330
2
100
AcDbEntity
  8
GAIKEI
  6
Continuous
 48
0.027366
370
    40
100
AcDbLine
 10
22.07201561963509
 20
30.25209183582578
 30
0.0
 11
21.93518624463508
 21
30.25209183582578
 31
0.0
  0
LINE
  5
1DB
330
2
100
AcDbEntity
  8
GAIKEI
  6
Continuous
 48
0.111927
370
    40
100
AcDbLine
 10
21.93518624463508
 20
30.25209183582578
 30
0.0
 11
21.37555111963508
 21
30.25209183582578
 31
0.0
  0
LINE
  5
1DC
330
2
100
AcDbEntity
  8
GAIKEI
  6
Continuous
 48
0.139568
370
    40
100
AcDbLine
 10
22.76985736963509
 20
30.25209183582578
 30
0.0
 11
22.07201561963509
 21
30.25209183582578
 31
0.0
  0
LINE
  5
1DD
330
2
100
AcDbEntity
  8
GAIKEI
  6
Continuous
 48
0.009211
370
    40
100
AcDbLine
 10
31.64689049463508
 20
30.25209183582578
 30
0.0
 11
31.60083574463508
 21
30.25209183582578
 31
0.0
  0
LINE
  5
1DE
330
2
100
AcDbEntity
  8
GAIKEI
  6
Continuous
 48
0.002448
370
    40
100
AcDbLine
 10
25.22553811963509
 20
30.25209183582578
 30
0.0
 11
25.23777949463508
 21
30.25209183582578
 31
0.0
  0
LINE
  5
1DF
330
2
100
AcDbEntity
  8
GAIKEI
  6
Continuous
 48
0.393694
370
    40
100
AcDbLine
 10
27.2062509946351
 20
30.25209183582578
 30
0.0
 11
25.23777949463508
 21
30.25209183582578
 31
0.0
  0
LINE
  5
1E0
330
2
100
AcDbEntity
  8
GAIKEI
  6
Continuous
 48
0.002448
370
    40
100
AcDbLine
 10
27.2062509946351
 20
30.25209183582578
 30
0.0
 11
27.21849236963509
 21
30.25209183582578
 31
0.0
  0
LINE
  5
1E1
330
2
100
AcDbEntity
  8
GAIKEI
  6
Continuous
370
    40
100
AcDbLine
 10
31.5622499946351
 20
30.25209183582578
 30
0.0
 11
27.21849236963509
 21
30.25209183582578
 31
0.0
  0
LINE
  5
1E2
330
2
100
AcDbEntity
  8
GAIKEI
  6
Continuous
 48
0.007717
370
    40
100
AcDbLine
 10
31.60083574463508
 20
30.25209183582578
 30
0.0
 11
31.5622499946351
 21
30.25209183582578
 31
0.0
  0
LINE
  5
1E3
330
2
100
AcDbEntity
  8
GAIKEI
  6
Continuous
 62
     1
 48
0.4224560000000001
370
    40
100
AcDbLine
 10
27.34701724463509
 20
23.35209408582577
 30
0.0
 11
25.09701724463508
 21
23.35209408582577
 31
0.0
  0
LINE
  5
1E4
330
2
100
AcDbEntity
  8
GAIKEI
  6
Continuous
 48
0.11413
370
    40
100
AcDbLine
 10
21.50010486963509
 20
30.25209183582578
 30
0.0
 11
20.92945274463509
 21
30.25209183582578
 31
0.0
  0
LINE
  5
1E5
330
2
100
AcDbEntity
  8
GAIKEI
  6
Continuous
370
    40
100
AcDbLine
 10
25.22553811963509
 20
30.25209183582578
 30
0.0
 11
21.44578736963507
 21
30.25209183582578
 31
0.0
  0
LINE
  5
1E6
330
2
100
AcDbEntity
  8
GAIKEI
  6
Continuous
 48
0.13325
370
    40
100
AcDbLine
 10
21.44578736963507
 20
30.25209183582578
 30
0.0
 11
20.77953524463509
 21
30.25209183582578
 31
0.0
  0
LINE
  5
1E7
330
2
100
AcDbEntity
  8
GAIKEI
  6
Continuous
 48
0.002448
370
    40
100
AcDbLine
 10
27.21849236963509
 20
30.25209183582578
 30
0.0
 11
27.2062509946351
 21
30.25209183582578
 31
0.0
  0
LINE
  5
1E8
330
2
100
AcDbEntity
  8
GAIKEI
  6
Continuous
 48
0.393694
370
    40
100
AcDbLine
 10
27.2062509946351
 20
30.25209183582578
 30
0.0
 11
25.23777949463508
 21
30.25209183582578
 31
0.0
  0
LINE
  5
1E9
330
2
100
AcDbEntity
  8
GAIKEI
  6
Continuous
 48
0.002448
370
    40
100
AcDbLine
 10
25.23777949463508
 20
30.25209183582578
 30
0.0
 11
25.22553811963509
 21
30.25209183582578
 31
0.0
  0
POLYLINE
  5
1EA
330
2
100
AcDbEntity
  8
GAIKEI
  6
Continuous
 62
     1
370
    13
100
AcDb2dPolyline
 66
     1
 10
0.0
 20
0.0
 30
0.0
  0
VERTEX
  5
1EB
330
1EA
100
AcDbEntity
  8
GAIKEI
  6
Continuous
 62
     1
370
     0
100
AcDbVertex
100
AcDb2dVertex
 10
28.80970561963508
 20
28.49775458582573
 30
0.0
  0
VERTEX
  5
1EC
330
1EA
100
AcDbEntity
  8
GAIKEI
  6
Continuous
 62
     1
370
     0
100
AcDbVertex
100
AcDb2dVertex
 10
28.79868111963508
 20
28.48481508582577
 30
0.0
  0
VERTEX
  5
1ED
330
1EA
100
AcDbEntity
  8
GAIKEI
  6
Continuous
 62
     1
370
     0
100
AcDbVertex
100
AcDb2dVertex
 10
28.78454386963509
 20
28.47151708582575
 30
0.0
  0
VERTEX
  5
1EE
330
1EA
100
AcDbEntity
  8
GAIKEI
  6
Continuous
 62
     1
370
     0
100
AcDbVertex
100
AcDb2dVertex
 10
28.76326549463508
 20
28.45493833582575
 30
0.0
  0
VERTEX
  5
1EF
330
1EA
100
AcDbEntity
  8
GAIKEI
  6
Continuous
 62
     1
370
     0
100
AcDbVertex
100
AcDb2dVertex
 10
28.73766886963509
 20
28.43804308582574
 30
0.0
  0
VERTEX
  5
1F0
330
1EA
100
AcDbEntity
  8
GAIKEI
  6
Continuous
 62
     1
370
     0
100
AcDbVertex
100
AcDb2dVertex
 10
28.68070024463509
 20
28.40693808582577
 30
0.0
  0
VERTEX
  5
1F1
330
1EA
100
AcDbEntity
  8
GAIKEI
  6
Continuous
 62
     1
370
     0
100
AcDbVertex
100
AcDb2dVertex
 10
28.61902036963508
 20
28.37916708582574
 30
0.0
  0
VERTEX
  5
1F2
330
1EA
100
AcDbEntity
  8
GAIKEI
  6
Continuous
 62
     1
370
     0
100
AcDbVertex
100
AcDb2dVertex
 10
28.54952799463507
 20
28.35259771082574
 30
0.0
  0
VERTEX
  5
1F3
330
1EA
100
AcDbEntity
  8
GAIKEI
  6
Continuous
 62
     1
370
     0
100
AcDbVertex
100
AcDb2dVertex
 10
28.4464129946351
 20
28.31992483582579
 30
0.0
  0
SEQEND
  5
1F4
330
1EA
100
AcDbEntity
  8
GAIKEI
  6
Continuous
 62
     1
370
     0
  0
POLYLINE
  5
1F5
330
2
100
AcDbEntity
  8
GAIKEI
  6
Continuous
 62
     1
370
    13
100
AcDb2dPolyline
 66
     1
 10
0.0
 20
0.0
 30
0.0
  0
VERTEX
  5
1F6
330
1F5
100
AcDbEntity
  8
GAIKEI
  6
Continuous
 62
     1
370
     0
100
AcDbVertex
100
AcDb2dVertex
 10
28.4464129946351
 20
28.31992483582579
 30
0.0
  0
VERTEX
  5
1F7
330
1F5
100
AcDbEntity
  8
GAIKEI
  6
Continuous
 62
     1
370
     0
100
AcDbVertex
100
AcDb2dVertex
 10
28.35481061963509
 20
28.29653683582577
 30
0.0
  0
VERTEX
  5
1F8
330
1F5
100
AcDbEntity
  8
GAIKEI
  6
Continuous
 62
     1
370
     0
100
AcDbVertex
100
AcDb2dVertex
 10
28.26119036963508
 20
28.27776858582578
 30
0.0
  0
VERTEX
  5
1F9
330
1F5
100
AcDbEntity
  8
GAIKEI
  6
Continuous
 62
     1
370
     0
100
AcDbVertex
100
AcDb2dVertex
 10
28.1687754946351
 20
28.26454296082577
 30
0.0
  0
VERTEX
  5
1FA
330
1F5
100
AcDbEntity
  8
GAIKEI
  6
Continuous
 62
     1
370
     0
100
AcDbVertex
100
AcDb2dVertex
 10
28.08038124463509
 20
28.25746296082579
 30
0.0
  0
VERTEX
  5
1FB
330
1F5
100
AcDbEntity
  8
GAIKEI
  6
Continuous
 62
     1
370
     0
100
AcDbVertex
100
AcDb2dVertex
 10
27.99872386963509
 20
28.25687933582575
 30
0.0
  0
VERTEX
  5
1FC
330
1F5
100
AcDbEntity
  8
GAIKEI
  6
Continuous
 62
     1
370
     0
100
AcDbVertex
100
AcDb2dVertex
 10
27.92638961963509
 20
28.26281496082575
 30
0.0
  0
VERTEX
  5
1FD
330
1F5
100
AcDbEntity
  8
GAIKEI
  6
Continuous
 62
     1
370
     0
100
AcDbVertex
100
AcDb2dVertex
 10
27.89397224463508
 20
28.26823946082575
 30
0.0
  0
VERTEX
  5
1FE
330
1F5
100
AcDbEntity
  8
GAIKEI
  6
Continuous
 62
     1
370
     0
100
AcDbVertex
100
AcDb2dVertex
 10
27.86478224463508
 20
28.27521271082574
 30
0.0
  0
VERTEX
  5
1FF
330
1F5
100
AcDbEntity
  8
GAIKEI
  6
Continuous
 62
     1
370
     0
100
AcDbVertex
100
AcDb2dVertex
 10
27.83977311963508
 20
28.28337233582576
 30
0.0
  0
VERTEX
  5
200
330
1F5
100
AcDbEntity
  8
GAIKEI
  6
Continuous
 62
     1
370
     0
100
AcDbVertex
100
AcDb2dVertex
 10
27.81822386963508
 20
28.29281371082576
 30
0.0
  0
VERTEX
  5
201
330
1F5
100
AcDbEntity
  8
GAIKEI
  6
Continuous
 62
     1
370
     0
100
AcDbVertex
100
AcDb2dVertex
 10
27.79491224463509
 20
28.30741633582576
 30
0.0
  0
VERTEX
  5
202
330
1F5
100
AcDbEntity
  8
GAIKEI
  6
Continuous
 62
     1
370
     0
100
AcDbVertex
100
AcDb2dVertex
 10
27.77858149463509
 20
28.32387683582576
 30
0.0
  0
VERTEX
  5
203
330
1F5
100
AcDbEntity
  8
GAIKEI
  6
Continuous
 62
     1
370
     0
100
AcDbVertex
100
AcDb2dVertex
 10
27.76946436963508
 20
28.34185171082575
 30
0.0
  0
SEQEND
  5
204
330
1F5
100
AcDbEntity
  8
GAIKEI
  6
Continuous
 62
     1
370
     0
  0
ELLIPSE
  5
205
330
2
100
AcDbEntity
  8
GAIKEI
  6
Continuous
 62
     1
370
    13
100
AcDbEllipse
 10
28.47458449463508
 20
28.32167196082579
 30
0.0
 11
0.023162841796875
 21
-0.0972824096679688
 31
0.0
210
0.0
220
0.0
230
1.0
 40
0.2784200000000001
 41
4.664116419492199
 42
6.054392682051273
  0
LINE
  5
206
330
2
100
AcDbEntity
  8
GAIKEI
  6
Continuous
 62
     1
370
    13
100
AcDbLine
 10
27.60214799463509
 20
27.26626346082574
 30
0.0
 11
24.84188261963507
 21
27.26626346082574
 31
0.0
  0
LINE
  5
207
330
2
100
AcDbEntity
  8
GAIKEI
  6
Continuous
 62
     1
370
    13
100
AcDbLine
 10
31.52435486963509
 20
28.84565108582578
 30
0.0
 11
20.91967574463509
 21
28.84565108582578
 31
0.0
  0
LINE
  5
208
330
2
100
AcDbEntity
  8
GAIKEI
  6
Continuous
 48
0.000701
370
    40
100
AcDbLine
 10
23.42201411963509
 20
27.94918958582579
 30
0.0
 11
23.42201411963509
 21
27.94568396082579
 31
0.0
  0
LINE
  5
209
330
2
100
AcDbEntity
  8
GAIKEI
  6
Continuous
 48
0.00095
370
    40
100
AcDbLine
 10
23.42201411963509
 20
27.94918958582579
 30
0.0
 11
23.42201411963509
 21
27.95393896082575
 31
0.0
  0
POLYLINE
  5
20A
330
2
100
AcDbEntity
  8
GAIKEI
  6
Continuous
 62
     1
370
    13
100
AcDb2dPolyline
 66
     1
 10
0.0
 20
0.0
 30
0.0
  0
VERTEX
  5
20B
330
20A
100
AcDbEntity
  8
GAIKEI
  6
Continuous
 62
     1
370
     0
100
AcDbVertex
100
AcDb2dVertex
 10
28.13189874463508
 20
28.46964021082576
 30
0.0
  0
VERTEX
  5
20C
330
20A
100
AcDbEntity
  8
GAIKEI
  6
Continuous
 62
     1
370
     0
100
AcDbVertex
100
AcDb2dVertex
 10
28.24969661963507
 20
28.48937358582574
 30
0.0
  0
VERTEX
  5
20D
330
20A
100
AcDbEntity
  8
GAIKEI
  6
Continuous
 62
     1
370
     0
100
AcDbVertex
100
AcDb2dVertex
 10
28.36401161963508
 20
28.50364058582576
 30
0.0
  0
VERTEX
  5
20E
330
20A
100
AcDbEntity
  8
GAIKEI
  6
Continuous
 62
     1
370
     0
100
AcDbVertex
100
AcDb2dVertex
 10
28.47353549463509
 20
28.51295233582576
 30
0.0
  0
VERTEX
  5
20F
330
20A
100
AcDbEntity
  8
GAIKEI
  6
Continuous
 62
     1
370
     0
100
AcDbVertex
100
AcDb2dVertex
 10
28.58418836963508
 20
28.51769008582576
 30
0.0
  0
VERTEX
  5
210
330
20A
100
AcDbEntity
  8
GAIKEI
  6
Continuous
 62
     1
370
     0
100
AcDbVertex
100
AcDb2dVertex
 10
28.68565549463509
 20
28.51698821082576
 30
0.0
  0
VERTEX
  5
211
330
20A
100
AcDbEntity
  8
GAIKEI
  6
Continuous
 62
     1
370
     0
100
AcDbVertex
100
AcDb2dVertex
 10
28.73894686963509
 20
28.51404333582579
 30
0.0
  0
VERTEX
  5
212
330
20A
100
AcDbEntity
  8
GAIKEI
  6
Continuous
 62
     1
370
     0
100
AcDbVertex
100
AcDb2dVertex
 10
28.78792749463509
 20
28.50914908582578
 30
0.0
  0
VERTEX
  5
213
330
20A
100
AcDbEntity
  8
GAIKEI
  6
Continuous
 62
     1
370
     0
100
AcDbVertex
100
AcDb2dVertex
 10
28.8210199946351
 20
28.50419371082578
 30
0.0
  0
VERTEX
  5
214
330
20A
100
AcDbEntity
  8
GAIKEI
  6
Continuous
 62
     1
370
     0
100
AcDbVertex
100
AcDb2dVertex
 10
28.85106461963508
 20
28.49804446082575
 30
0.0
  0
VERTEX
  5
215
330
20A
100
AcDbEntity
  8
GAIKEI
  6
Continuous
 62
     1
370
     0
100
AcDbVertex
100
AcDb2dVertex
 10
28.87742799463507
 20
28.49069733582579
 30
0.0
  0
VERTEX
  5
216
330
20A
100
AcDbEntity
  8
GAIKEI
  6
Continuous
 62
     1
370
     0
100
AcDbVertex
100
AcDb2dVertex
 10
28.89996136963508
 20
28.48201133582577
 30
0.0
  0
VERTEX
  5
217
330
20A
100
AcDbEntity
  8
GAIKEI
  6
Continuous
 62
     1
370
     0
100
AcDbVertex
100
AcDb2dVertex
 10
28.91569699463508
 20
28.47350446082575
 30
0.0
  0
VERTEX
  5
218
330
20A
100
AcDbEntity
  8
GAIKEI
  6
Continuous
 62
     1
370
     0
100
AcDbVertex
100
AcDb2dVertex
 10
28.92791549463508
 20
28.46386471082573
 30
0.0
  0
VERTEX
  5
219
330
20A
100
AcDbEntity
  8
GAIKEI
  6
Continuous
 62
     1
370
     0
100
AcDbVertex
100
AcDb2dVertex
 10
28.93666636963508
 20
28.45194758582577
 30
0.0
  0
VERTEX
  5
21A
330
20A
100
AcDbEntity
  8
GAIKEI
  6
Continuous
 62
     1
370
     0
100
AcDbVertex
100
AcDb2dVertex
 10
28.93990886963509
 20
28.43839021082576
 30
0.0
  0
VERTEX
  5
21B
330
20A
100
AcDbEntity
  8
GAIKEI
  6
Continuous
 62
     1
370
     0
100
AcDbVertex
100
AcDb2dVertex
 10
28.93620486963508
 20
28.42196408582575
 30
0.0
  0
VERTEX
  5
21C
330
20A
100
AcDbEntity
  8
GAIKEI
  6
Continuous
 62
     1
370
     0
100
AcDbVertex
100
AcDb2dVertex
 10
28.92367736963507
 20
28.40324921082575
 30
0.0
  0
VERTEX
  5
21D
330
20A
100
AcDbEntity
  8
GAIKEI
  6
Continuous
 62
     1
370
     0
100
AcDbVertex
100
AcDb2dVertex
 10
28.90066324463509
 20
28.38213871082579
 30
0.0
  0
VERTEX
  5
21E
330
20A
100
AcDbEntity
  8
GAIKEI
  6
Continuous
 62
     1
370
     0
100
AcDbVertex
100
AcDb2dVertex
 10
28.85907161963507
 20
28.35492083582577
 30
0.0
  0
VERTEX
  5
21F
330
20A
100
AcDbEntity
  8
GAIKEI
  6
Continuous
 62
     1
370
     0
100
AcDbVertex
100
AcDb2dVertex
 10
28.80203424463508
 20
28.32617708582578
 30
0.0
  0
VERTEX
  5
220
330
20A
100
AcDbEntity
  8
GAIKEI
  6
Continuous
 62
     1
370
     0
100
AcDbVertex
100
AcDb2dVertex
 10
28.76020236963508
 20
28.30835858582574
 30
0.0
  0
VERTEX
  5
221
330
20A
100
AcDbEntity
  8
GAIKEI
  6
Continuous
 62
     1
370
     0
100
AcDbVertex
100
AcDb2dVertex
 10
28.71619211963508
 20
28.29158158582576
 30
0.0
  0
VERTEX
  5
222
330
20A
100
AcDbEntity
  8
GAIKEI
  6
Continuous
 62
     1
370
     0
100
AcDbVertex
100
AcDb2dVertex
 10
28.64982399463509
 20
28.26911296082577
 30
0.0
  0
VERTEX
  5
223
330
20A
100
AcDbEntity
  8
GAIKEI
  6
Continuous
 62
     1
370
     0
100
AcDbVertex
100
AcDb2dVertex
 10
28.58543574463508
 20
28.24989458582578
 30
0.0
  0
VERTEX
  5
224
330
20A
100
AcDbEntity
  8
GAIKEI
  6
Continuous
 62
     1
370
     0
100
AcDbVertex
100
AcDb2dVertex
 10
28.49099911963509
 20
28.22546146082576
 30
0.0
  0
SEQEND
  5
225
330
20A
100
AcDbEntity
  8
GAIKEI
  6
Continuous
 62
     1
370
     0
  0
POLYLINE
  5
226
330
2
100
AcDbEntity
  8
GAIKEI
  6
Continuous
 62
     1
370
    13
100
AcDb2dPolyline
 66
     1
 10
0.0
 20
0.0
 30
0.0
  0
VERTEX
  5
227
330
226
100
AcDbEntity
  8
GAIKEI
  6
Continuous
 62
     1
370
     0
100
AcDbVertex
100
AcDb2dVertex
 10
28.49099911963509
 20
28.22546146082576
 30
0.0
  0
VERTEX
  5
228
330
226
100
AcDbEntity
  8
GAIKEI
  6
Continuous
 62
     1
370
     0
100
AcDbVertex
100
AcDb2dVertex
 10
28.4230708696351
 20
28.21033996082574
 30
0.0
  0
VERTEX
  5
229
330
226
100
AcDbEntity
  8
GAIKEI
  6
Continuous
 62
     1
370
     0
100
AcDbVertex
100
AcDb2dVertex
 10
28.35936924463509
 20
28.19791546082579
 30
0.0
  0
VERTEX
  5
22A
330
226
100
AcDbEntity
  8
GAIKEI
  6
Continuous
 62
     1
370
     0
100
AcDbVertex
100
AcDb2dVertex
 10
28.24287599463509
 20
28.17956296082579
 30
0.0
  0
VERTEX
  5
22B
330
226
100
AcDbEntity
  8
GAIKEI
  6
Continuous
 62
     1
370
     0
100
AcDbVertex
100
AcDb2dVertex
 10
28.15200599463509
 20
28.16939296082578
 30
0.0
  0
VERTEX
  5
22C
330
226
100
AcDbEntity
  8
GAIKEI
  6
Continuous
 62
     1
370
     0
100
AcDbVertex
100
AcDb2dVertex
 10
28.06808649463508
 20
28.16360608582576
 30
0.0
  0
VERTEX
  5
22D
330
226
100
AcDbEntity
  8
GAIKEI
  6
Continuous
 62
     1
370
     0
100
AcDbVertex
100
AcDb2dVertex
 10
27.99035449463509
 20
28.16187046082578
 30
0.0
  0
VERTEX
  5
22E
330
226
100
AcDbEntity
  8
GAIKEI
  6
Continuous
 62
     1
370
     0
100
AcDbVertex
100
AcDb2dVertex
 10
27.91527736963508
 20
28.16430033582575
 30
0.0
  0
VERTEX
  5
22F
330
226
100
AcDbEntity
  8
GAIKEI
  6
Continuous
 62
     1
370
     0
100
AcDbVertex
100
AcDb2dVertex
 10
27.84612074463507
 20
28.17132321082576
 30
0.0
  0
VERTEX
  5
230
330
226
100
AcDbEntity
  8
GAIKEI
  6
Continuous
 62
     1
370
     0
100
AcDbVertex
100
AcDb2dVertex
 10
27.81386361963509
 20
28.17677058582578
 30
0.0
  0
VERTEX
  5
231
330
226
100
AcDbEntity
  8
GAIKEI
  6
Continuous
 62
     1
370
     0
100
AcDbVertex
100
AcDb2dVertex
 10
27.78339186963509
 20
28.18369046082577
 30
0.0
  0
VERTEX
  5
232
330
226
100
AcDbEntity
  8
GAIKEI
  6
Continuous
 62
     1
370
     0
100
AcDbVertex
100
AcDb2dVertex
 10
27.75602136963508
 20
28.19194933582574
 30
0.0
  0
VERTEX
  5
233
330
226
100
AcDbEntity
  8
GAIKEI
  6
Continuous
 62
     1
370
     0
100
AcDbVertex
100
AcDb2dVertex
 10
27.73107324463508
 20
28.20201246082579
 30
0.0
  0
VERTEX
  5
234
330
226
100
AcDbEntity
  8
GAIKEI
  6
Continuous
 62
     1
370
     0
100
AcDbVertex
100
AcDb2dVertex
 10
27.70997799463508
 20
28.21374271082575
 30
0.0
  0
VERTEX
  5
235
330
226
100
AcDbEntity
  8
GAIKEI
  6
Continuous
 62
     1
370
     0
100
AcDbVertex
100
AcDb2dVertex
 10
27.69268974463509
 20
28.22801733582574
 30
0.0
  0
VERTEX
  5
236
330
226
100
AcDbEntity
  8
GAIKEI
  6
Continuous
 62
     1
370
     0
100
AcDbVertex
100
AcDb2dVertex
 10
27.68187899463509
 20
28.24349733582577
 30
0.0
  0
VERTEX
  5
237
330
226
100
AcDbEntity
  8
GAIKEI
  6
Continuous
 62
     1
370
     0
100
AcDbVertex
100
AcDb2dVertex
 10
27.67875849463508
 20
28.25238171082574
 30
0.0
  0
VERTEX
  5
238
330
226
100
AcDbEntity
  8
GAIKEI
  6
Continuous
 62
     1
370
     0
100
AcDbVertex
100
AcDb2dVertex
 10
27.67761786963509
 20
28.26211308582575
 30
0.0
  0
VERTEX
  5
239
330
226
100
AcDbEntity
  8
GAIKEI
  6
Continuous
 62
     1
370
     0
100
AcDbVertex
100
AcDb2dVertex
 10
27.68142124463509
 20
28.28070583582579
 30
0.0
  0
VERTEX
  5
23A
330
226
100
AcDbEntity
  8
GAIKEI
  6
Continuous
 62
     1
370
     0
100
AcDbVertex
100
AcDb2dVertex
 10
27.69435299463508
 20
28.30177821082575
 30
0.0
  0
VERTEX
  5
23B
330
226
100
AcDbEntity
  8
GAIKEI
  6
Continuous
 62
     1
370
     0
100
AcDbVertex
100
AcDb2dVertex
 10
27.71130549463509
 20
28.3190320858258
 30
0.0
  0
VERTEX
  5
23C
330
226
100
AcDbEntity
  8
GAIKEI
  6
Continuous
 62
     1
370
     0
100
AcDbVertex
100
AcDb2dVertex
 10
27.73382749463508
 20
28.33630133582577
 30
0.0
  0
VERTEX
  5
23D
330
226
100
AcDbEntity
  8
GAIKEI
  6
Continuous
 62
     1
370
     0
100
AcDbVertex
100
AcDb2dVertex
 10
27.76167861963509
 20
28.35343308582574
 30
0.0
  0
VERTEX
  5
23E
330
226
100
AcDbEntity
  8
GAIKEI
  6
Continuous
 62
     1
370
     0
100
AcDbVertex
100
AcDb2dVertex
 10
27.79274549463508
 20
28.36941671082579
 30
0.0
  0
VERTEX
  5
23F
330
226
100
AcDbEntity
  8
GAIKEI
  6
Continuous
 62
     1
370
     0
100
AcDbVertex
100
AcDb2dVertex
 10
27.8360423696351
 20
28.38827658582577
 30
0.0
  0
VERTEX
  5
240
330
226
100
AcDbEntity
  8
GAIKEI
  6
Continuous
 62
     1
370
     0
100
AcDbVertex
100
AcDb2dVertex
 10
27.8811053696351
 20
28.40505358582575
 30
0.0
  0
VERTEX
  5
241
330
226
100
AcDbEntity
  8
GAIKEI
  6
Continuous
 62
     1
370
     0
100
AcDbVertex
100
AcDb2dVertex
 10
27.94863311963508
 20
28.42641583582574
 30
0.0
  0
VERTEX
  5
242
330
226
100
AcDbEntity
  8
GAIKEI
  6
Continuous
 62
     1
370
     0
100
AcDbVertex
100
AcDb2dVertex
 10
28.01678261963508
 20
28.44460821082575
 30
0.0
  0
VERTEX
  5
243
330
226
100
AcDbEntity
  8
GAIKEI
  6
Continuous
 62
     1
370
     0
100
AcDbVertex
100
AcDb2dVertex
 10
28.13189499463508
 20
28.46964021082576
 30
0.0
  0
SEQEND
  5
244
330
226
100
AcDbEntity
  8
GAIKEI
  6
Continuous
 62
     1
370
     0
  0
LINE
  5
245
330
2
100
AcDbEntity
  8
GAIKEI
  6
Continuous
 62
     1
370
    13
100
AcDbLine
 10
27.89249986963509
 20
27.63016271082577
 30
0.0
 11
24.55153074463509
 21
27.63016271082577
 31
0.0
  0
LINE
  5
246
330
2
100
AcDbEntity
  8
GAIKEI
  6
Continuous
370
    13
100
AcDbLine
 10
31.30909911963508
 20
28.59877921082577
 30
0.0
 11
21.75768074463508
 21
28.59877921082577
 31
0.0
  0
ARC
  5
247
330
2
100
AcDbEntity
  8
GAIKEI
  6
Continuous
370
    40
100
AcDbCircle
 10
23.30398361963509
 20
27.60660696082576
 30
0.0
 40
0.36692025
100
AcDbArc
 50
71.23105199999956
 51
76.12077099999858
  0
ARC
  5
248
330
2
100
AcDbEntity
  8
GAIKEI
  6
Continuous
370
    40
100
AcDbCircle
 10
31.27076899463509
 20
57.52012771082582
 30
0.0
 40
30.589322375
100
AcDbArc
 50
254.181511999999
 51
255.0743330000014
  0
LINE
  5
249
330
2
100
AcDbEntity
  8
GAIKEI
  6
Continuous
 48
0.002078
370
    40
100
AcDbLine
 10
22.92239936963509
 20
28.09200808582577
 30
0.0
 11
22.93240161963509
 21
28.08920421082579
 31
0.0
  0
LINE
  5
24A
330
2
100
AcDbEntity
  8
GAIKEI
  6
Continuous
 48
0.12455
370
    13
100
AcDbLine
 10
21.13493149463508
 20
28.59877921082577
 30
0.0
 11
21.75768074463508
 21
28.59877921082577
 31
0.0
  0
LINE
  5
24B
330
2
100
AcDbEntity
  8
GAIKEI
  6
Continuous
 48
0.008008
370
    40
100
AcDbLine
 10
19.27199349463508
 20
12.35802983582576
 30
0.0
 11
19.23195449463509
 21
12.35787721082576
 31
0.0
  0
LINE
  5
24C
330
2
100
AcDbEntity
  8
GAIKEI
  6
Continuous
 48
0.001987
370
    40
100
AcDbLine
 10
19.22201724463508
 20
12.35788671082579
 30
0.0
 11
19.23195449463509
 21
12.35787721082576
 31
0.0
  0
POLYLINE
  5
24D
330
2
100
AcDbEntity
  8
GAIKEI
  6
Continuous
370
    40
100
AcDb2dPolyline
 66
     1
 10
0.0
 20
0.0
 30
0.0
  0
VERTEX
  5
24E
330
24D
100
AcDbEntity
  8
GAIKEI
  6
Continuous
370
     0
100
AcDbVertex
100
AcDb2dVertex
 10
24.39032161963508
 20
14.78209258582578
 30
0.0
  0
VERTEX
  5
24F
330
24D
100
AcDbEntity
  8
GAIKEI
  6
Continuous
370
     0
100
AcDbVertex
100
AcDb2dVertex
 10
24.39357561963509
 20
14.88493296082575
 30
0.0
  0
VERTEX
  5
250
330
24D
100
AcDbEntity
  8
GAIKEI
  6
Continuous
370
     0
100
AcDbVertex
100
AcDb2dVertex
 10
24.40425286963509
 20
14.99624396082575
 30
0.0
  0
VERTEX
  5
251
330
24D
100
AcDbEntity
  8
GAIKEI
  6
Continuous
370
     0
100
AcDbVertex
100
AcDb2dVertex
 10
24.42287624463509
 20
15.11368696082579
 30
0.0
  0
VERTEX
  5
252
330
24D
100
AcDbEntity
  8
GAIKEI
  6
Continuous
370
     0
100
AcDbVertex
100
AcDb2dVertex
 10
24.44407074463507
 20
15.22002746082577
 30
0.0
  0
VERTEX
  5
253
330
24D
100
AcDbEntity
  8
GAIKEI
  6
Continuous
370
     0
100
AcDbVertex
100
AcDb2dVertex
 10
24.45040699463508
 20
15.25668658582574
 30
0.0
  0
VERTEX
  5
254
330
24D
100
AcDbEntity
  8
GAIKEI
  6
Continuous
370
     0
100
AcDbVertex
100
AcDb2dVertex
 10
24.45201674463509
 20
15.27896258582578
 30
0.0
  0
SEQEND
  5
255
330
24D
100
AcDbEntity
  8
GAIKEI
  6
Continuous
370
     0
  0
POLYLINE
  5
256
330
2
100
AcDbEntity
  8
GAIKEI
  6
Continuous
370
    40
100
AcDb2dPolyline
 66
     1
 10
0.0
 20
0.0
 30
0.0
  0
VERTEX
  5
257
330
256
100
AcDbEntity
  8
GAIKEI
  6
Continuous
370
     0
100
AcDbVertex
100
AcDb2dVertex
 10
24.13854774463508
 20
12.53904483582576
 30
0.0
  0
VERTEX
  5
258
330
256
100
AcDbEntity
  8
GAIKEI
  6
Continuous
370
     0
100
AcDbVertex
100
AcDb2dVertex
 10
24.17249861963509
 20
12.57724133582573
 30
0.0
  0
VERTEX
  5
259
330
256
100
AcDbEntity
  8
GAIKEI
  6
Continuous
370
     0
100
AcDbVertex
100
AcDb2dVertex
 10
24.20257361963507
 20
12.62062021082576
 30
0.0
  0
VERTEX
  5
25A
330
256
100
AcDbEntity
  8
GAIKEI
  6
Continuous
370
     0
100
AcDbVertex
100
AcDb2dVertex
 10
24.22900949463508
 20
12.66982408582575
 30
0.0
  0
VERTEX
  5
25B
330
256
100
AcDbEntity
  8
GAIKEI
  6
Continuous
370
     0
100
AcDbVertex
100
AcDb2dVertex
 10
24.24854461963509
 20
12.71758408582579
 30
0.0
  0
SEQEND
  5
25C
330
256
100
AcDbEntity
  8
GAIKEI
  6
Continuous
370
     0
  0
POLYLINE
  5
25D
330
2
100
AcDbEntity
  8
GAIKEI
  6
Continuous
370
    40
100
AcDb2dPolyline
 66
     1
 10
0.0
 20
0.0
 30
0.0
  0
VERTEX
  5
25E
330
25D
100
AcDbEntity
  8
GAIKEI
  6
Continuous
370
     0
100
AcDbVertex
100
AcDb2dVertex
 10
24.24854461963509
 20
12.71758408582579
 30
0.0
  0
VERTEX
  5
25F
330
25D
100
AcDbEntity
  8
GAIKEI
  6
Continuous
370
     0
100
AcDbVertex
100
AcDb2dVertex
 10
24.27644911963509
 20
12.80260983582579
 30
0.0
  0
VERTEX
  5
260
330
25D
100
AcDbEntity
  8
GAIKEI
  6
Continuous
370
     0
100
AcDbVertex
100
AcDb2dVertex
 10
24.30037874463508
 20
12.88722171082574
 30
0.0
  0
VERTEX
  5
261
330
25D
100
AcDbEntity
  8
GAIKEI
  6
Continuous
370
     0
100
AcDbVertex
100
AcDb2dVertex
 10
24.32950386963509
 20
13.01252883582575
 30
0.0
  0
VERTEX
  5
262
330
25D
100
AcDbEntity
  8
GAIKEI
  6
Continuous
370
     0
100
AcDbVertex
100
AcDb2dVertex
 10
24.35153374463508
 20
13.13506833582576
 30
0.0
  0
VERTEX
  5
263
330
25D
100
AcDbEntity
  8
GAIKEI
  6
Continuous
370
     0
100
AcDbVertex
100
AcDb2dVertex
 10
24.36762424463508
 20
13.25444171082577
 30
0.0
  0
VERTEX
  5
264
330
25D
100
AcDbEntity
  8
GAIKEI
  6
Continuous
370
     0
100
AcDbVertex
100
AcDb2dVertex
 10
24.38162411963509
 20
13.40891783582575
 30
0.0
  0
VERTEX
  5
265
330
25D
100
AcDbEntity
  8
GAIKEI
  6
Continuous
370
     0
100
AcDbVertex
100
AcDb2dVertex
 10
24.38876899463509
 20
13.55920546082578
 30
0.0
  0
VERTEX
  5
266
330
25D
100
AcDbEntity
  8
GAIKEI
  6
Continuous
370
     0
100
AcDbVertex
100
AcDb2dVertex
 10
24.39032161963508
 20
13.67053746082578
 30
0.0
  0
SEQEND
  5
267
330
25D
100
AcDbEntity
  8
GAIKEI
  6
Continuous
370
     0
  0
LINE
  5
268
330
2
100
AcDbEntity
  8
GAIKEI
  6
Continuous
 48
0.222311
370
    40
100
AcDbLine
 10
24.39032161963508
 20
14.78209258582578
 30
0.0
 11
24.39032161963508
 21
13.67053746082578
 31
0.0
  0
POLYLINE
  5
269
330
2
100
AcDbEntity
  8
GAIKEI
  6
Continuous
370
    40
100
AcDb2dPolyline
 66
     1
 10
0.0
 20
0.0
 30
0.0
  0
VERTEX
  5
26A
330
269
100
AcDbEntity
  8
GAIKEI
  6
Continuous
370
     0
100
AcDbVertex
100
AcDb2dVertex
 10
18.51098811963509
 20
12.73020121082575
 30
0.0
  0
VERTEX
  5
26B
330
269
100
AcDbEntity
  8
GAIKEI
  6
Continuous
370
     0
100
AcDbVertex
100
AcDb2dVertex
 10
18.54907786963508
 20
12.67211483582579
 30
0.0
  0
VERTEX
  5
26C
330
269
100
AcDbEntity
  8
GAIKEI
  6
Continuous
370
     0
100
AcDbVertex
100
AcDb2dVertex
 10
18.59025374463508
 20
12.62087583582578
 30
0.0
  0
VERTEX
  5
26D
330
269
100
AcDbEntity
  8
GAIKEI
  6
Continuous
370
     0
100
AcDbVertex
100
AcDb2dVertex
 10
18.6403292446351
 20
12.56974933582577
 30
0.0
  0
VERTEX
  5
26E
330
269
100
AcDbEntity
  8
GAIKEI
  6
Continuous
370
     0
100
AcDbVertex
100
AcDb2dVertex
 10
18.68947024463509
 20
12.52836371082574
 30
0.0
  0
VERTEX
  5
26F
330
269
100
AcDbEntity
  8
GAIKEI
  6
Continuous
370
     0
100
AcDbVertex
100
AcDb2dVertex
 10
18.74999424463507
 20
12.48647833582575
 30
0.0
  0
VERTEX
  5
270
330
269
100
AcDbEntity
  8
GAIKEI
  6
Continuous
370
     0
100
AcDbVertex
100
AcDb2dVertex
 10
18.80768761963509
 20
12.45396946082573
 30
0.0
  0
VERTEX
  5
271
330
269
100
AcDbEntity
  8
GAIKEI
  6
Continuous
370
     0
100
AcDbVertex
100
AcDb2dVertex
 10
18.87772549463509
 20
12.42240471082576
 30
0.0
  0
VERTEX
  5
272
330
269
100
AcDbEntity
  8
GAIKEI
  6
Continuous
370
     0
100
AcDbVertex
100
AcDb2dVertex
 10
18.94095411963508
 20
12.40017458582574
 30
0.0
  0
VERTEX
  5
273
330
269
100
AcDbEntity
  8
GAIKEI
  6
Continuous
370
     0
100
AcDbVertex
100
AcDb2dVertex
 10
19.01972761963509
 20
12.37964008582574
 30
0.0
  0
VERTEX
  5
274
330
269
100
AcDbEntity
  8
GAIKEI
  6
Continuous
370
     0
100
AcDbVertex
100
AcDb2dVertex
 10
19.09654036963508
 20
12.36641258582577
 30
0.0
  0
VERTEX
  5
275
330
269
100
AcDbEntity
  8
GAIKEI
  6
Continuous
370
     0
100
AcDbVertex
100
AcDb2dVertex
 10
19.17452799463508
 20
12.35927146082574
 30
0.0
  0
VERTEX
  5
276
330
269
100
AcDbEntity
  8
GAIKEI
  6
Continuous
370
     0
100
AcDbVertex
100
AcDb2dVertex
 10
19.23195449463509
 20
12.35787721082576
 30
0.0
  0
SEQEND
  5
277
330
269
100
AcDbEntity
  8
GAIKEI
  6
Continuous
370
     0
  0
ARC
  5
278
330
2
100
AcDbEntity
  8
GAIKEI
  6
Continuous
370
    40
100
AcDbCircle
 10
-12.09769638036491
 20
8272.039193585827
 30
0.0
 40
8259.741377500001
100
AcDbArc
 50
270.2173269999981
 51
270.2491899999986
  0
POLYLINE
  5
279
330
2
100
AcDbEntity
  8
GAIKEI
  6
Continuous
370
    40
100
AcDb2dPolyline
 66
     1
 10
0.0
 20
0.0
 30
0.0
  0
VERTEX
  5
27A
330
279
100
AcDbEntity
  8
GAIKEI
  6
Continuous
370
     0
100
AcDbVertex
100
AcDb2dVertex
 10
23.8250254946351
 20
12.37657683582577
 30
0.0
  0
VERTEX
  5
27B
330
279
100
AcDbEntity
  8
GAIKEI
  6
Continuous
370
     0
100
AcDbVertex
100
AcDb2dVertex
 10
23.87149611963508
 20
12.37963246082577
 30
0.0
  0
VERTEX
  5
27C
330
279
100
AcDbEntity
  8
GAIKEI
  6
Continuous
370
     0
100
AcDbVertex
100
AcDb2dVertex
 10
23.91761199463508
 20
12.38857783582577
 30
0.0
  0
VERTEX
  5
27D
330
279
100
AcDbEntity
  8
GAIKEI
  6
Continuous
370
     0
100
AcDbVertex
100
AcDb2dVertex
 10
23.96176711963509
 20
12.40344371082577
 30
0.0
  0
VERTEX
  5
27E
330
279
100
AcDbEntity
  8
GAIKEI
  6
Continuous
370
     0
100
AcDbVertex
100
AcDb2dVertex
 10
23.99918924463509
 20
12.42202521082575
 30
0.0
  0
VERTEX
  5
27F
330
279
100
AcDbEntity
  8
GAIKEI
  6
Continuous
370
     0
100
AcDbVertex
100
AcDb2dVertex
 10
24.03288449463508
 20
12.44511358582574
 30
0.0
  0
SEQEND
  5
280
330
279
100
AcDbEntity
  8
GAIKEI
  6
Continuous
370
     0
  0
ARC
  5
281
330
2
100
AcDbEntity
  8
GAIKEI
  6
Continuous
370
    40
100
AcDbCircle
 10
23.20097536963507
 20
13.48764933582575
 30
0.0
 40
1.33376325
100
AcDbArc
 50
308.588732
 51
314.6649059999987
  0
ARC
  5
282
330
2
100
AcDbEntity
  8
GAIKEI
  6
Continuous
370
    40
100
AcDbCircle
 10
22.54286761963507
 20
15.09929033582577
 30
0.0
 40
4.676397
100
AcDbArc
 50
208.7896109999994
 51
210.4381180000006
  0
POLYLINE
  5
283
330
2
100
AcDbEntity
  8
GAIKEI
  6
Continuous
370
    40
100
AcDb2dPolyline
 66
     1
 10
0.0
 20
0.0
 30
0.0
  0
VERTEX
  5
284
330
283
100
AcDbEntity
  8
GAIKEI
  6
Continuous
370
     0
100
AcDbVertex
100
AcDb2dVertex
 10
16.82440361963509
 20
21.83334108582577
 30
0.0
  0
VERTEX
  5
285
330
283
100
AcDbEntity
  8
GAIKEI
  6
Continuous
370
     0
100
AcDbVertex
100
AcDb2dVertex
 10
16.93353074463508
 20
21.76760621082573
 30
0.0
  0
VERTEX
  5
286
330
283
100
AcDbEntity
  8
GAIKEI
  6
Continuous
370
     0
100
AcDbVertex
100
AcDb2dVertex
 10
17.04020874463509
 20
21.69787358582576
 30
0.0
  0
VERTEX
  5
287
330
283
100
AcDbEntity
  8
GAIKEI
  6
Continuous
370
     0
100
AcDbVertex
100
AcDb2dVertex
 10
17.14444536963509
 20
21.62416221082574
 30
0.0
  0
VERTEX
  5
288
330
283
100
AcDbEntity
  8
GAIKEI
  6
Continuous
370
     0
100
AcDbVertex
100
AcDb2dVertex
 10
17.24619474463509
 20
21.54646821082573
 30
0.0
  0
VERTEX
  5
289
330
283
100
AcDbEntity
  8
GAIKEI
  6
Continuous
370
     0
100
AcDbVertex
100
AcDb2dVertex
 10
17.34537686963509
 20
21.46475733582574
 30
0.0
  0
VERTEX
  5
28A
330
283
100
AcDbEntity
  8
GAIKEI
  6
Continuous
370
     0
100
AcDbVertex
100
AcDb2dVertex
 10
17.44185824463508
 20
21.37895721082575
 30
0.0
  0
VERTEX
  5
28B
330
283
100
AcDbEntity
  8
GAIKEI
  6
Continuous
370
     0
100
AcDbVertex
100
AcDb2dVertex
 10
17.53544036963508
 20
21.28897608582574
 30
0.0
  0
VERTEX
  5
28C
330
283
100
AcDbEntity
  8
GAIKEI
  6
Continuous
370
     0
100
AcDbVertex
100
AcDb2dVertex
 10
17.62584861963509
 20
21.19469971082574
 30
0.0
  0
VERTEX
  5
28D
330
283
100
AcDbEntity
  8
GAIKEI
  6
Continuous
370
     0
100
AcDbVertex
100
AcDb2dVertex
 10
17.69499011963508
 20
21.11686846082577
 30
0.0
  0
VERTEX
  5
28E
330
283
100
AcDbEntity
  8
GAIKEI
  6
Continuous
370
     0
100
AcDbVertex
100
AcDb2dVertex
 10
17.76169386963508
 20
21.03616471082577
 30
0.0
  0
VERTEX
  5
28F
330
283
100
AcDbEntity
  8
GAIKEI
  6
Continuous
370
     0
100
AcDbVertex
100
AcDb2dVertex
 10
17.81073174463509
 20
20.97267671082577
 30
0.0
  0
VERTEX
  5
290
330
283
100
AcDbEntity
  8
GAIKEI
  6
Continuous
370
     0
100
AcDbVertex
100
AcDb2dVertex
 10
17.85803786963508
 20
20.90746446082576
 30
0.0
  0
VERTEX
  5
291
330
283
100
AcDbEntity
  8
GAIKEI
  6
Continuous
370
     0
100
AcDbVertex
100
AcDb2dVertex
 10
17.90342124463508
 20
20.84050883582577
 30
0.0
  0
VERTEX
  5
292
330
283
100
AcDbEntity
  8
GAIKEI
  6
Continuous
370
     0
100
AcDbVertex
100
AcDb2dVertex
 10
17.94668374463509
 20
20.77181758582574
 30
0.0
  0
SEQEND
  5
293
330
283
100
AcDbEntity
  8
GAIKEI
  6
Continuous
370
     0
  0
ARC
  5
294
330
2
100
AcDbEntity
  8
GAIKEI
  6
Continuous
370
    40
100
AcDbCircle
 10
15.05956449463508
 20
13.57394733582575
 30
0.0
 40
3.29599675
100
AcDbArc
 50
355.9353839999994
 51
359.9962199999995
  0
POLYLINE
  5
295
330
2
100
AcDbEntity
  8
GAIKEI
  6
Continuous
370
    40
100
AcDb2dPolyline
 66
     1
 10
0.0
 20
0.0
 30
0.0
  0
VERTEX
  5
296
330
295
100
AcDbEntity
  8
GAIKEI
  6
Continuous
370
     0
100
AcDbVertex
100
AcDb2dVertex
 10
18.44450174463509
 20
12.84716171082576
 30
0.0
  0
VERTEX
  5
297
330
295
100
AcDbEntity
  8
GAIKEI
  6
Continuous
370
     0
100
AcDbVertex
100
AcDb2dVertex
 10
18.41206536963509
 20
12.91393996082578
 30
0.0
  0
VERTEX
  5
298
330
295
100
AcDbEntity
  8
GAIKEI
  6
Continuous
370
     0
100
AcDbVertex
100
AcDb2dVertex
 10
18.38799461963509
 20
12.97819658582577
 30
0.0
  0
VERTEX
  5
299
330
295
100
AcDbEntity
  8
GAIKEI
  6
Continuous
370
     0
100
AcDbVertex
100
AcDb2dVertex
 10
18.36808961963508
 20
13.05012646082573
 30
0.0
  0
VERTEX
  5
29A
330
295
100
AcDbEntity
  8
GAIKEI
  6
Continuous
370
     0
100
AcDbVertex
100
AcDb2dVertex
 10
18.35445199463508
 20
13.12342971082577
 30
0.0
  0
VERTEX
  5
29B
330
295
100
AcDbEntity
  8
GAIKEI
  6
Continuous
370
     0
100
AcDbVertex
100
AcDb2dVertex
 10
18.34672349463508
 20
13.19773433582574
 30
0.0
  0
VERTEX
  5
29C
330
295
100
AcDbEntity
  8
GAIKEI
  6
Continuous
370
     0
100
AcDbVertex
100
AcDb2dVertex
 10
18.34457199463509
 20
13.26903483582575
 30
0.0
  0
VERTEX
  5
29D
330
295
100
AcDbEntity
  8
GAIKEI
  6
Continuous
370
     0
100
AcDbVertex
100
AcDb2dVertex
 10
18.34727274463509
 20
13.34032196082577
 30
0.0
  0
SEQEND
  5
29E
330
295
100
AcDbEntity
  8
GAIKEI
  6
Continuous
370
     0
  0
POLYLINE
  5
29F
330
2
100
AcDbEntity
  8
GAIKEI
  6
Continuous
370
    40
100
AcDb2dPolyline
 66
     1
 10
0.0
 20
0.0
 30
0.0
  0
VERTEX
  5
2A0
330
29F
100
AcDbEntity
  8
GAIKEI
  6
Continuous
370
     0
100
AcDbVertex
100
AcDb2dVertex
 10
17.94668374463509
 20
20.77181758582574
 30
0.0
  0
VERTEX
  5
2A1
330
29F
100
AcDbEntity
  8
GAIKEI
  6
Continuous
370
     0
100
AcDbVertex
100
AcDb2dVertex
 10
18.02037611963509
 20
20.64281596082574
 30
0.0
  0
VERTEX
  5
2A2
330
29F
100
AcDbEntity
  8
GAIKEI
  6
Continuous
370
     0
100
AcDbVertex
100
AcDb2dVertex
 10
18.08731636963509
 20
20.51037358582576
 30
0.0
  0
VERTEX
  5
2A3
330
29F
100
AcDbEntity
  8
GAIKEI
  6
Continuous
370
     0
100
AcDbVertex
100
AcDb2dVertex
 10
18.14797011963509
 20
20.37321608582576
 30
0.0
  0
VERTEX
  5
2A4
330
29F
100
AcDbEntity
  8
GAIKEI
  6
Continuous
370
     0
100
AcDbVertex
100
AcDb2dVertex
 10
18.18898949463508
 20
20.26759096082574
 30
0.0
  0
VERTEX
  5
2A5
330
29F
100
AcDbEntity
  8
GAIKEI
  6
Continuous
370
     0
100
AcDbVertex
100
AcDb2dVertex
 10
18.22915061963508
 20
20.14978171082575
 30
0.0
  0
VERTEX
  5
2A6
330
29F
100
AcDbEntity
  8
GAIKEI
  6
Continuous
370
     0
100
AcDbVertex
100
AcDb2dVertex
 10
18.26407799463509
 20
20.03019471082578
 30
0.0
  0
VERTEX
  5
2A7
330
29F
100
AcDbEntity
  8
GAIKEI
  6
Continuous
370
     0
100
AcDbVertex
100
AcDb2dVertex
 10
18.29363436963508
 20
19.90897508582574
 30
0.0
  0
VERTEX
  5
2A8
330
29F
100
AcDbEntity
  8
GAIKEI
  6
Continuous
370
     0
100
AcDbVertex
100
AcDb2dVertex
 10
18.31766311963508
 20
19.78626771082574
 30
0.0
  0
VERTEX
  5
2A9
330
29F
100
AcDbEntity
  8
GAIKEI
  6
Continuous
370
     0
100
AcDbVertex
100
AcDb2dVertex
 10
18.33598886963509
 20
19.66224433582576
 30
0.0
  0
VERTEX
  5
2AA
330
29F
100
AcDbEntity
  8
GAIKEI
  6
Continuous
370
     0
100
AcDbVertex
100
AcDb2dVertex
 10
18.34842486963509
 20
19.53706883582575
 30
0.0
  0
VERTEX
  5
2AB
330
29F
100
AcDbEntity
  8
GAIKEI
  6
Continuous
370
     0
100
AcDbVertex
100
AcDb2dVertex
 10
18.35475724463508
 20
19.41093583582577
 30
0.0
  0
VERTEX
  5
2AC
330
29F
100
AcDbEntity
  8
GAIKEI
  6
Continuous
370
     0
100
AcDbVertex
100
AcDb2dVertex
 10
18.35555824463509
 20
19.34757758582574
 30
0.0
  0
SEQEND
  5
2AD
330
29F
100
AcDbEntity
  8
GAIKEI
  6
Continuous
370
     0
  0
LINE
  5
2AE
330
2
100
AcDbEntity
  8
GAIKEI
  6
Continuous
370
    40
100
AcDbLine
 10
18.35555824463509
 20
13.57372996082577
 30
0.0
 11
18.35555824463509
 21
19.34757758582574
 31
0.0
  0
LINE
  5
2AF
330
2
100
AcDbEntity
  8
GAIKEI
  6
Continuous
 48
0.006403
370
    40
100
AcDbLine
 10
24.45201674463509
 20
21.23209133582574
 30
0.0
 11
24.45201674463509
 21
21.20007846082578
 31
0.0
  0
LINE
  5
2B0
330
2
100
AcDbEntity
  8
GAIKEI
  6
Continuous
 48
0.035514
370
    40
100
AcDbLine
 10
24.45201674463509
 20
21.40966171082576
 30
0.0
 11
24.45201674463509
 21
21.23209133582574
 31
0.0
  0
ARC
  5
2B1
330
2
100
AcDbEntity
  8
GAIKEI
  6
Continuous
370
    40
100
AcDbCircle
 10
22.80201524463508
 20
21.40966171082576
 30
0.0
 40
1.65000025
100
AcDbArc
 50
0.0
 51
41.01850299999973
  0
POLYLINE
  5
2B2
330
2
100
AcDbEntity
  8
GAIKEI
  6
Continuous
 62
     1
370
    13
100
AcDb2dPolyline
 66
     1
 10
0.0
 20
0.0
 30
0.0
  0
VERTEX
  5
2B3
330
2B2
100
AcDbEntity
  8
GAIKEI
  6
Continuous
 62
     1
370
     0
100
AcDbVertex
100
AcDb2dVertex
 10
24.04693399463508
 20
20.69371558582574
 30
0.0
  0
VERTEX
  5
2B4
330
2B2
100
AcDbEntity
  8
GAIKEI
  6
Continuous
 62
     1
370
     0
100
AcDbVertex
100
AcDb2dVertex
 10
24.43385499463508
 20
20.69365833582574
 30
0.0
  0
VERTEX
  5
2B5
330
2B2
100
AcDbEntity
  8
GAIKEI
  6
Continuous
 62
     1
370
     0
100
AcDbVertex
100
AcDb2dVertex
 10
24.43493836963509
 20
20.69356296082574
 30
0.0
  0
VERTEX
  5
2B6
330
2B2
100
AcDbEntity
  8
GAIKEI
  6
Continuous
 62
     1
370
     0
100
AcDbVertex
100
AcDb2dVertex
 10
24.43598736963509
 20
20.69365071082578
 30
0.0
  0
VERTEX
  5
2B7
330
2B2
100
AcDbEntity
  8
GAIKEI
  6
Continuous
 62
     1
370
     0
100
AcDbVertex
100
AcDb2dVertex
 10
24.43700211963508
 20
20.69365446082574
 30
0.0
  0
VERTEX
  5
2B8
330
2B2
100
AcDbEntity
  8
GAIKEI
  6
Continuous
 62
     1
370
     0
100
AcDbVertex
100
AcDb2dVertex
 10
24.4471682446351
 20
20.69363546082579
 30
0.0
  0
VERTEX
  5
2B9
330
2B2
100
AcDbEntity
  8
GAIKEI
  6
Continuous
 62
     1
370
     0
100
AcDbVertex
100
AcDb2dVertex
 10
24.44753824463508
 20
20.69357433582579
 30
0.0
  0
VERTEX
  5
2BA
330
2B2
100
AcDbEntity
  8
GAIKEI
  6
Continuous
 62
     1
370
     0
100
AcDbVertex
100
AcDb2dVertex
 10
24.4479846196351
 20
20.69357058582577
 30
0.0
  0
VERTEX
  5
2BB
330
2B2
100
AcDbEntity
  8
GAIKEI
  6
Continuous
 62
     1
370
     0
100
AcDbVertex
100
AcDb2dVertex
 10
24.44869411963508
 20
20.69362783582576
 30
0.0
  0
VERTEX
  5
2BC
330
2B2
100
AcDbEntity
  8
GAIKEI
  6
Continuous
 62
     1
370
     0
100
AcDbVertex
100
AcDb2dVertex
 10
24.45201674463509
 20
20.69351333582577
 30
0.0
  0
SEQEND
  5
2BD
330
2B2
100
AcDbEntity
  8
GAIKEI
  6
Continuous
 62
     1
370
     0
  0
POLYLINE
  5
2BE
330
2
100
AcDbEntity
  8
GAIKEI
  6
Continuous
 62
     1
370
    13
100
AcDb2dPolyline
 66
     1
 10
0.0
 20
0.0
 30
0.0
  0
VERTEX
  5
2BF
330
2BE
100
AcDbEntity
  8
GAIKEI
  6
Continuous
 62
     1
370
     0
100
AcDbVertex
100
AcDb2dVertex
 10
24.04693024463509
 20
20.69622558582577
 30
0.0
  0
VERTEX
  5
2C0
330
2BE
100
AcDbEntity
  8
GAIKEI
  6
Continuous
 62
     1
370
     0
100
AcDbVertex
100
AcDb2dVertex
 10
24.04583161963508
 20
21.90778871082577
 30
0.0
  0
VERTEX
  5
2C1
330
2BE
100
AcDbEntity
  8
GAIKEI
  6
Continuous
 62
     1
370
     0
100
AcDbVertex
100
AcDb2dVertex
 10
24.04644574463508
 20
22.46008821082577
 30
0.0
  0
VERTEX
  5
2C2
330
2BE
100
AcDbEntity
  8
GAIKEI
  6
Continuous
 62
     1
370
     0
100
AcDbVertex
100
AcDb2dVertex
 10
24.04687686963509
 20
22.49216221082574
 30
0.0
  0
VERTEX
  5
2C3
330
2BE
100
AcDbEntity
  8
GAIKEI
  6
Continuous
 62
     1
370
     0
100
AcDbVertex
100
AcDb2dVertex
 10
24.04693399463508
 20
22.49255896082579
 30
0.0
  0
SEQEND
  5
2C4
330
2BE
100
AcDbEntity
  8
GAIKEI
  6
Continuous
 62
     1
370
     0
  0
ARC
  5
2C5
330
2
100
AcDbEntity
  8
GAIKEI
  6
Continuous
370
    40
100
AcDbCircle
 10
23.82057374463508
 20
22.29564421082577
 30
0.0
 40
0.300024625
100
AcDbArc
 50
41.02061999999862
 51
88.99795200000061
  0
LINE
  5
2C6
330
2
100
AcDbEntity
  8
GAIKEI
  6
Continuous
 62
     1
 48
0.000502
370
    13
100
AcDbLine
 10
24.04693399463508
 20
20.69371558582574
 30
0.0
 11
24.04694549463509
 21
20.69622558582577
 31
0.0
  0
LINE
  5
2C7
330
2
100
AcDbEntity
  8
GAIKEI
  6
Continuous
 62
     1
 48
0.044222
370
    13
100
AcDbLine
 10
23.82581886963508
 20
20.69591283582574
 30
0.0
 11
24.04693024463509
 21
20.69622946082578
 31
0.0
  0
LINE
  5
2C8
330
2
100
AcDbEntity
  8
GAIKEI
  6
Continuous
 62
     1
370
    13
100
AcDbLine
 10
24.04693786963509
 20
20.69371558582574
 30
0.0
 11
24.04693786963509
 21
13.67048208582574
 31
0.0
  0
LINE
  5
2C9
330
2
100
AcDbEntity
  8
GAIKEI
  6
Continuous
 62
     1
 48
0.044223
370
    13
100
AcDbLine
 10
23.82581886963508
 20
20.69367733582575
 30
0.0
 11
24.04693399463508
 21
20.69371558582574
 31
0.0
  0
LINE
  5
2CA
330
2
100
AcDbEntity
  8
GAIKEI
  6
Continuous
 62
     1
 48
0.044223
370
    13
100
AcDbLine
 10
23.82582274463508
 20
13.67050496082575
 30
0.0
 11
24.04693786963509
 21
13.67050496082575
 31
0.0
  0
LINE
  5
2CB
330
2
100
AcDbEntity
  8
GAIKEI
  6
Continuous
 62
     1
 48
0.044222
370
    13
100
AcDbLine
 10
23.82582274463508
 20
13.66827146082576
 30
0.0
 11
24.04693399463508
 21
13.66796058582574
 31
0.0
  0
ARC
  5
2CC
330
2
100
AcDbEntity
  8
GAIKEI
  6
Continuous
 62
     1
370
    13
100
AcDbCircle
 10
952.7260341196351
 20
12.17821071082576
 30
0.0
 40
928.6802758749999
100
AcDbArc
 50
179.908084
 51
179.9813999999997
  0
LINE
  5
2CD
330
2
100
AcDbEntity
  8
GAIKEI
  6
Continuous
 62
     1
 48
0.000502
370
    13
100
AcDbLine
 10
24.04693399463508
 20
13.67046871082576
 30
0.0
 11
24.04694924463508
 21
13.66796058582574
 31
0.0
  0
LINE
  5
2CE
330
2
100
AcDbEntity
  8
GAIKEI
  6
Continuous
 62
     1
 48
0.06788
370
    13
100
AcDbLine
 10
24.04693786963509
 20
13.67048208582574
 30
0.0
 11
24.3863391196351
 21
13.67048208582574
 31
0.0
  0
LINE
  5
2CF
330
2
100
AcDbEntity
  8
GAIKEI
  6
Continuous
370
    40
100
AcDbLine
 10
24.45201674463509
 20
20.69360496082575
 30
0.0
 11
24.45201674463509
 21
15.27896258582578
 31
0.0
  0
LINE
  5
2D0
330
2
100
AcDbEntity
  8
GAIKEI
  6
Continuous
 48
0.143211
370
    40
100
AcDbLine
 10
24.45201674463509
 20
21.40966171082576
 30
0.0
 11
24.45201674463509
 21
20.69360496082575
 31
0.0
  0
LINE
  5
2D1
330
2
100
AcDbEntity
  8
GAIKEI
  6
Continuous
 48
0.000797
370
    13
100
AcDbLine
 10
24.39032161963508
 20
13.67053746082578
 30
0.0
 11
24.3863391196351
 21
13.67049733582578
 31
0.0
  0
LINE
  5
2D2
330
2
100
AcDbEntity
  8
GAIKEI
  6
Continuous
370
    40
100
AcDbLine
 10
23.82582274463508
 20
22.59562446082575
 30
0.0
 11
15.43796336963508
 21
22.74203246082576
 31
0.0
  0
POLYLINE
  5
2D3
330
2
100
AcDbEntity
  8
GAIKEI
  6
Continuous
 62
     1
370
    13
100
AcDb2dPolyline
 66
     1
 10
0.0
 20
0.0
 30
0.0
  0
VERTEX
  5
2D4
330
2D3
100
AcDbEntity
  8
GAIKEI
  6
Continuous
 62
     1
370
     0
100
AcDbVertex
100
AcDb2dVertex
 10
23.82581886963508
 20
20.69591283582574
 30
0.0
  0
VERTEX
  5
2D5
330
2D3
100
AcDbEntity
  8
GAIKEI
  6
Continuous
 62
     1
370
     0
100
AcDbVertex
100
AcDb2dVertex
 10
23.82703199463509
 20
21.86929083582575
 30
0.0
  0
VERTEX
  5
2D6
330
2D3
100
AcDbEntity
  8
GAIKEI
  6
Continuous
 62
     1
370
     0
100
AcDbVertex
100
AcDb2dVertex
 10
23.82692136963509
 20
22.33986421082577
 30
0.0
  0
VERTEX
  5
2D7
330
2D3
100
AcDbEntity
  8
GAIKEI
  6
Continuous
 62
     1
370
     0
100
AcDbVertex
100
AcDb2dVertex
 10
23.82612786963509
 20
22.58466096082575
 30
0.0
  0
VERTEX
  5
2D8
330
2D3
100
AcDbEntity
  8
GAIKEI
  6
Continuous
 62
     1
370
     0
100
AcDbVertex
100
AcDb2dVertex
 10
23.82592949463509
 20
22.59439983582578
 30
0.0
  0
VERTEX
  5
2D9
330
2D3
100
AcDbEntity
  8
GAIKEI
  6
Continuous
 62
     1
370
     0
100
AcDbVertex
100
AcDb2dVertex
 10
23.82585711963509
 20
22.59548708582574
 30
0.0
  0
VERTEX
  5
2DA
330
2D3
100
AcDbEntity
  8
GAIKEI
  6
Continuous
 62
     1
370
     0
100
AcDbVertex
100
AcDb2dVertex
 10
23.82582274463508
 20
22.59562446082575
 30
0.0
  0
SEQEND
  5
2DB
330
2D3
100
AcDbEntity
  8
GAIKEI
  6
Continuous
 62
     1
370
     0
  0
ARC
  5
2DC
330
2
100
AcDbEntity
  8
GAIKEI
  6
Continuous
 62
     1
370
    13
100
AcDbCircle
 10
-1686.618143130365
 20
-2852.038931414175
 30
0.0
 40
3340.86246
100
AcDbArc
 50
59.34224799999989
 51
59.37172000000074
  0
ARC
  5
2DD
330
2
100
AcDbEntity
  8
GAIKEI
  6
Continuous
370
    40
100
AcDbCircle
 10
15.43708986963508
 20
22.69204083582573
 30
0.0
 40
0.05
100
AcDbArc
 50
89.00000100000212
 51
239.9999970000012
  0
LINE
  5
2DE
330
2
100
AcDbEntity
  8
GAIKEI
  6
Continuous
 62
     1
370
    13
100
AcDbLine
 10
23.82581886963508
 20
20.69591283582574
 30
0.0
 11
18.06109036963508
 21
20.79653683582578
 31
0.0
  0
LINE
  5
2DF
330
2
100
AcDbEntity
  8
GAIKEI
  6
Continuous
 62
     1
 48
0.000447
370
    13
100
AcDbLine
 10
23.82581886963508
 20
20.69367733582575
 30
0.0
 11
23.82581886963508
 21
20.69591283582574
 31
0.0
  0
LINE
  5
2E0
330
2
100
AcDbEntity
  8
GAIKEI
  6
Continuous
 62
     1
370
    13
100
AcDbLine
 10
23.82582274463508
 20
13.67050496082575
 30
0.0
 11
23.82582274463508
 21
20.69370021082577
 31
0.0
  0
LINE
  5
2E1
330
2
100
AcDbEntity
  8
GAIKEI
  6
Continuous
 62
     1
 48
0.000447
370
    13
100
AcDbLine
 10
23.82582274463508
 20
13.67050496082575
 30
0.0
 11
23.82582274463508
 21
13.66827146082576
 31
0.0
  0
LINE
  5
2E2
330
2
100
AcDbEntity
  8
GAIKEI
  6
Continuous
 62
     1
370
    13
100
AcDbLine
 10
23.82582274463508
 20
13.66827146082576
 30
0.0
 11
18.53162186963507
 21
13.57586046082573
 31
0.0
  0
ARC
  5
2E3
330
2
100
AcDbEntity
  8
GAIKEI
  6
Continuous
 62
     1
370
    13
100
AcDbCircle
 10
-926.638895130365
 20
12.09454296082575
 30
0.0
 40
950.4661213750001
100
AcDbArc
 50
0.0190370000003882
 51
0.0948669999995365
  0
LINE
  5
2E4
330
2
100
AcDbEntity
  8
GAIKEI
  6
Continuous
 62
     1
 48
0.005072
370
    13
100
AcDbLine
 10
18.51056474463507
 20
13.17614508582577
 30
0.0
 11
18.51277724463509
 21
13.20140596082578
 31
0.0
  0
POLYLINE
  5
2E5
330
2
100
AcDbEntity
  8
GAIKEI
  6
Continuous
 62
     1
370
    13
100
AcDb2dPolyline
 66
     1
 10
0.0
 20
0.0
 30
0.0
  0
VERTEX
  5
2E6
330
2E5
100
AcDbEntity
  8
GAIKEI
  6
Continuous
 62
     1
370
     0
100
AcDbVertex
100
AcDb2dVertex
 10
18.51056474463507
 20
13.17614508582577
 30
0.0
  0
VERTEX
  5
2E7
330
2E5
100
AcDbEntity
  8
GAIKEI
  6
Continuous
 62
     1
370
     0
100
AcDbVertex
100
AcDb2dVertex
 10
18.50824536963509
 20
13.09472983582574
 30
0.0
  0
VERTEX
  5
2E8
330
2E5
100
AcDbEntity
  8
GAIKEI
  6
Continuous
 62
     1
370
     0
100
AcDbVertex
100
AcDb2dVertex
 10
18.51331511963508
 20
13.01456596082576
 30
0.0
  0
VERTEX
  5
2E9
330
2E5
100
AcDbEntity
  8
GAIKEI
  6
Continuous
 62
     1
370
     0
100
AcDbVertex
100
AcDb2dVertex
 10
18.52586161963509
 20
12.93616821082574
 30
0.0
  0
VERTEX
  5
2EA
330
2E5
100
AcDbEntity
  8
GAIKEI
  6
Continuous
 62
     1
370
     0
100
AcDbVertex
100
AcDb2dVertex
 10
18.53499786963508
 20
12.89781333582576
 30
0.0
  0
VERTEX
  5
2EB
330
2E5
100
AcDbEntity
  8
GAIKEI
  6
Continuous
 62
     1
370
     0
100
AcDbVertex
100
AcDb2dVertex
 10
18.54607574463509
 20
12.86012408582573
 30
0.0
  0
VERTEX
  5
2EC
330
2E5
100
AcDbEntity
  8
GAIKEI
  6
Continuous
 62
     1
370
     0
100
AcDbVertex
100
AcDb2dVertex
 10
18.56392849463509
 20
12.81105746082576
 30
0.0
  0
VERTEX
  5
2ED
330
2E5
100
AcDbEntity
  8
GAIKEI
  6
Continuous
 62
     1
370
     0
100
AcDbVertex
100
AcDb2dVertex
 10
18.58535561963509
 20
12.76354933582579
 30
0.0
  0
VERTEX
  5
2EE
330
2E5
100
AcDbEntity
  8
GAIKEI
  6
Continuous
 62
     1
370
     0
100
AcDbVertex
100
AcDb2dVertex
 10
18.61042199463509
 20
12.71783396082574
 30
0.0
  0
VERTEX
  5
2EF
330
2E5
100
AcDbEntity
  8
GAIKEI
  6
Continuous
 62
     1
370
     0
100
AcDbVertex
100
AcDb2dVertex
 10
18.6500948696351
 20
12.65942908582573
 30
0.0
  0
VERTEX
  5
2F0
330
2E5
100
AcDbEntity
  8
GAIKEI
  6
Continuous
 62
     1
370
     0
100
AcDbVertex
100
AcDb2dVertex
 10
18.67241086963509
 20
12.63187933582574
 30
0.0
  0
VERTEX
  5
2F1
330
2E5
100
AcDbEntity
  8
GAIKEI
  6
Continuous
 62
     1
370
     0
100
AcDbVertex
100
AcDb2dVertex
 10
18.69634049463508
 20
12.60555221082578
 30
0.0
  0
VERTEX
  5
2F2
330
2E5
100
AcDbEntity
  8
GAIKEI
  6
Continuous
 62
     1
370
     0
100
AcDbVertex
100
AcDb2dVertex
 10
18.73068036963508
 20
12.57249783582577
 30
0.0
  0
VERTEX
  5
2F3
330
2E5
100
AcDbEntity
  8
GAIKEI
  6
Continuous
 62
     1
370
     0
100
AcDbVertex
100
AcDb2dVertex
 10
18.76767911963509
 20
12.54194583582577
 30
0.0
  0
VERTEX
  5
2F4
330
2E5
100
AcDbEntity
  8
GAIKEI
  6
Continuous
 62
     1
370
     0
100
AcDbVertex
100
AcDb2dVertex
 10
18.80716886963509
 20
12.51405858582578
 30
0.0
  0
VERTEX
  5
2F5
330
2E5
100
AcDbEntity
  8
GAIKEI
  6
Continuous
 62
     1
370
     0
100
AcDbVertex
100
AcDb2dVertex
 10
18.83828911963508
 20
12.49497171082575
 30
0.0
  0
VERTEX
  5
2F6
330
2E5
100
AcDbEntity
  8
GAIKEI
  6
Continuous
 62
     1
370
     0
100
AcDbVertex
100
AcDb2dVertex
 10
18.87058824463508
 20
12.47750608582575
 30
0.0
  0
VERTEX
  5
2F7
330
2E5
100
AcDbEntity
  8
GAIKEI
  6
Continuous
 62
     1
370
     0
100
AcDbVertex
100
AcDb2dVertex
 10
18.92768274463509
 20
12.45169783582574
 30
0.0
  0
VERTEX
  5
2F8
330
2E5
100
AcDbEntity
  8
GAIKEI
  6
Continuous
 62
     1
370
     0
100
AcDbVertex
100
AcDb2dVertex
 10
18.98723399463509
 20
12.43073983582579
 30
0.0
  0
VERTEX
  5
2F9
330
2E5
100
AcDbEntity
  8
GAIKEI
  6
Continuous
 62
     1
370
     0
100
AcDbVertex
100
AcDb2dVertex
 10
19.04863161963509
 20
12.41465133582577
 30
0.0
  0
VERTEX
  5
2FA
330
2E5
100
AcDbEntity
  8
GAIKEI
  6
Continuous
 62
     1
370
     0
100
AcDbVertex
100
AcDb2dVertex
 10
19.11124599463508
 20
12.40339996082574
 30
0.0
  0
VERTEX
  5
2FB
330
2E5
100
AcDbEntity
  8
GAIKEI
  6
Continuous
 62
     1
370
     0
100
AcDbVertex
100
AcDb2dVertex
 10
19.17266261963508
 20
12.39702558582578
 30
0.0
  0
VERTEX
  5
2FC
330
2E5
100
AcDbEntity
  8
GAIKEI
  6
Continuous
 62
     1
370
     0
100
AcDbVertex
100
AcDb2dVertex
 10
19.23402961963509
 20
12.39504958582577
 30
0.0
  0
SEQEND
  5
2FD
330
2E5
100
AcDbEntity
  8
GAIKEI
  6
Continuous
 62
     1
370
     0
  0
ARC
  5
2FE
330
2
100
AcDbEntity
  8
GAIKEI
  6
Continuous
 62
     1
370
    13
100
AcDbCircle
 10
-4.530824755364918
 20
7840.810677960826
 30
0.0
 40
7828.452476125001
100
AcDbArc
 50
270.1739349999991
 51
270.207546000002
  0
POLYLINE
  5
2FF
330
2
100
AcDbEntity
  8
GAIKEI
  6
Continuous
 62
     1
370
    13
100
AcDb2dPolyline
 66
     1
 10
0.0
 20
0.0
 30
0.0
  0
VERTEX
  5
300
330
2FF
100
AcDbEntity
  8
GAIKEI
  6
Continuous
 62
     1
370
     0
100
AcDbVertex
100
AcDb2dVertex
 10
19.23195449463509
 20
12.35787721082576
 30
0.0
  0
VERTEX
  5
301
330
2FF
100
AcDbEntity
  8
GAIKEI
  6
Continuous
 62
     1
370
     0
100
AcDbVertex
100
AcDb2dVertex
 10
19.23205749463508
 20
12.35794208582578
 30
0.0
  0
VERTEX
  5
302
330
2FF
100
AcDbEntity
  8
GAIKEI
  6
Continuous
 62
     1
370
     0
100
AcDbVertex
100
AcDb2dVertex
 10
19.23212236963508
 20
12.35805646082573
 30
0.0
  0
VERTEX
  5
303
330
2FF
100
AcDbEntity
  8
GAIKEI
  6
Continuous
 62
     1
370
     0
100
AcDbVertex
100
AcDb2dVertex
 10
19.23225586963508
 20
12.35845133582577
 30
0.0
  0
VERTEX
  5
304
330
2FF
100
AcDbEntity
  8
GAIKEI
  6
Continuous
 62
     1
370
     0
100
AcDbVertex
100
AcDb2dVertex
 10
19.23282036963508
 20
12.36281721082579
 30
0.0
  0
VERTEX
  5
305
330
2FF
100
AcDbEntity
  8
GAIKEI
  6
Continuous
 62
     1
370
     0
100
AcDbVertex
100
AcDb2dVertex
 10
19.23402961963509
 20
12.39504958582577
 30
0.0
  0
SEQEND
  5
306
330
2FF
100
AcDbEntity
  8
GAIKEI
  6
Continuous
 62
     1
370
     0
  0
POLYLINE
  5
307
330
2
100
AcDbEntity
  8
GAIKEI
  6
Continuous
 62
     1
370
    13
100
AcDb2dPolyline
 66
     1
 10
0.0
 20
0.0
 30
0.0
  0
VERTEX
  5
308
330
307
100
AcDbEntity
  8
GAIKEI
  6
Continuous
 62
     1
370
     0
100
AcDbVertex
100
AcDb2dVertex
 10
23.8250254946351
 20
12.37657683582577
 30
0.0
  0
VERTEX
  5
309
330
307
100
AcDbEntity
  8
GAIKEI
  6
Continuous
 62
     1
370
     0
100
AcDbVertex
100
AcDb2dVertex
 10
23.82515136963508
 20
12.37667221082577
 30
0.0
  0
VERTEX
  5
30A
330
307
100
AcDbEntity
  8
GAIKEI
  6
Continuous
 62
     1
370
     0
100
AcDbVertex
100
AcDb2dVertex
 10
23.82523524463508
 20
12.37684008582576
 30
0.0
  0
VERTEX
  5
30B
330
307
100
AcDbEntity
  8
GAIKEI
  6
Continuous
 62
     1
370
     0
100
AcDbVertex
100
AcDb2dVertex
 10
23.82539924463508
 20
12.37742758582575
 30
0.0
  0
VERTEX
  5
30C
330
307
100
AcDbEntity
  8
GAIKEI
  6
Continuous
 62
     1
370
     0
100
AcDbVertex
100
AcDb2dVertex
 10
23.82608211963509
 20
12.38387058582574
 30
0.0
  0
VERTEX
  5
30D
330
307
100
AcDbEntity
  8
GAIKEI
  6
Continuous
 62
     1
370
     0
100
AcDbVertex
100
AcDb2dVertex
 10
23.82705486963508
 20
12.41034071082575
 30
0.0
  0
SEQEND
  5
30E
330
307
100
AcDbEntity
  8
GAIKEI
  6
Continuous
 62
     1
370
     0
  0
POLYLINE
  5
30F
330
2
100
AcDbEntity
  8
GAIKEI
  6
Continuous
 62
     1
370
    13
100
AcDb2dPolyline
 66
     1
 10
0.0
 20
0.0
 30
0.0
  0
VERTEX
  5
310
330
30F
100
AcDbEntity
  8
GAIKEI
  6
Continuous
 62
     1
370
     0
100
AcDbVertex
100
AcDb2dVertex
 10
24.03288449463508
 20
12.44511358582574
 30
0.0
  0
VERTEX
  5
311
330
30F
100
AcDbEntity
  8
GAIKEI
  6
Continuous
 62
     1
370
     0
100
AcDbVertex
100
AcDb2dVertex
 10
24.0406359946351
 20
12.45441771082576
 30
0.0
  0
VERTEX
  5
312
330
30F
100
AcDbEntity
  8
GAIKEI
  6
Continuous
 62
     1
370
     0
100
AcDbVertex
100
AcDb2dVertex
 10
24.04491224463509
 20
12.46676008582577
 30
0.0
  0
VERTEX
  5
313
330
30F
100
AcDbEntity
  8
GAIKEI
  6
Continuous
 62
     1
370
     0
100
AcDbVertex
100
AcDb2dVertex
 10
24.04580874463508
 20
12.47970146082574
 30
0.0
  0
SEQEND
  5
314
330
30F
100
AcDbEntity
  8
GAIKEI
  6
Continuous
 62
     1
370
     0
  0
POLYLINE
  5
315
330
2
100
AcDbEntity
  8
GAIKEI
  6
Continuous
 62
     1
370
    13
100
AcDb2dPolyline
 66
     1
 10
0.0
 20
0.0
 30
0.0
  0
VERTEX
  5
316
330
315
100
AcDbEntity
  8
GAIKEI
  6
Continuous
 62
     1
370
     0
100
AcDbVertex
100
AcDb2dVertex
 10
18.06109036963508
 20
20.79653683582578
 30
0.0
  0
VERTEX
  5
317
330
315
100
AcDbEntity
  8
GAIKEI
  6
Continuous
 62
     1
370
     0
100
AcDbVertex
100
AcDb2dVertex
 10
17.99349011963508
 20
20.89730596082578
 30
0.0
  0
VERTEX
  5
318
330
315
100
AcDbEntity
  8
GAIKEI
  6
Continuous
 62
     1
370
     0
100
AcDbVertex
100
AcDb2dVertex
 10
17.92144199463509
 20
20.9945883358258
 30
0.0
  0
VERTEX
  5
319
330
315
100
AcDbEntity
  8
GAIKEI
  6
Continuous
 62
     1
370
     0
100
AcDbVertex
100
AcDb2dVertex
 10
17.84546461963508
 20
21.08840321082576
 30
0.0
  0
VERTEX
  5
31A
330
315
100
AcDbEntity
  8
GAIKEI
  6
Continuous
 62
     1
370
     0
100
AcDbVertex
100
AcDb2dVertex
 10
17.76601586963508
 20
21.17880008582577
 30
0.0
  0
VERTEX
  5
31B
330
315
100
AcDbEntity
  8
GAIKEI
  6
Continuous
 62
     1
370
     0
100
AcDbVertex
100
AcDb2dVertex
 10
17.71132461963509
 20
21.23720683582579
 30
0.0
  0
VERTEX
  5
31C
330
315
100
AcDbEntity
  8
GAIKEI
  6
Continuous
 62
     1
370
     0
100
AcDbVertex
100
AcDb2dVertex
 10
17.65537061963508
 20
21.29416033582575
 30
0.0
  0
VERTEX
  5
31D
330
315
100
AcDbEntity
  8
GAIKEI
  6
Continuous
 62
     1
370
     0
100
AcDbVertex
100
AcDb2dVertex
 10
17.54005611963509
 20
21.40381758582575
 30
0.0
  0
VERTEX
  5
31E
330
315
100
AcDbEntity
  8
GAIKEI
  6
Continuous
 62
     1
370
     0
100
AcDbVertex
100
AcDb2dVertex
 10
17.42069811963509
 20
21.50796646082577
 30
0.0
  0
VERTEX
  5
31F
330
315
100
AcDbEntity
  8
GAIKEI
  6
Continuous
 62
     1
370
     0
100
AcDbVertex
100
AcDb2dVertex
 10
17.29942499463507
 20
21.60546246082575
 30
0.0
  0
VERTEX
  5
320
330
315
100
AcDbEntity
  8
GAIKEI
  6
Continuous
 62
     1
370
     0
100
AcDbVertex
100
AcDb2dVertex
 10
17.17490186963508
 20
21.69779721082577
 30
0.0
  0
VERTEX
  5
321
330
315
100
AcDbEntity
  8
GAIKEI
  6
Continuous
 62
     1
370
     0
100
AcDbVertex
100
AcDb2dVertex
 10
17.04730411963508
 20
21.78479908582577
 30
0.0
  0
VERTEX
  5
322
330
315
100
AcDbEntity
  8
GAIKEI
  6
Continuous
 62
     1
370
     0
100
AcDbVertex
100
AcDb2dVertex
 10
16.91667361963508
 20
21.86611696082579
 30
0.0
  0
SEQEND
  5
323
330
315
100
AcDbEntity
  8
GAIKEI
  6
Continuous
 62
     1
370
     0
  0
POLYLINE
  5
324
330
2
100
AcDbEntity
  8
GAIKEI
  6
Continuous
 62
     1
370
    13
100
AcDb2dPolyline
 66
     1
 10
0.0
 20
0.0
 30
0.0
  0
VERTEX
  5
325
330
324
100
AcDbEntity
  8
GAIKEI
  6
Continuous
 62
     1
370
     0
100
AcDbVertex
100
AcDb2dVertex
 10
18.53162186963507
 20
19.27464808582576
 30
0.0
  0
VERTEX
  5
326
330
324
100
AcDbEntity
  8
GAIKEI
  6
Continuous
 62
     1
370
     0
100
AcDbVertex
100
AcDb2dVertex
 10
18.53062236963508
 20
19.34630346082574
 30
0.0
  0
VERTEX
  5
327
330
324
100
AcDbEntity
  8
GAIKEI
  6
Continuous
 62
     1
370
     0
100
AcDbVertex
100
AcDb2dVertex
 10
18.52763549463509
 20
19.41788621082574
 30
0.0
  0
VERTEX
  5
328
330
324
100
AcDbEntity
  8
GAIKEI
  6
Continuous
 62
     1
370
     0
100
AcDbVertex
100
AcDb2dVertex
 10
18.51577561963509
 20
19.56059021082578
 30
0.0
  0
VERTEX
  5
329
330
324
100
AcDbEntity
  8
GAIKEI
  6
Continuous
 62
     1
370
     0
100
AcDbVertex
100
AcDb2dVertex
 10
18.49620999463508
 20
19.70227183582577
 30
0.0
  0
VERTEX
  5
32A
330
324
100
AcDbEntity
  8
GAIKEI
  6
Continuous
 62
     1
370
     0
100
AcDbVertex
100
AcDb2dVertex
 10
18.4691294946351
 20
19.84249633582576
 30
0.0
  0
VERTEX
  5
32B
330
324
100
AcDbEntity
  8
GAIKEI
  6
Continuous
 62
     1
370
     0
100
AcDbVertex
100
AcDb2dVertex
 10
18.43473611963509
 20
19.98085921082574
 30
0.0
  0
VERTEX
  5
32C
330
324
100
AcDbEntity
  8
GAIKEI
  6
Continuous
 62
     1
370
     0
100
AcDbVertex
100
AcDb2dVertex
 10
18.39326274463508
 20
20.11701346082575
 30
0.0
  0
VERTEX
  5
32D
330
324
100
AcDbEntity
  8
GAIKEI
  6
Continuous
 62
     1
370
     0
100
AcDbVertex
100
AcDb2dVertex
 10
18.34494961963509
 20
20.25063846082574
 30
0.0
  0
VERTEX
  5
32E
330
324
100
AcDbEntity
  8
GAIKEI
  6
Continuous
 62
     1
370
     0
100
AcDbVertex
100
AcDb2dVertex
 10
18.29004086963507
 20
20.38145583582579
 30
0.0
  0
VERTEX
  5
32F
330
324
100
AcDbEntity
  8
GAIKEI
  6
Continuous
 62
     1
370
     0
100
AcDbVertex
100
AcDb2dVertex
 10
18.23914136963509
 20
20.48871371082575
 30
0.0
  0
VERTEX
  5
330
330
324
100
AcDbEntity
  8
GAIKEI
  6
Continuous
 62
     1
370
     0
100
AcDbVertex
100
AcDb2dVertex
 10
18.18392749463508
 20
20.59371321082577
 30
0.0
  0
VERTEX
  5
331
330
324
100
AcDbEntity
  8
GAIKEI
  6
Continuous
 62
     1
370
     0
100
AcDbVertex
100
AcDb2dVertex
 10
18.12453636963508
 20
20.69634771082573
 30
0.0
  0
VERTEX
  5
332
330
324
100
AcDbEntity
  8
GAIKEI
  6
Continuous
 62
     1
370
     0
100
AcDbVertex
100
AcDb2dVertex
 10
18.06109036963508
 20
20.79653683582578
 30
0.0
  0
SEQEND
  5
333
330
324
100
AcDbEntity
  8
GAIKEI
  6
Continuous
 62
     1
370
     0
  0
ARC
  5
334
330
2
100
AcDbEntity
  8
GAIKEI
  6
Continuous
 62
     1
370
    13
100
AcDbCircle
 10
16.25263774463508
 20
23.64873258582574
 30
0.0
 40
3.377171249999999
100
AcDbArc
 50
301.1363779999994
 51
302.3770540000001
  0
LINE
  5
335
330
2
100
AcDbEntity
  8
GAIKEI
  6
Continuous
 48
0.341415
370
    40
100
AcDbLine
 10
16.89046274463507
 20
21.79520171082575
 30
0.0
 11
15.41209211963507
 21
22.64874021082576
 31
0.0
  0
LINE
  5
336
330
2
100
AcDbEntity
  8
GAIKEI
  6
Continuous
 62
     1
370
    13
100
AcDbLine
 10
18.53162186963507
 20
13.57586046082573
 30
0.0
 11
18.53162186963507
 21
19.27464808582576
 31
0.0
  0
ARC
  5
337
330
2
100
AcDbEntity
  8
GAIKEI
  6
Continuous
 62
     1
370
    13
100
AcDbCircle
 10
14.85630974463508
 20
13.57322446082574
 30
0.0
 40
3.675316874999999
100
AcDbArc
 50
354.1936750000005
 51
0.0410949999991873
  0
LINE
  5
338
330
2
100
AcDbEntity
  8
GAIKEI
  6
Continuous
 62
     1
 48
0.017839
370
    13
100
AcDbLine
 10
18.44242661963508
 20
13.57586046082573
 30
0.0
 11
18.53162186963507
 21
13.57586046082573
 31
0.0
  0
LINE
  5
339
330
2
100
AcDbEntity
  8
GAIKEI
  6
Continuous
 62
     1
 48
0.005382
370
    13
100
AcDbLine
 10
18.41959186963508
 20
13.19437933582574
 30
0.0
 11
18.42284186963508
 21
13.22109171082579
 31
0.0
  0
POLYLINE
  5
33A
330
2
100
AcDbEntity
  8
GAIKEI
  6
Continuous
 62
     1
370
    13
100
AcDb2dPolyline
 66
     1
 10
0.0
 20
0.0
 30
0.0
  0
VERTEX
  5
33B
330
33A
100
AcDbEntity
  8
GAIKEI
  6
Continuous
 62
     1
370
     0
100
AcDbVertex
100
AcDb2dVertex
 10
18.41959186963508
 20
13.19437933582574
 30
0.0
  0
VERTEX
  5
33C
330
33A
100
AcDbEntity
  8
GAIKEI
  6
Continuous
 62
     1
370
     0
100
AcDbVertex
100
AcDb2dVertex
 10
18.41478149463509
 20
13.11520908582574
 30
0.0
  0
VERTEX
  5
33D
330
33A
100
AcDbEntity
  8
GAIKEI
  6
Continuous
 62
     1
370
     0
100
AcDbVertex
100
AcDb2dVertex
 10
18.41724199463508
 20
13.03725958582575
 30
0.0
  0
VERTEX
  5
33E
330
33A
100
AcDbEntity
  8
GAIKEI
  6
Continuous
 62
     1
370
     0
100
AcDbVertex
100
AcDb2dVertex
 10
18.42701899463509
 20
12.96088546082578
 30
0.0
  0
VERTEX
  5
33F
330
33A
100
AcDbEntity
  8
GAIKEI
  6
Continuous
 62
     1
370
     0
100
AcDbVertex
100
AcDb2dVertex
 10
18.43486586963507
 20
12.92269458582578
 30
0.0
  0
VERTEX
  5
340
330
33A
100
AcDbEntity
  8
GAIKEI
  6
Continuous
 62
     1
370
     0
100
AcDbVertex
100
AcDb2dVertex
 10
18.44468874463508
 20
12.88504933582575
 30
0.0
  0
VERTEX
  5
341
330
33A
100
AcDbEntity
  8
GAIKEI
  6
Continuous
 62
     1
370
     0
100
AcDbVertex
100
AcDb2dVertex
 10
18.45605649463507
 20
12.84936858582577
 30
0.0
  0
VERTEX
  5
342
330
33A
100
AcDbEntity
  8
GAIKEI
  6
Continuous
 62
     1
370
     0
100
AcDbVertex
100
AcDb2dVertex
 10
18.46933924463508
 20
12.81431333582574
 30
0.0
  0
VERTEX
  5
343
330
33A
100
AcDbEntity
  8
GAIKEI
  6
Continuous
 62
     1
370
     0
100
AcDbVertex
100
AcDb2dVertex
 10
18.48861874463509
 20
12.77162496082573
 30
0.0
  0
VERTEX
  5
344
330
33A
100
AcDbEntity
  8
GAIKEI
  6
Continuous
 62
     1
370
     0
100
AcDbVertex
100
AcDb2dVertex
 10
18.51098811963509
 20
12.73020121082575
 30
0.0
  0
SEQEND
  5
345
330
33A
100
AcDbEntity
  8
GAIKEI
  6
Continuous
 62
     1
370
     0
  0
POLYLINE
  5
346
330
2
100
AcDbEntity
  8
GAIKEI
  6
Continuous
 62
     1
370
    13
100
AcDb2dPolyline
 66
     1
 10
0.0
 20
0.0
 30
0.0
  0
VERTEX
  5
347
330
346
100
AcDbEntity
  8
GAIKEI
  6
Continuous
 62
     1
370
     0
100
AcDbVertex
100
AcDb2dVertex
 10
17.99887261963508
 20
20.75811146082575
 30
0.0
  0
VERTEX
  5
348
330
346
100
AcDbEntity
  8
GAIKEI
  6
Continuous
 62
     1
370
     0
100
AcDbVertex
100
AcDb2dVertex
 10
17.94216724463509
 20
20.84478133582579
 30
0.0
  0
VERTEX
  5
349
330
346
100
AcDbEntity
  8
GAIKEI
  6
Continuous
 62
     1
370
     0
100
AcDbVertex
100
AcDb2dVertex
 10
17.88194461963508
 20
20.92900983582578
 30
0.0
  0
VERTEX
  5
34A
330
346
100
AcDbEntity
  8
GAIKEI
  6
Continuous
 62
     1
370
     0
100
AcDbVertex
100
AcDb2dVertex
 10
17.81853661963508
 20
21.01078933582576
 30
0.0
  0
VERTEX
  5
34B
330
346
100
AcDbEntity
  8
GAIKEI
  6
Continuous
 62
     1
370
     0
100
AcDbVertex
100
AcDb2dVertex
 10
17.76905999463508
 20
21.07051221082574
 30
0.0
  0
VERTEX
  5
34C
330
346
100
AcDbEntity
  8
GAIKEI
  6
Continuous
 62
     1
370
     0
100
AcDbVertex
100
AcDb2dVertex
 10
17.71805749463507
 20
21.12885808582579
 30
0.0
  0
VERTEX
  5
34D
330
346
100
AcDbEntity
  8
GAIKEI
  6
Continuous
 62
     1
370
     0
100
AcDbVertex
100
AcDb2dVertex
 10
17.61182586963508
 20
21.24141071082576
 30
0.0
  0
VERTEX
  5
34E
330
346
100
AcDbEntity
  8
GAIKEI
  6
Continuous
 62
     1
370
     0
100
AcDbVertex
100
AcDb2dVertex
 10
17.50047861963509
 20
21.34844733582574
 30
0.0
  0
VERTEX
  5
34F
330
346
100
AcDbEntity
  8
GAIKEI
  6
Continuous
 62
     1
370
     0
100
AcDbVertex
100
AcDb2dVertex
 10
17.38454999463508
 20
21.44995633582576
 30
0.0
  0
VERTEX
  5
350
330
346
100
AcDbEntity
  8
GAIKEI
  6
Continuous
 62
     1
370
     0
100
AcDbVertex
100
AcDb2dVertex
 10
17.26620661963508
 20
21.54457608582575
 30
0.0
  0
VERTEX
  5
351
330
346
100
AcDbEntity
  8
GAIKEI
  6
Continuous
 62
     1
370
     0
100
AcDbVertex
100
AcDb2dVertex
 10
17.14422786963507
 20
21.63371421082579
 30
0.0
  0
VERTEX
  5
352
330
346
100
AcDbEntity
  8
GAIKEI
  6
Continuous
 62
     1
370
     0
100
AcDbVertex
100
AcDb2dVertex
 10
17.01890749463508
 20
21.71729421082577
 30
0.0
  0
VERTEX
  5
353
330
346
100
AcDbEntity
  8
GAIKEI
  6
Continuous
 62
     1
370
     0
100
AcDbVertex
100
AcDb2dVertex
 10
16.89046274463507
 20
21.79520171082575
 30
0.0
  0
SEQEND
  5
354
330
346
100
AcDbEntity
  8
GAIKEI
  6
Continuous
 62
     1
370
     0
  0
POLYLINE
  5
355
330
2
100
AcDbEntity
  8
GAIKEI
  6
Continuous
 62
     1
370
    13
100
AcDb2dPolyline
 66
     1
 10
0.0
 20
0.0
 30
0.0
  0
VERTEX
  5
356
330
355
100
AcDbEntity
  8
GAIKEI
  6
Continuous
 62
     1
370
     0
100
AcDbVertex
100
AcDb2dVertex
 10
18.44242661963508
 20
19.27464808582576
 30
0.0
  0
VERTEX
  5
357
330
355
100
AcDbEntity
  8
GAIKEI
  6
Continuous
 62
     1
370
     0
100
AcDbVertex
100
AcDb2dVertex
 10
18.43776499463509
 20
19.40995921082574
 30
0.0
  0
VERTEX
  5
358
330
355
100
AcDbEntity
  8
GAIKEI
  6
Continuous
 62
     1
370
     0
100
AcDbVertex
100
AcDb2dVertex
 10
18.42604624463509
 20
19.54481258582578
 30
0.0
  0
VERTEX
  5
359
330
355
100
AcDbEntity
  8
GAIKEI
  6
Continuous
 62
     1
370
     0
100
AcDbVertex
100
AcDb2dVertex
 10
18.40756024463508
 20
19.67881146082575
 30
0.0
  0
VERTEX
  5
35A
330
355
100
AcDbEntity
  8
GAIKEI
  6
Continuous
 62
     1
370
     0
100
AcDbVertex
100
AcDb2dVertex
 10
18.38257399463508
 20
19.81160496082575
 30
0.0
  0
VERTEX
  5
35B
330
355
100
AcDbEntity
  8
GAIKEI
  6
Continuous
 62
     1
370
     0
100
AcDbVertex
100
AcDb2dVertex
 10
18.35133161963509
 20
19.94289158582578
 30
0.0
  0
VERTEX
  5
35C
330
355
100
AcDbEntity
  8
GAIKEI
  6
Continuous
 62
     1
370
     0
100
AcDbVertex
100
AcDb2dVertex
 10
18.31405436963509
 20
20.07239671082576
 30
0.0
  0
VERTEX
  5
35D
330
355
100
AcDbEntity
  8
GAIKEI
  6
Continuous
 62
     1
370
     0
100
AcDbVertex
100
AcDb2dVertex
 10
18.27092536963508
 20
20.19988771082578
 30
0.0
  0
VERTEX
  5
35E
330
355
100
AcDbEntity
  8
GAIKEI
  6
Continuous
 62
     1
370
     0
100
AcDbVertex
100
AcDb2dVertex
 10
18.22590824463509
 20
20.31597271082578
 30
0.0
  0
VERTEX
  5
35F
330
355
100
AcDbEntity
  8
GAIKEI
  6
Continuous
 62
     1
370
     0
100
AcDbVertex
100
AcDb2dVertex
 10
18.17611111963509
 20
20.42997883582578
 30
0.0
  0
VERTEX
  5
360
330
355
100
AcDbEntity
  8
GAIKEI
  6
Continuous
 62
     1
370
     0
100
AcDbVertex
100
AcDb2dVertex
 10
18.12162961963508
 20
20.54176471082573
 30
0.0
  0
VERTEX
  5
361
330
355
100
AcDbEntity
  8
GAIKEI
  6
Continuous
 62
     1
370
     0
100
AcDbVertex
100
AcDb2dVertex
 10
18.06252849463509
 20
20.65118933582576
 30
0.0
  0
VERTEX
  5
362
330
355
100
AcDbEntity
  8
GAIKEI
  6
Continuous
 62
     1
370
     0
100
AcDbVertex
100
AcDb2dVertex
 10
17.99887261963508
 20
20.75811146082575
 30
0.0
  0
SEQEND
  5
363
330
355
100
AcDbEntity
  8
GAIKEI
  6
Continuous
 62
     1
370
     0
  0
LINE
  5
364
330
2
100
AcDbEntity
  8
GAIKEI
  6
Continuous
 62
     1
370
    13
100
AcDbLine
 10
18.44242661963508
 20
13.57586046082573
 30
0.0
 11
18.44242661963508
 21
19.27464808582576
 31
0.0
  0
ARC
  5
365
330
2
100
AcDbEntity
  8
GAIKEI
  6
Continuous
 62
     1
370
    13
100
AcDbCircle
 10
15.20761286963508
 20
13.57664058582574
 30
0.0
 40
3.234820374999999
100
AcDbArc
 50
353.6897259999995
 51
359.9861959999994
  0
LINE
  5
366
330
2
100
AcDbEntity
  8
GAIKEI
  6
Continuous
 48
0.00023
370
    13
100
AcDbLine
 10
17.94771374463508
 20
20.77232883582573
 30
0.0
 11
17.94668374463509
 21
20.77181758582574
 31
0.0
  0
LINE
  5
367
330
2
100
AcDbEntity
  8
GAIKEI
  6
Continuous
 48
0.01
370
    40
100
AcDbLine
 10
22.92201411963509
 20
12.25709096082576
 30
0.0
 11
22.87201486963508
 21
12.25709096082576
 31
0.0
  0
LINE
  5
368
330
2
100
AcDbEntity
  8
GAIKEI
  6
Continuous
370
    40
100
AcDbLine
 10
19.27201636963508
 20
12.18209208582576
 30
0.0
 11
22.87201486963508
 21
12.18209208582576
 31
0.0
  0
LINE
  5
369
330
2
100
AcDbEntity
  8
GAIKEI
  6
Continuous
 48
0.03808
370
    40
100
AcDbLine
 10
22.87201486963508
 20
12.37249133582574
 30
0.0
 11
22.87201486963508
 21
12.18209208582576
 31
0.0
  0
ARC
  5
36A
330
2
100
AcDbEntity
  8
GAIKEI
  6
Continuous
370
    40
100
AcDbCircle
 10
22.65279949463509
 20
12.50947708582575
 30
0.0
 40
0.1499995
100
AcDbArc
 50
273.0000009999998
 51
293.6240650000014
  0
ARC
  5
36B
330
2
100
AcDbEntity
  8
GAIKEI
  6
Continuous
370
    13
100
AcDbCircle
 10
22.57370936963508
 20
12.36967796082578
 30
0.0
 40
0.087553375
100
AcDbArc
 50
353.4409010000004
 51
1.290449000000071
  0
LINE
  5
36C
330
2
100
AcDbEntity
  8
GAIKEI
  6
Continuous
 62
     1
370
    40
100
AcDbLine
 10
19.27201636963508
 20
12.18209208582576
 30
0.0
 11
22.66065011963508
 21
12.35968346082578
 31
0.0
  0
LINE
  5
36D
330
2
100
AcDbEntity
  8
GAIKEI
  6
Continuous
 48
0.035195
370
    40
100
AcDbLine
 10
19.27201636963508
 20
12.35806796082576
 30
0.0
 11
19.27201636963508
 21
12.18209208582576
 31
0.0
  0
LINE
  5
36E
330
2
100
AcDbEntity
  8
GAIKEI
  6
Continuous
 48
0.057787
370
    40
100
AcDbLine
 10
17.88067811963509
 20
14.59153121082576
 30
0.0
 11
17.89251124463507
 21
14.30283683582579
 31
0.0
  0
ARC
  5
36F
330
2
100
AcDbEntity
  8
GAIKEI
  6
Continuous
370
    40
100
AcDbCircle
 10
49.25542249463508
 20
15.76672121082575
 30
0.0
 40
31.39678587500001
100
AcDbArc
 50
181.3333439999997
 51
182.1450979999997
  0
LINE
  5
370
330
2
100
AcDbEntity
  8
GAIKEI
  6
Continuous
 48
0.004399
370
    40
100
AcDbLine
 10
17.86707874463508
 20
15.03614758582577
 30
0.0
 11
17.86652936963509
 21
15.05813546082575
 31
0.0
  0
LINE
  5
371
330
2
100
AcDbEntity
  8
GAIKEI
  6
Continuous
 48
0.013066
370
    40
100
AcDbLine
 10
17.86652936963509
 20
15.05813546082575
 30
0.0
 11
17.86493099463507
 21
15.12344683582577
 31
0.0
  0
POLYLINE
  5
372
330
2
100
AcDbEntity
  8
GAIKEI
  6
Continuous
370
    40
100
AcDb2dPolyline
 66
     1
 10
0.0
 20
0.0
 30
0.0
  0
VERTEX
  5
373
330
372
100
AcDbEntity
  8
GAIKEI
  6
Continuous
370
     0
100
AcDbVertex
100
AcDb2dVertex
 10
17.86493099463507
 20
15.12344683582577
 30
0.0
  0
VERTEX
  5
374
330
372
100
AcDbEntity
  8
GAIKEI
  6
Continuous
370
     0
100
AcDbVertex
100
AcDb2dVertex
 10
17.84928311963509
 20
15.90621708582577
 30
0.0
  0
VERTEX
  5
375
330
372
100
AcDbEntity
  8
GAIKEI
  6
Continuous
370
     0
100
AcDbVertex
100
AcDb2dVertex
 10
17.8415011196351
 20
16.64208746082576
 30
0.0
  0
VERTEX
  5
376
330
372
100
AcDbEntity
  8
GAIKEI
  6
Continuous
370
     0
100
AcDbVertex
100
AcDb2dVertex
 10
17.84018124463509
 20
17.12240733582578
 30
0.0
  0
SEQEND
  5
377
330
372
100
AcDbEntity
  8
GAIKEI
  6
Continuous
370
     0
  0
LINE
  5
378
330
2
100
AcDbEntity
  8
GAIKEI
  6
Continuous
 48
0.000157
370
    40
100
AcDbLine
 10
17.84018124463509
 20
17.12240733582578
 30
0.0
 11
17.84018124463509
 21
17.12319321082574
 31
0.0
  0
LINE
  5
379
330
2
100
AcDbEntity
  8
GAIKEI
  6
Continuous
 48
0.02356
370
    40
100
AcDbLine
 10
17.84018124463509
 20
17.12319321082574
 30
0.0
 11
17.84018124463509
 21
17.24099108582575
 31
0.0
  0
LINE
  5
37A
330
2
100
AcDbEntity
  8
GAIKEI
  6
Continuous
 48
0.000157
370
    40
100
AcDbLine
 10
17.84018124463509
 20
17.24099108582575
 30
0.0
 11
17.84018124463509
 21
17.24177696082577
 31
0.0
  0
POLYLINE
  5
37B
330
2
100
AcDbEntity
  8
GAIKEI
  6
Continuous
370
    40
100
AcDb2dPolyline
 66
     1
 10
0.0
 20
0.0
 30
0.0
  0
VERTEX
  5
37C
330
37B
100
AcDbEntity
  8
GAIKEI
  6
Continuous
370
     0
100
AcDbVertex
100
AcDb2dVertex
 10
17.84018124463509
 20
17.24177696082577
 30
0.0
  0
VERTEX
  5
37D
330
37B
100
AcDbEntity
  8
GAIKEI
  6
Continuous
370
     0
100
AcDbVertex
100
AcDb2dVertex
 10
17.84325211963508
 20
17.96153021082577
 30
0.0
  0
VERTEX
  5
37E
330
37B
100
AcDbEntity
  8
GAIKEI
  6
Continuous
370
     0
100
AcDbVertex
100
AcDb2dVertex
 10
17.85359374463508
 20
18.71214808582576
 30
0.0
  0
VERTEX
  5
37F
330
37B
100
AcDbEntity
  8
GAIKEI
  6
Continuous
370
     0
100
AcDbVertex
100
AcDb2dVertex
 10
17.86493099463507
 20
19.24073546082579
 30
0.0
  0
SEQEND
  5
380
330
37B
100
AcDbEntity
  8
GAIKEI
  6
Continuous
370
     0
  0
LINE
  5
381
330
2
100
AcDbEntity
  8
GAIKEI
  6
Continuous
 48
0.013066
370
    40
100
AcDbLine
 10
17.86493099463507
 20
19.24073546082579
 30
0.0
 11
17.86652936963509
 21
19.30604696082579
 31
0.0
  0
LINE
  5
382
330
2
100
AcDbEntity
  8
GAIKEI
  6
Continuous
 48
0.0044
370
    40
100
AcDbLine
 10
17.86707874463508
 20
19.32803858582573
 30
0.0
 11
17.86652936963509
 21
19.30604696082579
 31
0.0
  0
ARC
  5
383
330
2
100
AcDbEntity
  8
GAIKEI
  6
Continuous
370
    40
100
AcDbCircle
 10
49.23874461963508
 20
18.59745158582578
 30
0.0
 40
31.3801155
100
AcDbArc
 50
177.8537410000001
 51
178.6659319999994
  0
LINE
  5
384
330
2
100
AcDbEntity
  8
GAIKEI
  6
Continuous
 48
0.057788
370
    40
100
AcDbLine
 10
17.89251511963508
 20
20.06134933582578
 30
0.0
 11
17.88068574463508
 21
19.77265308582573
 31
0.0
  0
POLYLINE
  5
385
330
2
100
AcDbEntity
  8
GAIKEI
  6
Continuous
370
    40
100
AcDb2dPolyline
 66
     1
 10
0.0
 20
0.0
 30
0.0
  0
VERTEX
  5
386
330
385
100
AcDbEntity
  8
GAIKEI
  6
Continuous
370
     0
100
AcDbVertex
100
AcDb2dVertex
 10
17.90289486963508
 20
20.61621608582576
 30
0.0
  0
VERTEX
  5
387
330
385
100
AcDbEntity
  8
GAIKEI
  6
Continuous
370
     0
100
AcDbVertex
100
AcDb2dVertex
 10
17.90457336963509
 20
20.58296346082577
 30
0.0
  0
VERTEX
  5
388
330
385
100
AcDbEntity
  8
GAIKEI
  6
Continuous
370
     0
100
AcDbVertex
100
AcDb2dVertex
 10
17.90506549463509
 20
20.49610658582574
 30
0.0
  0
VERTEX
  5
389
330
385
100
AcDbEntity
  8
GAIKEI
  6
Continuous
370
     0
100
AcDbVertex
100
AcDb2dVertex
 10
17.90161311963508
 20
20.32144308582573
 30
0.0
  0
VERTEX
  5
38A
330
385
100
AcDbEntity
  8
GAIKEI
  6
Continuous
370
     0
100
AcDbVertex
100
AcDb2dVertex
 10
17.89251511963508
 20
20.06134933582578
 30
0.0
  0
SEQEND
  5
38B
330
385
100
AcDbEntity
  8
GAIKEI
  6
Continuous
370
     0
  0
ARC
  5
38C
330
2
100
AcDbEntity
  8
GAIKEI
  6
Continuous
370
    40
100
AcDbCircle
 10
17.80328936963508
 20
20.60907883582578
 30
0.0
 40
0.099845125
100
AcDbArc
 50
4.0970290000007
 51
9.920845000000614
  0
ARC
  5
38D
330
2
100
AcDbEntity
  8
GAIKEI
  6
Continuous
370
    40
100
AcDbCircle
 10
17.48718061963508
 20
14.02249671082578
 30
0.0
 40
0.4704255
100
AcDbArc
 50
324.1810499999989
 51
332.6805699999998
  0
ARC
  5
38E
330
2
100
AcDbEntity
  8
GAIKEI
  6
Continuous
370
    40
100
AcDbCircle
 10
17.48717674463509
 20
20.34168383582576
 30
0.0
 40
0.4704307500000001
100
AcDbArc
 50
27.3211490000005
 51
35.81891599999909
  0
ARC
  5
38F
330
2
100
AcDbEntity
  8
GAIKEI
  6
Continuous
370
    40
100
AcDbCircle
 10
17.90923874463507
 20
13.71800183582579
 30
0.0
 40
0.050002125
100
AcDbArc
 50
144.2869679999995
 51
186.4451249999993
  0
LINE
  5
390
330
2
100
AcDbEntity
  8
GAIKEI
  6
Continuous
 48
0.000251
370
    13
100
AcDbLine
 10
17.90154061963508
 20
20.61710883582575
 30
0.0
 11
17.90279574463508
 21
20.61712408582579
 31
0.0
  0
LINE
  5
391
330
2
100
AcDbEntity
  8
GAIKEI
  6
Continuous
 48
0.000123
370
    13
100
AcDbLine
 10
17.90092649463509
 20
20.61710496082574
 30
0.0
 11
17.90154061963508
 21
20.61710883582575
 31
0.0
  0
LINE
  5
392
330
2
100
AcDbEntity
  8
GAIKEI
  6
Continuous
 48
0.000257
370
    13
100
AcDbLine
 10
17.89964099463509
 20
20.61709346082577
 30
0.0
 11
17.90092649463509
 21
20.61710496082574
 31
0.0
  0
LINE
  5
393
330
2
100
AcDbEntity
  8
GAIKEI
  6
Continuous
 48
0.0062
370
    13
100
AcDbLine
 10
17.86863886963508
 20
20.61699433582575
 30
0.0
 11
17.89964099463509
 21
20.61709346082577
 31
0.0
  0
ARC
  5
394
330
2
100
AcDbEntity
  8
GAIKEI
  6
Continuous
370
    40
100
AcDbCircle
 10
17.90923874463507
 20
20.64618446082576
 30
0.0
 40
0.050002375
100
AcDbArc
 50
173.5549290000007
 51
215.7129779999996
  0
POLYLINE
  5
395
330
2
100
AcDbEntity
  8
GAIKEI
  6
Continuous
370
    40
100
AcDb2dPolyline
 66
     1
 10
0.0
 20
0.0
 30
0.0
  0
VERTEX
  5
396
330
395
100
AcDbEntity
  8
GAIKEI
  6
Continuous
370
     0
100
AcDbVertex
100
AcDb2dVertex
 10
17.85955224463508
 20
13.71238846082573
 30
0.0
  0
VERTEX
  5
397
330
395
100
AcDbEntity
  8
GAIKEI
  6
Continuous
370
     0
100
AcDbVertex
100
AcDb2dVertex
 10
17.88651461963508
 20
13.50635096082575
 30
0.0
  0
VERTEX
  5
398
330
395
100
AcDbEntity
  8
GAIKEI
  6
Continuous
370
     0
100
AcDbVertex
100
AcDb2dVertex
 10
17.92072474463508
 20
13.30135871082578
 30
0.0
  0
VERTEX
  5
399
330
395
100
AcDbEntity
  8
GAIKEI
  6
Continuous
370
     0
100
AcDbVertex
100
AcDb2dVertex
 10
17.96214861963508
 20
13.09753171082579
 30
0.0
  0
VERTEX
  5
39A
330
395
100
AcDbEntity
  8
GAIKEI
  6
Continuous
370
     0
100
AcDbVertex
100
AcDb2dVertex
 10
18.01074024463509
 20
12.89499233582577
 30
0.0
  0
VERTEX
  5
39B
330
395
100
AcDbEntity
  8
GAIKEI
  6
Continuous
370
     0
100
AcDbVertex
100
AcDb2dVertex
 10
18.06643099463508
 20
12.69385096082575
 30
0.0
  0
VERTEX
  5
39C
330
395
100
AcDbEntity
  8
GAIKEI
  6
Continuous
370
     0
100
AcDbVertex
100
AcDb2dVertex
 10
18.12914836963509
 20
12.49421633582577
 30
0.0
  0
VERTEX
  5
39D
330
395
100
AcDbEntity
  8
GAIKEI
  6
Continuous
370
     0
100
AcDbVertex
100
AcDb2dVertex
 10
18.19878949463509
 20
12.29619358582576
 30
0.0
  0
SEQEND
  5
39E
330
395
100
AcDbEntity
  8
GAIKEI
  6
Continuous
370
     0
  0
LINE
  5
39F
330
2
100
AcDbEntity
  8
GAIKEI
  6
Continuous
 48
0.006236
370
    13
100
AcDbLine
 10
17.89072986963509
 20
13.71264596082577
 30
0.0
 11
17.85955224463508
 21
13.71238846082573
 31
0.0
  0
LINE
  5
3A0
330
2
100
AcDbEntity
  8
GAIKEI
  6
Continuous
 48
0.000263
370
    13
100
AcDbLine
 10
17.89204211963508
 20
13.71267646082575
 30
0.0
 11
17.89072986963509
 21
13.71264596082577
 31
0.0
  0
LINE
  5
3A1
330
2
100
AcDbEntity
  8
GAIKEI
  6
Continuous
 48
0.000125
370
    13
100
AcDbLine
 10
17.89266761963509
 20
13.71269171082573
 30
0.0
 11
17.89204211963508
 21
13.71267646082575
 31
0.0
  0
POLYLINE
  5
3A2
330
2
100
AcDbEntity
  8
GAIKEI
  6
Continuous
 62
     1
370
    13
100
AcDb2dPolyline
 66
     1
 10
0.0
 20
0.0
 30
0.0
  0
VERTEX
  5
3A3
330
3A2
100
AcDbEntity
  8
GAIKEI
  6
Continuous
 62
     1
370
     0
100
AcDbVertex
100
AcDb2dVertex
 10
18.04485886963508
 20
13.28092908582576
 30
0.0
  0
VERTEX
  5
3A4
330
3A2
100
AcDbEntity
  8
GAIKEI
  6
Continuous
 62
     1
370
     0
100
AcDbVertex
100
AcDb2dVertex
 10
18.03574549463508
 20
13.34888408582574
 30
0.0
  0
VERTEX
  5
3A5
330
3A2
100
AcDbEntity
  8
GAIKEI
  6
Continuous
 62
     1
370
     0
100
AcDbVertex
100
AcDb2dVertex
 10
18.02481261963508
 20
13.41236258582577
 30
0.0
  0
VERTEX
  5
3A6
330
3A2
100
AcDbEntity
  8
GAIKEI
  6
Continuous
 62
     1
370
     0
100
AcDbVertex
100
AcDb2dVertex
 10
18.01290699463507
 20
13.46366833582576
 30
0.0
  0
VERTEX
  5
3A7
330
3A2
100
AcDbEntity
  8
GAIKEI
  6
Continuous
 62
     1
370
     0
100
AcDbVertex
100
AcDb2dVertex
 10
18.00383174463508
 20
13.48932971082578
 30
0.0
  0
VERTEX
  5
3A8
330
3A2
100
AcDbEntity
  8
GAIKEI
  6
Continuous
 62
     1
370
     0
100
AcDbVertex
100
AcDb2dVertex
 10
17.99974624463508
 20
13.49578421082574
 30
0.0
  0
VERTEX
  5
3A9
330
3A2
100
AcDbEntity
  8
GAIKEI
  6
Continuous
 62
     1
370
     0
100
AcDbVertex
100
AcDb2dVertex
 10
17.99808299463508
 20
13.49713658582575
 30
0.0
  0
VERTEX
  5
3AA
330
3A2
100
AcDbEntity
  8
GAIKEI
  6
Continuous
 62
     1
370
     0
100
AcDbVertex
100
AcDb2dVertex
 10
17.99729336963508
 20
13.49745508582575
 30
0.0
  0
VERTEX
  5
3AB
330
3A2
100
AcDbEntity
  8
GAIKEI
  6
Continuous
 62
     1
370
     0
100
AcDbVertex
100
AcDb2dVertex
 10
17.99616424463508
 20
13.49748183582576
 30
0.0
  0
VERTEX
  5
3AC
330
3A2
100
AcDbEntity
  8
GAIKEI
  6
Continuous
 62
     1
370
     0
100
AcDbVertex
100
AcDb2dVertex
 10
17.99459636963507
 20
13.49651858582578
 30
0.0
  0
VERTEX
  5
3AD
330
3A2
100
AcDbEntity
  8
GAIKEI
  6
Continuous
 62
     1
370
     0
100
AcDbVertex
100
AcDb2dVertex
 10
17.99323836963509
 20
13.49444146082575
 30
0.0
  0
VERTEX
  5
3AE
330
3A2
100
AcDbEntity
  8
GAIKEI
  6
Continuous
 62
     1
370
     0
100
AcDbVertex
100
AcDb2dVertex
 10
17.99102586963508
 20
13.48709821082579
 30
0.0
  0
VERTEX
  5
3AF
330
3A2
100
AcDbEntity
  8
GAIKEI
  6
Continuous
 62
     1
370
     0
100
AcDbVertex
100
AcDb2dVertex
 10
17.98952286963508
 20
13.47590396082577
 30
0.0
  0
VERTEX
  5
3B0
330
3A2
100
AcDbEntity
  8
GAIKEI
  6
Continuous
 62
     1
370
     0
100
AcDbVertex
100
AcDb2dVertex
 10
17.98854624463509
 20
13.44430496082575
 30
0.0
  0
VERTEX
  5
3B1
330
3A2
100
AcDbEntity
  8
GAIKEI
  6
Continuous
 62
     1
370
     0
100
AcDbVertex
100
AcDb2dVertex
 10
17.99255936963507
 20
13.36795758582579
 30
0.0
  0
VERTEX
  5
3B2
330
3A2
100
AcDbEntity
  8
GAIKEI
  6
Continuous
 62
     1
370
     0
100
AcDbVertex
100
AcDb2dVertex
 10
18.00207699463507
 20
13.28079171082575
 30
0.0
  0
SEQEND
  5
3B3
330
3A2
100
AcDbEntity
  8
GAIKEI
  6
Continuous
 62
     1
370
     0
  0
POLYLINE
  5
3B4
330
2
100
AcDbEntity
  8
GAIKEI
  6
Continuous
 62
     1
370
    13
100
AcDb2dPolyline
 66
     1
 10
0.0
 20
0.0
 30
0.0
  0
VERTEX
  5
3B5
330
3B4
100
AcDbEntity
  8
GAIKEI
  6
Continuous
 62
     1
370
     0
100
AcDbVertex
100
AcDb2dVertex
 10
18.00207699463507
 20
13.28079171082575
 30
0.0
  0
VERTEX
  5
3B6
330
3B4
100
AcDbEntity
  8
GAIKEI
  6
Continuous
 62
     1
370
     0
100
AcDbVertex
100
AcDb2dVertex
 10
18.01123986963509
 20
13.21820583582578
 30
0.0
  0
VERTEX
  5
3B7
330
3B4
100
AcDbEntity
  8
GAIKEI
  6
Continuous
 62
     1
370
     0
100
AcDbVertex
100
AcDb2dVertex
 10
18.02194774463508
 20
13.15825221082579
 30
0.0
  0
VERTEX
  5
3B8
330
3B4
100
AcDbEntity
  8
GAIKEI
  6
Continuous
 62
     1
370
     0
100
AcDbVertex
100
AcDb2dVertex
 10
18.03374286963509
 20
13.10543583582577
 30
0.0
  0
VERTEX
  5
3B9
330
3B4
100
AcDbEntity
  8
GAIKEI
  6
Continuous
 62
     1
370
     0
100
AcDbVertex
100
AcDb2dVertex
 10
18.03964799463509
 20
13.08472196082576
 30
0.0
  0
VERTEX
  5
3BA
330
3B4
100
AcDbEntity
  8
GAIKEI
  6
Continuous
 62
     1
370
     0
100
AcDbVertex
100
AcDb2dVertex
 10
18.04514111963507
 20
13.07024146082577
 30
0.0
  0
VERTEX
  5
3BB
330
3B4
100
AcDbEntity
  8
GAIKEI
  6
Continuous
 62
     1
370
     0
100
AcDbVertex
100
AcDb2dVertex
 10
18.04761686963508
 20
13.06585646082575
 30
0.0
  0
VERTEX
  5
3BC
330
3B4
100
AcDbEntity
  8
GAIKEI
  6
Continuous
 62
     1
370
     0
100
AcDbVertex
100
AcDb2dVertex
 10
18.04987511963509
 20
13.06355046082578
 30
0.0
  0
VERTEX
  5
3BD
330
3B4
100
AcDbEntity
  8
GAIKEI
  6
Continuous
 62
     1
370
     0
100
AcDbVertex
100
AcDb2dVertex
 10
18.05090136963508
 20
13.06321471082575
 30
0.0
  0
VERTEX
  5
3BE
330
3B4
100
AcDbEntity
  8
GAIKEI
  6
Continuous
 62
     1
370
     0
100
AcDbVertex
100
AcDb2dVertex
 10
18.05162224463508
 20
13.06331958582578
 30
0.0
  0
VERTEX
  5
3BF
330
3B4
100
AcDbEntity
  8
GAIKEI
  6
Continuous
 62
     1
370
     0
100
AcDbVertex
100
AcDb2dVertex
 10
18.05230511963509
 20
13.06372971082575
 30
0.0
  0
VERTEX
  5
3C0
330
3B4
100
AcDbEntity
  8
GAIKEI
  6
Continuous
 62
     1
370
     0
100
AcDbVertex
100
AcDb2dVertex
 10
18.05314811963508
 20
13.06474058582577
 30
0.0
  0
VERTEX
  5
3C1
330
3B4
100
AcDbEntity
  8
GAIKEI
  6
Continuous
 62
     1
370
     0
100
AcDbVertex
100
AcDb2dVertex
 10
18.05459774463509
 20
13.06830358582576
 30
0.0
  0
VERTEX
  5
3C2
330
3B4
100
AcDbEntity
  8
GAIKEI
  6
Continuous
 62
     1
370
     0
100
AcDbVertex
100
AcDb2dVertex
 10
18.05713836963508
 20
13.08978796082576
 30
0.0
  0
VERTEX
  5
3C3
330
3B4
100
AcDbEntity
  8
GAIKEI
  6
Continuous
 62
     1
370
     0
100
AcDbVertex
100
AcDb2dVertex
 10
18.0573977446351
 20
13.11621808582575
 30
0.0
  0
VERTEX
  5
3C4
330
3B4
100
AcDbEntity
  8
GAIKEI
  6
Continuous
 62
     1
370
     0
100
AcDbVertex
100
AcDb2dVertex
 10
18.05413999463508
 20
13.18419021082579
 30
0.0
  0
VERTEX
  5
3C5
330
3B4
100
AcDbEntity
  8
GAIKEI
  6
Continuous
 62
     1
370
     0
100
AcDbVertex
100
AcDb2dVertex
 10
18.04485886963508
 20
13.28092908582576
 30
0.0
  0
SEQEND
  5
3C6
330
3B4
100
AcDbEntity
  8
GAIKEI
  6
Continuous
 62
     1
370
     0
  0
LINE
  5
3C7
330
2
100
AcDbEntity
  8
GAIKEI
  6
Continuous
 48
0.000363
370
    13
100
AcDbLine
 10
17.89448349463508
 20
13.71273946082576
 30
0.0
 11
17.89266761963509
 21
13.71269171082573
 31
0.0
  0
POLYLINE
  5
3C8
330
2
100
AcDbEntity
  8
GAIKEI
  6
Continuous
370
    13
100
AcDb2dPolyline
 66
     1
 10
0.0
 20
0.0
 30
0.0
  0
VERTEX
  5
3C9
330
3C8
100
AcDbEntity
  8
GAIKEI
  6
Continuous
370
     0
100
AcDbVertex
100
AcDb2dVertex
 10
17.89448349463508
 20
13.71273946082576
 30
0.0
  0
VERTEX
  5
3CA
330
3C8
100
AcDbEntity
  8
GAIKEI
  6
Continuous
370
     0
100
AcDbVertex
100
AcDb2dVertex
 10
17.89636411963508
 20
13.71304083582575
 30
0.0
  0
VERTEX
  5
3CB
330
3C8
100
AcDbEntity
  8
GAIKEI
  6
Continuous
370
     0
100
AcDbVertex
100
AcDb2dVertex
 10
17.89730636963509
 20
13.71362258582573
 30
0.0
  0
VERTEX
  5
3CC
330
3C8
100
AcDbEntity
  8
GAIKEI
  6
Continuous
370
     0
100
AcDbVertex
100
AcDb2dVertex
 10
17.89868724463508
 20
13.71545733582579
 30
0.0
  0
VERTEX
  5
3CD
330
3C8
100
AcDbEntity
  8
GAIKEI
  6
Continuous
370
     0
100
AcDbVertex
100
AcDb2dVertex
 10
17.90061374463508
 20
13.72118521082578
 30
0.0
  0
VERTEX
  5
3CE
330
3C8
100
AcDbEntity
  8
GAIKEI
  6
Continuous
370
     0
100
AcDbVertex
100
AcDb2dVertex
 10
17.90300549463508
 20
13.73849433582577
 30
0.0
  0
SEQEND
  5
3CF
330
3C8
100
AcDbEntity
  8
GAIKEI
  6
Continuous
370
     0
  0
POLYLINE
  5
3D0
330
2
100
AcDbEntity
  8
GAIKEI
  6
Continuous
370
    13
100
AcDb2dPolyline
 66
     1
 10
0.0
 20
0.0
 30
0.0
  0
VERTEX
  5
3D1
330
3D0
100
AcDbEntity
  8
GAIKEI
  6
Continuous
370
     0
100
AcDbVertex
100
AcDb2dVertex
 10
17.90300549463508
 20
13.73849433582577
 30
0.0
  0
VERTEX
  5
3D2
330
3D0
100
AcDbEntity
  8
GAIKEI
  6
Continuous
370
     0
100
AcDbVertex
100
AcDb2dVertex
 10
17.90471449463509
 20
13.77052446082578
 30
0.0
  0
VERTEX
  5
3D3
330
3D0
100
AcDbEntity
  8
GAIKEI
  6
Continuous
370
     0
100
AcDbVertex
100
AcDb2dVertex
 10
17.90522186963508
 20
13.87632896082576
 30
0.0
  0
VERTEX
  5
3D4
330
3D0
100
AcDbEntity
  8
GAIKEI
  6
Continuous
370
     0
100
AcDbVertex
100
AcDb2dVertex
 10
17.90350899463509
 20
13.97526683582575
 30
0.0
  0
VERTEX
  5
3D5
330
3D0
100
AcDbEntity
  8
GAIKEI
  6
Continuous
370
     0
100
AcDbVertex
100
AcDb2dVertex
 10
17.89269436963508
 20
14.30216933582576
 30
0.0
  0
SEQEND
  5
3D6
330
3D0
100
AcDbEntity
  8
GAIKEI
  6
Continuous
370
     0
  0
LINE
  5
3D7
330
2
100
AcDbEntity
  8
GAIKEI
  6
Continuous
 48
0.057922
370
    13
100
AcDbLine
 10
17.89269436963508
 20
14.30216933582576
 30
0.0
 11
17.88084974463508
 21
14.59153508582577
 31
0.0
  0
ARC
  5
3D8
330
2
100
AcDbEntity
  8
GAIKEI
  6
Continuous
370
    13
100
AcDbCircle
 10
49.41300761963508
 20
15.77269308582575
 30
0.0
 40
31.5543025
100
AcDbArc
 50
181.3375240000005
 51
182.1452339999997
  0
LINE
  5
3D9
330
2
100
AcDbEntity
  8
GAIKEI
  6
Continuous
 48
0.004399
370
    13
100
AcDbLine
 10
17.86671249463508
 20
15.05813933582575
 30
0.0
 11
17.86726174463507
 21
15.03615133582579
 31
0.0
  0
LINE
  5
3DA
330
2
100
AcDbEntity
  8
GAIKEI
  6
Continuous
 48
0.013066
370
    13
100
AcDbLine
 10
17.86511024463509
 20
15.12345071082578
 30
0.0
 11
17.86671249463508
 21
15.05813933582575
 31
0.0
  0
LINE
  5
3DB
330
2
100
AcDbEntity
  8
GAIKEI
  6
Continuous
 48
0.000157
370
    13
100
AcDbLine
 10
17.84033386963509
 20
17.12319708582575
 30
0.0
 11
17.84033386963509
 21
17.12241121082579
 31
0.0
  0
LINE
  5
3DC
330
2
100
AcDbEntity
  8
GAIKEI
  6
Continuous
 48
0.02356
370
    13
100
AcDbLine
 10
17.84033386963509
 20
17.24099108582575
 30
0.0
 11
17.84033386963509
 21
17.12319321082574
 31
0.0
  0
LINE
  5
3DD
330
2
100
AcDbEntity
  8
GAIKEI
  6
Continuous
 48
0.000156
370
    13
100
AcDbLine
 10
17.84033386963509
 20
17.24177308582577
 30
0.0
 11
17.84033386963509
 21
17.24099108582575
 31
0.0
  0
LINE
  5
3DE
330
2
100
AcDbEntity
  8
GAIKEI
  6
Continuous
 48
0.013066
370
    13
100
AcDbLine
 10
17.86671249463508
 20
19.30604308582573
 30
0.0
 11
17.86511024463509
 21
19.24073171082577
 31
0.0
  0
LINE
  5
3DF
330
2
100
AcDbEntity
  8
GAIKEI
  6
Continuous
 48
0.0044
370
    13
100
AcDbLine
 10
17.86671249463508
 20
19.30604308582573
 30
0.0
 11
17.86726174463507
 21
19.32803483582577
 31
0.0
  0
ARC
  5
3E0
330
2
100
AcDbEntity
  8
GAIKEI
  6
Continuous
370
    13
100
AcDbCircle
 10
49.37739361963508
 20
18.59207296082579
 30
0.0
 40
31.518686875
100
AcDbArc
 50
177.8533989999995
 51
178.6620259999996
  0
LINE
  5
3E1
330
2
100
AcDbEntity
  8
GAIKEI
  6
Continuous
 48
0.057922
370
    13
100
AcDbLine
 10
17.88085361963507
 20
19.77264921082579
 30
0.0
 11
17.89269824463508
 21
20.06201696082579
 31
0.0
  0
POLYLINE
  5
3E2
330
2
100
AcDbEntity
  8
GAIKEI
  6
Continuous
370
    13
100
AcDb2dPolyline
 66
     1
 10
0.0
 20
0.0
 30
0.0
  0
VERTEX
  5
3E3
330
3E2
100
AcDbEntity
  8
GAIKEI
  6
Continuous
370
     0
100
AcDbVertex
100
AcDb2dVertex
 10
17.89269824463508
 20
20.06201696082579
 30
0.0
  0
VERTEX
  5
3E4
330
3E2
100
AcDbEntity
  8
GAIKEI
  6
Continuous
370
     0
100
AcDbVertex
100
AcDb2dVertex
 10
17.90294449463508
 20
20.36530446082574
 30
0.0
  0
VERTEX
  5
3E5
330
3E2
100
AcDbEntity
  8
GAIKEI
  6
Continuous
370
     0
100
AcDbVertex
100
AcDb2dVertex
 10
17.90523711963509
 20
20.48961783582578
 30
0.0
  0
VERTEX
  5
3E6
330
3E2
100
AcDbEntity
  8
GAIKEI
  6
Continuous
370
     0
100
AcDbVertex
100
AcDb2dVertex
 10
17.90469536963508
 20
20.59402608582579
 30
0.0
  0
VERTEX
  5
3E7
330
3E2
100
AcDbEntity
  8
GAIKEI
  6
Continuous
370
     0
100
AcDbVertex
100
AcDb2dVertex
 10
17.90299786963508
 20
20.62569183582579
 30
0.0
  0
SEQEND
  5
3E8
330
3E2
100
AcDbEntity
  8
GAIKEI
  6
Continuous
370
     0
  0
POLYLINE
  5
3E9
330
2
100
AcDbEntity
  8
GAIKEI
  6
Continuous
370
    13
100
AcDb2dPolyline
 66
     1
 10
0.0
 20
0.0
 30
0.0
  0
VERTEX
  5
3EA
330
3E9
100
AcDbEntity
  8
GAIKEI
  6
Continuous
370
     0
100
AcDbVertex
100
AcDb2dVertex
 10
17.90299786963508
 20
20.62569183582579
 30
0.0
  0
VERTEX
  5
3EB
330
3E9
100
AcDbEntity
  8
GAIKEI
  6
Continuous
370
     0
100
AcDbVertex
100
AcDb2dVertex
 10
17.90060986963507
 20
20.64299146082575
 30
0.0
  0
VERTEX
  5
3EC
330
3E9
100
AcDbEntity
  8
GAIKEI
  6
Continuous
370
     0
100
AcDbVertex
100
AcDb2dVertex
 10
17.89868349463509
 20
20.64872121082576
 30
0.0
  0
VERTEX
  5
3ED
330
3E9
100
AcDbEntity
  8
GAIKEI
  6
Continuous
370
     0
100
AcDbVertex
100
AcDb2dVertex
 10
17.89730636963509
 20
20.65055608582574
 30
0.0
  0
VERTEX
  5
3EE
330
3E9
100
AcDbEntity
  8
GAIKEI
  6
Continuous
370
     0
100
AcDbVertex
100
AcDb2dVertex
 10
17.89636411963508
 20
20.65114346082575
 30
0.0
  0
VERTEX
  5
3EF
330
3E9
100
AcDbEntity
  8
GAIKEI
  6
Continuous
370
     0
100
AcDbVertex
100
AcDb2dVertex
 10
17.89448349463508
 20
20.65144483582574
 30
0.0
  0
SEQEND
  5
3F0
330
3E9
100
AcDbEntity
  8
GAIKEI
  6
Continuous
370
     0
  0
LINE
  5
3F1
330
2
100
AcDbEntity
  8
GAIKEI
  6
Continuous
 48
0.000363
370
    13
100
AcDbLine
 10
17.89266761963509
 20
20.65149058582577
 30
0.0
 11
17.89448349463508
 21
20.65144483582574
 31
0.0
  0
LINE
  5
3F2
330
2
100
AcDbEntity
  8
GAIKEI
  6
Continuous
 48
0.000125
370
    13
100
AcDbLine
 10
17.89204211963508
 20
20.65150596082574
 30
0.0
 11
17.89266761963509
 21
20.65149058582577
 31
0.0
  0
LINE
  5
3F3
330
2
100
AcDbEntity
  8
GAIKEI
  6
Continuous
 48
0.000263
370
    13
100
AcDbLine
 10
17.89072986963509
 20
20.65153646082578
 30
0.0
 11
17.89204211963508
 21
20.65150596082574
 31
0.0
  0
LINE
  5
3F4
330
2
100
AcDbEntity
  8
GAIKEI
  6
Continuous
 48
0.006236
370
    13
100
AcDbLine
 10
17.85955224463508
 20
20.65179583582577
 30
0.0
 11
17.89072986963509
 21
20.65153646082578
 31
0.0
  0
ARC
  5
3F5
330
2
100
AcDbEntity
  8
GAIKEI
  6
Continuous
370
    40
100
AcDbCircle
 10
23.71916374463508
 20
19.98978946082579
 30
0.0
 40
5.896889749999999
100
AcDbArc
 50
171.4695089999993
 51
173.5541779999997
  0
LINE
  5
3F6
330
2
100
AcDbEntity
  8
GAIKEI
  6
Continuous
 48
0.001151
370
    13
100
AcDbLine
 10
18.20110124463508
 20
12.30146546082577
 30
0.0
 11
18.19878949463509
 21
12.29619358582576
 31
0.0
  0
ARC
  5
3F7
330
2
100
AcDbEntity
  8
GAIKEI
  6
Continuous
370
    40
100
AcDbCircle
 10
18.29257761963508
 20
12.33096646082575
 30
0.0
 40
0.100028875
100
AcDbArc
 50
200.343085
 51
266.9895440000021
  0
LINE
  5
3F8
330
2
100
AcDbEntity
  8
GAIKEI
  6
Continuous
 48
0.000052
370
    13
100
AcDbLine
 10
18.20118899463509
 20
12.30170771082575
 30
0.0
 11
18.20110124463508
 21
12.30146546082577
 31
0.0
  0
LINE
  5
3F9
330
2
100
AcDbEntity
  8
GAIKEI
  6
Continuous
 48
0.000607
370
    13
100
AcDbLine
 10
18.20186411963509
 20
12.30466408582575
 30
0.0
 11
18.20118899463509
 21
12.30170771082575
 31
0.0
  0
POLYLINE
  5
3FA
330
2
100
AcDbEntity
  8
GAIKEI
  6
Continuous
370
    13
100
AcDb2dPolyline
 66
     1
 10
0.0
 20
0.0
 30
0.0
  0
VERTEX
  5
3FB
330
3FA
100
AcDbEntity
  8
GAIKEI
  6
Continuous
370
     0
100
AcDbVertex
100
AcDb2dVertex
 10
18.20151324463508
 20
13.61544171082576
 30
0.0
  0
VERTEX
  5
3FC
330
3FA
100
AcDbEntity
  8
GAIKEI
  6
Continuous
370
     0
100
AcDbVertex
100
AcDb2dVertex
 10
18.20446574463509
 20
13.12094058582576
 30
0.0
  0
VERTEX
  5
3FD
330
3FA
100
AcDbEntity
  8
GAIKEI
  6
Continuous
370
     0
100
AcDbVertex
100
AcDb2dVertex
 10
18.20554911963509
 20
12.67382758582576
 30
0.0
  0
VERTEX
  5
3FE
330
3FA
100
AcDbEntity
  8
GAIKEI
  6
Continuous
370
     0
100
AcDbVertex
100
AcDb2dVertex
 10
18.20487399463508
 20
12.42546596082579
 30
0.0
  0
VERTEX
  5
3FF
330
3FA
100
AcDbEntity
  8
GAIKEI
  6
Continuous
370
     0
100
AcDbVertex
100
AcDb2dVertex
 10
18.20385161963509
 20
12.34779883582578
 30
0.0
  0
VERTEX
  5
400
330
3FA
100
AcDbEntity
  8
GAIKEI
  6
Continuous
370
     0
100
AcDbVertex
100
AcDb2dVertex
 10
18.20186411963509
 20
12.30466408582575
 30
0.0
  0
SEQEND
  5
401
330
3FA
100
AcDbEntity
  8
GAIKEI
  6
Continuous
370
     0
  0
LINE
  5
402
330
2
100
AcDbEntity
  8
GAIKEI
  6
Continuous
 48
0.032799
370
    13
100
AcDbLine
 10
18.20081511963508
 20
13.77943746082573
 30
0.0
 11
18.20151324463508
 21
13.61544171082576
 31
0.0
  0
POLYLINE
  5
403
330
2
100
AcDbEntity
  8
GAIKEI
  6
Continuous
 62
     1
370
    13
100
AcDb2dPolyline
 66
     1
 10
0.0
 20
0.0
 30
0.0
  0
VERTEX
  5
404
330
403
100
AcDbEntity
  8
GAIKEI
  6
Continuous
 62
     1
370
     0
100
AcDbVertex
100
AcDb2dVertex
 10
18.29194436963509
 20
13.61429733582574
 30
0.0
  0
VERTEX
  5
405
330
403
100
AcDbEntity
  8
GAIKEI
  6
Continuous
 62
     1
370
     0
100
AcDbVertex
100
AcDb2dVertex
 10
18.22793761963508
 20
13.61446896082574
 30
0.0
  0
VERTEX
  5
406
330
403
100
AcDbEntity
  8
GAIKEI
  6
Continuous
 62
     1
370
     0
100
AcDbVertex
100
AcDb2dVertex
 10
18.20151324463508
 20
13.61544171082576
 30
0.0
  0
SEQEND
  5
407
330
403
100
AcDbEntity
  8
GAIKEI
  6
Continuous
 62
     1
370
     0
  0
LINE
  5
408
330
2
100
AcDbEntity
  8
GAIKEI
  6
Continuous
 48
0.011051
370
    13
100
AcDbLine
 10
18.20072349463508
 20
13.83468958582577
 30
0.0
 11
18.20081511963508
 21
13.77943558582578
 31
0.0
  0
ARC
  5
409
330
2
100
AcDbEntity
  8
GAIKEI
  6
Continuous
370
    13
100
AcDbCircle
 10
1820.461446619635
 20
16.48159171082577
 30
0.0
 40
1802.26286975
100
AcDbArc
 50
179.9810029999993
 51
180.0841429999996
  0
LINE
  5
40A
330
2
100
AcDbEntity
  8
GAIKEI
  6
Continuous
 48
0.041162
370
    13
100
AcDbLine
 10
18.19878574463509
 20
17.28499746082579
 30
0.0
 11
18.19878574463509
 21
17.07918683582576
 31
0.0
  0
ARC
  5
40B
330
2
100
AcDbEntity
  8
GAIKEI
  6
Continuous
370
    13
100
AcDbCircle
 10
1940.082296244635
 20
17.83822008582578
 30
0.0
 40
1921.88368825
100
AcDbArc
 50
179.9283970000001
 51
180.0164970000002
  0
LINE
  5
40C
330
2
100
AcDbEntity
  8
GAIKEI
  6
Continuous
 48
0.000835
370
    40
100
AcDbLine
 10
18.29149424463509
 20
12.23085921082574
 30
0.0
 11
18.28732486963508
 21
12.23107671082576
 31
0.0
  0
LINE
  5
40D
330
2
100
AcDbEntity
  8
GAIKEI
  6
Continuous
 48
0.000033
370
    40
100
AcDbLine
 10
18.29165824463508
 20
12.23084971082576
 30
0.0
 11
18.29149424463509
 21
12.23085921082574
 31
0.0
  0
LINE
  5
40E
330
2
100
AcDbEntity
  8
GAIKEI
  6
Continuous
 48
0.186326
370
    40
100
AcDbLine
 10
18.29165824463508
 20
12.23084971082576
 30
0.0
 11
19.22201336963508
 21
12.18209208582576
 31
0.0
  0
ARC
  5
40F
330
2
100
AcDbEntity
  8
GAIKEI
  6
Continuous
370
    13
100
AcDbCircle
 10
18.29099836963507
 20
12.23209521082575
 30
0.0
 40
0.00145525
100
AcDbArc
 50
297.826249999998
 51
12.90376400000017
  0
LINE
  5
410
330
2
100
AcDbEntity
  8
GAIKEI
  6
Continuous
 62
     1
 48
0.01273
370
    13
100
AcDbLine
 10
18.29194436963509
 20
13.61429733582574
 30
0.0
 11
18.35555824463509
 21
13.61209433582579
 31
0.0
  0
LINE
  5
411
330
2
100
AcDbEntity
  8
GAIKEI
  6
Continuous
 48
0.005535
370
    40
100
AcDbLine
 10
19.19437586963508
 20
12.18353983582577
 30
0.0
 11
19.22201336963508
 21
12.18209208582576
 31
0.0
  0
LINE
  5
412
330
2
100
AcDbEntity
  8
GAIKEI
  6
Continuous
 48
0.035168
370
    40
100
AcDbLine
 10
19.22201336963508
 20
12.18209208582576
 30
0.0
 11
19.22201336963508
 21
12.35793446082576
 31
0.0
  0
ARC
  5
413
330
2
100
AcDbEntity
  8
GAIKEI
  6
Continuous
370
    40
100
AcDbCircle
 10
18.87201486963508
 20
17.18209208582576
 30
0.0
 40
3.050000499999999
100
AcDbArc
 50
108.7249930000001
 51
251.2749309999999
  0
POINT
  5
414
330
2
100
AcDbEntity
  8
GAIKEI
  6
Continuous
370
     5
100
AcDbPoint
 10
15.82201561963508
 20
17.18209208582576
 30
0.0
  0
POINT
  5
415
330
2
100
AcDbEntity
  8
GAIKEI
  6
Continuous
370
     5
100
AcDbPoint
 10
15.38712111963508
 20
22.69381083582576
 30
0.0
  0
ARC
  5
416
330
2
100
AcDbEntity
  8
GAIKEI
  6
Continuous
 62
     1
370
    40
100
AcDbCircle
 10
-13.81186645675386
 20
13.29366633582575
 30
0.0
 40
0.0999775
100
AcDbArc
 50
179.9960980000006
 51
270.0038910000018
  0
LINE
  5
417
330
2
100
AcDbEntity
  8
GAIKEI
  6
Continuous
 62
     1
 48
0.087709
370
    40
100
AcDbLine
 10
-13.91184583175386
 20
13.73222108582578
 30
0.0
 11
-13.91184583175386
 21
13.29367396082577
 31
0.0
  0
ARC
  5
418
330
2
100
AcDbEntity
  8
GAIKEI
  6
Continuous
 62
     1
370
    40
100
AcDbCircle
 10
-13.81186833175386
 20
13.73222683582574
 30
0.0
 40
0.099976875
100
AcDbArc
 50
108.4043640000002
 51
180.0040929999991
  0
ARC
  5
419
330
2
100
AcDbEntity
  8
GAIKEI
  6
Continuous
 62
     1
370
    40
100
AcDbCircle
 10
-10.34342920675385
 20
12.53209258582578
 30
0.0
 40
0.4659385000000001
100
AcDbArc
 50
228.692522999999
 51
311.3079429999979
  0
ARC
  5
41A
330
2
100
AcDbEntity
  8
GAIKEI
  6
Continuous
 62
     1
370
    40
100
AcDbCircle
 10
-7.343429206753853
 20
12.53209258582578
 30
0.0
 40
0.4659385000000001
100
AcDbArc
 50
228.692522999999
 51
311.3074819999996
  0
LINE
  5
41B
330
2
100
AcDbEntity
  8
GAIKEI
  6
Continuous
 62
     1
 48
0.004684
370
    40
100
AcDbLine
 10
-13.78844233175385
 20
13.19368883582578
 30
0.0
 11
-13.81186070675386
 21
13.19368883582578
 31
0.0
  0
ARC
  5
41C
330
2
100
AcDbEntity
  8
GAIKEI
  6
Continuous
 62
     1
370
    40
100
AcDbCircle
 10
-3.874992081753859
 20
13.73222683582574
 30
0.0
 40
0.09997675
100
AcDbArc
 50
359.9958210000004
 51
71.59894000000026
  0
LINE
  5
41D
330
2
100
AcDbEntity
  8
GAIKEI
  6
Continuous
 62
     1
 48
0.087709
370
    40
100
AcDbLine
 10
-3.775012706753855
 20
13.29367396082577
 30
0.0
 11
-3.775012706753855
 21
13.73222108582578
 31
0.0
  0
ARC
  5
41E
330
2
100
AcDbEntity
  8
GAIKEI
  6
Continuous
 62
     1
370
    40
100
AcDbCircle
 10
-3.874992081753859
 20
13.29366633582575
 30
0.0
 40
0.0999775
100
AcDbArc
 50
269.9960909999989
 51
0.0038929999997375
  0
LINE
  5
41F
330
2
100
AcDbEntity
  8
GAIKEI
  6
Continuous
 62
     1
 48
0.00456
370
    40
100
AcDbLine
 10
-3.874999706753854
 20
13.19368883582578
 30
0.0
 11
-3.897800081753857
 21
13.19368883582578
 31
0.0
  0
LINE
  5
420
330
2
100
AcDbEntity
  8
GAIKEI
  6
Continuous
 48
0.161245
370
    40
100
AcDbLine
 10
-4.63220183175386
 20
11.58209171082578
 30
0.0
 11
-4.732200331753858
 21
10.78209058582578
 31
0.0
  0
LINE
  5
421
330
2
100
AcDbEntity
  8
GAIKEI
  6
Continuous
 48
0.038197
370
    40
100
AcDbLine
 10
-4.732200331753858
 20
10.78209058582578
 30
0.0
 11
-4.923183081753862
 21
10.78209058582578
 31
0.0
  0
LINE
  5
422
330
2
100
AcDbEntity
  8
GAIKEI
  6
Continuous
 48
0.361803
370
    40
100
AcDbLine
 10
-4.923183081753862
 20
10.78209058582578
 30
0.0
 11
-6.732200331753858
 21
10.78209058582578
 31
0.0
  0
LINE
  5
423
330
2
100
AcDbEntity
  8
GAIKEI
  6
Continuous
 48
0.161245
370
    40
100
AcDbLine
 10
-6.732200331753858
 20
10.78209058582578
 30
0.0
 11
-6.832202581753861
 21
11.58209171082578
 31
0.0
  0
LINE
  5
424
330
2
100
AcDbEntity
  8
GAIKEI
  6
Continuous
 48
0.147903
370
    40
100
AcDbLine
 10
-4.63220183175386
 20
12.32160896082578
 30
0.0
 11
-4.63220183175386
 21
11.58209171082578
 31
0.0
  0
LINE
  5
425
330
2
100
AcDbEntity
  8
GAIKEI
  6
Continuous
 62
     1
 48
0.397984
370
    40
100
AcDbLine
 10
-4.63220183175386
 20
11.58209171082578
 30
0.0
 11
-6.832202581753861
 21
11.58209171082578
 31
0.0
  0
LINE
  5
426
330
2
100
AcDbEntity
  8
GAIKEI
  6
Continuous
 48
0.119999
370
    40
100
AcDbLine
 10
-6.832202581753861
 20
11.58209171082578
 30
0.0
 11
-6.832202581753861
 21
12.18208646082578
 31
0.0
  0
ARC
  5
427
330
2
100
AcDbEntity
  8
GAIKEI
  6
Continuous
 62
     1
370
    40
100
AcDbCircle
 10
-11.35365645675387
 20
22.68511333582578
 30
0.0
 40
0.103712375
100
AcDbArc
 50
90.86866599999959
 51
117.7112070000019
  0
LINE
  5
428
330
2
100
AcDbEntity
  8
GAIKEI
  6
Continuous
 62
     1
 48
0.001397
370
    13
100
AcDbLine
 10
-11.42644470675385
 20
22.74215071082577
 30
0.0
 11
-11.43342945675385
 21
22.74203246082576
 31
0.0
  0
ARC
  5
429
330
2
100
AcDbEntity
  8
GAIKEI
  6
Continuous
 62
     1
370
    40
100
AcDbCircle
 10
-11.35460245675386
 20
22.68834446082573
 30
0.0
 40
0.100395625
100
AcDbArc
 50
90.3564839999996
 51
141.7955600000003
  0
ARC
  5
42A
330
2
100
AcDbEntity
  8
GAIKEI
  6
Continuous
 62
     1
370
    40
100
AcDbCircle
 10
-11.35098620675386
 20
22.68720008582576
 30
0.0
 40
0.103872875
100
AcDbArc
 50
142.5331659999989
 51
148.1283620000013
  0
LINE
  5
42B
330
2
100
AcDbEntity
  8
GAIKEI
  6
Continuous
 62
     1
 48
0.001545
370
    40
100
AcDbLine
 10
-11.43790020675385
 20
22.74408483582576
 30
0.0
 11
-11.43342945675385
 21
22.75038671082578
 31
0.0
  0
LINE
  5
42C
330
2
100
AcDbEntity
  8
GAIKEI
  6
Continuous
 62
     1
 48
0.13238
370
    40
100
AcDbLine
 10
-10.69342770675385
 20
22.80039358582579
 30
0.0
 11
-11.35522808175386
 21
22.78881971082578
 31
0.0
  0
LINE
  5
42D
330
2
100
AcDbEntity
  8
GAIKEI
  6
Continuous
 62
     1
 48
0.13238
370
    40
100
AcDbLine
 10
-10.69342770675385
 20
22.80039358582579
 30
0.0
 11
-11.35522808175386
 21
22.78881971082578
 31
0.0
  0
ARC
  5
42E
330
2
100
AcDbEntity
  8
GAIKEI
  6
Continuous
 62
     1
370
    40
100
AcDbCircle
 10
-10.69379395675386
 20
22.70026158582576
 30
0.0
 40
0.101255125
100
AcDbArc
 50
31.39992699999946
 51
37.50528899999945
  0
ARC
  5
42F
330
2
100
AcDbEntity
  8
GAIKEI
  6
Continuous
 62
     1
370
    40
100
AcDbCircle
 10
-10.69239008175387
 20
22.69979996082574
 30
0.0
 40
0.100513375
100
AcDbArc
 50
38.20076000000119
 51
90.59211199999849
  0
ARC
  5
430
330
2
100
AcDbEntity
  8
GAIKEI
  6
Continuous
 62
     1
370
    40
100
AcDbCircle
 10
-10.69342770675385
 20
22.70209258582574
 30
0.0
 40
0.1
100
AcDbArc
 50
23.54148999999921
 51
30.61244000000098
  0
ARC
  5
431
330
2
100
AcDbEntity
  8
GAIKEI
  6
Continuous
 62
     1
370
    40
100
AcDbCircle
 10
-10.69239008175387
 20
22.69979996082574
 30
0.0
 40
0.100513375
100
AcDbArc
 50
38.20076000000119
 51
90.59211199999849
  0
ARC
  5
432
330
2
100
AcDbEntity
  8
GAIKEI
  6
Continuous
 62
     1
370
    40
100
AcDbCircle
 10
-10.69379395675386
 20
22.70026158582576
 30
0.0
 40
0.101255125
100
AcDbArc
 50
31.39992699999946
 51
37.50528899999945
  0
LINE
  5
433
330
2
100
AcDbEntity
  8
GAIKEI
  6
Continuous
 48
0.050896
370
    40
100
AcDbLine
 10
-10.03540155671444
 20
22.74204008582578
 30
0.0
 11
-10.04342995675387
 21
23.20209258582574
 31
0.0
  0
LINE
  5
434
330
2
100
AcDbEntity
  8
GAIKEI
  6
Continuous
 48
0.050896
370
    40
100
AcDbLine
 10
-7.651457082805322
 20
22.74204008582578
 30
0.0
 11
-7.643428456753866
 21
23.20209258582574
 31
0.0
  0
LINE
  5
435
330
2
100
AcDbEntity
  8
GAIKEI
  6
Continuous
 48
0.019826
370
    40
100
AcDbLine
 10
-7.645160331753857
 20
23.30120608582578
 30
0.0
 11
-7.643428456753866
 21
23.20209258582574
 31
0.0
  0
LINE
  5
436
330
2
100
AcDbEntity
  8
GAIKEI
  6
Continuous
 48
0.019826
370
    40
100
AcDbLine
 10
-10.04169808175385
 20
23.30120608582578
 30
0.0
 11
-10.04342995675387
 21
23.20209258582574
 31
0.0
  0
LINE
  5
437
330
2
100
AcDbEntity
  8
GAIKEI
  6
Continuous
 48
0.014393
370
    40
100
AcDbLine
 10
-7.696048456753857
 20
23.35209408582577
 30
0.0
 11
-7.645160331753857
 21
23.30120608582578
 31
0.0
  0
LINE
  5
438
330
2
100
AcDbEntity
  8
GAIKEI
  6
Continuous
 48
0.014393
370
    40
100
AcDbLine
 10
-9.990810081753863
 20
23.35209408582577
 30
0.0
 11
-10.04169808175385
 21
23.30120608582578
 31
0.0
  0
LINE
  5
439
330
2
100
AcDbEntity
  8
GAIKEI
  6
Continuous
 48
0.000033
370
    40
100
AcDbLine
 10
-7.645324331753869
 20
23.30120608582578
 30
0.0
 11
-7.645160331753857
 21
23.30120608582578
 31
0.0
  0
LINE
  5
43A
330
2
100
AcDbEntity
  8
GAIKEI
  6
Continuous
 48
0.000031
370
    40
100
AcDbLine
 10
-7.69620483175386
 20
23.35209408582577
 30
0.0
 11
-7.696048456753857
 21
23.35209408582577
 31
0.0
  0
LINE
  5
43B
330
2
100
AcDbEntity
  8
GAIKEI
  6
Continuous
 62
     1
 48
0.430861
370
    40
100
AcDbLine
 10
-9.990810081753863
 20
23.35209408582577
 30
0.0
 11
-7.69620483175386
 21
23.35209408582577
 31
0.0
  0
LINE
  5
43C
330
2
100
AcDbEntity
  8
GAIKEI
  6
Continuous
 48
0.000686
370
    40
100
AcDbLine
 10
-3.659492206753867
 20
30.25195446082577
 30
0.0
 11
-3.656066581753862
 21
30.25209183582578
 31
0.0
  0
LINE
  5
43D
330
2
100
AcDbEntity
  8
GAIKEI
  6
Continuous
 48
0.000207
370
    40
100
AcDbLine
 10
-14.02975620675386
 20
30.25208421082576
 30
0.0
 11
-14.03079195675386
 21
30.25209183582578
 31
0.0
  0
LINE
  5
43E
330
2
100
AcDbEntity
  8
GAIKEI
  6
Continuous
 48
0.000686
370
    40
100
AcDbLine
 10
-3.659492206753867
 20
30.25195446082577
 30
0.0
 11
-3.656066581753862
 21
30.25209183582578
 31
0.0
  0
LINE
  5
43F
330
2
100
AcDbEntity
  8
GAIKEI
  6
Continuous
 48
0.000056
370
    40
100
AcDbLine
 10
-7.793708456753861
 20
30.25209571082579
 30
0.0
 11
-7.793429956753868
 21
30.25209183582578
 31
0.0
  0
ARC
  5
440
330
2
100
AcDbEntity
  8
GAIKEI
  6
Continuous
370
    40
100
AcDbCircle
 10
-3.400947206753869
 20
30.20209258582574
 30
0.0
 40
0.05
100
AcDbArc
 50
0.0
 51
89.4369080000021
  0
LINE
  5
441
330
2
100
AcDbEntity
  8
GAIKEI
  6
Continuous
 48
0.014924
370
    40
100
AcDbLine
 10
-7.718429206753853
 20
23.35209408582577
 30
0.0
 11
-7.665664331753859
 21
23.40485896082575
 31
0.0
  0
ARC
  5
442
330
2
100
AcDbEntity
  8
GAIKEI
  6
Continuous
370
    40
100
AcDbCircle
 10
-3.400947206753869
 20
30.20209258582574
 30
0.0
 40
0.050000375
100
AcDbArc
 50
352.0000260000002
 51
359.9999739999993
  0
ARC
  5
443
330
2
100
AcDbEntity
  8
GAIKEI
  6
Continuous
 62
     1
370
    40
100
AcDbCircle
 10
-9.108791081753849
 20
27.94918958582579
 30
0.0
 40
0.01999575
100
AcDbArc
 50
192.7429969999993
 51
268.4881209999976
  0
LINE
  5
444
330
2
100
AcDbEntity
  8
GAIKEI
  6
Continuous
 48
0.014924
370
    40
100
AcDbLine
 10
-9.968429206753853
 20
23.35209408582577
 30
0.0
 11
-10.02119408175386
 21
23.40485896082575
 31
0.0
  0
LINE
  5
445
330
2
100
AcDbEntity
  8
GAIKEI
  6
Continuous
370
    40
100
AcDbLine
 10
-7.665664331753859
 20
23.40485896082575
 30
0.0
 11
-7.463294706753856
 21
27.26626346082574
 31
0.0
  0
ARC
  5
446
330
2
100
AcDbEntity
  8
GAIKEI
  6
Continuous
370
    40
100
AcDbCircle
 10
-14.28591120675386
 20
30.20209258582574
 30
0.0
 40
0.05
100
AcDbArc
 50
90.56308999999947
 51
180.0000050000005
  0
ARC
  5
447
330
2
100
AcDbEntity
  8
GAIKEI
  6
Continuous
370
    40
100
AcDbCircle
 10
-14.28591120675386
 20
30.20209258582574
 30
0.0
 40
0.050000375
100
AcDbArc
 50
180.0000219999999
 51
187.9999770000003
  0
LINE
  5
448
330
2
100
AcDbEntity
  8
GAIKEI
  6
Continuous
 48
0.272549
370
    40
100
AcDbLine
 10
-3.54109158175386
 20
28.84565108582578
 30
0.0
 11
-3.351432456753855
 21
30.19513458582574
 31
0.0
  0
ARC
  5
449
330
2
100
AcDbEntity
  8
GAIKEI
  6
Continuous
 62
     1
370
    40
100
AcDbCircle
 10
-8.843421581753858
 20
37.91587583582574
 30
0.0
 40
9.990213624999999
100
AcDbArc
 50
268.4748499999998
 51
271.525069
  0
ARC
  5
44A
330
2
100
AcDbEntity
  8
GAIKEI
  6
Continuous
 62
     1
370
    40
100
AcDbCircle
 10
-8.578071331753861
 20
27.94918958582579
 30
0.0
 40
0.02
100
AcDbArc
 50
271.5213059999996
 51
0.0
  0
ARC
  5
44B
330
2
100
AcDbEntity
  8
GAIKEI
  6
Continuous
 62
     1
370
    40
100
AcDbCircle
 10
-9.108787206753859
 20
27.94918958582579
 30
0.0
 40
0.020000375
100
AcDbArc
 50
180.0001039999994
 51
192.7486929999993
  0
LINE
  5
44C
330
2
100
AcDbEntity
  8
GAIKEI
  6
Continuous
370
    40
100
AcDbLine
 10
-10.02119408175386
 20
23.40485896082575
 30
0.0
 11
-10.22356383175386
 21
27.26626346082574
 31
0.0
  0
LINE
  5
44D
330
2
100
AcDbEntity
  8
GAIKEI
  6
Continuous
 48
0.272549
370
    40
100
AcDbLine
 10
-14.14576683175386
 20
28.84565108582578
 30
0.0
 11
-14.33542408175386
 21
30.19513458582574
 31
0.0
  0
ARC
  5
44E
330
2
100
AcDbEntity
  8
GAIKEI
  6
Continuous
370
    40
100
AcDbCircle
 10
-7.063846206753851
 20
27.24532833582575
 30
0.0
 40
0.400000125
100
AcDbArc
 50
105.8282209999992
 51
176.9999950000005
  0
ARC
  5
44F
330
2
100
AcDbEntity
  8
GAIKEI
  6
Continuous
370
    40
100
AcDbCircle
 10
-3.838172581753866
 20
28.88740683582577
 30
0.0
 40
0.3
100
AcDbArc
 50
285.8282230000013
 51
351.9999990000006
  0
LINE
  5
450
330
2
100
AcDbEntity
  8
GAIKEI
  6
Continuous
 48
0.000207
370
    40
100
AcDbLine
 10
-14.02975620675386
 20
30.25208421082576
 30
0.0
 11
-14.03079195675386
 21
30.25209183582578
 31
0.0
  0
LINE
  5
451
330
2
100
AcDbEntity
  8
GAIKEI
  6
Continuous
 48
0.000056
370
    40
100
AcDbLine
 10
-9.893149956753859
 20
30.25209571082579
 30
0.0
 11
-9.893428456753866
 21
30.25209183582578
 31
0.0
  0
LINE
  5
452
330
2
100
AcDbEntity
  8
GAIKEI
  6
Continuous
 62
     1
 48
0.00219
370
    40
100
AcDbLine
 10
-8.558070831753866
 20
27.94918958582579
 30
0.0
 11
-8.558070831753866
 21
27.96013783582575
 31
0.0
  0
LINE
  5
453
330
2
100
AcDbEntity
  8
GAIKEI
  6
Continuous
 62
     1
 48
0.00219
370
    40
100
AcDbLine
 10
-9.128787706753854
 20
27.94918958582579
 30
0.0
 11
-9.128787706753854
 21
27.96013783582575
 31
0.0
  0
ARC
  5
454
330
2
100
AcDbEntity
  8
GAIKEI
  6
Continuous
370
    40
100
AcDbCircle
 10
-10.62301220675385
 20
27.24532833582575
 30
0.0
 40
0.400000125
100
AcDbArc
 50
3.000000000000716
 51
74.17177699999871
  0
ARC
  5
455
330
2
100
AcDbEntity
  8
GAIKEI
  6
Continuous
370
    40
100
AcDbCircle
 10
-13.84868783175386
 20
28.88740683582577
 30
0.0
 40
0.3
100
AcDbArc
 50
188.0000039999999
 51
254.1717790000007
  0
LINE
  5
456
330
2
100
AcDbEntity
  8
GAIKEI
  6
Continuous
370
    40
100
AcDbLine
 10
-7.172946581753848
 20
27.63016271082577
 30
0.0
 11
-3.756343581753867
 21
28.59877921082577
 31
0.0
  0
LINE
  5
457
330
2
100
AcDbEntity
  8
GAIKEI
  6
Continuous
370
    40
100
AcDbLine
 10
-10.51391183175386
 20
27.63016271082577
 30
0.0
 11
-13.93051308175386
 21
28.59877921082577
 31
0.0
  0
LINE
  5
458
330
2
100
AcDbEntity
  8
GAIKEI
  6
Continuous
 48
0.000306
370
    40
100
AcDbLine
 10
-9.673431081753861
 20
30.25209183582578
 30
0.0
 11
-9.674941706753855
 21
30.25184771082578
 31
0.0
  0
LINE
  5
459
330
2
100
AcDbEntity
  8
GAIKEI
  6
Continuous
 48
0.002698
370
    40
100
AcDbLine
 10
-8.14256258175385
 20
30.25209183582578
 30
0.0
 11
-8.156051331753857
 21
30.25209183582578
 31
0.0
  0
LINE
  5
45A
330
2
100
AcDbEntity
  8
GAIKEI
  6
Continuous
 48
0.277649
370
    40
100
AcDbLine
 10
-8.156051331753857
 20
30.25209183582578
 30
0.0
 11
-9.544295956753856
 21
30.25209183582578
 31
0.0
  0
LINE
  5
45B
330
2
100
AcDbEntity
  8
GAIKEI
  6
Continuous
 48
0.000553
370
    40
100
AcDbLine
 10
-3.492950081753861
 20
30.25209183582578
 30
0.0
 11
-3.490184456753866
 21
30.25209183582578
 31
0.0
  0
LINE
  5
45C
330
2
100
AcDbEntity
  8
GAIKEI
  6
Continuous
 48
0.017946
370
    40
100
AcDbLine
 10
-3.400455206753861
 20
30.25209183582578
 30
0.0
 11
-3.490184456753866
 21
30.25209183582578
 31
0.0
  0
LINE
  5
45D
330
2
100
AcDbEntity
  8
GAIKEI
  6
Continuous
 48
0.000553
370
    40
100
AcDbLine
 10
-3.490184456753866
 20
30.25209183582578
 30
0.0
 11
-3.492950081753861
 21
30.25209183582578
 31
0.0
  0
LINE
  5
45E
330
2
100
AcDbEntity
  8
GAIKEI
  6
Continuous
370
    40
100
AcDbLine
 10
-3.492950081753861
 20
30.25209183582578
 30
0.0
 11
-6.234164831753858
 21
30.25209183582578
 31
0.0
  0
LINE
  5
45F
330
2
100
AcDbEntity
  8
GAIKEI
  6
Continuous
370
    40
100
AcDbLine
 10
-6.234164831753858
 20
30.25209183582578
 30
0.0
 11
-9.539886206753863
 21
30.25209183582578
 31
0.0
  0
LINE
  5
460
330
2
100
AcDbEntity
  8
GAIKEI
  6
Continuous
 48
0.000553
370
    40
100
AcDbLine
 10
-14.19391033175385
 20
30.25209183582578
 30
0.0
 11
-14.19667408175385
 21
30.25209183582578
 31
0.0
  0
LINE
  5
461
330
2
100
AcDbEntity
  8
GAIKEI
  6
Continuous
 48
0.017946
370
    40
100
AcDbLine
 10
-14.19667408175385
 20
30.25209183582578
 30
0.0
 11
-14.28640333175386
 21
30.25209183582578
 31
0.0
  0
LINE
  5
462
330
2
100
AcDbEntity
  8
GAIKEI
  6
Continuous
 48
0.000553
370
    40
100
AcDbLine
 10
-14.19667408175385
 20
30.25209183582578
 30
0.0
 11
-14.19391033175385
 21
30.25209183582578
 31
0.0
  0
LINE
  5
463
330
2
100
AcDbEntity
  8
GAIKEI
  6
Continuous
370
    40
100
AcDbLine
 10
-9.539886206753863
 20
30.25209183582578
 30
0.0
 11
-14.19391033175385
 21
30.25209183582578
 31
0.0
  0
LINE
  5
464
330
2
100
AcDbEntity
  8
GAIKEI
  6
Continuous
 62
     1
 48
0.4083610000000001
370
    13
100
AcDbLine
 10
-10.22356383175386
 20
27.26626346082574
 30
0.0
 11
-7.463294706753856
 21
27.26626346082574
 31
0.0
  0
LINE
  5
465
330
2
100
AcDbEntity
  8
GAIKEI
  6
Continuous
 62
     1
370
    13
100
AcDbLine
 10
-14.14576683175386
 20
28.84565108582578
 30
0.0
 11
-3.54109158175386
 21
28.84565108582578
 31
0.0
  0
LINE
  5
466
330
2
100
AcDbEntity
  8
GAIKEI
  6
Continuous
370
    13
100
AcDbLine
 10
-3.756343581753867
 20
28.59877921082577
 30
0.0
 11
-6.404552081753863
 21
28.59877921082577
 31
0.0
  0
ARC
  5
467
330
2
100
AcDbEntity
  8
GAIKEI
  6
Continuous
 62
     1
370
    40
100
AcDbCircle
 10
-8.561626081753857
 20
27.95921458582578
 30
0.0
 40
0.00371275
100
AcDbArc
 50
14.54071099999956
 51
76.55859299999963
  0
ARC
  5
468
330
2
100
AcDbEntity
  8
GAIKEI
  6
Continuous
 62
     1
370
    40
100
AcDbCircle
 10
-3.353950206753864
 20
39.23909133582575
 30
0.0
 40
12.42031175
100
AcDbArc
 50
243.8590399999997
 51
245.2148190000004
  0
POLYLINE
  5
469
330
2
100
AcDbEntity
  8
GAIKEI
  6
Continuous
 62
     1
370
    40
100
AcDb2dPolyline
 66
     1
 10
0.0
 20
0.0
 30
0.0
  0
VERTEX
  5
46A
330
469
100
AcDbEntity
  8
GAIKEI
  6
Continuous
 62
     1
370
     0
100
AcDbVertex
100
AcDb2dVertex
 10
-8.860747956753868
 20
28.08920421082579
 30
0.0
  0
VERTEX
  5
46B
330
469
100
AcDbEntity
  8
GAIKEI
  6
Continuous
 62
     1
370
     0
100
AcDbVertex
100
AcDb2dVertex
 10
-8.853335956753852
 20
28.09129096082577
 30
0.0
  0
VERTEX
  5
46C
330
469
100
AcDbEntity
  8
GAIKEI
  6
Continuous
 62
     1
370
     0
100
AcDbVertex
100
AcDb2dVertex
 10
-8.835837956753863
 20
28.09161133582577
 30
0.0
  0
VERTEX
  5
46D
330
469
100
AcDbEntity
  8
GAIKEI
  6
Continuous
 62
     1
370
     0
100
AcDbVertex
100
AcDb2dVertex
 10
-8.826110456753866
 20
28.08920421082579
 30
0.0
  0
SEQEND
  5
46E
330
469
100
AcDbEntity
  8
GAIKEI
  6
Continuous
 62
     1
370
     0
  0
ARC
  5
46F
330
2
100
AcDbEntity
  8
GAIKEI
  6
Continuous
 62
     1
370
    40
100
AcDbCircle
 10
-14.33291020675386
 20
39.23909133582575
 30
0.0
 40
12.42031175
100
AcDbArc
 50
294.7851759999986
 51
296.1409550000004
  0
ARC
  5
470
330
2
100
AcDbEntity
  8
GAIKEI
  6
Continuous
 62
     1
370
    40
100
AcDbCircle
 10
-9.125232331753863
 20
27.95921458582578
 30
0.0
 40
0.00371275
100
AcDbArc
 50
103.4414050000013
 51
165.4592839999994
  0
POLYLINE
  5
471
330
2
100
AcDbEntity
  8
GAIKEI
  6
Continuous
 62
     1
370
    13
100
AcDb2dPolyline
 66
     1
 10
0.0
 20
0.0
 30
0.0
  0
VERTEX
  5
472
330
471
100
AcDbEntity
  8
GAIKEI
  6
Continuous
 62
     1
370
     0
100
AcDbVertex
100
AcDb2dVertex
 10
-9.475482581753851
 20
28.35423796082577
 30
0.0
  0
VERTEX
  5
473
330
471
100
AcDbEntity
  8
GAIKEI
  6
Continuous
 62
     1
370
     0
100
AcDbVertex
100
AcDb2dVertex
 10
-9.472087581753868
 20
28.33480971082574
 30
0.0
  0
VERTEX
  5
474
330
471
100
AcDbEntity
  8
GAIKEI
  6
Continuous
 62
     1
370
     0
100
AcDbVertex
100
AcDb2dVertex
 10
-9.461352956753856
 20
28.31558371082574
 30
0.0
  0
VERTEX
  5
475
330
471
100
AcDbEntity
  8
GAIKEI
  6
Continuous
 62
     1
370
     0
100
AcDbVertex
100
AcDb2dVertex
 10
-9.445777581753858
 20
28.29860058582577
 30
0.0
  0
VERTEX
  5
476
330
471
100
AcDbEntity
  8
GAIKEI
  6
Continuous
 62
     1
370
     0
100
AcDbVertex
100
AcDb2dVertex
 10
-9.426311206753865
 20
28.28303671082577
 30
0.0
  0
VERTEX
  5
477
330
471
100
AcDbEntity
  8
GAIKEI
  6
Continuous
 62
     1
370
     0
100
AcDbVertex
100
AcDb2dVertex
 10
-9.399642581753852
 20
28.26640458582577
 30
0.0
  0
VERTEX
  5
478
330
471
100
AcDbEntity
  8
GAIKEI
  6
Continuous
 62
     1
370
     0
100
AcDbVertex
100
AcDb2dVertex
 10
-9.370673831753862
 20
28.25177908582574
 30
0.0
  0
VERTEX
  5
479
330
471
100
AcDbEntity
  8
GAIKEI
  6
Continuous
 62
     1
370
     0
100
AcDbVertex
100
AcDb2dVertex
 10
-9.328540456753856
 20
28.23442983582575
 30
0.0
  0
VERTEX
  5
47A
330
471
100
AcDbEntity
  8
GAIKEI
  6
Continuous
 62
     1
370
     0
100
AcDbVertex
100
AcDb2dVertex
 10
-9.285201706753866
 20
28.21984233582575
 30
0.0
  0
VERTEX
  5
47B
330
471
100
AcDbEntity
  8
GAIKEI
  6
Continuous
 62
     1
370
     0
100
AcDbVertex
100
AcDb2dVertex
 10
-9.223437956753855
 20
28.20309208582577
 30
0.0
  0
VERTEX
  5
47C
330
471
100
AcDbEntity
  8
GAIKEI
  6
Continuous
 62
     1
370
     0
100
AcDbVertex
100
AcDb2dVertex
 10
-9.161399581753869
 20
28.1899008358258
 30
0.0
  0
VERTEX
  5
47D
330
471
100
AcDbEntity
  8
GAIKEI
  6
Continuous
 62
     1
370
     0
100
AcDbVertex
100
AcDb2dVertex
 10
-9.065856581753862
 20
28.17516846082575
 30
0.0
  0
VERTEX
  5
47E
330
471
100
AcDbEntity
  8
GAIKEI
  6
Continuous
 62
     1
370
     0
100
AcDbVertex
100
AcDb2dVertex
 10
-8.970863081753861
 20
28.16615433582578
 30
0.0
  0
VERTEX
  5
47F
330
471
100
AcDbEntity
  8
GAIKEI
  6
Continuous
 62
     1
370
     0
100
AcDbVertex
100
AcDb2dVertex
 10
-8.876182206753867
 20
28.16214133582574
 30
0.0
  0
VERTEX
  5
480
330
471
100
AcDbEntity
  8
GAIKEI
  6
Continuous
 62
     1
370
     0
100
AcDbVertex
100
AcDb2dVertex
 10
-8.806102456753862
 20
28.16222521082577
 30
0.0
  0
VERTEX
  5
481
330
471
100
AcDbEntity
  8
GAIKEI
  6
Continuous
 62
     1
370
     0
100
AcDbVertex
100
AcDb2dVertex
 10
-8.735976831753859
 20
28.16490308582578
 30
0.0
  0
VERTEX
  5
482
330
471
100
AcDbEntity
  8
GAIKEI
  6
Continuous
 62
     1
370
     0
100
AcDbVertex
100
AcDb2dVertex
 10
-8.665534706753859
 20
28.17028946082579
 30
0.0
  0
VERTEX
  5
483
330
471
100
AcDbEntity
  8
GAIKEI
  6
Continuous
 62
     1
370
     0
100
AcDbVertex
100
AcDb2dVertex
 10
-8.594821581753848
 20
28.17860171082575
 30
0.0
  0
VERTEX
  5
484
330
471
100
AcDbEntity
  8
GAIKEI
  6
Continuous
 62
     1
370
     0
100
AcDbVertex
100
AcDb2dVertex
 10
-8.52318545675385
 20
28.19032808582577
 30
0.0
  0
VERTEX
  5
485
330
471
100
AcDbEntity
  8
GAIKEI
  6
Continuous
 62
     1
370
     0
100
AcDbVertex
100
AcDb2dVertex
 10
-8.451453831753866
 20
28.20602933582577
 30
0.0
  0
VERTEX
  5
486
330
471
100
AcDbEntity
  8
GAIKEI
  6
Continuous
 62
     1
370
     0
100
AcDbVertex
100
AcDb2dVertex
 10
-8.403159831753853
 20
28.21938458582574
 30
0.0
  0
VERTEX
  5
487
330
471
100
AcDbEntity
  8
GAIKEI
  6
Continuous
 62
     1
370
     0
100
AcDbVertex
100
AcDb2dVertex
 10
-8.355521831753861
 20
28.23547121082575
 30
0.0
  0
VERTEX
  5
488
330
471
100
AcDbEntity
  8
GAIKEI
  6
Continuous
 62
     1
370
     0
100
AcDbVertex
100
AcDb2dVertex
 10
-8.320140456753861
 20
28.24998996082579
 30
0.0
  0
VERTEX
  5
489
330
471
100
AcDbEntity
  8
GAIKEI
  6
Continuous
 62
     1
370
     0
100
AcDbVertex
100
AcDb2dVertex
 10
-8.286346081753862
 20
28.26689671082576
 30
0.0
  0
VERTEX
  5
48A
330
471
100
AcDbEntity
  8
GAIKEI
  6
Continuous
 62
     1
370
     0
100
AcDbVertex
100
AcDb2dVertex
 10
-8.255790331753857
 20
28.28648521082576
 30
0.0
  0
VERTEX
  5
48B
330
471
100
AcDbEntity
  8
GAIKEI
  6
Continuous
 62
     1
370
     0
100
AcDbVertex
100
AcDb2dVertex
 10
-8.240104331753855
 20
28.29949708582578
 30
0.0
  0
VERTEX
  5
48C
330
471
100
AcDbEntity
  8
GAIKEI
  6
Continuous
 62
     1
370
     0
100
AcDbVertex
100
AcDb2dVertex
 10
-8.227122956753859
 20
28.31346646082577
 30
0.0
  0
VERTEX
  5
48D
330
471
100
AcDbEntity
  8
GAIKEI
  6
Continuous
 62
     1
370
     0
100
AcDbVertex
100
AcDb2dVertex
 10
-8.218665706753853
 20
28.32621146082576
 30
0.0
  0
VERTEX
  5
48E
330
471
100
AcDbEntity
  8
GAIKEI
  6
Continuous
 62
     1
370
     0
100
AcDbVertex
100
AcDb2dVertex
 10
-8.213325206753864
 20
28.33926533582579
 30
0.0
  0
VERTEX
  5
48F
330
471
100
AcDbEntity
  8
GAIKEI
  6
Continuous
 62
     1
370
     0
100
AcDbVertex
100
AcDb2dVertex
 10
-8.211375831753855
 20
28.35423796082577
 30
0.0
  0
SEQEND
  5
490
330
471
100
AcDbEntity
  8
GAIKEI
  6
Continuous
 62
     1
370
     0
  0
POLYLINE
  5
491
330
2
100
AcDbEntity
  8
GAIKEI
  6
Continuous
 62
     1
370
    13
100
AcDb2dPolyline
 66
     1
 10
0.0
 20
0.0
 30
0.0
  0
VERTEX
  5
492
330
491
100
AcDbEntity
  8
GAIKEI
  6
Continuous
 62
     1
370
     0
100
AcDbVertex
100
AcDb2dVertex
 10
-8.211375831753855
 20
28.35423796082577
 30
0.0
  0
VERTEX
  5
493
330
491
100
AcDbEntity
  8
GAIKEI
  6
Continuous
 62
     1
370
     0
100
AcDbVertex
100
AcDb2dVertex
 10
-8.213302331753851
 20
28.36690283582576
 30
0.0
  0
VERTEX
  5
494
330
491
100
AcDbEntity
  8
GAIKEI
  6
Continuous
 62
     1
370
     0
100
AcDbVertex
100
AcDb2dVertex
 10
-8.218310956753867
 20
28.37897633582574
 30
0.0
  0
VERTEX
  5
495
330
491
100
AcDbEntity
  8
GAIKEI
  6
Continuous
 62
     1
370
     0
100
AcDbVertex
100
AcDb2dVertex
 10
-8.226012831753862
 20
28.39034408582577
 30
0.0
  0
VERTEX
  5
496
330
491
100
AcDbEntity
  8
GAIKEI
  6
Continuous
 62
     1
370
     0
100
AcDbVertex
100
AcDb2dVertex
 10
-8.235980706753863
 20
28.40094508582578
 30
0.0
  0
VERTEX
  5
497
330
491
100
AcDbEntity
  8
GAIKEI
  6
Continuous
 62
     1
370
     0
100
AcDbVertex
100
AcDb2dVertex
 10
-8.26112333175385
 20
28.41986983582578
 30
0.0
  0
VERTEX
  5
498
330
491
100
AcDbEntity
  8
GAIKEI
  6
Continuous
 62
     1
370
     0
100
AcDbVertex
100
AcDb2dVertex
 10
-8.290095956753859
 20
28.43553296082578
 30
0.0
  0
VERTEX
  5
499
330
491
100
AcDbEntity
  8
GAIKEI
  6
Continuous
 62
     1
370
     0
100
AcDbVertex
100
AcDb2dVertex
 10
-8.322505581753858
 20
28.44914771082577
 30
0.0
  0
VERTEX
  5
49A
330
491
100
AcDbEntity
  8
GAIKEI
  6
Continuous
 62
     1
370
     0
100
AcDbVertex
100
AcDb2dVertex
 10
-8.361941956753867
 20
28.46237708582575
 30
0.0
  0
VERTEX
  5
49B
330
491
100
AcDbEntity
  8
GAIKEI
  6
Continuous
 62
     1
370
     0
100
AcDbVertex
100
AcDb2dVertex
 10
-8.403720581753859
 20
28.47371808582577
 30
0.0
  0
VERTEX
  5
49C
330
491
100
AcDbEntity
  8
GAIKEI
  6
Continuous
 62
     1
370
     0
100
AcDbVertex
100
AcDb2dVertex
 10
-8.447543831753861
 20
28.48347996082575
 30
0.0
  0
VERTEX
  5
49D
330
491
100
AcDbEntity
  8
GAIKEI
  6
Continuous
 62
     1
370
     0
100
AcDbVertex
100
AcDb2dVertex
 10
-8.49272508175386
 20
28.49178071082574
 30
0.0
  0
VERTEX
  5
49E
330
491
100
AcDbEntity
  8
GAIKEI
  6
Continuous
 62
     1
370
     0
100
AcDbVertex
100
AcDb2dVertex
 10
-8.586040206753864
 20
28.50457521082578
 30
0.0
  0
VERTEX
  5
49F
330
491
100
AcDbEntity
  8
GAIKEI
  6
Continuous
 62
     1
370
     0
100
AcDbVertex
100
AcDb2dVertex
 10
-8.682181956753851
 20
28.51293321082577
 30
0.0
  0
VERTEX
  5
4A0
330
491
100
AcDbEntity
  8
GAIKEI
  6
Continuous
 62
     1
370
     0
100
AcDbVertex
100
AcDb2dVertex
 10
-8.807658831753855
 20
28.51781983582575
 30
0.0
  0
VERTEX
  5
4A1
330
491
100
AcDbEntity
  8
GAIKEI
  6
Continuous
 62
     1
370
     0
100
AcDbVertex
100
AcDb2dVertex
 10
-8.93334170675385
 20
28.51649233582575
 30
0.0
  0
VERTEX
  5
4A2
330
491
100
AcDbEntity
  8
GAIKEI
  6
Continuous
 62
     1
370
     0
100
AcDbVertex
100
AcDb2dVertex
 10
-9.057716081753852
 20
28.50885908582578
 30
0.0
  0
VERTEX
  5
4A3
330
491
100
AcDbEntity
  8
GAIKEI
  6
Continuous
 62
     1
370
     0
100
AcDbVertex
100
AcDb2dVertex
 10
-9.118869456753856
 20
28.50249621082574
 30
0.0
  0
VERTEX
  5
4A4
330
491
100
AcDbEntity
  8
GAIKEI
  6
Continuous
 62
     1
370
     0
100
AcDbVertex
100
AcDb2dVertex
 10
-9.178870831753869
 20
28.49424496082574
 30
0.0
  0
VERTEX
  5
4A5
330
491
100
AcDbEntity
  8
GAIKEI
  6
Continuous
 62
     1
370
     0
100
AcDbVertex
100
AcDb2dVertex
 10
-9.233161581753861
 20
28.48470821082575
 30
0.0
  0
VERTEX
  5
4A6
330
491
100
AcDbEntity
  8
GAIKEI
  6
Continuous
 62
     1
370
     0
100
AcDbVertex
100
AcDb2dVertex
 10
-9.285445831753861
 20
28.47314971082577
 30
0.0
  0
VERTEX
  5
4A7
330
491
100
AcDbEntity
  8
GAIKEI
  6
Continuous
 62
     1
370
     0
100
AcDbVertex
100
AcDb2dVertex
 10
-9.326251706753851
 20
28.46197646082575
 30
0.0
  0
VERTEX
  5
4A8
330
491
100
AcDbEntity
  8
GAIKEI
  6
Continuous
 62
     1
370
     0
100
AcDbVertex
100
AcDb2dVertex
 10
-9.364822081753857
 20
28.44897221082576
 30
0.0
  0
VERTEX
  5
4A9
330
491
100
AcDbEntity
  8
GAIKEI
  6
Continuous
 62
     1
370
     0
100
AcDbVertex
100
AcDb2dVertex
 10
-9.393844331753854
 20
28.43689108582575
 30
0.0
  0
VERTEX
  5
4AA
330
491
100
AcDbEntity
  8
GAIKEI
  6
Continuous
 62
     1
370
     0
100
AcDbVertex
100
AcDb2dVertex
 10
-9.420451831753865
 20
28.42307421082578
 30
0.0
  0
VERTEX
  5
4AB
330
491
100
AcDbEntity
  8
GAIKEI
  6
Continuous
 62
     1
370
     0
100
AcDbVertex
100
AcDb2dVertex
 10
-9.436042456753853
 20
28.41298433582577
 30
0.0
  0
VERTEX
  5
4AC
330
491
100
AcDbEntity
  8
GAIKEI
  6
Continuous
 62
     1
370
     0
100
AcDbVertex
100
AcDb2dVertex
 10
-9.449725831753852
 20
28.40200558582578
 30
0.0
  0
VERTEX
  5
4AD
330
491
100
AcDbEntity
  8
GAIKEI
  6
Continuous
 62
     1
370
     0
100
AcDbVertex
100
AcDb2dVertex
 10
-9.46354645675386
 20
28.38682696082575
 30
0.0
  0
VERTEX
  5
4AE
330
491
100
AcDbEntity
  8
GAIKEI
  6
Continuous
 62
     1
370
     0
100
AcDbVertex
100
AcDb2dVertex
 10
-9.472488081753851
 20
28.37024446082578
 30
0.0
  0
VERTEX
  5
4AF
330
491
100
AcDbEntity
  8
GAIKEI
  6
Continuous
 62
     1
370
     0
100
AcDbVertex
100
AcDb2dVertex
 10
-9.475482581753851
 20
28.35423796082577
 30
0.0
  0
SEQEND
  5
4B0
330
491
100
AcDbEntity
  8
GAIKEI
  6
Continuous
 62
     1
370
     0
  0
LINE
  5
4B1
330
2
100
AcDbEntity
  8
GAIKEI
  6
Continuous
 62
     1
 48
0.494271
370
    13
100
AcDbLine
 10
-10.51391183175386
 20
27.63016271082577
 30
0.0
 11
-7.172946581753848
 21
27.63016271082577
 31
0.0
  0
LINE
  5
4B2
330
2
100
AcDbEntity
  8
GAIKEI
  6
Continuous
370
    13
100
AcDbLine
 10
-13.93051308175386
 20
28.59877921082577
 30
0.0
 11
-6.404552081753863
 21
28.59877921082577
 31
0.0
  0
LINE
  5
4B3
330
2
100
AcDbEntity
  8
GAIKEI
  6
Continuous
 48
0.024973
370
    40
100
AcDbLine
 10
-13.49656258175386
 20
12.53846683582574
 30
0.0
 11
-13.58605545675385
 21
12.45139258582574
 31
0.0
  0
POLYLINE
  5
4B4
330
2
100
AcDbEntity
  8
GAIKEI
  6
Continuous
370
    40
100
AcDb2dPolyline
 66
     1
 10
0.0
 20
0.0
 30
0.0
  0
VERTEX
  5
4B5
330
4B4
100
AcDbEntity
  8
GAIKEI
  6
Continuous
370
     0
100
AcDbVertex
100
AcDb2dVertex
 10
-13.58605545675385
 20
12.45139258582574
 30
0.0
  0
VERTEX
  5
4B6
330
4B4
100
AcDbEntity
  8
GAIKEI
  6
Continuous
370
     0
100
AcDbVertex
100
AcDb2dVertex
 10
-13.63022195675386
 20
12.40947858582578
 30
0.0
  0
VERTEX
  5
4B7
330
4B4
100
AcDbEntity
  8
GAIKEI
  6
Continuous
370
     0
100
AcDbVertex
100
AcDb2dVertex
 10
-13.65084233175386
 20
12.39298583582578
 30
0.0
  0
VERTEX
  5
4B8
330
4B4
100
AcDbEntity
  8
GAIKEI
  6
Continuous
370
     0
100
AcDbVertex
100
AcDb2dVertex
 10
-13.67245070675386
 20
12.38231421082574
 30
0.0
  0
VERTEX
  5
4B9
330
4B4
100
AcDbEntity
  8
GAIKEI
  6
Continuous
370
     0
100
AcDbVertex
100
AcDb2dVertex
 10
-13.69104545675385
 20
12.37768121082578
 30
0.0
  0
SEQEND
  5
4BA
330
4B4
100
AcDbEntity
  8
GAIKEI
  6
Continuous
370
     0
  0
ARC
  5
4BB
330
2
100
AcDbEntity
  8
GAIKEI
  6
Continuous
370
    40
100
AcDbCircle
 10
-14.92001883175386
 20
20.57560871082578
 30
0.0
 40
8.289533749999998
100
AcDbArc
 50
277.5926270000003
 51
278.5258699999994
  0
POLYLINE
  5
4BC
330
2
100
AcDbEntity
  8
GAIKEI
  6
Continuous
370
    40
100
AcDb2dPolyline
 66
     1
 10
0.0
 20
0.0
 30
0.0
  0
VERTEX
  5
4BD
330
4BC
100
AcDbEntity
  8
GAIKEI
  6
Continuous
370
     0
100
AcDbVertex
100
AcDb2dVertex
 10
-13.82438058175386
 20
12.35880233582574
 30
0.0
  0
VERTEX
  5
4BE
330
4BC
100
AcDbEntity
  8
GAIKEI
  6
Continuous
370
     0
100
AcDbVertex
100
AcDb2dVertex
 10
-13.84365808175386
 20
12.35802408582574
 30
0.0
  0
VERTEX
  5
4BF
330
4BC
100
AcDbEntity
  8
GAIKEI
  6
Continuous
370
     0
100
AcDbVertex
100
AcDb2dVertex
 10
-13.86062020675385
 20
12.36040258582576
 30
0.0
  0
VERTEX
  5
4C0
330
4BC
100
AcDbEntity
  8
GAIKEI
  6
Continuous
370
     0
100
AcDbVertex
100
AcDb2dVertex
 10
-13.87715120675386
 20
12.36566871082576
 30
0.0
  0
VERTEX
  5
4C1
330
4BC
100
AcDbEntity
  8
GAIKEI
  6
Continuous
370
     0
100
AcDbVertex
100
AcDb2dVertex
 10
-13.89969408175386
 20
12.37839071082575
 30
0.0
  0
VERTEX
  5
4C2
330
4BC
100
AcDbEntity
  8
GAIKEI
  6
Continuous
370
     0
100
AcDbVertex
100
AcDb2dVertex
 10
-13.92097058175386
 20
12.39703508582576
 30
0.0
  0
VERTEX
  5
4C3
330
4BC
100
AcDbEntity
  8
GAIKEI
  6
Continuous
370
     0
100
AcDbVertex
100
AcDb2dVertex
 10
-13.95122495675386
 20
12.43008558582576
 30
0.0
  0
VERTEX
  5
4C4
330
4BC
100
AcDbEntity
  8
GAIKEI
  6
Continuous
370
     0
100
AcDbVertex
100
AcDb2dVertex
 10
-13.99864733175386
 20
12.48919058582575
 30
0.0
  0
VERTEX
  5
4C5
330
4BC
100
AcDbEntity
  8
GAIKEI
  6
Continuous
370
     0
100
AcDbVertex
100
AcDb2dVertex
 10
-14.05669558175385
 20
12.57164521082578
 30
0.0
  0
VERTEX
  5
4C6
330
4BC
100
AcDbEntity
  8
GAIKEI
  6
Continuous
370
     0
100
AcDbVertex
100
AcDb2dVertex
 10
-14.11102070675386
 20
12.66018246082578
 30
0.0
  0
VERTEX
  5
4C7
330
4BC
100
AcDbEntity
  8
GAIKEI
  6
Continuous
370
     0
100
AcDbVertex
100
AcDb2dVertex
 10
-14.16394583175386
 20
12.76009508582578
 30
0.0
  0
VERTEX
  5
4C8
330
4BC
100
AcDbEntity
  8
GAIKEI
  6
Continuous
370
     0
100
AcDbVertex
100
AcDb2dVertex
 10
-14.21228570675386
 20
12.86788696082576
 30
0.0
  0
VERTEX
  5
4C9
330
4BC
100
AcDbEntity
  8
GAIKEI
  6
Continuous
370
     0
100
AcDbVertex
100
AcDb2dVertex
 10
-14.24868933175386
 20
12.96468296082574
 30
0.0
  0
VERTEX
  5
4CA
330
4BC
100
AcDbEntity
  8
GAIKEI
  6
Continuous
370
     0
100
AcDbVertex
100
AcDb2dVertex
 10
-14.27981533175385
 20
13.06458033582575
 30
0.0
  0
VERTEX
  5
4CB
330
4BC
100
AcDbEntity
  8
GAIKEI
  6
Continuous
370
     0
100
AcDbVertex
100
AcDb2dVertex
 10
-14.30534708175386
 20
13.16700308582577
 30
0.0
  0
VERTEX
  5
4CC
330
4BC
100
AcDbEntity
  8
GAIKEI
  6
Continuous
370
     0
100
AcDbVertex
100
AcDb2dVertex
 10
-14.31256833175385
 20
13.20161571082573
 30
0.0
  0
SEQEND
  5
4CD
330
4BC
100
AcDbEntity
  8
GAIKEI
  6
Continuous
370
     0
  0
ARC
  5
4CE
330
2
100
AcDbEntity
  8
GAIKEI
  6
Continuous
370
    40
100
AcDbCircle
 10
-12.42749945675386
 20
13.57601308582579
 30
0.0
 40
1.921888625
100
AcDbArc
 50
180.0045439999999
 51
191.2334429999992
  0
LINE
  5
4CF
330
2
100
AcDbEntity
  8
GAIKEI
  6
Continuous
370
    40
100
AcDbLine
 10
-14.34938595675386
 20
13.57586046082573
 30
0.0
 11
-14.34938595675386
 21
19.27464808582576
 31
0.0
  0
ARC
  5
4D0
330
2
100
AcDbEntity
  8
GAIKEI
  6
Continuous
370
    40
100
AcDbCircle
 10
-149.6001812067538
 20
19.31427146082578
 30
0.0
 40
135.250767875
100
AcDbArc
 50
359.9832150000003
 51
0.6275910000006875
  0
ARC
  5
4D1
330
2
100
AcDbEntity
  8
GAIKEI
  6
Continuous
370
    40
100
AcDbCircle
 10
-12.35670433175386
 20
20.81808996082575
 30
0.0
 40
2.001033
100
AcDbArc
 50
148.4672479999992
 51
180.6406799999995
  0
POLYLINE
  5
4D2
330
2
100
AcDbEntity
  8
GAIKEI
  6
Continuous
370
    40
100
AcDb2dPolyline
 66
     1
 10
0.0
 20
0.0
 30
0.0
  0
VERTEX
  5
4D3
330
4D2
100
AcDbEntity
  8
GAIKEI
  6
Continuous
370
     0
100
AcDbVertex
100
AcDb2dVertex
 10
-14.06229745675387
 20
21.86461783582578
 30
0.0
  0
VERTEX
  5
4D4
330
4D2
100
AcDbEntity
  8
GAIKEI
  6
Continuous
370
     0
100
AcDbVertex
100
AcDb2dVertex
 10
-13.99639670675385
 20
21.96488333582576
 30
0.0
  0
VERTEX
  5
4D5
330
4D2
100
AcDbEntity
  8
GAIKEI
  6
Continuous
370
     0
100
AcDbVertex
100
AcDb2dVertex
 10
-13.96038783175386
 20
22.01429508582575
 30
0.0
  0
VERTEX
  5
4D6
330
4D2
100
AcDbEntity
  8
GAIKEI
  6
Continuous
370
     0
100
AcDbVertex
100
AcDb2dVertex
 10
-13.92221995675385
 20
22.06319183582579
 30
0.0
  0
VERTEX
  5
4D7
330
4D2
100
AcDbEntity
  8
GAIKEI
  6
Continuous
370
     0
100
AcDbVertex
100
AcDb2dVertex
 10
-13.88178220675385
 20
22.11155458582576
 30
0.0
  0
VERTEX
  5
4D8
330
4D2
100
AcDbEntity
  8
GAIKEI
  6
Continuous
370
     0
100
AcDbVertex
100
AcDb2dVertex
 10
-13.83895270675386
 20
22.15934133582576
 30
0.0
  0
VERTEX
  5
4D9
330
4D2
100
AcDbEntity
  8
GAIKEI
  6
Continuous
370
     0
100
AcDbVertex
100
AcDb2dVertex
 10
-13.79359208175386
 20
22.20651771082575
 30
0.0
  0
VERTEX
  5
4DA
330
4D2
100
AcDbEntity
  8
GAIKEI
  6
Continuous
370
     0
100
AcDbVertex
100
AcDb2dVertex
 10
-13.74554033175386
 20
22.25302258582573
 30
0.0
  0
VERTEX
  5
4DB
330
4D2
100
AcDbEntity
  8
GAIKEI
  6
Continuous
370
     0
100
AcDbVertex
100
AcDb2dVertex
 10
-13.69461595675386
 20
22.29879896082579
 30
0.0
  0
VERTEX
  5
4DC
330
4D2
100
AcDbEntity
  8
GAIKEI
  6
Continuous
370
     0
100
AcDbVertex
100
AcDb2dVertex
 10
-13.64063045675385
 20
22.34374758582575
 30
0.0
  0
VERTEX
  5
4DD
330
4D2
100
AcDbEntity
  8
GAIKEI
  6
Continuous
370
     0
100
AcDbVertex
100
AcDb2dVertex
 10
-13.58336608175386
 20
22.38775771082575
 30
0.0
  0
VERTEX
  5
4DE
330
4D2
100
AcDbEntity
  8
GAIKEI
  6
Continuous
370
     0
100
AcDbVertex
100
AcDb2dVertex
 10
-13.52258270675386
 20
22.43069983582578
 30
0.0
  0
VERTEX
  5
4DF
330
4D2
100
AcDbEntity
  8
GAIKEI
  6
Continuous
370
     0
100
AcDbVertex
100
AcDb2dVertex
 10
-13.45799408175387
 20
22.47240971082576
 30
0.0
  0
VERTEX
  5
4E0
330
4D2
100
AcDbEntity
  8
GAIKEI
  6
Continuous
370
     0
100
AcDbVertex
100
AcDb2dVertex
 10
-13.38935245675385
 20
22.51265858582579
 30
0.0
  0
VERTEX
  5
4E1
330
4D2
100
AcDbEntity
  8
GAIKEI
  6
Continuous
370
     0
100
AcDbVertex
100
AcDb2dVertex
 10
-13.31645170675386
 20
22.55112983582578
 30
0.0
  0
VERTEX
  5
4E2
330
4D2
100
AcDbEntity
  8
GAIKEI
  6
Continuous
370
     0
100
AcDbVertex
100
AcDb2dVertex
 10
-13.23914495675386
 20
22.58745333582576
 30
0.0
  0
VERTEX
  5
4E3
330
4D2
100
AcDbEntity
  8
GAIKEI
  6
Continuous
370
     0
100
AcDbVertex
100
AcDb2dVertex
 10
-13.15734445675386
 20
22.62119433582578
 30
0.0
  0
VERTEX
  5
4E4
330
4D2
100
AcDbEntity
  8
GAIKEI
  6
Continuous
370
     0
100
AcDbVertex
100
AcDb2dVertex
 10
-13.07105608175385
 20
22.65186446082575
 30
0.0
  0
VERTEX
  5
4E5
330
4D2
100
AcDbEntity
  8
GAIKEI
  6
Continuous
370
     0
100
AcDbVertex
100
AcDb2dVertex
 10
-12.98056570675386
 20
22.67888021082578
 30
0.0
  0
VERTEX
  5
4E6
330
4D2
100
AcDbEntity
  8
GAIKEI
  6
Continuous
370
     0
100
AcDbVertex
100
AcDb2dVertex
 10
-12.88655633175386
 20
22.70163108582577
 30
0.0
  0
VERTEX
  5
4E7
330
4D2
100
AcDbEntity
  8
GAIKEI
  6
Continuous
370
     0
100
AcDbVertex
100
AcDb2dVertex
 10
-12.79015508175385
 20
22.71955633582579
 30
0.0
  0
VERTEX
  5
4E8
330
4D2
100
AcDbEntity
  8
GAIKEI
  6
Continuous
370
     0
100
AcDbVertex
100
AcDb2dVertex
 10
-12.69292608175385
 20
22.73227446082578
 30
0.0
  0
VERTEX
  5
4E9
330
4D2
100
AcDbEntity
  8
GAIKEI
  6
Continuous
370
     0
100
AcDbVertex
100
AcDb2dVertex
 10
-12.59678045675386
 20
22.73968646082577
 30
0.0
  0
VERTEX
  5
4EA
330
4D2
100
AcDbEntity
  8
GAIKEI
  6
Continuous
370
     0
100
AcDbVertex
100
AcDb2dVertex
 10
-12.50366183175386
 20
22.74204008582578
 30
0.0
  0
SEQEND
  5
4EB
330
4D2
100
AcDbEntity
  8
GAIKEI
  6
Continuous
370
     0
  0
LINE
  5
4EC
330
2
100
AcDbEntity
  8
GAIKEI
  6
Continuous
370
    40
100
AcDbLine
 10
-5.183196706753861
 20
22.74204008582578
 30
0.0
 11
-12.50366183175386
 21
22.74204008582578
 31
0.0
  0
POLYLINE
  5
4ED
330
2
100
AcDbEntity
  8
GAIKEI
  6
Continuous
370
    40
100
AcDb2dPolyline
 66
     1
 10
0.0
 20
0.0
 30
0.0
  0
VERTEX
  5
4EE
330
4ED
100
AcDbEntity
  8
GAIKEI
  6
Continuous
370
     0
100
AcDbVertex
100
AcDb2dVertex
 10
-5.183196706753861
 20
22.74204008582578
 30
0.0
  0
VERTEX
  5
4EF
330
4ED
100
AcDbEntity
  8
GAIKEI
  6
Continuous
370
     0
100
AcDbVertex
100
AcDb2dVertex
 10
-5.09006470675385
 20
22.73968646082577
 30
0.0
  0
VERTEX
  5
4F0
330
4ED
100
AcDbEntity
  8
GAIKEI
  6
Continuous
370
     0
100
AcDbVertex
100
AcDb2dVertex
 10
-4.993957206753862
 20
22.73227833582578
 30
0.0
  0
VERTEX
  5
4F1
330
4ED
100
AcDbEntity
  8
GAIKEI
  6
Continuous
370
     0
100
AcDbVertex
100
AcDb2dVertex
 10
-4.896724331753858
 20
22.71956008582575
 30
0.0
  0
VERTEX
  5
4F2
330
4ED
100
AcDbEntity
  8
GAIKEI
  6
Continuous
370
     0
100
AcDbVertex
100
AcDb2dVertex
 10
-4.80028883175386
 20
22.70162721082576
 30
0.0
  0
VERTEX
  5
4F3
330
4ED
100
AcDbEntity
  8
GAIKEI
  6
Continuous
370
     0
100
AcDbVertex
100
AcDb2dVertex
 10
-4.706237456753854
 20
22.67886108582579
 30
0.0
  0
VERTEX
  5
4F4
330
4ED
100
AcDbEntity
  8
GAIKEI
  6
Continuous
370
     0
100
AcDbVertex
100
AcDb2dVertex
 10
-4.615718581753867
 20
22.65183396082577
 30
0.0
  0
VERTEX
  5
4F5
330
4ED
100
AcDbEntity
  8
GAIKEI
  6
Continuous
370
     0
100
AcDbVertex
100
AcDb2dVertex
 10
-4.529414831753854
 20
22.62115621082577
 30
0.0
  0
VERTEX
  5
4F6
330
4ED
100
AcDbEntity
  8
GAIKEI
  6
Continuous
370
     0
100
AcDbVertex
100
AcDb2dVertex
 10
-4.447597206753869
 20
22.58740371082578
 30
0.0
  0
VERTEX
  5
4F7
330
4ED
100
AcDbEntity
  8
GAIKEI
  6
Continuous
370
     0
100
AcDbVertex
100
AcDb2dVertex
 10
-4.370292331753859
 20
22.55107633582574
 30
0.0
  0
VERTEX
  5
4F8
330
4ED
100
AcDbEntity
  8
GAIKEI
  6
Continuous
370
     0
100
AcDbVertex
100
AcDb2dVertex
 10
-4.297439206753864
 20
22.51262046082579
 30
0.0
  0
VERTEX
  5
4F9
330
4ED
100
AcDbEntity
  8
GAIKEI
  6
Continuous
370
     0
100
AcDbVertex
100
AcDb2dVertex
 10
-4.228866206753863
 20
22.47240971082576
 30
0.0
  0
VERTEX
  5
4FA
330
4ED
100
AcDbEntity
  8
GAIKEI
  6
Continuous
370
     0
100
AcDbVertex
100
AcDb2dVertex
 10
-4.164317706753863
 20
22.43072646082575
 30
0.0
  0
VERTEX
  5
4FB
330
4ED
100
AcDbEntity
  8
GAIKEI
  6
Continuous
370
     0
100
AcDbVertex
100
AcDb2dVertex
 10
-4.103526706753854
 20
22.38778446082577
 30
0.0
  0
VERTEX
  5
4FC
330
4ED
100
AcDbEntity
  8
GAIKEI
  6
Continuous
370
     0
100
AcDbVertex
100
AcDb2dVertex
 10
-4.046245206753866
 20
22.34375896082574
 30
0.0
  0
VERTEX
  5
4FD
330
4ED
100
AcDbEntity
  8
GAIKEI
  6
Continuous
370
     0
100
AcDbVertex
100
AcDb2dVertex
 10
-3.992236831753857
 20
22.29879133582577
 30
0.0
  0
VERTEX
  5
4FE
330
4ED
100
AcDbEntity
  8
GAIKEI
  6
Continuous
370
     0
100
AcDbVertex
100
AcDb2dVertex
 10
-3.941291456753859
 20
22.25299596082576
 30
0.0
  0
VERTEX
  5
4FF
330
4ED
100
AcDbEntity
  8
GAIKEI
  6
Continuous
370
     0
100
AcDbVertex
100
AcDb2dVertex
 10
-3.893226331753851
 20
22.20647183582574
 30
0.0
  0
VERTEX
  5
500
330
4ED
100
AcDbEntity
  8
GAIKEI
  6
Continuous
370
     0
100
AcDbVertex
100
AcDb2dVertex
 10
-3.847858081753855
 20
22.15928783582578
 30
0.0
  0
VERTEX
  5
501
330
4ED
100
AcDbEntity
  8
GAIKEI
  6
Continuous
370
     0
100
AcDbVertex
100
AcDb2dVertex
 10
-3.805026706753864
 20
22.11149733582576
 30
0.0
  0
VERTEX
  5
502
330
4ED
100
AcDbEntity
  8
GAIKEI
  6
Continuous
370
     0
100
AcDbVertex
100
AcDb2dVertex
 10
-3.764594706753854
 20
22.06313846082574
 30
0.0
  0
VERTEX
  5
503
330
4ED
100
AcDbEntity
  8
GAIKEI
  6
Continuous
370
     0
100
AcDbVertex
100
AcDb2dVertex
 10
-3.726436331753859
 20
22.01425308582575
 30
0.0
  0
VERTEX
  5
504
330
4ED
100
AcDbEntity
  8
GAIKEI
  6
Continuous
370
     0
100
AcDbVertex
100
AcDb2dVertex
 10
-3.656509081753853
 20
21.91497183582575
 30
0.0
  0
VERTEX
  5
505
330
4ED
100
AcDbEntity
  8
GAIKEI
  6
Continuous
370
     0
100
AcDbVertex
100
AcDb2dVertex
 10
-3.624560956753867
 20
21.86461783582578
 30
0.0
  0
SEQEND
  5
506
330
4ED
100
AcDbEntity
  8
GAIKEI
  6
Continuous
370
     0
  0
LINE
  5
507
330
2
100
AcDbEntity
  8
GAIKEI
  6
Continuous
 48
0.00517
370
    40
100
AcDbLine
 10
-3.374290206753869
 20
13.20161571082573
 30
0.0
 11
-3.379504831753848
 21
13.17629571082577
 31
0.0
  0
POLYLINE
  5
508
330
2
100
AcDbEntity
  8
GAIKEI
  6
Continuous
370
    40
100
AcDb2dPolyline
 66
     1
 10
0.0
 20
0.0
 30
0.0
  0
VERTEX
  5
509
330
508
100
AcDbEntity
  8
GAIKEI
  6
Continuous
370
     0
100
AcDbVertex
100
AcDb2dVertex
 10
-3.862125081753859
 20
12.35875458582578
 30
0.0
  0
VERTEX
  5
50A
330
508
100
AcDbEntity
  8
GAIKEI
  6
Continuous
370
     0
100
AcDbVertex
100
AcDb2dVertex
 10
-3.843196581753858
 20
12.35802408582574
 30
0.0
  0
VERTEX
  5
50B
330
508
100
AcDbEntity
  8
GAIKEI
  6
Continuous
370
     0
100
AcDbVertex
100
AcDb2dVertex
 10
-3.826240206753851
 20
12.36040258582576
 30
0.0
  0
VERTEX
  5
50C
330
508
100
AcDbEntity
  8
GAIKEI
  6
Continuous
370
     0
100
AcDbVertex
100
AcDb2dVertex
 10
-3.809707331753855
 20
12.36566871082576
 30
0.0
  0
VERTEX
  5
50D
330
508
100
AcDbEntity
  8
GAIKEI
  6
Continuous
370
     0
100
AcDbVertex
100
AcDb2dVertex
 10
-3.787170081753856
 20
12.37838496082574
 30
0.0
  0
VERTEX
  5
50E
330
508
100
AcDbEntity
  8
GAIKEI
  6
Continuous
370
     0
100
AcDbVertex
100
AcDb2dVertex
 10
-3.765529331753867
 20
12.39739371082575
 30
0.0
  0
VERTEX
  5
50F
330
508
100
AcDbEntity
  8
GAIKEI
  6
Continuous
370
     0
100
AcDbVertex
100
AcDb2dVertex
 10
-3.735088081753858
 20
12.43071883582578
 30
0.0
  0
VERTEX
  5
510
330
508
100
AcDbEntity
  8
GAIKEI
  6
Continuous
370
     0
100
AcDbVertex
100
AcDb2dVertex
 10
-3.681209206753862
 20
12.49853846082575
 30
0.0
  0
VERTEX
  5
511
330
508
100
AcDbEntity
  8
GAIKEI
  6
Continuous
370
     0
100
AcDbVertex
100
AcDb2dVertex
 10
-3.623424206753867
 20
12.58198108582573
 30
0.0
  0
VERTEX
  5
512
330
508
100
AcDbEntity
  8
GAIKEI
  6
Continuous
370
     0
100
AcDbVertex
100
AcDb2dVertex
 10
-3.570647831753859
 20
12.66932246082578
 30
0.0
  0
VERTEX
  5
513
330
508
100
AcDbEntity
  8
GAIKEI
  6
Continuous
370
     0
100
AcDbVertex
100
AcDb2dVertex
 10
-3.519981081753854
 20
12.76612421082578
 30
0.0
  0
VERTEX
  5
514
330
508
100
AcDbEntity
  8
GAIKEI
  6
Continuous
370
     0
100
AcDbVertex
100
AcDb2dVertex
 10
-3.473930081753849
 20
12.86946433582577
 30
0.0
  0
VERTEX
  5
515
330
508
100
AcDbEntity
  8
GAIKEI
  6
Continuous
370
     0
100
AcDbVertex
100
AcDb2dVertex
 10
-3.433654456753856
 20
12.97799246082579
 30
0.0
  0
VERTEX
  5
516
330
508
100
AcDbEntity
  8
GAIKEI
  6
Continuous
370
     0
100
AcDbVertex
100
AcDb2dVertex
 10
-3.399665456753865
 20
13.09170283582577
 30
0.0
  0
VERTEX
  5
517
330
508
100
AcDbEntity
  8
GAIKEI
  6
Continuous
370
     0
100
AcDbVertex
100
AcDb2dVertex
 10
-3.379504831753848
 20
13.17629571082577
 30
0.0
  0
SEQEND
  5
518
330
508
100
AcDbEntity
  8
GAIKEI
  6
Continuous
370
     0
  0
ARC
  5
519
330
2
100
AcDbEntity
  8
GAIKEI
  6
Continuous
370
    40
100
AcDbCircle
 10
-5.330196081753854
 20
20.81808608582574
 30
0.0
 40
2.001074124999999
100
AcDbArc
 50
359.3594080000001
 51
31.53211099999845
  0
ARC
  5
51A
330
2
100
AcDbEntity
  8
GAIKEI
  6
Continuous
370
    40
100
AcDbCircle
 10
131.9100650432461
 20
19.31426758582577
 30
0.0
 40
135.247502625
100
AcDbArc
 50
179.3723930000005
 51
180.0167839999999
  0
LINE
  5
51B
330
2
100
AcDbEntity
  8
GAIKEI
  6
Continuous
370
    40
100
AcDbLine
 10
-3.337470706753862
 20
19.27464808582576
 30
0.0
 11
-3.337470706753862
 21
13.57586046082573
 31
0.0
  0
ARC
  5
51C
330
2
100
AcDbEntity
  8
GAIKEI
  6
Continuous
370
    40
100
AcDbCircle
 10
-5.259193081753863
 20
13.57600158582576
 30
0.0
 40
1.921724125
100
AcDbArc
 50
348.7659190000004
 51
359.9957760000007
  0
LINE
  5
51D
330
2
100
AcDbEntity
  8
GAIKEI
  6
Continuous
 48
0.000247
370
    13
100
AcDbLine
 10
-13.49569670675386
 20
12.53934421082576
 30
0.0
 11
-13.49656258175386
 21
12.53846683582574
 31
0.0
  0
LINE
  5
51E
330
2
100
AcDbEntity
  8
GAIKEI
  6
Continuous
 48
0.000304
370
    13
100
AcDbLine
 10
-13.58498345675386
 20
12.45247021082574
 30
0.0
 11
-13.58605545675385
 21
12.45139258582574
 31
0.0
  0
ARC
  5
51F
330
2
100
AcDbEntity
  8
GAIKEI
  6
Continuous
370
    13
100
AcDbCircle
 10
-13.83785408175386
 20
12.45762958582574
 30
0.0
 40
0.099740375
100
AcDbArc
 50
277.7639010000023
 51
315.0223539999996
  0
ARC
  5
520
330
2
100
AcDbEntity
  8
GAIKEI
  6
Continuous
370
    13
100
AcDbCircle
 10
-13.71542895675387
 20
12.51120708582576
 30
0.0
 40
0.050049375
100
AcDbArc
 50
315.0662350000001
 51
40.05967400000042
  0
LINE
  5
521
330
2
100
AcDbEntity
  8
GAIKEI
  6
Continuous
 48
0.000609
370
    13
100
AcDbLine
 10
-13.49569670675386
 20
12.53934421082576
 30
0.0
 11
-13.49850808175387
 21
12.54050771082578
 31
0.0
  0
LINE
  5
522
330
2
100
AcDbEntity
  8
GAIKEI
  6
Continuous
 48
0.024915
370
    13
100
AcDbLine
 10
-13.58498345675386
 20
12.45247021082574
 30
0.0
 11
-13.49569670675386
 21
12.53934421082576
 31
0.0
  0
ELLIPSE
  5
523
330
2
100
AcDbEntity
  8
GAIKEI
  6
Continuous
370
    13
100
AcDbEllipse
 10
-13.49360058175387
 20
12.54757446082576
 30
0.0
 11
-0.1417121887207031
 21
-0.1417198181152344
 31
0.0
210
0.0
220
0.0
230
1.0
 40
0.017421
 41
0.0235636935689041
 42
0.8526968597128577
  0
POLYLINE
  5
524
330
2
100
AcDbEntity
  8
GAIKEI
  6
Continuous
370
    13
100
AcDb2dPolyline
 66
     1
 10
0.0
 20
0.0
 30
0.0
  0
VERTEX
  5
525
330
524
100
AcDbEntity
  8
GAIKEI
  6
Continuous
370
     0
100
AcDbVertex
100
AcDb2dVertex
 10
-13.54603358175386
 20
12.49595971082576
 30
0.0
  0
VERTEX
  5
526
330
524
100
AcDbEntity
  8
GAIKEI
  6
Continuous
370
     0
100
AcDbVertex
100
AcDb2dVertex
 10
-13.54593058175385
 20
12.49599208582575
 30
0.0
  0
VERTEX
  5
527
330
524
100
AcDbEntity
  8
GAIKEI
  6
Continuous
370
     0
100
AcDbVertex
100
AcDb2dVertex
 10
-13.54561008175386
 20
12.49617333582577
 30
0.0
  0
VERTEX
  5
528
330
524
100
AcDbEntity
  8
GAIKEI
  6
Continuous
370
     0
100
AcDbVertex
100
AcDb2dVertex
 10
-13.54373133175386
 20
12.49763433582578
 30
0.0
  0
VERTEX
  5
529
330
524
100
AcDbEntity
  8
GAIKEI
  6
Continuous
370
     0
100
AcDbVertex
100
AcDb2dVertex
 10
-13.50612220675386
 20
12.53310721082576
 30
0.0
  0
SEQEND
  5
52A
330
524
100
AcDbEntity
  8
GAIKEI
  6
Continuous
370
     0
  0
ARC
  5
52B
330
2
100
AcDbEntity
  8
GAIKEI
  6
Continuous
370
    13
100
AcDbCircle
 10
-14.94375383175385
 20
20.60614146082579
 30
0.0
 40
8.161609625
100
AcDbArc
 50
278.9280180000003
 51
279.8699080000003
  0
POLYLINE
  5
52C
330
2
100
AcDbEntity
  8
GAIKEI
  6
Continuous
370
    13
100
AcDb2dPolyline
 66
     1
 10
0.0
 20
0.0
 30
0.0
  0
VERTEX
  5
52D
330
52C
100
AcDbEntity
  8
GAIKEI
  6
Continuous
370
     0
100
AcDbVertex
100
AcDb2dVertex
 10
-14.05532608175386
 20
13.34387158582578
 30
0.0
  0
VERTEX
  5
52E
330
52C
100
AcDbEntity
  8
GAIKEI
  6
Continuous
370
     0
100
AcDbVertex
100
AcDb2dVertex
 10
-14.03978120675386
 20
13.25335071082574
 30
0.0
  0
VERTEX
  5
52F
330
52C
100
AcDbEntity
  8
GAIKEI
  6
Continuous
370
     0
100
AcDbVertex
100
AcDb2dVertex
 10
-14.01885758175386
 20
13.16356983582577
 30
0.0
  0
VERTEX
  5
530
330
52C
100
AcDbEntity
  8
GAIKEI
  6
Continuous
370
     0
100
AcDbVertex
100
AcDb2dVertex
 10
-13.99266783175386
 20
13.07525008582578
 30
0.0
  0
VERTEX
  5
531
330
52C
100
AcDbEntity
  8
GAIKEI
  6
Continuous
370
     0
100
AcDbVertex
100
AcDb2dVertex
 10
-13.96149220675386
 20
12.98921533582577
 30
0.0
  0
VERTEX
  5
532
330
52C
100
AcDbEntity
  8
GAIKEI
  6
Continuous
370
     0
100
AcDbVertex
100
AcDb2dVertex
 10
-13.93093458175386
 20
12.91751433582575
 30
0.0
  0
VERTEX
  5
533
330
52C
100
AcDbEntity
  8
GAIKEI
  6
Continuous
370
     0
100
AcDbVertex
100
AcDb2dVertex
 10
-13.89742058175386
 20
12.84880396082573
 30
0.0
  0
VERTEX
  5
534
330
52C
100
AcDbEntity
  8
GAIKEI
  6
Continuous
370
     0
100
AcDbVertex
100
AcDb2dVertex
 10
-13.86159095675386
 20
12.78388158582575
 30
0.0
  0
VERTEX
  5
535
330
52C
100
AcDbEntity
  8
GAIKEI
  6
Continuous
370
     0
100
AcDbVertex
100
AcDb2dVertex
 10
-13.83374558175386
 20
12.73825408582579
 30
0.0
  0
VERTEX
  5
536
330
52C
100
AcDbEntity
  8
GAIKEI
  6
Continuous
370
     0
100
AcDbVertex
100
AcDb2dVertex
 10
-13.80564083175386
 20
12.69577933582579
 30
0.0
  0
VERTEX
  5
537
330
52C
100
AcDbEntity
  8
GAIKEI
  6
Continuous
370
     0
100
AcDbVertex
100
AcDb2dVertex
 10
-13.75623483175386
 20
12.62863483582575
 30
0.0
  0
VERTEX
  5
538
330
52C
100
AcDbEntity
  8
GAIKEI
  6
Continuous
370
     0
100
AcDbVertex
100
AcDb2dVertex
 10
-13.71364758175386
 20
12.57789746082577
 30
0.0
  0
VERTEX
  5
539
330
52C
100
AcDbEntity
  8
GAIKEI
  6
Continuous
370
     0
100
AcDbVertex
100
AcDb2dVertex
 10
-13.69565545675385
 20
12.55880496082577
 30
0.0
  0
VERTEX
  5
53A
330
52C
100
AcDbEntity
  8
GAIKEI
  6
Continuous
370
     0
100
AcDbVertex
100
AcDb2dVertex
 10
-13.68316045675385
 20
12.54710908582578
 30
0.0
  0
VERTEX
  5
53B
330
52C
100
AcDbEntity
  8
GAIKEI
  6
Continuous
370
     0
100
AcDbVertex
100
AcDb2dVertex
 10
-13.67838070675387
 20
12.54373683582574
 30
0.0
  0
VERTEX
  5
53C
330
52C
100
AcDbEntity
  8
GAIKEI
  6
Continuous
370
     0
100
AcDbVertex
100
AcDb2dVertex
 10
-13.67745945675386
 20
12.54342221082575
 30
0.0
  0
VERTEX
  5
53D
330
52C
100
AcDbEntity
  8
GAIKEI
  6
Continuous
370
     0
100
AcDbVertex
100
AcDb2dVertex
 10
-13.67712558175385
 20
12.54341646082574
 30
0.0
  0
SEQEND
  5
53E
330
52C
100
AcDbEntity
  8
GAIKEI
  6
Continuous
370
     0
  0
ARC
  5
53F
330
2
100
AcDbEntity
  8
GAIKEI
  6
Continuous
 62
     7
370
    13
100
AcDbCircle
 10
-12.43403408175385
 20
13.57377383582579
 30
0.0
 40
1.637511624999999
100
AcDbArc
 50
180.0015390000007
 51
188.0708330000006
  0
LINE
  5
540
330
2
100
AcDbEntity
  8
GAIKEI
  6
Continuous
 48
0.024895
370
    13
100
AcDbLine
 10
-13.76730120675385
 20
12.38713208582575
 30
0.0
 11
-13.67999995675386
 21
12.47586008582576
 31
0.0
  0
POLYLINE
  5
541
330
2
100
AcDbEntity
  8
GAIKEI
  6
Continuous
370
    13
100
AcDb2dPolyline
 66
     1
 10
0.0
 20
0.0
 30
0.0
  0
VERTEX
  5
542
330
541
100
AcDbEntity
  8
GAIKEI
  6
Continuous
370
     0
100
AcDbVertex
100
AcDb2dVertex
 10
-13.54475945675386
 20
12.56532621082576
 30
0.0
  0
VERTEX
  5
543
330
541
100
AcDbEntity
  8
GAIKEI
  6
Continuous
370
     0
100
AcDbVertex
100
AcDb2dVertex
 10
-13.54449045675386
 20
12.56541771082575
 30
0.0
  0
VERTEX
  5
544
330
541
100
AcDbEntity
  8
GAIKEI
  6
Continuous
370
     0
100
AcDbVertex
100
AcDb2dVertex
 10
-13.54341095675386
 20
12.56616346082578
 30
0.0
  0
VERTEX
  5
545
330
541
100
AcDbEntity
  8
GAIKEI
  6
Continuous
370
     0
100
AcDbVertex
100
AcDb2dVertex
 10
-13.53628120675385
 20
12.57250921082575
 30
0.0
  0
VERTEX
  5
546
330
541
100
AcDbEntity
  8
GAIKEI
  6
Continuous
370
     0
100
AcDbVertex
100
AcDb2dVertex
 10
-13.51816520675386
 20
12.59010646082575
 30
0.0
  0
SEQEND
  5
547
330
541
100
AcDbEntity
  8
GAIKEI
  6
Continuous
370
     0
  0
POLYLINE
  5
548
330
2
100
AcDbEntity
  8
GAIKEI
  6
Continuous
370
    13
100
AcDb2dPolyline
 66
     1
 10
0.0
 20
0.0
 30
0.0
  0
VERTEX
  5
549
330
548
100
AcDbEntity
  8
GAIKEI
  6
Continuous
370
     0
100
AcDbVertex
100
AcDb2dVertex
 10
-13.49850808175387
 20
12.54050771082578
 30
0.0
  0
VERTEX
  5
54A
330
548
100
AcDbEntity
  8
GAIKEI
  6
Continuous
370
     0
100
AcDbVertex
100
AcDb2dVertex
 10
-13.49445120675386
 20
12.54670096082574
 30
0.0
  0
VERTEX
  5
54B
330
548
100
AcDbEntity
  8
GAIKEI
  6
Continuous
370
     0
100
AcDbVertex
100
AcDb2dVertex
 10
-13.49253620675387
 20
12.55424446082574
 30
0.0
  0
VERTEX
  5
54C
330
548
100
AcDbEntity
  8
GAIKEI
  6
Continuous
370
     0
100
AcDbVertex
100
AcDb2dVertex
 10
-13.49336970675385
 20
12.56637708582579
 30
0.0
  0
VERTEX
  5
54D
330
548
100
AcDbEntity
  8
GAIKEI
  6
Continuous
370
     0
100
AcDbVertex
100
AcDb2dVertex
 10
-13.49775283175385
 20
12.57868333582578
 30
0.0
  0
VERTEX
  5
54E
330
548
100
AcDbEntity
  8
GAIKEI
  6
Continuous
370
     0
100
AcDbVertex
100
AcDb2dVertex
 10
-13.51082195675386
 20
12.59724946082573
 30
0.0
  0
SEQEND
  5
54F
330
548
100
AcDbEntity
  8
GAIKEI
  6
Continuous
370
     0
  0
LINE
  5
550
330
2
100
AcDbEntity
  8
GAIKEI
  6
Continuous
 48
0.002124
370
    13
100
AcDbLine
 10
-13.49850808175387
 20
12.54050771082578
 30
0.0
 11
-13.50612220675386
 21
12.53310721082576
 31
0.0
  0
ARC
  5
551
330
2
100
AcDbEntity
  8
GAIKEI
  6
Continuous
 62
     1
370
    40
100
AcDbCircle
 10
-13.94719470675386
 20
14.80694721082577
 30
0.0
 40
0.8328682500000002
100
AcDbArc
 50
267.9051919999982
 51
270.4145830000022
  0
ARC
  5
552
330
2
100
AcDbEntity
  8
GAIKEI
  6
Continuous
 62
     1
370
    40
100
AcDbCircle
 10
-13.94719470675386
 20
13.35723633582577
 30
0.0
 40
0.8328682500000002
100
AcDbArc
 50
89.58541699999788
 51
92.0948079999985
  0
ARC
  5
553
330
2
100
AcDbEntity
  8
GAIKEI
  6
Continuous
 62
     1
370
    40
100
AcDbCircle
 10
-13.94719470675386
 20
17.40694571082574
 30
0.0
 40
0.8328682500000002
100
AcDbArc
 50
267.9051919999982
 51
270.4145830000022
  0
ARC
  5
554
330
2
100
AcDbEntity
  8
GAIKEI
  6
Continuous
 62
     1
370
    40
100
AcDbCircle
 10
-13.94719470675386
 20
15.95723671082575
 30
0.0
 40
0.8328682500000002
100
AcDbArc
 50
89.58541699999788
 51
92.0948079999985
  0
ARC
  5
555
330
2
100
AcDbEntity
  8
GAIKEI
  6
Continuous
 62
     1
370
    40
100
AcDbCircle
 10
-13.94719470675386
 20
20.90694571082574
 30
0.0
 40
0.8328682500000002
100
AcDbArc
 50
267.9051919999982
 51
270.4145830000022
  0
ARC
  5
556
330
2
100
AcDbEntity
  8
GAIKEI
  6
Continuous
 62
     1
370
    40
100
AcDbCircle
 10
-13.94719470675386
 20
19.45723858582576
 30
0.0
 40
0.8328682500000002
100
AcDbArc
 50
89.58541699999788
 51
92.0948079999985
  0
LINE
  5
557
330
2
100
AcDbEntity
  8
GAIKEI
  6
Continuous
 62
     1
 48
0.014297
370
    40
100
AcDbLine
 10
-14.04157608175386
 20
16.75752396082575
 30
0.0
 11
-13.97763595675385
 21
16.78949108582574
 31
0.0
  0
POLYLINE
  5
558
330
2
100
AcDbEntity
  8
GAIKEI
  6
Continuous
 62
     1
370
    40
100
AcDb2dPolyline
 66
     1
 10
0.0
 20
0.0
 30
0.0
  0
VERTEX
  5
559
330
558
100
AcDbEntity
  8
GAIKEI
  6
Continuous
 62
     1
370
     0
100
AcDbVertex
100
AcDb2dVertex
 10
-14.04244008175387
 20
16.70752471082576
 30
0.0
  0
VERTEX
  5
55A
330
558
100
AcDbEntity
  8
GAIKEI
  6
Continuous
 62
     1
370
     0
100
AcDbVertex
100
AcDb2dVertex
 10
-14.04183170675385
 20
16.75518933582575
 30
0.0
  0
VERTEX
  5
55B
330
558
100
AcDbEntity
  8
GAIKEI
  6
Continuous
 62
     1
370
     0
100
AcDbVertex
100
AcDb2dVertex
 10
-14.04166195675387
 20
16.75723021082578
 30
0.0
  0
VERTEX
  5
55C
330
558
100
AcDbEntity
  8
GAIKEI
  6
Continuous
 62
     1
370
     0
100
AcDbVertex
100
AcDb2dVertex
 10
-14.04157608175386
 20
16.75752396082575
 30
0.0
  0
SEQEND
  5
55D
330
558
100
AcDbEntity
  8
GAIKEI
  6
Continuous
 62
     1
370
     0
  0
LINE
  5
55E
330
2
100
AcDbEntity
  8
GAIKEI
  6
Continuous
 62
     1
 48
0.010173
370
    40
100
AcDbLine
 10
-14.04244008175387
 20
16.65665958582573
 30
0.0
 11
-14.04244008175387
 21
16.70752471082576
 31
0.0
  0
POLYLINE
  5
55F
330
2
100
AcDbEntity
  8
GAIKEI
  6
Continuous
 62
     1
370
    40
100
AcDb2dPolyline
 66
     1
 10
0.0
 20
0.0
 30
0.0
  0
VERTEX
  5
560
330
55F
100
AcDbEntity
  8
GAIKEI
  6
Continuous
 62
     1
370
     0
100
AcDbVertex
100
AcDb2dVertex
 10
-14.04244008175387
 20
16.65665958582573
 30
0.0
  0
VERTEX
  5
561
330
55F
100
AcDbEntity
  8
GAIKEI
  6
Continuous
 62
     1
370
     0
100
AcDbVertex
100
AcDb2dVertex
 10
-14.04183170675385
 20
16.60899496082575
 30
0.0
  0
VERTEX
  5
562
330
55F
100
AcDbEntity
  8
GAIKEI
  6
Continuous
 62
     1
370
     0
100
AcDbVertex
100
AcDb2dVertex
 10
-14.04166195675387
 20
16.60695408582578
 30
0.0
  0
VERTEX
  5
563
330
55F
100
AcDbEntity
  8
GAIKEI
  6
Continuous
 62
     1
370
     0
100
AcDbVertex
100
AcDb2dVertex
 10
-14.04157608175386
 20
16.60666033582575
 30
0.0
  0
SEQEND
  5
564
330
55F
100
AcDbEntity
  8
GAIKEI
  6
Continuous
 62
     1
370
     0
  0
LINE
  5
565
330
2
100
AcDbEntity
  8
GAIKEI
  6
Continuous
 62
     1
 48
0.014297
370
    40
100
AcDbLine
 10
-14.04157608175386
 20
16.60666033582575
 30
0.0
 11
-13.97763595675385
 21
16.57469321082575
 31
0.0
  0
LINE
  5
566
330
2
100
AcDbEntity
  8
GAIKEI
  6
Continuous
 62
     1
 48
0.014297
370
    40
100
AcDbLine
 10
-14.04157608175386
 20
14.15752358582577
 30
0.0
 11
-13.97763595675385
 21
14.18949271082576
 31
0.0
  0
POLYLINE
  5
567
330
2
100
AcDbEntity
  8
GAIKEI
  6
Continuous
 62
     1
370
    40
100
AcDb2dPolyline
 66
     1
 10
0.0
 20
0.0
 30
0.0
  0
VERTEX
  5
568
330
567
100
AcDbEntity
  8
GAIKEI
  6
Continuous
 62
     1
370
     0
100
AcDbVertex
100
AcDb2dVertex
 10
-14.04244008175387
 20
14.10752621082574
 30
0.0
  0
VERTEX
  5
569
330
567
100
AcDbEntity
  8
GAIKEI
  6
Continuous
 62
     1
370
     0
100
AcDbVertex
100
AcDb2dVertex
 10
-14.04183170675385
 20
14.15518896082577
 30
0.0
  0
VERTEX
  5
56A
330
567
100
AcDbEntity
  8
GAIKEI
  6
Continuous
 62
     1
370
     0
100
AcDbVertex
100
AcDb2dVertex
 10
-14.04166195675387
 20
14.15723171082575
 30
0.0
  0
VERTEX
  5
56B
330
567
100
AcDbEntity
  8
GAIKEI
  6
Continuous
 62
     1
370
     0
100
AcDbVertex
100
AcDb2dVertex
 10
-14.04157608175386
 20
14.15752358582577
 30
0.0
  0
SEQEND
  5
56C
330
567
100
AcDbEntity
  8
GAIKEI
  6
Continuous
 62
     1
370
     0
  0
LINE
  5
56D
330
2
100
AcDbEntity
  8
GAIKEI
  6
Continuous
 62
     1
 48
0.010174
370
    40
100
AcDbLine
 10
-14.04244008175387
 20
14.05665721082576
 30
0.0
 11
-14.04244008175387
 21
14.10752621082574
 31
0.0
  0
POLYLINE
  5
56E
330
2
100
AcDbEntity
  8
GAIKEI
  6
Continuous
 62
     1
370
    40
100
AcDb2dPolyline
 66
     1
 10
0.0
 20
0.0
 30
0.0
  0
VERTEX
  5
56F
330
56E
100
AcDbEntity
  8
GAIKEI
  6
Continuous
 62
     1
370
     0
100
AcDbVertex
100
AcDb2dVertex
 10
-14.04244008175387
 20
14.05665721082576
 30
0.0
  0
VERTEX
  5
570
330
56E
100
AcDbEntity
  8
GAIKEI
  6
Continuous
 62
     1
370
     0
100
AcDbVertex
100
AcDb2dVertex
 10
-14.04183170675385
 20
14.00899458582577
 30
0.0
  0
VERTEX
  5
571
330
56E
100
AcDbEntity
  8
GAIKEI
  6
Continuous
 62
     1
370
     0
100
AcDbVertex
100
AcDb2dVertex
 10
-14.04166195675387
 20
14.00695371082574
 30
0.0
  0
VERTEX
  5
572
330
56E
100
AcDbEntity
  8
GAIKEI
  6
Continuous
 62
     1
370
     0
100
AcDbVertex
100
AcDb2dVertex
 10
-14.04157608175386
 20
14.00665996082577
 30
0.0
  0
SEQEND
  5
573
330
56E
100
AcDbEntity
  8
GAIKEI
  6
Continuous
 62
     1
370
     0
  0
LINE
  5
574
330
2
100
AcDbEntity
  8
GAIKEI
  6
Continuous
 62
     1
 48
0.014297
370
    40
100
AcDbLine
 10
-14.04157608175386
 20
14.00665996082577
 30
0.0
 11
-13.97763595675385
 21
13.97469083582578
 31
0.0
  0
LINE
  5
575
330
2
100
AcDbEntity
  8
GAIKEI
  6
Continuous
 62
     7
370
    13
100
AcDbLine
 10
-14.07154433175385
 20
19.34757758582574
 30
0.0
 11
-14.07154433175385
 21
13.57372996082577
 31
0.0
  0
LINE
  5
576
330
2
100
AcDbEntity
  8
GAIKEI
  6
Continuous
 62
     1
 48
0.014297
370
    40
100
AcDbLine
 10
-14.04157608175386
 20
20.25752396082575
 30
0.0
 11
-13.97763595675385
 21
20.28949108582574
 31
0.0
  0
POLYLINE
  5
577
330
2
100
AcDbEntity
  8
GAIKEI
  6
Continuous
 62
     1
370
    40
100
AcDb2dPolyline
 66
     1
 10
0.0
 20
0.0
 30
0.0
  0
VERTEX
  5
578
330
577
100
AcDbEntity
  8
GAIKEI
  6
Continuous
 62
     1
370
     0
100
AcDbVertex
100
AcDb2dVertex
 10
-14.04244008175387
 20
20.20752858582577
 30
0.0
  0
VERTEX
  5
579
330
577
100
AcDbEntity
  8
GAIKEI
  6
Continuous
 62
     1
370
     0
100
AcDbVertex
100
AcDb2dVertex
 10
-14.04183170675385
 20
20.25518933582575
 30
0.0
  0
VERTEX
  5
57A
330
577
100
AcDbEntity
  8
GAIKEI
  6
Continuous
 62
     1
370
     0
100
AcDbVertex
100
AcDb2dVertex
 10
-14.04166195675387
 20
20.25723021082578
 30
0.0
  0
VERTEX
  5
57B
330
577
100
AcDbEntity
  8
GAIKEI
  6
Continuous
 62
     1
370
     0
100
AcDbVertex
100
AcDb2dVertex
 10
-14.04157608175386
 20
20.25752396082575
 30
0.0
  0
SEQEND
  5
57C
330
577
100
AcDbEntity
  8
GAIKEI
  6
Continuous
 62
     1
370
     0
  0
LINE
  5
57D
330
2
100
AcDbEntity
  8
GAIKEI
  6
Continuous
 62
     1
 48
0.010174
370
    40
100
AcDbLine
 10
-14.04244008175387
 20
20.15665958582574
 30
0.0
 11
-14.04244008175387
 21
20.20752858582577
 31
0.0
  0
POLYLINE
  5
57E
330
2
100
AcDbEntity
  8
GAIKEI
  6
Continuous
 62
     1
370
    40
100
AcDb2dPolyline
 66
     1
 10
0.0
 20
0.0
 30
0.0
  0
VERTEX
  5
57F
330
57E
100
AcDbEntity
  8
GAIKEI
  6
Continuous
 62
     1
370
     0
100
AcDbVertex
100
AcDb2dVertex
 10
-14.04244008175387
 20
20.15665958582574
 30
0.0
  0
VERTEX
  5
580
330
57E
100
AcDbEntity
  8
GAIKEI
  6
Continuous
 62
     1
370
     0
100
AcDbVertex
100
AcDb2dVertex
 10
-14.04183170675385
 20
20.10899496082576
 30
0.0
  0
VERTEX
  5
581
330
57E
100
AcDbEntity
  8
GAIKEI
  6
Continuous
 62
     1
370
     0
100
AcDbVertex
100
AcDb2dVertex
 10
-14.04166195675387
 20
20.10695408582578
 30
0.0
  0
VERTEX
  5
582
330
57E
100
AcDbEntity
  8
GAIKEI
  6
Continuous
 62
     1
370
     0
100
AcDbVertex
100
AcDb2dVertex
 10
-14.04157608175386
 20
20.10666033582575
 30
0.0
  0
SEQEND
  5
583
330
57E
100
AcDbEntity
  8
GAIKEI
  6
Continuous
 62
     1
370
     0
  0
LINE
  5
584
330
2
100
AcDbEntity
  8
GAIKEI
  6
Continuous
 62
     1
 48
0.014297
370
    40
100
AcDbLine
 10
-14.04157608175386
 20
20.10666033582575
 30
0.0
 11
-13.97763595675385
 21
20.07469321082576
 31
0.0
  0
ARC
  5
585
330
2
100
AcDbEntity
  8
GAIKEI
  6
Continuous
370
    13
100
AcDbCircle
 10
-12.38315545675385
 20
20.81640383582575
 30
0.0
 40
1.695729625
100
AcDbArc
 50
142.6589919999986
 51
180.6314459999998
  0
ARC
  5
586
330
2
100
AcDbEntity
  8
GAIKEI
  6
Continuous
370
    13
100
AcDbCircle
 10
-155.1367260817538
 20
19.37246458582578
 30
0.0
 40
141.06516775
100
AcDbArc
 50
359.9898909999997
 51
0.5788979999994954
  0
ARC
  5
587
330
2
100
AcDbEntity
  8
GAIKEI
  6
Continuous
 62
     1
370
    13
100
AcDbCircle
 10
-12.35831233175386
 20
13.66717858582578
 30
0.0
 40
1.582828624999999
100
AcDbArc
 50
196.5348989999995
 51
222.8806190000004
  0
ARC
  5
588
330
2
100
AcDbEntity
  8
GAIKEI
  6
Continuous
 62
     1
370
    13
100
AcDbCircle
 10
-12.35772858175386
 20
13.66736746082577
 30
0.0
 40
1.58343975
100
AcDbArc
 50
179.9949780000001
 51
191.0459410000007
  0
LINE
  5
589
330
2
100
AcDbEntity
  8
GAIKEI
  6
Continuous
 48
0.002049
370
    13
100
AcDbLine
 10
-13.51082195675386
 20
12.59724946082573
 30
0.0
 11
-13.51816720675386
 21
12.59010833582576
 31
0.0
  0
LINE
  5
58A
330
2
100
AcDbEntity
  8
GAIKEI
  6
Continuous
 62
     1
 48
0.060707
370
    13
100
AcDbLine
 10
-13.94116745675386
 20
13.67049933582578
 30
0.0
 11
-13.94116745675386
 21
13.97403283582579
 31
0.0
  0
LINE
  5
58B
330
2
100
AcDbEntity
  8
GAIKEI
  6
Continuous
 62
     1
 48
0.019548
370
    40
100
AcDbLine
 10
-13.84342920675385
 20
13.97339383582576
 30
0.0
 11
-13.94116745675386
 21
13.97403283582579
 31
0.0
  0
LINE
  5
58C
330
2
100
AcDbEntity
  8
GAIKEI
  6
Continuous
 62
     1
 48
0.019548
370
    40
100
AcDbLine
 10
-13.84342920675385
 20
14.19078971082578
 30
0.0
 11
-13.94116745675386
 21
14.19015071082575
 31
0.0
  0
LINE
  5
58D
330
2
100
AcDbEntity
  8
GAIKEI
  6
Continuous
 62
     1
 48
0.4767770000000001
370
    13
100
AcDbLine
 10
-13.94116745675386
 20
14.19015071082575
 30
0.0
 11
-13.94116745675386
 21
16.57403321082577
 31
0.0
  0
LINE
  5
58E
330
2
100
AcDbEntity
  8
GAIKEI
  6
Continuous
 62
     1
 48
0.019548
370
    40
100
AcDbLine
 10
-13.84342920675385
 20
16.57339233582578
 30
0.0
 11
-13.94116745675386
 21
16.57403321082577
 31
0.0
  0
LINE
  5
58F
330
2
100
AcDbEntity
  8
GAIKEI
  6
Continuous
 62
     1
 48
0.019548
370
    40
100
AcDbLine
 10
-13.84342920675385
 20
16.79079196082577
 30
0.0
 11
-13.94116745675386
 21
16.79015108582578
 31
0.0
  0
LINE
  5
590
330
2
100
AcDbEntity
  8
GAIKEI
  6
Continuous
 62
     1
370
    13
100
AcDbLine
 10
-13.94116745675386
 20
16.79015108582578
 30
0.0
 11
-13.94116745675386
 21
20.07403321082577
 31
0.0
  0
LINE
  5
591
330
2
100
AcDbEntity
  8
GAIKEI
  6
Continuous
 62
     1
 48
0.019548
370
    40
100
AcDbLine
 10
-13.84342920675385
 20
20.07339233582579
 30
0.0
 11
-13.94116745675386
 21
20.07403321082577
 31
0.0
  0
LINE
  5
592
330
2
100
AcDbEntity
  8
GAIKEI
  6
Continuous
 62
     1
 48
0.019548
370
    40
100
AcDbLine
 10
-13.84342920675385
 20
20.29079196082577
 30
0.0
 11
-13.94116745675386
 21
20.29015108582578
 31
0.0
  0
LINE
  5
593
330
2
100
AcDbEntity
  8
GAIKEI
  6
Continuous
 62
     1
 48
0.080709
370
    13
100
AcDbLine
 10
-13.94116745675386
 20
20.29015108582578
 30
0.0
 11
-13.94116745675386
 21
20.69369646082575
 31
0.0
  0
ARC
  5
594
330
2
100
AcDbEntity
  8
GAIKEI
  6
Continuous
370
    13
100
AcDbCircle
 10
-12.50023233175386
 20
20.91257621082579
 30
0.0
 40
1.543762875
100
AcDbArc
 50
89.91687200000161
 51
136.9338999999998
  0
ARC
  5
595
330
2
100
AcDbEntity
  8
GAIKEI
  6
Continuous
370
    13
100
AcDbCircle
 10
-12.47548458175386
 20
20.88615933582574
 30
0.0
 40
1.57997875
100
AcDbArc
 50
136.8468290000006
 51
142.6391570000001
  0
LINE
  5
596
330
2
100
AcDbEntity
  8
GAIKEI
  6
Continuous
 48
0.000598
370
    13
100
AcDbLine
 10
-13.94116745675386
 20
20.69368496082578
 30
0.0
 11
-13.94114845675386
 21
20.69667571082576
 31
0.0
  0
ARC
  5
597
330
2
100
AcDbEntity
  8
GAIKEI
  6
Continuous
 62
     1
370
    13
100
AcDbCircle
 10
-12.35822258175386
 20
20.69688558582575
 30
0.0
 40
1.582964624999999
100
AcDbArc
 50
89.99249599999975
 51
180.0075490000002
  0
LINE
  5
598
330
2
100
AcDbEntity
  8
GAIKEI
  6
Continuous
 48
0.000599
370
    13
100
AcDbLine
 10
-12.35801470675386
 20
22.27983233582577
 30
0.0
 11
-12.35502208175386
 21
22.27985133582578
 31
0.0
  0
ARC
  5
599
330
2
100
AcDbEntity
  8
GAIKEI
  6
Continuous
 62
     1
370
    40
100
AcDbCircle
 10
-9.918574956753857
 20
22.28585571082576
 30
0.0
 40
0.8328682500000002
100
AcDbArc
 50
177.9051999999997
 51
180.4145739999998
  0
ARC
  5
59A
330
2
100
AcDbEntity
  8
GAIKEI
  6
Continuous
 62
     1
370
    40
100
AcDbCircle
 10
-11.36828583175386
 20
22.28585571082576
 30
0.0
 40
0.8328682500000002
100
AcDbArc
 50
359.5854199999991
 51
2.094805000000571
  0
ARC
  5
59B
330
2
100
AcDbEntity
  8
GAIKEI
  6
Continuous
 62
     1
370
    40
100
AcDbCircle
 10
-6.318572706753855
 20
22.28585571082576
 30
0.0
 40
0.8328682500000002
100
AcDbArc
 50
177.9051999999997
 51
180.4145739999998
  0
ARC
  5
59C
330
2
100
AcDbEntity
  8
GAIKEI
  6
Continuous
 62
     1
370
    40
100
AcDbCircle
 10
-7.768283581753863
 20
22.28585571082576
 30
0.0
 40
0.8328682500000002
100
AcDbArc
 50
359.5854199999991
 51
2.094805000000571
  0
LINE
  5
59D
330
2
100
AcDbEntity
  8
GAIKEI
  6
Continuous
 62
     1
 48
0.014297
370
    40
100
AcDbLine
 10
-10.56799670675386
 20
22.38023896082578
 30
0.0
 11
-10.53602945675385
 21
22.31630083582579
 31
0.0
  0
POLYLINE
  5
59E
330
2
100
AcDbEntity
  8
GAIKEI
  6
Continuous
 62
     1
370
    40
100
AcDb2dPolyline
 66
     1
 10
0.0
 20
0.0
 30
0.0
  0
VERTEX
  5
59F
330
59E
100
AcDbEntity
  8
GAIKEI
  6
Continuous
 62
     1
370
     0
100
AcDbVertex
100
AcDb2dVertex
 10
-10.61799595675386
 20
22.38110496082575
 30
0.0
  0
VERTEX
  5
5A0
330
59E
100
AcDbEntity
  8
GAIKEI
  6
Continuous
 62
     1
370
     0
100
AcDbVertex
100
AcDb2dVertex
 10
-10.57033120675385
 20
22.38049458582574
 30
0.0
  0
VERTEX
  5
5A1
330
59E
100
AcDbEntity
  8
GAIKEI
  6
Continuous
 62
     1
370
     0
100
AcDbVertex
100
AcDb2dVertex
 10
-10.56829033175386
 20
22.38032671082576
 30
0.0
  0
VERTEX
  5
5A2
330
59E
100
AcDbEntity
  8
GAIKEI
  6
Continuous
 62
     1
370
     0
100
AcDbVertex
100
AcDb2dVertex
 10
-10.56799670675386
 20
22.38023896082578
 30
0.0
  0
SEQEND
  5
5A3
330
59E
100
AcDbEntity
  8
GAIKEI
  6
Continuous
 62
     1
370
     0
  0
LINE
  5
5A4
330
2
100
AcDbEntity
  8
GAIKEI
  6
Continuous
 62
     1
 48
0.010174
370
    40
100
AcDbLine
 10
-10.66886483175386
 20
22.38110496082575
 30
0.0
 11
-10.61799595675386
 21
22.38110496082575
 31
0.0
  0
POLYLINE
  5
5A5
330
2
100
AcDbEntity
  8
GAIKEI
  6
Continuous
 62
     1
370
    40
100
AcDb2dPolyline
 66
     1
 10
0.0
 20
0.0
 30
0.0
  0
VERTEX
  5
5A6
330
5A5
100
AcDbEntity
  8
GAIKEI
  6
Continuous
 62
     1
370
     0
100
AcDbVertex
100
AcDb2dVertex
 10
-10.66886483175386
 20
22.38110496082575
 30
0.0
  0
VERTEX
  5
5A7
330
5A5
100
AcDbEntity
  8
GAIKEI
  6
Continuous
 62
     1
370
     0
100
AcDbVertex
100
AcDb2dVertex
 10
-10.71652570675385
 20
22.38049458582574
 30
0.0
  0
VERTEX
  5
5A8
330
5A5
100
AcDbEntity
  8
GAIKEI
  6
Continuous
 62
     1
370
     0
100
AcDbVertex
100
AcDb2dVertex
 10
-10.71856658175386
 20
22.38032671082576
 30
0.0
  0
VERTEX
  5
5A9
330
5A5
100
AcDbEntity
  8
GAIKEI
  6
Continuous
 62
     1
370
     0
100
AcDbVertex
100
AcDb2dVertex
 10
-10.71886033175386
 20
22.38023896082578
 30
0.0
  0
SEQEND
  5
5AA
330
5A5
100
AcDbEntity
  8
GAIKEI
  6
Continuous
 62
     1
370
     0
  0
LINE
  5
5AB
330
2
100
AcDbEntity
  8
GAIKEI
  6
Continuous
 62
     1
 48
0.014297
370
    40
100
AcDbLine
 10
-10.71886033175386
 20
22.38023896082578
 30
0.0
 11
-10.75082745675385
 21
22.31630083582579
 31
0.0
  0
LINE
  5
5AC
330
2
100
AcDbEntity
  8
GAIKEI
  6
Continuous
 62
     1
 48
0.014297
370
    40
100
AcDbLine
 10
-6.967998206753861
 20
22.38023896082578
 30
0.0
 11
-6.936031081753867
 21
22.31630083582579
 31
0.0
  0
POLYLINE
  5
5AD
330
2
100
AcDbEntity
  8
GAIKEI
  6
Continuous
 62
     1
370
    40
100
AcDb2dPolyline
 66
     1
 10
0.0
 20
0.0
 30
0.0
  0
VERTEX
  5
5AE
330
5AD
100
AcDbEntity
  8
GAIKEI
  6
Continuous
 62
     1
370
     0
100
AcDbVertex
100
AcDb2dVertex
 10
-7.017993581753856
 20
22.38110496082575
 30
0.0
  0
VERTEX
  5
5AF
330
5AD
100
AcDbEntity
  8
GAIKEI
  6
Continuous
 62
     1
370
     0
100
AcDbVertex
100
AcDb2dVertex
 10
-6.970332831753864
 20
22.38049458582574
 30
0.0
  0
VERTEX
  5
5B0
330
5AD
100
AcDbEntity
  8
GAIKEI
  6
Continuous
 62
     1
370
     0
100
AcDbVertex
100
AcDb2dVertex
 10
-6.968291956753859
 20
22.38032671082576
 30
0.0
  0
VERTEX
  5
5B1
330
5AD
100
AcDbEntity
  8
GAIKEI
  6
Continuous
 62
     1
370
     0
100
AcDbVertex
100
AcDb2dVertex
 10
-6.967998206753861
 20
22.38023896082578
 30
0.0
  0
SEQEND
  5
5B2
330
5AD
100
AcDbEntity
  8
GAIKEI
  6
Continuous
 62
     1
370
     0
  0
LINE
  5
5B3
330
2
100
AcDbEntity
  8
GAIKEI
  6
Continuous
 62
     1
 48
0.010174
370
    40
100
AcDbLine
 10
-7.068862581753862
 20
22.38110496082575
 30
0.0
 11
-7.017993581753856
 21
22.38110496082575
 31
0.0
  0
POLYLINE
  5
5B4
330
2
100
AcDbEntity
  8
GAIKEI
  6
Continuous
 62
     1
370
    40
100
AcDb2dPolyline
 66
     1
 10
0.0
 20
0.0
 30
0.0
  0
VERTEX
  5
5B5
330
5B4
100
AcDbEntity
  8
GAIKEI
  6
Continuous
 62
     1
370
     0
100
AcDbVertex
100
AcDb2dVertex
 10
-7.068862581753862
 20
22.38110496082575
 30
0.0
  0
VERTEX
  5
5B6
330
5B4
100
AcDbEntity
  8
GAIKEI
  6
Continuous
 62
     1
370
     0
100
AcDbVertex
100
AcDb2dVertex
 10
-7.116527206753858
 20
22.38049458582574
 30
0.0
  0
VERTEX
  5
5B7
330
5B4
100
AcDbEntity
  8
GAIKEI
  6
Continuous
 62
     1
370
     0
100
AcDbVertex
100
AcDb2dVertex
 10
-7.118568081753863
 20
22.38032671082576
 30
0.0
  0
VERTEX
  5
5B8
330
5B4
100
AcDbEntity
  8
GAIKEI
  6
Continuous
 62
     1
370
     0
100
AcDbVertex
100
AcDb2dVertex
 10
-7.118861831753861
 20
22.38023896082578
 30
0.0
  0
SEQEND
  5
5B9
330
5B4
100
AcDbEntity
  8
GAIKEI
  6
Continuous
 62
     1
370
     0
  0
LINE
  5
5BA
330
2
100
AcDbEntity
  8
GAIKEI
  6
Continuous
 62
     1
 48
0.014297
370
    40
100
AcDbLine
 10
-7.118861831753861
 20
22.38023896082578
 30
0.0
 11
-7.150828956753855
 21
22.31630083582579
 31
0.0
  0
LINE
  5
5BB
330
2
100
AcDbEntity
  8
GAIKEI
  6
Continuous
370
    13
100
AcDbLine
 10
-5.188865331753859
 20
22.45641083582578
 30
0.0
 11
-12.49799320675386
 21
22.45641083582578
 31
0.0
  0
LINE
  5
5BC
330
2
100
AcDbEntity
  8
GAIKEI
  6
Continuous
 62
     1
 48
0.320707
370
    13
100
AcDbLine
 10
-12.35502208175386
 20
22.27982846082577
 30
0.0
 11
-10.75148745675386
 21
22.27982846082577
 31
0.0
  0
LINE
  5
5BD
330
2
100
AcDbEntity
  8
GAIKEI
  6
Continuous
 62
     1
 48
0.019548
370
    40
100
AcDbLine
 10
-10.75212833175385
 20
22.18209208582576
 30
0.0
 11
-10.75148745675386
 21
22.27982846082577
 31
0.0
  0
LINE
  5
5BE
330
2
100
AcDbEntity
  8
GAIKEI
  6
Continuous
 62
     1
 48
0.019548
370
    40
100
AcDbLine
 10
-10.53473245675386
 20
22.18209208582576
 30
0.0
 11
-10.53536958175385
 21
22.27982846082577
 31
0.0
  0
LINE
  5
5BF
330
2
100
AcDbEntity
  8
GAIKEI
  6
Continuous
 62
     1
370
    13
100
AcDbLine
 10
-10.53536958175385
 20
22.27982846082577
 30
0.0
 11
-7.151488956753865
 21
22.27982846082577
 31
0.0
  0
LINE
  5
5C0
330
2
100
AcDbEntity
  8
GAIKEI
  6
Continuous
 62
     1
 48
0.019548
370
    40
100
AcDbLine
 10
-7.152125956753849
 20
22.18209208582576
 30
0.0
 11
-7.151488956753865
 21
22.27982846082577
 31
0.0
  0
LINE
  5
5C1
330
2
100
AcDbEntity
  8
GAIKEI
  6
Continuous
 62
     1
 48
0.019548
370
    40
100
AcDbLine
 10
-6.934730206753869
 20
22.18209208582576
 30
0.0
 11
-6.935371081753856
 21
22.27982846082577
 31
0.0
  0
LINE
  5
5C2
330
2
100
AcDbEntity
  8
GAIKEI
  6
Continuous
 62
     1
 48
0.320709
370
    13
100
AcDbLine
 10
-6.935371081753856
 20
22.27982846082577
 30
0.0
 11
-5.331824956753848
 21
22.27982846082577
 31
0.0
  0
ARC
  5
5C3
330
2
100
AcDbEntity
  8
GAIKEI
  6
Continuous
370
    13
100
AcDbCircle
 10
-5.186614706753857
 20
20.91260283582577
 30
0.0
 40
1.54373675
100
AcDbArc
 50
43.0656810000014
 51
90.08351499999973
  0
LINE
  5
5C4
330
2
100
AcDbEntity
  8
GAIKEI
  6
Continuous
 48
0.000598
370
    13
100
AcDbLine
 10
-5.331836331753862
 20
22.27983233582577
 30
0.0
 11
-5.328845706753867
 21
22.27981321082578
 31
0.0
  0
ARC
  5
5C5
330
2
100
AcDbEntity
  8
GAIKEI
  6
Continuous
 62
     1
370
    13
100
AcDbCircle
 10
-5.328635831753857
 20
20.69688558582575
 30
0.0
 40
1.582964624999999
100
AcDbArc
 50
359.9924979999993
 51
90.00755700000018
  0
ARC
  5
5C6
330
2
100
AcDbEntity
  8
GAIKEI
  6
Continuous
 62
     1
370
    13
100
AcDbCircle
 10
-5.329047831753854
 20
13.66735408582573
 30
0.0
 40
1.583356
100
AcDbArc
 50
348.9535899999992
 51
0.0055609999997533
  0
ARC
  5
5C7
330
2
100
AcDbEntity
  8
GAIKEI
  6
Continuous
 62
     1
370
    40
100
AcDbCircle
 10
-3.739665706753868
 20
17.40694571082574
 30
0.0
 40
0.8328682500000002
100
AcDbArc
 50
269.5854189999977
 51
272.0948030000014
  0
ARC
  5
5C8
330
2
100
AcDbEntity
  8
GAIKEI
  6
Continuous
 62
     1
370
    40
100
AcDbCircle
 10
-3.739665706753868
 20
15.95723671082575
 30
0.0
 40
0.8328682500000002
100
AcDbArc
 50
87.90519700000183
 51
90.41458100000234
  0
ARC
  5
5C9
330
2
100
AcDbEntity
  8
GAIKEI
  6
Continuous
 62
     1
370
    40
100
AcDbCircle
 10
-3.739665706753868
 20
20.90694571082574
 30
0.0
 40
0.8328682500000002
100
AcDbArc
 50
269.5854189999977
 51
272.0948030000014
  0
LINE
  5
5CA
330
2
100
AcDbEntity
  8
GAIKEI
  6
Continuous
 48
0.000599
370
    13
100
AcDbLine
 10
-3.745689081753852
 20
20.69667958582576
 30
0.0
 11
-3.745669956753857
 21
20.69368496082578
 31
0.0
  0
ARC
  5
5CB
330
2
100
AcDbEntity
  8
GAIKEI
  6
Continuous
370
    13
100
AcDbCircle
 10
-5.210860831753848
 20
20.88660183582576
 30
0.0
 40
1.579301375
100
AcDbArc
 50
37.35931100000048
 51
43.15414599999978
  0
ARC
  5
5CC
330
2
100
AcDbEntity
  8
GAIKEI
  6
Continuous
370
    13
100
AcDbCircle
 10
-5.303794581753862
 20
20.81637333582577
 30
0.0
 40
1.695822124999999
100
AcDbArc
 50
359.3695969999995
 51
37.33993399999981
  0
ARC
  5
5CD
330
2
100
AcDbEntity
  8
GAIKEI
  6
Continuous
370
    13
100
AcDbCircle
 10
-5.252925581753856
 20
13.57377958582574
 30
0.0
 40
1.637613125
100
AcDbArc
 50
351.9294679999998
 51
359.9982649999994
  0
POLYLINE
  5
5CE
330
2
100
AcDbEntity
  8
GAIKEI
  6
Continuous
370
    13
100
AcDb2dPolyline
 66
     1
 10
0.0
 20
0.0
 30
0.0
  0
VERTEX
  5
5CF
330
5CE
100
AcDbEntity
  8
GAIKEI
  6
Continuous
370
     0
100
AcDbVertex
100
AcDb2dVertex
 10
-3.631530456753864
 20
13.34387158582578
 30
0.0
  0
VERTEX
  5
5D0
330
5CE
100
AcDbEntity
  8
GAIKEI
  6
Continuous
370
     0
100
AcDbVertex
100
AcDb2dVertex
 10
-3.647079206753858
 20
13.25334883582579
 30
0.0
  0
VERTEX
  5
5D1
330
5CE
100
AcDbEntity
  8
GAIKEI
  6
Continuous
370
     0
100
AcDbVertex
100
AcDb2dVertex
 10
-3.667991331753853
 20
13.16357183582576
 30
0.0
  0
VERTEX
  5
5D2
330
5CE
100
AcDbEntity
  8
GAIKEI
  6
Continuous
370
     0
100
AcDbVertex
100
AcDb2dVertex
 10
-3.694163956753868
 20
13.07526158582575
 30
0.0
  0
VERTEX
  5
5D3
330
5CE
100
AcDbEntity
  8
GAIKEI
  6
Continuous
370
     0
100
AcDbVertex
100
AcDb2dVertex
 10
-3.725330081753867
 20
12.98922871082575
 30
0.0
  0
VERTEX
  5
5D4
330
5CE
100
AcDbEntity
  8
GAIKEI
  6
Continuous
370
     0
100
AcDbVertex
100
AcDb2dVertex
 10
-3.755897206753857
 20
12.91752196082578
 30
0.0
  0
VERTEX
  5
5D5
330
5CE
100
AcDbEntity
  8
GAIKEI
  6
Continuous
370
     0
100
AcDbVertex
100
AcDb2dVertex
 10
-3.789424581753848
 20
12.84880583582574
 30
0.0
  0
VERTEX
  5
5D6
330
5CE
100
AcDbEntity
  8
GAIKEI
  6
Continuous
370
     0
100
AcDbVertex
100
AcDb2dVertex
 10
-3.825271331753867
 20
12.78387208582578
 30
0.0
  0
VERTEX
  5
5D7
330
5CE
100
AcDbEntity
  8
GAIKEI
  6
Continuous
370
     0
100
AcDbVertex
100
AcDb2dVertex
 10
-3.85313008175386
 20
12.73823108582573
 30
0.0
  0
VERTEX
  5
5D8
330
5CE
100
AcDbEntity
  8
GAIKEI
  6
Continuous
370
     0
100
AcDbVertex
100
AcDb2dVertex
 10
-3.881263456753856
 20
12.69573158582577
 30
0.0
  0
VERTEX
  5
5D9
330
5CE
100
AcDbEntity
  8
GAIKEI
  6
Continuous
370
     0
100
AcDbVertex
100
AcDb2dVertex
 10
-3.930678956753865
 20
12.62857771082574
 30
0.0
  0
VERTEX
  5
5DA
330
5CE
100
AcDbEntity
  8
GAIKEI
  6
Continuous
370
     0
100
AcDbVertex
100
AcDb2dVertex
 10
-3.973277706753862
 20
12.57782696082577
 30
0.0
  0
VERTEX
  5
5DB
330
5CE
100
AcDbEntity
  8
GAIKEI
  6
Continuous
370
     0
100
AcDbVertex
100
AcDb2dVertex
 10
-3.991222081753846
 20
12.55878396082576
 30
0.0
  0
VERTEX
  5
5DC
330
5CE
100
AcDbEntity
  8
GAIKEI
  6
Continuous
370
     0
100
AcDbVertex
100
AcDb2dVertex
 10
-4.003692331753853
 20
12.54711483582579
 30
0.0
  0
VERTEX
  5
5DD
330
5CE
100
AcDbEntity
  8
GAIKEI
  6
Continuous
370
     0
100
AcDbVertex
100
AcDb2dVertex
 10
-4.008475956753855
 20
12.54373883582579
 30
0.0
  0
VERTEX
  5
5DE
330
5CE
100
AcDbEntity
  8
GAIKEI
  6
Continuous
370
     0
100
AcDbVertex
100
AcDb2dVertex
 10
-4.009399081753855
 20
12.54342221082575
 30
0.0
  0
VERTEX
  5
5DF
330
5CE
100
AcDbEntity
  8
GAIKEI
  6
Continuous
370
     0
100
AcDbVertex
100
AcDb2dVertex
 10
-4.00973483175386
 20
12.54341646082574
 30
0.0
  0
SEQEND
  5
5E0
330
5CE
100
AcDbEntity
  8
GAIKEI
  6
Continuous
370
     0
  0
ARC
  5
5E1
330
2
100
AcDbEntity
  8
GAIKEI
  6
Continuous
 62
     1
370
    40
100
AcDbCircle
 10
-3.739665706753868
 20
14.80694721082577
 30
0.0
 40
0.8328682500000002
100
AcDbArc
 50
269.5854189999977
 51
272.0948030000014
  0
ARC
  5
5E2
330
2
100
AcDbEntity
  8
GAIKEI
  6
Continuous
 62
     1
370
    40
100
AcDbCircle
 10
-3.739665706753868
 20
13.35723633582577
 30
0.0
 40
0.8328682500000002
100
AcDbArc
 50
87.90519700000183
 51
90.41458100000234
  0
LINE
  5
5E3
330
2
100
AcDbEntity
  8
GAIKEI
  6
Continuous
 62
     1
 48
0.019548
370
    40
100
AcDbLine
 10
-3.843429206753853
 20
20.07339233582579
 30
0.0
 11
-3.745692831753856
 21
20.07403321082577
 31
0.0
  0
LINE
  5
5E4
330
2
100
AcDbEntity
  8
GAIKEI
  6
Continuous
 62
     1
 48
0.019548
370
    40
100
AcDbLine
 10
-3.843429206753853
 20
16.79079196082577
 30
0.0
 11
-3.745692831753856
 21
16.79015108582578
 31
0.0
  0
LINE
  5
5E5
330
2
100
AcDbEntity
  8
GAIKEI
  6
Continuous
 62
     1
 48
0.019548
370
    40
100
AcDbLine
 10
-3.843429206753853
 20
16.57339233582578
 30
0.0
 11
-3.745692831753856
 21
16.57403321082577
 31
0.0
  0
LINE
  5
5E6
330
2
100
AcDbEntity
  8
GAIKEI
  6
Continuous
 62
     1
 48
0.019548
370
    40
100
AcDbLine
 10
-3.843429206753853
 20
14.19078971082578
 30
0.0
 11
-3.745692831753856
 21
14.19015071082575
 31
0.0
  0
LINE
  5
5E7
330
2
100
AcDbEntity
  8
GAIKEI
  6
Continuous
 62
     1
 48
0.019548
370
    40
100
AcDbLine
 10
-3.843429206753853
 20
13.97339383582576
 30
0.0
 11
-3.745692831753856
 21
13.97403283582579
 31
0.0
  0
LINE
  5
5E8
330
2
100
AcDbEntity
  8
GAIKEI
  6
Continuous
 62
     1
 48
0.060709
370
    13
100
AcDbLine
 10
-3.745692831753856
 20
13.97403283582579
 30
0.0
 11
-3.745692831753856
 21
13.67048596082574
 31
0.0
  0
LINE
  5
5E9
330
2
100
AcDbEntity
  8
GAIKEI
  6
Continuous
 62
     1
 48
0.014297
370
    40
100
AcDbLine
 10
-3.645282456753861
 20
16.60666033582575
 30
0.0
 11
-3.709220581753868
 21
16.57469321082575
 31
0.0
  0
POLYLINE
  5
5EA
330
2
100
AcDbEntity
  8
GAIKEI
  6
Continuous
 62
     1
370
    40
100
AcDb2dPolyline
 66
     1
 10
0.0
 20
0.0
 30
0.0
  0
VERTEX
  5
5EB
330
5EA
100
AcDbEntity
  8
GAIKEI
  6
Continuous
 62
     1
370
     0
100
AcDbVertex
100
AcDb2dVertex
 10
-3.644416456753859
 20
16.65665958582573
 30
0.0
  0
VERTEX
  5
5EC
330
5EA
100
AcDbEntity
  8
GAIKEI
  6
Continuous
 62
     1
370
     0
100
AcDbVertex
100
AcDb2dVertex
 10
-3.645026831753853
 20
16.60899496082575
 30
0.0
  0
VERTEX
  5
5ED
330
5EA
100
AcDbEntity
  8
GAIKEI
  6
Continuous
 62
     1
370
     0
100
AcDbVertex
100
AcDb2dVertex
 10
-3.645194706753855
 20
16.60695408582578
 30
0.0
  0
VERTEX
  5
5EE
330
5EA
100
AcDbEntity
  8
GAIKEI
  6
Continuous
 62
     1
370
     0
100
AcDbVertex
100
AcDb2dVertex
 10
-3.645282456753861
 20
16.60666033582575
 30
0.0
  0
SEQEND
  5
5EF
330
5EA
100
AcDbEntity
  8
GAIKEI
  6
Continuous
 62
     1
370
     0
  0
LINE
  5
5F0
330
2
100
AcDbEntity
  8
GAIKEI
  6
Continuous
 62
     1
 48
0.010173
370
    40
100
AcDbLine
 10
-3.644416456753859
 20
16.65665958582573
 30
0.0
 11
-3.644416456753859
 21
16.70752471082576
 31
0.0
  0
POLYLINE
  5
5F1
330
2
100
AcDbEntity
  8
GAIKEI
  6
Continuous
 62
     1
370
    40
100
AcDb2dPolyline
 66
     1
 10
0.0
 20
0.0
 30
0.0
  0
VERTEX
  5
5F2
330
5F1
100
AcDbEntity
  8
GAIKEI
  6
Continuous
 62
     1
370
     0
100
AcDbVertex
100
AcDb2dVertex
 10
-3.644416456753859
 20
16.70752471082576
 30
0.0
  0
VERTEX
  5
5F3
330
5F1
100
AcDbEntity
  8
GAIKEI
  6
Continuous
 62
     1
370
     0
100
AcDbVertex
100
AcDb2dVertex
 10
-3.645026831753853
 20
16.75518933582575
 30
0.0
  0
VERTEX
  5
5F4
330
5F1
100
AcDbEntity
  8
GAIKEI
  6
Continuous
 62
     1
370
     0
100
AcDbVertex
100
AcDb2dVertex
 10
-3.645194706753855
 20
16.75723021082578
 30
0.0
  0
VERTEX
  5
5F5
330
5F1
100
AcDbEntity
  8
GAIKEI
  6
Continuous
 62
     1
370
     0
100
AcDbVertex
100
AcDb2dVertex
 10
-3.645282456753861
 20
16.75752396082575
 30
0.0
  0
SEQEND
  5
5F6
330
5F1
100
AcDbEntity
  8
GAIKEI
  6
Continuous
 62
     1
370
     0
  0
LINE
  5
5F7
330
2
100
AcDbEntity
  8
GAIKEI
  6
Continuous
 62
     1
 48
0.014297
370
    40
100
AcDbLine
 10
-3.645282456753861
 20
16.75752396082575
 30
0.0
 11
-3.709220581753868
 21
16.78949108582574
 31
0.0
  0
LINE
  5
5F8
330
2
100
AcDbEntity
  8
GAIKEI
  6
Continuous
 62
     1
 48
0.014297
370
    40
100
AcDbLine
 10
-3.645282456753861
 20
20.10666033582575
 30
0.0
 11
-3.709220581753868
 21
20.07469321082576
 31
0.0
  0
POLYLINE
  5
5F9
330
2
100
AcDbEntity
  8
GAIKEI
  6
Continuous
 62
     1
370
    40
100
AcDb2dPolyline
 66
     1
 10
0.0
 20
0.0
 30
0.0
  0
VERTEX
  5
5FA
330
5F9
100
AcDbEntity
  8
GAIKEI
  6
Continuous
 62
     1
370
     0
100
AcDbVertex
100
AcDb2dVertex
 10
-3.644416456753859
 20
20.15665958582574
 30
0.0
  0
VERTEX
  5
5FB
330
5F9
100
AcDbEntity
  8
GAIKEI
  6
Continuous
 62
     1
370
     0
100
AcDbVertex
100
AcDb2dVertex
 10
-3.645026831753853
 20
20.10899496082576
 30
0.0
  0
VERTEX
  5
5FC
330
5F9
100
AcDbEntity
  8
GAIKEI
  6
Continuous
 62
     1
370
     0
100
AcDbVertex
100
AcDb2dVertex
 10
-3.645194706753855
 20
20.10695408582578
 30
0.0
  0
VERTEX
  5
5FD
330
5F9
100
AcDbEntity
  8
GAIKEI
  6
Continuous
 62
     1
370
     0
100
AcDbVertex
100
AcDb2dVertex
 10
-3.645282456753861
 20
20.10666033582575
 30
0.0
  0
SEQEND
  5
5FE
330
5F9
100
AcDbEntity
  8
GAIKEI
  6
Continuous
 62
     1
370
     0
  0
ARC
  5
5FF
330
2
100
AcDbEntity
  8
GAIKEI
  6
Continuous
370
    13
100
AcDbCircle
 10
137.5142825432462
 20
19.37213658582576
 30
0.0
 40
141.129585875
100
AcDbArc
 50
179.4212280000006
 51
180.0099670000007
  0
LINE
  5
600
330
2
100
AcDbEntity
  8
GAIKEI
  6
Continuous
370
    13
100
AcDbLine
 10
-3.615314206753851
 20
13.57372996082577
 30
0.0
 11
-3.615314206753851
 21
19.34757758582574
 31
0.0
  0
LINE
  5
601
330
2
100
AcDbEntity
  8
GAIKEI
  6
Continuous
 62
     1
 48
0.014297
370
    40
100
AcDbLine
 10
-3.645282456753861
 20
14.00665996082577
 30
0.0
 11
-3.709220581753868
 21
13.97469083582578
 31
0.0
  0
POLYLINE
  5
602
330
2
100
AcDbEntity
  8
GAIKEI
  6
Continuous
 62
     1
370
    40
100
AcDb2dPolyline
 66
     1
 10
0.0
 20
0.0
 30
0.0
  0
VERTEX
  5
603
330
602
100
AcDbEntity
  8
GAIKEI
  6
Continuous
 62
     1
370
     0
100
AcDbVertex
100
AcDb2dVertex
 10
-3.644416456753859
 20
14.05665721082576
 30
0.0
  0
VERTEX
  5
604
330
602
100
AcDbEntity
  8
GAIKEI
  6
Continuous
 62
     1
370
     0
100
AcDbVertex
100
AcDb2dVertex
 10
-3.645026831753853
 20
14.00899458582577
 30
0.0
  0
VERTEX
  5
605
330
602
100
AcDbEntity
  8
GAIKEI
  6
Continuous
 62
     1
370
     0
100
AcDbVertex
100
AcDb2dVertex
 10
-3.645194706753855
 20
14.00695371082574
 30
0.0
  0
VERTEX
  5
606
330
602
100
AcDbEntity
  8
GAIKEI
  6
Continuous
 62
     1
370
     0
100
AcDbVertex
100
AcDb2dVertex
 10
-3.645282456753861
 20
14.00665996082577
 30
0.0
  0
SEQEND
  5
607
330
602
100
AcDbEntity
  8
GAIKEI
  6
Continuous
 62
     1
370
     0
  0
LINE
  5
608
330
2
100
AcDbEntity
  8
GAIKEI
  6
Continuous
 62
     1
 48
0.010174
370
    40
100
AcDbLine
 10
-3.644416456753859
 20
14.05665721082576
 30
0.0
 11
-3.644416456753859
 21
14.10752621082574
 31
0.0
  0
POLYLINE
  5
609
330
2
100
AcDbEntity
  8
GAIKEI
  6
Continuous
 62
     1
370
    40
100
AcDb2dPolyline
 66
     1
 10
0.0
 20
0.0
 30
0.0
  0
VERTEX
  5
60A
330
609
100
AcDbEntity
  8
GAIKEI
  6
Continuous
 62
     1
370
     0
100
AcDbVertex
100
AcDb2dVertex
 10
-3.644416456753859
 20
14.10752621082574
 30
0.0
  0
VERTEX
  5
60B
330
609
100
AcDbEntity
  8
GAIKEI
  6
Continuous
 62
     1
370
     0
100
AcDbVertex
100
AcDb2dVertex
 10
-3.645026831753853
 20
14.15518896082577
 30
0.0
  0
VERTEX
  5
60C
330
609
100
AcDbEntity
  8
GAIKEI
  6
Continuous
 62
     1
370
     0
100
AcDbVertex
100
AcDb2dVertex
 10
-3.645194706753855
 20
14.15723171082575
 30
0.0
  0
VERTEX
  5
60D
330
609
100
AcDbEntity
  8
GAIKEI
  6
Continuous
 62
     1
370
     0
100
AcDbVertex
100
AcDb2dVertex
 10
-3.645282456753861
 20
14.15752358582577
 30
0.0
  0
SEQEND
  5
60E
330
609
100
AcDbEntity
  8
GAIKEI
  6
Continuous
 62
     1
370
     0
  0
LINE
  5
60F
330
2
100
AcDbEntity
  8
GAIKEI
  6
Continuous
 62
     1
 48
0.014297
370
    40
100
AcDbLine
 10
-3.645282456753861
 20
14.15752358582577
 30
0.0
 11
-3.709220581753868
 21
14.18949271082576
 31
0.0
  0
LINE
  5
610
330
2
100
AcDbEntity
  8
GAIKEI
  6
Continuous
 62
     1
 48
0.010174
370
    40
100
AcDbLine
 10
-3.644416456753859
 20
20.15665958582574
 30
0.0
 11
-3.644416456753859
 21
20.20752858582577
 31
0.0
  0
LINE
  5
611
330
2
100
AcDbEntity
  8
GAIKEI
  6
Continuous
 62
     1
 48
0.019548
370
    40
100
AcDbLine
 10
-3.843429206753853
 20
20.29079196082577
 30
0.0
 11
-3.745692831753856
 21
20.29015108582578
 31
0.0
  0
ARC
  5
612
330
2
100
AcDbEntity
  8
GAIKEI
  6
Continuous
 62
     1
370
    40
100
AcDbCircle
 10
-3.739665706753868
 20
19.45723858582576
 30
0.0
 40
0.8328682500000002
100
AcDbArc
 50
87.90519700000183
 51
90.41458100000234
  0
LINE
  5
613
330
2
100
AcDbEntity
  8
GAIKEI
  6
Continuous
 62
     1
 48
0.014297
370
    40
100
AcDbLine
 10
-3.645282456753861
 20
20.25752396082575
 30
0.0
 11
-3.709220581753868
 21
20.28949108582574
 31
0.0
  0
POLYLINE
  5
614
330
2
100
AcDbEntity
  8
GAIKEI
  6
Continuous
 62
     1
370
    40
100
AcDb2dPolyline
 66
     1
 10
0.0
 20
0.0
 30
0.0
  0
VERTEX
  5
615
330
614
100
AcDbEntity
  8
GAIKEI
  6
Continuous
 62
     1
370
     0
100
AcDbVertex
100
AcDb2dVertex
 10
-3.644416456753859
 20
20.20752858582577
 30
0.0
  0
VERTEX
  5
616
330
614
100
AcDbEntity
  8
GAIKEI
  6
Continuous
 62
     1
370
     0
100
AcDbVertex
100
AcDb2dVertex
 10
-3.645026831753853
 20
20.25518933582575
 30
0.0
  0
VERTEX
  5
617
330
614
100
AcDbEntity
  8
GAIKEI
  6
Continuous
 62
     1
370
     0
100
AcDbVertex
100
AcDb2dVertex
 10
-3.645194706753855
 20
20.25723021082578
 30
0.0
  0
VERTEX
  5
618
330
614
100
AcDbEntity
  8
GAIKEI
  6
Continuous
 62
     1
370
     0
100
AcDbVertex
100
AcDb2dVertex
 10
-3.645282456753861
 20
20.25752396082575
 30
0.0
  0
SEQEND
  5
619
330
614
100
AcDbEntity
  8
GAIKEI
  6
Continuous
 62
     1
370
     0
  0
LINE
  5
61A
330
2
100
AcDbEntity
  8
GAIKEI
  6
Continuous
 48
0.00035
370
    40
100
AcDbLine
 10
-12.44359933175386
 20
12.18209208582576
 30
0.0
 11
-12.44534845675386
 21
12.18209208582576
 31
0.0
  0
ARC
  5
61B
330
2
100
AcDbEntity
  8
GAIKEI
  6
Continuous
370
    40
100
AcDbCircle
 10
-12.44621245675385
 20
13.57930896082578
 30
0.0
 40
1.397154875
100
AcDbArc
 50
179.9645430000005
 51
270.0354599999994
  0
LINE
  5
61C
330
2
100
AcDbEntity
  8
GAIKEI
  6
Continuous
 48
0.00035
370
    40
100
AcDbLine
 10
-13.84342920675385
 20
20.78400946082579
 30
0.0
 11
-13.84342920675385
 21
20.78225846082577
 31
0.0
  0
LINE
  5
61D
330
2
100
AcDbEntity
  8
GAIKEI
  6
Continuous
 62
     1
 48
0.000351
370
    40
100
AcDbLine
 10
-13.84342920675385
 20
13.58192771082574
 30
0.0
 11
-13.84342920675385
 21
13.58017296082576
 31
0.0
  0
ARC
  5
61E
330
2
100
AcDbEntity
  8
GAIKEI
  6
Continuous
370
    40
100
AcDbCircle
 10
-12.44621245675385
 20
20.78487533582578
 30
0.0
 40
1.397154875
100
AcDbArc
 50
89.96454699999871
 51
180.0354569999995
  0
LINE
  5
61F
330
2
100
AcDbEntity
  8
GAIKEI
  6
Continuous
370
    40
100
AcDbLine
 10
-12.44534845675386
 20
22.18209208582576
 30
0.0
 11
-5.241511956753868
 21
22.18209208582576
 31
0.0
  0
ARC
  5
620
330
2
100
AcDbEntity
  8
GAIKEI
  6
Continuous
370
    40
100
AcDbCircle
 10
-5.240646081753851
 20
20.78487533582578
 30
0.0
 40
1.397154875
100
AcDbArc
 50
359.9645390000006
 51
90.03545799999947
  0
LINE
  5
621
330
2
100
AcDbEntity
  8
GAIKEI
  6
Continuous
370
    40
100
AcDbLine
 10
-3.843429206753853
 20
13.58017296082576
 30
0.0
 11
-3.843429206753853
 21
20.78400946082579
 31
0.0
  0
ARC
  5
622
330
2
100
AcDbEntity
  8
GAIKEI
  6
Continuous
370
    40
100
AcDbCircle
 10
-5.240646081753851
 20
13.57930896082578
 30
0.0
 40
1.397154875
100
AcDbArc
 50
269.9645420000005
 51
0.0354609999993806
  0
LINE
  5
623
330
2
100
AcDbEntity
  8
GAIKEI
  6
Continuous
 48
0.000349
370
    40
100
AcDbLine
 10
-5.241511956753868
 20
12.18209208582576
 30
0.0
 11
-5.243259081753848
 21
12.18209208582576
 31
0.0
  0
LINE
  5
624
330
2
100
AcDbEntity
  8
GAIKEI
  6
Continuous
 62
     1
 48
0.059283
370
    13
100
AcDbLine
 10
-6.48848695675386
 20
13.42862846082576
 30
0.0
 11
-6.48939858175386
 21
13.13221683582574
 31
0.0
  0
ARC
  5
625
330
2
100
AcDbEntity
  8
GAIKEI
  6
Continuous
 62
     1
370
    13
100
AcDbCircle
 10
-6.418193456753854
 20
13.13187933582574
 30
0.0
 40
0.071205
100
AcDbArc
 50
179.7283820000007
 51
0.2905600000005903
  0
LINE
  5
626
330
2
100
AcDbEntity
  8
GAIKEI
  6
Continuous
 62
     1
 48
0.05928
370
    13
100
AcDbLine
 10
-6.347781831753863
 20
13.42864171082576
 30
0.0
 11
-6.346957831753854
 21
13.13224171082575
 31
0.0
  0
ARC
  5
627
330
2
100
AcDbEntity
  8
GAIKEI
  6
Continuous
 62
     1
370
    13
100
AcDbCircle
 10
-6.418128706753861
 20
13.42856733582576
 30
0.0
 40
0.070338625
100
AcDbArc
 50
0.0610489999996901
 51
179.9496940000001
  0
LINE
  5
628
330
2
100
AcDbEntity
  8
GAIKEI
  6
Continuous
 62
     1
 48
0.437386
370
    13
100
AcDbLine
 10
-6.273664273657203
 20
13.71268319475828
 30
0.0
 11
-11.41161737606596
 21
13.71207822601897
 31
0.0
  0
LINE
  5
629
330
2
100
AcDbEntity
  8
GAIKEI
  6
Continuous
 62
     1
 48
0.039321
370
    13
100
AcDbLine
 10
-6.238529244374547
 20
13.43223168852168
 30
0.0
 11
-6.239490206753856
 21
13.13025046082575
 31
0.0
  0
ARC
  5
62A
330
2
100
AcDbEntity
  8
GAIKEI
  6
Continuous
 62
     1
370
    13
100
AcDbCircle
 10
-6.168170581753855
 20
13.12991658582578
 30
0.0
 40
0.071319625
100
AcDbArc
 50
179.7318930000006
 51
0.2875740000003366
  0
LINE
  5
62B
330
2
100
AcDbEntity
  8
GAIKEI
  6
Continuous
 62
     1
 48
0.000161
370
    13
100
AcDbLine
 10
-6.09683583175385
 20
13.13108008582574
 30
0.0
 11
-6.09683195675386
 21
13.13027521082577
 31
0.0
  0
LINE
  5
62C
330
2
100
AcDbEntity
  8
GAIKEI
  6
Continuous
 62
     1
 48
0.059925
370
    13
100
AcDbLine
 10
-6.097587206753857
 20
13.43070546082575
 30
0.0
 11
-6.09683583175385
 21
13.13108008582574
 31
0.0
  0
ARC
  5
62D
330
2
100
AcDbEntity
  8
GAIKEI
  6
Continuous
 62
     1
370
    13
100
AcDbCircle
 10
-6.168063831753869
 20
13.43059683582575
 30
0.0
 40
0.070484375
100
AcDbArc
 50
0.0883869999996698
 51
179.9449540000002
  0
LINE
  5
62E
330
2
100
AcDbEntity
  8
GAIKEI
  6
Continuous
 62
     1
 48
0.399792
370
    13
100
AcDbLine
 10
-5.575163470021564
 20
19.95228736443036
 30
0.0
 11
-5.57374671811236
 21
14.41286222045116
 31
0.0
  0
LINE
  5
62F
330
2
100
AcDbEntity
  8
GAIKEI
  6
Continuous
 62
     1
 48
0.437386
370
    13
100
AcDbLine
 10
-11.41319402914516
 20
20.65149895580256
 30
0.0
 11
-6.27524646884045
 21
20.65210832896182
 31
0.0
  0
LINE
  5
630
330
2
100
AcDbEntity
  8
GAIKEI
  6
Continuous
 62
     1
 48
0.399792
370
    13
100
AcDbLine
 10
-12.11169977491137
 20
14.41189989081798
 30
0.0
 11
-12.1131109847165
 21
19.95132063037724
 31
0.0
  0
ARC
  5
631
330
2
100
AcDbEntity
  8
GAIKEI
  6
Continuous
 62
     1
370
    13
100
AcDbCircle
 10
-8.550418581753859
 20
906.4379362108255
 30
0.0
 40
894.141783875
100
AcDbArc
 50
269.7514184126472
 51
270.2109766119239
  0
ARC
  5
632
330
2
100
AcDbEntity
  8
GAIKEI
  6
Continuous
 62
     1
370
    13
100
AcDbCircle
 10
-938.7579366821316
 20
16.77496824390292
 30
0.0
 40
934.8005570736381
100
AcDbArc
 50
359.8052638798439
 51
0.2447125930774822
  0
ARC
  5
633
330
2
100
AcDbEntity
  8
GAIKEI
  6
Continuous
 62
     1
370
    13
100
AcDbCircle
 10
-8.550418581753859
 20
-872.1522736641743
 30
0.0
 40
894.2202893750001
100
AcDbArc
 50
89.78924230362487
 51
90.24823099513431
  0
ARC
  5
634
330
2
100
AcDbEntity
  8
GAIKEI
  6
Continuous
 62
     1
370
    13
100
AcDbCircle
 10
812.9195560432462
 20
16.59114208582579
 30
0.0
 40
826.649020125
100
AcDbArc
 50
179.7106216934071
 51
180.2073294846788
  0
LINE
  5
635
330
2
100
AcDbEntity
  8
GAIKEI
  6
Continuous
370
    40
100
AcDbLine
 10
-5.410422956753862
 20
12.18209208582576
 30
0.0
 11
-12.27643558175386
 21
12.18209208582576
 31
0.0
  0
LINE
  5
636
330
2
100
AcDbEntity
  8
GAIKEI
  6
Continuous
 48
0.033398
370
    40
100
AcDbLine
 10
-5.410422956753862
 20
12.18209208582576
 30
0.0
 11
-5.243430831753869
 21
12.18209208582576
 31
0.0
  0
LINE
  5
637
330
2
100
AcDbEntity
  8
GAIKEI
  6
Continuous
 48
0.033399
370
    40
100
AcDbLine
 10
-3.843429206753853
 20
13.58209171082578
 30
0.0
 11
-3.843429206753853
 21
13.74908583582575
 31
0.0
  0
LINE
  5
638
330
2
100
AcDbEntity
  8
GAIKEI
  6
Continuous
370
    40
100
AcDbLine
 10
-3.843429206753853
 20
20.61509846082575
 30
0.0
 11
-3.843429206753853
 21
13.74908583582575
 31
0.0
  0
LINE
  5
639
330
2
100
AcDbEntity
  8
GAIKEI
  6
Continuous
 48
0.033398
370
    40
100
AcDbLine
 10
-3.843429206753853
 20
20.61509846082575
 30
0.0
 11
-3.843429206753853
 21
20.78209058582578
 31
0.0
  0
LINE
  5
63A
330
2
100
AcDbEntity
  8
GAIKEI
  6
Continuous
 48
0.033398
370
    40
100
AcDbLine
 10
-5.410422956753862
 20
22.18209208582576
 30
0.0
 11
-5.243430831753869
 21
22.18209208582576
 31
0.0
  0
LINE
  5
63B
330
2
100
AcDbEntity
  8
GAIKEI
  6
Continuous
370
    40
100
AcDbLine
 10
-8.843429206753853
 20
22.18209208582576
 30
0.0
 11
-5.410422956753862
 21
22.18209208582576
 31
0.0
  0
LINE
  5
63C
330
2
100
AcDbEntity
  8
GAIKEI
  6
Continuous
 48
0.033399
370
    40
100
AcDbLine
 10
-12.44342958175386
 20
22.18209208582576
 30
0.0
 11
-12.27643558175386
 21
22.18209208582576
 31
0.0
  0
ARC
  5
63D
330
2
100
AcDbEntity
  8
GAIKEI
  6
Continuous
370
    40
100
AcDbCircle
 10
-12.44339720675386
 20
20.78206008582575
 30
0.0
 40
1.400022749999999
100
AcDbArc
 50
90.00134099999959
 51
179.9986800000005
  0
LINE
  5
63E
330
2
100
AcDbEntity
  8
GAIKEI
  6
Continuous
 48
0.033398
370
    40
100
AcDbLine
 10
-13.84342920675385
 20
20.61509846082575
 30
0.0
 11
-13.84342920675385
 21
20.78209058582578
 31
0.0
  0
LINE
  5
63F
330
2
100
AcDbEntity
  8
GAIKEI
  6
Continuous
370
    40
100
AcDbLine
 10
-13.84342920675385
 20
20.61509846082575
 30
0.0
 11
-13.84342920675385
 21
13.74908583582575
 31
0.0
  0
LINE
  5
640
330
2
100
AcDbEntity
  8
GAIKEI
  6
Continuous
 62
     7
 48
0.033399
370
    40
100
AcDbLine
 10
-13.84342920675385
 20
13.58209171082578
 30
0.0
 11
-13.84342920675385
 21
13.74908583582575
 31
0.0
  0
LINE
  5
641
330
2
100
AcDbEntity
  8
GAIKEI
  6
Continuous
 48
0.033399
370
    40
100
AcDbLine
 10
-12.44342958175386
 20
12.18209208582576
 30
0.0
 11
-12.27643558175386
 21
12.18209208582576
 31
0.0
  0
CIRCLE
  5
642
330
2
100
AcDbEntity
  8
GAIKEI
  6
Continuous
 62
     1
370
    40
100
AcDbCircle
 10
-8.843429206753853
 20
17.18208833582579
 30
0.0
 40
2.98422275
  0
LINE
  5
643
330
2
100
AcDbEntity
  8
GAIKEI
  6
Continuous
 62
     1
 48
0.080709
370
    13
100
AcDbLine
 10
-3.743943956753881
 20
20.29015108582578
 30
0.0
 11
-3.743943956753881
 21
20.69369646082575
 31
0.0
  0
LINE
  5
644
330
2
100
AcDbEntity
  8
GAIKEI
  6
Continuous
 62
     1
370
    13
100
AcDbLine
 10
-3.743943956753881
 20
16.79015108582578
 30
0.0
 11
-3.743943956753881
 21
20.07403321082577
 31
0.0
  0
LINE
  5
645
330
2
100
AcDbEntity
  8
GAIKEI
  6
Continuous
 62
     1
 48
0.4767770000000001
370
    13
100
AcDbLine
 10
-3.745690956753847
 20
14.19015071082575
 30
0.0
 11
-3.745690956753847
 21
16.57403321082577
 31
0.0
  0
ARC
  5
646
330
2
100
AcDbEntity
  8
GAIKEI
  6
Continuous
 62
     1
 48
0.399792
370
    13
100
AcDbCircle
 10
-11.41311100743201
 20
19.95149896072584
 30
0.0
 40
0.7
100
AcDbArc
 50
90.00679541968919
 51
180.0145965377778
  0
ARC
  5
647
330
2
100
AcDbEntity
  8
GAIKEI
  6
Continuous
 62
     1
 48
0.399792
370
    13
100
AcDbCircle
 10
-6.275163447127312
 20
19.95210833388509
 30
0.0
 40
0.7
100
AcDbArc
 50
0.0146538496566991
 51
90.00679541968821
  0
ARC
  5
648
330
2
100
AcDbEntity
  8
GAIKEI
  6
Continuous
 62
     1
 48
0.437386
370
    13
100
AcDbCircle
 10
-6.273746695218108
 20
14.41268318990589
 30
0.0
 40
0.7
100
AcDbArc
 50
270.0067462965606
 51
0.01465384965675
  0
ARC
  5
649
330
2
100
AcDbEntity
  8
GAIKEI
  6
Continuous
 62
     1
 48
0.399792
370
    13
100
AcDbCircle
 10
-11.41169979762688
 20
14.41207822116658
 30
0.0
 40
0.7
100
AcDbArc
 50
180.0145965377778
 51
270.0067462965605
  0
CIRCLE
  5
64A
330
2
100
AcDbEntity
  8
GAIKEI
  6
Continuous
 62
     1
100
AcDbCircle
 10
-8.843429206753853
 20
17.18208833582579
 30
0.0
 40
3.060297749393015
  0
CIRCLE
  5
64B
330
2
100
AcDbEntity
  8
GAIKEI
  6
Continuous
 62
     1
100
AcDbCircle
 10
-5.142020831753853
 20
13.28040646082579
 30
0.0
 40
0.2172713246045476
  0
ARC
  5
64C
330
2
100
AcDbEntity
  8
GAIKEI
  6
Continuous
 62
     1
370
    13
100
AcDbCircle
 10
-5.262771385582908
 20
13.60220528995464
 30
0.0
 40
1.3
100
AcDbArc
 50
270.2109766118953
 51
359.805263879835
  0
ARC
  5
64D
330
2
100
AcDbEntity
  8
GAIKEI
  6
Continuous
 62
     1
370
    13
100
AcDbCircle
 10
-12.42406047118879
 20
13.60455537675054
 30
0.0
 40
1.3
100
AcDbArc
 50
180.2073294846708
 51
269.7514184126604
  0
ARC
  5
64E
330
2
100
AcDbEntity
  8
GAIKEI
  6
Continuous
 62
     1
370
    13
100
AcDbCircle
 10
-12.41893735383291
 20
20.75963561917965
 30
0.0
 40
1.3
100
AcDbArc
 50
90.24823099512635
 51
179.7106216933981
  0
ARC
  5
64F
330
2
100
AcDbEntity
  8
GAIKEI
  6
Continuous
 62
     1
370
    13
100
AcDbCircle
 10
-5.265893954572987
 20
20.76197478049457
 30
0.0
 40
1.3
100
AcDbArc
 50
0.2447125930771136
 51
89.7892423036272
  0
LINE
  5
650
330
2
100
AcDbEntity
  8
GAIKEI
  6
Continuous
 48
0.002049
370
    13
100
AcDbLine
 10
-4.176036581753862
 20
12.59724946082573
 30
0.0
 11
-4.168691331753862
 21
12.59010833582576
 31
0.0
  0
POLYLINE
  5
651
330
2
100
AcDbEntity
  8
GAIKEI
  6
Continuous
370
    13
100
AcDb2dPolyline
 66
     1
 10
0.0
 20
0.0
 30
0.0
  0
VERTEX
  5
652
330
651
100
AcDbEntity
  8
GAIKEI
  6
Continuous
370
     0
100
AcDbVertex
100
AcDb2dVertex
 10
-4.180736331753863
 20
12.53310721082576
 30
0.0
  0
VERTEX
  5
653
330
651
100
AcDbEntity
  8
GAIKEI
  6
Continuous
370
     0
100
AcDbVertex
100
AcDb2dVertex
 10
-4.184852331753859
 20
12.53934046082574
 30
0.0
  0
VERTEX
  5
654
330
651
100
AcDbEntity
  8
GAIKEI
  6
Continuous
370
     0
100
AcDbVertex
100
AcDb2dVertex
 10
-4.186828331753858
 20
12.54696608582574
 30
0.0
  0
VERTEX
  5
655
330
651
100
AcDbEntity
  8
GAIKEI
  6
Continuous
370
     0
100
AcDbVertex
100
AcDb2dVertex
 10
-4.186069206753856
 20
12.55912346082576
 30
0.0
  0
VERTEX
  5
656
330
651
100
AcDbEntity
  8
GAIKEI
  6
Continuous
370
     0
100
AcDbVertex
100
AcDb2dVertex
 10
-4.181699456753861
 20
12.57156321082576
 30
0.0
  0
VERTEX
  5
657
330
651
100
AcDbEntity
  8
GAIKEI
  6
Continuous
370
     0
100
AcDbVertex
100
AcDb2dVertex
 10
-4.168693331753857
 20
12.59010646082575
 30
0.0
  0
SEQEND
  5
658
330
651
100
AcDbEntity
  8
GAIKEI
  6
Continuous
370
     0
  0
LINE
  5
659
330
2
100
AcDbEntity
  8
GAIKEI
  6
Continuous
 48
0.002124
370
    13
100
AcDbLine
 10
-4.188350456753852
 20
12.54050771082578
 30
0.0
 11
-4.180736331753863
 21
12.53310721082576
 31
0.0
  0
POLYLINE
  5
65A
330
2
100
AcDbEntity
  8
GAIKEI
  6
Continuous
370
    13
100
AcDb2dPolyline
 66
     1
 10
0.0
 20
0.0
 30
0.0
  0
VERTEX
  5
65B
330
65A
100
AcDbEntity
  8
GAIKEI
  6
Continuous
370
     0
100
AcDbVertex
100
AcDb2dVertex
 10
-4.188350456753852
 20
12.54050771082578
 30
0.0
  0
VERTEX
  5
65C
330
65A
100
AcDbEntity
  8
GAIKEI
  6
Continuous
370
     0
100
AcDbVertex
100
AcDb2dVertex
 10
-4.192407331753855
 20
12.54670096082574
 30
0.0
  0
VERTEX
  5
65D
330
65A
100
AcDbEntity
  8
GAIKEI
  6
Continuous
370
     0
100
AcDbVertex
100
AcDb2dVertex
 10
-4.194322331753852
 20
12.55424446082574
 30
0.0
  0
VERTEX
  5
65E
330
65A
100
AcDbEntity
  8
GAIKEI
  6
Continuous
370
     0
100
AcDbVertex
100
AcDb2dVertex
 10
-4.193488831753867
 20
12.56637708582579
 30
0.0
  0
VERTEX
  5
65F
330
65A
100
AcDbEntity
  8
GAIKEI
  6
Continuous
370
     0
100
AcDbVertex
100
AcDb2dVertex
 10
-4.189105706753863
 20
12.57868333582578
 30
0.0
  0
VERTEX
  5
660
330
65A
100
AcDbEntity
  8
GAIKEI
  6
Continuous
370
     0
100
AcDbVertex
100
AcDb2dVertex
 10
-4.176036581753862
 20
12.59724946082573
 30
0.0
  0
SEQEND
  5
661
330
65A
100
AcDbEntity
  8
GAIKEI
  6
Continuous
370
     0
  0
POLYLINE
  5
662
330
2
100
AcDbEntity
  8
GAIKEI
  6
Continuous
370
    13
100
AcDb2dPolyline
 66
     1
 10
0.0
 20
0.0
 30
0.0
  0
VERTEX
  5
663
330
662
100
AcDbEntity
  8
GAIKEI
  6
Continuous
370
     0
100
AcDbVertex
100
AcDb2dVertex
 10
-4.142099081753855
 20
12.56532621082576
 30
0.0
  0
VERTEX
  5
664
330
662
100
AcDbEntity
  8
GAIKEI
  6
Continuous
370
     0
100
AcDbVertex
100
AcDb2dVertex
 10
-4.142368081753858
 20
12.56541771082575
 30
0.0
  0
VERTEX
  5
665
330
662
100
AcDbEntity
  8
GAIKEI
  6
Continuous
370
     0
100
AcDbVertex
100
AcDb2dVertex
 10
-4.143447581753861
 20
12.56616346082578
 30
0.0
  0
VERTEX
  5
666
330
662
100
AcDbEntity
  8
GAIKEI
  6
Continuous
370
     0
100
AcDbVertex
100
AcDb2dVertex
 10
-4.150577331753865
 20
12.57250921082575
 30
0.0
  0
VERTEX
  5
667
330
662
100
AcDbEntity
  8
GAIKEI
  6
Continuous
370
     0
100
AcDbVertex
100
AcDb2dVertex
 10
-4.168693331753857
 20
12.59010646082575
 30
0.0
  0
SEQEND
  5
668
330
662
100
AcDbEntity
  8
GAIKEI
  6
Continuous
370
     0
  0
LINE
  5
669
330
2
100
AcDbEntity
  8
GAIKEI
  6
Continuous
 48
0.024895
370
    13
100
AcDbLine
 10
-3.919557331753864
 20
12.38713208582575
 30
0.0
 11
-4.00685858175386
 21
12.47586008582576
 31
0.0
  0
ARC
  5
66A
330
2
100
AcDbEntity
  8
GAIKEI
  6
Continuous
370
    13
100
AcDbCircle
 10
-2.743104706753868
 20
20.60614146082579
 30
0.0
 40
8.161609625
100
AcDbArc
 50
260.1300919999997
 51
261.0719819999996
  0
POLYLINE
  5
66B
330
2
100
AcDbEntity
  8
GAIKEI
  6
Continuous
370
    13
100
AcDb2dPolyline
 66
     1
 10
0.0
 20
0.0
 30
0.0
  0
VERTEX
  5
66C
330
66B
100
AcDbEntity
  8
GAIKEI
  6
Continuous
370
     0
100
AcDbVertex
100
AcDb2dVertex
 10
-4.14082495675386
 20
12.49595971082576
 30
0.0
  0
VERTEX
  5
66D
330
66B
100
AcDbEntity
  8
GAIKEI
  6
Continuous
370
     0
100
AcDbVertex
100
AcDb2dVertex
 10
-4.14092795675387
 20
12.49599208582575
 30
0.0
  0
VERTEX
  5
66E
330
66B
100
AcDbEntity
  8
GAIKEI
  6
Continuous
370
     0
100
AcDbVertex
100
AcDb2dVertex
 10
-4.141248456753856
 20
12.49617333582577
 30
0.0
  0
VERTEX
  5
66F
330
66B
100
AcDbEntity
  8
GAIKEI
  6
Continuous
370
     0
100
AcDbVertex
100
AcDb2dVertex
 10
-4.14312720675386
 20
12.49763433582578
 30
0.0
  0
VERTEX
  5
670
330
66B
100
AcDbEntity
  8
GAIKEI
  6
Continuous
370
     0
100
AcDbVertex
100
AcDb2dVertex
 10
-4.180736331753863
 20
12.53310721082576
 30
0.0
  0
SEQEND
  5
671
330
66B
100
AcDbEntity
  8
GAIKEI
  6
Continuous
370
     0
  0
ELLIPSE
  5
672
330
2
100
AcDbEntity
  8
GAIKEI
  6
Continuous
370
    13
100
AcDbEllipse
 10
-4.193257956753853
 20
12.54757446082576
 30
0.0
 11
0.1417121887207031
 21
-0.1417198181152344
 31
0.0
210
0.0
220
0.0
230
-1.0
 40
0.017421
 41
0.0235636935689041
 42
0.8526968597128577
  0
LINE
  5
673
330
2
100
AcDbEntity
  8
GAIKEI
  6
Continuous
 48
0.024915
370
    13
100
AcDbLine
 10
-4.10187508175386
 20
12.45247021082574
 30
0.0
 11
-4.191161831753859
 21
12.53934421082576
 31
0.0
  0
LINE
  5
674
330
2
100
AcDbEntity
  8
GAIKEI
  6
Continuous
 48
0.000609
370
    13
100
AcDbLine
 10
-4.191161831753859
 20
12.53934421082576
 30
0.0
 11
-4.188350456753852
 21
12.54050771082578
 31
0.0
  0
ARC
  5
675
330
2
100
AcDbEntity
  8
GAIKEI
  6
Continuous
370
    13
100
AcDbCircle
 10
-3.971429581753852
 20
12.51120708582576
 30
0.0
 40
0.050049375
100
AcDbArc
 50
139.9403259999995
 51
224.9337649999999
  0
ARC
  5
676
330
2
100
AcDbEntity
  8
GAIKEI
  6
Continuous
370
    13
100
AcDbCircle
 10
-3.84900445675386
 20
12.45762958582574
 30
0.0
 40
0.099740375
100
AcDbArc
 50
224.9776460000004
 51
262.2360989999977
  0
ARC
  5
677
330
2
100
AcDbEntity
  8
GAIKEI
  6
Continuous
370
    13
100
AcDbCircle
 10
-3.981074956753857
 20
12.47634833582575
 30
0.0
 40
0.09975875
100
AcDbArc
 50
224.9771030000012
 51
261.5043129999999
  0
LINE
  5
678
330
2
100
AcDbEntity
  8
GAIKEI
  6
Continuous
 48
0.000304
370
    13
100
AcDbLine
 10
-4.10187508175386
 20
12.45247021082574
 30
0.0
 11
-4.100803081753866
 21
12.45139258582574
 31
0.0
  0
LINE
  5
679
330
2
100
AcDbEntity
  8
GAIKEI
  6
Continuous
 48
0.000247
370
    13
100
AcDbLine
 10
-4.191161831753859
 20
12.53934421082576
 30
0.0
 11
-4.190295956753857
 21
12.53846683582574
 31
0.0
  0
ARC
  5
67A
330
2
100
AcDbEntity
  8
GAIKEI
  6
Continuous
370
    40
100
AcDbCircle
 10
-2.766839706753856
 20
20.57560871082578
 30
0.0
 40
8.289533749999998
100
AcDbArc
 50
261.4741300000006
 51
262.4073729999996
  0
POLYLINE
  5
67B
330
2
100
AcDbEntity
  8
GAIKEI
  6
Continuous
370
    40
100
AcDb2dPolyline
 66
     1
 10
0.0
 20
0.0
 30
0.0
  0
VERTEX
  5
67C
330
67B
100
AcDbEntity
  8
GAIKEI
  6
Continuous
370
     0
100
AcDbVertex
100
AcDb2dVertex
 10
-4.100803081753866
 20
12.45139258582574
 30
0.0
  0
VERTEX
  5
67D
330
67B
100
AcDbEntity
  8
GAIKEI
  6
Continuous
370
     0
100
AcDbVertex
100
AcDb2dVertex
 10
-4.056636581753863
 20
12.40947858582578
 30
0.0
  0
VERTEX
  5
67E
330
67B
100
AcDbEntity
  8
GAIKEI
  6
Continuous
370
     0
100
AcDbVertex
100
AcDb2dVertex
 10
-4.036016206753856
 20
12.39298583582578
 30
0.0
  0
VERTEX
  5
67F
330
67B
100
AcDbEntity
  8
GAIKEI
  6
Continuous
370
     0
100
AcDbVertex
100
AcDb2dVertex
 10
-4.014407831753857
 20
12.38231421082574
 30
0.0
  0
VERTEX
  5
680
330
67B
100
AcDbEntity
  8
GAIKEI
  6
Continuous
370
     0
100
AcDbVertex
100
AcDb2dVertex
 10
-3.995813081753865
 20
12.37768121082578
 30
0.0
  0
SEQEND
  5
681
330
67B
100
AcDbEntity
  8
GAIKEI
  6
Continuous
370
     0
  0
LINE
  5
682
330
2
100
AcDbEntity
  8
GAIKEI
  6
Continuous
 48
0.024973
370
    40
100
AcDbLine
 10
-4.190295956753857
 20
12.53846683582574
 30
0.0
 11
-4.100803081753866
 21
12.45139258582574
 31
0.0
  0
ARC
  5
683
330
2
100
AcDbEntity
  8
GAIKEI
  6
Continuous
 62
     1
370
    13
100
AcDbCircle
 10
-5.328546206753856
 20
13.66717858582578
 30
0.0
 40
1.582828624999999
100
AcDbArc
 50
317.1193809999997
 51
343.4651010000005
  0
DIMENSION
  5
684
330
2
100
AcDbEntity
  8
SUNPO
100
AcDbDimension
  2
*D6
 10
-3.843429206753853
 20
4.202032618918423
 30
0.0
 11
-8.848922033747754
 21
5.952032618918423
 31
0.0
 70
    33
  1
100
 71
     5
 42
10.0109856539878
  3
STANDARD
100
AcDbAlignedDimension
 13
-13.85441486074165
 23
12.20203261891842
 33
0.0
 14
-3.843429206753853
 24
12.20203261891842
 34
0.0
1001
ACAD
1000
DSTYLE
1002
{
1070
   287
1070
     3
1070
    40
1040
1.0
1070
   140
1040
2.5
1070
   147
1040
0.5
1070
   172
1070
     1
1070
   279
1070
     0
1070
   288
1070
     0
1002
}
  0
DIMENSION
  5
693
330
2
100
AcDbEntity
  8
SUNPO
100
AcDbDimension
  2
*D5
 10
4.152693841858081
 20
12.18209208582575
 30
0.0
 11
2.402693841858079
 21
17.17805315970625
 31
0.0
 70
    33
  1
100
 71
     5
 42
9.991922147760988
  3
STANDARD
100
AcDbAlignedDimension
 13
-3.847306158141911
 23
22.17401423358674
 33
0.0
 14
-3.847306158141918
 24
12.18209208582576
 34
0.0
1001
ACAD
1000
DSTYLE
1002
{
1070
   287
1070
     3
1070
    40
1040
1.0
1070
   140
1040
2.5
1070
   147
1040
0.5
1070
   172
1070
     1
1070
   279
1070
     0
1070
   288
1070
     0
1002
}
  0
DIMENSION
  5
6A0
330
2
100
AcDbEntity
  8
SUNPO
100
AcDbDimension
  2
*D4
 10
-21.85053790935359
 20
12.18209208582576
 30
0.0
 11
-23.6005379093536
 21
21.21709196082576
 31
0.0
 70
    33
  1
181
 71
     5
 42
18.06999975000002
  3
STANDARD
100
AcDbAlignedDimension
 13
-13.8505379093536
 23
30.25209183582578
 33
0.0
 14
-13.85053790935359
 24
12.18209208582576
 34
0.0
1001
ACAD
1000
DSTYLE
1002
{
1070
   287
1070
     3
1070
    40
1040
1.0
1070
   140
1040
2.5
1070
   147
1040
0.5
1070
   172
1070
     1
1070
   279
1070
     0
1070
   288
1070
     0
1002
}
  0
TEXT
  5
6AD
330
2
100
AcDbEntity
  8
TOUROKU
100
AcDbText
 10
49.70945231248032
 20
30.81203894944827
 30
0.0
 40
2.0
  1
ＢＢＳＷ１７２
 72
     2
 11
65.70945231248032
 21
30.81203894944827
 31
0.0
100
AcDbText
  0
TEXT
  5
6AF
330
2
100
AcDbEntity
  8
MOJI1
100
AcDbText
 10
-17.48295749105341
 20
-71.34978043761941
 30
0.0
 40
3.0
  1
ＩＰ５５
100
AcDbText
  0
TEXT
  5
6B1
330
2
100
AcDbEntity
  8
MOJI1
100
AcDbText
 10
-57.00175958638931
 20
-71.18789286924272
 30
0.0
 40
3.0
  1
防塵性・防水性
100
AcDbText
  0
LINE
  5
6B2
330
2
100
AcDbEntity
  8
WAKU
 62
     4
100
AcDbLine
 10
-59.29046448397503
 20
-72.18800798602581
 30
0.0
 11
65.91525255686145
 21
-72.18800798602578
 31
0.0
  0
TEXT
  5
6B4
330
2
100
AcDbEntity
  8
MOJI1
100
AcDbText
 10
-57.33804127761311
 20
-56.17439597815115
 30
0.0
 40
3.0
  1
対応プロコトル
100
AcDbText
  0
TEXT
  5
6B5
330
2
100
AcDbEntity
  8
MOJI1
100
AcDbText
 10
-17.33804127761311
 20
-56.17439597815115
 30
0.0
 40
3.0
  1
ＴＣＰ／ＩＰ、ＵＤＰ／ＩＰ、ＨＴＴＰ、ＲＴＰ、ＦＴＰ、ＳＭＴＰ、他
 41
0.7
100
AcDbText
  0
LINE
  5
6B6
330
2
100
AcDbEntity
  8
WAKU
 62
     1
100
AcDbLine
 10
65.91525255686145
 20
-47.18800798602581
 30
0.0
 11
-59.29046448397503
 21
-47.18800798602581
 31
0.0
  0
TEXT
  5
6B7
330
2
100
AcDbEntity
  8
MOJI1
100
AcDbText
 10
-17.69425259346769
 20
-66.10007357796035
 30
0.0
 40
3.0
  1
プリセット（６４ヶ所）、ＳＤＨＣ／ＳＤカード対応
 41
0.75
100
AcDbText
  0
TEXT
  5
6B8
330
2
100
AcDbEntity
  8
MOJI1
100
AcDbText
 10
-17.69425259346769
 20
-61.17607161735765
 30
0.0
 40
3.0
  1
暗部補正、簡易白黒切換、画像認識・顔検出、ＶＭＤ（４エリア）
 41
0.75
100
AcDbText
  0
TEXT
  5
6B9
330
2
100
AcDbEntity
  8
MOJI1
100
AcDbText
 10
-57.00175958638931
 20
-61.17607161735765
 30
0.0
 40
3.0
  1
機　能
100
AcDbText
  0
LINE
  5
6BA
330
2
100
AcDbEntity
  8
WAKU
 62
     1
100
AcDbLine
 10
65.91525255686145
 20
-37.18800798602581
 30
0.0
 11
-59.29046448397503
 21
-37.18800798602581
 31
0.0
  0
TEXT
  5
6BB
330
2
100
AcDbEntity
  8
MOJI1
100
AcDbText
 10
-17.79027439363892
 20
-36.10793199261099
 30
0.0
 40
3.0
  1
＜１６：９＞６４０×３６０／３２０×１８０
100
AcDbText
  0
LINE
  5
6BC
330
2
100
AcDbEntity
  8
WAKU
 62
     1
100
AcDbLine
 10
65.91525255686145
 20
-32.18800798602581
 30
0.0
 11
-59.29046448397503
 21
-32.18800798602581
 31
0.0
  0
TEXT
  5
6BD
330
2
100
AcDbEntity
  8
MOJI1
100
AcDbText
 10
-17.79027439363892
 20
-30.92815864358823
 30
0.0
 40
3.0
  1
＜４：３＞８００×６００／６４０×４８０／３２０×２４０
 41
0.8
100
AcDbText
  0
TEXT
  5
6BE
330
2
100
AcDbEntity
  8
MOJI1
100
AcDbText
 10
-57.09778138656054
 20
-30.92815864358823
 30
0.0
 40
3.0
  1
画像解像度
100
AcDbText
  0
TEXT
  5
6BF
330
2
100
AcDbEntity
  8
MOJI1
100
AcDbText
 10
-17.67207545668282
 20
-26.1312405636354
 30
0.0
 40
3.0
  1
１０ＢＡＳＥ－Ｔ／１００ＢＡＳＥ－ＴＸ、ＲＪ４５コネクター
 41
0.7800000000000001
100
AcDbText
  0
TEXT
  5
6C0
330
2
100
AcDbEntity
  8
MOJI1
100
AcDbText
 10
-56.97958244960443
 20
-26.1312405636354
 30
0.0
 40
3.0
  1
ネットワーク
100
AcDbText
  0
TEXT
  5
6C1
330
2
100
AcDbEntity
  8
MOJI1
100
AcDbText
 10
-56.79046448397503
 20
-46.03001160757037
 30
0.0
 40
3.0
  1
レンズ部
100
AcDbText
  0
TEXT
  5
6C2
330
2
100
AcDbEntity
  8
MOJI1
100
AcDbText
 10
-17.48295749105341
 20
-46.03001160757037
 30
0.0
 40
3.0
  1
ｆ＝１．９５ｍｍ(２倍ＥＸズーム）、画角：水平／８５°、垂直／６８°
 41
0.69
100
AcDbText
  0
TEXT
  5
6C3
330
2
100
AcDbEntity
  8
MOJI1
100
AcDbText
 10
-56.79046448397503
 20
-16.11133723008208
 30
0.0
 40
3.0
  1
有効画素数／操作方式
100
AcDbText
  0
TEXT
  5
6C4
330
2
100
AcDbEntity
  8
MOJI1
100
AcDbText
 10
-17.48295749105341
 20
-16.11133723008208
 30
0.0
 40
3.0
  1
約１３０万画素／プログレッシブ
100
AcDbText
  0
TEXT
  5
6C5
330
2
100
AcDbEntity
  8
MOJI1
100
AcDbText
 10
-17.48295749105341
 20
-41.03474102615007
 30
0.0
 40
3.0
  1
Ｈ．２６４×２、ＪＰＥＧ
100
AcDbText
  0
LINE
  5
6C6
330
2
100
AcDbEntity
  8
WAKU
 62
     1
100
AcDbLine
 10
65.91525255686145
 20
-62.18800798602586
 30
0.0
 11
-59.29046448397503
 21
-62.18800798602581
 31
0.0
  0
TEXT
  5
6C7
330
2
100
AcDbEntity
  8
MOJI1
100
AcDbText
 10
-56.79046448397503
 20
-21.08696081859273
 30
0.0
 40
3.0
  1
最低照度
100
AcDbText
  0
TEXT
  5
6C8
330
2
100
AcDbEntity
  8
MOJI1
100
AcDbText
 10
-17.48295749105341
 20
-21.08696081859273
 30
0.0
 40
3.0
  1
カラー：０．６ルクス、白黒：０．５ルクス（Ｆ２．２）
 41
0.88
100
AcDbText
  0
LINE
  5
6C9
330
2
100
AcDbEntity
  8
WAKU
 62
     1
100
AcDbLine
 10
65.91525255686145
 20
-42.18800798602581
 30
0.0
 11
-59.29046448397503
 21
-42.18800798602581
 31
0.0
  0
TEXT
  5
6CA
330
2
100
AcDbEntity
  8
MOJI1
100
AcDbText
 10
-57.11551534854653
 20
-41.03474102615007
 30
0.0
 40
3.0
  1
画像圧縮方式
100
AcDbText
  0
LINE
  5
6CB
330
2
100
AcDbEntity
  8
WAKU
 62
     1
100
AcDbLine
 10
65.91525255686145
 20
-57.18800798602586
 30
0.0
 11
-59.29046448397503
 21
-57.18800798602581
 31
0.0
  0
LINE
  5
6CC
330
2
100
AcDbEntity
  8
WAKU
 62
     1
100
AcDbLine
 10
65.91525255686145
 20
-52.18800798602581
 30
0.0
 11
-59.29046448397503
 21
-52.18800798602581
 31
0.0
  0
LINE
  5
6CD
330
2
100
AcDbEntity
  8
WAKU
 62
     1
100
AcDbLine
 10
-59.29046448397503
 20
-67.18800798602581
 30
0.0
 11
65.91525255686145
 21
-67.18800798602586
 31
0.0
  0
TEXT
  5
6CE
330
2
100
AcDbEntity
  8
MOJI1
100
AcDbText
 10
-57.04810681921663
 20
-51.41565466646432
 30
0.0
 40
3.0
  1
回転角度
100
AcDbText
  0
TEXT
  5
6CF
330
2
100
AcDbEntity
  8
MOJI1
100
AcDbText
 10
-17.48295749105341
 20
-51.41565466646432
 30
0.0
 40
3.0
  1
水平：－４７．５°～＋４７．５°／垂直：－４５°～＋１０°
 41
0.8
100
AcDbText
  0
LINE
  5
6D0
330
2
100
AcDbEntity
  8
WAKU
 62
     4
100
AcDbLine
 10
-19.08488325345661
 20
-72.18800798602578
 30
0.0
 11
-19.08488325345659
 21
-2.188007986025809
 31
0.0
  0
LINE
  5
6D1
330
2
100
AcDbEntity
  8
WAKU
 62
     4
100
AcDbLine
 10
65.91525255686145
 20
-72.18800798602583
 30
0.0
 11
65.91525255686145
 21
-2.188007986025809
 31
0.0
  0
LINE
  5
6D2
330
2
100
AcDbEntity
  8
WAKU
 62
     4
100
AcDbLine
 10
-59.290464483975
 20
-2.188007986025809
 30
0.0
 11
-59.290464483975
 21
-72.18800798602583
 31
0.0
  0
LINE
  5
6D3
330
2
100
AcDbEntity
  8
WAKU
100
AcDbLine
 10
65.91525255686145
 20
-2.188007986025809
 30
0.0
 11
-59.29046448397503
 21
-2.188007986025809
 31
0.0
  0
LINE
  5
6D4
330
2
100
AcDbEntity
  8
WAKU
 62
     1
100
AcDbLine
 10
65.91525255686145
 20
-7.188007986025809
 30
0.0
 11
-59.29046448397503
 21
-7.188007986025809
 31
0.0
  0
LINE
  5
6D5
330
2
100
AcDbEntity
  8
WAKU
 62
     1
100
AcDbLine
 10
65.91525255686145
 20
-12.18800798602581
 30
0.0
 11
-59.29046448397503
 21
-12.18800798602581
 31
0.0
  0
LINE
  5
6D6
330
2
100
AcDbEntity
  8
WAKU
 62
     1
100
AcDbLine
 10
65.91525255686145
 20
-17.18800798602581
 30
0.0
 11
-59.29046448397503
 21
-17.18800798602581
 31
0.0
  0
LINE
  5
6D7
330
2
100
AcDbEntity
  8
WAKU
 62
     1
100
AcDbLine
 10
65.91525255686145
 20
-22.18800798602581
 30
0.0
 11
-59.29046448397503
 21
-22.18800798602581
 31
0.0
  0
TEXT
  5
6D8
330
2
100
AcDbEntity
  8
MOJI1
100
AcDbText
 10
-57.01315337551136
 20
-6.277417112043281
 30
0.0
 40
3.0
  1
電　源
100
AcDbText
  0
TEXT
  5
6D9
330
2
100
AcDbEntity
  8
MOJI1
100
AcDbText
 10
-56.82832538347838
 20
-11.11133828504864
 30
0.0
 40
3.0
  1
撮像素子
100
AcDbText
  0
TEXT
  5
6DA
330
2
100
AcDbEntity
  8
MOJI1
100
AcDbText
 10
-17.17179406300647
 20
-11.11133828504864
 30
0.0
 40
3.0
  1
１／４型　ＭＯＳセンサー
 41
0.9
100
AcDbText
  0
TEXT
  5
6DB
330
2
100
AcDbEntity
  8
MOJI1
100
AcDbText
 10
-16.48295749105341
 20
-6.086960818592729
 30
0.0
 40
3.0
  1
ＤＣ１２Ｖ、ＰｏＥ（ＩＥＥＥ８０２．３ａｆ準拠）
 41
0.95
100
AcDbText
  0
LINE
  5
6DC
330
2
100
AcDbEntity
  8
WAKU
 62
     1
100
AcDbLine
 10
65.91525255686145
 20
-27.18800798602581
 30
0.0
 11
-59.29046448397503
 21
-27.18800798602581
 31
0.0
  0
TEXT
  5
6DD
330
2
100
AcDbEntity
  8
MOJI1
100
AcDbText
 10
-32.35522352885494
 20
36.81203894944835
 30
0.0
 40
4.0
  1
ネットワークカメラ
  7
KANJI
100
AcDbText
  0
ENDSEC
  0
SECTION
  2
OBJECTS
  0
DICTIONARY
  5
9
330
0
100
AcDbDictionary
281
     1
  3
ACAD_COLOR
350
2B
  3
ACAD_GROUP
350
27
  3
ACAD_LAYOUT
350
D
  3
ACAD_MATERIAL
350
2A
  3
ACAD_MLINESTYLE
350
28
  3
ACAD_PLOTSETTINGS
350
29
  3
ACAD_PLOTSTYLENAME
350
8
  3
ACDBHEADERROUNDTRIPXREC
350
71B
  3
AcDbVariableDictionary
350
716
  0
DICTIONARY
  5
15
330
14
100
AcDbDictionary
280
     1
281
     1
  3
ACAD_LAYERFILTERS
360
16
  3
ACAD_LAYERSTATES
360
18
  0
DICTIONARY
  5
3
330
2
100
AcDbDictionary
280
     1
281
     1
  3
ACAD_LAYOUTSELFREF
360
4
  0
DICTIONARY
  5
F
330
E
100
AcDbDictionary
280
     1
281
     1
  3
ACAD_LAYOUTSELFREF
360
10
  0
DICTIONARY
  5
2B
102
{ACAD_REACTORS
330
9
102
}
330
9
100
AcDbDictionary
281
     1
  0
DICTIONARY
  5
27
102
{ACAD_REACTORS
330
9
102
}
330
9
100
AcDbDictionary
281
     1
  0
DICTIONARY
  5
D
102
{ACAD_REACTORS
330
9
102
}
330
9
100
AcDbDictionary
281
     1
  3
Model
350
C
  3
ﾚｲｱｳﾄ1
350
13
  0
DICTIONARY
  5
2A
102
{ACAD_REACTORS
330
9
102
}
330
9
100
AcDbDictionary
281
     1
  0
DICTIONARY
  5
28
102
{ACAD_REACTORS
330
9
102
}
330
9
100
AcDbDictionary
281
     1
  3
STANDARD
350
33
  0
DICTIONARY
  5
29
102
{ACAD_REACTORS
330
9
102
}
330
9
100
AcDbDictionary
281
     1
  0
ACDBDICTIONARYWDFLT
  5
8
102
{ACAD_REACTORS
330
9
102
}
330
9
100
AcDbDictionary
281
     1
  3
Normal
350
7
100
AcDbDictionaryWithDefault
340
7
  0
DICTIONARY
  5
71B
102
{ACAD_REACTORS
330
9
102
}
330
9
100
AcDbDictionary
281
     1
  3
COLORDICT
350
71D
  3
MATERIALDICT
350
71C
  0
DICTIONARY
  5
716
102
{ACAD_REACTORS
330
9
102
}
330
9
100
AcDbDictionary
281
     1
  3
DIMASSOC
350
718
  3
HIDETEXT
350
717
  3
PROJECTNAME
350
719
  0
DICTIONARY
  5
16
102
{ACAD_REACTORS
330
15
102
}
330
15
100
AcDbDictionary
280
     1
281
     1
  3
ロック画層
360
17
  0
DICTIONARY
  5
18
102
{ACAD_REACTORS
330
15
102
}
330
15
100
AcDbDictionary
281
     1
  0
XRECORD
  5
4
102
{ACAD_REACTORS
330
3
102
}
330
3
100
AcDbXrecord
280
     1
340
2
  0
XRECORD
  5
10
102
{ACAD_REACTORS
330
F
102
}
330
F
100
AcDbXrecord
280
     1
340
E
  0
LAYOUT
  5
C
102
{ACAD_XDICTIONARY
360
71E
102
}
102
{ACAD_REACTORS
330
D
102
}
330
D
100
AcDbPlotSettings
  1

  2
\\MARS\NX800A(RPDL)
  4
A4
  6

 40
5.831416606903076
 41
4.942422866821289
 42
7.609405517578125
 43
5.789093017578125
 44
209.9733276367187
 45
296.9683227539062
 46
4.23
 47
0.0
 48
0.0
 49
0.0
140
0.0
141
0.0
142
1.0
143
1.377557041813
 70
 11956
 72
     1
 73
     0
 74
     1
  7
tmsacad.ctb
 75
     0
147
0.7259227528494222
148
0.5228791232484547
149
0.0333900090324306
100
AcDbLayout
  1
Model
 70
     1
 71
     0
 10
0.0
 20
0.0
 11
12.0
 21
9.0
 12
0.0
 22
0.0
 32
0.0
 14
0.0
 24
0.0
 34
0.0
 15
0.0
 25
0.0
 35
0.0
146
0.0
 13
0.0
 23
0.0
 33
0.0
 16
1.0
 26
0.0
 36
0.0
 17
0.0
 27
1.0
 37
0.0
 76
     0
330
2
  0
LAYOUT
  5
13
102
{ACAD_XDICTIONARY
360
720
102
}
102
{ACAD_REACTORS
330
D
102
}
330
D
100
AcDbPlotSettings
  1

  2
C:\Program Files\ACAD2000\plotters\DWF ePlot.pc3
  4

  6

 40
0.0
 41
0.0
 42
0.0
 43
0.0
 44
0.0
 45
0.0
 46
0.0
 47
0.0
 48
0.0
 49
0.0
140
0.0
141
0.0
142
1.0
143
1.0
 70
   688
 72
     0
 73
     0
 74
     5
  7
tmsacad.ctb
 75
    16
147
1.0
148
0.0
149
0.0
100
AcDbLayout
  1
ﾚｲｱｳﾄ1
 70
     1
 71
     1
 10
0.0
 20
0.0
 11
12.0
 21
9.0
 12
0.0
 22
0.0
 32
0.0
 14
1.000000000000000E+20
 24
1.000000000000000E+20
 34
1.000000000000000E+20
 15
-1.000000000000000E+20
 25
-1.000000000000000E+20
 35
-1.000000000000000E+20
146
0.0
 13
0.0
 23
0.0
 33
0.0
 16
1.0
 26
0.0
 36
0.0
 17
0.0
 27
1.0
 37
0.0
 76
     0
330
E
  0
MLINESTYLE
  5
33
102
{ACAD_REACTORS
330
28
102
}
330
28
100
AcDbMlineStyle
  2
STANDARD
 70
     0
  3

 62
   256
 51
90.0
 52
90.0
 71
     2
 49
0.5
 62
   256
  6
BYLAYER
 49
-0.5
 62
   256
  6
BYLAYER
  0
ACDBPLACEHOLDER
  5
7
102
{ACAD_REACTORS
330
8
102
}
330
8
  0
XRECORD
  5
71D
102
{ACAD_REACTORS
330
71B
102
}
330
71B
100
AcDbXrecord
280
     1
340
2B
  0
XRECORD
  5
71C
102
{ACAD_REACTORS
330
71B
102
}
330
71B
100
AcDbXrecord
280
     1
340
2A
  0
DICTIONARYVAR
  5
718
102
{ACAD_REACTORS
330
716
102
}
330
716
100
DictionaryVariables
280
     0
  1
1
  0
DICTIONARYVAR
  5
717
102
{ACAD_REACTORS
330
716
102
}
330
716
100
DictionaryVariables
280
     0
  1
1
  0
DICTIONARYVAR
  5
719
102
{ACAD_REACTORS
330
716
102
}
330
716
100
DictionaryVariables
280
     0
  1

  0
XRECORD
  5
17
102
{ACAD_REACTORS
330
16
102
}
330
16
100
AcDbXrecord
280
     1
  1
ロック画層
  1
*
  1
*
  1
*
 70
   256
  1
*
  1
*
  0
DICTIONARY
  5
71E
330
C
100
AcDbDictionary
280
     1
281
     1
  3
ACAD_XREC_ROUNDTRIP
360
71F
  0
DICTIONARY
  5
720
330
13
100
AcDbDictionary
280
     1
281
     1
  3
ACAD_XREC_ROUNDTRIP
360
721
  0
XRECORD
  5
71F
102
{ACAD_REACTORS
330
71E
102
}
330
71E
100
AcDbXrecord
280
     1
102
SHADEPLOT
 70
     0
102
SHADEPLOTRESLEVEL
 70
     2
102
SHADEPLOTCUSTOMDPI
 70
   300
  0
XRECORD
  5
721
102
{ACAD_REACTORS
330
720
102
}
330
720
100
AcDbXrecord
280
     1
102
SHADEPLOT
 70
     0
102
SHADEPLOTRESLEVEL
 70
     2
102
SHADEPLOTCUSTOMDPI
 70
   300
  0
ENDSEC
  0
EOF
