  0
SECTION
  2
HEADER
  9
$ACADVER
  1
AC1015
  9
$ACADMAINTVER
 70
    20
  9
$DWGCODEPAGE
  3
ANSI_932
  9
$INSBASE
 10
129.0
 20
246.4992141396418
 30
0.0
  9
$EXTMIN
 10
-66.79366110281762
 20
-61.39679989596789
 30
-0.0015258207003583
  9
$EXTMAX
 10
58.28684786714712
 20
51.73428201965726
 30
0.0000000349246037
  9
$LIMMIN
 10
-1101.784450318844
 20
-1579.160531687244
  9
$LIMMAX
 10
-508.2420711400536
 20
-1161.440814074914
  9
$ORTHOMODE
 70
     0
  9
$REGENMODE
 70
     1
  9
$FILLMODE
 70
     1
  9
$QTEXTMODE
 70
     0
  9
$MIRRTEXT
 70
     1
  9
$LTSCALE
 40
1.0
  9
$ATTMODE
 70
     1
  9
$TEXTSIZE
 40
3.0
  9
$TRACEWID
 40
0.5
  9
$TEXTSTYLE
  7
STANDARD
  9
$CLAYER
  8
MOJI1
  9
$CELTYPE
  6
BYLAYER
  9
$CECOLOR
 62
   256
  9
$CELTSCALE
 40
1.0
  9
$DISPSILH
 70
     0
  9
$DIMSCALE
 40
1.0
  9
$DIMASZ
 40
2.0
  9
$DIMEXO
 40
2.0
  9
$DIMDLI
 40
8.0
  9
$DIMRND
 40
0.0
  9
$DIMDLE
 40
0.0
  9
$DIMEXE
 40
2.0
  9
$DIMTP
 40
0.0
  9
$DIMTM
 40
0.0
  9
$DIMTXT
 40
2.5
  9
$DIMCEN
 40
0.0
  9
$DIMTSZ
 40
0.0
  9
$DIMTOL
 70
     0
  9
$DIMLIM
 70
     0
  9
$DIMTIH
 70
     0
  9
$DIMTOH
 70
     0
  9
$DIMSE1
 70
     0
  9
$DIMSE2
 70
     0
  9
$DIMTAD
 70
     3
  9
$DIMZIN
 70
     0
  9
$DIMBLK
  1

  9
$DIMASO
 70
     1
  9
$DIMSHO
 70
     1
  9
$DIMPOST
  1

  9
$DIMAPOST
  1

  9
$DIMALT
 70
     0
  9
$DIMALTD
 70
     2
  9
$DIMALTF
 40
25.4
  9
$DIMLFAC
 40
1.0
  9
$DIMTOFL
 70
     1
  9
$DIMTVP
 40
0.0
  9
$DIMTIX
 70
     0
  9
$DIMSOXD
 70
     0
  9
$DIMSAH
 70
     1
  9
$DIMBLK1
  1
OPEN30
  9
$DIMBLK2
  1
OPEN30
  9
$DIMSTYLE
  2
STANDARD
  9
$DIMCLRD
 70
     0
  9
$DIMCLRE
 70
     0
  9
$DIMCLRT
 70
     0
  9
$DIMTFAC
 40
1.0
  9
$DIMGAP
 40
0.5
  9
$DIMJUST
 70
     0
  9
$DIMSD1
 70
     0
  9
$DIMSD2
 70
     0
  9
$DIMTOLJ
 70
     1
  9
$DIMTZIN
 70
     0
  9
$DIMALTZ
 70
     0
  9
$DIMALTTZ
 70
     0
  9
$DIMUPT
 70
     0
  9
$DIMDEC
 70
     4
  9
$DIMTDEC
 70
     4
  9
$DIMALTU
 70
     2
  9
$DIMALTTD
 70
     2
  9
$DIMTXSTY
  7
STANDARD
  9
$DIMAUNIT
 70
     0
  9
$DIMADEC
 70
     0
  9
$DIMALTRND
 40
0.0
  9
$DIMAZIN
 70
     0
  9
$DIMDSEP
 70
    46
  9
$DIMATFIT
 70
     3
  9
$DIMFRAC
 70
     0
  9
$DIMLDRBLK
  1
OPEN30
  9
$DIMLUNIT
 70
     2
  9
$DIMLWD
 70
    -2
  9
$DIMLWE
 70
    -2
  9
$DIMTMOVE
 70
     0
  9
$LUNITS
 70
     2
  9
$LUPREC
 70
     4
  9
$SKETCHINC
 40
0.1
  9
$FILLETRAD
 40
0.0
  9
$AUNITS
 70
     0
  9
$AUPREC
 70
     0
  9
$MENU
  1
ACAD
  9
$ELEVATION
 40
0.0
  9
$PELEVATION
 40
0.0
  9
$THICKNESS
 40
0.0
  9
$LIMCHECK
 70
     0
  9
$CHAMFERA
 40
0.0
  9
$CHAMFERB
 40
0.0
  9
$CHAMFERC
 40
0.0
  9
$CHAMFERD
 40
0.0
  9
$SKPOLY
 70
     0
  9
$TDCREATE
 40
2451815.565532581
  9
$TDUCREATE
 40
2451815.190532581
  9
$TDUPDATE
 40
2454119.409052002
  9
$TDUUPDATE
 40
2454119.034052002
  9
$TDINDWG
 40
0.7275936111
  9
$TDUSRTIMER
 40
0.7275936111
  9
$USRTIMER
 70
     1
  9
$ANGBASE
 50
0.0
  9
$ANGDIR
 70
     0
  9
$PDMODE
 70
     0
  9
$PDSIZE
 40
0.0
  9
$PLINEWID
 40
0.0
  9
$SPLFRAME
 70
     0
  9
$SPLINETYPE
 70
     6
  9
$SPLINESEGS
 70
     8
  9
$HANDSEED
  5
1D5
  9
$SURFTAB1
 70
     6
  9
$SURFTAB2
 70
     6
  9
$SURFTYPE
 70
     6
  9
$SURFU
 70
     6
  9
$SURFV
 70
     6
  9
$UCSBASE
  2

  9
$UCSNAME
  2

  9
$UCSORG
 10
0.0
 20
0.0
 30
0.0
  9
$UCSXDIR
 10
1.0
 20
0.0
 30
0.0
  9
$UCSYDIR
 10
0.0
 20
1.0
 30
0.0
  9
$UCSORTHOREF
  2

  9
$UCSORTHOVIEW
 70
     0
  9
$UCSORGTOP
 10
0.0
 20
0.0
 30
0.0
  9
$UCSORGBOTTOM
 10
0.0
 20
0.0
 30
0.0
  9
$UCSORGLEFT
 10
0.0
 20
0.0
 30
0.0
  9
$UCSORGRIGHT
 10
0.0
 20
0.0
 30
0.0
  9
$UCSORGFRONT
 10
0.0
 20
0.0
 30
0.0
  9
$UCSORGBACK
 10
0.0
 20
0.0
 30
0.0
  9
$PUCSBASE
  2

  9
$PUCSNAME
  2

  9
$PUCSORG
 10
0.0
 20
0.0
 30
0.0
  9
$PUCSXDIR
 10
1.0
 20
0.0
 30
0.0
  9
$PUCSYDIR
 10
0.0
 20
1.0
 30
0.0
  9
$PUCSORTHOREF
  2

  9
$PUCSORTHOVIEW
 70
     0
  9
$PUCSORGTOP
 10
0.0
 20
0.0
 30
0.0
  9
$PUCSORGBOTTOM
 10
0.0
 20
0.0
 30
0.0
  9
$PUCSORGLEFT
 10
0.0
 20
0.0
 30
0.0
  9
$PUCSORGRIGHT
 10
0.0
 20
0.0
 30
0.0
  9
$PUCSORGFRONT
 10
0.0
 20
0.0
 30
0.0
  9
$PUCSORGBACK
 10
0.0
 20
0.0
 30
0.0
  9
$USERI1
 70
     0
  9
$USERI2
 70
     0
  9
$USERI3
 70
     0
  9
$USERI4
 70
     0
  9
$USERI5
 70
     0
  9
$USERR1
 40
0.0
  9
$USERR2
 40
0.0
  9
$USERR3
 40
0.0
  9
$USERR4
 40
0.0
  9
$USERR5
 40
0.0
  9
$WORLDVIEW
 70
     1
  9
$SHADEDGE
 70
     3
  9
$SHADEDIF
 70
    70
  9
$TILEMODE
 70
     1
  9
$MAXACTVP
 70
    48
  9
$PINSBASE
 10
0.0
 20
0.0
 30
0.0
  9
$PLIMCHECK
 70
     0
  9
$PEXTMIN
 10
1.000000000000000E+20
 20
1.000000000000000E+20
 30
1.000000000000000E+20
  9
$PEXTMAX
 10
-1.000000000000000E+20
 20
-1.000000000000000E+20
 30
-1.000000000000000E+20
  9
$PLIMMIN
 10
0.0
 20
0.0
  9
$PLIMMAX
 10
12.0
 20
9.0
  9
$UNITMODE
 70
     0
  9
$VISRETAIN
 70
     1
  9
$PLINEGEN
 70
     0
  9
$PSLTSCALE
 70
     1
  9
$TREEDEPTH
 70
  3020
  9
$CMLSTYLE
  2
STANDARD
  9
$CMLJUST
 70
     0
  9
$CMLSCALE
 40
1.0
  9
$PROXYGRAPHICS
 70
     1
  9
$MEASUREMENT
 70
     0
  9
$CELWEIGHT
370
    -1
  9
$ENDCAPS
280
     0
  9
$JOINSTYLE
280
     0
  9
$LWDISPLAY
290
     0
  9
$INSUNITS
 70
     0
  9
$HYPERLINKBASE
  1

  9
$STYLESHEET
  1

  9
$XEDIT
290
     1
  9
$CEPSNTYPE
380
     0
  9
$PSTYLEMODE
290
     1
  9
$FINGERPRINTGUID
  2
{1754B7AB-9B3C-11D4-AD9E-00104B1004F2}
  9
$VERSIONGUID
  2
{F83CC7FA-B41E-4193-B02C-B6234988651D}
  9
$EXTNAMES
290
     1
  9
$PSVPSCALE
 40
0.0
  9
$OLESTARTUP
290
     0
  0
ENDSEC
  0
SECTION
  2
CLASSES
  0
CLASS
  1
ACDBDICTIONARYWDFLT
  2
AcDbDictionaryWithDefault
  3
ObjectDBX Classes
 90
        0
280
     0
281
     0
  0
CLASS
  1
ACDBPLACEHOLDER
  2
AcDbPlaceHolder
  3
ObjectDBX Classes
 90
        0
280
     0
281
     0
  0
CLASS
  1
LAYOUT
  2
AcDbLayout
  3
ObjectDBX Classes
 90
        0
280
     0
281
     0
  0
CLASS
  1
DICTIONARYVAR
  2
AcDbDictionaryVar
  3
ObjectDBX Classes
 90
        0
280
     0
281
     0
  0
CLASS
  1
SORTENTSTABLE
  2
AcDbSortentsTable
  3
ObjectDBX Classes
 90
    32768
280
     0
281
     0
  0
ENDSEC
  0
SECTION
  2
TABLES
  0
TABLE
  2
VPORT
  5
1F
330
0
100
AcDbSymbolTable
 70
     3
  0
VPORT
  5
1CD
330
1F
100
AcDbSymbolTableRecord
100
AcDbViewportTableRecord
  2
*Active
 70
     0
 10
0.0
 20
0.0
 11
1.0
 21
1.0
 12
-4.253406617835253
 22
-4.831258938155315
 13
0.0
 23
0.0
 14
1.0
 24
1.0
 15
0.0
 25
0.0
 16
0.0
 26
0.0
 36
1.0
 17
0.0
 27
0.0
 37
0.0
 40
114.010339028959
 41
1.447470817120622
 42
50.0
 43
0.0
 44
0.0
 50
0.0
 51
0.0
 71
     0
 72
 10000
 73
     1
 74
     0
 75
     0
 76
     1
 77
     0
 78
     0
281
     0
 65
     1
110
0.0
120
0.0
130
0.0
111
1.0
121
0.0
131
0.0
112
0.0
122
1.0
132
0.0
 79
     0
146
0.0
  0
ENDTAB
  0
TABLE
  2
LTYPE
  5
1A
330
0
100
AcDbSymbolTable
 70
     1
  0
LTYPE
  5
1B
330
1A
100
AcDbSymbolTableRecord
100
AcDbLinetypeTableRecord
  2
BYBLOCK
 70
     0
  3

 72
    65
 73
     0
 40
0.0
  0
LTYPE
  5
1C
330
1A
100
AcDbSymbolTableRecord
100
AcDbLinetypeTableRecord
  2
BYLAYER
 70
     0
  3

 72
    65
 73
     0
 40
0.0
  0
LTYPE
  5
A
330
1A
100
AcDbSymbolTableRecord
100
AcDbLinetypeTableRecord
  2
CONTINUOUS
 70
     0
  3
Solid line
 72
    65
 73
     0
 40
0.0
  0
ENDTAB
  0
TABLE
  2
LAYER
  5
14
102
{ACAD_XDICTIONARY
360
15
102
}
330
0
100
AcDbSymbolTable
 70
     7
  0
LAYER
  5
6
330
14
100
AcDbSymbolTableRecord
100
AcDbLayerTableRecord
  2
0
 70
     0
 62
     7
  6
CONTINUOUS
370
    -3
390
7
  0
LAYER
  5
41
330
14
100
AcDbSymbolTableRecord
100
AcDbLayerTableRecord
  2
DEFPOINTS
 70
     0
 62
     7
  6
CONTINUOUS
290
     0
370
    -3
390
7
  0
LAYER
  5
187
330
14
100
AcDbSymbolTableRecord
100
AcDbLayerTableRecord
  2
WAKU
 70
     0
 62
     4
  6
CONTINUOUS
370
    -3
390
7
  0
LAYER
  5
2A
330
14
100
AcDbSymbolTableRecord
100
AcDbLayerTableRecord
  2
MOJI1
 70
     0
 62
     2
  6
CONTINUOUS
370
    -3
390
7
  0
LAYER
  5
60
330
14
100
AcDbSymbolTableRecord
100
AcDbLayerTableRecord
  2
GAIKEI
 70
     0
 62
     7
  6
CONTINUOUS
370
    -3
390
7
  0
LAYER
  5
35
330
14
100
AcDbSymbolTableRecord
100
AcDbLayerTableRecord
  2
TOUROKU
 70
     0
 62
     1
  6
CONTINUOUS
370
    -3
390
7
  0
LAYER
  5
37
330
14
100
AcDbSymbolTableRecord
100
AcDbLayerTableRecord
  2
SUNPO
 70
     0
 62
     3
  6
CONTINUOUS
370
    -3
390
7
  0
ENDTAB
  0
TABLE
  2
STYLE
  5
17
330
0
100
AcDbSymbolTable
 70
     2
  0
STYLE
  5
18
330
17
100
AcDbSymbolTableRecord
100
AcDbTextStyleTableRecord
  2
STANDARD
 70
     0
 40
0.0
 41
1.0
 50
0.0
 71
     0
 42
3.0
  3
MONOTXT.shx
  4
BIGFONT.shx
  0
STYLE
  5
17C
330
17
100
AcDbSymbolTableRecord
100
AcDbTextStyleTableRecord
  2
KANJI
 70
     0
 40
0.0
 41
1.0
 50
0.0
 71
     0
 42
3.5
  3
MONOTXT
  4
BIGFONT
  0
ENDTAB
  0
TABLE
  2
VIEW
  5
1D
330
0
100
AcDbSymbolTable
 70
     0
  0
ENDTAB
  0
TABLE
  2
UCS
  5
1E
330
0
100
AcDbSymbolTable
 70
     0
  0
ENDTAB
  0
TABLE
  2
APPID
  5
21
330
0
100
AcDbSymbolTable
 70
     1
  0
APPID
  5
22
330
21
100
AcDbSymbolTableRecord
100
AcDbRegAppTableRecord
  2
ACAD
 70
     0
  0
ENDTAB
  0
TABLE
  2
DIMSTYLE
  5
23
330
0
100
AcDbSymbolTable
 70
     1
100
AcDbDimStyleTable
 71
     0
  0
DIMSTYLE
105
32
102
{ACAD_REACTORS
330
52
330
45
330
36
102
}
330
23
100
AcDbSymbolTableRecord
100
AcDbDimStyleTableRecord
  2
STANDARD
 70
     0
 40
0.0
 41
2.0
 42
2.0
 43
8.0
 44
2.0
 73
     0
 74
     0
 77
     3
140
3.0
141
0.0
173
     1
279
     2
288
     1
340
18
341
2B
343
2B
344
2B
  0
ENDTAB
  0
TABLE
  2
BLOCK_RECORD
  5
1
330
0
100
AcDbSymbolTable
 70
     7
  0
BLOCK_RECORD
  5
2
102
{ACAD_XDICTIONARY
360
3
102
}
330
1
100
AcDbSymbolTableRecord
100
AcDbBlockTableRecord
  2
*MODEL_SPACE
340
C
  0
BLOCK_RECORD
  5
E
102
{ACAD_XDICTIONARY
360
F
102
}
330
1
100
AcDbSymbolTableRecord
100
AcDbBlockTableRecord
  2
*PAPER_SPACE
340
13
  0
BLOCK_RECORD
  5
2B
330
1
100
AcDbSymbolTableRecord
100
AcDbBlockTableRecord
  2
_OPEN30
340
0
102
{BLKREFS
331
3D
331
3E
331
4B
331
4C
331
58
331
59
331
1A9
331
1AA
331
1B5
331
1B6
331
1C1
331
1C2
102
}
  0
BLOCK_RECORD
  5
53
330
1
100
AcDbSymbolTableRecord
100
AcDbBlockTableRecord
  2
*D1
340
0
  0
BLOCK_RECORD
  5
46
330
1
100
AcDbSymbolTableRecord
100
AcDbBlockTableRecord
  2
*D2
340
0
  0
BLOCK_RECORD
  5
38
330
1
100
AcDbSymbolTableRecord
100
AcDbBlockTableRecord
  2
*D3
340
0
  0
BLOCK_RECORD
  5
1A5
330
1
100
AcDbSymbolTableRecord
100
AcDbBlockTableRecord
  2
*D4
340
0
  0
BLOCK_RECORD
  5
1B1
330
1
100
AcDbSymbolTableRecord
100
AcDbBlockTableRecord
  2
*D5
340
0
  0
BLOCK_RECORD
  5
1BD
330
1
100
AcDbSymbolTableRecord
100
AcDbBlockTableRecord
  2
*D6
340
0
  0
ENDTAB
  0
ENDSEC
  0
SECTION
  2
BLOCKS
  0
BLOCK
  5
5
330
2
100
AcDbEntity
  8
0
100
AcDbBlockBegin
  2
*MODEL_SPACE
 70
     0
 10
0.0
 20
0.0
 30
0.0
  3
*MODEL_SPACE
  1

  0
ENDBLK
  5
B
330
2
100
AcDbEntity
  8
0
100
AcDbBlockEnd
  0
BLOCK
  5
11
330
E
100
AcDbEntity
 67
     1
  8
0
100
AcDbBlockBegin
  2
*PAPER_SPACE
 70
     0
 10
0.0
 20
0.0
 30
0.0
  3
*PAPER_SPACE
  1

  0
ENDBLK
  5
12
330
E
100
AcDbEntity
 67
     1
  8
0
100
AcDbBlockEnd
  0
BLOCK
  5
2C
330
2B
100
AcDbEntity
  8
0
100
AcDbBlockBegin
  2
_OPEN30
 70
     0
 10
0.0
 20
0.0
 30
0.0
  3
_OPEN30
  1

  0
LINE
  5
2D
330
2B
100
AcDbEntity
  8
0
  6
ByBlock
 62
     0
100
AcDbLine
 10
-1.0
 20
0.26794919
 30
0.0
 11
0.0
 21
0.0
 31
0.0
  0
LINE
  5
2E
330
2B
100
AcDbEntity
  8
0
  6
ByBlock
 62
     0
100
AcDbLine
 10
0.0
 20
0.0
 30
0.0
 11
-1.0
 21
-0.26794919
 31
0.0
  0
LINE
  5
2F
330
2B
100
AcDbEntity
  8
0
  6
ByBlock
 62
     0
100
AcDbLine
 10
0.0
 20
0.0
 30
0.0
 11
-1.0
 21
0.0
 31
0.0
  0
ENDBLK
  5
30
330
2B
100
AcDbEntity
  8
0
100
AcDbBlockEnd
  0
BLOCK
  5
54
330
53
100
AcDbEntity
  8
0
100
AcDbBlockBegin
  2
*D1
 70
     1
 10
0.0
 20
0.0
 30
0.0
  3
*D1
  1

  0
LINE
  5
55
330
53
100
AcDbEntity
  8
SUNPO
 62
     0
370
    -2
100
AcDbLine
 10
159.6388760857634
 20
220.7616708693455
 30
0.0
 11
159.6388760857634
 21
228.7616708693457
 31
0.0
  0
LINE
  5
56
330
53
100
AcDbEntity
  8
SUNPO
 62
     0
370
    -2
100
AcDbLine
 10
192.1388909330257
 20
220.7616708693457
 30
0.0
 11
192.1388909330257
 21
228.7616708693457
 31
0.0
  0
LINE
  5
57
330
53
100
AcDbEntity
  8
SUNPO
 62
     0
370
    -2
100
AcDbLine
 10
161.6388760857634
 20
226.7616708693457
 30
0.0
 11
190.1388909330258
 21
226.7616708693457
 31
0.0
  0
INSERT
  5
58
330
53
100
AcDbEntity
  8
SUNPO
 62
     0
370
    -2
100
AcDbBlockReference
  2
_OPEN30
 10
159.6388760857634
 20
226.7616708693457
 30
0.0
 41
2.0
 42
2.0
 43
2.0
 50
180.0
  0
INSERT
  5
59
330
53
100
AcDbEntity
  8
SUNPO
 62
     0
370
    -2
100
AcDbBlockReference
  2
_OPEN30
 10
192.1388909330257
 20
226.7616708693457
 30
0.0
 41
2.0
 42
2.0
 43
2.0
  0
MTEXT
  5
5A
330
53
100
AcDbEntity
  8
SUNPO
 62
     0
100
AcDbMText
 10
175.8888835093946
 20
228.5116708693457
 30
0.0
 40
2.5
 41
0.0
 71
     5
 72
     1
  1
\A1;65
 73
     1
 44
1.0
1001
ACAD
1000
MTEXTBEGIN
1070
    73
1070
     1
1070
    44
1040
1.0
1070
    74
1070
     0
1000
MTEXTEND
  0
POINT
  5
5B
330
53
100
AcDbEntity
  8
DEFPOINTS
 62
     0
100
AcDbPoint
 10
159.6388760857634
 20
218.7616708693455
 30
0.0
  0
POINT
  5
5C
330
53
100
AcDbEntity
  8
DEFPOINTS
 62
     0
100
AcDbPoint
 10
192.1388909330257
 20
218.7616708693457
 30
0.0
  0
POINT
  5
5D
330
53
100
AcDbEntity
  8
DEFPOINTS
 62
     0
100
AcDbPoint
 10
192.1388909330257
 20
226.7616708693457
 30
0.0
  0
ENDBLK
  5
5E
330
53
100
AcDbEntity
  8
0
100
AcDbBlockEnd
  0
BLOCK
  5
47
330
46
100
AcDbEntity
  8
0
100
AcDbBlockBegin
  2
*D2
 70
     1
 10
0.0
 20
0.0
 30
0.0
  3
*D2
  1

  0
LINE
  5
48
330
46
100
AcDbEntity
  8
SUNPO
 62
     0
370
    -2
100
AcDbLine
 10
194.1196539502104
 20
180.7557602405884
 30
0.0
 11
202.1196539502104
 21
180.7557602405884
 31
0.0
  0
LINE
  5
49
330
46
100
AcDbEntity
  8
SUNPO
 62
     0
370
    -2
100
AcDbLine
 10
194.1196539502105
 20
218.7557551076153
 30
0.0
 11
202.1196539502105
 21
218.7557551076153
 31
0.0
  0
LINE
  5
4A
330
46
100
AcDbEntity
  8
SUNPO
 62
     0
370
    -2
100
AcDbLine
 10
200.1196539502104
 20
182.7557602405884
 30
0.0
 11
200.1196539502105
 21
216.7557551076153
 31
0.0
  0
INSERT
  5
4B
330
46
100
AcDbEntity
  8
SUNPO
 62
     0
370
    -2
100
AcDbBlockReference
  2
_OPEN30
 10
200.1196539502104
 20
180.7557602405884
 30
0.0
 41
2.0
 42
2.0
 43
2.0
 50
270.0
  0
INSERT
  5
4C
330
46
100
AcDbEntity
  8
SUNPO
 62
     0
370
    -2
100
AcDbBlockReference
  2
_OPEN30
 10
200.1196539502105
 20
218.7557551076153
 30
0.0
 41
2.0
 42
2.0
 43
2.0
 50
90.0
  0
MTEXT
  5
4D
330
46
100
AcDbEntity
  8
SUNPO
 62
     0
100
AcDbMText
 10
198.3696539502104
 20
199.7557576741019
 30
0.0
 40
2.5
 41
0.0
 71
     5
 72
     1
  1
\A1;76
 11
0.0000000000000001
 21
1.0
 31
0.0
 73
     1
 44
1.0
1001
ACAD
1000
MTEXTBEGIN
1070
    73
1070
     1
1070
    44
1040
1.0
1070
    74
1070
     0
1000
MTEXTEND
  0
POINT
  5
4E
330
46
100
AcDbEntity
  8
DEFPOINTS
 62
     0
100
AcDbPoint
 10
192.1196539502104
 20
180.7557602405884
 30
0.0
  0
POINT
  5
4F
330
46
100
AcDbEntity
  8
DEFPOINTS
 62
     0
100
AcDbPoint
 10
192.1196539502105
 20
218.7557551076153
 30
0.0
  0
POINT
  5
50
330
46
100
AcDbEntity
  8
DEFPOINTS
 62
     0
100
AcDbPoint
 10
200.1196539502105
 20
218.7557551076153
 30
0.0
  0
ENDBLK
  5
51
330
46
100
AcDbEntity
  8
0
100
AcDbBlockEnd
  0
BLOCK
  5
39
330
38
100
AcDbEntity
  8
0
100
AcDbBlockBegin
  2
*D3
 70
     1
 10
0.0
 20
0.0
 30
0.0
  3
*D3
  1

  0
LINE
  5
3A
330
38
100
AcDbEntity
  8
SUNPO
 62
     0
370
    -2
100
AcDbLine
 10
215.0233167999906
 20
220.7616708693455
 30
0.0
 11
215.0233167999906
 21
228.7616708693457
 31
0.0
  0
LINE
  5
3B
330
38
100
AcDbEntity
  8
SUNPO
 62
     0
370
    -2
100
AcDbLine
 10
230.5233223591627
 20
220.7616708693457
 30
0.0
 11
230.5233223591627
 21
228.7616708693457
 31
0.0
  0
LINE
  5
3C
330
38
100
AcDbEntity
  8
SUNPO
 62
     0
370
    -2
100
AcDbLine
 10
217.0233167999906
 20
226.7616708693457
 30
0.0
 11
228.5233223591627
 21
226.7616708693457
 31
0.0
  0
INSERT
  5
3D
330
38
100
AcDbEntity
  8
SUNPO
 62
     0
370
    -2
100
AcDbBlockReference
  2
_OPEN30
 10
215.0233167999906
 20
226.7616708693457
 30
0.0
 41
2.0
 42
2.0
 43
2.0
 50
180.0
  0
INSERT
  5
3E
330
38
100
AcDbEntity
  8
SUNPO
 62
     0
370
    -2
100
AcDbBlockReference
  2
_OPEN30
 10
230.5233223591627
 20
226.7616708693457
 30
0.0
 41
2.0
 42
2.0
 43
2.0
  0
MTEXT
  5
3F
330
38
100
AcDbEntity
  8
SUNPO
 62
     0
100
AcDbMText
 10
222.7733195795766
 20
228.5116708693457
 30
0.0
 40
2.5
 41
0.0
 71
     5
 72
     1
  1
\A1;31
 73
     1
 44
1.0
1001
ACAD
1000
MTEXTBEGIN
1070
    73
1070
     1
1070
    44
1040
1.0
1070
    74
1070
     0
1000
MTEXTEND
  0
POINT
  5
40
330
38
100
AcDbEntity
  8
DEFPOINTS
 62
     0
100
AcDbPoint
 10
215.0233167999906
 20
218.7616708693455
 30
0.0
  0
POINT
  5
42
330
38
100
AcDbEntity
  8
DEFPOINTS
 62
     0
100
AcDbPoint
 10
230.5233223591627
 20
218.7616708693457
 30
0.0
  0
POINT
  5
43
330
38
100
AcDbEntity
  8
DEFPOINTS
 62
     0
100
AcDbPoint
 10
230.5233223591627
 20
226.7616708693457
 30
0.0
  0
ENDBLK
  5
44
330
38
100
AcDbEntity
  8
0
100
AcDbBlockEnd
  0
BLOCK
  5
1AF
330
1A5
100
AcDbEntity
  8
0
100
AcDbBlockBegin
  2
*D4
 70
     1
 10
0.0
 20
0.0
 30
0.0
  3
*D4
  1

  0
LINE
  5
1A6
330
1A5
100
AcDbEntity
  8
SUNPO
 62
     0
370
    -2
100
AcDbLine
 10
-38.15304861408561
 20
27.9793402169413
 30
0.0
 11
-38.15304861408561
 21
35.97934021694153
 31
0.0
  0
LINE
  5
1A7
330
1A5
100
AcDbEntity
  8
SUNPO
 62
     0
370
    -2
100
AcDbLine
 10
-5.653033766823227
 20
27.97934021694152
 30
0.0
 11
-5.653033766823226
 21
35.97934021694153
 31
0.0
  0
LINE
  5
1A8
330
1A5
100
AcDbEntity
  8
SUNPO
 62
     0
370
    -2
100
AcDbLine
 10
-36.1530486140856
 20
33.97934021694152
 30
0.0
 11
-7.653033766823226
 21
33.97934021694152
 31
0.0
  0
INSERT
  5
1A9
330
1A5
100
AcDbEntity
  8
SUNPO
 62
     0
370
    -2
100
AcDbBlockReference
  2
_OPEN30
 10
-38.15304861408561
 20
33.97934021694152
 30
0.0
 41
2.0
 42
2.0
 43
2.0
 50
180.0
  0
INSERT
  5
1AA
330
1A5
100
AcDbEntity
  8
SUNPO
 62
     0
370
    -2
100
AcDbBlockReference
  2
_OPEN30
 10
-5.653033766823226
 20
33.97934021694152
 30
0.0
 41
2.0
 42
2.0
 43
2.0
  0
MTEXT
  5
1AB
330
1A5
100
AcDbEntity
  8
SUNPO
 62
     0
100
AcDbMText
 10
-21.90304119045442
 20
35.72934021694152
 30
0.0
 40
2.5
 41
0.0
 71
     5
 72
     1
  1
\A1;65
 73
     1
 44
1.0
1001
ACAD
1000
MTEXTBEGIN
1070
    73
1070
     1
1070
    44
1040
1.0
1070
    74
1070
     0
1000
MTEXTEND
  0
POINT
  5
1AC
330
1A5
100
AcDbEntity
  8
DEFPOINTS
 62
     0
100
AcDbPoint
 10
-38.15304861408561
 20
25.9793402169413
 30
0.0
  0
POINT
  5
1AD
330
1A5
100
AcDbEntity
  8
DEFPOINTS
 62
     0
100
AcDbPoint
 10
-5.653033766823227
 20
25.97934021694153
 30
0.0
  0
POINT
  5
1AE
330
1A5
100
AcDbEntity
  8
DEFPOINTS
 62
     0
100
AcDbPoint
 10
-5.653033766823226
 20
33.97934021694152
 30
0.0
  0
ENDBLK
  5
1B0
330
1A5
100
AcDbEntity
  8
0
100
AcDbBlockEnd
  0
BLOCK
  5
1BB
330
1B1
100
AcDbEntity
  8
0
100
AcDbBlockBegin
  2
*D5
 70
     1
 10
0.0
 20
0.0
 30
0.0
  3
*D5
  1

  0
LINE
  5
1B2
330
1B1
100
AcDbEntity
  8
SUNPO
 62
     0
370
    -2
100
AcDbLine
 10
-3.672270749638585
 20
-12.02657041181578
 30
0.0
 11
4.327729250361462
 21
-12.02657041181578
 31
0.0
  0
LINE
  5
1B3
330
1B1
100
AcDbEntity
  8
SUNPO
 62
     0
370
    -2
100
AcDbLine
 10
-3.672270749638527
 20
25.9734244552111
 30
0.0
 11
4.327729250361471
 21
25.9734244552111
 31
0.0
  0
LINE
  5
1B4
330
1B1
100
AcDbEntity
  8
SUNPO
 62
     0
370
    -2
100
AcDbLine
 10
2.327729250361463
 20
-10.02657041181578
 30
0.0
 11
2.327729250361471
 21
23.9734244552111
 31
0.0
  0
INSERT
  5
1B5
330
1B1
100
AcDbEntity
  8
SUNPO
 62
     0
370
    -2
100
AcDbBlockReference
  2
_OPEN30
 10
2.327729250361463
 20
-12.02657041181578
 30
0.0
 41
2.0
 42
2.0
 43
2.0
 50
270.0
  0
INSERT
  5
1B6
330
1B1
100
AcDbEntity
  8
SUNPO
 62
     0
370
    -2
100
AcDbBlockReference
  2
_OPEN30
 10
2.327729250361471
 20
25.9734244552111
 30
0.0
 41
2.0
 42
2.0
 43
2.0
 50
90.0
  0
MTEXT
  5
1B7
330
1B1
100
AcDbEntity
  8
SUNPO
 62
     0
100
AcDbMText
 10
0.5777292503614664
 20
6.973427021697658
 30
0.0
 40
2.5
 41
0.0
 71
     5
 72
     1
  1
\A1;76
 11
0.0000000000000001
 21
1.0
 31
0.0
 73
     1
 44
1.0
1001
ACAD
1000
MTEXTBEGIN
1070
    73
1070
     1
1070
    44
1040
1.0
1070
    74
1070
     0
1000
MTEXTEND
  0
POINT
  5
1B8
330
1B1
100
AcDbEntity
  8
DEFPOINTS
 62
     0
100
AcDbPoint
 10
-5.672270749638585
 20
-12.02657041181578
 30
0.0
  0
POINT
  5
1B9
330
1B1
100
AcDbEntity
  8
DEFPOINTS
 62
     0
100
AcDbPoint
 10
-5.672270749638528
 20
25.9734244552111
 30
0.0
  0
POINT
  5
1BA
330
1B1
100
AcDbEntity
  8
DEFPOINTS
 62
     0
100
AcDbPoint
 10
2.327729250361471
 20
25.9734244552111
 30
0.0
  0
ENDBLK
  5
1BC
330
1B1
100
AcDbEntity
  8
0
100
AcDbBlockEnd
  0
BLOCK
  5
1C7
330
1BD
100
AcDbEntity
  8
0
100
AcDbBlockBegin
  2
*D6
 70
     1
 10
0.0
 20
0.0
 30
0.0
  3
*D6
  1

  0
LINE
  5
1BE
330
1BD
100
AcDbEntity
  8
SUNPO
 62
     0
370
    -2
100
AcDbLine
 10
17.23139210014153
 20
27.9793402169413
 30
0.0
 11
17.23139210014153
 21
35.97934021694153
 31
0.0
  0
LINE
  5
1BF
330
1BD
100
AcDbEntity
  8
SUNPO
 62
     0
370
    -2
100
AcDbLine
 10
32.7313976593137
 20
27.97934021694152
 30
0.0
 11
32.7313976593137
 21
35.97934021694153
 31
0.0
  0
LINE
  5
1C0
330
1BD
100
AcDbEntity
  8
SUNPO
 62
     0
370
    -2
100
AcDbLine
 10
19.23139210014153
 20
33.97934021694152
 30
0.0
 11
30.7313976593137
 21
33.97934021694152
 31
0.0
  0
INSERT
  5
1C1
330
1BD
100
AcDbEntity
  8
SUNPO
 62
     0
370
    -2
100
AcDbBlockReference
  2
_OPEN30
 10
17.23139210014153
 20
33.97934021694152
 30
0.0
 41
2.0
 42
2.0
 43
2.0
 50
180.0
  0
INSERT
  5
1C2
330
1BD
100
AcDbEntity
  8
SUNPO
 62
     0
370
    -2
100
AcDbBlockReference
  2
_OPEN30
 10
32.7313976593137
 20
33.97934021694152
 30
0.0
 41
2.0
 42
2.0
 43
2.0
  0
MTEXT
  5
1C3
330
1BD
100
AcDbEntity
  8
SUNPO
 62
     0
100
AcDbMText
 10
24.98139487972762
 20
35.72934021694152
 30
0.0
 40
2.5
 41
0.0
 71
     5
 72
     1
  1
\A1;31
 73
     1
 44
1.0
1001
ACAD
1000
MTEXTBEGIN
1070
    73
1070
     1
1070
    44
1040
1.0
1070
    74
1070
     0
1000
MTEXTEND
  0
POINT
  5
1C4
330
1BD
100
AcDbEntity
  8
DEFPOINTS
 62
     0
100
AcDbPoint
 10
17.23139210014153
 20
25.9793402169413
 30
0.0
  0
POINT
  5
1C5
330
1BD
100
AcDbEntity
  8
DEFPOINTS
 62
     0
100
AcDbPoint
 10
32.7313976593137
 20
25.97934021694153
 30
0.0
  0
POINT
  5
1C6
330
1BD
100
AcDbEntity
  8
DEFPOINTS
 62
     0
100
AcDbPoint
 10
32.7313976593137
 20
33.97934021694152
 30
0.0
  0
ENDBLK
  5
1C8
330
1BD
100
AcDbEntity
  8
0
100
AcDbBlockEnd
  0
ENDSEC
  0
SECTION
  2
ENTITIES
  0
TEXT
  5
33
330
2
100
AcDbEntity
  8
MOJI1
100
AcDbText
 10
-39.79192469984923
 20
47.71688348724092
 30
0.0
 40
4.0
  1
虹彩カメラ用オプションボード
100
AcDbText
  0
TEXT
  5
34
330
2
100
AcDbEntity
  8
TOUROKU
100
AcDbText
 10
40.34135866641163
 20
41.71688348723762
 30
0.0
 40
2.0
  1
ＢＭＥＴＡ２０１
 72
     2
 11
58.2080253330783
 21
41.71688348723762
 31
0.0
100
AcDbText
  0
DIMENSION
  5
36
330
2
100
AcDbEntity
  8
SUNPO
100
AcDbDimension
  2
*D6
 10
32.7313976593137
 20
33.97934021694152
 30
0.0
 11
24.98139487972762
 21
35.72934021694152
 31
0.0
 70
    33
  1
31
 71
     5
 42
15.50000555917216
  3
STANDARD
100
AcDbAlignedDimension
 13
17.23139210014153
 23
25.9793402169413
 33
0.0
 14
32.7313976593137
 24
25.97934021694153
 34
0.0
1001
ACAD
1000
DSTYLE
1002
{
1070
    40
1040
1.0
1070
   140
1040
2.5
1070
   147
1040
0.5
1070
   172
1070
     1
1070
   279
1070
     0
1070
   288
1070
     0
1002
}
  0
DIMENSION
  5
45
330
2
100
AcDbEntity
  8
SUNPO
100
AcDbDimension
  2
*D5
 10
2.327729250361471
 20
25.9734244552111
 30
0.0
 11
0.5777292503614664
 21
6.973427021697658
 31
0.0
 70
    33
  1
76
 71
     5
 42
37.99999486702688
  3
STANDARD
100
AcDbAlignedDimension
 13
-5.672270749638585
 23
-12.02657041181578
 33
0.0
 14
-5.672270749638528
 24
25.9734244552111
 34
0.0
1001
ACAD
1000
DSTYLE
1002
{
1070
    40
1040
1.0
1070
   140
1040
2.5
1070
   147
1040
0.5
1070
   172
1070
     1
1070
   279
1070
     0
1070
   288
1070
     0
1002
}
  0
DIMENSION
  5
52
330
2
100
AcDbEntity
  8
SUNPO
100
AcDbDimension
  2
*D4
 10
-5.653033766823226
 20
33.97934021694152
 30
0.0
 11
-21.90304119045442
 21
35.72934021694152
 31
0.0
 70
    33
  1
65
 71
     5
 42
32.50001484726238
  3
STANDARD
100
AcDbAlignedDimension
 13
-38.15304861408561
 23
25.9793402169413
 33
0.0
 14
-5.653033766823227
 24
25.97934021694153
 34
0.0
1001
ACAD
1000
DSTYLE
1002
{
1070
    40
1040
1.0
1070
   140
1040
2.5
1070
   147
1040
0.5
1070
   172
1070
     1
1070
   279
1070
     0
1070
   288
1070
     0
1002
}
  0
ARC
  5
5F
330
2
100
AcDbEntity
  8
GAIKEI
100
AcDbCircle
 10
-36.65319847404044
 20
9.474079611605247
 30
0.0
 40
0.5001482466460744
100
AcDbArc
 50
89.99772881677477
 51
179.9732091602632
  0
ARC
  5
61
330
2
100
AcDbEntity
  8
GAIKEI
100
AcDbCircle
 10
-36.65319847091775
 20
0.9743542079278313
 30
0.0
 40
0.5001482497702757
100
AcDbArc
 50
180.0267911974929
 51
270.0022708254821
  0
ARC
  5
62
330
2
100
AcDbEntity
  8
GAIKEI
100
AcDbCircle
 10
-37.15237294479471
 20
-11.0258949790321
 30
0.0
 40
1.000675691870717
100
AcDbArc
 50
180.0121717135145
 51
269.9587699483177
  0
ARC
  5
63
330
2
100
AcDbEntity
  8
GAIKEI
100
AcDbCircle
 10
-10.15325946392522
 20
-0.0255633079693212
 30
0.0
 40
0.4997692783038995
100
AcDbArc
 50
359.9979021446867
 51
89.98755762458079
  0
ARC
  5
64
330
2
100
AcDbEntity
  8
GAIKEI
100
AcDbCircle
 10
-9.153504346417662
 20
-7.024565109328079
 30
0.0
 40
0.4999858788659479
100
AcDbArc
 50
180.0227251164636
 51
269.9918114252576
  0
ARC
  5
65
330
2
100
AcDbEntity
  8
GAIKEI
100
AcDbCircle
 10
-6.653979847759615
 20
-11.02562433087934
 30
0.0
 40
1.000946197580728
100
AcDbArc
 50
270.0276607631626
 51
359.9723392368366
  0
ARC
  5
66
330
2
100
AcDbEntity
  8
GAIKEI
100
AcDbCircle
 10
-37.15275216983992
 20
24.97312806524315
 30
0.0
 40
1.000296448044031
100
AcDbArc
 50
90.01952412484934
 51
179.9950068868689
  0
ARC
  5
67
330
2
100
AcDbEntity
  8
GAIKEI
100
AcDbCircle
 10
-6.653600722421685
 20
24.97285744105563
 30
0.0
 40
1.000567019571221
100
AcDbArc
 50
0.0204886001040289
 51
89.99403872728478
  0
ARC
  5
68
330
2
100
AcDbEntity
  8
GAIKEI
100
AcDbCircle
 10
-10.15331366886232
 20
10.47405136168095
 30
0.0
 40
0.4998235303145183
100
AcDbArc
 50
270.0186546464149
 51
0.0249549768717079
  0
ARC
  5
69
330
2
100
AcDbEntity
  8
GAIKEI
100
AcDbCircle
 10
-9.153558512885126
 20
16.97402646580434
 30
0.0
 40
0.4999316733701555
100
AcDbArc
 50
90.00198159429002
 51
179.9980184056994
  0
LINE
  5
6A
330
2
100
AcDbEntity
  8
GAIKEI
100
AcDbLine
 10
-9.653490185956286
 20
10.4742690580689
 30
0.0
 11
-9.653490185956286
 21
16.97404375611376
 31
0.0
  0
LINE
  5
6B
330
2
100
AcDbEntity
  8
GAIKEI
100
AcDbLine
 10
-36.6531786483514
 20
9.974227857858352
 30
0.0
 11
-10.15315093382071
 21
9.974227857858352
 31
0.0
  0
LINE
  5
6C
330
2
100
AcDbEntity
  8
GAIKEI
100
AcDbLine
 10
-37.15334666601064
 20
0.9741203413121297
 30
0.0
 11
-37.15334666601064
 21
9.474313475096494
 31
0.0
  0
LINE
  5
6D
330
2
100
AcDbEntity
  8
GAIKEI
100
AcDbLine
 10
-10.15315093382071
 20
0.4742059585503853
 30
0.0
 11
-36.6531786483514
 21
0.4742059585503853
 31
0.0
  0
LINE
  5
6E
330
2
100
AcDbEntity
  8
GAIKEI
100
AcDbLine
 10
-9.653490185956286
 20
-7.024763417774636
 30
0.0
 11
-9.653490185956286
 21
-0.0255816067627848
 31
0.0
  0
LINE
  5
6F
330
2
100
AcDbEntity
  8
GAIKEI
100
AcDbLine
 10
-5.153246201510114
 20
17.47395813887556
 30
0.0
 11
-9.153575803194428
 21
17.47395813887556
 31
0.0
  0
LINE
  5
70
330
2
100
AcDbEntity
  8
GAIKEI
100
AcDbLine
 10
-5.153246201510114
 20
-7.524550983087806
 30
0.0
 11
-5.153246201510114
 21
17.47395813887556
 31
0.0
  0
LINE
  5
71
330
2
100
AcDbEntity
  8
GAIKEI
100
AcDbLine
 10
-9.153575803194428
 20
-7.524550983087806
 30
0.0
 11
-5.153246201510114
 21
-7.524550983087806
 31
0.0
  0
LINE
  5
72
330
2
100
AcDbEntity
  8
GAIKEI
100
AcDbLine
 10
-5.653033766823284
 20
-7.524550983087806
 30
0.0
 11
-5.653033766823284
 21
-11.02610755904851
 31
0.0
  0
LINE
  5
73
330
2
100
AcDbEntity
  8
GAIKEI
100
AcDbLine
 10
-5.653033766823284
 20
24.97321523734143
 30
0.0
 11
-5.653033766823227
 21
17.47395813887556
 31
0.0
  0
LINE
  5
74
330
2
100
AcDbEntity
  8
GAIKEI
100
AcDbLine
 10
-37.1530930311132
 20
25.97342445521116
 30
0.0
 11
-6.653496619590441
 21
25.97342445521116
 31
0.0
  0
LINE
  5
75
330
2
100
AcDbEntity
  8
GAIKEI
100
AcDbLine
 10
-38.15304861408561
 20
-11.02610755904851
 30
0.0
 11
-38.15304861408561
 21
24.97321523734143
 31
0.0
  0
LINE
  5
76
330
2
100
AcDbEntity
  8
GAIKEI
100
AcDbLine
 10
-6.653496619590441
 20
-12.02657041181572
 30
0.0
 11
-37.1530930311132
 21
-12.02657041181572
 31
0.0
  0
LINE
  5
77
330
2
100
AcDbEntity
  8
GAIKEI
100
AcDbLine
 10
25.6818693211693
 20
5.990891794299386
 30
0.0
 11
25.6818693211693
 21
-0.0945702988537392
 31
0.0
  0
LINE
  5
78
330
2
100
AcDbEntity
  8
GAIKEI
100
AcDbLine
 10
31.7308079890978
 20
1.724245550352293
 30
0.0
 11
32.73139765931376
 21
2.224413568011527
 31
0.0
  0
LINE
  5
79
330
2
100
AcDbEntity
  8
GAIKEI
100
AcDbLine
 10
32.73139765931376
 20
2.224413568011527
 30
0.0
 11
32.73139765931376
 21
4.224071099058903
 31
0.0
  0
LINE
  5
7A
330
2
100
AcDbEntity
  8
GAIKEI
100
AcDbLine
 10
32.73139765931376
 20
4.224071099058903
 30
0.0
 11
31.7308079890978
 21
4.723985481820761
 31
0.0
  0
LINE
  5
7B
330
2
100
AcDbEntity
  8
GAIKEI
100
AcDbLine
 10
31.7308079890978
 20
4.723985481820761
 30
0.0
 11
28.98165933625381
 21
4.723985481820761
 31
0.0
  0
LINE
  5
7C
330
2
100
AcDbEntity
  8
GAIKEI
100
AcDbLine
 10
28.98165933625381
 20
4.723985481820761
 30
0.0
 11
28.98165933625381
 21
5.224280316928741
 31
0.0
  0
LINE
  5
7D
330
2
100
AcDbEntity
  8
GAIKEI
100
AcDbLine
 10
28.98165933625381
 20
5.224280316928741
 30
0.0
 11
25.6818693211693
 21
5.224280316928741
 31
0.0
  0
LINE
  5
7E
330
2
100
AcDbEntity
  8
GAIKEI
100
AcDbLine
 10
25.6818693211693
 20
5.224280316928741
 30
0.0
 11
25.6818693211693
 21
17.22412776494332
 31
0.0
  0
LINE
  5
7F
330
2
100
AcDbEntity
  8
GAIKEI
100
AcDbLine
 10
25.6818693211693
 20
17.22412776494332
 30
0.0
 11
24.5808402315858
 21
17.22412776494332
 31
0.0
  0
LINE
  5
80
330
2
100
AcDbEntity
  8
GAIKEI
100
AcDbLine
 10
24.5808402315858
 20
17.22412776494332
 30
0.0
 11
24.5808402315858
 21
25.97253673307029
 31
0.0
  0
LINE
  5
81
330
2
100
AcDbEntity
  8
GAIKEI
100
AcDbLine
 10
24.5808402315858
 20
25.97253673307029
 30
0.0
 11
23.78138303500271
 21
25.97253673307029
 31
0.0
  0
LINE
  5
82
330
2
100
AcDbEntity
  8
GAIKEI
100
AcDbLine
 10
23.78138303500271
 20
25.97253673307029
 30
0.0
 11
23.78138303500271
 21
17.22412776494332
 31
0.0
  0
LINE
  5
83
330
2
100
AcDbEntity
  8
GAIKEI
100
AcDbLine
 10
23.78138303500271
 20
17.22412776494332
 30
0.0
 11
23.18128286777056
 21
17.22412776494332
 31
0.0
  0
LINE
  5
84
330
2
100
AcDbEntity
  8
GAIKEI
100
AcDbLine
 10
23.18128286777056
 20
17.22412776494332
 30
0.0
 11
23.18128286777056
 21
16.9740437561137
 31
0.0
  0
LINE
  5
85
330
2
100
AcDbEntity
  8
GAIKEI
100
AcDbLine
 10
23.18128286777056
 20
16.9740437561137
 30
0.0
 11
18.65707385838823
 21
16.9740437561137
 31
0.0
  0
LINE
  5
86
330
2
100
AcDbEntity
  8
GAIKEI
100
AcDbLine
 10
18.65707385838823
 20
16.9740437561137
 30
0.0
 11
18.08208354599804
 21
15.3741148233579
 31
0.0
  0
LINE
  5
87
330
2
100
AcDbEntity
  8
GAIKEI
100
AcDbLine
 10
18.08208354599804
 20
15.3741148233579
 30
0.0
 11
17.83174590227099
 21
15.3741148233579
 31
0.0
  0
LINE
  5
88
330
2
100
AcDbEntity
  8
GAIKEI
100
AcDbLine
 10
17.83174590227099
 20
15.3741148233579
 30
0.0
 11
17.83174590227099
 21
14.12356796176112
 31
0.0
  0
LINE
  5
89
330
2
100
AcDbEntity
  8
GAIKEI
100
AcDbLine
 10
17.83174590227099
 20
14.12356796176112
 30
0.0
 11
17.23139210014153
 21
14.12356796176112
 31
0.0
  0
LINE
  5
8A
330
2
100
AcDbEntity
  8
GAIKEI
100
AcDbLine
 10
17.23139210014153
 20
14.12356796176112
 30
0.0
 11
17.23139210014153
 21
12.47405340656496
 31
0.0
  0
LINE
  5
8B
330
2
100
AcDbEntity
  8
GAIKEI
100
AcDbLine
 10
17.23139210014153
 20
12.47405340656496
 30
0.0
 11
17.83174590227099
 21
12.47405340656496
 31
0.0
  0
LINE
  5
8C
330
2
100
AcDbEntity
  8
GAIKEI
100
AcDbLine
 10
17.83174590227099
 20
12.47405340656496
 30
0.0
 11
17.83174590227099
 21
11.35235307284387
 31
0.0
  0
LINE
  5
8D
330
2
100
AcDbEntity
  8
GAIKEI
100
AcDbLine
 10
17.83174590227099
 20
11.35235307284387
 30
0.0
 11
20.24381377647956
 21
10.47376178827414
 31
0.0
  0
LINE
  5
8E
330
2
100
AcDbEntity
  8
GAIKEI
100
AcDbLine
 10
20.24381377647956
 20
10.47376178827414
 30
0.0
 11
23.18128286777056
 21
10.47376178827414
 31
0.0
  0
LINE
  5
8F
330
2
100
AcDbEntity
  8
GAIKEI
100
AcDbLine
 10
23.18128286777056
 20
10.47376178827414
 30
0.0
 11
23.18128286777056
 21
-0.0255816067627848
 31
0.0
  0
LINE
  5
90
330
2
100
AcDbEntity
  8
GAIKEI
100
AcDbLine
 10
23.18128286777056
 20
-0.0255816067627848
 30
0.0
 11
20.24381377647956
 21
-0.0255816067627848
 31
0.0
  0
LINE
  5
91
330
2
100
AcDbEntity
  8
GAIKEI
100
AcDbLine
 10
20.24381377647956
 20
-0.0255816067627848
 30
0.0
 11
17.83174590227099
 21
-0.9036656215377547
 31
0.0
  0
LINE
  5
92
330
2
100
AcDbEntity
  8
GAIKEI
100
AcDbLine
 10
17.83174590227099
 20
-0.9036656215377547
 30
0.0
 11
17.83174590227099
 21
-2.025619590156281
 31
0.0
  0
LINE
  5
93
330
2
100
AcDbEntity
  8
GAIKEI
100
AcDbLine
 10
17.83174590227099
 20
-2.025619590156281
 30
0.0
 11
17.23139210014153
 21
-2.025619590156281
 31
0.0
  0
LINE
  5
94
330
2
100
AcDbEntity
  8
GAIKEI
100
AcDbLine
 10
17.23139210014153
 20
-2.025619590156281
 30
0.0
 11
17.23139210014153
 21
-3.675641415147254
 31
0.0
  0
LINE
  5
95
330
2
100
AcDbEntity
  8
GAIKEI
100
AcDbLine
 10
17.23139210014153
 20
-3.675641415147254
 30
0.0
 11
17.83174590227099
 21
-3.675641415147254
 31
0.0
  0
LINE
  5
96
330
2
100
AcDbEntity
  8
GAIKEI
100
AcDbLine
 10
17.83174590227099
 20
-3.675641415147254
 30
0.0
 11
17.83174590227099
 21
-4.926441911641347
 31
0.0
  0
LINE
  5
97
330
2
100
AcDbEntity
  8
GAIKEI
100
AcDbLine
 10
17.83174590227099
 20
-4.926441911641347
 30
0.0
 11
18.08208354599804
 21
-4.926441911641347
 31
0.0
  0
LINE
  5
98
330
2
100
AcDbEntity
  8
GAIKEI
100
AcDbLine
 10
18.08208354599804
 20
-4.926441911641347
 30
0.0
 11
18.65707385838823
 21
-6.526370844397149
 31
0.0
  0
LINE
  5
99
330
2
100
AcDbEntity
  8
GAIKEI
100
AcDbLine
 10
18.65707385838823
 20
-6.526370844397149
 30
0.0
 11
23.18128286777056
 21
-6.526370844397149
 31
0.0
  0
LINE
  5
9A
330
2
100
AcDbEntity
  8
GAIKEI
100
AcDbLine
 10
23.18128286777056
 20
-6.526370844397149
 30
0.0
 11
23.18128286777056
 21
-7.775903166404361
 31
0.0
  0
LINE
  5
9B
330
2
100
AcDbEntity
  8
GAIKEI
100
AcDbLine
 10
23.18128286777056
 20
-7.775903166404361
 30
0.0
 11
23.78138303500271
 21
-7.775903166404361
 31
0.0
  0
LINE
  5
9C
330
2
100
AcDbEntity
  8
GAIKEI
100
AcDbLine
 10
23.78138303500271
 20
-7.775903166404361
 30
0.0
 11
23.78138303500271
 21
-12.02657041181572
 31
0.0
  0
LINE
  5
9D
330
2
100
AcDbEntity
  8
GAIKEI
100
AcDbLine
 10
23.78138303500271
 20
-12.02657041181572
 30
0.0
 11
24.5808402315858
 21
-12.02657041181572
 31
0.0
  0
LINE
  5
9E
330
2
100
AcDbEntity
  8
GAIKEI
100
AcDbLine
 10
24.5808402315858
 20
-12.02657041181572
 30
0.0
 11
24.5808402315858
 21
-7.775903166404361
 31
0.0
  0
LINE
  5
9F
330
2
100
AcDbEntity
  8
GAIKEI
100
AcDbLine
 10
24.5808402315858
 20
-7.775903166404361
 30
0.0
 11
25.6818693211693
 21
-7.775903166404361
 31
0.0
  0
LINE
  5
A0
330
2
100
AcDbEntity
  8
GAIKEI
100
AcDbLine
 10
25.6818693211693
 20
-7.775903166404361
 30
0.0
 11
25.6818693211693
 21
1.22395071524437
 31
0.0
  0
LINE
  5
A1
330
2
100
AcDbEntity
  8
GAIKEI
100
AcDbLine
 10
25.6818693211693
 20
1.22395071524437
 30
0.0
 11
28.98165933625381
 21
1.22395071524437
 31
0.0
  0
LINE
  5
A2
330
2
100
AcDbEntity
  8
GAIKEI
100
AcDbLine
 10
28.98165933625381
 20
1.22395071524437
 30
0.0
 11
28.98165933625381
 21
1.724245550352293
 31
0.0
  0
LINE
  5
A3
330
2
100
AcDbEntity
  8
GAIKEI
100
AcDbLine
 10
28.98165933625381
 20
1.724245550352293
 30
0.0
 11
31.7308079890978
 21
1.724245550352293
 31
0.0
  0
CIRCLE
  5
A4
330
2
100
AcDbEntity
  8
GAIKEI
 62
     1
100
AcDbCircle
 10
-8.148674339722902
 20
-9.53080302146742
 30
0.0
 40
1.000209217869771
  0
CIRCLE
  5
A5
330
2
100
AcDbEntity
  8
GAIKEI
 62
     1
100
AcDbCircle
 10
-8.148674339722902
 20
-9.53080302146742
 30
0.0
 40
1.000209217869771
  0
CIRCLE
  5
A6
330
2
100
AcDbEntity
  8
GAIKEI
 62
     1
100
AcDbCircle
 10
-8.148674339722902
 20
23.46827257365936
 30
0.0
 40
1.000209217869771
  0
CIRCLE
  5
A7
330
2
100
AcDbEntity
  8
GAIKEI
 62
     1
100
AcDbCircle
 10
-8.148674339722902
 20
23.46827257365936
 30
0.0
 40
1.000209217869771
  0
LINE
  5
A8
330
2
100
AcDbEntity
  8
GAIKEI
100
AcDbLine
 10
23.18128286777051
 20
10.47376178827414
 30
0.0
 11
23.18128286777051
 21
16.9740437561137
 31
0.0
  0
LINE
  5
A9
330
2
100
AcDbEntity
  8
GAIKEI
100
AcDbLine
 10
23.18128286777051
 20
-6.549451620059983
 30
0.0
 11
23.18128286777051
 21
-0.0489160173229379
 31
0.0
  0
LINE
  5
AA
330
2
100
AcDbEntity
  8
GAIKEI
100
AcDbLine
 10
17.83174590227099
 20
11.35235307284387
 30
0.0
 11
17.83174590227099
 21
15.3741148233579
 31
0.0
  0
LINE
  5
AB
330
2
100
AcDbEntity
  8
GAIKEI
100
AcDbLine
 10
17.83174590227099
 20
-4.926441911641347
 30
0.0
 11
17.83174590227099
 21
-0.9036656215377547
 31
0.0
  0
LINE
  5
AC
330
2
100
AcDbEntity
  8
GAIKEI
100
AcDbLine
 10
25.6818693211693
 20
17.22412776494332
 30
0.0
 11
23.18128286777051
 21
17.22412776494332
 31
0.0
  0
LINE
  5
AD
330
2
100
AcDbEntity
  8
GAIKEI
 62
     1
100
AcDbLine
 10
-20.90308560748207
 20
-6.526370844397149
 30
0.0
 11
-20.90308560748207
 21
-0.0255816067627848
 31
0.0
  0
LINE
  5
AE
330
2
100
AcDbEntity
  8
GAIKEI
 62
     1
100
AcDbLine
 10
-18.40300642387808
 20
-6.526370844397149
 30
0.0
 11
-18.40300642387808
 21
-0.0255816067627848
 31
0.0
  0
LINE
  5
AF
330
2
100
AcDbEntity
  8
GAIKEI
 62
     1
100
AcDbLine
 10
-15.90343451006885
 20
-6.526370844397149
 30
0.0
 11
-15.90343451006885
 21
-0.0255816067627848
 31
0.0
  0
LINE
  5
B0
330
2
100
AcDbEntity
  8
GAIKEI
 62
     1
100
AcDbLine
 10
-13.40335532646486
 20
-6.526370844397149
 30
0.0
 11
-13.40335532646486
 21
-0.0255816067627848
 31
0.0
  0
LINE
  5
B1
330
2
100
AcDbEntity
  8
GAIKEI
 62
     1
100
AcDbLine
 10
-10.90327614286087
 20
-0.0255816067627848
 30
0.0
 11
-10.90327614286087
 21
-6.526370844397149
 31
0.0
  0
LINE
  5
B2
330
2
100
AcDbEntity
  8
GAIKEI
 62
     1
100
AcDbLine
 10
-10.15289729892333
 20
-0.8238974463076829
 30
0.0
 11
-30.90314870700058
 21
-0.8238974463076829
 31
0.0
  0
LINE
  5
B3
330
2
100
AcDbEntity
  8
GAIKEI
 62
     1
100
AcDbLine
 10
-35.9027998044138
 20
-4.926441911641347
 30
0.0
 11
-10.15289729892333
 21
-4.926441911641347
 31
0.0
  0
LINE
  5
B4
330
2
100
AcDbEntity
  8
GAIKEI
 62
     1
100
AcDbLine
 10
-10.90327614286087
 20
15.3741148233579
 30
0.0
 11
-36.65292501345397
 21
15.3741148233579
 31
0.0
  0
LINE
  5
B5
330
2
100
AcDbEntity
  8
GAIKEI
 62
     1
100
AcDbLine
 10
-36.65292501345397
 20
11.27258489761374
 30
0.0
 11
-15.90343451006885
 21
11.27258489761374
 31
0.0
  0
LINE
  5
B6
330
2
100
AcDbEntity
  8
GAIKEI
 62
     1
100
AcDbLine
 10
-35.9027998044138
 20
10.47376178827414
 30
0.0
 11
-35.9027998044138
 21
16.9740437561137
 31
0.0
  0
LINE
  5
B7
330
2
100
AcDbEntity
  8
GAIKEI
 62
     1
100
AcDbLine
 10
-33.40348152550201
 20
16.9740437561137
 30
0.0
 11
-33.40348152550201
 21
10.47376178827414
 31
0.0
  0
LINE
  5
B8
330
2
100
AcDbEntity
  8
GAIKEI
 62
     1
100
AcDbLine
 10
-30.90314870700058
 20
16.9740437561137
 30
0.0
 11
-30.90314870700058
 21
10.47376178827414
 31
0.0
  0
LINE
  5
B9
330
2
100
AcDbEntity
  8
GAIKEI
 62
     1
100
AcDbLine
 10
-28.40306952339665
 20
16.9740437561137
 30
0.0
 11
-28.40306952339665
 21
10.47376178827414
 31
0.0
  0
LINE
  5
BA
330
2
100
AcDbEntity
  8
GAIKEI
 62
     1
100
AcDbLine
 10
-25.90324397469004
 20
16.9740437561137
 30
0.0
 11
-25.90324397469004
 21
10.47376178827414
 31
0.0
  0
LINE
  5
BB
330
2
100
AcDbEntity
  8
GAIKEI
 62
     1
100
AcDbLine
 10
-23.40341842598343
 20
16.9740437561137
 30
0.0
 11
-23.40341842598343
 21
10.47376178827414
 31
0.0
  0
LINE
  5
BC
330
2
100
AcDbEntity
  8
GAIKEI
 62
     1
100
AcDbLine
 10
-20.90308560748207
 20
16.9740437561137
 30
0.0
 11
-20.90308560748207
 21
10.47376178827414
 31
0.0
  0
LINE
  5
BD
330
2
100
AcDbEntity
  8
GAIKEI
 62
     1
100
AcDbLine
 10
-18.40300642387808
 20
16.9740437561137
 30
0.0
 11
-18.40300642387808
 21
10.47376178827414
 31
0.0
  0
LINE
  5
BE
330
2
100
AcDbEntity
  8
GAIKEI
 62
     1
100
AcDbLine
 10
-15.90343451006885
 20
16.9740437561137
 30
0.0
 11
-15.90343451006885
 21
10.47376178827414
 31
0.0
  0
LINE
  5
BF
330
2
100
AcDbEntity
  8
GAIKEI
 62
     1
100
AcDbLine
 10
-36.65292501345397
 20
11.27258489761374
 30
0.0
 11
-10.90327614286087
 21
11.27258489761374
 31
0.0
  0
LINE
  5
C0
330
2
100
AcDbEntity
  8
GAIKEI
 62
     1
100
AcDbLine
 10
-13.40335532646486
 20
16.9740437561137
 30
0.0
 11
-13.40335532646486
 21
10.47376178827414
 31
0.0
  0
LINE
  5
C1
330
2
100
AcDbEntity
  8
GAIKEI
 62
     1
100
AcDbLine
 10
-33.40348152550201
 20
6.474066273833329
 30
0.0
 11
-33.40348152550201
 21
7.973936239567535
 31
0.0
  0
LINE
  5
C2
330
2
100
AcDbEntity
  8
GAIKEI
 62
     1
100
AcDbLine
 10
-30.90314870700058
 20
3.474199524916173
 30
0.0
 11
-30.90314870700058
 21
6.474066273833329
 31
0.0
  0
LINE
  5
C3
330
2
100
AcDbEntity
  8
GAIKEI
 62
     1
100
AcDbLine
 10
-30.90314870700058
 20
3.474199524916173
 30
0.0
 11
-10.90327614286087
 21
3.474199524916173
 31
0.0
  0
LINE
  5
C4
330
2
100
AcDbEntity
  8
GAIKEI
 62
     1
100
AcDbLine
 10
-10.90327614286087
 20
7.973936239567535
 30
0.0
 11
-10.90327614286087
 21
6.474066273833329
 31
0.0
  0
LINE
  5
C5
330
2
100
AcDbEntity
  8
GAIKEI
 62
     1
100
AcDbLine
 10
-25.90324397469004
 20
0.9743739762096197
 30
0.0
 11
-25.90324397469004
 21
6.474066273833329
 31
0.0
  0
LINE
  5
C6
330
2
100
AcDbEntity
  8
GAIKEI
 62
     1
100
AcDbLine
 10
-35.9027998044138
 20
7.973936239567535
 30
0.0
 11
-33.40348152550201
 21
6.474066273833329
 31
0.0
  0
LINE
  5
C7
330
2
100
AcDbEntity
  8
GAIKEI
 62
     1
100
AcDbLine
 10
-33.40348152550201
 20
7.973936239567535
 30
0.0
 11
-30.90314870700058
 21
6.474066273833329
 31
0.0
  0
LINE
  5
C8
330
2
100
AcDbEntity
  8
GAIKEI
 62
     1
100
AcDbLine
 10
-33.40348152550201
 20
7.973936239567535
 30
0.0
 11
-33.40348152550201
 21
9.474313475096494
 31
0.0
  0
LINE
  5
C9
330
2
100
AcDbEntity
  8
GAIKEI
 62
     1
100
AcDbLine
 10
-30.90314870700058
 20
6.474066273833329
 30
0.0
 11
-30.90314870700058
 21
9.474313475096494
 31
0.0
  0
LINE
  5
CA
330
2
100
AcDbEntity
  8
GAIKEI
 62
     1
100
AcDbLine
 10
-28.40306952339665
 20
7.973936239567535
 30
0.0
 11
-28.40306952339665
 21
9.474313475096494
 31
0.0
  0
LINE
  5
CB
330
2
100
AcDbEntity
  8
GAIKEI
 62
     1
100
AcDbLine
 10
-25.90324397469004
 20
7.973936239567535
 30
0.0
 11
-25.90324397469004
 21
9.474313475096494
 31
0.0
  0
LINE
  5
CC
330
2
100
AcDbEntity
  8
GAIKEI
 62
     1
100
AcDbLine
 10
-25.90324397469004
 20
6.474066273833329
 30
0.0
 11
-25.90324397469004
 21
7.973936239567535
 31
0.0
  0
LINE
  5
CD
330
2
100
AcDbEntity
  8
GAIKEI
 62
     1
100
AcDbLine
 10
-25.90324397469004
 20
7.973936239567535
 30
0.0
 11
-23.40341842598343
 21
6.474066273833329
 31
0.0
  0
LINE
  5
CE
330
2
100
AcDbEntity
  8
GAIKEI
 62
     1
100
AcDbLine
 10
-23.40341842598343
 20
6.474066273833329
 30
0.0
 11
-23.40341842598343
 21
7.973936239567535
 31
0.0
  0
LINE
  5
CF
330
2
100
AcDbEntity
  8
GAIKEI
 62
     1
100
AcDbLine
 10
-23.40341842598343
 20
7.973936239567535
 30
0.0
 11
-20.90308560748207
 21
6.474066273833329
 31
0.0
  0
LINE
  5
D0
330
2
100
AcDbEntity
  8
GAIKEI
 62
     1
100
AcDbLine
 10
-20.90308560748207
 20
6.474066273833329
 30
0.0
 11
-20.90308560748207
 21
7.973936239567535
 31
0.0
  0
LINE
  5
D1
330
2
100
AcDbEntity
  8
GAIKEI
 62
     1
100
AcDbLine
 10
-23.40341842598343
 20
7.973936239567535
 30
0.0
 11
-23.40341842598343
 21
9.474313475096494
 31
0.0
  0
LINE
  5
D2
330
2
100
AcDbEntity
  8
GAIKEI
 62
     1
100
AcDbLine
 10
-20.90308560748207
 20
7.973936239567535
 30
0.0
 11
-18.40300642387808
 21
6.474066273833329
 31
0.0
  0
LINE
  5
D3
330
2
100
AcDbEntity
  8
GAIKEI
 62
     1
100
AcDbLine
 10
-18.40300642387808
 20
6.474066273833329
 30
0.0
 11
-18.40300642387808
 21
7.973936239567535
 31
0.0
  0
LINE
  5
D4
330
2
100
AcDbEntity
  8
GAIKEI
 62
     1
100
AcDbLine
 10
-20.90308560748207
 20
7.973936239567535
 30
0.0
 11
-20.90308560748207
 21
9.474313475096494
 31
0.0
  0
LINE
  5
D5
330
2
100
AcDbEntity
  8
GAIKEI
 62
     1
100
AcDbLine
 10
-18.40300642387808
 20
7.973936239567535
 30
0.0
 11
-15.90343451006885
 21
6.474066273833329
 31
0.0
  0
LINE
  5
D6
330
2
100
AcDbEntity
  8
GAIKEI
 62
     1
100
AcDbLine
 10
-15.90343451006885
 20
6.474066273833329
 30
0.0
 11
-15.90343451006885
 21
9.474313475096494
 31
0.0
  0
LINE
  5
D7
330
2
100
AcDbEntity
  8
GAIKEI
 62
     1
100
AcDbLine
 10
-18.40300642387808
 20
7.973936239567535
 30
0.0
 11
-18.40300642387808
 21
9.474313475096494
 31
0.0
  0
LINE
  5
D8
330
2
100
AcDbEntity
  8
GAIKEI
100
AcDbLine
 10
28.98165933625381
 20
1.22395071524437
 30
0.0
 11
28.98165933625381
 21
5.224280316928741
 31
0.0
  0
LINE
  5
D9
330
2
100
AcDbEntity
  8
GAIKEI
 62
     1
100
AcDbLine
 10
-33.40348152550201
 20
-6.526370844397149
 30
0.0
 11
-33.40348152550201
 21
-0.0255816067627848
 31
0.0
  0
LINE
  5
DA
330
2
100
AcDbEntity
  8
GAIKEI
 62
     1
100
AcDbLine
 10
-10.15289729892333
 20
-0.8238974463076829
 30
0.0
 11
-35.9027998044138
 21
-0.8238974463076829
 31
0.0
  0
LINE
  5
DB
330
2
100
AcDbEntity
  8
GAIKEI
 62
     1
100
AcDbLine
 10
-30.90314870700058
 20
-6.526370844397149
 30
0.0
 11
-30.90314870700058
 21
-0.0255816067627848
 31
0.0
  0
LINE
  5
DC
330
2
100
AcDbEntity
  8
GAIKEI
 62
     1
100
AcDbLine
 10
-28.40306952339665
 20
-6.526370844397149
 30
0.0
 11
-28.40306952339665
 21
-0.0255816067627848
 31
0.0
  0
LINE
  5
DD
330
2
100
AcDbEntity
  8
GAIKEI
 62
     1
100
AcDbLine
 10
-25.90324397469004
 20
-6.526370844397149
 30
0.0
 11
-25.90324397469004
 21
-0.0255816067627848
 31
0.0
  0
LINE
  5
DE
330
2
100
AcDbEntity
  8
GAIKEI
 62
     1
100
AcDbLine
 10
-23.40341842598343
 20
-6.526370844397149
 30
0.0
 11
-23.40341842598343
 21
-0.0255816067627848
 31
0.0
  0
LINE
  5
DF
330
2
100
AcDbEntity
  8
GAIKEI
100
AcDbLine
 10
25.6818693211693
 20
-7.775903166404361
 30
0.0
 11
23.18128286777056
 21
-7.775903166404361
 31
0.0
  0
LINE
  5
E0
330
2
100
AcDbEntity
  8
GAIKEI
 62
     1
100
AcDbLine
 10
-10.40336176009901
 20
5.974025073622783
 30
0.0
 11
-7.90328257649503
 21
5.974025073622783
 31
0.0
  0
LINE
  5
E1
330
2
100
AcDbEntity
  8
GAIKEI
 62
     1
100
AcDbLine
 10
-10.90327614286087
 20
7.973936239567535
 30
0.0
 11
-10.40336176009901
 21
9.474313475096494
 31
0.0
  0
LINE
  5
E2
330
2
100
AcDbEntity
  8
GAIKEI
 62
     1
100
AcDbLine
 10
-10.40336176009901
 20
0.9743739762096197
 30
0.0
 11
-10.90327614286087
 21
3.474199524916173
 31
0.0
  0
LINE
  5
E3
330
2
100
AcDbEntity
  8
GAIKEI
 62
     1
100
AcDbLine
 10
-10.90327614286087
 20
6.474066273833329
 30
0.0
 11
-10.90327614286087
 21
3.474199524916173
 31
0.0
  0
LINE
  5
E4
330
2
100
AcDbEntity
  8
GAIKEI
 62
     1
100
AcDbLine
 10
-10.90327614286087
 20
6.474066273833329
 30
0.0
 11
-10.40336176009901
 21
5.974025073622783
 31
0.0
  0
LINE
  5
E5
330
2
100
AcDbEntity
  8
GAIKEI
 62
     1
100
AcDbLine
 10
-10.90327614286087
 20
3.474199524916173
 30
0.0
 11
-10.90327614286087
 21
0.9743739762096197
 31
0.0
  0
LINE
  5
E6
330
2
100
AcDbEntity
  8
GAIKEI
 62
     1
100
AcDbLine
 10
-15.90343451006885
 20
-8.52564792309846
 30
0.0
 11
-18.40300642387808
 21
-8.52564792309846
 31
0.0
  0
LINE
  5
E7
330
2
100
AcDbEntity
  8
GAIKEI
 62
     1
100
AcDbLine
 10
-35.9027998044138
 20
6.474066273833329
 30
0.0
 11
-33.40348152550201
 21
6.474066273833329
 31
0.0
  0
LINE
  5
E8
330
2
100
AcDbEntity
  8
GAIKEI
 62
     1
100
AcDbLine
 10
-10.90327614286087
 20
7.973936239567535
 30
0.0
 11
-13.40335532646486
 21
7.973936239567535
 31
0.0
  0
LINE
  5
E9
330
2
100
AcDbEntity
  8
GAIKEI
 62
     1
100
AcDbLine
 10
-33.40348152550201
 20
6.474066273833329
 30
0.0
 11
-30.90314870700058
 21
6.474066273833329
 31
0.0
  0
LINE
  5
EA
330
2
100
AcDbEntity
  8
GAIKEI
 62
     1
100
AcDbLine
 10
-33.40348152550201
 20
7.973936239567535
 30
0.0
 11
-35.9027998044138
 21
7.973936239567535
 31
0.0
  0
LINE
  5
EB
330
2
100
AcDbEntity
  8
GAIKEI
 62
     1
100
AcDbLine
 10
-30.90314870700058
 20
7.973936239567535
 30
0.0
 11
-33.40348152550201
 21
7.973936239567535
 31
0.0
  0
LINE
  5
EC
330
2
100
AcDbEntity
  8
GAIKEI
 62
     1
100
AcDbLine
 10
-30.90314870700058
 20
6.474066273833329
 30
0.0
 11
-28.40306952339665
 21
6.474066273833329
 31
0.0
  0
LINE
  5
ED
330
2
100
AcDbEntity
  8
GAIKEI
 62
     1
100
AcDbLine
 10
-28.40306952339665
 20
3.474199524916173
 30
0.0
 11
-28.40306952339665
 21
7.973936239567535
 31
0.0
  0
LINE
  5
EE
330
2
100
AcDbEntity
  8
GAIKEI
 62
     1
100
AcDbLine
 10
-28.40306952339665
 20
7.973936239567535
 30
0.0
 11
-30.90314870700058
 21
7.973936239567535
 31
0.0
  0
LINE
  5
EF
330
2
100
AcDbEntity
  8
GAIKEI
 62
     1
100
AcDbLine
 10
-28.40306952339665
 20
6.474066273833329
 30
0.0
 11
-25.90324397469004
 21
6.474066273833329
 31
0.0
  0
LINE
  5
F0
330
2
100
AcDbEntity
  8
GAIKEI
 62
     1
100
AcDbLine
 10
-25.90324397469004
 20
7.973936239567535
 30
0.0
 11
-28.40306952339665
 21
7.973936239567535
 31
0.0
  0
LINE
  5
F1
330
2
100
AcDbEntity
  8
GAIKEI
 62
     1
100
AcDbLine
 10
-25.90324397469004
 20
6.474066273833329
 30
0.0
 11
-23.40341842598343
 21
6.474066273833329
 31
0.0
  0
LINE
  5
F2
330
2
100
AcDbEntity
  8
GAIKEI
 62
     1
100
AcDbLine
 10
-23.40341842598343
 20
3.474199524916173
 30
0.0
 11
-23.40341842598343
 21
6.474066273833329
 31
0.0
  0
LINE
  5
F3
330
2
100
AcDbEntity
  8
GAIKEI
 62
     1
100
AcDbLine
 10
-23.40341842598343
 20
7.973936239567535
 30
0.0
 11
-25.90324397469004
 21
7.973936239567535
 31
0.0
  0
LINE
  5
F4
330
2
100
AcDbEntity
  8
GAIKEI
 62
     1
100
AcDbLine
 10
-23.40341842598343
 20
6.474066273833329
 30
0.0
 11
-20.90308560748207
 21
6.474066273833329
 31
0.0
  0
LINE
  5
F5
330
2
100
AcDbEntity
  8
GAIKEI
 62
     1
100
AcDbLine
 10
-20.90308560748207
 20
3.474199524916173
 30
0.0
 11
-20.90308560748207
 21
6.474066273833329
 31
0.0
  0
LINE
  5
F6
330
2
100
AcDbEntity
  8
GAIKEI
 62
     1
100
AcDbLine
 10
-20.90308560748207
 20
7.973936239567535
 30
0.0
 11
-23.40341842598343
 21
7.973936239567535
 31
0.0
  0
LINE
  5
F7
330
2
100
AcDbEntity
  8
GAIKEI
 62
     1
100
AcDbLine
 10
-20.90308560748207
 20
6.474066273833329
 30
0.0
 11
-18.40300642387808
 21
6.474066273833329
 31
0.0
  0
LINE
  5
F8
330
2
100
AcDbEntity
  8
GAIKEI
 62
     1
100
AcDbLine
 10
-18.40300642387808
 20
3.474199524916173
 30
0.0
 11
-18.40300642387808
 21
6.474066273833329
 31
0.0
  0
LINE
  5
F9
330
2
100
AcDbEntity
  8
GAIKEI
 62
     1
100
AcDbLine
 10
-18.40300642387808
 20
7.973936239567535
 30
0.0
 11
-20.90308560748207
 21
7.973936239567535
 31
0.0
  0
LINE
  5
FA
330
2
100
AcDbEntity
  8
GAIKEI
 62
     1
100
AcDbLine
 10
-18.40300642387808
 20
6.474066273833329
 30
0.0
 11
-15.90343451006885
 21
6.474066273833329
 31
0.0
  0
LINE
  5
FB
330
2
100
AcDbEntity
  8
GAIKEI
 62
     1
100
AcDbLine
 10
-15.90343451006885
 20
3.474199524916173
 30
0.0
 11
-15.90343451006885
 21
6.474066273833329
 31
0.0
  0
LINE
  5
FC
330
2
100
AcDbEntity
  8
GAIKEI
 62
     1
100
AcDbLine
 10
-15.90343451006885
 20
7.973936239567535
 30
0.0
 11
-18.40300642387808
 21
7.973936239567535
 31
0.0
  0
LINE
  5
FD
330
2
100
AcDbEntity
  8
GAIKEI
 62
     1
100
AcDbLine
 10
-15.90343451006885
 20
6.474066273833329
 30
0.0
 11
-13.40335532646486
 21
6.474066273833329
 31
0.0
  0
LINE
  5
FE
330
2
100
AcDbEntity
  8
GAIKEI
 62
     1
100
AcDbLine
 10
-13.40335532646486
 20
3.474199524916173
 30
0.0
 11
-13.40335532646486
 21
9.474313475096494
 31
0.0
  0
LINE
  5
FF
330
2
100
AcDbEntity
  8
GAIKEI
 62
     1
100
AcDbLine
 10
-13.40335532646486
 20
7.973936239567535
 30
0.0
 11
-15.90343451006885
 21
7.973936239567535
 31
0.0
  0
LINE
  5
100
330
2
100
AcDbEntity
  8
GAIKEI
 62
     1
100
AcDbLine
 10
-13.40335532646486
 20
6.474066273833329
 30
0.0
 11
-10.90327614286087
 21
6.474066273833329
 31
0.0
  0
LINE
  5
101
330
2
100
AcDbEntity
  8
GAIKEI
 62
     1
100
AcDbLine
 10
-10.90327614286087
 20
9.474313475096494
 30
0.0
 11
-10.90327614286087
 21
7.973936239567535
 31
0.0
  0
LINE
  5
102
330
2
100
AcDbEntity
  8
GAIKEI
 62
     1
100
AcDbLine
 10
-13.40335532646486
 20
-8.52564792309846
 30
0.0
 11
-15.90343451006885
 21
-8.52564792309846
 31
0.0
  0
LINE
  5
103
330
2
100
AcDbEntity
  8
GAIKEI
 62
     1
100
AcDbLine
 10
-13.40335532646486
 20
-11.52551467201556
 30
0.0
 11
-13.40335532646486
 21
-7.025777957364198
 31
0.0
  0
LINE
  5
104
330
2
100
AcDbEntity
  8
GAIKEI
 62
     1
100
AcDbLine
 10
-15.90343451006885
 20
-11.52551467201556
 30
0.0
 11
-15.90343451006885
 21
-7.025777957364198
 31
0.0
  0
LINE
  5
105
330
2
100
AcDbEntity
  8
GAIKEI
 62
     1
100
AcDbLine
 10
-18.40300642387808
 20
-8.52564792309846
 30
0.0
 11
-20.90308560748207
 21
-8.52564792309846
 31
0.0
  0
LINE
  5
106
330
2
100
AcDbEntity
  8
GAIKEI
 62
     1
100
AcDbLine
 10
-18.40300642387808
 20
-11.52551467201556
 30
0.0
 11
-18.40300642387808
 21
-7.025777957364198
 31
0.0
  0
LINE
  5
107
330
2
100
AcDbEntity
  8
GAIKEI
 62
     1
100
AcDbLine
 10
-20.90308560748207
 20
-8.52564792309846
 30
0.0
 11
-23.40341842598343
 21
-8.52564792309846
 31
0.0
  0
LINE
  5
108
330
2
100
AcDbEntity
  8
GAIKEI
 62
     1
100
AcDbLine
 10
-20.90308560748207
 20
-11.52551467201556
 30
0.0
 11
-20.90308560748207
 21
-7.025777957364198
 31
0.0
  0
LINE
  5
109
330
2
100
AcDbEntity
  8
GAIKEI
 62
     1
100
AcDbLine
 10
-23.40341842598343
 20
-8.52564792309846
 30
0.0
 11
-25.90324397469004
 21
-8.52564792309846
 31
0.0
  0
LINE
  5
10A
330
2
100
AcDbEntity
  8
GAIKEI
 62
     1
100
AcDbLine
 10
-23.40341842598343
 20
-11.52551467201556
 30
0.0
 11
-23.40341842598343
 21
-7.025777957364198
 31
0.0
  0
LINE
  5
10B
330
2
100
AcDbEntity
  8
GAIKEI
 62
     1
100
AcDbLine
 10
-25.90324397469004
 20
-8.52564792309846
 30
0.0
 11
-28.40306952339665
 21
-8.52564792309846
 31
0.0
  0
LINE
  5
10C
330
2
100
AcDbEntity
  8
GAIKEI
 62
     1
100
AcDbLine
 10
-25.90324397469004
 20
-11.52551467201556
 30
0.0
 11
-25.90324397469004
 21
-7.025777957364198
 31
0.0
  0
LINE
  5
10D
330
2
100
AcDbEntity
  8
GAIKEI
 62
     1
100
AcDbLine
 10
-28.40306952339665
 20
-8.52564792309846
 30
0.0
 11
-30.90314870700058
 21
-8.52564792309846
 31
0.0
  0
LINE
  5
10E
330
2
100
AcDbEntity
  8
GAIKEI
 62
     1
100
AcDbLine
 10
-28.40306952339665
 20
-11.52551467201556
 30
0.0
 11
-28.40306952339665
 21
-7.025777957364198
 31
0.0
  0
LINE
  5
10F
330
2
100
AcDbEntity
  8
GAIKEI
 62
     1
100
AcDbLine
 10
-30.90314870700058
 20
-8.52564792309846
 30
0.0
 11
-33.40348152550201
 21
-8.52564792309846
 31
0.0
  0
LINE
  5
110
330
2
100
AcDbEntity
  8
GAIKEI
 62
     1
100
AcDbLine
 10
-30.90314870700058
 20
-11.52551467201556
 30
0.0
 11
-30.90314870700058
 21
-7.025777957364198
 31
0.0
  0
LINE
  5
111
330
2
100
AcDbEntity
  8
GAIKEI
 62
     1
100
AcDbLine
 10
-33.40348152550201
 20
-8.52564792309846
 30
0.0
 11
-35.9027998044138
 21
-8.52564792309846
 31
0.0
  0
LINE
  5
112
330
2
100
AcDbEntity
  8
GAIKEI
 62
     1
100
AcDbLine
 10
-33.40348152550201
 20
-11.52551467201556
 30
0.0
 11
-33.40348152550201
 21
-7.025777957364198
 31
0.0
  0
LINE
  5
113
330
2
100
AcDbEntity
  8
GAIKEI
 62
     1
100
AcDbLine
 10
-10.90327614286087
 20
-8.52564792309846
 30
0.0
 11
-13.40335532646486
 21
-8.52564792309846
 31
0.0
  0
LINE
  5
114
330
2
100
AcDbEntity
  8
GAIKEI
 62
     1
100
AcDbLine
 10
-35.9027998044138
 20
3.474199524916173
 30
0.0
 11
-33.40348152550201
 21
3.474199524916173
 31
0.0
  0
LINE
  5
115
330
2
100
AcDbEntity
  8
GAIKEI
 62
     1
100
AcDbLine
 10
-33.40348152550201
 20
3.474199524916173
 30
0.0
 11
-33.40348152550201
 21
6.474066273833329
 31
0.0
  0
LINE
  5
116
330
2
100
AcDbEntity
  8
GAIKEI
 62
     1
100
AcDbLine
 10
-33.40348152550201
 20
3.474199524916173
 30
0.0
 11
-30.90314870700058
 21
3.474199524916173
 31
0.0
  0
LINE
  5
117
330
2
100
AcDbEntity
  8
GAIKEI
 62
     1
100
AcDbLine
 10
-35.9027998044138
 20
-8.52564792309846
 30
0.0
 11
-35.9027998044138
 21
-7.025777957364198
 31
0.0
  0
LINE
  5
118
330
2
100
AcDbEntity
  8
GAIKEI
 62
     1
100
AcDbLine
 10
-35.9027998044138
 20
-7.025777957364198
 30
0.0
 11
-10.90327614286087
 21
-7.025777957364198
 31
0.0
  0
LINE
  5
119
330
2
100
AcDbEntity
  8
GAIKEI
 62
     1
100
AcDbLine
 10
-10.90327614286087
 20
-7.025777957364198
 30
0.0
 11
-10.90327614286087
 21
-8.52564792309846
 31
0.0
  0
LINE
  5
11A
330
2
100
AcDbEntity
  8
GAIKEI
 62
     1
100
AcDbLine
 10
-35.9027998044138
 20
7.973936239567535
 30
0.0
 11
-35.9027998044138
 21
9.474313475096494
 31
0.0
  0
LINE
  5
11B
330
2
100
AcDbEntity
  8
GAIKEI
 62
     1
100
AcDbLine
 10
-35.9027998044138
 20
9.474313475096494
 30
0.0
 11
-7.90328257649503
 21
9.474313475096494
 31
0.0
  0
LINE
  5
11C
330
2
100
AcDbEntity
  8
GAIKEI
 62
     1
100
AcDbLine
 10
-7.90328257649503
 20
9.474313475096494
 30
0.0
 11
-7.90328257649503
 21
5.974025073622783
 31
0.0
  0
LINE
  5
11D
330
2
100
AcDbEntity
  8
GAIKEI
 62
     1
100
AcDbLine
 10
-35.9027998044138
 20
-6.526370844397149
 30
0.0
 11
-10.15289729892333
 21
-6.526370844397149
 31
0.0
  0
LINE
  5
11E
330
2
100
AcDbEntity
  8
GAIKEI
 62
     1
100
AcDbLine
 10
-10.15289729892333
 20
-6.526370844397149
 30
0.0
 11
-10.15289729892333
 21
-0.0255816067627848
 31
0.0
  0
LINE
  5
11F
330
2
100
AcDbEntity
  8
GAIKEI
 62
     1
100
AcDbLine
 10
-10.15289729892333
 20
-0.0255816067627848
 30
0.0
 11
-35.9027998044138
 21
-0.0255816067627848
 31
0.0
  0
LINE
  5
120
330
2
100
AcDbEntity
  8
GAIKEI
 62
     1
100
AcDbLine
 10
-35.9027998044138
 20
-0.0255816067627848
 30
0.0
 11
-35.9027998044138
 21
-6.526370844397149
 31
0.0
  0
LINE
  5
121
330
2
100
AcDbEntity
  8
GAIKEI
 62
     1
100
AcDbLine
 10
-15.65309686634185
 20
-2.875930583666729
 30
0.0
 11
-14.703487810502
 21
-2.875930583666729
 31
0.0
  0
LINE
  5
122
330
2
100
AcDbEntity
  8
GAIKEI
 62
     1
100
AcDbLine
 10
-14.703487810502
 20
-2.875930583666729
 30
0.0
 11
-14.703487810502
 21
-4.875841749611424
 31
0.0
  0
LINE
  5
123
330
2
100
AcDbEntity
  8
GAIKEI
 62
     1
100
AcDbLine
 10
-14.703487810502
 20
-4.875841749611424
 30
0.0
 11
-15.65309686634185
 21
-4.875841749611424
 31
0.0
  0
LINE
  5
124
330
2
100
AcDbEntity
  8
GAIKEI
 62
     1
100
AcDbLine
 10
-15.65309686634185
 20
-4.875841749611424
 30
0.0
 11
-15.65309686634185
 21
-2.875930583666729
 31
0.0
  0
LINE
  5
125
330
2
100
AcDbEntity
  8
GAIKEI
 62
     1
100
AcDbLine
 10
-18.15342968484322
 20
-2.875930583666729
 30
0.0
 11
-17.2033133592086
 21
-2.875930583666729
 31
0.0
  0
LINE
  5
126
330
2
100
AcDbEntity
  8
GAIKEI
 62
     1
100
AcDbLine
 10
-17.2033133592086
 20
-2.875930583666729
 30
0.0
 11
-17.2033133592086
 21
-4.875841749611424
 31
0.0
  0
LINE
  5
127
330
2
100
AcDbEntity
  8
GAIKEI
 62
     1
100
AcDbLine
 10
-17.2033133592086
 20
-4.875841749611424
 30
0.0
 11
-18.15342968484322
 21
-4.875841749611424
 31
0.0
  0
LINE
  5
128
330
2
100
AcDbEntity
  8
GAIKEI
 62
     1
100
AcDbLine
 10
-18.15342968484322
 20
-4.875841749611424
 30
0.0
 11
-18.15342968484322
 21
-2.875930583666729
 31
0.0
  0
LINE
  5
129
330
2
100
AcDbEntity
  8
GAIKEI
 62
     1
100
AcDbLine
 10
-20.65325523354983
 20
-2.875930583666729
 30
0.0
 11
-19.70313890791522
 21
-2.875930583666729
 31
0.0
  0
LINE
  5
12A
330
2
100
AcDbEntity
  8
GAIKEI
 62
     1
100
AcDbLine
 10
-19.70313890791522
 20
-2.875930583666729
 30
0.0
 11
-19.70313890791522
 21
-4.875841749611424
 31
0.0
  0
LINE
  5
12B
330
2
100
AcDbEntity
  8
GAIKEI
 62
     1
100
AcDbLine
 10
-19.70313890791522
 20
-4.875841749611424
 30
0.0
 11
-20.65325523354983
 21
-4.875841749611424
 31
0.0
  0
LINE
  5
12C
330
2
100
AcDbEntity
  8
GAIKEI
 62
     1
100
AcDbLine
 10
-20.65325523354983
 20
-4.875841749611424
 30
0.0
 11
-20.65325523354983
 21
-2.875930583666729
 31
0.0
  0
LINE
  5
12D
330
2
100
AcDbEntity
  8
GAIKEI
 62
     1
100
AcDbLine
 10
-23.15308078225644
 20
-2.875930583666729
 30
0.0
 11
-22.20347172641658
 21
-2.875930583666729
 31
0.0
  0
LINE
  5
12E
330
2
100
AcDbEntity
  8
GAIKEI
 62
     1
100
AcDbLine
 10
-22.20347172641658
 20
-2.875930583666729
 30
0.0
 11
-22.20347172641658
 21
-4.875841749611424
 31
0.0
  0
LINE
  5
12F
330
2
100
AcDbEntity
  8
GAIKEI
 62
     1
100
AcDbLine
 10
-22.20347172641658
 20
-4.875841749611424
 30
0.0
 11
-23.15308078225644
 21
-4.875841749611424
 31
0.0
  0
LINE
  5
130
330
2
100
AcDbEntity
  8
GAIKEI
 62
     1
100
AcDbLine
 10
-23.15308078225644
 20
-4.875841749611424
 30
0.0
 11
-23.15308078225644
 21
-2.875930583666729
 31
0.0
  0
LINE
  5
131
330
2
100
AcDbEntity
  8
GAIKEI
 62
     1
100
AcDbLine
 10
-25.65341360075786
 20
-2.875930583666729
 30
0.0
 11
-24.70329727512319
 21
-2.875930583666729
 31
0.0
  0
LINE
  5
132
330
2
100
AcDbEntity
  8
GAIKEI
 62
     1
100
AcDbLine
 10
-24.70329727512319
 20
-2.875930583666729
 30
0.0
 11
-24.70329727512319
 21
-4.875841749611424
 31
0.0
  0
LINE
  5
133
330
2
100
AcDbEntity
  8
GAIKEI
 62
     1
100
AcDbLine
 10
-24.70329727512319
 20
-4.875841749611424
 30
0.0
 11
-25.65341360075786
 21
-4.875841749611424
 31
0.0
  0
LINE
  5
134
330
2
100
AcDbEntity
  8
GAIKEI
 62
     1
100
AcDbLine
 10
-25.65341360075786
 20
-4.875841749611424
 30
0.0
 11
-25.65341360075786
 21
-2.875930583666729
 31
0.0
  0
LINE
  5
135
330
2
100
AcDbEntity
  8
GAIKEI
 62
     1
100
AcDbLine
 10
-28.15323914946441
 20
-2.875930583666729
 30
0.0
 11
-27.20312282382975
 21
-2.875930583666729
 31
0.0
  0
LINE
  5
136
330
2
100
AcDbEntity
  8
GAIKEI
 62
     1
100
AcDbLine
 10
-27.20312282382975
 20
-2.875930583666729
 30
0.0
 11
-27.20312282382975
 21
-4.875841749611424
 31
0.0
  0
LINE
  5
137
330
2
100
AcDbEntity
  8
GAIKEI
 62
     1
100
AcDbLine
 10
-27.20312282382975
 20
-4.875841749611424
 30
0.0
 11
-28.15323914946441
 21
-4.875841749611424
 31
0.0
  0
LINE
  5
138
330
2
100
AcDbEntity
  8
GAIKEI
 62
     1
100
AcDbLine
 10
-28.15323914946441
 20
-4.875841749611424
 30
0.0
 11
-28.15323914946441
 21
-2.875930583666729
 31
0.0
  0
LINE
  5
139
330
2
100
AcDbEntity
  8
GAIKEI
 62
     1
100
AcDbLine
 10
-30.65306469817097
 20
-2.875930583666729
 30
0.0
 11
-29.70332882488242
 21
-2.875930583666729
 31
0.0
  0
LINE
  5
13A
330
2
100
AcDbEntity
  8
GAIKEI
 62
     1
100
AcDbLine
 10
-29.70332882488242
 20
-2.875930583666729
 30
0.0
 11
-29.70332882488242
 21
-4.875841749611424
 31
0.0
  0
LINE
  5
13B
330
2
100
AcDbEntity
  8
GAIKEI
 62
     1
100
AcDbLine
 10
-29.70332882488242
 20
-4.875841749611424
 30
0.0
 11
-30.65306469817097
 21
-4.875841749611424
 31
0.0
  0
LINE
  5
13C
330
2
100
AcDbEntity
  8
GAIKEI
 62
     1
100
AcDbLine
 10
-30.65306469817097
 20
-4.875841749611424
 30
0.0
 11
-30.65306469817097
 21
-2.875930583666729
 31
0.0
  0
LINE
  5
13D
330
2
100
AcDbEntity
  8
GAIKEI
 62
     1
100
AcDbLine
 10
-35.65347670027632
 20
-2.875930583666729
 30
0.0
 11
-34.70297992229564
 21
-2.875930583666729
 31
0.0
  0
LINE
  5
13E
330
2
100
AcDbEntity
  8
GAIKEI
 62
     1
100
AcDbLine
 10
-34.70297992229564
 20
-2.875930583666729
 30
0.0
 11
-34.70297992229564
 21
-4.875841749611424
 31
0.0
  0
LINE
  5
13F
330
2
100
AcDbEntity
  8
GAIKEI
 62
     1
100
AcDbLine
 10
-34.70297992229564
 20
-4.875841749611424
 30
0.0
 11
-35.65347670027632
 21
-4.875841749611424
 31
0.0
  0
LINE
  5
140
330
2
100
AcDbEntity
  8
GAIKEI
 62
     1
100
AcDbLine
 10
-35.65347670027632
 20
-4.875841749611424
 30
0.0
 11
-35.65347670027632
 21
-2.875930583666729
 31
0.0
  0
LINE
  5
141
330
2
100
AcDbEntity
  8
GAIKEI
 62
     1
100
AcDbLine
 10
-33.15314388177501
 20
-2.875930583666729
 30
0.0
 11
-32.20315437358909
 21
-2.875930583666729
 31
0.0
  0
LINE
  5
142
330
2
100
AcDbEntity
  8
GAIKEI
 62
     1
100
AcDbLine
 10
-32.20315437358909
 20
-2.875930583666729
 30
0.0
 11
-32.20315437358909
 21
-4.875841749611424
 31
0.0
  0
LINE
  5
143
330
2
100
AcDbEntity
  8
GAIKEI
 62
     1
100
AcDbLine
 10
-32.20315437358909
 20
-4.875841749611424
 30
0.0
 11
-33.15314388177501
 21
-4.875841749611424
 31
0.0
  0
LINE
  5
144
330
2
100
AcDbEntity
  8
GAIKEI
 62
     1
100
AcDbLine
 10
-33.15314388177501
 20
-4.875841749611424
 30
0.0
 11
-33.15314388177501
 21
-2.875930583666729
 31
0.0
  0
LINE
  5
145
330
2
100
AcDbEntity
  8
GAIKEI
 62
     1
100
AcDbLine
 10
-10.90327614286087
 20
-8.52564792309846
 30
0.0
 11
-10.90327614286087
 21
-11.52551467201556
 31
0.0
  0
LINE
  5
146
330
2
100
AcDbEntity
  8
GAIKEI
 62
     1
100
AcDbLine
 10
-10.90327614286087
 20
-11.52551467201556
 30
0.0
 11
-35.9027998044138
 21
-11.52551467201556
 31
0.0
  0
LINE
  5
147
330
2
100
AcDbEntity
  8
GAIKEI
 62
     1
100
AcDbLine
 10
-35.9027998044138
 20
-11.52551467201556
 30
0.0
 11
-35.9027998044138
 21
-8.52564792309846
 31
0.0
  0
LINE
  5
148
330
2
100
AcDbEntity
  8
GAIKEI
 62
     1
100
AcDbLine
 10
-7.90328257649503
 20
5.974025073622783
 30
0.0
 11
-7.90328257649503
 21
0.9743739762096197
 31
0.0
  0
LINE
  5
149
330
2
100
AcDbEntity
  8
GAIKEI
 62
     1
100
AcDbLine
 10
-7.90328257649503
 20
0.9743739762096197
 30
0.0
 11
-35.9027998044138
 21
0.9743739762096197
 31
0.0
  0
LINE
  5
14A
330
2
100
AcDbEntity
  8
GAIKEI
 62
     1
100
AcDbLine
 10
-35.9027998044138
 20
0.9743739762096197
 30
0.0
 11
-35.9027998044138
 21
7.973936239567535
 31
0.0
  0
LINE
  5
14B
330
2
100
AcDbEntity
  8
GAIKEI
 62
     1
100
AcDbLine
 10
-14.60330202603171
 20
15.32402193112278
 30
0.0
 11
-13.65343933529448
 21
15.32402193112278
 31
0.0
  0
LINE
  5
14C
330
2
100
AcDbEntity
  8
GAIKEI
 62
     1
100
AcDbLine
 10
-13.65343933529448
 20
15.32402193112278
 30
0.0
 11
-13.65343933529448
 21
13.3244912175241
 31
0.0
  0
LINE
  5
14D
330
2
100
AcDbEntity
  8
GAIKEI
 62
     1
100
AcDbLine
 10
-13.65343933529448
 20
13.3244912175241
 30
0.0
 11
-14.60330202603171
 21
13.3244912175241
 31
0.0
  0
LINE
  5
14E
330
2
100
AcDbEntity
  8
GAIKEI
 62
     1
100
AcDbLine
 10
-14.60330202603171
 20
13.3244912175241
 30
0.0
 11
-14.60330202603171
 21
15.32402193112278
 31
0.0
  0
LINE
  5
14F
330
2
100
AcDbEntity
  8
GAIKEI
 62
     1
100
AcDbLine
 10
-12.1034764773251
 20
15.32402193112278
 30
0.0
 11
-11.15336015169049
 21
15.32402193112278
 31
0.0
  0
LINE
  5
150
330
2
100
AcDbEntity
  8
GAIKEI
 62
     1
100
AcDbLine
 10
-11.15336015169049
 20
15.32402193112278
 30
0.0
 11
-11.15336015169049
 21
13.3244912175241
 31
0.0
  0
LINE
  5
151
330
2
100
AcDbEntity
  8
GAIKEI
 62
     1
100
AcDbLine
 10
-11.15336015169049
 20
13.3244912175241
 30
0.0
 11
-12.1034764773251
 21
13.3244912175241
 31
0.0
  0
LINE
  5
152
330
2
100
AcDbEntity
  8
GAIKEI
 62
     1
100
AcDbLine
 10
-12.1034764773251
 20
13.3244912175241
 30
0.0
 11
-12.1034764773251
 21
15.32402193112278
 31
0.0
  0
LINE
  5
153
330
2
100
AcDbEntity
  8
GAIKEI
 62
     1
100
AcDbLine
 10
-36.65292501345397
 20
10.47376178827414
 30
0.0
 11
-10.90327614286087
 21
10.47376178827414
 31
0.0
  0
LINE
  5
154
330
2
100
AcDbEntity
  8
GAIKEI
 62
     1
100
AcDbLine
 10
-10.90327614286087
 20
10.47376178827414
 30
0.0
 11
-10.90327614286087
 21
16.97379012121632
 31
0.0
  0
LINE
  5
155
330
2
100
AcDbEntity
  8
GAIKEI
 62
     1
100
AcDbLine
 10
-10.90327614286087
 20
16.97379012121632
 30
0.0
 11
-36.65292501345397
 21
16.97379012121632
 31
0.0
  0
LINE
  5
156
330
2
100
AcDbEntity
  8
GAIKEI
 62
     1
100
AcDbLine
 10
-36.65292501345397
 20
16.97379012121632
 30
0.0
 11
-36.65292501345397
 21
10.47376178827414
 31
0.0
  0
LINE
  5
157
330
2
100
AcDbEntity
  8
GAIKEI
 62
     1
100
AcDbLine
 10
-17.10312757473832
 20
15.32402193112278
 30
0.0
 11
-16.15326488400109
 21
15.32402193112278
 31
0.0
  0
LINE
  5
158
330
2
100
AcDbEntity
  8
GAIKEI
 62
     1
100
AcDbLine
 10
-16.15326488400109
 20
15.32402193112278
 30
0.0
 11
-16.15326488400109
 21
13.3244912175241
 31
0.0
  0
LINE
  5
159
330
2
100
AcDbEntity
  8
GAIKEI
 62
     1
100
AcDbLine
 10
-16.15326488400109
 20
13.3244912175241
 30
0.0
 11
-17.10312757473832
 21
13.3244912175241
 31
0.0
  0
LINE
  5
15A
330
2
100
AcDbEntity
  8
GAIKEI
 62
     1
100
AcDbLine
 10
-17.10312757473832
 20
13.3244912175241
 30
0.0
 11
-17.10312757473832
 21
15.32402193112278
 31
0.0
  0
LINE
  5
15B
330
2
100
AcDbEntity
  8
GAIKEI
 62
     1
100
AcDbLine
 10
-19.60320675834231
 20
15.32402193112278
 30
0.0
 11
-18.65334406760507
 21
15.32402193112278
 31
0.0
  0
LINE
  5
15C
330
2
100
AcDbEntity
  8
GAIKEI
 62
     1
100
AcDbLine
 10
-18.65334406760507
 20
15.32402193112278
 30
0.0
 11
-18.65334406760507
 21
13.3244912175241
 31
0.0
  0
LINE
  5
15D
330
2
100
AcDbEntity
  8
GAIKEI
 62
     1
100
AcDbLine
 10
-18.65334406760507
 20
13.3244912175241
 30
0.0
 11
-19.60320675834231
 21
13.3244912175241
 31
0.0
  0
LINE
  5
15E
330
2
100
AcDbEntity
  8
GAIKEI
 62
     1
100
AcDbLine
 10
-19.60320675834231
 20
13.3244912175241
 30
0.0
 11
-19.60320675834231
 21
15.32402193112278
 31
0.0
  0
LINE
  5
15F
330
2
100
AcDbEntity
  8
GAIKEI
 62
     1
100
AcDbLine
 10
-22.10303230704892
 20
15.32402193112278
 30
0.0
 11
-21.15342325120906
 21
15.32402193112278
 31
0.0
  0
LINE
  5
160
330
2
100
AcDbEntity
  8
GAIKEI
 62
     1
100
AcDbLine
 10
-21.15342325120906
 20
15.32402193112278
 30
0.0
 11
-21.15342325120906
 21
13.3244912175241
 31
0.0
  0
LINE
  5
161
330
2
100
AcDbEntity
  8
GAIKEI
 62
     1
100
AcDbLine
 10
-21.15342325120906
 20
13.3244912175241
 30
0.0
 11
-22.10303230704892
 21
13.3244912175241
 31
0.0
  0
LINE
  5
162
330
2
100
AcDbEntity
  8
GAIKEI
 62
     1
100
AcDbLine
 10
-22.10303230704892
 20
13.3244912175241
 30
0.0
 11
-22.10303230704892
 21
15.32402193112278
 31
0.0
  0
LINE
  5
163
330
2
100
AcDbEntity
  8
GAIKEI
 62
     1
100
AcDbLine
 10
-24.60336512555034
 20
15.32402193112278
 30
0.0
 11
-23.65324879991567
 21
15.32402193112278
 31
0.0
  0
LINE
  5
164
330
2
100
AcDbEntity
  8
GAIKEI
 62
     1
100
AcDbLine
 10
-23.65324879991567
 20
15.32402193112278
 30
0.0
 11
-23.65324879991567
 21
13.3244912175241
 31
0.0
  0
LINE
  5
165
330
2
100
AcDbEntity
  8
GAIKEI
 62
     1
100
AcDbLine
 10
-23.65324879991567
 20
13.3244912175241
 30
0.0
 11
-24.60336512555034
 21
13.3244912175241
 31
0.0
  0
LINE
  5
166
330
2
100
AcDbEntity
  8
GAIKEI
 62
     1
100
AcDbLine
 10
-24.60336512555034
 20
13.3244912175241
 30
0.0
 11
-24.60336512555034
 21
15.32402193112278
 31
0.0
  0
LINE
  5
167
330
2
100
AcDbEntity
  8
GAIKEI
 62
     1
100
AcDbLine
 10
-27.1031906742569
 20
15.32402193112278
 30
0.0
 11
-26.15332798351966
 21
15.32402193112278
 31
0.0
  0
LINE
  5
168
330
2
100
AcDbEntity
  8
GAIKEI
 62
     1
100
AcDbLine
 10
-26.15332798351966
 20
15.32402193112278
 30
0.0
 11
-26.15332798351966
 21
13.3244912175241
 31
0.0
  0
LINE
  5
169
330
2
100
AcDbEntity
  8
GAIKEI
 62
     1
100
AcDbLine
 10
-26.15332798351966
 20
13.3244912175241
 30
0.0
 11
-27.1031906742569
 21
13.3244912175241
 31
0.0
  0
LINE
  5
16A
330
2
100
AcDbEntity
  8
GAIKEI
 62
     1
100
AcDbLine
 10
-27.1031906742569
 20
13.3244912175241
 30
0.0
 11
-27.1031906742569
 21
15.32402193112278
 31
0.0
  0
LINE
  5
16B
330
2
100
AcDbEntity
  8
GAIKEI
 62
     1
100
AcDbLine
 10
-29.60301622296345
 20
15.32402193112278
 30
0.0
 11
-28.65315353222627
 21
15.32402193112278
 31
0.0
  0
LINE
  5
16C
330
2
100
AcDbEntity
  8
GAIKEI
 62
     1
100
AcDbLine
 10
-28.65315353222627
 20
15.32402193112278
 30
0.0
 11
-28.65315353222627
 21
13.3244912175241
 31
0.0
  0
LINE
  5
16D
330
2
100
AcDbEntity
  8
GAIKEI
 62
     1
100
AcDbLine
 10
-28.65315353222627
 20
13.3244912175241
 30
0.0
 11
-29.60301622296345
 21
13.3244912175241
 31
0.0
  0
LINE
  5
16E
330
2
100
AcDbEntity
  8
GAIKEI
 62
     1
100
AcDbLine
 10
-29.60301622296345
 20
13.3244912175241
 30
0.0
 11
-29.60301622296345
 21
15.32402193112278
 31
0.0
  0
LINE
  5
16F
330
2
100
AcDbEntity
  8
GAIKEI
 62
     1
100
AcDbLine
 10
-32.10334904146487
 20
15.32402193112278
 30
0.0
 11
-31.15361316817632
 21
15.32402193112278
 31
0.0
  0
LINE
  5
170
330
2
100
AcDbEntity
  8
GAIKEI
 62
     1
100
AcDbLine
 10
-31.15361316817632
 20
15.32402193112278
 30
0.0
 11
-31.15361316817632
 21
13.3244912175241
 31
0.0
  0
LINE
  5
171
330
2
100
AcDbEntity
  8
GAIKEI
 62
     1
100
AcDbLine
 10
-31.15361316817632
 20
13.3244912175241
 30
0.0
 11
-32.10334904146487
 21
13.3244912175241
 31
0.0
  0
LINE
  5
172
330
2
100
AcDbEntity
  8
GAIKEI
 62
     1
100
AcDbLine
 10
-32.10334904146487
 20
13.3244912175241
 30
0.0
 11
-32.10334904146487
 21
15.32402193112278
 31
0.0
  0
LINE
  5
173
330
2
100
AcDbEntity
  8
GAIKEI
 62
     1
100
AcDbLine
 10
-34.60317459017142
 20
15.32402193112278
 30
0.0
 11
-33.65305826453687
 21
15.32402193112278
 31
0.0
  0
LINE
  5
174
330
2
100
AcDbEntity
  8
GAIKEI
 62
     1
100
AcDbLine
 10
-33.65305826453687
 20
15.32402193112278
 30
0.0
 11
-33.65305826453687
 21
13.3244912175241
 31
0.0
  0
LINE
  5
175
330
2
100
AcDbEntity
  8
GAIKEI
 62
     1
100
AcDbLine
 10
-33.65305826453687
 20
13.3244912175241
 30
0.0
 11
-34.60317459017142
 21
13.3244912175241
 31
0.0
  0
LINE
  5
176
330
2
100
AcDbEntity
  8
GAIKEI
 62
     1
100
AcDbLine
 10
-34.60317459017142
 20
13.3244912175241
 30
0.0
 11
-34.60317459017142
 21
15.32402193112278
 31
0.0
  0
LINE
  5
177
330
2
100
AcDbEntity
  8
GAIKEI
 62
     1
100
AcDbLine
 10
-13.15301768273787
 20
-2.875930583666729
 30
0.0
 11
-12.20340862689801
 21
-2.875930583666729
 31
0.0
  0
LINE
  5
178
330
2
100
AcDbEntity
  8
GAIKEI
 62
     1
100
AcDbLine
 10
-12.20340862689801
 20
-2.875930583666729
 30
0.0
 11
-12.20340862689801
 21
-4.875841749611424
 31
0.0
  0
LINE
  5
179
330
2
100
AcDbEntity
  8
GAIKEI
 62
     1
100
AcDbLine
 10
-12.20340862689801
 20
-4.875841749611424
 30
0.0
 11
-13.15301768273787
 21
-4.875841749611424
 31
0.0
  0
LINE
  5
17A
330
2
100
AcDbEntity
  8
GAIKEI
 62
     1
100
AcDbLine
 10
-13.15301768273787
 20
-4.875841749611424
 30
0.0
 11
-13.15301768273787
 21
-2.875930583666729
 31
0.0
  0
TEXT
  5
17B
330
2
100
AcDbEntity
  8
MOJI1
100
AcDbText
 10
-64.08634346933104
 20
-55.15799756164739
 30
0.0
 40
3.0
  1
入　力
  7
KANJI
100
AcDbText
  0
TEXT
  5
17D
330
2
100
AcDbEntity
  8
MOJI1
100
AcDbText
 10
-24.15572909235834
 20
-50.22683060714692
 30
0.0
 40
3.0
  1
認証結果出力２（認証ＮＧ）
  7
KANJI
100
AcDbText
  0
TEXT
  5
17E
330
2
100
AcDbEntity
  8
MOJI1
100
AcDbText
 10
-24.15572909235834
 20
-45.22683060714692
 30
0.0
 40
3.0
  1
アラーム出力２（電源切断）
  7
KANJI
100
AcDbText
  0
TEXT
  5
17F
330
2
100
AcDbEntity
  8
MOJI1
100
AcDbText
 10
-24.15572909235834
 20
-55.22683060714692
 30
0.0
 40
3.0
  1
ブザー入力、時刻同期入力
  7
KANJI
100
AcDbText
  0
TEXT
  5
180
330
2
100
AcDbEntity
  8
MOJI1
100
AcDbText
 10
-64.08634346933104
 20
-40.15799756164736
 30
0.0
 40
3.0
  1
出　力
  7
KANJI
100
AcDbText
  0
TEXT
  5
181
330
2
100
AcDbEntity
  8
MOJI1
100
AcDbText
 10
-24.15572909235834
 20
-40.22683060714692
 30
0.0
 40
3.0
  1
アラーム出力１（改ざん検出）
  7
KANJI
100
AcDbText
  0
TEXT
  5
182
330
2
100
AcDbEntity
  8
MOJI1
100
AcDbText
 10
-64.08634346933104
 20
-35.15799756164736
 30
0.0
 40
3.0
  1
ドアボックス用Ｉ／Ｆ
  7
KANJI
100
AcDbText
  0
TEXT
  5
183
330
2
100
AcDbEntity
  8
MOJI1
100
AcDbText
 10
-24.15572909235834
 20
-35.22683060714693
 30
0.0
 40
3.0
  1
ＷｉｅｇａｎｄまたはＲＳ－４８５のいずれか
  7
KANJI
100
AcDbText
  0
TEXT
  5
184
330
2
100
AcDbEntity
  8
MOJI1
100
AcDbText
 10
-64.08634346933104
 20
-30.15799756164736
 30
0.0
 40
3.0
  1
カードリーダ用Ｉ／Ｆ
  7
KANJI
100
AcDbText
  0
TEXT
  5
185
330
2
100
AcDbEntity
  8
MOJI1
100
AcDbText
 10
-24.15572909235834
 20
-30.22683060714693
 30
0.0
 40
3.0
  1
ＷｉｅｇａｎｄまたはＲＳ－４８５のいずれか
  7
KANJI
100
AcDbText
  0
LINE
  5
186
330
2
100
AcDbEntity
  8
WAKU
 62
     4
100
AcDbLine
 10
-27.79192469984895
 20
-61.2831165127626
 30
0.0
 11
-27.79192469984895
 21
-26.2831165127626
 31
0.0
  0
LINE
  5
188
330
2
100
AcDbEntity
  8
WAKU
 62
     4
100
AcDbLine
 10
58.20807530015105
 20
-61.2831165127626
 30
0.0
 11
58.20807530015105
 21
-26.2831165127626
 31
0.0
  0
LINE
  5
189
330
2
100
AcDbEntity
  8
WAKU
 62
     4
100
AcDbLine
 10
-66.79192469984895
 20
-26.2831165127626
 30
0.0
 11
-66.79192469984895
 21
-61.2831165127626
 31
0.0
  0
LINE
  5
18A
330
2
100
AcDbEntity
  8
WAKU
 62
     4
100
AcDbLine
 10
-66.79192469984895
 20
-61.2831165127626
 30
0.0
 11
58.20807530015105
 21
-61.2831165127626
 31
0.0
  0
LINE
  5
18B
330
2
100
AcDbEntity
  8
WAKU
 62
     4
100
AcDbLine
 10
58.20807530015105
 20
-26.2831165127626
 30
0.0
 11
-66.79192469984895
 21
-26.2831165127626
 31
0.0
  0
LINE
  5
18C
330
2
100
AcDbEntity
  8
WAKU
 62
     1
100
AcDbLine
 10
-66.79192469984895
 20
-56.2831165127626
 30
0.0
 11
58.20807530015105
 21
-56.2831165127626
 31
0.0
  0
LINE
  5
18D
330
2
100
AcDbEntity
  8
WAKU
 62
     1
100
AcDbLine
 10
-66.79192469984895
 20
-51.2831165127626
 30
0.0
 11
58.20807530015105
 21
-51.2831165127626
 31
0.0
  0
LINE
  5
18E
330
2
100
AcDbEntity
  8
WAKU
 62
     1
100
AcDbLine
 10
-66.79192469984895
 20
-46.2831165127626
 30
0.0
 11
58.20807530015105
 21
-46.2831165127626
 31
0.0
  0
LINE
  5
18F
330
2
100
AcDbEntity
  8
WAKU
 62
     1
100
AcDbLine
 10
-66.79192469984895
 20
-41.2831165127626
 30
0.0
 11
58.20807530015105
 21
-41.2831165127626
 31
0.0
  0
LINE
  5
190
330
2
100
AcDbEntity
  8
WAKU
 62
     1
100
AcDbLine
 10
-66.79192469984895
 20
-36.2831165127626
 30
0.0
 11
58.20807530015105
 21
-36.2831165127626
 31
0.0
  0
LINE
  5
191
330
2
100
AcDbEntity
  8
WAKU
 62
     1
100
AcDbLine
 10
-66.79192469984895
 20
-31.2831165127626
 30
0.0
 11
58.20807530015105
 21
-31.2831165127626
 31
0.0
  0
ENDSEC
  0
SECTION
  2
OBJECTS
  0
DICTIONARY
  5
9
330
0
100
AcDbDictionary
281
     1
  3
ACAD_COLOR
350
29
  3
ACAD_GROUP
350
25
  3
ACAD_LAYOUT
350
D
  3
ACAD_MATERIAL
350
28
  3
ACAD_MLINESTYLE
350
26
  3
ACAD_PLOTSETTINGS
350
27
  3
ACAD_PLOTSTYLENAME
350
8
  3
ACDBHEADERROUNDTRIPXREC
350
1CE
  3
AcDbVariableDictionary
350
1C9
  0
DICTIONARY
  5
15
330
14
100
AcDbDictionary
280
     1
281
     1
  3
ACAD_LAYERFILTERS
360
16
  0
DICTIONARY
  5
3
330
2
100
AcDbDictionary
280
     1
281
     1
  3
ACAD_LAYOUTSELFREF
360
4
  0
DICTIONARY
  5
F
330
E
100
AcDbDictionary
280
     1
281
     1
  3
ACAD_LAYOUTSELFREF
360
10
  0
DICTIONARY
  5
29
102
{ACAD_REACTORS
330
9
102
}
330
9
100
AcDbDictionary
281
     1
  0
DICTIONARY
  5
25
102
{ACAD_REACTORS
330
9
102
}
330
9
100
AcDbDictionary
281
     1
  0
DICTIONARY
  5
D
102
{ACAD_REACTORS
330
9
102
}
330
9
100
AcDbDictionary
281
     1
  3
Model
350
C
  3
ﾚｲｱｳﾄ1
350
13
  0
DICTIONARY
  5
28
102
{ACAD_REACTORS
330
9
102
}
330
9
100
AcDbDictionary
281
     1
  0
DICTIONARY
  5
26
102
{ACAD_REACTORS
330
9
102
}
330
9
100
AcDbDictionary
281
     1
  3
STANDARD
350
31
  0
DICTIONARY
  5
27
102
{ACAD_REACTORS
330
9
102
}
330
9
100
AcDbDictionary
281
     1
  0
ACDBDICTIONARYWDFLT
  5
8
102
{ACAD_REACTORS
330
9
102
}
330
9
100
AcDbDictionary
281
     1
  3
Normal
350
7
100
AcDbDictionaryWithDefault
340
7
  0
DICTIONARY
  5
1CE
102
{ACAD_REACTORS
330
9
102
}
330
9
100
AcDbDictionary
281
     1
  3
COLORDICT
350
1D0
  3
MATERIALDICT
350
1CF
  0
DICTIONARY
  5
1C9
102
{ACAD_REACTORS
330
9
102
}
330
9
100
AcDbDictionary
281
     1
  3
DIMASSOC
350
1CB
  3
HIDETEXT
350
1CA
  3
PROJECTNAME
350
1CC
  0
DICTIONARY
  5
16
102
{ACAD_REACTORS
330
15
102
}
330
15
100
AcDbDictionary
280
     1
281
     1
  0
XRECORD
  5
4
102
{ACAD_REACTORS
330
3
102
}
330
3
100
AcDbXrecord
280
     1
340
2
  0
XRECORD
  5
10
102
{ACAD_REACTORS
330
F
102
}
330
F
100
AcDbXrecord
280
     1
340
E
  0
LAYOUT
  5
C
102
{ACAD_XDICTIONARY
360
1D1
102
}
102
{ACAD_REACTORS
330
D
102
}
330
D
100
AcDbPlotSettings
  1

  2
8FPAM09-A4.pc3
  4
A4
  6

 40
4.349750041961669
 41
4.222751140594482
 42
4.3497314453125
 43
4.180419921875
 44
297.0106506347656
 45
210.0156707763672
 46
0.0
 47
6.07
 48
0.0
 49
0.0
140
0.0
141
0.0
142
1.0
143
1.367666569319127
 70
 11956
 72
     1
 73
     1
 74
     1
  7
tmsacad.ctb
 75
     0
147
0.7311723649850091
148
0.5839988471539073
149
0.0092863522804691
100
AcDbLayout
  1
Model
 70
     1
 71
     0
 10
0.0
 20
0.0
 11
12.0
 21
9.0
 12
0.0
 22
0.0
 32
0.0
 14
0.0
 24
0.0
 34
0.0
 15
0.0
 25
0.0
 35
0.0
146
0.0
 13
0.0
 23
0.0
 33
0.0
 16
1.0
 26
0.0
 36
0.0
 17
0.0
 27
1.0
 37
0.0
 76
     0
330
2
  0
LAYOUT
  5
13
102
{ACAD_XDICTIONARY
360
1D3
102
}
102
{ACAD_REACTORS
330
D
102
}
330
D
100
AcDbPlotSettings
  1

  2
C:\Program Files\ACAD2000\plotters\DWF ePlot.pc3
  4

  6

 40
0.0
 41
0.0
 42
0.0
 43
0.0
 44
0.0
 45
0.0
 46
0.0
 47
0.0
 48
0.0
 49
0.0
140
0.0
141
0.0
142
1.0
143
1.0
 70
   688
 72
     0
 73
     0
 74
     5
  7
tmsacad.ctb
 75
    16
147
1.0
148
0.0
149
0.0
100
AcDbLayout
  1
ﾚｲｱｳﾄ1
 70
     1
 71
     1
 10
0.0
 20
0.0
 11
12.0
 21
9.0
 12
0.0
 22
0.0
 32
0.0
 14
1.000000000000000E+20
 24
1.000000000000000E+20
 34
1.000000000000000E+20
 15
-1.000000000000000E+20
 25
-1.000000000000000E+20
 35
-1.000000000000000E+20
146
0.0
 13
0.0
 23
0.0
 33
0.0
 16
1.0
 26
0.0
 36
0.0
 17
0.0
 27
1.0
 37
0.0
 76
     0
330
E
  0
MLINESTYLE
  5
31
102
{ACAD_REACTORS
330
26
102
}
330
26
100
AcDbMlineStyle
  2
STANDARD
 70
     0
  3

 62
   256
 51
90.0
 52
90.0
 71
     2
 49
0.5
 62
   256
  6
BYLAYER
 49
-0.5
 62
   256
  6
BYLAYER
  0
ACDBPLACEHOLDER
  5
7
102
{ACAD_REACTORS
330
8
102
}
330
8
  0
XRECORD
  5
1D0
102
{ACAD_REACTORS
330
1CE
102
}
330
1CE
100
AcDbXrecord
280
     1
340
29
  0
XRECORD
  5
1CF
102
{ACAD_REACTORS
330
1CE
102
}
330
1CE
100
AcDbXrecord
280
     1
340
28
  0
DICTIONARYVAR
  5
1CB
102
{ACAD_REACTORS
330
1C9
102
}
330
1C9
100
DictionaryVariables
280
     0
  1
1
  0
DICTIONARYVAR
  5
1CA
102
{ACAD_REACTORS
330
1C9
102
}
330
1C9
100
DictionaryVariables
280
     0
  1
1
  0
DICTIONARYVAR
  5
1CC
102
{ACAD_REACTORS
330
1C9
102
}
330
1C9
100
DictionaryVariables
280
     0
  1

  0
DICTIONARY
  5
1D1
330
C
100
AcDbDictionary
280
     1
281
     1
  3
ACAD_XREC_ROUNDTRIP
360
1D2
  0
DICTIONARY
  5
1D3
330
13
100
AcDbDictionary
280
     1
281
     1
  3
ACAD_XREC_ROUNDTRIP
360
1D4
  0
XRECORD
  5
1D2
102
{ACAD_REACTORS
330
1D1
102
}
330
1D1
100
AcDbXrecord
280
     1
102
SHADEPLOT
 70
     0
102
SHADEPLOTRESLEVEL
 70
     2
102
SHADEPLOTCUSTOMDPI
 70
   300
  0
XRECORD
  5
1D4
102
{ACAD_REACTORS
330
1D3
102
}
330
1D3
100
AcDbXrecord
280
     1
102
SHADEPLOT
 70
     0
102
SHADEPLOTRESLEVEL
 70
     2
102
SHADEPLOTCUSTOMDPI
 70
   300
  0
ENDSEC
  0
EOF
