  0
SECTION
  2
HEADER
  9
$ACADVER
  1
AC1015
  9
$ACADMAINTVER
 70
    20
  9
$DWGCODEPAGE
  3
ANSI_932
  9
$INSBASE
 10
0.4999999440410648
 20
246.5008351249344
 30
0.0
  9
$EXTMIN
 10
-60.25451569381925
 20
-53.59831174881936
 30
-0.0015258207003583
  9
$EXTMAX
 10
64.77905329873215
 20
59.42628520497385
 30
0.0000000349246037
  9
$LIMMIN
 10
0.0
 20
0.0
  9
$LIMMAX
 10
420.0
 20
297.0
  9
$ORTHOMODE
 70
     0
  9
$REGENMODE
 70
     0
  9
$FILLMODE
 70
     1
  9
$QTEXTMODE
 70
     0
  9
$MIRRTEXT
 70
     0
  9
$LTSCALE
 40
1.0
  9
$ATTMODE
 70
     1
  9
$TEXTSIZE
 40
2.5
  9
$TRACEWID
 40
1.0
  9
$TEXTSTYLE
  7
Standard
  9
$CLAYER
  8
GAIKEI
  9
$CELTYPE
  6
ByLayer
  9
$CECOLOR
 62
   256
  9
$CELTSCALE
 40
1.0
  9
$DISPSILH
 70
     0
  9
$DIMSCALE
 40
1.0
  9
$DIMASZ
 40
2.5
  9
$DIMEXO
 40
0.625
  9
$DIMDLI
 40
3.75
  9
$DIMRND
 40
0.0
  9
$DIMDLE
 40
0.0
  9
$DIMEXE
 40
1.25
  9
$DIMTP
 40
0.0
  9
$DIMTM
 40
0.0
  9
$DIMTXT
 40
2.5
  9
$DIMCEN
 40
2.5
  9
$DIMTSZ
 40
0.0
  9
$DIMTOL
 70
     0
  9
$DIMLIM
 70
     0
  9
$DIMTIH
 70
     0
  9
$DIMTOH
 70
     0
  9
$DIMSE1
 70
     0
  9
$DIMSE2
 70
     0
  9
$DIMTAD
 70
     1
  9
$DIMZIN
 70
     8
  9
$DIMBLK
  1

  9
$DIMASO
 70
     1
  9
$DIMSHO
 70
     1
  9
$DIMPOST
  1

  9
$DIMAPOST
  1

  9
$DIMALT
 70
     0
  9
$DIMALTD
 70
     3
  9
$DIMALTF
 40
0.03937007874016
  9
$DIMLFAC
 40
1.0
  9
$DIMTOFL
 70
     1
  9
$DIMTVP
 40
0.0
  9
$DIMTIX
 70
     0
  9
$DIMSOXD
 70
     0
  9
$DIMSAH
 70
     0
  9
$DIMBLK1
  1

  9
$DIMBLK2
  1

  9
$DIMSTYLE
  2
ISO-25
  9
$DIMCLRD
 70
     0
  9
$DIMCLRE
 70
     0
  9
$DIMCLRT
 70
     0
  9
$DIMTFAC
 40
1.0
  9
$DIMGAP
 40
0.625
  9
$DIMJUST
 70
     0
  9
$DIMSD1
 70
     0
  9
$DIMSD2
 70
     0
  9
$DIMTOLJ
 70
     0
  9
$DIMTZIN
 70
     8
  9
$DIMALTZ
 70
     0
  9
$DIMALTTZ
 70
     0
  9
$DIMUPT
 70
     0
  9
$DIMDEC
 70
     2
  9
$DIMTDEC
 70
     2
  9
$DIMALTU
 70
     2
  9
$DIMALTTD
 70
     3
  9
$DIMTXSTY
  7
Standard
  9
$DIMAUNIT
 70
     0
  9
$DIMADEC
 70
     0
  9
$DIMALTRND
 40
0.0
  9
$DIMAZIN
 70
     0
  9
$DIMDSEP
 70
    44
  9
$DIMATFIT
 70
     3
  9
$DIMFRAC
 70
     0
  9
$DIMLDRBLK
  1

  9
$DIMLUNIT
 70
     2
  9
$DIMLWD
 70
    -2
  9
$DIMLWE
 70
    -2
  9
$DIMTMOVE
 70
     0
  9
$LUNITS
 70
     2
  9
$LUPREC
 70
     4
  9
$SKETCHINC
 40
1.0
  9
$FILLETRAD
 40
0.0
  9
$AUNITS
 70
     0
  9
$AUPREC
 70
     0
  9
$MENU
  1
.
  9
$ELEVATION
 40
0.0
  9
$PELEVATION
 40
0.0
  9
$THICKNESS
 40
0.0
  9
$LIMCHECK
 70
     0
  9
$CHAMFERA
 40
0.0
  9
$CHAMFERB
 40
0.0
  9
$CHAMFERC
 40
0.0
  9
$CHAMFERD
 40
0.0
  9
$SKPOLY
 70
     0
  9
$TDCREATE
 40
2454349.434269746
  9
$TDUCREATE
 40
2454349.059269746
  9
$TDUPDATE
 40
2455021.692369943
  9
$TDUUPDATE
 40
2455021.317369942
  9
$TDINDWG
 40
0.0077248843
  9
$TDUSRTIMER
 40
0.0077248843
  9
$USRTIMER
 70
     1
  9
$ANGBASE
 50
0.0
  9
$ANGDIR
 70
     0
  9
$PDMODE
 70
     0
  9
$PDSIZE
 40
0.0
  9
$PLINEWID
 40
0.0
  9
$SPLFRAME
 70
     0
  9
$SPLINETYPE
 70
     6
  9
$SPLINESEGS
 70
     8
  9
$HANDSEED
  5
248
  9
$SURFTAB1
 70
     6
  9
$SURFTAB2
 70
     6
  9
$SURFTYPE
 70
     6
  9
$SURFU
 70
     6
  9
$SURFV
 70
     6
  9
$UCSBASE
  2

  9
$UCSNAME
  2

  9
$UCSORG
 10
0.0
 20
0.0
 30
0.0
  9
$UCSXDIR
 10
1.0
 20
0.0
 30
0.0
  9
$UCSYDIR
 10
0.0
 20
1.0
 30
0.0
  9
$UCSORTHOREF
  2

  9
$UCSORTHOVIEW
 70
     0
  9
$UCSORGTOP
 10
0.0
 20
0.0
 30
0.0
  9
$UCSORGBOTTOM
 10
0.0
 20
0.0
 30
0.0
  9
$UCSORGLEFT
 10
0.0
 20
0.0
 30
0.0
  9
$UCSORGRIGHT
 10
0.0
 20
0.0
 30
0.0
  9
$UCSORGFRONT
 10
0.0
 20
0.0
 30
0.0
  9
$UCSORGBACK
 10
0.0
 20
0.0
 30
0.0
  9
$PUCSBASE
  2

  9
$PUCSNAME
  2

  9
$PUCSORG
 10
0.0
 20
0.0
 30
0.0
  9
$PUCSXDIR
 10
1.0
 20
0.0
 30
0.0
  9
$PUCSYDIR
 10
0.0
 20
1.0
 30
0.0
  9
$PUCSORTHOREF
  2

  9
$PUCSORTHOVIEW
 70
     0
  9
$PUCSORGTOP
 10
0.0
 20
0.0
 30
0.0
  9
$PUCSORGBOTTOM
 10
0.0
 20
0.0
 30
0.0
  9
$PUCSORGLEFT
 10
0.0
 20
0.0
 30
0.0
  9
$PUCSORGRIGHT
 10
0.0
 20
0.0
 30
0.0
  9
$PUCSORGFRONT
 10
0.0
 20
0.0
 30
0.0
  9
$PUCSORGBACK
 10
0.0
 20
0.0
 30
0.0
  9
$USERI1
 70
     0
  9
$USERI2
 70
     0
  9
$USERI3
 70
     0
  9
$USERI4
 70
     0
  9
$USERI5
 70
     0
  9
$USERR1
 40
0.0
  9
$USERR2
 40
0.0
  9
$USERR3
 40
0.0
  9
$USERR4
 40
0.0
  9
$USERR5
 40
0.0
  9
$WORLDVIEW
 70
     1
  9
$SHADEDGE
 70
     3
  9
$SHADEDIF
 70
    70
  9
$TILEMODE
 70
     1
  9
$MAXACTVP
 70
    64
  9
$PINSBASE
 10
0.0
 20
0.0
 30
0.0
  9
$PLIMCHECK
 70
     0
  9
$PEXTMIN
 10
0.0
 20
0.0
 30
0.0
  9
$PEXTMAX
 10
0.0
 20
0.0
 30
0.0
  9
$PLIMMIN
 10
0.0
 20
0.0
  9
$PLIMMAX
 10
12.0
 20
9.0
  9
$UNITMODE
 70
     0
  9
$VISRETAIN
 70
     1
  9
$PLINEGEN
 70
     0
  9
$PSLTSCALE
 70
     1
  9
$TREEDEPTH
 70
  3020
  9
$CMLSTYLE
  2
Standard
  9
$CMLJUST
 70
     0
  9
$CMLSCALE
 40
20.0
  9
$PROXYGRAPHICS
 70
     1
  9
$MEASUREMENT
 70
     1
  9
$CELWEIGHT
370
    -1
  9
$ENDCAPS
280
     0
  9
$JOINSTYLE
280
     0
  9
$LWDISPLAY
290
     0
  9
$INSUNITS
 70
     4
  9
$HYPERLINKBASE
  1

  9
$STYLESHEET
  1

  9
$XEDIT
290
     1
  9
$CEPSNTYPE
380
     0
  9
$PSTYLEMODE
290
     1
  9
$FINGERPRINTGUID
  2
{FDEAD578-A652-11D2-9A35-0060089B3A3F}
  9
$VERSIONGUID
  2
{0DD603ED-AC06-4ACB-A061-A38EFBF07D62}
  9
$EXTNAMES
290
     1
  9
$PSVPSCALE
 40
0.0
  9
$OLESTARTUP
290
     0
  0
ENDSEC
  0
SECTION
  2
CLASSES
  0
CLASS
  1
ACDBDICTIONARYWDFLT
  2
AcDbDictionaryWithDefault
  3
ObjectDBX Classes
 90
        0
280
     0
281
     0
  0
CLASS
  1
ACDBPLACEHOLDER
  2
AcDbPlaceHolder
  3
ObjectDBX Classes
 90
        0
280
     0
281
     0
  0
CLASS
  1
LAYOUT
  2
AcDbLayout
  3
ObjectDBX Classes
 90
        0
280
     0
281
     0
  0
CLASS
  1
DICTIONARYVAR
  2
AcDbDictionaryVar
  3
ObjectDBX Classes
 90
        0
280
     0
281
     0
  0
ENDSEC
  0
SECTION
  2
TABLES
  0
TABLE
  2
VPORT
  5
1B
330
0
100
AcDbSymbolTable
 70
     3
  0
VPORT
  5
240
330
1B
100
AcDbSymbolTableRecord
100
AcDbViewportTableRecord
  2
*Active
 70
     0
 10
0.0
 20
0.0
 11
1.0
 21
1.0
 12
2.262268802456453
 22
2.913986728077247
 13
0.0
 23
0.0
 14
10.0
 24
10.0
 15
10.0
 25
10.0
 16
0.0
 26
0.0
 36
1.0
 17
0.0
 27
0.0
 37
0.0
 40
113.8906858193395
 41
1.402813299232736
 42
50.0
 43
0.0
 44
0.0
 50
0.0
 51
0.0
 71
     0
 72
  1000
 73
     1
 74
     2
 75
     0
 76
     0
 77
     0
 78
     0
281
     0
 65
     1
110
0.0
120
0.0
130
0.0
111
1.0
121
0.0
131
0.0
112
0.0
122
1.0
132
0.0
 79
     0
146
0.0
  0
ENDTAB
  0
TABLE
  2
LTYPE
  5
16
330
0
100
AcDbSymbolTable
 70
     1
  0
LTYPE
  5
17
330
16
100
AcDbSymbolTableRecord
100
AcDbLinetypeTableRecord
  2
ByBlock
 70
     0
  3

 72
    65
 73
     0
 40
0.0
  0
LTYPE
  5
18
330
16
100
AcDbSymbolTableRecord
100
AcDbLinetypeTableRecord
  2
ByLayer
 70
     0
  3

 72
    65
 73
     0
 40
0.0
  0
LTYPE
  5
8
330
16
100
AcDbSymbolTableRecord
100
AcDbLinetypeTableRecord
  2
Continuous
 70
     0
  3
Solid line
 72
    65
 73
     0
 40
0.0
  0
ENDTAB
  0
TABLE
  2
LAYER
  5
10
102
{ACAD_XDICTIONARY
360
11
102
}
330
0
100
AcDbSymbolTable
 70
     7
  0
LAYER
  5
4
330
10
100
AcDbSymbolTableRecord
100
AcDbLayerTableRecord
  2
0
 70
     0
 62
     7
  6
Continuous
370
    -3
390
5
  0
LAYER
  5
1A3
330
10
100
AcDbSymbolTableRecord
100
AcDbLayerTableRecord
  2
WAKU
 70
     0
 62
     4
  6
Continuous
370
    -3
390
5
  0
LAYER
  5
2A
330
10
100
AcDbSymbolTableRecord
100
AcDbLayerTableRecord
  2
MOJI1
 70
     0
 62
     2
  6
Continuous
370
    -3
390
5
  0
LAYER
  5
2D
330
10
100
AcDbSymbolTableRecord
100
AcDbLayerTableRecord
  2
TOUROKU
 70
     0
 62
     1
  6
Continuous
370
    -3
390
5
  0
LAYER
  5
26
330
10
100
AcDbSymbolTableRecord
100
AcDbLayerTableRecord
  2
GAIKEI
 70
     0
 62
     7
  6
Continuous
370
    -3
390
5
  0
LAYER
  5
1C9
330
10
100
AcDbSymbolTableRecord
100
AcDbLayerTableRecord
  2
Defpoints
 70
     0
 62
     7
  6
Continuous
290
     0
370
    -3
390
5
  0
LAYER
  5
1B8
330
10
100
AcDbSymbolTableRecord
100
AcDbLayerTableRecord
  2
SUNPO
 70
     0
 62
     3
  6
Continuous
370
    -3
390
5
  0
ENDTAB
  0
TABLE
  2
STYLE
  5
13
330
0
100
AcDbSymbolTable
 70
     2
  0
STYLE
  5
14
330
13
100
AcDbSymbolTableRecord
100
AcDbTextStyleTableRecord
  2
Standard
 70
     0
 40
0.0
 41
1.0
 50
0.0
 71
     0
 42
2.5
  3
MONOTXT.shx
  4
BIGFONT.shx
  0
STYLE
  5
2B
330
13
100
AcDbSymbolTableRecord
100
AcDbTextStyleTableRecord
  2
KANJI
 70
     0
 40
0.0
 41
1.0
 50
0.0
 71
     0
 42
3.5
  3
MONOTXT
  4
BIGFONT
  0
ENDTAB
  0
TABLE
  2
VIEW
  5
19
330
0
100
AcDbSymbolTable
 70
     0
  0
ENDTAB
  0
TABLE
  2
UCS
  5
1A
330
0
100
AcDbSymbolTable
 70
     0
  0
ENDTAB
  0
TABLE
  2
APPID
  5
1D
330
0
100
AcDbSymbolTable
 70
     1
  0
APPID
  5
1E
330
1D
100
AcDbSymbolTableRecord
100
AcDbRegAppTableRecord
  2
ACAD
 70
     0
  0
ENDTAB
  0
TABLE
  2
DIMSTYLE
  5
1F
330
0
100
AcDbSymbolTable
 70
     2
100
AcDbDimStyleTable
 71
     0
  0
DIMSTYLE
105
28
330
1F
100
AcDbSymbolTableRecord
100
AcDbDimStyleTableRecord
  2
ISO-25
 70
     0
 41
2.5
 42
0.625
 43
3.75
 44
1.25
 73
     0
 74
     0
 77
     1
 78
     8
140
2.5
141
2.5
143
0.03937007874016
147
0.625
171
     3
172
     1
271
     2
272
     2
274
     3
278
    44
283
     0
284
     8
340
14
  0
DIMSTYLE
105
1BF
102
{ACAD_REACTORS
330
1E7
330
1DA
330
1CD
330
1B7
102
}
330
1F
100
AcDbSymbolTableRecord
100
AcDbDimStyleTableRecord
  2
STANDARD
 70
     0
 40
0.0
 41
2.0
 42
2.0
 43
8.0
 44
2.0
 73
     0
 74
     0
 77
     3
140
3.0
141
0.0
173
     1
279
     2
288
     1
340
14
341
1B9
343
1B9
344
1B9
  0
ENDTAB
  0
TABLE
  2
BLOCK_RECORD
  5
1
330
0
100
AcDbSymbolTable
 70
     9
  0
BLOCK_RECORD
  5
2
330
1
100
AcDbSymbolTableRecord
100
AcDbBlockTableRecord
  2
*Model_Space
340
A
  0
BLOCK_RECORD
  5
C
330
1
100
AcDbSymbolTableRecord
100
AcDbBlockTableRecord
  2
*Paper_Space
340
F
  0
BLOCK_RECORD
  5
1B9
330
1
100
AcDbSymbolTableRecord
100
AcDbBlockTableRecord
  2
_OPEN30
340
0
102
{BLKREFS
331
1ED
331
1EE
331
1E0
331
1E1
331
1D3
331
1D4
331
1C5
331
1C6
331
210
331
211
331
21C
331
21D
331
228
331
229
331
234
331
235
102
}
  0
BLOCK_RECORD
  5
1E8
330
1
100
AcDbSymbolTableRecord
100
AcDbBlockTableRecord
  2
*D1
340
0
  0
BLOCK_RECORD
  5
1DB
330
1
100
AcDbSymbolTableRecord
100
AcDbBlockTableRecord
  2
*D2
340
0
  0
BLOCK_RECORD
  5
1CE
330
1
100
AcDbSymbolTableRecord
100
AcDbBlockTableRecord
  2
*D3
340
0
  0
BLOCK_RECORD
  5
1C0
330
1
100
AcDbSymbolTableRecord
100
AcDbBlockTableRecord
  2
*D4
340
0
  0
BLOCK_RECORD
  5
20C
330
1
100
AcDbSymbolTableRecord
100
AcDbBlockTableRecord
  2
*D5
340
0
  0
BLOCK_RECORD
  5
218
330
1
100
AcDbSymbolTableRecord
100
AcDbBlockTableRecord
  2
*D6
340
0
  0
BLOCK_RECORD
  5
224
330
1
100
AcDbSymbolTableRecord
100
AcDbBlockTableRecord
  2
*D7
340
0
  0
BLOCK_RECORD
  5
230
330
1
100
AcDbSymbolTableRecord
100
AcDbBlockTableRecord
  2
*D8
340
0
  0
ENDTAB
  0
ENDSEC
  0
SECTION
  2
BLOCKS
  0
BLOCK
  5
3
330
2
100
AcDbEntity
  8
0
100
AcDbBlockBegin
  2
*Model_Space
 70
     0
 10
0.0
 20
0.0
 30
0.0
  3
*Model_Space
  1

  0
ENDBLK
  5
9
330
2
100
AcDbEntity
  8
0
100
AcDbBlockEnd
  0
BLOCK
  5
D
330
C
100
AcDbEntity
 67
     1
  8
0
100
AcDbBlockBegin
  2
*Paper_Space
 70
     0
 10
0.0
 20
0.0
 30
0.0
  3
*Paper_Space
  1

  0
ENDBLK
  5
E
330
C
100
AcDbEntity
 67
     1
  8
0
100
AcDbBlockEnd
  0
BLOCK
  5
1BA
330
1B9
100
AcDbEntity
  8
0
100
AcDbBlockBegin
  2
_OPEN30
 70
     0
 10
0.0
 20
0.0
 30
0.0
  3
_OPEN30
  1

  0
LINE
  5
1BB
330
1B9
100
AcDbEntity
  8
0
  6
ByBlock
 62
     0
100
AcDbLine
 10
-1.0
 20
0.26794919
 30
0.0
 11
0.0
 21
0.0
 31
0.0
  0
LINE
  5
1BC
330
1B9
100
AcDbEntity
  8
0
  6
ByBlock
 62
     0
100
AcDbLine
 10
0.0
 20
0.0
 30
0.0
 11
-1.0
 21
-0.26794919
 31
0.0
  0
LINE
  5
1BD
330
1B9
100
AcDbEntity
  8
0
  6
ByBlock
 62
     0
100
AcDbLine
 10
0.0
 20
0.0
 30
0.0
 11
-1.0
 21
0.0
 31
0.0
  0
ENDBLK
  5
1BE
330
1B9
100
AcDbEntity
  8
0
100
AcDbBlockEnd
  0
BLOCK
  5
1E9
330
1E8
100
AcDbEntity
  8
0
100
AcDbBlockBegin
  2
*D1
 70
     1
 10
0.0
 20
0.0
 30
0.0
  3
*D1
  1

  0
LINE
  5
1EA
330
1E8
100
AcDbEntity
  8
SUNPO
 62
     0
370
    -2
100
AcDbLine
 10
87.50169177616211
 20
187.0958439424455
 30
0.0
 11
87.50169177616211
 21
179.0958439424455
 31
0.0
  0
LINE
  5
1EB
330
1E8
100
AcDbEntity
  8
SUNPO
 62
     0
370
    -2
100
AcDbLine
 10
107.30169670034
 20
187.0958439424455
 30
0.0
 11
107.30169670034
 21
179.0958439424455
 31
0.0
  0
LINE
  5
1EC
330
1E8
100
AcDbEntity
  8
SUNPO
 62
     0
370
    -2
100
AcDbLine
 10
89.5016917761621
 20
181.0958439424455
 30
0.0
 11
105.30169670034
 21
181.0958439424455
 31
0.0
  0
INSERT
  5
1ED
330
1E8
100
AcDbEntity
  8
SUNPO
 62
     0
370
    -2
100
AcDbBlockReference
  2
_OPEN30
 10
87.50169177616211
 20
181.0958439424455
 30
0.0
 41
2.0
 42
2.0
 43
2.0
 50
180.0
  0
INSERT
  5
1EE
330
1E8
100
AcDbEntity
  8
SUNPO
 62
     0
370
    -2
100
AcDbBlockReference
  2
_OPEN30
 10
107.30169670034
 20
181.0958439424455
 30
0.0
 41
2.0
 42
2.0
 43
2.0
  0
MTEXT
  5
1EF
330
1E8
100
AcDbEntity
  8
SUNPO
 62
     0
100
AcDbMText
 10
97.40169423825108
 20
182.8458439424455
 30
0.0
 40
2.5
 41
0.0
 71
     5
 72
     1
  1
\A1;198
 73
     1
 44
1.0
1001
ACAD
1000
MTEXTBEGIN
1070
    73
1070
     1
1070
    44
1040
1.0
1070
    74
1070
     0
1000
MTEXTEND
  0
POINT
  5
1F0
330
1E8
100
AcDbEntity
  8
Defpoints
 62
     0
100
AcDbPoint
 10
87.50169177616211
 20
189.0958439424455
 30
0.0
  0
POINT
  5
1F1
330
1E8
100
AcDbEntity
  8
Defpoints
 62
     0
100
AcDbPoint
 10
107.30169670034
 20
189.0958439424455
 30
0.0
  0
POINT
  5
1F2
330
1E8
100
AcDbEntity
  8
Defpoints
 62
     0
100
AcDbPoint
 10
107.30169670034
 20
181.0958439424455
 30
0.0
  0
ENDBLK
  5
1F3
330
1E8
100
AcDbEntity
  8
0
100
AcDbBlockEnd
  0
BLOCK
  5
1DC
330
1DB
100
AcDbEntity
  8
0
100
AcDbBlockBegin
  2
*D2
 70
     1
 10
0.0
 20
0.0
 30
0.0
  3
*D2
  1

  0
LINE
  5
1DD
330
1DB
100
AcDbEntity
  8
SUNPO
 62
     0
370
    -2
100
AcDbLine
 10
91.50180724988087
 20
223.4510702383322
 30
0.0
 11
91.50180724988087
 21
231.4028402675013
 31
0.0
  0
LINE
  5
1DE
330
1DB
100
AcDbEntity
  8
SUNPO
 62
     0
370
    -2
100
AcDbLine
 10
98.7017635287183
 20
223.4510702383322
 30
0.0
 11
98.7017635287183
 21
231.4028402675013
 31
0.0
  0
LINE
  5
1DF
330
1DB
100
AcDbEntity
  8
SUNPO
 62
     0
370
    -2
100
AcDbLine
 10
93.50180724988087
 20
229.4028402675013
 30
0.0
 11
96.70176352871829
 21
229.4028402675013
 31
0.0
  0
INSERT
  5
1E0
330
1DB
100
AcDbEntity
  8
SUNPO
 62
     0
370
    -2
100
AcDbBlockReference
  2
_OPEN30
 10
91.50180724988087
 20
229.4028402675013
 30
0.0
 41
2.0
 42
2.0
 43
2.0
 50
180.0
  0
INSERT
  5
1E1
330
1DB
100
AcDbEntity
  8
SUNPO
 62
     0
370
    -2
100
AcDbBlockReference
  2
_OPEN30
 10
98.7017635287183
 20
229.4028402675013
 30
0.0
 41
2.0
 42
2.0
 43
2.0
  0
MTEXT
  5
1E2
330
1DB
100
AcDbEntity
  8
SUNPO
 62
     0
100
AcDbMText
 10
95.10178538929958
 20
231.1528402675013
 30
0.0
 40
2.5
 41
0.0
 71
     5
 72
     1
  1
\A1;72
 73
     1
 44
1.0
1001
ACAD
1000
MTEXTBEGIN
1070
    73
1070
     1
1070
    44
1040
1.0
1070
    74
1070
     0
1000
MTEXTEND
  0
POINT
  5
1E3
330
1DB
100
AcDbEntity
  8
Defpoints
 62
     0
100
AcDbPoint
 10
91.50180724988087
 20
221.4510702383322
 30
0.0
  0
POINT
  5
1E4
330
1DB
100
AcDbEntity
  8
Defpoints
 62
     0
100
AcDbPoint
 10
98.7017635287183
 20
221.4510702383322
 30
0.0
  0
POINT
  5
1E5
330
1DB
100
AcDbEntity
  8
Defpoints
 62
     0
100
AcDbPoint
 10
98.7017635287183
 20
229.4028402675013
 30
0.0
  0
ENDBLK
  5
1E6
330
1DB
100
AcDbEntity
  8
0
100
AcDbBlockEnd
  0
BLOCK
  5
1CF
330
1CE
100
AcDbEntity
  8
0
100
AcDbBlockBegin
  2
*D3
 70
     1
 10
0.0
 20
0.0
 30
0.0
  3
*D3
  1

  0
LINE
  5
1D0
330
1CE
100
AcDbEntity
  8
SUNPO
 62
     0
370
    -2
100
AcDbLine
 10
63.83663797103515
 20
221.4458439424456
 30
0.0
 11
71.69225951898649
 21
221.4458439424456
 31
0.0
  0
LINE
  5
1D1
330
1CE
100
AcDbEntity
  8
SUNPO
 62
     0
370
    -2
100
AcDbLine
 10
63.83663797103515
 20
189.0958439424456
 30
0.0
 11
71.69225951898649
 21
189.0958439424455
 31
0.0
  0
LINE
  5
1D2
330
1CE
100
AcDbEntity
  8
SUNPO
 62
     0
370
    -2
100
AcDbLine
 10
69.69225951898649
 20
219.4458439424456
 30
0.0
 11
69.69225951898649
 21
191.0958439424455
 31
0.0
  0
INSERT
  5
1D3
330
1CE
100
AcDbEntity
  8
SUNPO
 62
     0
370
    -2
100
AcDbBlockReference
  2
_OPEN30
 10
69.69225951898649
 20
221.4458439424456
 30
0.0
 41
2.0
 42
2.0
 43
2.0
 50
90.0
  0
INSERT
  5
1D4
330
1CE
100
AcDbEntity
  8
SUNPO
 62
     0
370
    -2
100
AcDbBlockReference
  2
_OPEN30
 10
69.69225951898649
 20
189.0958439424455
 30
0.0
 41
2.0
 42
2.0
 43
2.0
 50
270.0
  0
MTEXT
  5
1D5
330
1CE
100
AcDbEntity
  8
SUNPO
 62
     0
100
AcDbMText
 10
67.94225951898646
 20
205.2708439424456
 30
0.0
 40
2.5
 41
0.0
 71
     5
 72
     1
  1
\A1;323.5
 11
0.0000000000000001
 21
1.0
 31
0.0
 73
     1
 44
1.0
1001
ACAD
1000
MTEXTBEGIN
1070
    73
1070
     1
1070
    44
1040
1.0
1070
    74
1070
     0
1000
MTEXTEND
  0
POINT
  5
1D6
330
1CE
100
AcDbEntity
  8
Defpoints
 62
     0
100
AcDbPoint
 10
61.83663797103514
 20
221.4458439424456
 30
0.0
  0
POINT
  5
1D7
330
1CE
100
AcDbEntity
  8
Defpoints
 62
     0
100
AcDbPoint
 10
61.83663797103514
 20
189.0958439424456
 30
0.0
  0
POINT
  5
1D8
330
1CE
100
AcDbEntity
  8
Defpoints
 62
     0
100
AcDbPoint
 10
69.69225951898649
 20
189.0958439424455
 30
0.0
  0
ENDBLK
  5
1D9
330
1CE
100
AcDbEntity
  8
0
100
AcDbBlockEnd
  0
BLOCK
  5
1C1
330
1C0
100
AcDbEntity
  8
0
100
AcDbBlockBegin
  2
*D4
 70
     1
 10
0.0
 20
0.0
 30
0.0
  3
*D4
  1

  0
LINE
  5
1C2
330
1C0
100
AcDbEntity
  8
SUNPO
 62
     0
370
    -2
100
AcDbLine
 10
18.77750571702535
 20
223.4510702383322
 30
0.0
 11
18.77750571702535
 21
231.4028402675013
 31
0.0
  0
LINE
  5
1C3
330
1C0
100
AcDbEntity
  8
SUNPO
 62
     0
370
    -2
100
AcDbLine
 10
61.77746962779661
 20
223.4510702383322
 30
0.0
 11
61.77746962779661
 21
231.4028402675013
 31
0.0
  0
LINE
  5
1C4
330
1C0
100
AcDbEntity
  8
SUNPO
 62
     0
370
    -2
100
AcDbLine
 10
20.77750571702535
 20
229.4028402675013
 30
0.0
 11
59.77746962779661
 21
229.4028402675013
 31
0.0
  0
INSERT
  5
1C5
330
1C0
100
AcDbEntity
  8
SUNPO
 62
     0
370
    -2
100
AcDbBlockReference
  2
_OPEN30
 10
18.77750571702535
 20
229.4028402675013
 30
0.0
 41
2.0
 42
2.0
 43
2.0
 50
180.0
  0
INSERT
  5
1C6
330
1C0
100
AcDbEntity
  8
SUNPO
 62
     0
370
    -2
100
AcDbBlockReference
  2
_OPEN30
 10
61.77746962779661
 20
229.4028402675013
 30
0.0
 41
2.0
 42
2.0
 43
2.0
  0
MTEXT
  5
1C7
330
1C0
100
AcDbEntity
  8
SUNPO
 62
     0
100
AcDbMText
 10
40.27748767241098
 20
231.1528402675013
 30
0.0
 40
2.5
 41
0.0
 71
     5
 72
     1
  1
\A1;430
 73
     1
 44
1.0
1001
ACAD
1000
MTEXTBEGIN
1070
    73
1070
     1
1070
    44
1040
1.0
1070
    74
1070
     0
1000
MTEXTEND
  0
POINT
  5
1C8
330
1C0
100
AcDbEntity
  8
Defpoints
 62
     0
100
AcDbPoint
 10
18.77750571702535
 20
221.4510702383322
 30
0.0
  0
POINT
  5
1CA
330
1C0
100
AcDbEntity
  8
Defpoints
 62
     0
100
AcDbPoint
 10
61.77746962779661
 20
221.4510702383322
 30
0.0
  0
POINT
  5
1CB
330
1C0
100
AcDbEntity
  8
Defpoints
 62
     0
100
AcDbPoint
 10
61.77746962779661
 20
229.4028402675013
 30
0.0
  0
ENDBLK
  5
1CC
330
1C0
100
AcDbEntity
  8
0
100
AcDbBlockEnd
  0
BLOCK
  5
216
330
20C
100
AcDbEntity
  8
0
100
AcDbBlockBegin
  2
*D5
 70
     1
 10
0.0
 20
0.0
 30
0.0
  3
*D5
  1

  0
LINE
  5
20D
330
20C
100
AcDbEntity
  8
SUNPO
 62
     0
370
    -2
100
AcDbLine
 10
24.75370180515116
 20
2.00976554864448
 30
0.0
 11
24.75370180515116
 21
-5.990234451355519
 31
0.0
  0
LINE
  5
20E
330
20C
100
AcDbEntity
  8
SUNPO
 62
     0
370
    -2
100
AcDbLine
 10
44.5537067293291
 20
2.00976554864448
 30
0.0
 11
44.5537067293291
 21
-5.990234451355519
 31
0.0
  0
LINE
  5
20F
330
20C
100
AcDbEntity
  8
SUNPO
 62
     0
370
    -2
100
AcDbLine
 10
26.75370180515115
 20
-3.990234451355519
 30
0.0
 11
42.55370672932911
 21
-3.990234451355519
 31
0.0
  0
INSERT
  5
210
330
20C
100
AcDbEntity
  8
SUNPO
 62
     0
370
    -2
100
AcDbBlockReference
  2
_OPEN30
 10
24.75370180515116
 20
-3.990234451355519
 30
0.0
 41
2.0
 42
2.0
 43
2.0
 50
180.0
  0
INSERT
  5
211
330
20C
100
AcDbEntity
  8
SUNPO
 62
     0
370
    -2
100
AcDbBlockReference
  2
_OPEN30
 10
44.5537067293291
 20
-3.990234451355519
 30
0.0
 41
2.0
 42
2.0
 43
2.0
  0
MTEXT
  5
212
330
20C
100
AcDbEntity
  8
SUNPO
 62
     0
100
AcDbMText
 10
34.65370426724013
 20
-2.240234451355519
 30
0.0
 40
2.5
 41
0.0
 71
     5
 72
     1
  1
\A1;198
 73
     1
 44
1.0
1001
ACAD
1000
MTEXTBEGIN
1070
    73
1070
     1
1070
    44
1040
1.0
1070
    74
1070
     0
1000
MTEXTEND
  0
POINT
  5
213
330
20C
100
AcDbEntity
  8
Defpoints
 62
     0
100
AcDbPoint
 10
24.75370180515116
 20
4.00976554864448
 30
0.0
  0
POINT
  5
214
330
20C
100
AcDbEntity
  8
Defpoints
 62
     0
100
AcDbPoint
 10
44.5537067293291
 20
4.00976554864448
 30
0.0
  0
POINT
  5
215
330
20C
100
AcDbEntity
  8
Defpoints
 62
     0
100
AcDbPoint
 10
44.5537067293291
 20
-3.990234451355519
 30
0.0
  0
ENDBLK
  5
217
330
20C
100
AcDbEntity
  8
0
100
AcDbBlockEnd
  0
BLOCK
  5
222
330
218
100
AcDbEntity
  8
0
100
AcDbBlockBegin
  2
*D6
 70
     1
 10
0.0
 20
0.0
 30
0.0
  3
*D6
  1

  0
LINE
  5
219
330
218
100
AcDbEntity
  8
SUNPO
 62
     0
370
    -2
100
AcDbLine
 10
28.75381727886992
 20
38.36499184453117
 30
0.0
 11
28.75381727886992
 21
46.3167618737003
 31
0.0
  0
LINE
  5
21A
330
218
100
AcDbEntity
  8
SUNPO
 62
     0
370
    -2
100
AcDbLine
 10
35.95377355770734
 20
38.36499184453117
 30
0.0
 11
35.95377355770734
 21
46.3167618737003
 31
0.0
  0
LINE
  5
21B
330
218
100
AcDbEntity
  8
SUNPO
 62
     0
370
    -2
100
AcDbLine
 10
30.75381727886992
 20
44.3167618737003
 30
0.0
 11
33.95377355770734
 21
44.3167618737003
 31
0.0
  0
INSERT
  5
21C
330
218
100
AcDbEntity
  8
SUNPO
 62
     0
370
    -2
100
AcDbBlockReference
  2
_OPEN30
 10
28.75381727886992
 20
44.3167618737003
 30
0.0
 41
2.0
 42
2.0
 43
2.0
 50
180.0
  0
INSERT
  5
21D
330
218
100
AcDbEntity
  8
SUNPO
 62
     0
370
    -2
100
AcDbBlockReference
  2
_OPEN30
 10
35.95377355770734
 20
44.3167618737003
 30
0.0
 41
2.0
 42
2.0
 43
2.0
  0
MTEXT
  5
21E
330
218
100
AcDbEntity
  8
SUNPO
 62
     0
100
AcDbMText
 10
32.35379541828863
 20
46.06676187370029
 30
0.0
 40
2.5
 41
0.0
 71
     5
 72
     1
  1
\A1;72
 73
     1
 44
1.0
1001
ACAD
1000
MTEXTBEGIN
1070
    73
1070
     1
1070
    44
1040
1.0
1070
    74
1070
     0
1000
MTEXTEND
  0
POINT
  5
21F
330
218
100
AcDbEntity
  8
Defpoints
 62
     0
100
AcDbPoint
 10
28.75381727886992
 20
36.36499184453118
 30
0.0
  0
POINT
  5
220
330
218
100
AcDbEntity
  8
Defpoints
 62
     0
100
AcDbPoint
 10
35.95377355770734
 20
36.36499184453118
 30
0.0
  0
POINT
  5
221
330
218
100
AcDbEntity
  8
Defpoints
 62
     0
100
AcDbPoint
 10
35.95377355770734
 20
44.3167618737003
 30
0.0
  0
ENDBLK
  5
223
330
218
100
AcDbEntity
  8
0
100
AcDbBlockEnd
  0
BLOCK
  5
22E
330
224
100
AcDbEntity
  8
0
100
AcDbBlockBegin
  2
*D7
 70
     1
 10
0.0
 20
0.0
 30
0.0
  3
*D7
  1

  0
LINE
  5
225
330
224
100
AcDbEntity
  8
SUNPO
 62
     0
370
    -2
100
AcDbLine
 10
1.088648000024193
 20
36.35976554864459
 30
0.0
 11
8.944269547975544
 21
36.35976554864459
 31
0.0
  0
LINE
  5
226
330
224
100
AcDbEntity
  8
SUNPO
 62
     0
370
    -2
100
AcDbLine
 10
1.088648000024193
 20
4.009765548644566
 30
0.0
 11
8.944269547975538
 21
4.009765548644563
 31
0.0
  0
LINE
  5
227
330
224
100
AcDbEntity
  8
SUNPO
 62
     0
370
    -2
100
AcDbLine
 10
6.944269547975544
 20
34.35976554864459
 30
0.0
 11
6.944269547975538
 21
6.009765548644563
 31
0.0
  0
INSERT
  5
228
330
224
100
AcDbEntity
  8
SUNPO
 62
     0
370
    -2
100
AcDbBlockReference
  2
_OPEN30
 10
6.944269547975544
 20
36.35976554864459
 30
0.0
 41
2.0
 42
2.0
 43
2.0
 50
90.0
  0
INSERT
  5
229
330
224
100
AcDbEntity
  8
SUNPO
 62
     0
370
    -2
100
AcDbBlockReference
  2
_OPEN30
 10
6.944269547975537
 20
4.009765548644563
 30
0.0
 41
2.0
 42
2.0
 43
2.0
 50
270.0
  0
MTEXT
  5
22A
330
224
100
AcDbEntity
  8
SUNPO
 62
     0
100
AcDbMText
 10
5.194269547975537
 20
20.18476554864458
 30
0.0
 40
2.5
 41
0.0
 71
     5
 72
     1
  1
\A1;323.5
 11
0.0000000000000001
 21
1.0
 31
0.0
 73
     1
 44
1.0
1001
ACAD
1000
MTEXTBEGIN
1070
    73
1070
     1
1070
    44
1040
1.0
1070
    74
1070
     0
1000
MTEXTEND
  0
POINT
  5
22B
330
224
100
AcDbEntity
  8
Defpoints
 62
     0
100
AcDbPoint
 10
-0.9113519999758068
 20
36.35976554864459
 30
0.0
  0
POINT
  5
22C
330
224
100
AcDbEntity
  8
Defpoints
 62
     0
100
AcDbPoint
 10
-0.9113519999758068
 20
4.009765548644566
 30
0.0
  0
POINT
  5
22D
330
224
100
AcDbEntity
  8
Defpoints
 62
     0
100
AcDbPoint
 10
6.944269547975537
 20
4.009765548644563
 30
0.0
  0
ENDBLK
  5
22F
330
224
100
AcDbEntity
  8
0
100
AcDbBlockEnd
  0
BLOCK
  5
23A
330
230
100
AcDbEntity
  8
0
100
AcDbBlockBegin
  2
*D8
 70
     1
 10
0.0
 20
0.0
 30
0.0
  3
*D8
  1

  0
LINE
  5
231
330
230
100
AcDbEntity
  8
SUNPO
 62
     0
370
    -2
100
AcDbLine
 10
-43.97048425398559
 20
38.36499184453117
 30
0.0
 11
-43.97048425398559
 21
46.3167618737003
 31
0.0
  0
LINE
  5
232
330
230
100
AcDbEntity
  8
SUNPO
 62
     0
370
    -2
100
AcDbLine
 10
-0.970520343214339
 20
38.36499184453117
 30
0.0
 11
-0.9705203432143386
 21
46.3167618737003
 31
0.0
  0
LINE
  5
233
330
230
100
AcDbEntity
  8
SUNPO
 62
     0
370
    -2
100
AcDbLine
 10
-41.97048425398559
 20
44.3167618737003
 30
0.0
 11
-2.970520343214338
 21
44.3167618737003
 31
0.0
  0
INSERT
  5
234
330
230
100
AcDbEntity
  8
SUNPO
 62
     0
370
    -2
100
AcDbBlockReference
  2
_OPEN30
 10
-43.97048425398559
 20
44.3167618737003
 30
0.0
 41
2.0
 42
2.0
 43
2.0
 50
180.0
  0
INSERT
  5
235
330
230
100
AcDbEntity
  8
SUNPO
 62
     0
370
    -2
100
AcDbBlockReference
  2
_OPEN30
 10
-0.9705203432143388
 20
44.3167618737003
 30
0.0
 41
2.0
 42
2.0
 43
2.0
  0
MTEXT
  5
236
330
230
100
AcDbEntity
  8
SUNPO
 62
     0
100
AcDbMText
 10
-22.47050229859997
 20
46.06676187370029
 30
0.0
 40
2.5
 41
0.0
 71
     5
 72
     1
  1
\A1;430
 73
     1
 44
1.0
1001
ACAD
1000
MTEXTBEGIN
1070
    73
1070
     1
1070
    44
1040
1.0
1070
    74
1070
     0
1000
MTEXTEND
  0
POINT
  5
237
330
230
100
AcDbEntity
  8
Defpoints
 62
     0
100
AcDbPoint
 10
-43.97048425398559
 20
36.36499184453118
 30
0.0
  0
POINT
  5
238
330
230
100
AcDbEntity
  8
Defpoints
 62
     0
100
AcDbPoint
 10
-0.9705203432143392
 20
36.36499184453118
 30
0.0
  0
POINT
  5
239
330
230
100
AcDbEntity
  8
Defpoints
 62
     0
100
AcDbPoint
 10
-0.9705203432143388
 20
44.3167618737003
 30
0.0
  0
ENDBLK
  5
23B
330
230
100
AcDbEntity
  8
0
100
AcDbBlockEnd
  0
ENDSEC
  0
SECTION
  2
ENTITIES
  0
TEXT
  5
29
330
2
100
AcDbEntity
  8
MOJI1
100
AcDbText
 10
-33.24799002696977
 20
55.41475673113367
 30
0.0
 40
4.0
  1
ＬＣＤビデオモニター
  7
KANJI
100
AcDbText
  0
TEXT
  5
2C
330
2
100
AcDbEntity
  8
TOUROKU
100
AcDbText
 10
46.48529333929073
 20
49.41475673113348
 30
0.0
 40
2.0
  1
ＢＴＬＨ１７１０
 72
     2
 11
64.7519600059574
 21
49.41475673113348
 31
0.0
100
AcDbText
  0
LINE
  5
2E
330
2
100
AcDbEntity
  8
GAIKEI
100
AcDbLine
 10
-1.970269639689547
 20
5.459766101605111
 30
0.0
 11
-42.97073495750679
 21
5.459766101605055
 31
0.0
  0
ARC
  5
2F
330
2
100
AcDbEntity
  8
GAIKEI
100
AcDbCircle
 10
-42.96062733333893
 20
6.469628834896411
 30
0.0
 40
1.009913315169689
100
AcDbArc
 50
180.605502674984
 51
269.4265509071261
  0
LINE
  5
30
330
2
100
AcDbEntity
  8
GAIKEI
100
AcDbLine
 10
-28.18459383143919
 20
4.099368988443501
 30
0.0
 11
-28.18459383143919
 21
3.896158963465381
 31
0.0
  0
LINE
  5
31
330
2
100
AcDbEntity
  8
GAIKEI
100
AcDbLine
 10
-28.18459383143919
 20
3.896158963465381
 30
0.0
 11
-36.4701279547874
 21
3.89615896346541
 31
0.0
  0
LINE
  5
32
330
2
100
AcDbEntity
  8
GAIKEI
100
AcDbLine
 10
-36.4701279547874
 20
5.459766101605055
 30
0.0
 11
-36.4701279547874
 21
3.89615896346541
 31
0.0
  0
LINE
  5
33
330
2
100
AcDbEntity
  8
GAIKEI
 62
     1
100
AcDbLine
 10
-36.4701279547874
 20
5.338431874907115
 30
0.0
 11
-8.470876642412406
 21
5.338431874907143
 31
0.0
  0
LINE
  5
34
330
2
100
AcDbEntity
  8
GAIKEI
 62
     1
100
AcDbLine
 10
-42.92614323133555
 20
5.704111986706408
 30
0.0
 11
-2.01486136585936
 21
5.704111986706465
 31
0.0
  0
ARC
  5
35
330
2
100
AcDbEntity
  8
GAIKEI
 62
     1
100
AcDbCircle
 10
-42.9143295030653
 20
6.515209978863595
 30
0.0
 40
0.8111840216973238
100
AcDbArc
 50
180.7743701426152
 51
269.1655399001097
  0
LINE
  5
36
330
2
100
AcDbEntity
  8
GAIKEI
 62
     1
100
AcDbLine
 10
-43.7254394390069
 20
6.504246910230506
 30
0.0
 11
-43.7254394390069
 21
8.852092154030515
 31
0.0
  0
LINE
  5
37
330
2
100
AcDbEntity
  8
GAIKEI
100
AcDbLine
 10
-43.97048425398558
 20
6.458956254181998
 30
0.0
 11
-43.97048425398558
 21
35.35945710826391
 31
0.0
  0
ARC
  5
38
330
2
100
AcDbEntity
  8
GAIKEI
100
AcDbCircle
 10
-42.95533707759036
 20
35.34462682295248
 30
0.0
 40
1.015255498436519
100
AcDbArc
 50
90.86901017511918
 51
179.1630254849426
  0
LINE
  5
39
330
2
100
AcDbEntity
  8
GAIKEI
100
AcDbLine
 10
-8.470876642412406
 20
4.099368988443501
 30
0.0
 11
-36.4701279547874
 21
4.099368988443501
 31
0.0
  0
LINE
  5
3A
330
2
100
AcDbEntity
  8
GAIKEI
100
AcDbLine
 10
-8.470876642412434
 20
5.459766101605083
 30
0.0
 11
-8.470876642412406
 21
3.89615896346541
 31
0.0
  0
LINE
  5
3B
330
2
100
AcDbEntity
  8
GAIKEI
100
AcDbLine
 10
-16.75641076576062
 20
3.896158963465381
 30
0.0
 11
-8.470876642412406
 21
3.89615896346541
 31
0.0
  0
LINE
  5
3C
330
2
100
AcDbEntity
  8
GAIKEI
100
AcDbLine
 10
-16.75641076576065
 20
4.099368988443501
 30
0.0
 11
-16.75641076576062
 21
3.896158963465381
 31
0.0
  0
ARC
  5
3D
330
2
100
AcDbEntity
  8
GAIKEI
 62
     1
100
AcDbCircle
 10
-43.39706595787588
 20
9.276474322115376
 30
0.0
 40
0.5049382756292329
100
AcDbArc
 50
180.4432163623692
 51
269.2843667961155
  0
LINE
  5
3E
330
2
100
AcDbEntity
  8
GAIKEI
 62
     1
100
AcDbLine
 10
-43.40337255155064
 20
8.771575432166457
 30
0.0
 11
-1.53763204564413
 21
8.771575432166514
 31
0.0
  0
LINE
  5
3F
330
2
100
AcDbEntity
  8
GAIKEI
 62
     1
100
AcDbLine
 10
-43.40337255155064
 20
9.071276563549361
 30
0.0
 11
-1.537632045648962
 21
9.071276563549332
 31
0.0
  0
ARC
  5
40
330
2
100
AcDbEntity
  8
GAIKEI
 62
     1
100
AcDbCircle
 10
-43.42476317214258
 20
9.298791897447046
 30
0.0
 40
0.2285186771532889
100
AcDbArc
 50
186.5894608258693
 51
275.3710671007132
  0
LINE
  5
41
330
2
100
AcDbEntity
  8
GAIKEI
 62
     1
100
AcDbLine
 10
-43.6517722299403
 20
9.272568368209505
 30
0.0
 11
-43.70055753537529
 21
35.28984369248559
 31
0.0
  0
LINE
  5
42
330
2
100
AcDbEntity
  8
GAIKEI
 62
     1
100
AcDbLine
 10
-43.90198912601094
 20
9.272568368209505
 30
0.0
 11
-43.90198912601094
 21
35.29096198028933
 31
0.0
  0
ARC
  5
43
330
2
100
AcDbEntity
  8
GAIKEI
 62
     1
100
AcDbCircle
 10
-42.8834366753088
 20
35.27244578478235
 30
0.0
 40
1.017582902286256
100
AcDbArc
 50
91.00368194614475
 51
179.0203498379914
  0
LINE
  5
44
330
2
100
AcDbEntity
  8
GAIKEI
100
AcDbLine
 10
-42.97073495750679
 20
36.35976554864453
 30
0.0
 11
-1.970269639696681
 21
36.35976554864456
 31
0.0
  0
LINE
  5
45
330
2
100
AcDbEntity
  8
GAIKEI
 62
     1
100
AcDbLine
 10
-42.90126132770391
 20
36.28987256091531
 30
0.0
 11
-2.039743269495545
 21
36.28987256091531
 31
0.0
  0
ARC
  5
46
330
2
100
AcDbEntity
  8
GAIKEI
 62
     1
100
AcDbCircle
 10
-42.89312511105378
 20
35.27792357551522
 30
0.0
 40
0.8075204078129122
100
AcDbArc
 50
90.57729657166783
 51
179.1542044106526
  0
LINE
  5
47
330
2
100
AcDbEntity
  8
GAIKEI
 62
     1
100
AcDbLine
 10
-42.90126132770391
 20
36.08540299383677
 30
0.0
 11
-2.039743269492788
 21
36.08540299383674
 31
0.0
  0
CIRCLE
  5
48
330
2
100
AcDbEntity
  8
GAIKEI
 62
     1
100
AcDbCircle
 10
-42.76875185868449
 20
6.310362553860954
 30
0.0
 40
0.0742658896621237
  0
CIRCLE
  5
49
330
2
100
AcDbEntity
  8
GAIKEI
 62
     1
100
AcDbCircle
 10
-42.4702135849012
 20
6.310362553860954
 30
0.0
 40
0.0742658896621237
  0
CIRCLE
  5
4A
330
2
100
AcDbEntity
  8
GAIKEI
 62
     1
100
AcDbCircle
 10
-42.1716753111179
 20
6.310362553860954
 30
0.0
 40
0.0742658896621237
  0
CIRCLE
  5
4B
330
2
100
AcDbEntity
  8
GAIKEI
 62
     1
100
AcDbCircle
 10
-41.87313703733461
 20
6.310362553860954
 30
0.0
 40
0.0742658896621237
  0
CIRCLE
  5
4C
330
2
100
AcDbEntity
  8
GAIKEI
 62
     1
100
AcDbCircle
 10
-41.27606048976803
 20
6.310362553860954
 30
0.0
 40
0.0742658896621237
  0
CIRCLE
  5
4D
330
2
100
AcDbEntity
  8
GAIKEI
 62
     1
100
AcDbCircle
 10
-41.57459876355132
 20
6.310362553860954
 30
0.0
 40
0.0742658896621237
  0
CIRCLE
  5
4E
330
2
100
AcDbEntity
  8
GAIKEI
 62
     1
100
AcDbCircle
 10
-40.97752221598473
 20
6.310362553860954
 30
0.0
 40
0.0742658896621237
  0
CIRCLE
  5
4F
330
2
100
AcDbEntity
  8
GAIKEI
 62
     1
100
AcDbCircle
 10
-42.76875185868449
 20
6.608562399438824
 30
0.0
 40
0.0742658896621237
  0
CIRCLE
  5
50
330
2
100
AcDbEntity
  8
GAIKEI
 62
     1
100
AcDbCircle
 10
-42.76875185868449
 20
6.906762245016693
 30
0.0
 40
0.0742658896621237
  0
CIRCLE
  5
51
330
2
100
AcDbEntity
  8
GAIKEI
 62
     1
100
AcDbCircle
 10
-42.76875185868449
 20
7.50316193617246
 30
0.0
 40
0.0742658896621237
  0
CIRCLE
  5
52
330
2
100
AcDbEntity
  8
GAIKEI
 62
     1
100
AcDbCircle
 10
-42.76875185868449
 20
7.204962090594591
 30
0.0
 40
0.0742658896621237
  0
CIRCLE
  5
53
330
2
100
AcDbEntity
  8
GAIKEI
 62
     1
100
AcDbCircle
 10
-42.76875185868449
 20
7.801361781750358
 30
0.0
 40
0.0742658896621237
  0
CIRCLE
  5
54
330
2
100
AcDbEntity
  8
GAIKEI
 62
     1
100
AcDbCircle
 10
-42.76875185868449
 20
8.099561627328228
 30
0.0
 40
0.0742658896621237
  0
CIRCLE
  5
55
330
2
100
AcDbEntity
  8
GAIKEI
 62
     1
100
AcDbCircle
 10
-40.97752221598473
 20
6.608562399438824
 30
0.0
 40
0.0742658896621237
  0
CIRCLE
  5
56
330
2
100
AcDbEntity
  8
GAIKEI
 62
     1
100
AcDbCircle
 10
-41.57459876355132
 20
6.608562399438824
 30
0.0
 40
0.0742658896621237
  0
CIRCLE
  5
57
330
2
100
AcDbEntity
  8
GAIKEI
 62
     1
100
AcDbCircle
 10
-41.27606048976803
 20
6.608562399438824
 30
0.0
 40
0.0742658896621237
  0
CIRCLE
  5
58
330
2
100
AcDbEntity
  8
GAIKEI
 62
     1
100
AcDbCircle
 10
-41.87313703733461
 20
6.608562399438824
 30
0.0
 40
0.0742658896621237
  0
CIRCLE
  5
59
330
2
100
AcDbEntity
  8
GAIKEI
 62
     1
100
AcDbCircle
 10
-42.1716753111179
 20
6.608562399438824
 30
0.0
 40
0.0742658896621237
  0
CIRCLE
  5
5A
330
2
100
AcDbEntity
  8
GAIKEI
 62
     1
100
AcDbCircle
 10
-42.4702135849012
 20
6.608562399438824
 30
0.0
 40
0.0742658896621237
  0
CIRCLE
  5
5B
330
2
100
AcDbEntity
  8
GAIKEI
 62
     1
100
AcDbCircle
 10
-42.4702135849012
 20
7.204962090594591
 30
0.0
 40
0.0742658896621237
  0
CIRCLE
  5
5C
330
2
100
AcDbEntity
  8
GAIKEI
 62
     1
100
AcDbCircle
 10
-42.1716753111179
 20
7.204962090594591
 30
0.0
 40
0.0742658896621237
  0
CIRCLE
  5
5D
330
2
100
AcDbEntity
  8
GAIKEI
 62
     1
100
AcDbCircle
 10
-41.87313703733461
 20
7.204962090594591
 30
0.0
 40
0.0742658896621237
  0
CIRCLE
  5
5E
330
2
100
AcDbEntity
  8
GAIKEI
 62
     1
100
AcDbCircle
 10
-41.27606048976803
 20
7.204962090594591
 30
0.0
 40
0.0742658896621237
  0
CIRCLE
  5
5F
330
2
100
AcDbEntity
  8
GAIKEI
 62
     1
100
AcDbCircle
 10
-41.57459876355132
 20
7.204962090594591
 30
0.0
 40
0.0742658896621237
  0
CIRCLE
  5
60
330
2
100
AcDbEntity
  8
GAIKEI
 62
     1
100
AcDbCircle
 10
-40.97752221598473
 20
7.204962090594591
 30
0.0
 40
0.0742658896621237
  0
CIRCLE
  5
61
330
2
100
AcDbEntity
  8
GAIKEI
 62
     1
100
AcDbCircle
 10
-40.97752221598473
 20
6.906762245016693
 30
0.0
 40
0.0742658896621237
  0
CIRCLE
  5
62
330
2
100
AcDbEntity
  8
GAIKEI
 62
     1
100
AcDbCircle
 10
-41.57459876355132
 20
6.906762245016693
 30
0.0
 40
0.0742658896621237
  0
CIRCLE
  5
63
330
2
100
AcDbEntity
  8
GAIKEI
 62
     1
100
AcDbCircle
 10
-41.27606048976803
 20
6.906762245016693
 30
0.0
 40
0.0742658896621237
  0
CIRCLE
  5
64
330
2
100
AcDbEntity
  8
GAIKEI
 62
     1
100
AcDbCircle
 10
-41.87313703733461
 20
6.906762245016693
 30
0.0
 40
0.0742658896621237
  0
CIRCLE
  5
65
330
2
100
AcDbEntity
  8
GAIKEI
 62
     1
100
AcDbCircle
 10
-42.1716753111179
 20
6.906762245016693
 30
0.0
 40
0.0742658896621237
  0
CIRCLE
  5
66
330
2
100
AcDbEntity
  8
GAIKEI
 62
     1
100
AcDbCircle
 10
-42.4702135849012
 20
6.906762245016693
 30
0.0
 40
0.0742658896621237
  0
CIRCLE
  5
67
330
2
100
AcDbEntity
  8
GAIKEI
 62
     1
100
AcDbCircle
 10
-42.4702135849012
 20
7.801361781750358
 30
0.0
 40
0.0742658896621237
  0
CIRCLE
  5
68
330
2
100
AcDbEntity
  8
GAIKEI
 62
     1
100
AcDbCircle
 10
-42.1716753111179
 20
7.801361781750358
 30
0.0
 40
0.0742658896621237
  0
CIRCLE
  5
69
330
2
100
AcDbEntity
  8
GAIKEI
 62
     1
100
AcDbCircle
 10
-41.87313703733461
 20
7.801361781750358
 30
0.0
 40
0.0742658896621237
  0
CIRCLE
  5
6A
330
2
100
AcDbEntity
  8
GAIKEI
 62
     1
100
AcDbCircle
 10
-41.27606048976803
 20
7.801361781750358
 30
0.0
 40
0.0742658896621237
  0
CIRCLE
  5
6B
330
2
100
AcDbEntity
  8
GAIKEI
 62
     1
100
AcDbCircle
 10
-41.57459876355132
 20
7.801361781750358
 30
0.0
 40
0.0742658896621237
  0
CIRCLE
  5
6C
330
2
100
AcDbEntity
  8
GAIKEI
 62
     1
100
AcDbCircle
 10
-40.97752221598473
 20
7.801361781750358
 30
0.0
 40
0.0742658896621237
  0
CIRCLE
  5
6D
330
2
100
AcDbEntity
  8
GAIKEI
 62
     1
100
AcDbCircle
 10
-40.97752221598473
 20
8.099561627328228
 30
0.0
 40
0.0742658896621237
  0
CIRCLE
  5
6E
330
2
100
AcDbEntity
  8
GAIKEI
 62
     1
100
AcDbCircle
 10
-41.57459876355132
 20
8.099561627328228
 30
0.0
 40
0.0742658896621237
  0
CIRCLE
  5
6F
330
2
100
AcDbEntity
  8
GAIKEI
 62
     1
100
AcDbCircle
 10
-41.27606048976803
 20
8.099561627328228
 30
0.0
 40
0.0742658896621237
  0
CIRCLE
  5
70
330
2
100
AcDbEntity
  8
GAIKEI
 62
     1
100
AcDbCircle
 10
-41.87313703733461
 20
8.099561627328228
 30
0.0
 40
0.0742658896621237
  0
CIRCLE
  5
71
330
2
100
AcDbEntity
  8
GAIKEI
 62
     1
100
AcDbCircle
 10
-42.1716753111179
 20
8.099561627328228
 30
0.0
 40
0.0742658896621237
  0
CIRCLE
  5
72
330
2
100
AcDbEntity
  8
GAIKEI
 62
     1
100
AcDbCircle
 10
-42.4702135849012
 20
8.099561627328228
 30
0.0
 40
0.0742658896621237
  0
CIRCLE
  5
73
330
2
100
AcDbEntity
  8
GAIKEI
 62
     1
100
AcDbCircle
 10
-42.4702135849012
 20
7.50316193617246
 30
0.0
 40
0.0742658896621237
  0
CIRCLE
  5
74
330
2
100
AcDbEntity
  8
GAIKEI
 62
     1
100
AcDbCircle
 10
-42.1716753111179
 20
7.50316193617246
 30
0.0
 40
0.0742658896621237
  0
CIRCLE
  5
75
330
2
100
AcDbEntity
  8
GAIKEI
 62
     1
100
AcDbCircle
 10
-41.87313703733461
 20
7.50316193617246
 30
0.0
 40
0.0742658896621237
  0
CIRCLE
  5
76
330
2
100
AcDbEntity
  8
GAIKEI
 62
     1
100
AcDbCircle
 10
-41.27606048976803
 20
7.50316193617246
 30
0.0
 40
0.0742658896621237
  0
CIRCLE
  5
77
330
2
100
AcDbEntity
  8
GAIKEI
 62
     1
100
AcDbCircle
 10
-41.57459876355132
 20
7.50316193617246
 30
0.0
 40
0.0742658896621237
  0
CIRCLE
  5
78
330
2
100
AcDbEntity
  8
GAIKEI
 62
     1
100
AcDbCircle
 10
-40.97752221598473
 20
7.50316193617246
 30
0.0
 40
0.0742658896621237
  0
CIRCLE
  5
79
330
2
100
AcDbEntity
  8
GAIKEI
 62
     1
100
AcDbCircle
 10
-39.06881570548272
 20
8.259583867133102
 30
0.0
 40
0.1242095638578109
  0
LINE
  5
7A
330
2
100
AcDbEntity
  8
GAIKEI
 62
     1
100
AcDbLine
 10
-38.2951736503728
 20
6.48467687366633
 30
0.0
 11
-37.64502907851561
 21
6.48467687366633
 31
0.0
  0
LINE
  5
7B
330
2
100
AcDbEntity
  8
GAIKEI
 62
     1
100
AcDbLine
 10
-38.69482175420852
 20
6.883905619575642
 30
0.0
 11
-38.69482175420852
 21
7.534749121310142
 31
0.0
  0
LINE
  5
7C
330
2
100
AcDbEntity
  8
GAIKEI
 62
     1
100
AcDbLine
 10
-37.24510140272899
 20
6.883905619575642
 30
0.0
 11
-37.24510140272899
 21
7.534749121310142
 31
0.0
  0
LINE
  5
7D
330
2
100
AcDbEntity
  8
GAIKEI
 62
     1
100
AcDbLine
 10
-38.2951736503728
 20
7.934537011121307
 30
0.0
 11
-37.64502907851561
 21
7.934537011121307
 31
0.0
  0
ARC
  5
7E
330
2
100
AcDbEntity
  8
GAIKEI
 62
     1
100
AcDbCircle
 10
-38.29526612836763
 20
6.884232622617474
 30
0.0
 40
0.3995557596532463
100
AcDbArc
 50
180.0468918187839
 51
270.0132612250511
  0
ARC
  5
7F
330
2
100
AcDbEntity
  8
GAIKEI
 62
     1
100
AcDbCircle
 10
-38.29478883777081
 20
7.534504204795325
 30
0.0
 40
0.4000329914116412
100
AcDbArc
 50
90.05511580762609
 51
179.9649211844751
  0
ARC
  5
80
330
2
100
AcDbEntity
  8
GAIKEI
 62
     1
100
AcDbCircle
 10
-37.64537316370631
 20
7.534265105396428
 30
0.0
 40
0.4002720536175772
100
AcDbArc
 50
0.0692830678063046
 51
89.95074691957299
  0
ARC
  5
81
330
2
100
AcDbEntity
  8
GAIKEI
 62
     1
100
AcDbCircle
 10
-37.64489593131195
 20
6.884471780956801
 30
0.0
 40
0.3997949294620575
100
AcDbArc
 50
269.9809182848452
 51
359.9188617310648
  0
LINE
  5
82
330
2
100
AcDbEntity
  8
GAIKEI
 62
     1
100
AcDbLine
 10
-34.29533774860498
 20
6.734055053884219
 30
0.0
 11
-33.54524620429497
 21
6.734055053884219
 31
0.0
  0
LINE
  5
83
330
2
100
AcDbEntity
  8
GAIKEI
 62
     1
100
AcDbLine
 10
-34.29533774860498
 20
7.684599687001593
 30
0.0
 11
-33.54524620429497
 21
7.684599687001593
 31
0.0
  0
LINE
  5
84
330
2
100
AcDbEntity
  8
GAIKEI
 62
     1
100
AcDbLine
 10
-34.39514493508229
 20
7.58451292857336
 30
0.0
 11
-34.39514493508229
 21
6.834141812312452
 31
0.0
  0
LINE
  5
85
330
2
100
AcDbEntity
  8
GAIKEI
 62
     1
100
AcDbLine
 10
-33.44557880379311
 20
7.58451292857336
 30
0.0
 11
-33.44557880379311
 21
6.834141812312452
 31
0.0
  0
ARC
  5
86
330
2
100
AcDbEntity
  8
GAIKEI
 62
     1
100
AcDbCircle
 10
-34.29494981972879
 20
6.834249476101064
 30
0.0
 40
0.1001951731980261
100
AcDbArc
 50
180.0615666571966
 51
269.7781655325486
  0
ARC
  5
87
330
2
100
AcDbEntity
  8
GAIKEI
 62
     1
100
AcDbCircle
 10
-34.2953079657237
 20
7.58476241037178
 30
0.0
 40
0.0998372810721322
100
AcDbArc
 50
90.01709214639872
 51
180.1431756638193
  0
ARC
  5
88
330
2
100
AcDbEntity
  8
GAIKEI
 62
     1
100
AcDbCircle
 10
-33.54547607897949
 20
7.584702496434147
 30
0.0
 40
0.0998974550508701
100
AcDbArc
 50
359.8912740583058
 51
89.86815619220182
  0
ARC
  5
89
330
2
100
AcDbEntity
  8
GAIKEI
 62
     1
100
AcDbCircle
 10
-33.54583571310123
 20
6.83431037172653
 30
0.0
 40
0.1002570510053988
100
AcDbArc
 50
270.3368996083585
 51
359.9036701411275
  0
CIRCLE
  5
8A
330
2
100
AcDbEntity
  8
GAIKEI
 62
     1
100
AcDbCircle
 10
-34.26970637108472
 20
8.25731399844696
 30
0.0
 40
0.1248901004235352
  0
CIRCLE
  5
8B
330
2
100
AcDbEntity
  8
GAIKEI
 62
     1
100
AcDbCircle
 10
-32.86988961284386
 20
8.25731399844696
 30
0.0
 40
0.1248901004235352
  0
ARC
  5
8C
330
2
100
AcDbEntity
  8
GAIKEI
 62
     1
100
AcDbCircle
 10
-32.1460189548604
 20
6.83431037172653
 30
0.0
 40
0.1002570510053988
100
AcDbArc
 50
270.3368996083585
 51
359.9036701411275
  0
ARC
  5
8D
330
2
100
AcDbEntity
  8
GAIKEI
 62
     1
100
AcDbCircle
 10
-32.14565932073866
 20
7.584702496434147
 30
0.0
 40
0.0998974550508701
100
AcDbArc
 50
359.8912740583058
 51
89.86815619220182
  0
ARC
  5
8E
330
2
100
AcDbEntity
  8
GAIKEI
 62
     1
100
AcDbCircle
 10
-32.89549120748286
 20
7.58476241037178
 30
0.0
 40
0.0998372810721322
100
AcDbArc
 50
90.01709214639872
 51
180.1431756638193
  0
ARC
  5
8F
330
2
100
AcDbEntity
  8
GAIKEI
 62
     1
100
AcDbCircle
 10
-32.89513306148796
 20
6.834249476101064
 30
0.0
 40
0.1001951731980261
100
AcDbArc
 50
180.0615666571966
 51
269.7781655325486
  0
LINE
  5
90
330
2
100
AcDbEntity
  8
GAIKEI
 62
     1
100
AcDbLine
 10
-32.04576204555228
 20
7.58451292857336
 30
0.0
 11
-32.04576204555228
 21
6.834141812312452
 31
0.0
  0
LINE
  5
91
330
2
100
AcDbEntity
  8
GAIKEI
 62
     1
100
AcDbLine
 10
-32.99532817684145
 20
7.58451292857336
 30
0.0
 11
-32.99532817684145
 21
6.834141812312452
 31
0.0
  0
LINE
  5
92
330
2
100
AcDbEntity
  8
GAIKEI
 62
     1
100
AcDbLine
 10
-32.89552099036415
 20
7.684599687001593
 30
0.0
 11
-32.14542944605414
 21
7.684599687001593
 31
0.0
  0
LINE
  5
93
330
2
100
AcDbEntity
  8
GAIKEI
 62
     1
100
AcDbLine
 10
-32.89552099036415
 20
6.734055053884219
 30
0.0
 11
-32.14542944605414
 21
6.734055053884219
 31
0.0
  0
CIRCLE
  5
94
330
2
100
AcDbEntity
  8
GAIKEI
 62
     1
100
AcDbCircle
 10
-31.47021264057848
 20
8.25731399844696
 30
0.0
 40
0.1248901004235352
  0
ARC
  5
95
330
2
100
AcDbEntity
  8
GAIKEI
 62
     1
100
AcDbCircle
 10
-30.74634198259501
 20
6.83431037172653
 30
0.0
 40
0.1002570510053988
100
AcDbArc
 50
270.3368996083585
 51
359.9036701411275
  0
ARC
  5
96
330
2
100
AcDbEntity
  8
GAIKEI
 62
     1
100
AcDbCircle
 10
-30.74598234847328
 20
7.584702496434147
 30
0.0
 40
0.0998974550508701
100
AcDbArc
 50
359.8912740583058
 51
89.86815619220182
  0
ARC
  5
97
330
2
100
AcDbEntity
  8
GAIKEI
 62
     1
100
AcDbCircle
 10
-31.49581423521748
 20
7.58476241037178
 30
0.0
 40
0.0998372810721322
100
AcDbArc
 50
90.01709214639872
 51
180.1431756638193
  0
ARC
  5
98
330
2
100
AcDbEntity
  8
GAIKEI
 62
     1
100
AcDbCircle
 10
-31.4954560892226
 20
6.834249476101064
 30
0.0
 40
0.1001951731980261
100
AcDbArc
 50
180.0615666571966
 51
269.7781655325486
  0
LINE
  5
99
330
2
100
AcDbEntity
  8
GAIKEI
 62
     1
100
AcDbLine
 10
-30.6460850732869
 20
7.58451292857336
 30
0.0
 11
-30.6460850732869
 21
6.834141812312452
 31
0.0
  0
LINE
  5
9A
330
2
100
AcDbEntity
  8
GAIKEI
 62
     1
100
AcDbLine
 10
-31.59565120457607
 20
7.58451292857336
 30
0.0
 11
-31.59565120457607
 21
6.834141812312452
 31
0.0
  0
LINE
  5
9B
330
2
100
AcDbEntity
  8
GAIKEI
 62
     1
100
AcDbLine
 10
-31.49584401809877
 20
7.684599687001593
 30
0.0
 11
-30.74575247378878
 21
7.684599687001593
 31
0.0
  0
LINE
  5
9C
330
2
100
AcDbEntity
  8
GAIKEI
 62
     1
100
AcDbLine
 10
-31.49584401809877
 20
6.734055053884219
 30
0.0
 11
-30.74575247378878
 21
6.734055053884219
 31
0.0
  0
CIRCLE
  5
9D
330
2
100
AcDbEntity
  8
GAIKEI
 62
     1
100
AcDbCircle
 10
-30.06941738050948
 20
8.25731399844696
 30
0.0
 40
0.1248901004235352
  0
ARC
  5
9E
330
2
100
AcDbEntity
  8
GAIKEI
 62
     1
100
AcDbCircle
 10
-29.34554672252601
 20
6.83431037172653
 30
0.0
 40
0.1002570510053988
100
AcDbArc
 50
270.3368996083585
 51
359.9036701411275
  0
ARC
  5
9F
330
2
100
AcDbEntity
  8
GAIKEI
 62
     1
100
AcDbCircle
 10
-29.34518708840425
 20
7.584702496434147
 30
0.0
 40
0.0998974550508701
100
AcDbArc
 50
359.8912740583058
 51
89.86815619220182
  0
ARC
  5
A0
330
2
100
AcDbEntity
  8
GAIKEI
 62
     1
100
AcDbCircle
 10
-30.09501897514848
 20
7.58476241037178
 30
0.0
 40
0.0998372810721322
100
AcDbArc
 50
90.01709214639872
 51
180.1431756638193
  0
ARC
  5
A1
330
2
100
AcDbEntity
  8
GAIKEI
 62
     1
100
AcDbCircle
 10
-30.09466082915354
 20
6.834249476101064
 30
0.0
 40
0.1001951731980261
100
AcDbArc
 50
180.0615666571966
 51
269.7781655325486
  0
LINE
  5
A2
330
2
100
AcDbEntity
  8
GAIKEI
 62
     1
100
AcDbLine
 10
-29.24528981321787
 20
7.58451292857336
 30
0.0
 11
-29.24528981321787
 21
6.834141812312452
 31
0.0
  0
LINE
  5
A3
330
2
100
AcDbEntity
  8
GAIKEI
 62
     1
100
AcDbLine
 10
-30.19485594450707
 20
7.58451292857336
 30
0.0
 11
-30.19485594450707
 21
6.834141812312452
 31
0.0
  0
LINE
  5
A4
330
2
100
AcDbEntity
  8
GAIKEI
 62
     1
100
AcDbLine
 10
-30.09504875802973
 20
7.684599687001593
 30
0.0
 11
-29.34495721371972
 21
7.684599687001593
 31
0.0
  0
LINE
  5
A5
330
2
100
AcDbEntity
  8
GAIKEI
 62
     1
100
AcDbLine
 10
-30.09504875802973
 20
6.734055053884219
 30
0.0
 11
-29.34495721371972
 21
6.734055053884219
 31
0.0
  0
CIRCLE
  5
A6
330
2
100
AcDbEntity
  8
GAIKEI
 62
     1
100
AcDbCircle
 10
-28.67015976617044
 20
8.25731399844696
 30
0.0
 40
0.1248901004235352
  0
ARC
  5
A7
330
2
100
AcDbEntity
  8
GAIKEI
 62
     1
100
AcDbCircle
 10
-27.94628910818698
 20
6.83431037172653
 30
0.0
 40
0.1002570510053988
100
AcDbArc
 50
270.3368996083585
 51
359.9036701411275
  0
ARC
  5
A8
330
2
100
AcDbEntity
  8
GAIKEI
 62
     1
100
AcDbCircle
 10
-27.94592947406521
 20
7.584702496434147
 30
0.0
 40
0.0998974550508701
100
AcDbArc
 50
359.8912740583058
 51
89.86815619220182
  0
ARC
  5
A9
330
2
100
AcDbEntity
  8
GAIKEI
 62
     1
100
AcDbCircle
 10
-28.69576136080944
 20
7.58476241037178
 30
0.0
 40
0.0998372810721322
100
AcDbArc
 50
90.01709214639872
 51
180.1431756638193
  0
ARC
  5
AA
330
2
100
AcDbEntity
  8
GAIKEI
 62
     1
100
AcDbCircle
 10
-28.69540321481454
 20
6.834249476101064
 30
0.0
 40
0.1001951731980261
100
AcDbArc
 50
180.0615666571966
 51
269.7781655325486
  0
LINE
  5
AB
330
2
100
AcDbEntity
  8
GAIKEI
 62
     1
100
AcDbLine
 10
-27.84603219887883
 20
7.58451292857336
 30
0.0
 11
-27.84603219887883
 21
6.834141812312452
 31
0.0
  0
LINE
  5
AC
330
2
100
AcDbEntity
  8
GAIKEI
 62
     1
100
AcDbLine
 10
-28.79559833016804
 20
7.58451292857336
 30
0.0
 11
-28.79559833016804
 21
6.834141812312452
 31
0.0
  0
LINE
  5
AD
330
2
100
AcDbEntity
  8
GAIKEI
 62
     1
100
AcDbLine
 10
-28.6957911436907
 20
7.684599687001593
 30
0.0
 11
-27.94569959938069
 21
7.684599687001593
 31
0.0
  0
LINE
  5
AE
330
2
100
AcDbEntity
  8
GAIKEI
 62
     1
100
AcDbLine
 10
-28.6957911436907
 20
6.734055053884219
 30
0.0
 11
-27.94569959938069
 21
6.734055053884219
 31
0.0
  0
ARC
  5
AF
330
2
100
AcDbEntity
  8
GAIKEI
 62
     1
100
AcDbCircle
 10
-25.3959133438741
 20
6.83431037172653
 30
0.0
 40
0.1002570510053988
100
AcDbArc
 50
270.3368996083585
 51
359.9036701411275
  0
ARC
  5
B0
330
2
100
AcDbEntity
  8
GAIKEI
 62
     1
100
AcDbCircle
 10
-25.39555370975234
 20
7.584702496434147
 30
0.0
 40
0.0998974550508701
100
AcDbArc
 50
359.8912740583058
 51
89.86815619220182
  0
ARC
  5
B1
330
2
100
AcDbEntity
  8
GAIKEI
 62
     1
100
AcDbCircle
 10
-26.14538559649657
 20
7.58476241037178
 30
0.0
 40
0.0998372810721322
100
AcDbArc
 50
90.01709214639872
 51
180.1431756638193
  0
ARC
  5
B2
330
2
100
AcDbEntity
  8
GAIKEI
 62
     1
100
AcDbCircle
 10
-26.14502745050166
 20
6.834249476101064
 30
0.0
 40
0.1001951731980261
100
AcDbArc
 50
180.0615666571966
 51
269.7781655325486
  0
LINE
  5
B3
330
2
100
AcDbEntity
  8
GAIKEI
 62
     1
100
AcDbLine
 10
-25.29565643456596
 20
7.58451292857336
 30
0.0
 11
-25.29565643456596
 21
6.834141812312452
 31
0.0
  0
LINE
  5
B4
330
2
100
AcDbEntity
  8
GAIKEI
 62
     1
100
AcDbLine
 10
-26.24522256585516
 20
7.58451292857336
 30
0.0
 11
-26.24522256585516
 21
6.834141812312452
 31
0.0
  0
LINE
  5
B5
330
2
100
AcDbEntity
  8
GAIKEI
 62
     1
100
AcDbLine
 10
-26.14541537937782
 20
7.684599687001593
 30
0.0
 11
-25.39532383506781
 21
7.684599687001593
 31
0.0
  0
LINE
  5
B6
330
2
100
AcDbEntity
  8
GAIKEI
 62
     1
100
AcDbLine
 10
-26.14541537937782
 20
6.734055053884219
 30
0.0
 11
-25.39532383506781
 21
6.734055053884219
 31
0.0
  0
ARC
  5
B7
330
2
100
AcDbEntity
  8
GAIKEI
 62
     1
100
AcDbCircle
 10
-23.99511808380504
 20
6.83431037172653
 30
0.0
 40
0.1002570510053988
100
AcDbArc
 50
270.3368996083585
 51
359.9036701411275
  0
ARC
  5
B8
330
2
100
AcDbEntity
  8
GAIKEI
 62
     1
100
AcDbCircle
 10
-23.9947584496833
 20
7.584702496434147
 30
0.0
 40
0.0998974550508701
100
AcDbArc
 50
359.8912740583058
 51
89.86815619220182
  0
ARC
  5
B9
330
2
100
AcDbEntity
  8
GAIKEI
 62
     1
100
AcDbCircle
 10
-24.74459033642751
 20
7.58476241037178
 30
0.0
 40
0.0998372810721322
100
AcDbArc
 50
90.01709214639872
 51
180.1431756638193
  0
ARC
  5
BA
330
2
100
AcDbEntity
  8
GAIKEI
 62
     1
100
AcDbCircle
 10
-24.7442321904326
 20
6.834249476101064
 30
0.0
 40
0.1001951731980261
100
AcDbArc
 50
180.0615666571966
 51
269.7781655325486
  0
LINE
  5
BB
330
2
100
AcDbEntity
  8
GAIKEI
 62
     1
100
AcDbLine
 10
-23.8948611744969
 20
7.58451292857336
 30
0.0
 11
-23.8948611744969
 21
6.834141812312452
 31
0.0
  0
LINE
  5
BC
330
2
100
AcDbEntity
  8
GAIKEI
 62
     1
100
AcDbLine
 10
-24.8444273057861
 20
7.58451292857336
 30
0.0
 11
-24.8444273057861
 21
6.834141812312452
 31
0.0
  0
LINE
  5
BD
330
2
100
AcDbEntity
  8
GAIKEI
 62
     1
100
AcDbLine
 10
-24.74462011930879
 20
7.684599687001593
 30
0.0
 11
-23.99452857499878
 21
7.684599687001593
 31
0.0
  0
LINE
  5
BE
330
2
100
AcDbEntity
  8
GAIKEI
 62
     1
100
AcDbLine
 10
-24.74462011930879
 20
6.734055053884219
 30
0.0
 11
-23.99452857499878
 21
6.734055053884219
 31
0.0
  0
ARC
  5
BF
330
2
100
AcDbEntity
  8
GAIKEI
 62
     1
100
AcDbCircle
 10
-22.59544111153966
 20
6.83431037172653
 30
0.0
 40
0.1002570510053988
100
AcDbArc
 50
270.3368996083585
 51
359.9036701411275
  0
ARC
  5
C0
330
2
100
AcDbEntity
  8
GAIKEI
 62
     1
100
AcDbCircle
 10
-22.59508147741792
 20
7.584702496434147
 30
0.0
 40
0.0998974550508701
100
AcDbArc
 50
359.8912740583058
 51
89.86815619220182
  0
ARC
  5
C1
330
2
100
AcDbEntity
  8
GAIKEI
 62
     1
100
AcDbCircle
 10
-23.34491336416212
 20
7.58476241037178
 30
0.0
 40
0.0998372810721322
100
AcDbArc
 50
90.01709214639872
 51
180.1431756638193
  0
ARC
  5
C2
330
2
100
AcDbEntity
  8
GAIKEI
 62
     1
100
AcDbCircle
 10
-23.34455521816722
 20
6.834249476101064
 30
0.0
 40
0.1001951731980261
100
AcDbArc
 50
180.0615666571966
 51
269.7781655325486
  0
LINE
  5
C3
330
2
100
AcDbEntity
  8
GAIKEI
 62
     1
100
AcDbLine
 10
-22.49518420223154
 20
7.58451292857336
 30
0.0
 11
-22.49518420223154
 21
6.834141812312452
 31
0.0
  0
LINE
  5
C4
330
2
100
AcDbEntity
  8
GAIKEI
 62
     1
100
AcDbLine
 10
-23.44475033352072
 20
7.58451292857336
 30
0.0
 11
-23.44475033352072
 21
6.834141812312452
 31
0.0
  0
LINE
  5
C5
330
2
100
AcDbEntity
  8
GAIKEI
 62
     1
100
AcDbLine
 10
-23.34494314704341
 20
7.684599687001593
 30
0.0
 11
-22.5948516027334
 21
7.684599687001593
 31
0.0
  0
LINE
  5
C6
330
2
100
AcDbEntity
  8
GAIKEI
 62
     1
100
AcDbLine
 10
-23.34494314704341
 20
6.734055053884219
 30
0.0
 11
-22.5948516027334
 21
6.734055053884219
 31
0.0
  0
ARC
  5
C7
330
2
100
AcDbEntity
  8
GAIKEI
 62
     1
100
AcDbCircle
 10
-21.19590392524973
 20
6.83431037172653
 30
0.0
 40
0.1002570510053988
100
AcDbArc
 50
270.3368996083585
 51
359.9036701411275
  0
ARC
  5
C8
330
2
100
AcDbEntity
  8
GAIKEI
 62
     1
100
AcDbCircle
 10
-21.19554429112799
 20
7.584702496434147
 30
0.0
 40
0.0998974550508701
100
AcDbArc
 50
359.8912740583058
 51
89.86815619220182
  0
ARC
  5
C9
330
2
100
AcDbEntity
  8
GAIKEI
 62
     1
100
AcDbCircle
 10
-21.94537617787219
 20
7.58476241037178
 30
0.0
 40
0.0998372810721322
100
AcDbArc
 50
90.01709214639872
 51
180.1431756638193
  0
ARC
  5
CA
330
2
100
AcDbEntity
  8
GAIKEI
 62
     1
100
AcDbCircle
 10
-21.94501803187728
 20
6.834249476101064
 30
0.0
 40
0.1001951731980261
100
AcDbArc
 50
180.0615666571966
 51
269.7781655325486
  0
LINE
  5
CB
330
2
100
AcDbEntity
  8
GAIKEI
 62
     1
100
AcDbLine
 10
-21.09564701594161
 20
7.58451292857336
 30
0.0
 11
-21.09564701594161
 21
6.834141812312452
 31
0.0
  0
LINE
  5
CC
330
2
100
AcDbEntity
  8
GAIKEI
 62
     1
100
AcDbLine
 10
-22.04521314723078
 20
7.58451292857336
 30
0.0
 11
-22.04521314723078
 21
6.834141812312452
 31
0.0
  0
LINE
  5
CD
330
2
100
AcDbEntity
  8
GAIKEI
 62
     1
100
AcDbLine
 10
-21.94540596075348
 20
7.684599687001593
 30
0.0
 11
-21.19531441644347
 21
7.684599687001593
 31
0.0
  0
LINE
  5
CE
330
2
100
AcDbEntity
  8
GAIKEI
 62
     1
100
AcDbLine
 10
-21.94540596075348
 20
6.734055053884219
 30
0.0
 11
-21.19531441644347
 21
6.734055053884219
 31
0.0
  0
LINE
  5
CF
330
2
100
AcDbEntity
  8
GAIKEI
 62
     1
100
AcDbLine
 10
-19.39543019644057
 20
6.734055053884219
 30
0.0
 11
-18.64533865213056
 21
6.734055053884219
 31
0.0
  0
LINE
  5
D0
330
2
100
AcDbEntity
  8
GAIKEI
 62
     1
100
AcDbLine
 10
-19.39543019644057
 20
7.684599687001593
 30
0.0
 11
-18.64533865213056
 21
7.684599687001593
 31
0.0
  0
LINE
  5
D1
330
2
100
AcDbEntity
  8
GAIKEI
 62
     1
100
AcDbLine
 10
-19.49523738291787
 20
7.58451292857336
 30
0.0
 11
-19.49523738291787
 21
6.834141812312452
 31
0.0
  0
LINE
  5
D2
330
2
100
AcDbEntity
  8
GAIKEI
 62
     1
100
AcDbLine
 10
-18.5456712516287
 20
7.58451292857336
 30
0.0
 11
-18.5456712516287
 21
6.834141812312452
 31
0.0
  0
ARC
  5
D3
330
2
100
AcDbEntity
  8
GAIKEI
 62
     1
100
AcDbCircle
 10
-19.39504226756438
 20
6.834249476101064
 30
0.0
 40
0.1001951731980261
100
AcDbArc
 50
180.0615666571966
 51
269.7781655325486
  0
ARC
  5
D4
330
2
100
AcDbEntity
  8
GAIKEI
 62
     1
100
AcDbCircle
 10
-19.39540041355929
 20
7.58476241037178
 30
0.0
 40
0.0998372810721322
100
AcDbArc
 50
90.01709214639872
 51
180.1431756638193
  0
ARC
  5
D5
330
2
100
AcDbEntity
  8
GAIKEI
 62
     1
100
AcDbCircle
 10
-18.64556852681508
 20
7.584702496434147
 30
0.0
 40
0.0998974550508701
100
AcDbArc
 50
359.8912740583058
 51
89.86815619220182
  0
ARC
  5
D6
330
2
100
AcDbEntity
  8
GAIKEI
 62
     1
100
AcDbCircle
 10
-18.64592816093682
 20
6.83431037172653
 30
0.0
 40
0.1002570510053988
100
AcDbArc
 50
270.3368996083585
 51
359.9036701411275
  0
LINE
  5
D7
330
2
100
AcDbEntity
  8
GAIKEI
 62
     1
100
AcDbLine
 10
-17.99547365222429
 20
6.734055053884219
 30
0.0
 11
-17.24538210791428
 21
6.734055053884219
 31
0.0
  0
LINE
  5
D8
330
2
100
AcDbEntity
  8
GAIKEI
 62
     1
100
AcDbLine
 10
-17.99547365222429
 20
7.684599687001593
 30
0.0
 11
-17.24538210791428
 21
7.684599687001593
 31
0.0
  0
LINE
  5
D9
330
2
100
AcDbEntity
  8
GAIKEI
 62
     1
100
AcDbLine
 10
-18.0952808387016
 20
7.58451292857336
 30
0.0
 11
-18.0952808387016
 21
6.834141812312452
 31
0.0
  0
LINE
  5
DA
330
2
100
AcDbEntity
  8
GAIKEI
 62
     1
100
AcDbLine
 10
-17.14571470741242
 20
7.58451292857336
 30
0.0
 11
-17.14571470741242
 21
6.834141812312452
 31
0.0
  0
ARC
  5
DB
330
2
100
AcDbEntity
  8
GAIKEI
 62
     1
100
AcDbCircle
 10
-17.9950857233481
 20
6.834249476101064
 30
0.0
 40
0.1001951731980261
100
AcDbArc
 50
180.0615666571966
 51
269.7781655325486
  0
ARC
  5
DC
330
2
100
AcDbEntity
  8
GAIKEI
 62
     1
100
AcDbCircle
 10
-17.995443869343
 20
7.58476241037178
 30
0.0
 40
0.0998372810721322
100
AcDbArc
 50
90.01709214639872
 51
180.1431756638193
  0
ARC
  5
DD
330
2
100
AcDbEntity
  8
GAIKEI
 62
     1
100
AcDbCircle
 10
-17.2456119825988
 20
7.584702496434147
 30
0.0
 40
0.0998974550508701
100
AcDbArc
 50
359.8912740583058
 51
89.86815619220182
  0
ARC
  5
DE
330
2
100
AcDbEntity
  8
GAIKEI
 62
     1
100
AcDbCircle
 10
-17.24597161672054
 20
6.83431037172653
 30
0.0
 40
0.1002570510053988
100
AcDbArc
 50
270.3368996083585
 51
359.9036701411275
  0
CIRCLE
  5
DF
330
2
100
AcDbEntity
  8
GAIKEI
 62
     1
100
AcDbCircle
 10
-15.31926961642855
 20
8.25731399844696
 30
0.0
 40
0.1248901004235352
  0
CIRCLE
  5
E0
330
2
100
AcDbEntity
  8
GAIKEI
 62
     1
100
AcDbCircle
 10
-14.96467270773482
 20
7.219288884191541
 30
0.0
 40
0.5701958128354803
  0
CIRCLE
  5
E1
330
2
100
AcDbEntity
  8
GAIKEI
 62
     1
100
AcDbCircle
 10
-14.96467270773482
 20
7.219288884191541
 30
0.0
 40
0.3719303828277546
  0
LINE
  5
E2
330
2
100
AcDbEntity
  8
GAIKEI
  6
Continuous
 62
     1
100
AcDbLine
 10
-14.91991960879139
 20
7.359737080036211
 30
0.0
 11
-14.91991960879139
 21
7.589200979732368
 31
0.0
  0
LINE
  5
E3
330
2
100
AcDbEntity
  8
GAIKEI
  6
Continuous
 62
     1
100
AcDbLine
 10
-15.01998937861589
 20
7.359737080036211
 30
0.0
 11
-14.91991960879139
 21
7.359737080036211
 31
0.0
  0
LINE
  5
E4
330
2
100
AcDbEntity
  8
GAIKEI
  6
Continuous
 62
     1
100
AcDbLine
 10
-15.01998937861589
 20
7.589200979732368
 30
0.0
 11
-15.01998937861589
 21
7.359737080036211
 31
0.0
  0
LINE
  5
E5
330
2
100
AcDbEntity
  8
GAIKEI
  6
Continuous
 62
     1
100
AcDbLine
 10
-15.01998937861589
 20
7.589200979732368
 30
0.0
 11
-14.91991960879139
 21
7.589200979732368
 31
0.0
  0
CIRCLE
  5
E6
330
2
100
AcDbEntity
  8
GAIKEI
 62
     1
100
AcDbCircle
 10
-12.98530753193887
 20
7.219288884191541
 30
0.0
 40
0.3719303828277546
  0
CIRCLE
  5
E7
330
2
100
AcDbEntity
  8
GAIKEI
 62
     1
100
AcDbCircle
 10
-12.98530753193887
 20
7.219288884191541
 30
0.0
 40
0.5701958128354803
  0
CIRCLE
  5
E8
330
2
100
AcDbEntity
  8
GAIKEI
 62
     1
100
AcDbCircle
 10
-13.33990444063261
 20
8.25731399844696
 30
0.0
 40
0.1248901004235352
  0
CIRCLE
  5
E9
330
2
100
AcDbEntity
  8
GAIKEI
 62
     1
100
AcDbCircle
 10
-10.98370278834471
 20
7.219288884191541
 30
0.0
 40
0.3719303828277546
  0
CIRCLE
  5
EA
330
2
100
AcDbEntity
  8
GAIKEI
 62
     1
100
AcDbCircle
 10
-10.98370278834471
 20
7.219288884191541
 30
0.0
 40
0.5701958128354803
  0
CIRCLE
  5
EB
330
2
100
AcDbEntity
  8
GAIKEI
 62
     1
100
AcDbCircle
 10
-11.33829969703842
 20
8.25731399844696
 30
0.0
 40
0.1248901004235352
  0
CIRCLE
  5
EC
330
2
100
AcDbEntity
  8
GAIKEI
 62
     1
100
AcDbCircle
 10
-8.968506052296589
 20
7.219288884191541
 30
0.0
 40
0.3719303828277546
  0
CIRCLE
  5
ED
330
2
100
AcDbEntity
  8
GAIKEI
 62
     1
100
AcDbCircle
 10
-8.968506052296589
 20
7.219288884191541
 30
0.0
 40
0.5701958128354803
  0
CIRCLE
  5
EE
330
2
100
AcDbEntity
  8
GAIKEI
 62
     1
100
AcDbCircle
 10
-9.323102960990297
 20
8.25731399844696
 30
0.0
 40
0.1248901004235352
  0
CIRCLE
  5
EF
330
2
100
AcDbEntity
  8
GAIKEI
 62
     1
100
AcDbCircle
 10
-6.969374199159631
 20
7.219288884191541
 30
0.0
 40
0.3719303828277546
  0
CIRCLE
  5
F0
330
2
100
AcDbEntity
  8
GAIKEI
 62
     1
100
AcDbCircle
 10
-6.969374199159631
 20
7.219288884191541
 30
0.0
 40
0.5701958128354803
  0
LINE
  5
F1
330
2
100
AcDbEntity
  8
GAIKEI
  6
Continuous
 62
     1
100
AcDbLine
 10
-13.04062420281994
 20
7.589200979732368
 30
0.0
 11
-12.94055443299544
 21
7.589200979732368
 31
0.0
  0
LINE
  5
F2
330
2
100
AcDbEntity
  8
GAIKEI
  6
Continuous
 62
     1
100
AcDbLine
 10
-13.04062420281994
 20
7.589200979732368
 30
0.0
 11
-13.04062420281994
 21
7.359737080036211
 31
0.0
  0
LINE
  5
F3
330
2
100
AcDbEntity
  8
GAIKEI
  6
Continuous
 62
     1
100
AcDbLine
 10
-13.04062420281994
 20
7.359737080036211
 30
0.0
 11
-12.94055443299544
 21
7.359737080036211
 31
0.0
  0
LINE
  5
F4
330
2
100
AcDbEntity
  8
GAIKEI
  6
Continuous
 62
     1
100
AcDbLine
 10
-12.94055443299544
 20
7.359737080036211
 30
0.0
 11
-12.94055443299544
 21
7.589200979732368
 31
0.0
  0
LINE
  5
F5
330
2
100
AcDbEntity
  8
GAIKEI
  6
Continuous
 62
     1
100
AcDbLine
 10
-10.93894968940128
 20
7.359737080036211
 30
0.0
 11
-10.93894968940128
 21
7.589200979732368
 31
0.0
  0
LINE
  5
F6
330
2
100
AcDbEntity
  8
GAIKEI
  6
Continuous
 62
     1
100
AcDbLine
 10
-11.03901945922575
 20
7.359737080036211
 30
0.0
 11
-10.93894968940128
 21
7.359737080036211
 31
0.0
  0
LINE
  5
F7
330
2
100
AcDbEntity
  8
GAIKEI
  6
Continuous
 62
     1
100
AcDbLine
 10
-11.03901945922575
 20
7.589200979732368
 30
0.0
 11
-11.03901945922575
 21
7.359737080036211
 31
0.0
  0
LINE
  5
F8
330
2
100
AcDbEntity
  8
GAIKEI
  6
Continuous
 62
     1
100
AcDbLine
 10
-11.03901945922575
 20
7.589200979732368
 30
0.0
 11
-10.93894968940128
 21
7.589200979732368
 31
0.0
  0
LINE
  5
F9
330
2
100
AcDbEntity
  8
GAIKEI
  6
Continuous
 62
     1
100
AcDbLine
 10
-9.023822723177659
 20
7.589200979732368
 30
0.0
 11
-8.923752953353158
 21
7.589200979732368
 31
0.0
  0
LINE
  5
FA
330
2
100
AcDbEntity
  8
GAIKEI
  6
Continuous
 62
     1
100
AcDbLine
 10
-9.023822723177659
 20
7.589200979732368
 30
0.0
 11
-9.023822723177659
 21
7.359737080036211
 31
0.0
  0
LINE
  5
FB
330
2
100
AcDbEntity
  8
GAIKEI
  6
Continuous
 62
     1
100
AcDbLine
 10
-9.023822723177659
 20
7.359737080036211
 30
0.0
 11
-8.923752953353158
 21
7.359737080036211
 31
0.0
  0
LINE
  5
FC
330
2
100
AcDbEntity
  8
GAIKEI
  6
Continuous
 62
     1
100
AcDbLine
 10
-8.923752953353158
 20
7.359737080036211
 30
0.0
 11
-8.923752953353158
 21
7.589200979732368
 31
0.0
  0
LINE
  5
FD
330
2
100
AcDbEntity
  8
GAIKEI
  6
Continuous
 62
     1
100
AcDbLine
 10
-6.924621100216199
 20
7.359737080036211
 30
0.0
 11
-6.924621100216199
 21
7.589200979732368
 31
0.0
  0
LINE
  5
FE
330
2
100
AcDbEntity
  8
GAIKEI
  6
Continuous
 62
     1
100
AcDbLine
 10
-7.0246908700407
 20
7.359737080036211
 30
0.0
 11
-6.924621100216199
 21
7.359737080036211
 31
0.0
  0
LINE
  5
FF
330
2
100
AcDbEntity
  8
GAIKEI
  6
Continuous
 62
     1
100
AcDbLine
 10
-7.0246908700407
 20
7.589200979732368
 30
0.0
 11
-7.0246908700407
 21
7.359737080036211
 31
0.0
  0
LINE
  5
100
330
2
100
AcDbEntity
  8
GAIKEI
  6
Continuous
 62
     1
100
AcDbLine
 10
-7.0246908700407
 20
7.589200979732368
 30
0.0
 11
-6.924621100216199
 21
7.589200979732368
 31
0.0
  0
ARC
  5
101
330
2
100
AcDbEntity
  8
GAIKEI
 62
     1
100
AcDbCircle
 10
-41.23825410938432
 20
11.01793899387945
 30
0.0
 40
0.4301647604812072
100
AcDbArc
 50
180.165251081676
 51
270.9626913659658
  0
LINE
  5
102
330
2
100
AcDbEntity
  8
GAIKEI
 62
     1
100
AcDbLine
 10
-41.23102676350145
 20
10.58783495224378
 30
0.0
 11
-3.70997783369944
 21
10.58783495224381
 31
0.0
  0
LINE
  5
103
330
2
100
AcDbEntity
  8
GAIKEI
 62
     1
100
AcDbLine
 10
-41.05070285516005
 20
10.91996642993308
 30
0.0
 11
-3.89030174203981
 21
10.91996642993305
 31
0.0
  0
LINE
  5
104
330
2
100
AcDbEntity
  8
GAIKEI
 62
     1
100
AcDbLine
 10
-41.05070285516005
 20
10.91996642993308
 30
0.0
 11
-41.05070285516005
 21
33.29996999088888
 31
0.0
  0
LINE
  5
105
330
2
100
AcDbEntity
  8
GAIKEI
 62
     1
100
AcDbLine
 10
-41.66841708071088
 20
11.01669832495028
 30
0.0
 11
-41.66841708071088
 21
33.20323809586935
 31
0.0
  0
LINE
  5
106
330
2
100
AcDbEntity
  8
GAIKEI
 62
     1
100
AcDbLine
 10
-41.05070285516005
 20
33.29996999088888
 30
0.0
 11
-3.89030174203981
 21
33.29996999088894
 31
0.0
  0
LINE
  5
107
330
2
100
AcDbEntity
  8
GAIKEI
 62
     1
100
AcDbLine
 10
-41.23102676350145
 20
33.63210146857816
 30
0.0
 11
-3.709977833697564
 21
33.63210146857819
 31
0.0
  0
ARC
  5
108
330
2
100
AcDbEntity
  8
GAIKEI
 62
     1
100
AcDbCircle
 10
-41.23825410938432
 20
33.20199742694248
 30
0.0
 40
0.4301647604812072
100
AcDbArc
 50
89.03730863403412
 51
179.8347489183239
  0
ARC
  5
109
330
2
100
AcDbEntity
  8
GAIKEI
 62
     1
100
AcDbCircle
 10
-3.702750487815535
 20
11.01793899387945
 30
0.0
 40
0.4301647604812072
100
AcDbArc
 50
269.037308634034
 51
359.834748918324
  0
CIRCLE
  5
10A
330
2
100
AcDbEntity
  8
GAIKEI
 62
     1
100
AcDbCircle
 10
-3.963482381215129
 20
7.50316193617246
 30
0.0
 40
0.0742658896621237
  0
CIRCLE
  5
10B
330
2
100
AcDbEntity
  8
GAIKEI
 62
     1
100
AcDbCircle
 10
-3.366405833648542
 20
7.50316193617246
 30
0.0
 40
0.0742658896621237
  0
CIRCLE
  5
10C
330
2
100
AcDbEntity
  8
GAIKEI
 62
     1
100
AcDbCircle
 10
-3.664944107431836
 20
7.50316193617246
 30
0.0
 40
0.0742658896621237
  0
CIRCLE
  5
10D
330
2
100
AcDbEntity
  8
GAIKEI
 62
     1
100
AcDbCircle
 10
-3.067867559865248
 20
7.50316193617246
 30
0.0
 40
0.0742658896621237
  0
CIRCLE
  5
10E
330
2
100
AcDbEntity
  8
GAIKEI
 62
     1
100
AcDbCircle
 10
-2.769329286081955
 20
7.50316193617246
 30
0.0
 40
0.0742658896621237
  0
CIRCLE
  5
10F
330
2
100
AcDbEntity
  8
GAIKEI
 62
     1
100
AcDbCircle
 10
-2.470791012298661
 20
7.50316193617246
 30
0.0
 40
0.0742658896621237
  0
CIRCLE
  5
110
330
2
100
AcDbEntity
  8
GAIKEI
 62
     1
100
AcDbCircle
 10
-2.470791012298661
 20
8.099561627328228
 30
0.0
 40
0.0742658896621237
  0
CIRCLE
  5
111
330
2
100
AcDbEntity
  8
GAIKEI
 62
     1
100
AcDbCircle
 10
-2.769329286081955
 20
8.099561627328228
 30
0.0
 40
0.0742658896621237
  0
CIRCLE
  5
112
330
2
100
AcDbEntity
  8
GAIKEI
 62
     1
100
AcDbCircle
 10
-3.067867559865248
 20
8.099561627328228
 30
0.0
 40
0.0742658896621237
  0
CIRCLE
  5
113
330
2
100
AcDbEntity
  8
GAIKEI
 62
     1
100
AcDbCircle
 10
-3.664944107431836
 20
8.099561627328228
 30
0.0
 40
0.0742658896621237
  0
CIRCLE
  5
114
330
2
100
AcDbEntity
  8
GAIKEI
 62
     1
100
AcDbCircle
 10
-3.366405833648542
 20
8.099561627328228
 30
0.0
 40
0.0742658896621237
  0
CIRCLE
  5
115
330
2
100
AcDbEntity
  8
GAIKEI
 62
     1
100
AcDbCircle
 10
-3.963482381215129
 20
8.099561627328228
 30
0.0
 40
0.0742658896621237
  0
CIRCLE
  5
116
330
2
100
AcDbEntity
  8
GAIKEI
 62
     1
100
AcDbCircle
 10
-3.963482381215129
 20
7.801361781750358
 30
0.0
 40
0.0742658896621237
  0
CIRCLE
  5
117
330
2
100
AcDbEntity
  8
GAIKEI
 62
     1
100
AcDbCircle
 10
-3.366405833648542
 20
7.801361781750358
 30
0.0
 40
0.0742658896621237
  0
CIRCLE
  5
118
330
2
100
AcDbEntity
  8
GAIKEI
 62
     1
100
AcDbCircle
 10
-3.664944107431836
 20
7.801361781750358
 30
0.0
 40
0.0742658896621237
  0
CIRCLE
  5
119
330
2
100
AcDbEntity
  8
GAIKEI
 62
     1
100
AcDbCircle
 10
-3.067867559865248
 20
7.801361781750358
 30
0.0
 40
0.0742658896621237
  0
CIRCLE
  5
11A
330
2
100
AcDbEntity
  8
GAIKEI
 62
     1
100
AcDbCircle
 10
-2.769329286081955
 20
7.801361781750358
 30
0.0
 40
0.0742658896621237
  0
CIRCLE
  5
11B
330
2
100
AcDbEntity
  8
GAIKEI
 62
     1
100
AcDbCircle
 10
-2.470791012298661
 20
7.801361781750358
 30
0.0
 40
0.0742658896621237
  0
CIRCLE
  5
11C
330
2
100
AcDbEntity
  8
GAIKEI
 62
     1
100
AcDbCircle
 10
-2.470791012298661
 20
6.906762245016693
 30
0.0
 40
0.0742658896621237
  0
CIRCLE
  5
11D
330
2
100
AcDbEntity
  8
GAIKEI
 62
     1
100
AcDbCircle
 10
-2.769329286081955
 20
6.906762245016693
 30
0.0
 40
0.0742658896621237
  0
CIRCLE
  5
11E
330
2
100
AcDbEntity
  8
GAIKEI
 62
     1
100
AcDbCircle
 10
-3.067867559865248
 20
6.906762245016693
 30
0.0
 40
0.0742658896621237
  0
CIRCLE
  5
11F
330
2
100
AcDbEntity
  8
GAIKEI
 62
     1
100
AcDbCircle
 10
-3.664944107431836
 20
6.906762245016693
 30
0.0
 40
0.0742658896621237
  0
CIRCLE
  5
120
330
2
100
AcDbEntity
  8
GAIKEI
 62
     1
100
AcDbCircle
 10
-3.366405833648542
 20
6.906762245016693
 30
0.0
 40
0.0742658896621237
  0
CIRCLE
  5
121
330
2
100
AcDbEntity
  8
GAIKEI
 62
     1
100
AcDbCircle
 10
-3.963482381215129
 20
6.906762245016693
 30
0.0
 40
0.0742658896621237
  0
CIRCLE
  5
122
330
2
100
AcDbEntity
  8
GAIKEI
 62
     1
100
AcDbCircle
 10
-3.963482381215129
 20
7.204962090594591
 30
0.0
 40
0.0742658896621237
  0
CIRCLE
  5
123
330
2
100
AcDbEntity
  8
GAIKEI
 62
     1
100
AcDbCircle
 10
-3.366405833648542
 20
7.204962090594591
 30
0.0
 40
0.0742658896621237
  0
CIRCLE
  5
124
330
2
100
AcDbEntity
  8
GAIKEI
 62
     1
100
AcDbCircle
 10
-3.664944107431836
 20
7.204962090594591
 30
0.0
 40
0.0742658896621237
  0
CIRCLE
  5
125
330
2
100
AcDbEntity
  8
GAIKEI
 62
     1
100
AcDbCircle
 10
-3.067867559865248
 20
7.204962090594591
 30
0.0
 40
0.0742658896621237
  0
CIRCLE
  5
126
330
2
100
AcDbEntity
  8
GAIKEI
 62
     1
100
AcDbCircle
 10
-2.769329286081955
 20
7.204962090594591
 30
0.0
 40
0.0742658896621237
  0
CIRCLE
  5
127
330
2
100
AcDbEntity
  8
GAIKEI
 62
     1
100
AcDbCircle
 10
-2.470791012298661
 20
7.204962090594591
 30
0.0
 40
0.0742658896621237
  0
CIRCLE
  5
128
330
2
100
AcDbEntity
  8
GAIKEI
 62
     1
100
AcDbCircle
 10
-2.470791012298661
 20
6.608562399438824
 30
0.0
 40
0.0742658896621237
  0
CIRCLE
  5
129
330
2
100
AcDbEntity
  8
GAIKEI
 62
     1
100
AcDbCircle
 10
-2.769329286081955
 20
6.608562399438824
 30
0.0
 40
0.0742658896621237
  0
CIRCLE
  5
12A
330
2
100
AcDbEntity
  8
GAIKEI
 62
     1
100
AcDbCircle
 10
-3.067867559865248
 20
6.608562399438824
 30
0.0
 40
0.0742658896621237
  0
CIRCLE
  5
12B
330
2
100
AcDbEntity
  8
GAIKEI
 62
     1
100
AcDbCircle
 10
-3.664944107431836
 20
6.608562399438824
 30
0.0
 40
0.0742658896621237
  0
CIRCLE
  5
12C
330
2
100
AcDbEntity
  8
GAIKEI
 62
     1
100
AcDbCircle
 10
-3.366405833648542
 20
6.608562399438824
 30
0.0
 40
0.0742658896621237
  0
CIRCLE
  5
12D
330
2
100
AcDbEntity
  8
GAIKEI
 62
     1
100
AcDbCircle
 10
-3.963482381215129
 20
6.608562399438824
 30
0.0
 40
0.0742658896621237
  0
CIRCLE
  5
12E
330
2
100
AcDbEntity
  8
GAIKEI
 62
     1
100
AcDbCircle
 10
-2.172252738515396
 20
8.099561627328228
 30
0.0
 40
0.0742658896621237
  0
CIRCLE
  5
12F
330
2
100
AcDbEntity
  8
GAIKEI
 62
     1
100
AcDbCircle
 10
-2.172252738515396
 20
7.801361781750358
 30
0.0
 40
0.0742658896621237
  0
CIRCLE
  5
130
330
2
100
AcDbEntity
  8
GAIKEI
 62
     1
100
AcDbCircle
 10
-2.172252738515396
 20
7.204962090594591
 30
0.0
 40
0.0742658896621237
  0
CIRCLE
  5
131
330
2
100
AcDbEntity
  8
GAIKEI
 62
     1
100
AcDbCircle
 10
-2.172252738515396
 20
7.50316193617246
 30
0.0
 40
0.0742658896621237
  0
CIRCLE
  5
132
330
2
100
AcDbEntity
  8
GAIKEI
 62
     1
100
AcDbCircle
 10
-2.172252738515396
 20
6.906762245016693
 30
0.0
 40
0.0742658896621237
  0
CIRCLE
  5
133
330
2
100
AcDbEntity
  8
GAIKEI
 62
     1
100
AcDbCircle
 10
-2.172252738515396
 20
6.608562399438824
 30
0.0
 40
0.0742658896621237
  0
CIRCLE
  5
134
330
2
100
AcDbEntity
  8
GAIKEI
 62
     1
100
AcDbCircle
 10
-3.963482381215129
 20
6.310362553860954
 30
0.0
 40
0.0742658896621237
  0
CIRCLE
  5
135
330
2
100
AcDbEntity
  8
GAIKEI
 62
     1
100
AcDbCircle
 10
-3.366405833648542
 20
6.310362553860954
 30
0.0
 40
0.0742658896621237
  0
CIRCLE
  5
136
330
2
100
AcDbEntity
  8
GAIKEI
 62
     1
100
AcDbCircle
 10
-3.664944107431836
 20
6.310362553860954
 30
0.0
 40
0.0742658896621237
  0
CIRCLE
  5
137
330
2
100
AcDbEntity
  8
GAIKEI
 62
     1
100
AcDbCircle
 10
-3.067867559865248
 20
6.310362553860954
 30
0.0
 40
0.0742658896621237
  0
CIRCLE
  5
138
330
2
100
AcDbEntity
  8
GAIKEI
 62
     1
100
AcDbCircle
 10
-2.769329286081955
 20
6.310362553860954
 30
0.0
 40
0.0742658896621237
  0
CIRCLE
  5
139
330
2
100
AcDbEntity
  8
GAIKEI
 62
     1
100
AcDbCircle
 10
-2.470791012298661
 20
6.310362553860954
 30
0.0
 40
0.0742658896621237
  0
CIRCLE
  5
13A
330
2
100
AcDbEntity
  8
GAIKEI
 62
     1
100
AcDbCircle
 10
-2.172252738515396
 20
6.310362553860954
 30
0.0
 40
0.0742658896621237
  0
ARC
  5
13B
330
2
100
AcDbEntity
  8
GAIKEI
 62
     1
100
AcDbCircle
 10
-1.516241425057273
 20
9.298791897447046
 30
0.0
 40
0.2285186771532889
100
AcDbArc
 50
264.6289328992867
 51
353.4105391741307
  0
ARC
  5
13C
330
2
100
AcDbEntity
  8
GAIKEI
 62
     1
100
AcDbCircle
 10
-1.543938639324011
 20
9.276474322115376
 30
0.0
 40
0.5049382756292329
100
AcDbArc
 50
270.7156332038845
 51
359.5567836376308
  0
LINE
  5
13D
330
2
100
AcDbEntity
  8
GAIKEI
 62
     1
100
AcDbLine
 10
-1.215565158192958
 20
6.504246910230506
 30
0.0
 11
-1.215565158192958
 21
8.852092154030515
 31
0.0
  0
ARC
  5
13E
330
2
100
AcDbEntity
  8
GAIKEI
 62
     1
100
AcDbCircle
 10
-2.02667509413456
 20
6.515209978863595
 30
0.0
 40
0.8111840216973238
100
AcDbArc
 50
270.8344600998903
 51
359.2256298573848
  0
ARC
  5
13F
330
2
100
AcDbEntity
  8
GAIKEI
100
AcDbCircle
 10
-1.980377263860958
 20
6.469628834896411
 30
0.0
 40
1.009913315169689
100
AcDbArc
 50
270.5734490928739
 51
359.394497325016
  0
LINE
  5
140
330
2
100
AcDbEntity
  8
GAIKEI
 62
     1
100
AcDbLine
 10
-3.272587516489011
 20
11.01669832495028
 30
0.0
 11
-3.272587516489011
 21
33.20323809586935
 31
0.0
  0
LINE
  5
141
330
2
100
AcDbEntity
  8
GAIKEI
 62
     1
100
AcDbLine
 10
-3.89030174203981
 20
10.91996642993308
 30
0.0
 11
-3.89030174203981
 21
33.29996999088888
 31
0.0
  0
LINE
  5
142
330
2
100
AcDbEntity
  8
GAIKEI
 62
     1
100
AcDbLine
 10
-1.039015471188946
 20
9.272568368209505
 30
0.0
 11
-1.039015471188946
 21
35.29096198028933
 31
0.0
  0
LINE
  5
143
330
2
100
AcDbEntity
  8
GAIKEI
 62
     1
100
AcDbLine
 10
-1.289232367259558
 20
9.272568368209505
 30
0.0
 11
-1.240447061824568
 21
35.28984369248559
 31
0.0
  0
LINE
  5
144
330
2
100
AcDbEntity
  8
GAIKEI
100
AcDbLine
 10
-0.9705203432143036
 20
6.458956254181998
 30
0.0
 11
-0.9705203432143036
 21
35.35945710826391
 31
0.0
  0
ARC
  5
145
330
2
100
AcDbEntity
  8
GAIKEI
 62
     1
100
AcDbCircle
 10
-3.702750487815535
 20
33.20199742694248
 30
0.0
 40
0.4301647604812072
100
AcDbArc
 50
0.1652510816760419
 51
90.96269136596589
  0
ARC
  5
146
330
2
100
AcDbEntity
  8
GAIKEI
 62
     1
100
AcDbCircle
 10
-2.047879486146086
 20
35.27792357551522
 30
0.0
 40
0.8075204078129122
100
AcDbArc
 50
0.8457955893473533
 51
89.42270342833216
  0
ARC
  5
147
330
2
100
AcDbEntity
  8
GAIKEI
 62
     1
100
AcDbCircle
 10
-2.057567921891063
 20
35.27244578478235
 30
0.0
 40
1.017582902286256
100
AcDbArc
 50
0.9796501620086321
 51
88.99631805385524
  0
ARC
  5
148
330
2
100
AcDbEntity
  8
GAIKEI
100
AcDbCircle
 10
-1.985667519609535
 20
35.34462682295248
 30
0.0
 40
1.015255498436519
100
AcDbArc
 50
0.8369745150573619
 51
89.13098982488081
  0
LINE
  5
149
330
2
100
AcDbEntity
  8
GAIKEI
 62
     1
100
AcDbLine
 10
-23.88479658426388
 20
35.44444698134265
 30
0.0
 11
-21.05468972513228
 21
35.44444698134265
 31
0.0
  0
LINE
  5
14A
330
2
100
AcDbEntity
  8
GAIKEI
 62
     1
100
AcDbLine
 10
-23.88479658426388
 20
35.77392252549819
 30
0.0
 11
-21.05468972513228
 21
35.77392252549819
 31
0.0
  0
LINE
  5
14B
330
2
100
AcDbEntity
  8
GAIKEI
 62
     1
100
AcDbLine
 10
-23.98502312866759
 20
35.67467448292268
 30
0.0
 11
-23.98502312866759
 21
35.54411438184451
 31
0.0
  0
ARC
  5
14C
330
2
100
AcDbEntity
  8
GAIKEI
 62
     1
100
AcDbCircle
 10
-23.8850058933237
 20
35.54446461086829
 30
0.0
 40
0.1000178485382149
100
AcDbArc
 50
180.200631049626
 51
270.119903943832
  0
ARC
  5
14D
330
2
100
AcDbEntity
  8
GAIKEI
 62
     1
100
AcDbCircle
 10
-23.88535999973439
 20
35.67426012776491
 30
0.0
 40
0.0996639902821074
100
AcDbArc
 50
89.67609664809314
 51
179.7617908927022
  0
ARC
  5
14E
330
2
100
AcDbEntity
  8
GAIKEI
 62
     1
100
AcDbCircle
 10
-21.05524459746545
 20
35.67426012776491
 30
0.0
 40
0.0996639902821074
100
AcDbArc
 50
0.2382091072977928
 51
90.32390335190683
  0
ARC
  5
14F
330
2
100
AcDbEntity
  8
GAIKEI
 62
     1
100
AcDbCircle
 10
-21.05559870387617
 20
35.54446461086829
 30
0.0
 40
0.1000178485382149
100
AcDbArc
 50
269.880096056168
 51
359.799368950374
  0
LINE
  5
150
330
2
100
AcDbEntity
  8
GAIKEI
 62
     1
100
AcDbLine
 10
-20.95558146853225
 20
35.67467448292268
 30
0.0
 11
-20.95558146853225
 21
35.54411438184451
 31
0.0
  0
LINE
  5
151
330
2
100
AcDbEntity
  8
GAIKEI
100
AcDbLine
 10
29.90341714104014
 20
4.412198739741199
 30
0.0
 11
24.75370180515117
 21
4.412198739741199
 31
0.0
  0
LINE
  5
152
330
2
100
AcDbEntity
  8
GAIKEI
100
AcDbLine
 10
24.75370180515117
 20
4.412198739741199
 30
0.0
 11
24.75370180515117
 21
4.074686118084599
 31
0.0
  0
LINE
  5
153
330
2
100
AcDbEntity
  8
GAIKEI
100
AcDbLine
 10
24.81862237459115
 20
4.009765548644594
 30
0.0
 11
26.48982461940349
 21
4.009765548644537
 31
0.0
  0
ARC
  5
154
330
2
100
AcDbEntity
  8
GAIKEI
100
AcDbCircle
 10
24.81862237459115
 20
4.074686118084599
 30
0.0
 40
0.06492056944
100
AcDbArc
 50
179.9999999999967
 51
269.9999999999993
  0
LINE
  5
155
330
2
100
AcDbEntity
  8
GAIKEI
100
AcDbLine
 10
26.5547451888435
 20
4.212584366786558
 30
0.0
 11
26.5547451888435
 21
4.074686118084542
 31
0.0
  0
ARC
  5
156
330
2
100
AcDbEntity
  8
GAIKEI
100
AcDbCircle
 10
26.48982461940349
 20
4.074686118084542
 30
0.0
 40
0.06492056944
100
AcDbArc
 50
269.9999999999993
 51
0.0
  0
LINE
  5
157
330
2
100
AcDbEntity
  8
GAIKEI
100
AcDbLine
 10
24.75370180515117
 20
4.212584366786529
 30
0.0
 11
29.90341714104196
 21
4.212584366786529
 31
0.0
  0
LINE
  5
158
330
2
100
AcDbEntity
  8
GAIKEI
100
AcDbLine
 10
44.55370672932909
 20
4.20507696278355
 30
0.0
 11
35.19057386215227
 21
4.212584366786529
 31
0.0
  0
ARC
  5
159
330
2
100
AcDbEntity
  8
GAIKEI
100
AcDbCircle
 10
42.81758391507676
 20
4.067178714081592
 30
0.0
 40
0.06492056944
100
AcDbArc
 50
180.0
 51
270.0000000000007
  0
LINE
  5
15A
330
2
100
AcDbEntity
  8
GAIKEI
100
AcDbLine
 10
42.75266334563676
 20
4.205076962783579
 30
0.0
 11
42.75266334563676
 21
4.067178714081592
 31
0.0
  0
ARC
  5
15B
330
2
100
AcDbEntity
  8
GAIKEI
100
AcDbCircle
 10
44.48878615988911
 20
4.06717871408162
 30
0.0
 40
0.06492056944
100
AcDbArc
 50
270.0000000000007
 51
0.0000000000032569
  0
LINE
  5
15C
330
2
100
AcDbEntity
  8
GAIKEI
100
AcDbLine
 10
44.48878615988911
 20
4.002258144641615
 30
0.0
 11
42.81758391507676
 21
4.002258144641587
 31
0.0
  0
LINE
  5
15D
330
2
100
AcDbEntity
  8
GAIKEI
100
AcDbLine
 10
44.55370672932909
 20
4.40469133573822
 30
0.0
 11
44.55370672932909
 21
4.06717871408162
 31
0.0
  0
LINE
  5
15E
330
2
100
AcDbEntity
  8
GAIKEI
100
AcDbLine
 10
35.19057386215457
 20
4.412198739741199
 30
0.0
 11
44.55370672932909
 21
4.40469133573822
 31
0.0
  0
LINE
  5
15F
330
2
100
AcDbEntity
  8
GAIKEI
100
AcDbLine
 10
35.73472437615985
 20
7.805933913699561
 30
0.0
 11
39.32442822593265
 21
4.412198739741199
 31
0.0
  0
LINE
  5
160
330
2
100
AcDbEntity
  8
GAIKEI
100
AcDbLine
 10
35.73472437615985
 20
7.525802818880833
 30
0.0
 11
39.03870569209559
 21
4.412198739741199
 31
0.0
  0
LINE
  5
161
330
2
100
AcDbEntity
  8
GAIKEI
100
AcDbLine
 10
30.10414980179846
 20
5.338431874907143
 30
0.0
 11
34.99151863310175
 21
5.211506209190872
 31
0.0
  0
LINE
  5
162
330
2
100
AcDbEntity
  8
GAIKEI
100
AcDbLine
 10
30.10414980179846
 20
5.338431874907143
 30
0.0
 11
30.10414980179846
 21
4.412198739741199
 31
0.0
  0
ARC
  5
163
330
2
100
AcDbEntity
  8
GAIKEI
100
AcDbCircle
 10
29.92166653075981
 20
4.396027252015443
 30
0.0
 40
0.1843483994131174
100
AcDbArc
 50
264.3187551886712
 51
8.157163204507854
  0
LINE
  5
164
330
2
100
AcDbEntity
  8
GAIKEI
100
AcDbLine
 10
29.90341714104014
 20
4.412198739741199
 30
0.0
 11
29.90341714104014
 21
5.338431874907143
 31
0.0
  0
ARC
  5
165
330
2
100
AcDbEntity
  8
GAIKEI
100
AcDbCircle
 10
30.10453393324804
 20
5.33789525590862
 30
0.0
 40
0.2011175081089312
100
AcDbArc
 50
125.4638010042557
 51
179.8471239993363
  0
LINE
  5
166
330
2
100
AcDbEntity
  8
GAIKEI
100
AcDbLine
 10
34.99151863310175
 20
5.211506209190872
 30
0.0
 11
34.99151863310175
 21
4.412198739741199
 31
0.0
  0
LINE
  5
167
330
2
100
AcDbEntity
  8
GAIKEI
100
AcDbLine
 10
35.19057386215457
 20
4.412198739741199
 30
0.0
 11
35.19057386215457
 21
5.211506209190872
 31
0.0
  0
ARC
  5
168
330
2
100
AcDbEntity
  8
GAIKEI
100
AcDbCircle
 10
35.19041775138288
 20
4.411484705467444
 30
0.0
 40
0.1989003999441766
100
AcDbArc
 50
179.7943129415639
 51
270.0449696897311
  0
ARC
  5
169
330
2
100
AcDbEntity
  8
GAIKEI
100
AcDbCircle
 10
34.99134800752913
 20
5.211977513246779
 30
0.0
 40
0.1992264121012939
100
AcDbArc
 50
359.8644569353325
 51
88.34264933490997
  0
LINE
  5
16A
330
2
100
AcDbEntity
  8
GAIKEI
100
AcDbLine
 10
31.83403301944648
 20
5.494433023518752
 30
0.0
 11
34.99711007212011
 21
5.411120582145514
 31
0.0
  0
LINE
  5
16B
330
2
100
AcDbEntity
  8
GAIKEI
100
AcDbLine
 10
31.61149374651663
 20
36.35976554864453
 30
0.0
 11
28.94839935670808
 21
36.28987256091531
 31
0.0
  0
LINE
  5
16C
330
2
100
AcDbEntity
  8
GAIKEI
100
AcDbLine
 10
31.61149374651663
 20
36.35976554864453
 30
0.0
 11
31.76302174391361
 21
36.35627089925808
 31
0.0
  0
ARC
  5
16D
330
2
100
AcDbEntity
  8
GAIKEI
100
AcDbCircle
 10
31.76191250267655
 20
36.25675756850402
 30
0.0
 40
0.0995195127293787
100
AcDbArc
 50
359.7503412436528
 51
89.36136989012643
  0
ARC
  5
16E
330
2
100
AcDbEntity
  8
GAIKEI
100
AcDbCircle
 10
28.95342885925354
 20
36.09032434242215
 30
0.0
 40
0.1996115913459132
100
AcDbArc
 50
91.44380277170919
 51
180.0189887344891
  0
LINE
  5
16F
330
2
100
AcDbEntity
  8
GAIKEI
100
AcDbLine
 10
28.75381727886992
 20
36.09025818796065
 30
0.0
 11
28.75381727886992
 21
9.07127656354865
 31
0.0
  0
ARC
  5
170
330
2
100
AcDbEntity
  8
GAIKEI
100
AcDbCircle
 10
29.05400959103145
 20
9.071562039273715
 30
0.0
 40
0.3001924479017783
100
AcDbArc
 50
180.0544869025836
 51
267.8780834840304
  0
LINE
  5
171
330
2
100
AcDbEntity
  8
GAIKEI
100
AcDbLine
 10
29.04289467611798
 20
8.771575432166457
 30
0.0
 11
29.7038027680855
 21
8.748650532191248
 31
0.0
  0
LINE
  5
172
330
2
100
AcDbEntity
  8
GAIKEI
 62
     1
100
AcDbLine
 10
28.94839935670808
 20
36.28987256091531
 30
0.0
 11
28.94839935670808
 21
8.790560288063119
 31
0.0
  0
LINE
  5
173
330
2
100
AcDbEntity
  8
GAIKEI
100
AcDbLine
 10
29.7038027680855
 20
8.748650532191248
 30
0.0
 11
29.7038027680855
 21
5.509529908868273
 31
0.0
  0
LINE
  5
174
330
2
100
AcDbEntity
  8
GAIKEI
100
AcDbLine
 10
29.7038027680855
 20
5.509529908868273
 30
0.0
 11
31.76302174391358
 21
5.46200267721241
 31
0.0
  0
LINE
  5
175
330
2
100
AcDbEntity
  8
GAIKEI
100
AcDbLine
 10
35.73472437615985
 20
32.9098476743302
 30
0.0
 11
35.73472437615985
 21
7.109240612014673
 31
0.0
  0
ARC
  5
176
330
2
100
AcDbEntity
  8
GAIKEI
100
AcDbCircle
 10
34.72811840887136
 20
32.90506944764798
 30
0.0
 40
1.006605999352071
100
AcDbArc
 50
359.9855384836191
 51
73.43491283488579
  0
LINE
  5
177
330
2
100
AcDbEntity
  8
GAIKEI
100
AcDbLine
 10
35.05190617449981
 20
33.86989775377876
 30
0.0
 11
32.13876644594586
 21
34.72510835163351
 31
0.0
  0
ARC
  5
178
330
2
100
AcDbEntity
  8
GAIKEI
100
AcDbCircle
 10
32.24917236283309
 20
35.1067415209285
 30
0.0
 40
0.3972824466168232
100
AcDbArc
 50
192.582340288275
 51
253.86492105611
  0
LINE
  5
179
330
2
100
AcDbEntity
  8
GAIKEI
 62
     1
100
AcDbLine
 10
31.86143107063632
 20
36.25632392680529
 30
0.0
 11
31.86143107063632
 21
5.562089435640189
 31
0.0
  0
LINE
  5
17A
330
2
100
AcDbEntity
  8
GAIKEI
 62
     1
100
AcDbLine
 10
31.61149374651666
 20
36.35976554864453
 30
0.0
 11
31.61149374651666
 21
5.465513137768056
 31
0.0
  0
ARC
  5
17B
330
2
100
AcDbEntity
  8
GAIKEI
100
AcDbCircle
 10
31.76069174932684
 20
5.5627170050235
 30
0.0
 40
0.1007412760551498
100
AcDbArc
 50
271.3252836001047
 51
359.6430727208735
  0
LINE
  5
17C
330
2
100
AcDbEntity
  8
GAIKEI
  6
Continuous
 62
     1
100
AcDbLine
 10
29.7038027680855
 20
6.614957402793606
 30
0.0
 11
29.32693977824954
 21
6.624462849124768
 31
0.0
  0
LINE
  5
17D
330
2
100
AcDbEntity
  8
GAIKEI
  6
Continuous
 62
     1
100
AcDbLine
 10
29.7038027680855
 20
7.804256481994059
 30
0.0
 11
29.32693977824954
 21
7.794191891761045
 31
0.0
  0
ARC
  5
17E
330
2
100
AcDbEntity
  8
GAIKEI
  6
Continuous
 62
     1
100
AcDbCircle
 10
29.32913295906732
 20
6.69987203240089
 30
0.0
 40
0.0754410694812108
100
AcDbArc
 50
179.9428542822277
 51
268.334094248628
  0
LINE
  5
17F
330
2
100
AcDbEntity
  8
GAIKEI
 62
     1
100
AcDbLine
 10
29.25369192710931
 20
6.699947275872347
 30
0.0
 11
29.25369192710931
 21
6.819604070864784
 31
0.0
  0
LINE
  5
180
330
2
100
AcDbEntity
  8
GAIKEI
 62
     1
100
AcDbLine
 10
29.25369192710931
 20
6.819604070864784
 30
0.0
 11
29.22349815641027
 21
6.84979784156377
 31
0.0
  0
LINE
  5
181
330
2
100
AcDbEntity
  8
GAIKEI
 62
     1
100
AcDbLine
 10
29.22349815641027
 20
6.84979784156377
 30
0.0
 11
29.22349815641027
 21
7.566061179812862
 31
0.0
  0
LINE
  5
182
330
2
100
AcDbEntity
  8
GAIKEI
 62
     1
100
AcDbLine
 10
29.25369192710931
 20
7.596254950511848
 30
0.0
 11
29.22349815641027
 21
7.566061179812862
 31
0.0
  0
LINE
  5
183
330
2
100
AcDbEntity
  8
GAIKEI
 62
     1
100
AcDbLine
 10
29.25369192710931
 20
7.715911745504286
 30
0.0
 11
29.25369192710931
 21
7.596254950511848
 31
0.0
  0
ARC
  5
184
330
2
100
AcDbEntity
  8
GAIKEI
  6
Continuous
 62
     1
100
AcDbCircle
 10
29.32913295906732
 20
7.715986988975771
 30
0.0
 40
0.0754410694812108
100
AcDbArc
 50
91.66590575137199
 51
180.0571457177722
  0
LINE
  5
185
330
2
100
AcDbEntity
  8
GAIKEI
  6
Continuous
 62
     1
100
AcDbLine
 10
29.7038027680855
 20
7.800901618583026
 30
0.0
 11
29.32693977824954
 21
7.791396172251864
 31
0.0
  0
LINE
  5
186
330
2
100
AcDbEntity
  8
GAIKEI
100
AcDbLine
 10
32.00121704609478
 20
6.109491315535876
 30
0.0
 11
35.67087847382979
 21
6.109491315535876
 31
0.0
  0
ARC
  5
187
330
2
100
AcDbEntity
  8
GAIKEI
100
AcDbCircle
 10
32.00174369511393
 20
5.958048941341587
 30
0.0
 40
0.1514432899167064
100
AcDbArc
 50
90.19924835836738
 51
159.0490618015434
  0
ARC
  5
188
330
2
100
AcDbEntity
  8
GAIKEI
100
AcDbCircle
 10
35.66080495203323
 20
7.125166200874446
 30
0.0
 40
1.01572483899376
100
AcDbArc
 50
270.5682441972534
 51
336.6675286646689
  0
ARC
  5
189
330
2
100
AcDbEntity
  8
GAIKEI
100
AcDbCircle
 10
34.71517945035197
 20
7.129036241343783
 30
0.0
 40
1.019544950766143
100
AcDbArc
 50
270.0126777278586
 51
359.9873222721399
  0
LINE
  5
18A
330
2
100
AcDbEntity
  8
GAIKEI
100
AcDbLine
 10
36.67174605811221
 20
7.109240612014673
 30
0.0
 11
36.67174605811221
 21
9.92564844555136
 31
0.0
  0
ARC
  5
18B
330
2
100
AcDbEntity
  8
GAIKEI
100
AcDbCircle
 10
35.71886220985542
 20
7.109326624396373
 30
0.0
 40
0.9528838521387644
100
AcDbArc
 50
349.7873971275319
 51
359.9948281771656
  0
LINE
  5
18C
330
2
100
AcDbEntity
  8
GAIKEI
 62
     1
100
AcDbLine
 10
36.86381946649283
 20
9.837785564919499
 30
0.0
 11
36.8638194664928
 21
7.44480179914899
 31
0.0
  0
LINE
  5
18D
330
2
100
AcDbEntity
  8
GAIKEI
 62
     1
100
AcDbLine
 10
36.67174605811221
 20
7.363651087349012
 30
0.0
 11
36.78266875469282
 21
7.363651087349012
 31
0.0
  0
LINE
  5
18E
330
2
100
AcDbEntity
  8
GAIKEI
 62
     1
100
AcDbLine
 10
36.67174605811221
 20
9.918936276719506
 30
0.0
 11
36.78266875469282
 21
9.918936276719506
 31
0.0
  0
ARC
  5
18F
330
2
100
AcDbEntity
  8
GAIKEI
 62
     1
100
AcDbCircle
 10
36.78266875469279
 20
7.44480179914899
 30
0.0
 40
0.0811507118
100
AcDbArc
 50
270.0000000000143
 51
0.0
  0
ARC
  5
190
330
2
100
AcDbEntity
  8
GAIKEI
 62
     1
100
AcDbCircle
 10
36.78266875469282
 20
9.837785564919499
 30
0.0
 40
0.0811507118
100
AcDbArc
 50
0.0
 51
90.0
  0
ARC
  5
191
330
2
100
AcDbEntity
  8
GAIKEI
100
AcDbCircle
 10
35.67584522500255
 20
9.925823042758707
 30
0.0
 40
0.9959008484144927
100
AcDbArc
 50
359.9899551414558
 51
42.1685089081561
  0
ARC
  5
192
330
2
100
AcDbEntity
  8
GAIKEI
100
AcDbCircle
 10
38.12264305694953
 20
12.5183168257877
 30
0.0
 40
2.573138623828748
100
AcDbArc
 50
215.4923806104153
 51
228.3914191107816
  0
ARC
  5
193
330
2
100
AcDbEntity
  8
GAIKEI
100
AcDbCircle
 10
36.77234533285523
 20
11.69295823539471
 30
0.0
 40
1.000820967066921
100
AcDbArc
 50
179.9917513751372
 51
221.9162464339289
  0
LINE
  5
194
330
2
100
AcDbEntity
  8
GAIKEI
 62
     1
100
AcDbLine
 10
35.73472437615985
 20
7.609115260254043
 30
0.0
 11
34.75566340404893
 21
7.609115260254043
 31
0.0
  0
LINE
  5
195
330
2
100
AcDbEntity
  8
GAIKEI
 62
     1
100
AcDbLine
 10
34.75566340404893
 20
7.609115260254043
 30
0.0
 11
34.75566340404893
 21
32.48769402844568
 31
0.0
  0
LINE
  5
196
330
2
100
AcDbEntity
  8
GAIKEI
 62
     1
100
AcDbLine
 10
35.73472437615985
 20
18.04609533188315
 30
0.0
 11
35.87262284590733
 21
18.04609533188312
 31
0.0
  0
LINE
  5
197
330
2
100
AcDbEntity
  8
GAIKEI
 62
     1
100
AcDbLine
 10
35.95377355770734
 20
18.1272460436831
 30
0.0
 11
35.95377355770734
 21
32.67716896513324
 31
0.0
  0
ARC
  5
198
330
2
100
AcDbEntity
  8
GAIKEI
 62
     1
100
AcDbCircle
 10
35.87262284590733
 20
18.1272460436831
 30
0.0
 40
0.0811507118
100
AcDbArc
 50
270.0
 51
0.0
  0
LINE
  5
199
330
2
100
AcDbEntity
  8
GAIKEI
 62
     1
100
AcDbLine
 10
35.73472437615985
 20
32.75831967693324
 30
0.0
 11
35.87262284590733
 21
32.75831967693321
 31
0.0
  0
ARC
  5
19A
330
2
100
AcDbEntity
  8
GAIKEI
 62
     1
100
AcDbCircle
 10
35.87262284590733
 20
32.67716896513324
 30
0.0
 40
0.0811507118
100
AcDbArc
 50
0.0
 51
90.0
  0
LINE
  5
19B
330
2
100
AcDbEntity
  8
GAIKEI
 62
     1
100
AcDbLine
 10
35.73472437615985
 20
32.48769402844568
 30
0.0
 11
34.75566340404893
 21
32.48769402844568
 31
0.0
  0
LINE
  5
19C
330
2
100
AcDbEntity
  8
GAIKEI
 62
     1
100
AcDbLine
 10
34.80811943330028
 20
32.48769402844568
 30
0.0
 11
32.19076682881641
 21
33.25553839163891
 31
0.0
  0
LINE
  5
19D
330
2
100
AcDbEntity
  8
GAIKEI
 62
     1
100
AcDbLine
 10
32.19076682881641
 20
33.25553839163891
 30
0.0
 11
31.86143107063632
 21
33.25553839163891
 31
0.0
  0
LINE
  5
19E
330
2
100
AcDbEntity
  8
GAIKEI
 62
     1
100
AcDbLine
 10
31.86143107063634
 20
35.35945710826394
 30
0.0
 11
28.94839935670808
 21
35.28984369248565
 31
0.0
  0
CIRCLE
  5
19F
330
2
100
AcDbEntity
  8
GAIKEI
 62
     1
100
AcDbCircle
 10
30.3562295546044
 20
32.0103479476573
 30
0.0
 40
0.199155915373096
  0
CIRCLE
  5
1A0
330
2
100
AcDbEntity
  8
GAIKEI
 62
     1
100
AcDbCircle
 10
30.3562295546044
 20
13.00676191553501
 30
0.0
 40
0.199155915373096
  0
TEXT
  5
1A1
330
2
100
AcDbEntity
  8
MOJI1
100
AcDbText
 10
-17.74799002696989
 20
-52.58524326886638
 30
0.0
 40
3.0
  1
ＳＤＩ入力：２系統、ＤＶＩ－Ｄ入力：１系統
100
AcDbText
  0
LINE
  5
1A2
330
2
100
AcDbEntity
  8
WAKU
 62
     1
100
AcDbLine
 10
-60.24799002696989
 20
-28.58524326886638
 30
0.0
 11
64.75200997303
 21
-28.58524326886638
 31
0.0
  0
LINE
  5
1A4
330
2
100
AcDbEntity
  8
WAKU
 62
     1
100
AcDbLine
 10
-60.24799002696989
 20
-18.58524326886638
 30
0.0
 11
64.75200997303
 21
-18.58524326886638
 31
0.0
  0
LINE
  5
1A5
330
2
100
AcDbEntity
  8
WAKU
 62
     4
100
AcDbLine
 10
-60.24799002696989
 20
-13.58524326886638
 30
0.0
 11
64.75200997303
 21
-13.58524326886638
 31
0.0
  0
LINE
  5
1A6
330
2
100
AcDbEntity
  8
WAKU
 62
     4
100
AcDbLine
 10
64.75200997303
 20
-53.58524326886637
 30
0.0
 11
-60.24799002696989
 21
-53.58524326886637
 31
0.0
  0
LINE
  5
1A7
330
2
100
AcDbEntity
  8
WAKU
 62
     1
100
AcDbLine
 10
-60.24799002696989
 20
-48.58524326886637
 30
0.0
 11
64.75200997303
 21
-48.58524326886637
 31
0.0
  0
LINE
  5
1A8
330
2
100
AcDbEntity
  8
WAKU
 62
     1
100
AcDbLine
 10
-60.24799002696989
 20
-43.58524326886637
 30
0.0
 11
64.75200997303
 21
-43.58524326886637
 31
0.0
  0
LINE
  5
1A9
330
2
100
AcDbEntity
  8
WAKU
 62
     1
100
AcDbLine
 10
-60.24799002696989
 20
-33.58524326886638
 30
0.0
 11
64.75200997303
 21
-33.58524326886638
 31
0.0
  0
LINE
  5
1AA
330
2
100
AcDbEntity
  8
WAKU
 62
     4
100
AcDbLine
 10
-60.24799002696989
 20
-13.58524326886638
 30
0.0
 11
-60.24799002696989
 21
-53.58524326886637
 31
0.0
  0
TEXT
  5
1AB
330
2
100
AcDbEntity
  8
MOJI1
100
AcDbText
 10
-17.74799002696989
 20
-27.58524326886638
 30
0.0
 40
3.0
  1
１７型（１５：９）
100
AcDbText
  0
TEXT
  5
1AC
330
2
100
AcDbEntity
  8
MOJI1
100
AcDbText
 10
-17.74799002696989
 20
-42.58524326886638
 30
0.0
 40
3.0
  1
上下１７６°、左右１７６°
100
AcDbText
  0
TEXT
  5
1AD
330
2
100
AcDbEntity
  8
MOJI1
100
AcDbText
 10
-17.74799002696989
 20
-32.58524326886638
 30
0.0
 40
3.0
  1
１２８０×７６８ドット（ＷＸＧＡ）
100
AcDbText
  0
TEXT
  5
1AE
330
2
100
AcDbEntity
  8
MOJI1
100
AcDbText
 10
-17.74799002696989
 20
-47.58524326886638
 30
0.0
 40
3.0
  1
ＶＩＤＥＯ入力：１系統、コンポーネント入力：１系統
 41
0.9
100
AcDbText
  0
TEXT
  5
1AF
330
2
100
AcDbEntity
  8
MOJI1
100
AcDbText
 10
-17.74799002696989
 20
-17.58524326886638
 30
0.0
 40
3.0
  1
ＡＣ１００Ｖ～２４０Ｖ　５０／６０Ｈｚ　
100
AcDbText
  0
TEXT
  5
1B0
330
2
100
AcDbEntity
  8
MOJI1
100
AcDbText
 10
-57.74799002696989
 20
-47.58524326886638
 30
0.0
 40
3.0
  1
コネクター
100
AcDbText
  0
TEXT
  5
1B1
330
2
100
AcDbEntity
  8
MOJI1
100
AcDbText
 10
-57.74799002696989
 20
-27.58524326886638
 30
0.0
 40
3.0
  1
パネルサイズ
100
AcDbText
  0
TEXT
  5
1B2
330
2
100
AcDbEntity
  8
MOJI1
100
AcDbText
 10
-57.74799002696989
 20
-17.58524326886638
 30
0.0
 40
3.0
  1
電　源
100
AcDbText
  0
TEXT
  5
1B3
330
2
100
AcDbEntity
  8
MOJI1
100
AcDbText
 10
-57.74799002696989
 20
-32.58524326886638
 30
0.0
 40
3.0
  1
画素数
100
AcDbText
  0
TEXT
  5
1B4
330
2
100
AcDbEntity
  8
MOJI1
100
AcDbText
 10
-57.74799002696989
 20
-42.58524326886638
 30
0.0
 40
3.0
  1
視野角
100
AcDbText
  0
LINE
  5
1B5
330
2
100
AcDbEntity
  8
WAKU
 62
     4
100
AcDbLine
 10
-20.24799002696989
 20
-13.58524326886638
 30
0.0
 11
-20.24799002696989
 21
-53.58524326886637
 31
0.0
  0
LINE
  5
1B6
330
2
100
AcDbEntity
  8
WAKU
 62
     4
100
AcDbLine
 10
64.75200997303
 20
-13.58524326886638
 30
0.0
 11
64.75200997303
 21
-53.58524326886637
 31
0.0
  0
DIMENSION
  5
1B7
330
2
100
AcDbEntity
  8
SUNPO
100
AcDbDimension
  2
*D8
 10
-0.9705203432143388
 20
44.3167618737003
 30
0.0
 11
-22.47050229859997
 21
46.06676187370029
 31
0.0
 70
    33
  1
430
 71
     5
 42
42.99996391077125
  3
STANDARD
100
AcDbAlignedDimension
 13
-43.97048425398559
 23
36.36499184453118
 33
0.0
 14
-0.9705203432143392
 24
36.36499184453118
 34
0.0
1001
ACAD
1000
DSTYLE
1002
{
1070
    40
1040
1.0
1070
   140
1040
2.5
1070
   147
1040
0.5
1070
   172
1070
     1
1070
   279
1070
     0
1070
   288
1070
     0
1002
}
  0
DIMENSION
  5
1CD
330
2
100
AcDbEntity
  8
SUNPO
100
AcDbDimension
  2
*D7
 10
6.944269547975537
 20
4.009765548644563
 30
0.0
 11
5.194269547975537
 21
20.18476554864458
 31
0.0
 70
    33
  1
323.5
 71
     5
 42
32.35000000000002
  3
STANDARD
100
AcDbAlignedDimension
 13
-0.9113519999758068
 23
36.35976554864459
 33
0.0
 14
-0.9113519999758068
 24
4.009765548644566
 34
0.0
1001
ACAD
1000
DSTYLE
1002
{
1070
    40
1040
1.0
1070
   140
1040
2.5
1070
   147
1040
0.5
1070
   172
1070
     1
1070
   279
1070
     0
1070
   288
1070
     0
1002
}
  0
DIMENSION
  5
1DA
330
2
100
AcDbEntity
  8
SUNPO
100
AcDbDimension
  2
*D6
 10
35.95377355770734
 20
44.3167618737003
 30
0.0
 11
32.35379541828863
 21
46.06676187370029
 31
0.0
 70
    33
  1
72
 71
     5
 42
7.199956278837419
  3
STANDARD
100
AcDbAlignedDimension
 13
28.75381727886992
 23
36.36499184453118
 33
0.0
 14
35.95377355770734
 24
36.36499184453118
 34
0.0
1001
ACAD
1000
DSTYLE
1002
{
1070
    40
1040
1.0
1070
   140
1040
2.5
1070
   147
1040
0.5
1070
   172
1070
     1
1070
   279
1070
     0
1070
   288
1070
     0
1002
}
  0
DIMENSION
  5
1E7
330
2
100
AcDbEntity
  8
SUNPO
100
AcDbDimension
  2
*D5
 10
44.5537067293291
 20
-3.990234451355519
 30
0.0
 11
34.65370426724013
 21
-2.240234451355519
 31
0.0
 70
    33
  1
198
 71
     5
 42
19.80000492417795
  3
STANDARD
100
AcDbAlignedDimension
 13
24.75370180515116
 23
4.00976554864448
 33
0.0
 14
44.5537067293291
 24
4.00976554864448
 34
0.0
1001
ACAD
1000
DSTYLE
1002
{
1070
    40
1040
1.0
1070
   140
1040
2.5
1070
   147
1040
0.5
1070
   172
1070
     1
1070
   279
1070
     0
1070
   288
1070
     0
1002
}
  0
TEXT
  5
1F4
330
2
100
AcDbEntity
  8
MOJI1
100
AcDbText
 10
-17.74799002696989
 20
-22.58524326886638
 30
0.0
 40
3.0
  1
ＤＣ１２Ｖ（１１～１７Ｖ）　
100
AcDbText
  0
LINE
  5
1F5
330
2
100
AcDbEntity
  8
WAKU
 62
     1
100
AcDbLine
 10
-60.24799002696989
 20
-23.58524326886638
 30
0.0
 11
64.75200997303
 21
-23.58524326886638
 31
0.0
  0
LINE
  5
1F6
330
2
100
AcDbEntity
  8
WAKU
 62
     1
100
AcDbLine
 10
-60.24799002696989
 20
-38.58524326886638
 30
0.0
 11
64.75200997303
 21
-38.58524326886638
 31
0.0
  0
TEXT
  5
1F7
330
2
100
AcDbEntity
  8
MOJI1
100
AcDbText
 10
-57.74799002696989
 20
-37.58524326886638
 30
0.0
 40
3.0
  1
ディスプレイカラー
100
AcDbText
  0
TEXT
  5
1F8
330
2
100
AcDbEntity
  8
MOJI1
100
AcDbText
 10
-17.74799002696989
 20
-37.58524326886638
 30
0.0
 40
3.0
  1
１６７７万色
100
AcDbText
  0
ENDSEC
  0
SECTION
  2
OBJECTS
  0
DICTIONARY
  5
7
330
0
100
AcDbDictionary
281
     1
  3
ACAD_COLOR
350
25
  3
ACAD_GROUP
350
21
  3
ACAD_LAYOUT
350
B
  3
ACAD_MATERIAL
350
24
  3
ACAD_MLINESTYLE
350
22
  3
ACAD_PLOTSETTINGS
350
23
  3
ACAD_PLOTSTYLENAME
350
6
  3
ACDBHEADERROUNDTRIPXREC
350
241
  3
AcDbVariableDictionary
350
23C
  0
DICTIONARY
  5
11
330
10
100
AcDbDictionary
280
     1
281
     1
  3
ACAD_LAYERSTATES
360
12
  0
DICTIONARY
  5
25
102
{ACAD_REACTORS
330
7
102
}
330
7
100
AcDbDictionary
281
     1
  0
DICTIONARY
  5
21
102
{ACAD_REACTORS
330
7
102
}
330
7
100
AcDbDictionary
281
     1
  0
DICTIONARY
  5
B
102
{ACAD_REACTORS
330
7
102
}
330
7
100
AcDbDictionary
281
     1
  3
Model
350
A
  3
レイアウト1
350
F
  0
DICTIONARY
  5
24
102
{ACAD_REACTORS
330
7
102
}
330
7
100
AcDbDictionary
281
     1
  0
DICTIONARY
  5
22
102
{ACAD_REACTORS
330
7
102
}
330
7
100
AcDbDictionary
281
     1
  3
Standard
350
27
  0
DICTIONARY
  5
23
102
{ACAD_REACTORS
330
7
102
}
330
7
100
AcDbDictionary
281
     1
  0
ACDBDICTIONARYWDFLT
  5
6
102
{ACAD_REACTORS
330
7
102
}
330
7
100
AcDbDictionary
281
     1
  3
Normal
350
5
100
AcDbDictionaryWithDefault
340
5
  0
DICTIONARY
  5
241
102
{ACAD_REACTORS
330
7
102
}
330
7
100
AcDbDictionary
281
     1
  3
COLORDICT
350
243
  3
MATERIALDICT
350
242
  0
DICTIONARY
  5
23C
102
{ACAD_REACTORS
330
7
102
}
330
7
100
AcDbDictionary
281
     1
  3
DIMASSOC
350
23E
  3
HIDETEXT
350
23D
  3
PROJECTNAME
350
23F
  0
DICTIONARY
  5
12
102
{ACAD_REACTORS
330
11
102
}
330
11
100
AcDbDictionary
281
     1
  0
LAYOUT
  5
A
102
{ACAD_XDICTIONARY
360
244
102
}
102
{ACAD_REACTORS
330
B
102
}
330
B
100
AcDbPlotSettings
  1

  2
Ａ４縦ＰＤＦ出力.pc3
  4
A4
  6

 40
7.143749713897705
 41
7.143756389617919
 42
7.14373779296875
 43
7.14373779296875
 44
209.9733276367187
 45
297.0530090332031
 46
4.95
 47
0.0
 48
0.0
 49
0.0
140
0.0
141
0.0
142
1.0
143
1.394313080900831
 70
 11956
 72
     1
 73
     0
 74
     1
  7
tmsacad.ctb
 75
     0
147
0.7171990377899375
148
0.0256332569354072
149
0.0240599051811614
100
AcDbLayout
  1
Model
 70
     1
 71
     0
 10
0.0
 20
0.0
 11
12.0
 21
9.0
 12
0.0
 22
0.0
 32
0.0
 14
0.0
 24
0.0
 34
0.0
 15
0.0
 25
0.0
 35
0.0
146
0.0
 13
0.0
 23
0.0
 33
0.0
 16
1.0
 26
0.0
 36
0.0
 17
0.0
 27
1.0
 37
0.0
 76
     0
330
2
  0
LAYOUT
  5
F
102
{ACAD_XDICTIONARY
360
246
102
}
102
{ACAD_REACTORS
330
B
102
}
330
B
100
AcDbPlotSettings
  1

  2
None
  4

  6

 40
0.0
 41
0.0
 42
0.0
 43
0.0
 44
0.0
 45
0.0
 46
0.0
 47
0.0
 48
0.0
 49
0.0
140
0.0
141
0.0
142
1.0
143
1.0
 70
   688
 72
     0
 73
     0
 74
     5
  7
tmsacad.ctb
 75
    16
147
1.0
148
0.0
149
0.0
100
AcDbLayout
  1
レイアウト1
 70
     1
 71
     1
 10
0.0
 20
0.0
 11
12.0
 21
9.0
 12
0.0
 22
0.0
 32
0.0
 14
0.0
 24
0.0
 34
0.0
 15
0.0
 25
0.0
 35
0.0
146
0.0
 13
0.0
 23
0.0
 33
0.0
 16
1.0
 26
0.0
 36
0.0
 17
0.0
 27
1.0
 37
0.0
 76
     0
330
C
  0
MLINESTYLE
  5
27
102
{ACAD_REACTORS
330
22
102
}
330
22
100
AcDbMlineStyle
  2
STANDARD
 70
     0
  3

 62
   256
 51
90.0
 52
90.0
 71
     2
 49
0.5
 62
   256
  6
BYLAYER
 49
-0.5
 62
   256
  6
BYLAYER
  0
ACDBPLACEHOLDER
  5
5
102
{ACAD_REACTORS
330
6
102
}
330
6
  0
XRECORD
  5
243
102
{ACAD_REACTORS
330
241
102
}
330
241
100
AcDbXrecord
280
     1
340
25
  0
XRECORD
  5
242
102
{ACAD_REACTORS
330
241
102
}
330
241
100
AcDbXrecord
280
     1
340
24
  0
DICTIONARYVAR
  5
23E
102
{ACAD_REACTORS
330
23C
102
}
330
23C
100
DictionaryVariables
280
     0
  1
2
  0
DICTIONARYVAR
  5
23D
102
{ACAD_REACTORS
330
23C
102
}
330
23C
100
DictionaryVariables
280
     0
  1
1
  0
DICTIONARYVAR
  5
23F
102
{ACAD_REACTORS
330
23C
102
}
330
23C
100
DictionaryVariables
280
     0
  1

  0
DICTIONARY
  5
244
330
A
100
AcDbDictionary
280
     1
281
     1
  3
ACAD_XREC_ROUNDTRIP
360
245
  0
DICTIONARY
  5
246
330
F
100
AcDbDictionary
280
     1
281
     1
  3
ACAD_XREC_ROUNDTRIP
360
247
  0
XRECORD
  5
245
102
{ACAD_REACTORS
330
244
102
}
330
244
100
AcDbXrecord
280
     1
102
SHADEPLOT
 70
     0
102
SHADEPLOTRESLEVEL
 70
     2
102
SHADEPLOTCUSTOMDPI
 70
   300
  0
XRECORD
  5
247
102
{ACAD_REACTORS
330
246
102
}
330
246
100
AcDbXrecord
280
     1
102
SHADEPLOT
 70
     0
102
SHADEPLOTRESLEVEL
 70
     2
102
SHADEPLOTCUSTOMDPI
 70
   300
  0
ENDSEC
  0
EOF
