  0
SECTION
  2
HEADER
  9
$ACADVER
  1
AC1015
  9
$ACADMAINTVER
 70
    13
  9
$DWGCODEPAGE
  3
ANSI_932
  9
$INSBASE
 10
-0.0000000000002274
 20
246.4992141396417
 30
0.0
  9
$EXTMIN
 10
-61.30386303210707
 20
-56.80979668492728
 30
-0.0015258207003583
  9
$EXTMAX
 10
63.85080191048974
 20
56.44543761411296
 30
0.0000000349246037
  9
$LIMMIN
 10
-1101.784450318844
 20
-1579.160531687243
  9
$LIMMAX
 10
-508.2420711400536
 20
-1161.440814074914
  9
$ORTHOMODE
 70
     1
  9
$REGENMODE
 70
     1
  9
$FILLMODE
 70
     1
  9
$QTEXTMODE
 70
     0
  9
$MIRRTEXT
 70
     1
  9
$LTSCALE
 40
1.0
  9
$ATTMODE
 70
     1
  9
$TEXTSIZE
 40
3.0
  9
$TRACEWID
 40
0.5
  9
$TEXTSTYLE
  7
STANDARD
  9
$CLAYER
  8
WAKU
  9
$CELTYPE
  6
BYLAYER
  9
$CECOLOR
 62
   256
  9
$CELTSCALE
 40
1.0
  9
$DISPSILH
 70
     0
  9
$DIMSCALE
 40
1.0
  9
$DIMASZ
 40
2.0
  9
$DIMEXO
 40
2.0
  9
$DIMDLI
 40
8.0
  9
$DIMRND
 40
0.0
  9
$DIMDLE
 40
0.0
  9
$DIMEXE
 40
2.0
  9
$DIMTP
 40
0.0
  9
$DIMTM
 40
0.0
  9
$DIMTXT
 40
2.5
  9
$DIMCEN
 40
0.0
  9
$DIMTSZ
 40
0.0
  9
$DIMTOL
 70
     0
  9
$DIMLIM
 70
     0
  9
$DIMTIH
 70
     0
  9
$DIMTOH
 70
     0
  9
$DIMSE1
 70
     0
  9
$DIMSE2
 70
     0
  9
$DIMTAD
 70
     3
  9
$DIMZIN
 70
     0
  9
$DIMBLK
  1

  9
$DIMASO
 70
     1
  9
$DIMSHO
 70
     1
  9
$DIMPOST
  1

  9
$DIMAPOST
  1

  9
$DIMALT
 70
     0
  9
$DIMALTD
 70
     2
  9
$DIMALTF
 40
25.4
  9
$DIMLFAC
 40
1.0
  9
$DIMTOFL
 70
     1
  9
$DIMTVP
 40
0.0
  9
$DIMTIX
 70
     0
  9
$DIMSOXD
 70
     0
  9
$DIMSAH
 70
     1
  9
$DIMBLK1
  1
OPEN30
  9
$DIMBLK2
  1
OPEN30
  9
$DIMSTYLE
  2
STANDARD
  9
$DIMCLRD
 70
     0
  9
$DIMCLRE
 70
     0
  9
$DIMCLRT
 70
     0
  9
$DIMTFAC
 40
1.0
  9
$DIMGAP
 40
0.5
  9
$DIMJUST
 70
     0
  9
$DIMSD1
 70
     0
  9
$DIMSD2
 70
     0
  9
$DIMTOLJ
 70
     1
  9
$DIMTZIN
 70
     0
  9
$DIMALTZ
 70
     0
  9
$DIMALTTZ
 70
     0
  9
$DIMUPT
 70
     0
  9
$DIMDEC
 70
     4
  9
$DIMTDEC
 70
     4
  9
$DIMALTU
 70
     2
  9
$DIMALTTD
 70
     2
  9
$DIMTXSTY
  7
STANDARD
  9
$DIMAUNIT
 70
     0
  9
$DIMADEC
 70
     0
  9
$DIMALTRND
 40
0.0
  9
$DIMAZIN
 70
     0
  9
$DIMDSEP
 70
    46
  9
$DIMATFIT
 70
     3
  9
$DIMFRAC
 70
     0
  9
$DIMLDRBLK
  1
OPEN30
  9
$DIMLUNIT
 70
     2
  9
$DIMLWD
 70
    -2
  9
$DIMLWE
 70
    -2
  9
$DIMTMOVE
 70
     0
  9
$LUNITS
 70
     2
  9
$LUPREC
 70
     4
  9
$SKETCHINC
 40
0.1
  9
$FILLETRAD
 40
0.0
  9
$AUNITS
 70
     0
  9
$AUPREC
 70
     0
  9
$MENU
  1
ACAD
  9
$ELEVATION
 40
0.0
  9
$PELEVATION
 40
0.0
  9
$THICKNESS
 40
0.0
  9
$LIMCHECK
 70
     0
  9
$CHAMFERA
 40
0.0
  9
$CHAMFERB
 40
0.0
  9
$CHAMFERC
 40
0.0
  9
$CHAMFERD
 40
0.0
  9
$SKPOLY
 70
     0
  9
$TDCREATE
 40
2451815.565532581
  9
$TDUCREATE
 40
2451815.190532581
  9
$TDUPDATE
 40
2454014.574583148
  9
$TDUUPDATE
 40
2454014.199583148
  9
$TDINDWG
 40
0.9373599074
  9
$TDUSRTIMER
 40
0.9373599074
  9
$USRTIMER
 70
     1
  9
$ANGBASE
 50
0.0
  9
$ANGDIR
 70
     0
  9
$PDMODE
 70
     0
  9
$PDSIZE
 40
0.0
  9
$PLINEWID
 40
0.0
  9
$SPLFRAME
 70
     0
  9
$SPLINETYPE
 70
     6
  9
$SPLINESEGS
 70
     8
  9
$HANDSEED
  5
31F
  9
$SURFTAB1
 70
     6
  9
$SURFTAB2
 70
     6
  9
$SURFTYPE
 70
     6
  9
$SURFU
 70
     6
  9
$SURFV
 70
     6
  9
$UCSBASE
  2

  9
$UCSNAME
  2

  9
$UCSORG
 10
0.0
 20
0.0
 30
0.0
  9
$UCSXDIR
 10
1.0
 20
0.0
 30
0.0
  9
$UCSYDIR
 10
0.0
 20
1.0
 30
0.0
  9
$UCSORTHOREF
  2

  9
$UCSORTHOVIEW
 70
     0
  9
$UCSORGTOP
 10
0.0
 20
0.0
 30
0.0
  9
$UCSORGBOTTOM
 10
0.0
 20
0.0
 30
0.0
  9
$UCSORGLEFT
 10
0.0
 20
0.0
 30
0.0
  9
$UCSORGRIGHT
 10
0.0
 20
0.0
 30
0.0
  9
$UCSORGFRONT
 10
0.0
 20
0.0
 30
0.0
  9
$UCSORGBACK
 10
0.0
 20
0.0
 30
0.0
  9
$PUCSBASE
  2

  9
$PUCSNAME
  2

  9
$PUCSORG
 10
0.0
 20
0.0
 30
0.0
  9
$PUCSXDIR
 10
1.0
 20
0.0
 30
0.0
  9
$PUCSYDIR
 10
0.0
 20
1.0
 30
0.0
  9
$PUCSORTHOREF
  2

  9
$PUCSORTHOVIEW
 70
     0
  9
$PUCSORGTOP
 10
0.0
 20
0.0
 30
0.0
  9
$PUCSORGBOTTOM
 10
0.0
 20
0.0
 30
0.0
  9
$PUCSORGLEFT
 10
0.0
 20
0.0
 30
0.0
  9
$PUCSORGRIGHT
 10
0.0
 20
0.0
 30
0.0
  9
$PUCSORGFRONT
 10
0.0
 20
0.0
 30
0.0
  9
$PUCSORGBACK
 10
0.0
 20
0.0
 30
0.0
  9
$USERI1
 70
     0
  9
$USERI2
 70
     0
  9
$USERI3
 70
     0
  9
$USERI4
 70
     0
  9
$USERI5
 70
     0
  9
$USERR1
 40
0.0
  9
$USERR2
 40
0.0
  9
$USERR3
 40
0.0
  9
$USERR4
 40
0.0
  9
$USERR5
 40
0.0
  9
$WORLDVIEW
 70
     1
  9
$SHADEDGE
 70
     3
  9
$SHADEDIF
 70
    70
  9
$TILEMODE
 70
     1
  9
$MAXACTVP
 70
    48
  9
$PINSBASE
 10
0.0
 20
0.0
 30
0.0
  9
$PLIMCHECK
 70
     0
  9
$PEXTMIN
 10
1.000000000000000E+20
 20
1.000000000000000E+20
 30
1.000000000000000E+20
  9
$PEXTMAX
 10
-1.000000000000000E+20
 20
-1.000000000000000E+20
 30
-1.000000000000000E+20
  9
$PLIMMIN
 10
-0.1379166250153789
 20
-0.1712500016520342
  9
$PLIMMAX
 10
16.39708271176796
 20
11.52208270050409
  9
$UNITMODE
 70
     0
  9
$VISRETAIN
 70
     1
  9
$PLINEGEN
 70
     0
  9
$PSLTSCALE
 70
     1
  9
$TREEDEPTH
 70
  3020
  9
$CMLSTYLE
  2
STANDARD
  9
$CMLJUST
 70
     0
  9
$CMLSCALE
 40
1.0
  9
$PROXYGRAPHICS
 70
     1
  9
$MEASUREMENT
 70
     0
  9
$CELWEIGHT
370
    -1
  9
$ENDCAPS
280
     0
  9
$JOINSTYLE
280
     0
  9
$LWDISPLAY
290
     0
  9
$INSUNITS
 70
     0
  9
$HYPERLINKBASE
  1

  9
$STYLESHEET
  1

  9
$XEDIT
290
     1
  9
$CEPSNTYPE
380
     0
  9
$PSTYLEMODE
290
     1
  9
$FINGERPRINTGUID
  2
{1754B7AB-9B3C-11D4-AD9E-00104B1004F2}
  9
$VERSIONGUID
  2
{23D53FDF-DC35-480A-93D2-6954B819DE53}
  9
$EXTNAMES
290
     1
  9
$PSVPSCALE
 40
0.0
  9
$OLESTARTUP
290
     0
  0
ENDSEC
  0
SECTION
  2
CLASSES
  0
CLASS
  1
ACDBDICTIONARYWDFLT
  2
AcDbDictionaryWithDefault
  3
AutoCAD 2000
 90
        0
280
     0
281
     0
  0
CLASS
  1
ACDBPLACEHOLDER
  2
AcDbPlaceHolder
  3
AutoCAD 2000
 90
        0
280
     0
281
     0
  0
CLASS
  1
LAYOUT
  2
AcDbLayout
  3
AutoCAD 2000
 90
        0
280
     0
281
     0
  0
CLASS
  1
LONG_TRANSACTION
  2
AcDbLongTransaction
  3
AutoCAD 2000
 90
    32768
280
     0
281
     0
  0
CLASS
  1
LWPOLYLINE
  2
AcDbPolyline
  3
AutoCAD 2000
 90
    32768
280
     0
281
     1
  0
CLASS
  1
HATCH
  2
AcDbHatch
  3
AutoCAD 2000
 90
    32768
280
     0
281
     1
  0
CLASS
  1
XRECORD
  2
AcDbXrecord
  3
AutoCAD 2000
 90
    32768
280
     0
281
     0
  0
CLASS
  1
LONG_TRANSACTION
  2
AcDbLongTransaction
  3
AutoCAD 2000
 90
    32768
280
     0
281
     0
  0
CLASS
  1
LWPOLYLINE
  2
AcDbPolyline
  3
AutoCAD 2000
 90
    32768
280
     0
281
     1
  0
CLASS
  1
HATCH
  2
AcDbHatch
  3
AutoCAD 2000
 90
    32768
280
     0
281
     1
  0
CLASS
  1
XRECORD
  2
AcDbXrecord
  3
AutoCAD 2000
 90
    32768
280
     0
281
     0
  0
CLASS
  1
LONG_TRANSACTION
  2
AcDbLongTransaction
  3
AutoCAD 2000
 90
    32768
280
     0
281
     0
  0
CLASS
  1
LWPOLYLINE
  2
AcDbPolyline
  3
AutoCAD 2000
 90
    32768
280
     0
281
     1
  0
CLASS
  1
HATCH
  2
AcDbHatch
  3
AutoCAD 2000
 90
    32768
280
     0
281
     1
  0
CLASS
  1
XRECORD
  2
AcDbXrecord
  3
AutoCAD 2000
 90
    32768
280
     0
281
     0
  0
CLASS
  1
LONG_TRANSACTION
  2
AcDbLongTransaction
  3
AutoCAD 2000
 90
    32768
280
     0
281
     0
  0
CLASS
  1
LWPOLYLINE
  2
AcDbPolyline
  3
AutoCAD 2000
 90
    32768
280
     0
281
     1
  0
CLASS
  1
HATCH
  2
AcDbHatch
  3
AutoCAD 2000
 90
    32768
280
     0
281
     1
  0
CLASS
  1
XRECORD
  2
AcDbXrecord
  3
AutoCAD 2000
 90
    32768
280
     0
281
     0
  0
CLASS
  1
LONG_TRANSACTION
  2
AcDbLongTransaction
  3
AutoCAD 2000
 90
    32768
280
     0
281
     0
  0
CLASS
  1
LWPOLYLINE
  2
AcDbPolyline
  3
AutoCAD 2000
 90
    32768
280
     0
281
     1
  0
CLASS
  1
HATCH
  2
AcDbHatch
  3
AutoCAD 2000
 90
    32768
280
     0
281
     1
  0
CLASS
  1
XRECORD
  2
AcDbXrecord
  3
AutoCAD 2000
 90
    32768
280
     0
281
     0
  0
CLASS
  1
LONG_TRANSACTION
  2
AcDbLongTransaction
  3
AutoCAD 2000
 90
    32768
280
     0
281
     0
  0
CLASS
  1
LWPOLYLINE
  2
AcDbPolyline
  3
AutoCAD 2000
 90
    32768
280
     0
281
     1
  0
CLASS
  1
HATCH
  2
AcDbHatch
  3
AutoCAD 2000
 90
    32768
280
     0
281
     1
  0
CLASS
  1
XRECORD
  2
AcDbXrecord
  3
AutoCAD 2000
 90
    32768
280
     0
281
     0
  0
CLASS
  1
LONG_TRANSACTION
  2
AcDbLongTransaction
  3
AutoCAD 2000
 90
    32768
280
     0
281
     0
  0
CLASS
  1
LWPOLYLINE
  2
AcDbPolyline
  3
AutoCAD 2000
 90
    32768
280
     0
281
     1
  0
CLASS
  1
HATCH
  2
AcDbHatch
  3
AutoCAD 2000
 90
    32768
280
     0
281
     1
  0
CLASS
  1
XRECORD
  2
AcDbXrecord
  3
AutoCAD 2000
 90
    32768
280
     0
281
     0
  0
CLASS
  1
LONG_TRANSACTION
  2
AcDbLongTransaction
  3
AutoCAD 2000
 90
    32768
280
     0
281
     0
  0
CLASS
  1
LWPOLYLINE
  2
AcDbPolyline
  3
AutoCAD 2000
 90
    32768
280
     0
281
     1
  0
CLASS
  1
HATCH
  2
AcDbHatch
  3
AutoCAD 2000
 90
    32768
280
     0
281
     1
  0
CLASS
  1
XRECORD
  2
AcDbXrecord
  3
AutoCAD 2000
 90
    32768
280
     0
281
     0
  0
CLASS
  1
DICTIONARYVAR
  2
AcDbDictionaryVar
  3
AutoCAD 2000
 90
        0
280
     0
281
     0
  0
CLASS
  1
LONG_TRANSACTION
  2
AcDbLongTransaction
  3
AutoCAD 2000
 90
    32768
280
     0
281
     0
  0
CLASS
  1
LWPOLYLINE
  2
AcDbPolyline
  3
AutoCAD 2000
 90
    32768
280
     0
281
     1
  0
CLASS
  1
HATCH
  2
AcDbHatch
  3
AutoCAD 2000
 90
    32768
280
     0
281
     1
  0
CLASS
  1
XRECORD
  2
AcDbXrecord
  3
AutoCAD 2000
 90
    32768
280
     0
281
     0
  0
CLASS
  1
LONG_TRANSACTION
  2
AcDbLongTransaction
  3
AutoCAD 2000
 90
    32768
280
     0
281
     0
  0
CLASS
  1
LWPOLYLINE
  2
AcDbPolyline
  3
AutoCAD 2000
 90
    32768
280
     0
281
     1
  0
CLASS
  1
HATCH
  2
AcDbHatch
  3
AutoCAD 2000
 90
    32768
280
     0
281
     1
  0
CLASS
  1
XRECORD
  2
AcDbXrecord
  3
AutoCAD 2000
 90
    32768
280
     0
281
     0
  0
CLASS
  1
LONG_TRANSACTION
  2
AcDbLongTransaction
  3
AutoCAD 2000
 90
    32768
280
     0
281
     0
  0
CLASS
  1
LWPOLYLINE
  2
AcDbPolyline
  3
AutoCAD 2000
 90
    32768
280
     0
281
     1
  0
CLASS
  1
HATCH
  2
AcDbHatch
  3
AutoCAD 2000
 90
    32768
280
     0
281
     1
  0
CLASS
  1
XRECORD
  2
AcDbXrecord
  3
AutoCAD 2000
 90
    32768
280
     0
281
     0
  0
CLASS
  1
LONG_TRANSACTION
  2
AcDbLongTransaction
  3
AutoCAD 2000
 90
    32768
280
     0
281
     0
  0
CLASS
  1
LWPOLYLINE
  2
AcDbPolyline
  3
AutoCAD 2000
 90
    32768
280
     0
281
     1
  0
CLASS
  1
HATCH
  2
AcDbHatch
  3
AutoCAD 2000
 90
    32768
280
     0
281
     1
  0
CLASS
  1
XRECORD
  2
AcDbXrecord
  3
AutoCAD 2000
 90
    32768
280
     0
281
     0
  0
ENDSEC
  0
SECTION
  2
TABLES
  0
TABLE
  2
VPORT
  5
21
330
0
100
AcDbSymbolTable
 70
     3
  0
VPORT
  5
31E
330
21
100
AcDbSymbolTableRecord
100
AcDbViewportTableRecord
  2
*Active
 70
     0
 10
0.0
 20
0.0
 11
1.0
 21
1.0
 12
1.273469439191337
 22
-0.1821795354071582
 13
0.0
 23
0.0
 14
1.0
 24
1.0
 15
0.0
 25
0.0
 16
0.0
 26
0.0
 36
1.0
 17
0.0
 27
0.0
 37
0.0
 40
114.1197780723153
 41
1.442038216560509
 42
50.0
 43
0.0
 44
0.0
 50
0.0
 51
0.0
 71
     0
 72
 10000
 73
     1
 74
     0
 75
     0
 76
     1
 77
     0
 78
     0
281
     0
 65
     1
110
0.0
120
0.0
130
0.0
111
1.0
121
0.0
131
0.0
112
0.0
122
1.0
132
0.0
 79
     0
146
0.0
  0
ENDTAB
  0
TABLE
  2
LTYPE
  5
1C
330
0
100
AcDbSymbolTable
 70
     1
  0
LTYPE
  5
1D
330
1C
100
AcDbSymbolTableRecord
100
AcDbLinetypeTableRecord
  2
BYBLOCK
 70
     0
  3

 72
    65
 73
     0
 40
0.0
  0
LTYPE
  5
1E
330
1C
100
AcDbSymbolTableRecord
100
AcDbLinetypeTableRecord
  2
BYLAYER
 70
     0
  3

 72
    65
 73
     0
 40
0.0
  0
LTYPE
  5
A
330
1C
100
AcDbSymbolTableRecord
100
AcDbLinetypeTableRecord
  2
CONTINUOUS
 70
     0
  3
Solid line
 72
    65
 73
     0
 40
0.0
  0
ENDTAB
  0
TABLE
  2
LAYER
  5
14
102
{ACAD_XDICTIONARY
360
15
102
}
330
0
100
AcDbSymbolTable
 70
     7
  0
LAYER
  5
6
330
14
100
AcDbSymbolTableRecord
100
AcDbLayerTableRecord
  2
0
 70
     0
 62
     7
  6
CONTINUOUS
370
    -3
390
7
  0
LAYER
  5
43
330
14
100
AcDbSymbolTableRecord
100
AcDbLayerTableRecord
  2
DEFPOINTS
 70
     0
 62
     7
  6
CONTINUOUS
290
     0
370
    -3
390
7
  0
LAYER
  5
33
330
14
100
AcDbSymbolTableRecord
100
AcDbLayerTableRecord
  2
WAKU
 70
     0
 62
     4
  6
CONTINUOUS
370
    -3
390
7
  0
LAYER
  5
36
330
14
100
AcDbSymbolTableRecord
100
AcDbLayerTableRecord
  2
MOJI1
 70
     0
 62
     2
  6
CONTINUOUS
370
    -3
390
7
  0
LAYER
  5
86
330
14
100
AcDbSymbolTableRecord
100
AcDbLayerTableRecord
  2
GAIKEI
 70
     0
 62
     7
  6
CONTINUOUS
370
    -3
390
7
  0
LAYER
  5
84
330
14
100
AcDbSymbolTableRecord
100
AcDbLayerTableRecord
  2
TOUROKU
 70
     0
 62
     1
  6
CONTINUOUS
370
    -3
390
7
  0
LAYER
  5
39
330
14
100
AcDbSymbolTableRecord
100
AcDbLayerTableRecord
  2
SUNPO
 70
     0
 62
     3
  6
CONTINUOUS
370
    -3
390
7
  0
ENDTAB
  0
TABLE
  2
STYLE
  5
19
330
0
100
AcDbSymbolTable
 70
     2
  0
STYLE
  5
1A
330
19
100
AcDbSymbolTableRecord
100
AcDbTextStyleTableRecord
  2
STANDARD
 70
     0
 40
0.0
 41
1.0
 50
0.0
 71
     0
 42
3.0
  3
MONOTXT.shx
  4
BIGFONT.shx
  0
STYLE
  5
37
330
19
100
AcDbSymbolTableRecord
100
AcDbTextStyleTableRecord
  2
KANJI
 70
     0
 40
0.0
 41
1.0
 50
0.0
 71
     0
 42
3.5
  3
MONOTXT
  4
BIGFONT
  0
ENDTAB
  0
TABLE
  2
VIEW
  5
1F
330
0
100
AcDbSymbolTable
 70
     0
  0
ENDTAB
  0
TABLE
  2
UCS
  5
20
330
0
100
AcDbSymbolTable
 70
     0
  0
ENDTAB
  0
TABLE
  2
APPID
  5
23
330
0
100
AcDbSymbolTable
 70
     2
  0
APPID
  5
24
330
23
100
AcDbSymbolTableRecord
100
AcDbRegAppTableRecord
  2
ACAD
 70
     0
  0
APPID
  5
27C
330
23
100
AcDbSymbolTableRecord
100
AcDbRegAppTableRecord
  2
DCO15
 70
     0
  0
ENDTAB
  0
TABLE
  2
DIMSTYLE
  5
25
330
0
100
AcDbSymbolTable
 70
     1
100
AcDbDimStyleTable
 71
     1
340
26
  0
DIMSTYLE
105
26
102
{ACAD_REACTORS
330
61
330
54
330
47
330
38
102
}
330
25
100
AcDbSymbolTableRecord
100
AcDbDimStyleTableRecord
  2
STANDARD
 70
     0
 40
0.0
 41
2.0
 42
2.0
 43
8.0
 44
2.0
 73
     0
 74
     0
 77
     3
140
3.0
141
0.0
173
     1
279
     2
288
     1
340
1A
341
27
343
27
344
27
  0
ENDTAB
  0
TABLE
  2
BLOCK_RECORD
  5
1
330
0
100
AcDbSymbolTable
 70
     9
  0
BLOCK_RECORD
  5
2
102
{ACAD_XDICTIONARY
360
3
102
}
330
1
100
AcDbSymbolTableRecord
100
AcDbBlockTableRecord
  2
*MODEL_SPACE
340
C
  0
BLOCK_RECORD
  5
E
102
{ACAD_XDICTIONARY
360
F
102
}
330
1
100
AcDbSymbolTableRecord
100
AcDbBlockTableRecord
  2
*PAPER_SPACE
340
13
  0
BLOCK_RECORD
  5
27
330
1
100
AcDbSymbolTableRecord
100
AcDbBlockTableRecord
  2
_OPEN30
340
0
102
{BLKREFS
331
3F
331
40
331
4D
331
4E
331
5A
331
5B
331
67
331
68
331
2F2
331
2F3
331
2FE
331
2FF
331
30A
331
30B
331
316
331
317
102
}
  0
BLOCK_RECORD
  5
62
330
1
100
AcDbSymbolTableRecord
100
AcDbBlockTableRecord
  2
*D1
340
0
  0
BLOCK_RECORD
  5
55
330
1
100
AcDbSymbolTableRecord
100
AcDbBlockTableRecord
  2
*D2
340
0
  0
BLOCK_RECORD
  5
48
330
1
100
AcDbSymbolTableRecord
100
AcDbBlockTableRecord
  2
*D3
340
0
  0
BLOCK_RECORD
  5
3A
330
1
100
AcDbSymbolTableRecord
100
AcDbBlockTableRecord
  2
*D4
340
0
  0
BLOCK_RECORD
  5
2EE
330
1
100
AcDbSymbolTableRecord
100
AcDbBlockTableRecord
  2
*D5
340
0
  0
BLOCK_RECORD
  5
2FA
330
1
100
AcDbSymbolTableRecord
100
AcDbBlockTableRecord
  2
*D6
340
0
  0
BLOCK_RECORD
  5
306
330
1
100
AcDbSymbolTableRecord
100
AcDbBlockTableRecord
  2
*D7
340
0
  0
BLOCK_RECORD
  5
312
330
1
100
AcDbSymbolTableRecord
100
AcDbBlockTableRecord
  2
*D8
340
0
  0
ENDTAB
  0
ENDSEC
  0
SECTION
  2
BLOCKS
  0
BLOCK
  5
5
330
2
100
AcDbEntity
  8
0
100
AcDbBlockBegin
  2
*MODEL_SPACE
 70
     0
 10
0.0
 20
0.0
 30
0.0
  3
*MODEL_SPACE
  1

  0
ENDBLK
  5
B
330
2
100
AcDbEntity
  8
0
100
AcDbBlockEnd
  0
BLOCK
  5
11
330
E
100
AcDbEntity
 67
     1
  8
0
100
AcDbBlockBegin
  2
*PAPER_SPACE
 70
     0
 10
0.0
 20
0.0
 30
0.0
  3
*PAPER_SPACE
  1

  0
ENDBLK
  5
12
330
E
100
AcDbEntity
 67
     1
  8
0
100
AcDbBlockEnd
  0
BLOCK
  5
28
330
27
100
AcDbEntity
  8
0
100
AcDbBlockBegin
  2
_OPEN30
 70
     0
 10
0.0
 20
0.0
 30
0.0
  3
_OPEN30
  1

  0
LINE
  5
29
330
27
100
AcDbEntity
  8
0
  6
ByBlock
 62
     0
100
AcDbLine
 10
-1.0
 20
0.26794919
 30
0.0
 11
0.0
 21
0.0
 31
0.0
  0
LINE
  5
2A
330
27
100
AcDbEntity
  8
0
  6
ByBlock
 62
     0
100
AcDbLine
 10
0.0
 20
0.0
 30
0.0
 11
-1.0
 21
-0.26794919
 31
0.0
  0
LINE
  5
2B
330
27
100
AcDbEntity
  8
0
  6
ByBlock
 62
     0
100
AcDbLine
 10
0.0
 20
0.0
 30
0.0
 11
-1.0
 21
0.0
 31
0.0
  0
ENDBLK
  5
2C
330
27
100
AcDbEntity
  8
0
100
AcDbBlockEnd
  0
BLOCK
  5
63
330
62
100
AcDbEntity
  8
0
100
AcDbBlockBegin
  2
*D1
 70
     1
 10
0.0
 20
0.0
 30
0.0
  3
*D1
  1

  0
LINE
  5
64
330
62
100
AcDbEntity
  8
SUNPO
 62
     0
370
    -2
100
AcDbLine
 10
9.204225205055763
 20
225.7079748078957
 30
0.0
 11
9.204225205055763
 21
233.7079748078957
 31
0.0
  0
LINE
  5
65
330
62
100
AcDbEntity
  8
SUNPO
 62
     0
370
    -2
100
AcDbLine
 10
75.50422576632172
 20
225.7079748078957
 30
0.0
 11
75.50422576632172
 21
233.7079748078957
 31
0.0
  0
LINE
  5
66
330
62
100
AcDbEntity
  8
SUNPO
 62
     0
370
    -2
100
AcDbLine
 10
11.20422520505576
 20
231.7079748078957
 30
0.0
 11
73.50422576632173
 21
231.7079748078957
 31
0.0
  0
INSERT
  5
67
330
62
100
AcDbEntity
  8
SUNPO
 62
     0
370
    -2
100
AcDbBlockReference
  2
_OPEN30
 10
9.204225205055763
 20
231.7079748078957
 30
0.0
 41
2.0
 42
2.0
 43
2.0
 50
180.0
  0
INSERT
  5
68
330
62
100
AcDbEntity
  8
SUNPO
 62
     0
370
    -2
100
AcDbBlockReference
  2
_OPEN30
 10
75.50422576632172
 20
231.7079748078957
 30
0.0
 41
2.0
 42
2.0
 43
2.0
  0
MTEXT
  5
69
330
62
100
AcDbEntity
  8
SUNPO
 62
     0
100
AcDbMText
 10
42.35422548568874
 20
233.4579748078957
 30
0.0
 40
2.5
 41
0.0
 71
     5
 72
     1
  1
\A1;663
 73
     1
 44
1.0
  0
POINT
  5
6A
330
62
100
AcDbEntity
  8
DEFPOINTS
 62
     0
100
AcDbPoint
 10
9.204225205055763
 20
223.7079748078957
 30
0.0
  0
POINT
  5
6B
330
62
100
AcDbEntity
  8
DEFPOINTS
 62
     0
100
AcDbPoint
 10
75.50422576632172
 20
223.7079748078957
 30
0.0
  0
POINT
  5
6C
330
62
100
AcDbEntity
  8
DEFPOINTS
 62
     0
100
AcDbPoint
 10
75.50422576632172
 20
231.7079748078957
 30
0.0
  0
ENDBLK
  5
6D
330
62
100
AcDbEntity
  8
0
100
AcDbBlockEnd
  0
BLOCK
  5
56
330
55
100
AcDbEntity
  8
0
100
AcDbBlockBegin
  2
*D2
 70
     1
 10
0.0
 20
0.0
 30
0.0
  3
*D2
  1

  0
LINE
  5
57
330
55
100
AcDbEntity
  8
SUNPO
 62
     0
370
    -2
100
AcDbLine
 10
77.50423011768771
 20
178.0979667706777
 30
0.0
 11
88.13542593205545
 21
178.0979667706777
 31
0.0
  0
LINE
  5
58
330
55
100
AcDbEntity
  8
SUNPO
 62
     0
370
    -2
100
AcDbLine
 10
77.50423011768771
 20
223.7079748078957
 30
0.0
 11
88.13542593205545
 21
223.7079748078957
 31
0.0
  0
LINE
  5
59
330
55
100
AcDbEntity
  8
SUNPO
 62
     0
370
    -2
100
AcDbLine
 10
86.13542593205545
 20
180.0979667706777
 30
0.0
 11
86.13542593205545
 21
221.7079748078957
 31
0.0
  0
INSERT
  5
5A
330
55
100
AcDbEntity
  8
SUNPO
 62
     0
370
    -2
100
AcDbBlockReference
  2
_OPEN30
 10
86.13542593205545
 20
178.0979667706777
 30
0.0
 41
2.0
 42
2.0
 43
2.0
 50
270.0
  0
INSERT
  5
5B
330
55
100
AcDbEntity
  8
SUNPO
 62
     0
370
    -2
100
AcDbBlockReference
  2
_OPEN30
 10
86.13542593205545
 20
223.7079748078957
 30
0.0
 41
2.0
 42
2.0
 43
2.0
 50
90.0
  0
MTEXT
  5
5C
330
55
100
AcDbEntity
  8
SUNPO
 62
     0
100
AcDbMText
 10
84.38542593205543
 20
200.9029707892867
 30
0.0
 40
2.5
 41
0.0
 71
     5
 72
     1
  1
\A1;456.1
 11
0.0000000000000001
 21
1.0
 31
0.0
 73
     1
 44
1.0
  0
POINT
  5
5D
330
55
100
AcDbEntity
  8
DEFPOINTS
 62
     0
100
AcDbPoint
 10
75.50423011768771
 20
178.0979667706777
 30
0.0
  0
POINT
  5
5E
330
55
100
AcDbEntity
  8
DEFPOINTS
 62
     0
100
AcDbPoint
 10
75.50423011768771
 20
223.7079748078957
 30
0.0
  0
POINT
  5
5F
330
55
100
AcDbEntity
  8
DEFPOINTS
 62
     0
100
AcDbPoint
 10
86.13542593205545
 20
223.7079748078957
 30
0.0
  0
ENDBLK
  5
60
330
55
100
AcDbEntity
  8
0
100
AcDbBlockEnd
  0
BLOCK
  5
49
330
48
100
AcDbEntity
  8
0
100
AcDbBlockBegin
  2
*D3
 70
     1
 10
0.0
 20
0.0
 30
0.0
  3
*D3
  1

  0
LINE
  5
4A
330
48
100
AcDbEntity
  8
SUNPO
 62
     0
370
    -2
100
AcDbLine
 10
95.8100217717838
 20
225.7079748078957
 30
0.0
 11
95.8100217717838
 21
233.7079748078958
 31
0.0
  0
LINE
  5
4B
330
48
100
AcDbEntity
  8
SUNPO
 62
     0
370
    -2
100
AcDbLine
 10
107.2100183599576
 20
225.7079748078957
 30
0.0
 11
107.2100183599576
 21
233.7079748078958
 31
0.0
  0
LINE
  5
4C
330
48
100
AcDbEntity
  8
SUNPO
 62
     0
370
    -2
100
AcDbLine
 10
97.81002177178379
 20
231.7079748078958
 30
0.0
 11
105.2100183599576
 21
231.7079748078958
 31
0.0
  0
INSERT
  5
4D
330
48
100
AcDbEntity
  8
SUNPO
 62
     0
370
    -2
100
AcDbBlockReference
  2
_OPEN30
 10
95.8100217717838
 20
231.7079748078958
 30
0.0
 41
2.0
 42
2.0
 43
2.0
 50
180.0
  0
INSERT
  5
4E
330
48
100
AcDbEntity
  8
SUNPO
 62
     0
370
    -2
100
AcDbBlockReference
  2
_OPEN30
 10
107.2100183599576
 20
231.7079748078958
 30
0.0
 41
2.0
 42
2.0
 43
2.0
  0
MTEXT
  5
4F
330
48
100
AcDbEntity
  8
SUNPO
 62
     0
100
AcDbMText
 10
101.5100200658707
 20
233.4579748078958
 30
0.0
 40
2.5
 41
0.0
 71
     5
 72
     1
  1
\A1;114
 73
     1
 44
1.0
  0
POINT
  5
50
330
48
100
AcDbEntity
  8
DEFPOINTS
 62
     0
100
AcDbPoint
 10
95.8100217717838
 20
223.7079748078957
 30
0.0
  0
POINT
  5
51
330
48
100
AcDbEntity
  8
DEFPOINTS
 62
     0
100
AcDbPoint
 10
107.2100183599576
 20
223.7079748078957
 30
0.0
  0
POINT
  5
52
330
48
100
AcDbEntity
  8
DEFPOINTS
 62
     0
100
AcDbPoint
 10
107.2100183599576
 20
231.7079748078958
 30
0.0
  0
ENDBLK
  5
53
330
48
100
AcDbEntity
  8
0
100
AcDbBlockEnd
  0
BLOCK
  5
3B
330
3A
100
AcDbEntity
  8
0
100
AcDbBlockBegin
  2
*D4
 70
     1
 10
0.0
 20
0.0
 30
0.0
  3
*D4
  1

  0
LINE
  5
3C
330
3A
100
AcDbEntity
  8
SUNPO
 62
     0
370
    -2
100
AcDbLine
 10
90.76002177178372
 20
176.0979667706778
 30
0.0
 11
90.76002177178372
 21
168.0979667706778
 31
0.0
  0
LINE
  5
3D
330
3A
100
AcDbEntity
  8
SUNPO
 62
     0
370
    -2
100
AcDbLine
 10
117.7600183599577
 20
176.0979667706778
 30
0.0
 11
117.7600183599577
 21
168.0979667706778
 31
0.0
  0
LINE
  5
3E
330
3A
100
AcDbEntity
  8
SUNPO
 62
     0
370
    -2
100
AcDbLine
 10
92.76002177178373
 20
170.0979667706778
 30
0.0
 11
115.7600183599577
 21
170.0979667706778
 31
0.0
  0
INSERT
  5
3F
330
3A
100
AcDbEntity
  8
SUNPO
 62
     0
370
    -2
100
AcDbBlockReference
  2
_OPEN30
 10
90.76002177178372
 20
170.0979667706778
 30
0.0
 41
2.0
 42
2.0
 43
2.0
 50
180.0
  0
INSERT
  5
40
330
3A
100
AcDbEntity
  8
SUNPO
 62
     0
370
    -2
100
AcDbBlockReference
  2
_OPEN30
 10
117.7600183599577
 20
170.0979667706778
 30
0.0
 41
2.0
 42
2.0
 43
2.0
  0
MTEXT
  5
41
330
3A
100
AcDbEntity
  8
SUNPO
 62
     0
100
AcDbMText
 10
104.2600200658707
 20
171.8479667706778
 30
0.0
 40
2.5
 41
0.0
 71
     5
 72
     1
  1
\A1;270
 73
     1
 44
1.0
  0
POINT
  5
42
330
3A
100
AcDbEntity
  8
DEFPOINTS
 62
     0
100
AcDbPoint
 10
90.76002177178372
 20
178.0979667706778
 30
0.0
  0
POINT
  5
44
330
3A
100
AcDbEntity
  8
DEFPOINTS
 62
     0
100
AcDbPoint
 10
117.7600183599577
 20
178.0979667706778
 30
0.0
  0
POINT
  5
45
330
3A
100
AcDbEntity
  8
DEFPOINTS
 62
     0
100
AcDbPoint
 10
117.7600183599577
 20
170.0979667706778
 30
0.0
  0
ENDBLK
  5
46
330
3A
100
AcDbEntity
  8
0
100
AcDbBlockEnd
  0
BLOCK
  5
2F8
330
2EE
100
AcDbEntity
  8
0
100
AcDbBlockBegin
  2
*D5
 70
     1
 10
0.0
 20
0.0
 30
0.0
  3
*D5
  1

  0
LINE
  5
2EF
330
2EE
100
AcDbEntity
  8
SUNPO
 62
     0
370
    -2
100
AcDbLine
 10
27.54714800415519
 20
-12.07429337777304
 30
0.0
 11
27.54714800415519
 21
-20.07429337777304
 31
0.0
  0
LINE
  5
2F0
330
2EE
100
AcDbEntity
  8
SUNPO
 62
     0
370
    -2
100
AcDbLine
 10
54.54714459232917
 20
-12.07429337777304
 30
0.0
 11
54.54714459232917
 21
-20.07429337777304
 31
0.0
  0
LINE
  5
2F1
330
2EE
100
AcDbEntity
  8
SUNPO
 62
     0
370
    -2
100
AcDbLine
 10
29.54714800415519
 20
-18.07429337777304
 30
0.0
 11
52.54714459232918
 21
-18.07429337777304
 31
0.0
  0
INSERT
  5
2F2
330
2EE
100
AcDbEntity
  8
SUNPO
 62
     0
370
    -2
100
AcDbBlockReference
  2
_OPEN30
 10
27.54714800415519
 20
-18.07429337777304
 30
0.0
 41
2.0
 42
2.0
 43
2.0
 50
180.0
  0
INSERT
  5
2F3
330
2EE
100
AcDbEntity
  8
SUNPO
 62
     0
370
    -2
100
AcDbBlockReference
  2
_OPEN30
 10
54.54714459232917
 20
-18.07429337777304
 30
0.0
 41
2.0
 42
2.0
 43
2.0
  0
MTEXT
  5
2F4
330
2EE
100
AcDbEntity
  8
SUNPO
 62
     0
100
AcDbMText
 10
41.04714629824218
 20
-16.32429337777304
 30
0.0
 40
2.5
 41
0.0
 71
     5
 72
     1
  1
\A1;270
 73
     1
 44
1.0
  0
POINT
  5
2F5
330
2EE
100
AcDbEntity
  8
DEFPOINTS
 62
     0
100
AcDbPoint
 10
27.54714800415519
 20
-10.07429337777304
 30
0.0
  0
POINT
  5
2F6
330
2EE
100
AcDbEntity
  8
DEFPOINTS
 62
     0
100
AcDbPoint
 10
54.54714459232917
 20
-10.07429337777304
 30
0.0
  0
POINT
  5
2F7
330
2EE
100
AcDbEntity
  8
DEFPOINTS
 62
     0
100
AcDbPoint
 10
54.54714459232917
 20
-18.07429337777304
 30
0.0
  0
ENDBLK
  5
2F9
330
2EE
100
AcDbEntity
  8
0
100
AcDbBlockEnd
  0
BLOCK
  5
304
330
2FA
100
AcDbEntity
  8
0
100
AcDbBlockBegin
  2
*D6
 70
     1
 10
0.0
 20
0.0
 30
0.0
  3
*D6
  1

  0
LINE
  5
2FB
330
2FA
100
AcDbEntity
  8
SUNPO
 62
     0
370
    -2
100
AcDbLine
 10
32.59714800415526
 20
37.53571465944489
 30
0.0
 11
32.59714800415526
 21
45.53571465944492
 31
0.0
  0
LINE
  5
2FC
330
2FA
100
AcDbEntity
  8
SUNPO
 62
     0
370
    -2
100
AcDbLine
 10
43.9971445923291
 20
37.53571465944492
 30
0.0
 11
43.9971445923291
 21
45.53571465944492
 31
0.0
  0
LINE
  5
2FD
330
2FA
100
AcDbEntity
  8
SUNPO
 62
     0
370
    -2
100
AcDbLine
 10
34.59714800415525
 20
43.53571465944492
 30
0.0
 11
41.9971445923291
 21
43.53571465944492
 31
0.0
  0
INSERT
  5
2FE
330
2FA
100
AcDbEntity
  8
SUNPO
 62
     0
370
    -2
100
AcDbBlockReference
  2
_OPEN30
 10
32.59714800415526
 20
43.53571465944492
 30
0.0
 41
2.0
 42
2.0
 43
2.0
 50
180.0
  0
INSERT
  5
2FF
330
2FA
100
AcDbEntity
  8
SUNPO
 62
     0
370
    -2
100
AcDbBlockReference
  2
_OPEN30
 10
43.9971445923291
 20
43.53571465944492
 30
0.0
 41
2.0
 42
2.0
 43
2.0
  0
MTEXT
  5
300
330
2FA
100
AcDbEntity
  8
SUNPO
 62
     0
100
AcDbMText
 10
38.29714629824218
 20
45.28571465944492
 30
0.0
 40
2.5
 41
0.0
 71
     5
 72
     1
  1
\A1;114
 73
     1
 44
1.0
  0
POINT
  5
301
330
2FA
100
AcDbEntity
  8
DEFPOINTS
 62
     0
100
AcDbPoint
 10
32.59714800415526
 20
35.53571465944489
 30
0.0
  0
POINT
  5
302
330
2FA
100
AcDbEntity
  8
DEFPOINTS
 62
     0
100
AcDbPoint
 10
43.9971445923291
 20
35.53571465944492
 30
0.0
  0
POINT
  5
303
330
2FA
100
AcDbEntity
  8
DEFPOINTS
 62
     0
100
AcDbPoint
 10
43.9971445923291
 20
43.53571465944492
 30
0.0
  0
ENDBLK
  5
305
330
2FA
100
AcDbEntity
  8
0
100
AcDbBlockEnd
  0
BLOCK
  5
310
330
306
100
AcDbEntity
  8
0
100
AcDbBlockBegin
  2
*D7
 70
     1
 10
0.0
 20
0.0
 30
0.0
  3
*D7
  1

  0
LINE
  5
307
330
306
100
AcDbEntity
  8
SUNPO
 62
     0
370
    -2
100
AcDbLine
 10
14.29135635005917
 20
-10.0742933777731
 30
0.0
 11
24.9225521644269
 21
-10.0742933777731
 31
0.0
  0
LINE
  5
308
330
306
100
AcDbEntity
  8
SUNPO
 62
     0
370
    -2
100
AcDbLine
 10
14.29135635005917
 20
35.53571465944489
 30
0.0
 11
24.92255216442691
 21
35.53571465944488
 31
0.0
  0
LINE
  5
309
330
306
100
AcDbEntity
  8
SUNPO
 62
     0
370
    -2
100
AcDbLine
 10
22.9225521644269
 20
-8.074293377773104
 30
0.0
 11
22.92255216442691
 21
33.53571465944488
 31
0.0
  0
INSERT
  5
30A
330
306
100
AcDbEntity
  8
SUNPO
 62
     0
370
    -2
100
AcDbBlockReference
  2
_OPEN30
 10
22.9225521644269
 20
-10.0742933777731
 30
0.0
 41
2.0
 42
2.0
 43
2.0
 50
270.0
  0
INSERT
  5
30B
330
306
100
AcDbEntity
  8
SUNPO
 62
     0
370
    -2
100
AcDbBlockReference
  2
_OPEN30
 10
22.92255216442691
 20
35.53571465944488
 30
0.0
 41
2.0
 42
2.0
 43
2.0
 50
90.0
  0
MTEXT
  5
30C
330
306
100
AcDbEntity
  8
SUNPO
 62
     0
100
AcDbMText
 10
21.1725521644269
 20
12.73071064083589
 30
0.0
 40
2.5
 41
0.0
 71
     5
 72
     1
  1
\A1;456.1
 11
0.0000000000000001
 21
1.0
 31
0.0
 73
     1
 44
1.0
  0
POINT
  5
30D
330
306
100
AcDbEntity
  8
DEFPOINTS
 62
     0
100
AcDbPoint
 10
12.29135635005917
 20
-10.0742933777731
 30
0.0
  0
POINT
  5
30E
330
306
100
AcDbEntity
  8
DEFPOINTS
 62
     0
100
AcDbPoint
 10
12.29135635005917
 20
35.53571465944489
 30
0.0
  0
POINT
  5
30F
330
306
100
AcDbEntity
  8
DEFPOINTS
 62
     0
100
AcDbPoint
 10
22.92255216442691
 20
35.53571465944488
 30
0.0
  0
ENDBLK
  5
311
330
306
100
AcDbEntity
  8
0
100
AcDbBlockEnd
  0
BLOCK
  5
31C
330
312
100
AcDbEntity
  8
0
100
AcDbBlockBegin
  2
*D8
 70
     1
 10
0.0
 20
0.0
 30
0.0
  3
*D8
  1

  0
LINE
  5
313
330
312
100
AcDbEntity
  8
SUNPO
 62
     0
370
    -2
100
AcDbLine
 10
-54.00864856257277
 20
37.53571465944486
 30
0.0
 11
-54.00864856257277
 21
45.53571465944486
 31
0.0
  0
LINE
  5
314
330
312
100
AcDbEntity
  8
SUNPO
 62
     0
370
    -2
100
AcDbLine
 10
12.29135199869318
 20
37.53571465944486
 30
0.0
 11
12.29135199869318
 21
45.53571465944486
 31
0.0
  0
LINE
  5
315
330
312
100
AcDbEntity
  8
SUNPO
 62
     0
370
    -2
100
AcDbLine
 10
-52.00864856257277
 20
43.53571465944486
 30
0.0
 11
10.29135199869318
 21
43.53571465944486
 31
0.0
  0
INSERT
  5
316
330
312
100
AcDbEntity
  8
SUNPO
 62
     0
370
    -2
100
AcDbBlockReference
  2
_OPEN30
 10
-54.00864856257277
 20
43.53571465944486
 30
0.0
 41
2.0
 42
2.0
 43
2.0
 50
180.0
  0
INSERT
  5
317
330
312
100
AcDbEntity
  8
SUNPO
 62
     0
370
    -2
100
AcDbBlockReference
  2
_OPEN30
 10
12.29135199869318
 20
43.53571465944486
 30
0.0
 41
2.0
 42
2.0
 43
2.0
  0
MTEXT
  5
318
330
312
100
AcDbEntity
  8
SUNPO
 62
     0
100
AcDbMText
 10
-20.85864828193979
 20
45.28571465944486
 30
0.0
 40
2.5
 41
0.0
 71
     5
 72
     1
  1
\A1;663
 73
     1
 44
1.0
  0
POINT
  5
319
330
312
100
AcDbEntity
  8
DEFPOINTS
 62
     0
100
AcDbPoint
 10
-54.00864856257277
 20
35.53571465944486
 30
0.0
  0
POINT
  5
31A
330
312
100
AcDbEntity
  8
DEFPOINTS
 62
     0
100
AcDbPoint
 10
12.29135199869318
 20
35.53571465944486
 30
0.0
  0
POINT
  5
31B
330
312
100
AcDbEntity
  8
DEFPOINTS
 62
     0
100
AcDbPoint
 10
12.29135199869318
 20
43.53571465944486
 30
0.0
  0
ENDBLK
  5
31D
330
312
100
AcDbEntity
  8
0
100
AcDbBlockEnd
  0
ENDSEC
  0
SECTION
  2
ENTITIES
  0
TEXT
  5
35
330
2
100
AcDbEntity
  8
MOJI1
100
AcDbText
 10
-34.21287376762842
 20
52.32695399119117
 30
0.0
 40
4.0
  1
液晶映像モニター
  7
KANJI
100
AcDbText
  0
DIMENSION
  5
38
330
2
100
AcDbEntity
  8
SUNPO
100
AcDbDimension
  2
*D5
 10
54.54714459232917
 20
-18.07429337777304
 30
0.0
 11
41.04714629824218
 21
-16.32429337777304
 31
0.0
 70
    33
  1
270
 71
     5
 42
26.99999658817398
  3
STANDARD
100
AcDbAlignedDimension
 13
27.54714800415519
 23
-10.07429337777304
 33
0.0
 14
54.54714459232917
 24
-10.07429337777304
 34
0.0
1001
ACAD
1000
DSTYLE
1002
{
1070
    40
1040
1.0
1070
   140
1040
2.5
1070
   147
1040
0.5
1070
   172
1070
     1
1070
   279
1070
     0
1070
   288
1070
     0
1002
}
  0
DIMENSION
  5
47
330
2
100
AcDbEntity
  8
SUNPO
100
AcDbDimension
  2
*D6
 10
43.9971445923291
 20
43.53571465944492
 30
0.0
 11
38.29714629824218
 21
45.28571465944492
 31
0.0
 70
    33
  1
114
 71
     5
 42
11.39999658817384
  3
STANDARD
100
AcDbAlignedDimension
 13
32.59714800415526
 23
35.53571465944489
 33
0.0
 14
43.9971445923291
 24
35.53571465944492
 34
0.0
1001
ACAD
1000
DSTYLE
1002
{
1070
    40
1040
1.0
1070
   140
1040
2.5
1070
   147
1040
0.5
1070
   172
1070
     1
1070
   279
1070
     0
1070
   288
1070
     0
1002
}
  0
DIMENSION
  5
54
330
2
100
AcDbEntity
  8
SUNPO
100
AcDbDimension
  2
*D7
 10
22.92255216442691
 20
35.53571465944488
 30
0.0
 11
21.1725521644269
 21
12.73071064083589
 31
0.0
 70
    33
  1
456.1
 71
     5
 42
45.61000803721799
  3
STANDARD
100
AcDbAlignedDimension
 13
12.29135635005917
 23
-10.0742933777731
 33
0.0
 14
12.29135635005917
 24
35.53571465944489
 34
0.0
1001
ACAD
1000
DSTYLE
1002
{
1070
    40
1040
1.0
1070
   140
1040
2.5
1070
   147
1040
0.5
1070
   172
1070
     1
1070
   279
1070
     0
1070
   288
1070
     0
1002
}
  0
DIMENSION
  5
61
330
2
100
AcDbEntity
  8
SUNPO
100
AcDbDimension
  2
*D8
 10
12.29135199869318
 20
43.53571465944486
 30
0.0
 11
-20.85864828193979
 21
45.28571465944486
 31
0.0
 70
    33
  1
663
 71
     5
 42
66.30000056126596
  3
STANDARD
100
AcDbAlignedDimension
 13
-54.00864856257277
 23
35.53571465944486
 33
0.0
 14
12.29135199869318
 24
35.53571465944486
 34
0.0
1001
ACAD
1000
DSTYLE
1002
{
1070
    40
1040
1.0
1070
   140
1040
2.5
1070
   147
1040
0.5
1070
   172
1070
     1
1070
   279
1070
     0
1070
   288
1070
     0
1002
}
  0
LINE
  5
6E
330
2
100
AcDbEntity
  8
WAKU
 62
     1
100
AcDbLine
 10
-61.21287376762854
 20
-31.67304600880894
 30
0.0
 11
63.78712623237134
 21
-31.67304600880894
 31
0.0
  0
LINE
  5
6F
330
2
100
AcDbEntity
  8
WAKU
 62
     1
100
AcDbLine
 10
-61.21287376762854
 20
-26.67304600880894
 30
0.0
 11
63.78712623237134
 21
-26.67304600880894
 31
0.0
  0
LINE
  5
70
330
2
100
AcDbEntity
  8
WAKU
 62
     4
100
AcDbLine
 10
-61.21287376762854
 20
-21.67304600880894
 30
0.0
 11
63.78712623237134
 21
-21.67304600880894
 31
0.0
  0
LINE
  5
71
330
2
100
AcDbEntity
  8
WAKU
 62
     4
100
AcDbLine
 10
63.78712623237134
 20
-56.67304600880894
 30
0.0
 11
-61.21287376762854
 21
-56.67304600880894
 31
0.0
  0
LINE
  5
72
330
2
100
AcDbEntity
  8
WAKU
 62
     1
100
AcDbLine
 10
-61.21287376762854
 20
-51.67304600880894
 30
0.0
 11
63.78712623237134
 21
-51.67304600880894
 31
0.0
  0
LINE
  5
73
330
2
100
AcDbEntity
  8
WAKU
 62
     1
100
AcDbLine
 10
-61.21287376762854
 20
-46.67304600880894
 30
0.0
 11
63.78712623237134
 21
-46.67304600880894
 31
0.0
  0
LINE
  5
74
330
2
100
AcDbEntity
  8
WAKU
 62
     1
100
AcDbLine
 10
-61.21287376762854
 20
-41.67304600880894
 30
0.0
 11
63.78712623237134
 21
-41.67304600880894
 31
0.0
  0
LINE
  5
75
330
2
100
AcDbEntity
  8
WAKU
 62
     1
100
AcDbLine
 10
-61.21287376762854
 20
-36.67304600880894
 30
0.0
 11
63.78712623237134
 21
-36.67304600880894
 31
0.0
  0
LINE
  5
76
330
2
100
AcDbEntity
  8
WAKU
 62
     4
100
AcDbLine
 10
-61.21287376762854
 20
-21.67304600880894
 30
0.0
 11
-61.21287376762854
 21
-56.67304600880894
 31
0.0
  0
TEXT
  5
77
330
2
100
AcDbEntity
  8
MOJI1
100
AcDbText
 10
-18.71287376762853
 20
-30.67304600880893
 30
0.0
 40
3.0
  1
２６型（１６：９）
100
AcDbText
  0
TEXT
  5
78
330
2
100
AcDbEntity
  8
MOJI1
100
AcDbText
 10
-18.71287376762853
 20
-40.67304600880894
 30
0.0
 40
3.0
  1
上下１７６°、左右１７６°
100
AcDbText
  0
TEXT
  5
79
330
2
100
AcDbEntity
  8
MOJI1
100
AcDbText
 10
-18.71287376762853
 20
-35.67304600880893
 30
0.0
 40
3.0
  1
１３６６×７６８ドット（ＷＸＧＡ）
100
AcDbText
  0
TEXT
  5
7A
330
2
100
AcDbEntity
  8
MOJI1
100
AcDbText
 10
-18.71287376762853
 20
-45.67304600880894
 30
0.0
 40
3.0
  1
ＶＩＤＥＯ／アナログコンポーネント／ＳＤＩ
100
AcDbText
  0
TEXT
  5
7B
330
2
100
AcDbEntity
  8
MOJI1
100
AcDbText
 10
-18.71287376762853
 20
-25.67304600880893
 30
0.0
 40
3.0
  1
ＡＣ１００Ｖ～２４０Ｖ　５０／６０Ｈｚ　
100
AcDbText
  0
TEXT
  5
7C
330
2
100
AcDbEntity
  8
MOJI1
100
AcDbText
 10
-58.71287376762854
 20
-45.67304600880894
 30
0.0
 40
3.0
  1
映像入力
100
AcDbText
  0
TEXT
  5
7D
330
2
100
AcDbEntity
  8
MOJI1
100
AcDbText
 10
-58.71287376762854
 20
-30.67304600880893
 30
0.0
 40
3.0
  1
パネルサイズ
100
AcDbText
  0
TEXT
  5
7E
330
2
100
AcDbEntity
  8
MOJI1
100
AcDbText
 10
-58.71287376762854
 20
-25.67304600880893
 30
0.0
 40
3.0
  1
電　源
100
AcDbText
  0
TEXT
  5
7F
330
2
100
AcDbEntity
  8
MOJI1
100
AcDbText
 10
-58.71287376762854
 20
-35.67304600880893
 30
0.0
 40
3.0
  1
画素数
100
AcDbText
  0
TEXT
  5
80
330
2
100
AcDbEntity
  8
MOJI1
100
AcDbText
 10
-58.71287376762854
 20
-40.67304600880894
 30
0.0
 40
3.0
  1
視野角
100
AcDbText
  0
LINE
  5
81
330
2
100
AcDbEntity
  8
WAKU
 62
     4
100
AcDbLine
 10
-21.21287376762853
 20
-21.67304600880894
 30
0.0
 11
-21.21287376762853
 21
-56.67304600880894
 31
0.0
  0
LINE
  5
82
330
2
100
AcDbEntity
  8
WAKU
 62
     4
100
AcDbLine
 10
63.78712623237134
 20
-21.67304600880894
 30
0.0
 11
63.78712623237134
 21
-56.67304600880894
 31
0.0
  0
TEXT
  5
83
330
2
100
AcDbEntity
  8
TOUROKU
100
AcDbText
 10
42.7204095986322
 20
46.32695399119095
 30
0.0
 40
2.0
  1
ＢＴＬＨ２６００Ｗ
 72
     2
 11
63.78707626529886
 21
46.32695399119095
 31
0.0
100
AcDbText
  0
LINE
  5
85
330
2
100
AcDbEntity
  8
GAIKEI
100
AcDbLine
 10
43.99714459232922
 20
-5.5373971791727
 30
0.0
 11
43.99714459232922
 21
-3.0324878694706
 31
0.0
  0
ARC
  5
87
330
2
100
AcDbEntity
  8
GAIKEI
100
AcDbCircle
 10
38.92998686278275
 20
-6.918956941744369
 30
0.0
 40
0.9896746287293277
100
AcDbArc
 50
270.8286886588585
 51
289.5877640587672
  0
ARC
  5
88
330
2
100
AcDbEntity
  8
GAIKEI
100
AcDbCircle
 10
38.92639770099362
 20
33.73394313348214
 30
0.0
 40
1.009661150868788
100
AcDbArc
 50
70.59953281970843
 51
88.98401446265864
  0
ARC
  5
89
330
2
100
AcDbEntity
  8
GAIKEI
100
AcDbCircle
 10
43.69503726895385
 20
29.96284694118727
 30
0.0
 40
0.3021089545984212
100
AcDbArc
 50
271.1610239892027
 51
359.8117163041757
  0
ARC
  5
8A
330
2
100
AcDbEntity
  8
GAIKEI
 62
     1
100
AcDbCircle
 10
43.72626801022301
 20
30.36848076916723
 30
0.0
 40
0.283265415195774
100
AcDbArc
 50
264.9144915794599
 51
340.876249583643
  0
LINE
  5
8B
330
2
100
AcDbEntity
  8
GAIKEI
 62
     1
100
AcDbLine
 10
43.70115869260366
 20
30.08633042340326
 30
0.0
 11
43.70115869260366
 21
29.66080001003078
 31
0.0
  0
LINE
  5
8C
330
2
100
AcDbEntity
  8
GAIKEI
100
AcDbLine
 10
43.49599586347898
 20
29.65755632893794
 30
0.0
 11
43.70115869260366
 21
29.66080001003078
 31
0.0
  0
LINE
  5
8D
330
2
100
AcDbEntity
  8
GAIKEI
 62
     1
100
AcDbLine
 10
43.49599586347898
 20
30.08430312272023
 30
0.0
 11
43.70115869260366
 21
30.08633042340326
 31
0.0
  0
LINE
  5
8E
330
2
100
AcDbEntity
  8
GAIKEI
100
AcDbLine
 10
38.94430036989234
 20
34.74344555250851
 30
0.0
 11
37.69507768899626
 21
34.7651376698171
 31
0.0
  0
LINE
  5
8F
330
2
100
AcDbEntity
  8
GAIKEI
100
AcDbLine
 10
39.2617756568581
 20
34.6862756732464
 30
0.0
 11
43.39625266987281
 21
33.22215911994689
 31
0.0
  0
LINE
  5
90
330
2
100
AcDbEntity
  8
GAIKEI
 62
     1
100
AcDbLine
 10
39.2617756568581
 20
33.7415535549446
 30
0.0
 11
43.39625266987281
 21
32.27763973171326
 31
0.0
  0
LINE
  5
91
330
2
100
AcDbEntity
  8
GAIKEI
 62
     1
100
AcDbLine
 10
38.94430036989234
 20
30.58991191307322
 30
0.0
 11
38.94430036989234
 21
34.74344555250851
 31
0.0
  0
LINE
  5
92
330
2
100
AcDbEntity
  8
GAIKEI
 62
     1
100
AcDbLine
 10
39.2617756568581
 20
33.7415535549446
 30
0.0
 11
37.69507768899615
 21
33.76324567225319
 31
0.0
  0
LINE
  5
93
330
2
100
AcDbEntity
  8
GAIKEI
 62
     1
100
AcDbLine
 10
39.2617756568581
 20
33.7415535549446
 30
0.0
 11
39.26177565685822
 21
30.89461520573578
 31
0.0
  0
LINE
  5
94
330
2
100
AcDbEntity
  8
GAIKEI
 62
     1
100
AcDbLine
 10
43.39625266987281
 20
32.27763973171326
 30
0.0
 11
43.9971445923291
 21
32.27763973171326
 31
0.0
  0
LINE
  5
95
330
2
100
AcDbEntity
  8
GAIKEI
 62
     1
100
AcDbLine
 10
37.69507768899626
 20
35.06233994995247
 30
0.0
 11
37.69507768899626
 21
29.08910121742033
 31
0.0
  0
LINE
  5
96
330
2
100
AcDbEntity
  8
GAIKEI
100
AcDbLine
 10
37.69507768899615
 20
35.04612154448804
 30
0.0
 11
37.86618186664572
 21
35.00334550007571
 31
0.0
  0
LINE
  5
97
330
2
100
AcDbEntity
  8
GAIKEI
100
AcDbLine
 10
37.86618186664572
 20
35.00334550007571
 30
0.0
 11
37.86618186664572
 21
34.76216653268497
 31
0.0
  0
ARC
  5
98
330
2
100
AcDbEntity
  8
GAIKEI
100
AcDbCircle
 10
36.99322539444227
 20
34.61776846937309
 30
0.0
 40
0.954317897226709
100
AcDbArc
 50
8.628452730723244
 51
23.83061683552001
  0
ARC
  5
99
330
2
100
AcDbEntity
  8
GAIKEI
 62
     1
100
AcDbCircle
 10
38.25717542691739
 20
34.21391461409561
 30
0.0
 40
1.110111072009942
100
AcDbArc
 50
334.8171823360692
 51
25.18281766392556
  0
ARC
  5
9A
330
2
100
AcDbEntity
  8
GAIKEI
 62
     1
100
AcDbCircle
 10
42.26666278593808
 20
32.74989942583008
 30
0.0
 40
1.224337586033815
100
AcDbArc
 50
337.311138037282
 51
22.68886196271764
  0
ARC
  5
9B
330
2
100
AcDbEntity
  8
GAIKEI
100
AcDbCircle
 10
43.09411342268134
 20
32.37117235532989
 30
0.0
 40
0.9030318921536611
100
AcDbArc
 50
0.0724780978798008
 51
70.45280901582079
  0
LINE
  5
9C
330
2
100
AcDbEntity
  8
GAIKEI
100
AcDbLine
 10
37.40436277104669
 20
35.29122219706889
 30
0.0
 11
37.53370455462533
 21
35.28899216631756
 31
0.0
  0
ARC
  5
9D
330
2
100
AcDbEntity
  8
GAIKEI
100
AcDbCircle
 10
37.5313851379405
 20
35.18720225934359
 30
0.0
 40
0.1018163290220731
100
AcDbArc
 50
27.01150923594021
 51
88.69466631749524
  0
LINE
  5
9E
330
2
100
AcDbEntity
  8
GAIKEI
100
AcDbLine
 10
37.62209486440639
 20
35.23344412760192
 30
0.0
 11
37.68534664571751
 21
35.10714329504784
 31
0.0
  0
ARC
  5
9F
330
2
100
AcDbEntity
  8
GAIKEI
100
AcDbCircle
 10
37.5883210587869
 20
35.06261142697368
 30
0.0
 40
0.1067569753852709
100
AcDbArc
 50
359.8542998782324
 51
24.6537199507326
  0
ARC
  5
A0
330
2
100
AcDbEntity
  8
GAIKEI
 62
     1
100
AcDbCircle
 10
37.58832105878701
 20
29.08882974038917
 30
0.0
 40
0.1067569753852709
100
AcDbArc
 50
335.3462800492674
 51
0.1457001217675608
  0
LINE
  5
A1
330
2
100
AcDbEntity
  8
GAIKEI
 62
     1
100
AcDbLine
 10
37.62209486440639
 20
28.91799703976082
 30
0.0
 11
37.68534664571763
 21
29.0442978723149
 31
0.0
  0
ARC
  5
A2
330
2
100
AcDbEntity
  8
GAIKEI
 62
     1
100
AcDbCircle
 10
37.5313851379405
 20
28.96423890801921
 30
0.0
 40
0.1018163290220731
100
AcDbArc
 50
271.3053336825047
 51
332.9884907640598
  0
ARC
  5
A3
330
2
100
AcDbEntity
  8
GAIKEI
 62
     1
100
AcDbCircle
 10
37.30334301733757
 20
28.71632975289136
 30
0.0
 40
0.1010207765394327
100
AcDbArc
 50
269.114240227108
 51
359.7421694059352
  0
LINE
  5
A4
330
2
100
AcDbEntity
  8
GAIKEI
 62
     1
100
AcDbLine
 10
37.40436277104669
 20
28.86021897029385
 30
0.0
 11
37.40436277104669
 21
28.71587516166064
 31
0.0
  0
LINE
  5
A5
330
2
100
AcDbEntity
  8
GAIKEI
 62
     1
100
AcDbLine
 10
37.40436277104669
 20
28.86021897029385
 30
0.0
 11
37.53370455462533
 21
28.86244900104523
 31
0.0
  0
ARC
  5
A6
330
2
100
AcDbEntity
  8
GAIKEI
 62
     1
100
AcDbCircle
 10
36.99322539444227
 20
29.53367269798977
 30
0.0
 40
0.954317897226709
100
AcDbArc
 50
336.1693831644799
 51
359.2584457477333
  0
LINE
  5
A7
330
2
100
AcDbEntity
  8
GAIKEI
 62
     1
100
AcDbLine
 10
37.86618186664572
 20
29.14809566728715
 30
0.0
 11
37.86618186664572
 21
29.89454777878663
 31
0.0
  0
LINE
  5
A8
330
2
100
AcDbEntity
  8
GAIKEI
 62
     1
100
AcDbLine
 10
37.69507768899615
 20
29.10531962287476
 30
0.0
 11
37.86618186664572
 21
29.14809566728715
 31
0.0
  0
LINE
  5
A9
330
2
100
AcDbEntity
  8
GAIKEI
 62
     1
100
AcDbLine
 10
37.69507768899615
 20
29.93732382319908
 30
0.0
 11
37.86618186664572
 21
29.89454777878663
 31
0.0
  0
ARC
  5
AA
330
2
100
AcDbEntity
  8
GAIKEI
 62
     1
100
AcDbCircle
 10
36.99322539444227
 20
29.50897074808401
 30
0.0
 40
0.954317897226709
100
AcDbArc
 50
0.7415542522666927
 51
23.83061683552001
  0
ARC
  5
AB
330
2
100
AcDbEntity
  8
GAIKEI
 62
     1
100
AcDbCircle
 10
38.91244641624388
 20
30.84041172161377
 30
0.0
 40
0.3535094567888315
100
AcDbArc
 50
315.8479042877864
 51
8.819934730279037
  0
ARC
  5
AC
330
2
100
AcDbEntity
  8
GAIKEI
 62
     1
100
AcDbCircle
 10
38.25022097751906
 20
30.02753131859626
 30
0.0
 40
0.8507690523056346
100
AcDbArc
 50
90.90574171555854
 51
130.7318222190015
  0
ARC
  5
AD
330
2
100
AcDbEntity
  8
GAIKEI
 62
     1
100
AcDbCircle
 10
38.24647945429893
 20
30.02663407605891
 30
0.0
 40
0.5514022120366695
100
AcDbArc
 50
91.00870137369037
 51
179.9270663546073
  0
LINE
  5
AE
330
2
100
AcDbEntity
  8
GAIKEI
 62
     1
100
AcDbLine
 10
38.23677243150751
 20
30.57795083904315
 30
0.0
 11
38.23677243150751
 21
30.87819407020308
 31
0.0
  0
LINE
  5
AF
330
2
100
AcDbEntity
  8
GAIKEI
 62
     1
100
AcDbLine
 10
38.23677243150751
 20
30.87819407020308
 30
0.0
 11
43.2778583099826
 21
30.96496253943766
 31
0.0
  0
LINE
  5
B0
330
2
100
AcDbEntity
  8
GAIKEI
 62
     1
100
AcDbLine
 10
38.23677243150751
 20
30.57795083904315
 30
0.0
 11
43.3017759463475
 21
30.66598008524303
 31
0.0
  0
LINE
  5
B1
330
2
100
AcDbEntity
  8
GAIKEI
 62
     1
100
AcDbLine
 10
43.39625266987281
 20
30.9657734597109
 30
0.0
 11
43.39625266987281
 21
32.27763973171326
 31
0.0
  0
ARC
  5
B2
330
2
100
AcDbEntity
  8
GAIKEI
 62
     1
100
AcDbCircle
 10
43.01506315950627
 20
30.9211179586558
 30
0.0
 40
0.3837962435823825
100
AcDbArc
 50
318.3349885150708
 51
6.681618569274599
  0
ARC
  5
B3
330
2
100
AcDbEntity
  8
GAIKEI
 62
     1
100
AcDbCircle
 10
43.36742274111901
 20
26.5317493256143
 30
0.0
 40
4.434117858891763
100
AcDbArc
 50
81.83539915187134
 51
91.15739208481894
  0
ARC
  5
B4
330
2
100
AcDbEntity
  8
GAIKEI
 62
     1
100
AcDbCircle
 10
43.04320460709976
 20
30.15518781705267
 30
0.0
 40
0.4556110893790509
100
AcDbArc
 50
353.6221187628126
 51
83.37019092230708
  0
ARC
  5
B5
330
2
100
AcDbEntity
  8
GAIKEI
 62
     1
100
AcDbCircle
 10
42.47808767329178
 20
26.21286657587822
 30
0.0
 40
4.438084732867017
100
AcDbArc
 50
81.99925662554006
 51
91.10715897614596
  0
ARC
  5
B6
330
2
100
AcDbEntity
  8
GAIKEI
100
AcDbCircle
 10
37.30471271606205
 20
35.43610496766493
 30
0.0
 40
0.0996528151408038
100
AcDbArc
 50
359.5735573012475
 51
91.68563991555235
  0
LINE
  5
B7
330
2
100
AcDbEntity
  8
GAIKEI
 62
     1
100
AcDbLine
 10
38.83847527423705
 20
-3.753372578087606
 30
0.0
 11
38.83847527423705
 21
30.58806224807753
 31
0.0
  0
LINE
  5
B8
330
2
100
AcDbEntity
  8
GAIKEI
 62
     1
100
AcDbLine
 10
39.34124584363365
 20
-3.76249543116134
 30
0.0
 11
39.34124584363365
 21
30.59682278586191
 31
0.0
  0
ARC
  5
B9
330
2
100
AcDbEntity
  8
GAIKEI
100
AcDbCircle
 10
43.75562321957255
 20
-2.336317180953614
 30
0.0
 40
0.259627717567819
100
AcDbArc
 50
179.9043905582929
 51
219.7477201245392
  0
LINE
  5
BA
330
2
100
AcDbEntity
  8
GAIKEI
 62
     1
100
AcDbLine
 10
43.0958067086446
 20
-3.772834664644932
 30
0.0
 11
43.0958067086446
 21
30.60775215908401
 31
0.0
  0
LINE
  5
BB
330
2
100
AcDbEntity
  8
GAIKEI
100
AcDbLine
 10
43.49599586347887
 20
-3.269658635111596
 30
0.0
 11
43.49599586347887
 21
30.10457612955062
 31
0.0
  0
ARC
  5
BC
330
2
100
AcDbEntity
  8
GAIKEI
100
AcDbCircle
 10
42.47808767329178
 20
0.6220509185608592
 30
0.0
 40
4.438084732867017
100
AcDbArc
 50
268.892841023854
 51
278.0007433744599
  0
ARC
  5
BD
330
2
100
AcDbEntity
  8
GAIKEI
100
AcDbCircle
 10
43.04320460709976
 20
-3.320270322613595
 30
0.0
 40
0.4556110893790509
100
AcDbArc
 50
276.6298090776929
 51
6.377881237187352
  0
ARC
  5
BE
330
2
100
AcDbEntity
  8
GAIKEI
 62
     1
100
AcDbCircle
 10
42.79414356892511
 20
3.78756221344426
 30
0.0
 40
0.954317897226709
100
AcDbArc
 50
336.1693831644799
 51
359.2584457477333
  0
LINE
  5
BF
330
2
100
AcDbEntity
  8
GAIKEI
 62
     1
100
AcDbLine
 10
43.49599586347898
 20
3.359209138329248
 30
0.0
 11
43.66710004112843
 21
3.40198518274164
 31
0.0
  0
LINE
  5
C0
330
2
100
AcDbEntity
  8
GAIKEI
 62
     1
100
AcDbLine
 10
43.49599586347898
 20
4.191213338653511
 30
0.0
 11
43.66710004112843
 21
4.148437294241119
 31
0.0
  0
LINE
  5
C1
330
2
100
AcDbEntity
  8
GAIKEI
 62
     1
100
AcDbLine
 10
43.66710004112843
 20
4.148437294241119
 30
0.0
 11
43.66710004112843
 21
3.40198518274164
 31
0.0
  0
ARC
  5
C2
330
2
100
AcDbEntity
  8
GAIKEI
 62
     1
100
AcDbCircle
 10
42.79414356892511
 20
3.762860263538499
 30
0.0
 40
0.954317897226709
100
AcDbArc
 50
0.741554252266697
 51
23.83061683552001
  0
ARC
  5
C3
330
2
100
AcDbEntity
  8
GAIKEI
 62
     1
100
AcDbCircle
 10
43.36742274111901
 20
0.3031681688248398
 30
0.0
 40
4.434117858891763
100
AcDbArc
 50
268.842607915181
 51
278.1646008481286
  0
ARC
  5
C4
330
2
100
AcDbEntity
  8
GAIKEI
 62
     1
100
AcDbCircle
 10
43.01506315950627
 20
-4.086200464216659
 30
0.0
 40
0.3837962435823825
100
AcDbArc
 50
353.3183814307254
 51
41.66501148492915
  0
LINE
  5
C5
330
2
100
AcDbEntity
  8
GAIKEI
 62
     1
100
AcDbLine
 10
43.39625266987281
 20
-4.130855965271763
 30
0.0
 11
43.39625266987281
 21
-5.442722237274239
 31
0.0
  0
LINE
  5
C6
330
2
100
AcDbEntity
  8
GAIKEI
 62
     1
100
AcDbLine
 10
38.23677243150751
 20
-3.743033344604071
 30
0.0
 11
43.3017759463475
 21
-3.831062590803952
 31
0.0
  0
LINE
  5
C7
330
2
100
AcDbEntity
  8
GAIKEI
 62
     1
100
AcDbLine
 10
38.23677243150751
 20
-4.04327657576394
 30
0.0
 11
43.2778583099826
 21
-4.130045044998524
 31
0.0
  0
LINE
  5
C8
330
2
100
AcDbEntity
  8
GAIKEI
 62
     1
100
AcDbLine
 10
38.23677243150751
 20
-3.743033344604071
 30
0.0
 11
38.23677243150751
 21
-4.04327657576394
 31
0.0
  0
ARC
  5
C9
330
2
100
AcDbEntity
  8
GAIKEI
 62
     1
100
AcDbCircle
 10
38.24647945429893
 20
-3.191716581619829
 30
0.0
 40
0.5514022120366695
100
AcDbArc
 50
180.0729336453926
 51
268.9912986263096
  0
ARC
  5
CA
330
2
100
AcDbEntity
  8
GAIKEI
 62
     1
100
AcDbCircle
 10
38.25022097751906
 20
-3.192613824157177
 30
0.0
 40
0.8507690523056346
100
AcDbArc
 50
229.2681777809983
 51
269.0942582844414
  0
ARC
  5
CB
330
2
100
AcDbEntity
  8
GAIKEI
 62
     1
100
AcDbCircle
 10
38.91244641624388
 20
-4.005494227174693
 30
0.0
 40
0.3535094567888315
100
AcDbArc
 50
351.1800652697209
 51
44.15209571221359
  0
ARC
  5
CC
330
2
100
AcDbEntity
  8
GAIKEI
 62
     1
100
AcDbCircle
 10
36.70251047649282
 20
15.48674011362371
 30
0.0
 40
0.954317897226709
100
AcDbArc
 50
0.741554252266697
 51
23.83061683552001
  0
LINE
  5
CD
330
2
100
AcDbEntity
  8
GAIKEI
 62
     1
100
AcDbLine
 10
37.57546694869614
 20
15.87231714432633
 30
0.0
 11
37.57546694869614
 21
15.12586503282679
 31
0.0
  0
LINE
  5
CE
330
2
100
AcDbEntity
  8
GAIKEI
 62
     1
100
AcDbLine
 10
37.40436277104669
 20
15.91509318873866
 30
0.0
 11
37.57546694869614
 21
15.87231714432633
 31
0.0
  0
LINE
  5
CF
330
2
100
AcDbEntity
  8
GAIKEI
 62
     1
100
AcDbLine
 10
37.40436277104669
 20
15.0830889884144
 30
0.0
 11
37.57546694869614
 21
15.12586503282679
 31
0.0
  0
ARC
  5
D0
330
2
100
AcDbEntity
  8
GAIKEI
 62
     1
100
AcDbCircle
 10
36.70251047649282
 20
15.51144206352941
 30
0.0
 40
0.954317897226709
100
AcDbArc
 50
336.1693831644799
 51
359.2584457477333
  0
ARC
  5
D1
330
2
100
AcDbEntity
  8
GAIKEI
 62
     1
100
AcDbCircle
 10
36.70251047649282
 20
0.4595765305748785
 30
0.0
 40
0.954317897226709
100
AcDbArc
 50
0.741554252266697
 51
23.83061683552001
  0
LINE
  5
D2
330
2
100
AcDbEntity
  8
GAIKEI
 62
     1
100
AcDbLine
 10
37.57546694869614
 20
0.8451535612774989
 30
0.0
 11
37.57546694869614
 21
0.0987014497779626
 31
0.0
  0
LINE
  5
D3
330
2
100
AcDbEntity
  8
GAIKEI
 62
     1
100
AcDbLine
 10
37.40436277104669
 20
0.8879296056898908
 30
0.0
 11
37.57546694869614
 21
0.8451535612774989
 31
0.0
  0
LINE
  5
D4
330
2
100
AcDbEntity
  8
GAIKEI
 62
     1
100
AcDbLine
 10
37.40436277104669
 20
0.0559254053655707
 30
0.0
 11
37.57546694869614
 21
0.0987014497779626
 31
0.0
  0
ARC
  5
D5
330
2
100
AcDbEntity
  8
GAIKEI
 62
     1
100
AcDbCircle
 10
36.70251047649282
 20
0.4842784804805831
 30
0.0
 40
0.954317897226709
100
AcDbArc
 50
336.1693831644799
 51
359.2584457477333
  0
ARC
  5
D6
330
2
100
AcDbEntity
  8
GAIKEI
100
AcDbCircle
 10
32.89793099563161
 20
35.11887483304687
 30
0.0
 40
0.3007829926708342
100
AcDbArc
 50
91.53185934642291
 51
179.9948937653631
  0
LINE
  5
D7
330
2
100
AcDbEntity
  8
GAIKEI
100
AcDbLine
 10
32.88989022278775
 20
35.41955033030612
 30
0.0
 11
37.30178135648424
 21
35.53571465944489
 31
0.0
  0
LINE
  5
D8
330
2
100
AcDbEntity
  8
GAIKEI
 62
     1
100
AcDbLine
 10
32.59714800415526
 20
34.3296734830977
 30
0.0
 11
37.68534664571751
 21
34.3296734830977
 31
0.0
  0
ARC
  5
D9
330
2
100
AcDbEntity
  8
GAIKEI
 62
     1
100
AcDbCircle
 10
36.99322539444227
 20
-2.674053253644927
 30
0.0
 40
0.954317897226709
100
AcDbArc
 50
336.1693831644799
 51
359.2584457477333
  0
LINE
  5
DA
330
2
100
AcDbEntity
  8
GAIKEI
 62
     1
100
AcDbLine
 10
37.69507768899615
 20
-3.10240632875994
 30
0.0
 11
37.86618186664572
 21
-3.059630284347548
 31
0.0
  0
LINE
  5
DB
330
2
100
AcDbEntity
  8
GAIKEI
 62
     1
100
AcDbLine
 10
37.69507768899615
 20
-2.270402128435677
 30
0.0
 11
37.86618186664572
 21
-2.313178172848012
 31
0.0
  0
LINE
  5
DC
330
2
100
AcDbEntity
  8
GAIKEI
 62
     1
100
AcDbLine
 10
37.86618186664572
 20
-2.313178172848012
 30
0.0
 11
37.86618186664572
 21
-3.059630284347548
 31
0.0
  0
ARC
  5
DD
330
2
100
AcDbEntity
  8
GAIKEI
 62
     1
100
AcDbCircle
 10
36.99322539444227
 20
-2.698755203550632
 30
0.0
 40
0.954317897226709
100
AcDbArc
 50
0.741554252266697
 51
23.83061683552001
  0
LINE
  5
DE
330
2
100
AcDbEntity
  8
GAIKEI
 62
     1
100
AcDbLine
 10
37.40436277104669
 20
-2.025301475854774
 30
0.0
 11
37.53370455462533
 21
-2.027531506606095
 31
0.0
  0
LINE
  5
DF
330
2
100
AcDbEntity
  8
GAIKEI
 62
     1
100
AcDbLine
 10
37.40436277104669
 20
-2.025301475854774
 30
0.0
 11
37.40436277104669
 21
-1.880957667221565
 31
0.0
  0
ARC
  5
E0
330
2
100
AcDbEntity
  8
GAIKEI
 62
     1
100
AcDbCircle
 10
37.30334301733757
 20
-1.881412258452286
 30
0.0
 40
0.1010207765394327
100
AcDbArc
 50
0.2578305940647337
 51
90.8857597728919
  0
ARC
  5
E1
330
2
100
AcDbEntity
  8
GAIKEI
 62
     1
100
AcDbCircle
 10
37.5313851379405
 20
-2.129321413580129
 30
0.0
 40
0.1018163290220731
100
AcDbArc
 50
27.01150923594021
 51
88.69466631749524
  0
LINE
  5
E2
330
2
100
AcDbEntity
  8
GAIKEI
 62
     1
100
AcDbLine
 10
37.62209486440639
 20
-2.083079545321737
 30
0.0
 11
37.68534664571763
 21
-2.209380377875817
 31
0.0
  0
ARC
  5
E3
330
2
100
AcDbEntity
  8
GAIKEI
 62
     1
100
AcDbCircle
 10
37.58832105878701
 20
-2.253912245950033
 30
0.0
 40
0.1067569753852709
100
AcDbArc
 50
359.8542998782324
 51
24.6537199507326
  0
LINE
  5
E4
330
2
100
AcDbEntity
  8
GAIKEI
 62
     1
100
AcDbLine
 10
32.88989022278775
 20
-3.888390803578801
 30
0.0
 11
32.88989022278775
 21
35.41955033030612
 31
0.0
  0
ARC
  5
E5
330
2
100
AcDbEntity
  8
GAIKEI
100
AcDbCircle
 10
37.5883210587869
 20
-8.227693932534549
 30
0.0
 40
0.1067569753852709
100
AcDbArc
 50
335.3462800492674
 51
0.1457001217675722
  0
LINE
  5
E6
330
2
100
AcDbEntity
  8
GAIKEI
100
AcDbLine
 10
37.62209486440639
 20
-8.398526633162902
 30
0.0
 11
37.68534664571751
 21
-8.272225800608822
 31
0.0
  0
ARC
  5
E7
330
2
100
AcDbEntity
  8
GAIKEI
100
AcDbCircle
 10
37.5313851379405
 20
-8.35228476490451
 30
0.0
 40
0.1018163290220731
100
AcDbArc
 50
271.3053336825047
 51
332.9884907640598
  0
ARC
  5
E8
330
2
100
AcDbEntity
  8
GAIKEI
100
AcDbCircle
 10
37.30334301733757
 20
-8.600193920032353
 30
0.0
 40
0.1010207765394327
100
AcDbArc
 50
269.1142402271081
 51
359.7421694059352
  0
LINE
  5
E9
330
2
100
AcDbEntity
  8
GAIKEI
100
AcDbLine
 10
37.40436277104669
 20
-8.456304702629864
 30
0.0
 11
37.40436277104658
 21
-8.600648511263074
 31
0.0
  0
LINE
  5
EA
330
2
100
AcDbEntity
  8
GAIKEI
100
AcDbLine
 10
37.40436277104669
 20
-8.456304702629864
 30
0.0
 11
37.53370455462533
 21
-8.454074671878487
 31
0.0
  0
ARC
  5
EB
330
2
100
AcDbEntity
  8
GAIKEI
100
AcDbCircle
 10
43.09411342268134
 20
-5.536254860890807
 30
0.0
 40
0.9030318921536611
100
AcDbArc
 50
289.5471909841792
 51
359.9275219021202
  0
ARC
  5
EC
330
2
100
AcDbEntity
  8
GAIKEI
 62
     1
100
AcDbCircle
 10
42.26666278593808
 20
-5.914981931390997
 30
0.0
 40
1.224337586033815
100
AcDbArc
 50
337.3111380372823
 51
22.68886196271787
  0
ARC
  5
ED
330
2
100
AcDbEntity
  8
GAIKEI
 62
     1
100
AcDbCircle
 10
38.25717542691739
 20
-7.378997119656474
 30
0.0
 40
1.110111072009942
100
AcDbArc
 50
334.8171823360744
 51
25.18281766393078
  0
ARC
  5
EE
330
2
100
AcDbEntity
  8
GAIKEI
100
AcDbCircle
 10
36.99322539444227
 20
-7.78285097493395
 30
0.0
 40
0.954317897226709
100
AcDbArc
 50
336.1693831644799
 51
350.1544124469296
  0
LINE
  5
EF
330
2
100
AcDbEntity
  8
GAIKEI
100
AcDbLine
 10
37.86618186664572
 20
-8.16842800563657
 30
0.0
 11
37.86618186664572
 21
-7.935517503335944
 31
0.0
  0
LINE
  5
F0
330
2
100
AcDbEntity
  8
GAIKEI
100
AcDbLine
 10
37.69507768899615
 20
-8.211204050048962
 30
0.0
 11
37.86618186664572
 21
-8.16842800563657
 31
0.0
  0
LINE
  5
F1
330
2
100
AcDbEntity
  8
GAIKEI
 62
     1
100
AcDbLine
 10
37.69507768899626
 20
-8.227422455513391
 30
0.0
 11
37.69507768899626
 21
-2.254183722981252
 31
0.0
  0
LINE
  5
F2
330
2
100
AcDbEntity
  8
GAIKEI
 62
     1
100
AcDbLine
 10
43.39625266987281
 20
-5.442722237274239
 30
0.0
 11
43.9971445923291
 21
-5.442722237274239
 31
0.0
  0
LINE
  5
F3
330
2
100
AcDbEntity
  8
GAIKEI
 62
     1
100
AcDbLine
 10
39.2617756568581
 20
-6.906636060505462
 30
0.0
 11
39.26177565685822
 21
-4.059697711296649
 31
0.0
  0
LINE
  5
F4
330
2
100
AcDbEntity
  8
GAIKEI
 62
     1
100
AcDbLine
 10
39.2617756568581
 20
-6.906636060505462
 30
0.0
 11
37.69507768899615
 21
-6.928328177814108
 31
0.0
  0
LINE
  5
F5
330
2
100
AcDbEntity
  8
GAIKEI
 62
     1
100
AcDbLine
 10
38.94430036989234
 20
-3.754994418634083
 30
0.0
 11
38.94430036989234
 21
-7.908528058069379
 31
0.0
  0
LINE
  5
F6
330
2
100
AcDbEntity
  8
GAIKEI
 62
     1
100
AcDbLine
 10
39.2617756568581
 20
-6.906636060505462
 30
0.0
 11
43.39625266987281
 21
-5.442722237274239
 31
0.0
  0
LINE
  5
F7
330
2
100
AcDbEntity
  8
GAIKEI
100
AcDbLine
 10
39.2617756568581
 20
-7.851358178807373
 30
0.0
 11
43.39625266987281
 21
-6.387241625507755
 31
0.0
  0
LINE
  5
F8
330
2
100
AcDbEntity
  8
GAIKEI
100
AcDbLine
 10
38.94430036989234
 20
-7.908528058069379
 30
0.0
 11
37.69507768899626
 21
-7.930220175378025
 31
0.0
  0
ARC
  5
F9
330
2
100
AcDbEntity
  8
GAIKEI
 62
     1
100
AcDbCircle
 10
33.49415350654698
 20
-5.781988103049485
 30
0.0
 40
0.0751394952724103
100
AcDbArc
 50
91.64345318452106
 51
179.6157440323219
  0
ARC
  5
FA
330
2
100
AcDbEntity
  8
GAIKEI
 62
     1
100
AcDbCircle
 10
33.49464657059849
 20
-6.803277535939145
 30
0.0
 40
0.0756308770916509
100
AcDbArc
 50
179.9743863105734
 51
267.9935071318067
  0
LINE
  5
FB
330
2
100
AcDbEntity
  8
GAIKEI
 62
     1
100
AcDbLine
 10
33.41901570106421
 20
-5.781484181412082
 30
0.0
 11
33.41901570106421
 21
-5.86663081010019
 31
0.0
  0
LINE
  5
FC
330
2
100
AcDbEntity
  8
GAIKEI
 62
     1
100
AcDbLine
 10
33.49199852565396
 20
-5.70687951627579
 30
0.0
 11
33.49199852565396
 21
-5.86663081010019
 31
0.0
  0
LINE
  5
FD
330
2
100
AcDbEntity
  8
GAIKEI
 62
     1
100
AcDbLine
 10
33.81961031603515
 20
-5.698162123338676
 30
0.0
 11
33.49199852565396
 21
-5.70687951627579
 31
0.0
  0
LINE
  5
FE
330
2
100
AcDbEntity
  8
GAIKEI
 62
     1
100
AcDbLine
 10
33.41901570106421
 20
-6.71829982705006
 30
0.0
 11
33.41901570106421
 21
-6.803243725669886
 31
0.0
  0
LINE
  5
FF
330
2
100
AcDbEntity
  8
GAIKEI
 62
     1
100
AcDbLine
 10
33.81961031603515
 20
-6.887173973948193
 30
0.0
 11
33.49199852565396
 21
-6.878862041147698
 31
0.0
  0
LINE
  5
100
330
2
100
AcDbEntity
  8
GAIKEI
 62
     1
100
AcDbLine
 10
33.49199852565396
 20
-6.71829982705006
 30
0.0
 11
33.49199852565396
 21
-6.878862041147698
 31
0.0
  0
LINE
  5
101
330
2
100
AcDbEntity
  8
GAIKEI
 62
     1
100
AcDbLine
 10
33.56863049147335
 20
-5.891972068638352
 30
0.0
 11
33.81961031603515
 21
-5.891972068638352
 31
0.0
  0
LINE
  5
102
330
2
100
AcDbEntity
  8
GAIKEI
 62
     1
100
AcDbLine
 10
33.56863049147335
 20
-6.693364028648517
 30
0.0
 11
33.81961031603515
 21
-6.693364028648517
 31
0.0
  0
LINE
  5
103
330
2
100
AcDbEntity
  8
GAIKEI
 62
     1
100
AcDbLine
 10
33.56863049147335
 20
-6.71829982705006
 30
0.0
 11
33.56863049147335
 21
-5.86663081010019
 31
0.0
  0
LINE
  5
104
330
2
100
AcDbEntity
  8
GAIKEI
 62
     1
100
AcDbLine
 10
33.07437458494547
 20
-6.71829982705006
 30
0.0
 11
33.56863049147335
 21
-6.71829982705006
 31
0.0
  0
LINE
  5
105
330
2
100
AcDbEntity
  8
GAIKEI
 62
     1
100
AcDbLine
 10
33.07437458494547
 20
-5.86663081010019
 30
0.0
 11
33.07437458494547
 21
-6.71829982705006
 31
0.0
  0
LINE
  5
106
330
2
100
AcDbEntity
  8
GAIKEI
 62
     1
100
AcDbLine
 10
33.56863049147335
 20
-5.86663081010019
 30
0.0
 11
33.07437458494547
 21
-5.86663081010019
 31
0.0
  0
LINE
  5
107
330
2
100
AcDbEntity
  8
GAIKEI
 62
     1
100
AcDbLine
 10
37.30178135648424
 20
-8.700860084499282
 30
0.0
 11
37.30178135648424
 21
35.535714659445
 31
0.0
  0
LINE
  5
108
330
2
100
AcDbEntity
  8
GAIKEI
 62
     1
100
AcDbLine
 10
33.81961031603515
 20
-7.494553258590343
 30
0.0
 11
37.69507768899626
 21
-7.494553258590343
 31
0.0
  0
ARC
  5
109
330
2
100
AcDbEntity
  8
GAIKEI
 62
     1
100
AcDbCircle
 10
37.60843299539732
 20
-7.469137318463907
 30
0.0
 40
3.496172844398286
100
AcDbArc
 50
180.4165237226814
 51
199.2524713562101
  0
LINE
  5
10A
330
2
100
AcDbEntity
  8
GAIKEI
100
AcDbLine
 10
34.55835868493892
 20
-8.629030720825795
 30
0.0
 11
34.3077843205138
 21
-8.621935168435101
 31
0.0
  0
ARC
  5
10B
330
2
100
AcDbEntity
  8
GAIKEI
100
AcDbCircle
 10
34.32047404576536
 20
-8.12123221432202
 30
0.0
 40
0.5008637313526984
100
AcDbArc
 50
179.9953882536861
 51
268.5482168885427
  0
LINE
  5
10C
330
2
100
AcDbEntity
  8
GAIKEI
 62
     1
100
AcDbLine
 10
32.88989022278775
 20
-3.888390803578801
 30
0.0
 11
32.86596807472784
 21
-4.387714961814282
 31
0.0
  0
ARC
  5
10D
330
2
100
AcDbEntity
  8
GAIKEI
100
AcDbCircle
 10
32.89887639211582
 20
-4.086956510736143
 30
0.0
 40
0.3025534717174612
100
AcDbArc
 50
184.2323767876282
 51
263.755664400571
  0
LINE
  5
10E
330
2
100
AcDbEntity
  8
GAIKEI
 62
     1
100
AcDbLine
 10
33.81961031603515
 20
-4.443060270461643
 30
0.0
 11
34.11235253466765
 21
-4.016110746611076
 31
0.0
  0
LINE
  5
10F
330
2
100
AcDbEntity
  8
GAIKEI
100
AcDbLine
 10
32.86596807472784
 20
-4.387714961814339
 30
0.0
 11
33.81961031603515
 21
-4.487458155420455
 31
0.0
  0
LINE
  5
110
330
2
100
AcDbEntity
  8
GAIKEI
 62
     1
100
AcDbLine
 10
32.88989022278775
 20
-3.888390803578801
 30
0.0
 11
32.59714800415526
 21
-3.888390803578801
 31
0.0
  0
LINE
  5
111
330
2
100
AcDbEntity
  8
GAIKEI
 62
     1
100
AcDbLine
 10
34.11235253466765
 20
-4.016110746611076
 30
0.0
 11
32.88989022278775
 21
-3.888390803578801
 31
0.0
  0
LINE
  5
112
330
2
100
AcDbEntity
  8
GAIKEI
 62
     1
100
AcDbLine
 10
34.11235253466765
 20
-7.494553258590343
 30
0.0
 11
34.11235253466765
 21
-4.016110746611076
 31
0.0
  0
LINE
  5
113
330
2
100
AcDbEntity
  8
GAIKEI
100
AcDbLine
 10
33.81961031603515
 20
-4.443060270461643
 30
0.0
 11
33.81961031603515
 21
-8.12119189972148
 31
0.0
  0
LINE
  5
114
330
2
100
AcDbEntity
  8
GAIKEI
100
AcDbLine
 10
49.63993331353385
 20
-9.813987970069234
 30
0.0
 11
43.55600396369715
 21
-2.502325326576766
 31
0.0
  0
LINE
  5
115
330
2
100
AcDbEntity
  8
GAIKEI
100
AcDbLine
 10
43.7554903509095
 20
-0.8275722323080856
 30
0.0
 11
43.49599586347887
 21
-0.8275722323080856
 31
0.0
  0
LINE
  5
116
330
2
100
AcDbEntity
  8
GAIKEI
100
AcDbLine
 10
43.7554903509095
 20
-2.335883940498234
 30
0.0
 11
43.7554903509095
 21
-0.8275722323080856
 31
0.0
  0
LINE
  5
117
330
2
100
AcDbEntity
  8
GAIKEI
100
AcDbLine
 10
49.97889798774014
 20
-9.813987970069234
 30
0.0
 11
43.7554903509095
 21
-2.335883940498234
 31
0.0
  0
ARC
  5
118
330
2
100
AcDbEntity
  8
GAIKEI
100
AcDbCircle
 10
43.28533398767348
 20
-9.118146411271965
 30
0.0
 40
0.2605335054250493
100
AcDbArc
 50
0.028757616742805
 51
88.43379991026559
  0
ARC
  5
119
330
2
100
AcDbEntity
  8
GAIKEI
100
AcDbCircle
 10
43.54642260454165
 20
-9.813432825809599
 30
0.0
 40
0.2608611426713896
100
AcDbArc
 50
180.1219324840121
 51
269.8780675159853
  0
LINE
  5
11A
330
2
100
AcDbEntity
  8
GAIKEI
100
AcDbLine
 10
43.54586746028195
 20
-9.118015645577742
 30
0.0
 11
43.54586746028195
 21
-9.813987970069234
 31
0.0
  0
LINE
  5
11B
330
2
100
AcDbEntity
  8
GAIKEI
100
AcDbLine
 10
43.2855620525782
 20
-9.118015645577742
 30
0.0
 11
43.28556205257808
 21
-9.813987970069234
 31
0.0
  0
ARC
  5
11C
330
2
100
AcDbEntity
  8
GAIKEI
100
AcDbCircle
 10
34.55069931496933
 20
-8.888862604699085
 30
0.0
 40
0.2599447514866636
100
AcDbArc
 50
88.31151389881314
 51
180.1043719168603
  0
ARC
  5
11D
330
2
100
AcDbEntity
  8
GAIKEI
100
AcDbCircle
 10
34.29072039372039
 20
-9.813953369013376
 30
0.0
 40
0.2603400110590226
100
AcDbArc
 50
270.0076150203157
 51
359.9923849796891
  0
LINE
  5
11E
330
2
100
AcDbEntity
  8
GAIKEI
100
AcDbLine
 10
34.55835868493892
 20
-8.629030720825795
 30
0.0
 11
43.29245487490055
 21
-8.857710237873988
 31
0.0
  0
LINE
  5
11F
330
2
100
AcDbEntity
  8
GAIKEI
100
AcDbLine
 10
34.55106040248
 20
-8.889336128529606
 30
0.0
 11
43.2855620525782
 21
-9.118015645577742
 31
0.0
  0
LINE
  5
120
330
2
100
AcDbEntity
  8
GAIKEI
100
AcDbLine
 10
34.55106040248
 20
-8.889336128529606
 30
0.0
 11
34.55106040248
 21
-9.813987970069234
 31
0.0
  0
LINE
  5
121
330
2
100
AcDbEntity
  8
GAIKEI
100
AcDbLine
 10
34.29075499477625
 20
-8.889336128529606
 30
0.0
 11
34.29075499477625
 21
-9.813987970069234
 31
0.0
  0
LINE
  5
122
330
2
100
AcDbEntity
  8
GAIKEI
100
AcDbLine
 10
27.54714800415519
 20
-9.813987970069234
 30
0.0
 11
27.54714800415519
 21
-10.07429337777304
 31
0.0
  0
LINE
  5
123
330
2
100
AcDbEntity
  8
GAIKEI
100
AcDbLine
 10
27.54714800415519
 20
-10.07429337777304
 30
0.0
 11
34.29075499477625
 21
-10.07429337777304
 31
0.0
  0
LINE
  5
124
330
2
100
AcDbEntity
  8
GAIKEI
100
AcDbLine
 10
27.54714800415519
 20
-9.813987970069234
 30
0.0
 11
34.29075499477625
 21
-9.813987970069234
 31
0.0
  0
LINE
  5
125
330
2
100
AcDbEntity
  8
GAIKEI
100
AcDbLine
 10
54.54714459232917
 20
-9.813987970069234
 30
0.0
 11
54.54714459232917
 21
-10.07429337777304
 31
0.0
  0
LINE
  5
126
330
2
100
AcDbEntity
  8
GAIKEI
100
AcDbLine
 10
54.54714459232917
 20
-10.07429337777304
 30
0.0
 11
43.54586746028195
 21
-10.07429337777304
 31
0.0
  0
LINE
  5
127
330
2
100
AcDbEntity
  8
GAIKEI
100
AcDbLine
 10
54.54714459232917
 20
-9.813987970069234
 30
0.0
 11
43.54586746028195
 21
-9.813987970069234
 31
0.0
  0
ARC
  5
128
330
2
100
AcDbEntity
  8
GAIKEI
 62
     1
100
AcDbCircle
 10
-19.44121687897842
 20
34.69473122061421
 30
0.0
 40
0.100410835838327
100
AcDbArc
 50
0.3807764542969874
 51
89.85166046633265
  0
LINE
  5
129
330
2
100
AcDbEntity
  8
GAIKEI
 62
     1
100
AcDbLine
 10
-19.34080826053929
 20
34.56504309240003
 30
0.0
 11
-19.34080826053929
 21
34.69539852632019
 31
0.0
  0
ARC
  5
12A
330
2
100
AcDbEntity
  8
GAIKEI
 62
     1
100
AcDbCircle
 10
-19.44143406815356
 20
34.56552024627157
 30
0.0
 40
0.1006269389072818
100
AcDbArc
 50
270.2716867448129
 51
359.728313255187
  0
ARC
  5
12B
330
2
100
AcDbEntity
  8
GAIKEI
 62
     1
100
AcDbCircle
 10
-22.27590542546471
 20
34.69516676776592
 30
0.0
 40
0.0999749562982828
100
AcDbArc
 50
90.01648468437506
 51
179.8671787474692
  0
ARC
  5
12C
330
2
100
AcDbEntity
  8
GAIKEI
 62
     1
100
AcDbCircle
 10
-22.2756889223038
 20
34.56508533818893
 30
0.0
 40
0.1001911997379856
100
AcDbArc
 50
180.0241588630985
 51
269.8597403062896
  0
LINE
  5
12D
330
2
100
AcDbEntity
  8
GAIKEI
 62
     1
100
AcDbLine
 10
-22.37588011313522
 20
34.69539852632019
 30
0.0
 11
-22.37588011313522
 21
34.56504309240003
 31
0.0
  0
LINE
  5
12E
330
2
100
AcDbEntity
  8
GAIKEI
 62
     1
100
AcDbLine
 10
-22.27593418946088
 20
34.79514171992636
 30
0.0
 11
-19.44095691428202
 21
34.79514171992636
 31
0.0
  0
LINE
  5
12F
330
2
100
AcDbEntity
  8
GAIKEI
 62
     1
100
AcDbLine
 10
-22.27593418946088
 20
34.46489443865729
 30
0.0
 11
-19.44095691428202
 21
34.46489443865729
 31
0.0
  0
CIRCLE
  5
130
330
2
100
AcDbEntity
  8
GAIKEI
 62
     1
100
AcDbCircle
 10
1.632225495830368
 20
-6.292769413677575
 30
0.0
 40
0.5009459987819575
  0
CIRCLE
  5
131
330
2
100
AcDbEntity
  8
GAIKEI
 62
     1
100
AcDbCircle
 10
1.632428225898649
 20
-6.292769413677575
 30
0.0
 40
0.3604967302724375
  0
LINE
  5
132
330
2
100
AcDbEntity
  8
GAIKEI
 62
     1
100
AcDbLine
 10
1.581745708822438
 20
-5.935559033323926
 30
0.0
 11
1.581745708822438
 21
-6.14274916313181
 31
0.0
  0
LINE
  5
133
330
2
100
AcDbEntity
  8
GAIKEI
 62
     1
100
AcDbLine
 10
1.581745708822438
 20
-6.14274916313181
 30
0.0
 11
1.682097092633455
 21
-6.14274916313181
 31
0.0
  0
LINE
  5
134
330
2
100
AcDbEntity
  8
GAIKEI
 62
     1
100
AcDbLine
 10
1.682097092633455
 20
-6.14274916313181
 30
0.0
 11
1.682097092633455
 21
-5.935559033323926
 31
0.0
  0
CIRCLE
  5
135
330
2
100
AcDbEntity
  8
GAIKEI
 62
     1
100
AcDbCircle
 10
1.281603842696711
 20
-5.090580108628245
 30
0.0
 40
0.1004527488451857
  0
CIRCLE
  5
136
330
2
100
AcDbEntity
  8
GAIKEI
 62
     1
100
AcDbCircle
 10
-0.6722071905939515
 20
-6.292769413677575
 30
0.0
 40
0.5009459987819575
  0
CIRCLE
  5
137
330
2
100
AcDbEntity
  8
GAIKEI
 62
     1
100
AcDbCircle
 10
-0.6720044605256703
 20
-6.292769413677575
 30
0.0
 40
0.3604967302724375
  0
LINE
  5
138
330
2
100
AcDbEntity
  8
GAIKEI
 62
     1
100
AcDbLine
 10
-0.7226869776018816
 20
-5.935559033323926
 30
0.0
 11
-0.7226869776018816
 21
-6.14274916313181
 31
0.0
  0
LINE
  5
139
330
2
100
AcDbEntity
  8
GAIKEI
 62
     1
100
AcDbLine
 10
-0.7226869776018816
 20
-6.14274916313181
 30
0.0
 11
-0.622335593790865
 21
-6.14274916313181
 31
0.0
  0
LINE
  5
13A
330
2
100
AcDbEntity
  8
GAIKEI
 62
     1
100
AcDbLine
 10
-0.622335593790865
 20
-6.14274916313181
 30
0.0
 11
-0.622335593790865
 21
-5.935559033323926
 31
0.0
  0
CIRCLE
  5
13B
330
2
100
AcDbEntity
  8
GAIKEI
 62
     1
100
AcDbCircle
 10
-1.022828843727609
 20
-5.090580108628245
 30
0.0
 40
0.1004527488451857
  0
CIRCLE
  5
13C
330
2
100
AcDbEntity
  8
GAIKEI
 62
     1
100
AcDbCircle
 10
-2.976335781915793
 20
-6.292769413677575
 30
0.0
 40
0.5009459987819575
  0
CIRCLE
  5
13D
330
2
100
AcDbEntity
  8
GAIKEI
 62
     1
100
AcDbCircle
 10
-2.976133051847511
 20
-6.292769413677575
 30
0.0
 40
0.3604967302724375
  0
LINE
  5
13E
330
2
100
AcDbEntity
  8
GAIKEI
 62
     1
100
AcDbLine
 10
-3.026815568923723
 20
-5.935559033323926
 30
0.0
 11
-3.026815568923723
 21
-6.14274916313181
 31
0.0
  0
LINE
  5
13F
330
2
100
AcDbEntity
  8
GAIKEI
 62
     1
100
AcDbLine
 10
-3.026815568923723
 20
-6.14274916313181
 30
0.0
 11
-2.926464185112706
 21
-6.14274916313181
 31
0.0
  0
LINE
  5
140
330
2
100
AcDbEntity
  8
GAIKEI
 62
     1
100
AcDbLine
 10
-2.926464185112706
 20
-6.14274916313181
 30
0.0
 11
-2.926464185112706
 21
-5.935559033323926
 31
0.0
  0
CIRCLE
  5
141
330
2
100
AcDbEntity
  8
GAIKEI
 62
     1
100
AcDbCircle
 10
-3.32695743504945
 20
-5.090580108628245
 30
0.0
 40
0.1004527488451857
  0
CIRCLE
  5
142
330
2
100
AcDbEntity
  8
GAIKEI
 62
     1
100
AcDbCircle
 10
-5.280261643169353
 20
-6.292769413677575
 30
0.0
 40
0.5009459987819575
  0
CIRCLE
  5
143
330
2
100
AcDbEntity
  8
GAIKEI
 62
     1
100
AcDbCircle
 10
-5.280058913101072
 20
-6.292769413677575
 30
0.0
 40
0.3604967302724375
  0
LINE
  5
144
330
2
100
AcDbEntity
  8
GAIKEI
 62
     1
100
AcDbLine
 10
-5.330741430177283
 20
-5.935559033323926
 30
0.0
 11
-5.330741430177283
 21
-6.14274916313181
 31
0.0
  0
LINE
  5
145
330
2
100
AcDbEntity
  8
GAIKEI
 62
     1
100
AcDbLine
 10
-5.330741430177283
 20
-6.14274916313181
 30
0.0
 11
-5.230390046366267
 21
-6.14274916313181
 31
0.0
  0
LINE
  5
146
330
2
100
AcDbEntity
  8
GAIKEI
 62
     1
100
AcDbLine
 10
-5.230390046366267
 20
-6.14274916313181
 30
0.0
 11
-5.230390046366267
 21
-5.935559033323926
 31
0.0
  0
CIRCLE
  5
147
330
2
100
AcDbEntity
  8
GAIKEI
 62
     1
100
AcDbCircle
 10
-5.630883296303011
 20
-5.090580108628245
 30
0.0
 40
0.1004527488451857
  0
CIRCLE
  5
148
330
2
100
AcDbEntity
  8
GAIKEI
 62
     1
100
AcDbCircle
 10
-7.93511325265905
 20
-5.090580108628245
 30
0.0
 40
0.1004527488451857
  0
LINE
  5
149
330
2
100
AcDbEntity
  8
GAIKEI
 62
     1
100
AcDbLine
 10
-7.534620002722306
 20
-6.14274916313181
 30
0.0
 11
-7.534620002722306
 21
-5.935559033323926
 31
0.0
  0
LINE
  5
14A
330
2
100
AcDbEntity
  8
GAIKEI
 62
     1
100
AcDbLine
 10
-7.634971386533322
 20
-6.14274916313181
 30
0.0
 11
-7.534620002722306
 21
-6.14274916313181
 31
0.0
  0
LINE
  5
14B
330
2
100
AcDbEntity
  8
GAIKEI
 62
     1
100
AcDbLine
 10
-7.634971386533322
 20
-5.935559033323926
 30
0.0
 11
-7.634971386533322
 21
-6.14274916313181
 31
0.0
  0
CIRCLE
  5
14C
330
2
100
AcDbEntity
  8
GAIKEI
 62
     1
100
AcDbCircle
 10
-7.584288869456997
 20
-6.292769413677575
 30
0.0
 40
0.3604967302724375
  0
CIRCLE
  5
14D
330
2
100
AcDbEntity
  8
GAIKEI
 62
     1
100
AcDbCircle
 10
-7.584491599525392
 20
-6.292769413677575
 30
0.0
 40
0.5009459987819575
  0
LINE
  5
14E
330
2
100
AcDbEntity
  8
GAIKEI
 62
     1
100
AcDbLine
 10
-12.06806979016135
 20
-6.768374153921428
 30
0.0
 11
-11.31695488709095
 21
-6.768374153921428
 31
0.0
  0
LINE
  5
14F
330
2
100
AcDbEntity
  8
GAIKEI
 62
     1
100
AcDbLine
 10
-11.21680623334822
 20
-6.668428230246973
 30
0.0
 11
-11.21680623334822
 21
-5.917313327176515
 31
0.0
  0
LINE
  5
150
330
2
100
AcDbEntity
  8
GAIKEI
 62
     1
100
AcDbLine
 10
-11.31695488709084
 20
-5.816353753160484
 30
0.0
 11
-12.06806979016135
 21
-5.816353753160541
 31
0.0
  0
LINE
  5
151
330
2
100
AcDbEntity
  8
GAIKEI
 62
     1
100
AcDbLine
 10
-12.16801571383581
 20
-5.917313327176515
 30
0.0
 11
-12.16801571383581
 21
-6.668428230246973
 31
0.0
  0
ARC
  5
152
330
2
100
AcDbEntity
  8
GAIKEI
 62
     1
100
AcDbCircle
 10
-11.31660868318675
 20
-6.668572200713441
 30
0.0
 40
0.0998025536810726
100
AcDbArc
 50
269.8012469459618
 51
0.0826522234263437
  0
ARC
  5
153
330
2
100
AcDbEntity
  8
GAIKEI
 62
     1
100
AcDbCircle
 10
-11.31721365758954
 20
-5.916762355631846
 30
0.0
 40
0.1004089359191444
100
AcDbArc
 50
359.6856006661652
 51
89.85233910002078
  0
ARC
  5
154
330
2
100
AcDbEntity
  8
GAIKEI
 62
     1
100
AcDbCircle
 10
-12.06738726870952
 20
-5.916980434267912
 30
0.0
 40
0.100628995752805
100
AcDbArc
 50
90.3886146151237
 51
180.1895417254107
  0
ARC
  5
155
330
2
100
AcDbEntity
  8
GAIKEI
 62
     1
100
AcDbCircle
 10
-12.06799798992898
 20
-6.668356430014483
 30
0.0
 40
0.1000177496787004
100
AcDbArc
 50
180.0411312057642
 51
269.9588687942292
  0
LINE
  5
156
330
2
100
AcDbEntity
  8
GAIKEI
 62
     1
100
AcDbLine
 10
-12.00279070816719
 20
-6.602540958047796
 30
0.0
 11
-11.38162577888027
 21
-6.602540958047796
 31
0.0
  0
LINE
  5
157
330
2
100
AcDbEntity
  8
GAIKEI
 62
     1
100
AcDbLine
 10
-11.38162577888027
 20
-6.602540958047796
 30
0.0
 11
-11.38162577888027
 21
-5.982186949034115
 31
0.0
  0
LINE
  5
158
330
2
100
AcDbEntity
  8
GAIKEI
 62
     1
100
AcDbLine
 10
-11.38162577888027
 20
-5.982186949034115
 30
0.0
 11
-12.00279070816719
 21
-5.982186949034115
 31
0.0
  0
LINE
  5
159
330
2
100
AcDbEntity
  8
GAIKEI
 62
     1
100
AcDbLine
 10
-12.00279070816719
 20
-5.982186949034115
 30
0.0
 11
-12.00279070816719
 21
-6.602540958047796
 31
0.0
  0
LINE
  5
15A
330
2
100
AcDbEntity
  8
GAIKEI
 62
     1
100
AcDbLine
 10
-18.88061100548662
 20
-6.768374153921428
 30
0.0
 11
-18.12949610241622
 21
-6.768374153921428
 31
0.0
  0
LINE
  5
15B
330
2
100
AcDbEntity
  8
GAIKEI
 62
     1
100
AcDbLine
 10
-18.02934744867349
 20
-6.668428230246973
 30
0.0
 11
-18.02934744867349
 21
-5.917313327176515
 31
0.0
  0
LINE
  5
15C
330
2
100
AcDbEntity
  8
GAIKEI
 62
     1
100
AcDbLine
 10
-18.12949610241622
 20
-5.816353753160484
 30
0.0
 11
-18.88061100548662
 21
-5.816353753160541
 31
0.0
  0
LINE
  5
15D
330
2
100
AcDbEntity
  8
GAIKEI
 62
     1
100
AcDbLine
 10
-18.98055692916108
 20
-5.917313327176515
 30
0.0
 11
-18.98055692916108
 21
-6.668428230246973
 31
0.0
  0
ARC
  5
15E
330
2
100
AcDbEntity
  8
GAIKEI
 62
     1
100
AcDbCircle
 10
-18.12914989851202
 20
-6.668572200713441
 30
0.0
 40
0.0998025536810726
100
AcDbArc
 50
269.8012469459618
 51
0.0826522234263437
  0
ARC
  5
15F
330
2
100
AcDbEntity
  8
GAIKEI
 62
     1
100
AcDbCircle
 10
-18.12975487291481
 20
-5.916762355631846
 30
0.0
 40
0.1004089359191444
100
AcDbArc
 50
359.6856006661652
 51
89.85233910002078
  0
ARC
  5
160
330
2
100
AcDbEntity
  8
GAIKEI
 62
     1
100
AcDbCircle
 10
-18.87992848403479
 20
-5.916980434267912
 30
0.0
 40
0.100628995752805
100
AcDbArc
 50
90.3886146151237
 51
180.1895417254107
  0
ARC
  5
161
330
2
100
AcDbEntity
  8
GAIKEI
 62
     1
100
AcDbCircle
 10
-18.88053920525425
 20
-6.668356430014483
 30
0.0
 40
0.1000177496787004
100
AcDbArc
 50
180.0411312057642
 51
269.9588687942292
  0
LINE
  5
162
330
2
100
AcDbEntity
  8
GAIKEI
 62
     1
100
AcDbLine
 10
-18.81533192349246
 20
-6.602540958047796
 30
0.0
 11
-18.19416699420554
 21
-6.602540958047796
 31
0.0
  0
LINE
  5
163
330
2
100
AcDbEntity
  8
GAIKEI
 62
     1
100
AcDbLine
 10
-18.19416699420554
 20
-6.602540958047796
 30
0.0
 11
-18.19416699420554
 21
-5.982186949034115
 31
0.0
  0
LINE
  5
164
330
2
100
AcDbEntity
  8
GAIKEI
 62
     1
100
AcDbLine
 10
-18.19416699420554
 20
-5.982186949034115
 30
0.0
 11
-18.81533192349246
 21
-5.982186949034115
 31
0.0
  0
LINE
  5
165
330
2
100
AcDbEntity
  8
GAIKEI
 62
     1
100
AcDbLine
 10
-18.81533192349246
 20
-5.982186949034115
 30
0.0
 11
-18.81533192349246
 21
-6.602540958047796
 31
0.0
  0
LINE
  5
166
330
2
100
AcDbEntity
  8
GAIKEI
 62
     1
100
AcDbLine
 10
-17.17767843172367
 20
-6.768374153921428
 30
0.0
 11
-16.42656352865327
 21
-6.768374153921428
 31
0.0
  0
LINE
  5
167
330
2
100
AcDbEntity
  8
GAIKEI
 62
     1
100
AcDbLine
 10
-16.32641487491054
 20
-6.668428230246973
 30
0.0
 11
-16.32641487491054
 21
-5.917313327176515
 31
0.0
  0
LINE
  5
168
330
2
100
AcDbEntity
  8
GAIKEI
 62
     1
100
AcDbLine
 10
-16.42656352865316
 20
-5.816353753160484
 30
0.0
 11
-17.17767843172367
 21
-5.816353753160541
 31
0.0
  0
LINE
  5
169
330
2
100
AcDbEntity
  8
GAIKEI
 62
     1
100
AcDbLine
 10
-17.27762435539813
 20
-5.917313327176515
 30
0.0
 11
-17.27762435539813
 21
-6.668428230246973
 31
0.0
  0
ARC
  5
16A
330
2
100
AcDbEntity
  8
GAIKEI
 62
     1
100
AcDbCircle
 10
-16.42621732474896
 20
-6.668572200713441
 30
0.0
 40
0.0998025536810726
100
AcDbArc
 50
269.8012469459618
 51
0.0826522234263437
  0
ARC
  5
16B
330
2
100
AcDbEntity
  8
GAIKEI
 62
     1
100
AcDbCircle
 10
-16.42682229915175
 20
-5.916762355631846
 30
0.0
 40
0.1004089359191444
100
AcDbArc
 50
359.6856006661652
 51
89.85233910002078
  0
ARC
  5
16C
330
2
100
AcDbEntity
  8
GAIKEI
 62
     1
100
AcDbCircle
 10
-17.17699591027184
 20
-5.916980434267912
 30
0.0
 40
0.100628995752805
100
AcDbArc
 50
90.3886146151237
 51
180.1895417254107
  0
ARC
  5
16D
330
2
100
AcDbEntity
  8
GAIKEI
 62
     1
100
AcDbCircle
 10
-17.17760663149118
 20
-6.668356430014483
 30
0.0
 40
0.1000177496787004
100
AcDbArc
 50
180.0411312057642
 51
269.9588687942292
  0
LINE
  5
16E
330
2
100
AcDbEntity
  8
GAIKEI
 62
     1
100
AcDbLine
 10
-17.11239934972951
 20
-6.602540958047853
 30
0.0
 11
-16.49123442044259
 21
-6.602540958047853
 31
0.0
  0
LINE
  5
16F
330
2
100
AcDbEntity
  8
GAIKEI
 62
     1
100
AcDbLine
 10
-16.49123442044259
 20
-6.602540958047853
 30
0.0
 11
-16.49123442044259
 21
-5.982186949034172
 31
0.0
  0
LINE
  5
170
330
2
100
AcDbEntity
  8
GAIKEI
 62
     1
100
AcDbLine
 10
-16.49123442044259
 20
-5.982186949034172
 30
0.0
 11
-17.1123993497294
 21
-5.982186949034172
 31
0.0
  0
LINE
  5
171
330
2
100
AcDbEntity
  8
GAIKEI
 62
     1
100
AcDbLine
 10
-17.1123993497294
 20
-5.982186949034172
 30
0.0
 11
-17.11239934972951
 21
-6.602540958047853
 31
0.0
  0
LINE
  5
172
330
2
100
AcDbEntity
  8
GAIKEI
 62
     1
100
AcDbLine
 10
-15.47413766775576
 20
-6.768374153921428
 30
0.0
 11
-14.72302276468525
 21
-6.768374153921428
 31
0.0
  0
LINE
  5
173
330
2
100
AcDbEntity
  8
GAIKEI
 62
     1
100
AcDbLine
 10
-14.62287411094251
 20
-6.668428230246973
 30
0.0
 11
-14.62287411094251
 21
-5.917313327176515
 31
0.0
  0
LINE
  5
174
330
2
100
AcDbEntity
  8
GAIKEI
 62
     1
100
AcDbLine
 10
-14.72302276468525
 20
-5.816353753160484
 30
0.0
 11
-15.47413766775576
 21
-5.816353753160541
 31
0.0
  0
LINE
  5
175
330
2
100
AcDbEntity
  8
GAIKEI
 62
     1
100
AcDbLine
 10
-15.57408359143011
 20
-5.917313327176515
 30
0.0
 11
-15.57408359143022
 21
-6.668428230246973
 31
0.0
  0
ARC
  5
176
330
2
100
AcDbEntity
  8
GAIKEI
 62
     1
100
AcDbCircle
 10
-14.72267656078105
 20
-6.668572200713441
 30
0.0
 40
0.0998025536810726
100
AcDbArc
 50
269.8012469459618
 51
0.0826522234263437
  0
ARC
  5
177
330
2
100
AcDbEntity
  8
GAIKEI
 62
     1
100
AcDbCircle
 10
-14.72328153518384
 20
-5.916762355631846
 30
0.0
 40
0.1004089359191444
100
AcDbArc
 50
359.6856006661652
 51
89.85233910002078
  0
ARC
  5
178
330
2
100
AcDbEntity
  8
GAIKEI
 62
     1
100
AcDbCircle
 10
-15.47345514630382
 20
-5.916980434267912
 30
0.0
 40
0.100628995752805
100
AcDbArc
 50
90.3886146151237
 51
180.1895417254107
  0
ARC
  5
179
330
2
100
AcDbEntity
  8
GAIKEI
 62
     1
100
AcDbCircle
 10
-15.47406586752328
 20
-6.668356430014483
 30
0.0
 40
0.1000177496787004
100
AcDbArc
 50
180.0411312057642
 51
269.9588687942292
  0
LINE
  5
17A
330
2
100
AcDbEntity
  8
GAIKEI
 62
     1
100
AcDbLine
 10
-15.40885858576149
 20
-6.602540958047853
 30
0.0
 11
-14.78769365647457
 21
-6.602540958047853
 31
0.0
  0
LINE
  5
17B
330
2
100
AcDbEntity
  8
GAIKEI
 62
     1
100
AcDbLine
 10
-14.78769365647457
 20
-6.602540958047853
 30
0.0
 11
-14.78769365647468
 21
-5.982186949034172
 31
0.0
  0
LINE
  5
17C
330
2
100
AcDbEntity
  8
GAIKEI
 62
     1
100
AcDbLine
 10
-14.78769365647468
 20
-5.982186949034172
 30
0.0
 11
-15.40885858576149
 21
-5.982186949034172
 31
0.0
  0
LINE
  5
17D
330
2
100
AcDbEntity
  8
GAIKEI
 62
     1
100
AcDbLine
 10
-15.40885858576149
 20
-5.982186949034172
 30
0.0
 11
-15.40885858576149
 21
-6.602540958047853
 31
0.0
  0
LINE
  5
17E
330
2
100
AcDbEntity
  8
GAIKEI
 62
     1
100
AcDbLine
 10
-13.7714078240611
 20
-6.768374153921428
 30
0.0
 11
-13.02029292099058
 21
-6.768374153921428
 31
0.0
  0
LINE
  5
17F
330
2
100
AcDbEntity
  8
GAIKEI
 62
     1
100
AcDbLine
 10
-12.92014426724785
 20
-6.668428230246973
 30
0.0
 11
-12.92014426724785
 21
-5.917313327176515
 31
0.0
  0
LINE
  5
180
330
2
100
AcDbEntity
  8
GAIKEI
 62
     1
100
AcDbLine
 10
-13.02029292099058
 20
-5.816353753160484
 30
0.0
 11
-13.77140782406098
 21
-5.816353753160541
 31
0.0
  0
LINE
  5
181
330
2
100
AcDbEntity
  8
GAIKEI
 62
     1
100
AcDbLine
 10
-13.87135374773544
 20
-5.917313327176515
 30
0.0
 11
-13.87135374773544
 21
-6.668428230246973
 31
0.0
  0
ARC
  5
182
330
2
100
AcDbEntity
  8
GAIKEI
 62
     1
100
AcDbCircle
 10
-13.01994671708638
 20
-6.668572200713441
 30
0.0
 40
0.0998025536810726
100
AcDbArc
 50
269.8012469459618
 51
0.0826522234263437
  0
ARC
  5
183
330
2
100
AcDbEntity
  8
GAIKEI
 62
     1
100
AcDbCircle
 10
-13.02055169148917
 20
-5.916762355631846
 30
0.0
 40
0.1004089359191444
100
AcDbArc
 50
359.6856006661652
 51
89.85233910002078
  0
ARC
  5
184
330
2
100
AcDbEntity
  8
GAIKEI
 62
     1
100
AcDbCircle
 10
-13.77072530260915
 20
-5.916980434267912
 30
0.0
 40
0.100628995752805
100
AcDbArc
 50
90.3886146151237
 51
180.1895417254107
  0
ARC
  5
185
330
2
100
AcDbEntity
  8
GAIKEI
 62
     1
100
AcDbCircle
 10
-13.77133602382861
 20
-6.668356430014483
 30
0.0
 40
0.1000177496787004
100
AcDbArc
 50
180.0411312057642
 51
269.9588687942292
  0
LINE
  5
186
330
2
100
AcDbEntity
  8
GAIKEI
 62
     1
100
AcDbLine
 10
-13.70612874206682
 20
-6.602540958047796
 30
0.0
 11
-13.0849638127799
 21
-6.602540958047796
 31
0.0
  0
LINE
  5
187
330
2
100
AcDbEntity
  8
GAIKEI
 62
     1
100
AcDbLine
 10
-13.0849638127799
 20
-6.602540958047796
 30
0.0
 11
-13.0849638127799
 21
-5.982186949034115
 31
0.0
  0
LINE
  5
188
330
2
100
AcDbEntity
  8
GAIKEI
 62
     1
100
AcDbLine
 10
-13.0849638127799
 20
-5.982186949034115
 30
0.0
 11
-13.70612874206682
 21
-5.982186949034115
 31
0.0
  0
LINE
  5
189
330
2
100
AcDbEntity
  8
GAIKEI
 62
     1
100
AcDbLine
 10
-13.70612874206682
 20
-5.982186949034115
 30
0.0
 11
-13.70612874206682
 21
-6.602540958047796
 31
0.0
  0
LINE
  5
18A
330
2
100
AcDbEntity
  8
GAIKEI
 62
     1
100
AcDbLine
 10
-22.62179168598942
 20
-5.982186949034115
 30
0.0
 11
-22.62179168598942
 21
-6.602540958047796
 31
0.0
  0
LINE
  5
18B
330
2
100
AcDbEntity
  8
GAIKEI
 62
     1
100
AcDbLine
 10
-22.00062675670261
 20
-5.982186949034115
 30
0.0
 11
-22.62179168598942
 21
-5.982186949034115
 31
0.0
  0
LINE
  5
18C
330
2
100
AcDbEntity
  8
GAIKEI
 62
     1
100
AcDbLine
 10
-22.00062675670261
 20
-6.602540958047796
 30
0.0
 11
-22.00062675670261
 21
-5.982186949034115
 31
0.0
  0
LINE
  5
18D
330
2
100
AcDbEntity
  8
GAIKEI
 62
     1
100
AcDbLine
 10
-22.62179168598942
 20
-6.602540958047796
 30
0.0
 11
-22.00062675670261
 21
-6.602540958047796
 31
0.0
  0
ARC
  5
18E
330
2
100
AcDbEntity
  8
GAIKEI
 62
     1
100
AcDbCircle
 10
-22.68699896775121
 20
-6.668356430014483
 30
0.0
 40
0.1000177496787004
100
AcDbArc
 50
180.0411312057642
 51
269.9588687942292
  0
ARC
  5
18F
330
2
100
AcDbEntity
  8
GAIKEI
 62
     1
100
AcDbCircle
 10
-22.68638824653186
 20
-5.916980434267912
 30
0.0
 40
0.100628995752805
100
AcDbArc
 50
90.3886146151237
 51
180.1895417254107
  0
ARC
  5
190
330
2
100
AcDbEntity
  8
GAIKEI
 62
     1
100
AcDbCircle
 10
-21.93621463541177
 20
-5.916762355631846
 30
0.0
 40
0.1004089359191444
100
AcDbArc
 50
359.6856006661652
 51
89.85233910002078
  0
ARC
  5
191
330
2
100
AcDbEntity
  8
GAIKEI
 62
     1
100
AcDbCircle
 10
-21.93560966100898
 20
-6.668572200713441
 30
0.0
 40
0.0998025536810726
100
AcDbArc
 50
269.8012469459618
 51
0.0826522234263437
  0
LINE
  5
192
330
2
100
AcDbEntity
  8
GAIKEI
 62
     1
100
AcDbLine
 10
-22.78701669165803
 20
-5.917313327176515
 30
0.0
 11
-22.78701669165815
 21
-6.668428230246973
 31
0.0
  0
LINE
  5
193
330
2
100
AcDbEntity
  8
GAIKEI
 62
     1
100
AcDbLine
 10
-21.93595586491318
 20
-5.816353753160484
 30
0.0
 11
-22.68707076798369
 21
-5.816353753160541
 31
0.0
  0
LINE
  5
194
330
2
100
AcDbEntity
  8
GAIKEI
 62
     1
100
AcDbLine
 10
-21.83580721117056
 20
-6.668428230246973
 30
0.0
 11
-21.83580721117056
 21
-5.917313327176515
 31
0.0
  0
LINE
  5
195
330
2
100
AcDbEntity
  8
GAIKEI
 62
     1
100
AcDbLine
 10
-22.68707076798369
 20
-6.768374153921428
 30
0.0
 11
-21.93595586491329
 21
-6.768374153921428
 31
0.0
  0
LINE
  5
196
330
2
100
AcDbEntity
  8
GAIKEI
 62
     1
100
AcDbLine
 10
-24.32452152968409
 20
-5.982186949034172
 30
0.0
 11
-24.3245215296842
 21
-6.602540958047853
 31
0.0
  0
LINE
  5
197
330
2
100
AcDbEntity
  8
GAIKEI
 62
     1
100
AcDbLine
 10
-23.70335660039728
 20
-5.982186949034172
 30
0.0
 11
-24.32452152968409
 21
-5.982186949034172
 31
0.0
  0
LINE
  5
198
330
2
100
AcDbEntity
  8
GAIKEI
 62
     1
100
AcDbLine
 10
-23.70335660039728
 20
-6.602540958047853
 30
0.0
 11
-23.70335660039728
 21
-5.982186949034172
 31
0.0
  0
LINE
  5
199
330
2
100
AcDbEntity
  8
GAIKEI
 62
     1
100
AcDbLine
 10
-24.3245215296842
 20
-6.602540958047853
 30
0.0
 11
-23.70335660039728
 21
-6.602540958047853
 31
0.0
  0
ARC
  5
19A
330
2
100
AcDbEntity
  8
GAIKEI
 62
     1
100
AcDbCircle
 10
-24.38972881144588
 20
-6.668356430014483
 30
0.0
 40
0.1000177496787004
100
AcDbArc
 50
180.0411312057642
 51
269.9588687942292
  0
ARC
  5
19B
330
2
100
AcDbEntity
  8
GAIKEI
 62
     1
100
AcDbCircle
 10
-24.38911809022653
 20
-5.916980434267912
 30
0.0
 40
0.100628995752805
100
AcDbArc
 50
90.3886146151237
 51
180.1895417254107
  0
ARC
  5
19C
330
2
100
AcDbEntity
  8
GAIKEI
 62
     1
100
AcDbCircle
 10
-23.63894447910644
 20
-5.916762355631846
 30
0.0
 40
0.1004089359191444
100
AcDbArc
 50
359.6856006661652
 51
89.85233910002078
  0
ARC
  5
19D
330
2
100
AcDbEntity
  8
GAIKEI
 62
     1
100
AcDbCircle
 10
-23.63833950470376
 20
-6.668572200713441
 30
0.0
 40
0.0998025536810726
100
AcDbArc
 50
269.8012469459618
 51
0.0826522234263437
  0
LINE
  5
19E
330
2
100
AcDbEntity
  8
GAIKEI
 62
     1
100
AcDbLine
 10
-24.48974653535282
 20
-5.917313327176515
 30
0.0
 11
-24.48974653535282
 21
-6.668428230246973
 31
0.0
  0
LINE
  5
19F
330
2
100
AcDbEntity
  8
GAIKEI
 62
     1
100
AcDbLine
 10
-23.63868570860785
 20
-5.816353753160484
 30
0.0
 11
-24.38980061167836
 21
-5.816353753160541
 31
0.0
  0
LINE
  5
1A0
330
2
100
AcDbEntity
  8
GAIKEI
 62
     1
100
AcDbLine
 10
-23.53853705486522
 20
-6.668428230246973
 30
0.0
 11
-23.53853705486522
 21
-5.917313327176515
 31
0.0
  0
LINE
  5
1A1
330
2
100
AcDbEntity
  8
GAIKEI
 62
     1
100
AcDbLine
 10
-24.38980061167836
 20
-6.768374153921428
 30
0.0
 11
-23.63868570860796
 21
-6.768374153921428
 31
0.0
  0
LINE
  5
1A2
330
2
100
AcDbEntity
  8
GAIKEI
 62
     1
100
AcDbLine
 10
-26.02806229365211
 20
-5.982186949034172
 30
0.0
 11
-26.02806229365211
 21
-6.602540958047853
 31
0.0
  0
LINE
  5
1A3
330
2
100
AcDbEntity
  8
GAIKEI
 62
     1
100
AcDbLine
 10
-25.40689736436519
 20
-5.982186949034172
 30
0.0
 11
-26.02806229365211
 21
-5.982186949034172
 31
0.0
  0
LINE
  5
1A4
330
2
100
AcDbEntity
  8
GAIKEI
 62
     1
100
AcDbLine
 10
-25.40689736436519
 20
-6.602540958047853
 30
0.0
 11
-25.40689736436519
 21
-5.982186949034172
 31
0.0
  0
LINE
  5
1A5
330
2
100
AcDbEntity
  8
GAIKEI
 62
     1
100
AcDbLine
 10
-26.02806229365211
 20
-6.602540958047853
 30
0.0
 11
-25.40689736436519
 21
-6.602540958047853
 31
0.0
  0
ARC
  5
1A6
330
2
100
AcDbEntity
  8
GAIKEI
 62
     1
100
AcDbCircle
 10
-26.09326957541389
 20
-6.668356430014483
 30
0.0
 40
0.1000177496787004
100
AcDbArc
 50
180.0411312057642
 51
269.9588687942292
  0
ARC
  5
1A7
330
2
100
AcDbEntity
  8
GAIKEI
 62
     1
100
AcDbCircle
 10
-26.09265885419444
 20
-5.916980434267912
 30
0.0
 40
0.100628995752805
100
AcDbArc
 50
90.3886146151237
 51
180.1895417254107
  0
ARC
  5
1A8
330
2
100
AcDbEntity
  8
GAIKEI
 62
     1
100
AcDbCircle
 10
-25.34248524307446
 20
-5.916762355631846
 30
0.0
 40
0.1004089359191444
100
AcDbArc
 50
359.6856006661652
 51
89.85233910002078
  0
ARC
  5
1A9
330
2
100
AcDbEntity
  8
GAIKEI
 62
     1
100
AcDbCircle
 10
-25.34188026867167
 20
-6.668572200713441
 30
0.0
 40
0.0998025536810726
100
AcDbArc
 50
269.8012469459618
 51
0.0826522234263437
  0
LINE
  5
1AA
330
2
100
AcDbEntity
  8
GAIKEI
 62
     1
100
AcDbLine
 10
-26.19328729932073
 20
-5.917313327176515
 30
0.0
 11
-26.19328729932073
 21
-6.668428230246973
 31
0.0
  0
LINE
  5
1AB
330
2
100
AcDbEntity
  8
GAIKEI
 62
     1
100
AcDbLine
 10
-25.34222647257587
 20
-5.816353753160484
 30
0.0
 11
-26.09334137564627
 21
-5.816353753160541
 31
0.0
  0
LINE
  5
1AC
330
2
100
AcDbEntity
  8
GAIKEI
 62
     1
100
AcDbLine
 10
-25.24207781883314
 20
-6.668428230246973
 30
0.0
 11
-25.24207781883314
 21
-5.917313327176515
 31
0.0
  0
LINE
  5
1AD
330
2
100
AcDbEntity
  8
GAIKEI
 62
     1
100
AcDbLine
 10
-26.09334137564639
 20
-6.768374153921428
 30
0.0
 11
-25.34222647257587
 21
-6.768374153921428
 31
0.0
  0
LINE
  5
1AE
330
2
100
AcDbEntity
  8
GAIKEI
 62
     1
100
AcDbLine
 10
-27.73099486741506
 20
-5.982186949034115
 30
0.0
 11
-27.73099486741506
 21
-6.602540958047796
 31
0.0
  0
LINE
  5
1AF
330
2
100
AcDbEntity
  8
GAIKEI
 62
     1
100
AcDbLine
 10
-27.10982993812825
 20
-5.982186949034115
 30
0.0
 11
-27.73099486741506
 21
-5.982186949034115
 31
0.0
  0
LINE
  5
1B0
330
2
100
AcDbEntity
  8
GAIKEI
 62
     1
100
AcDbLine
 10
-27.10982993812814
 20
-6.602540958047796
 30
0.0
 11
-27.10982993812825
 21
-5.982186949034115
 31
0.0
  0
LINE
  5
1B1
330
2
100
AcDbEntity
  8
GAIKEI
 62
     1
100
AcDbLine
 10
-27.73099486741506
 20
-6.602540958047796
 30
0.0
 11
-27.10982993812814
 21
-6.602540958047796
 31
0.0
  0
ARC
  5
1B2
330
2
100
AcDbEntity
  8
GAIKEI
 62
     1
100
AcDbCircle
 10
-27.79620214917684
 20
-6.668356430014483
 30
0.0
 40
0.1000177496787004
100
AcDbArc
 50
180.0411312057642
 51
269.9588687942292
  0
ARC
  5
1B3
330
2
100
AcDbEntity
  8
GAIKEI
 62
     1
100
AcDbCircle
 10
-27.79559142795739
 20
-5.916980434267912
 30
0.0
 40
0.100628995752805
100
AcDbArc
 50
90.3886146151237
 51
180.1895417254107
  0
ARC
  5
1B4
330
2
100
AcDbEntity
  8
GAIKEI
 62
     1
100
AcDbCircle
 10
-27.04541781683741
 20
-5.916762355631846
 30
0.0
 40
0.1004089359191444
100
AcDbArc
 50
359.6856006661652
 51
89.85233910002078
  0
ARC
  5
1B5
330
2
100
AcDbEntity
  8
GAIKEI
 62
     1
100
AcDbCircle
 10
-27.04481284243462
 20
-6.668572200713441
 30
0.0
 40
0.0998025536810726
100
AcDbArc
 50
269.8012469459618
 51
0.0826522234263437
  0
LINE
  5
1B6
330
2
100
AcDbEntity
  8
GAIKEI
 62
     1
100
AcDbLine
 10
-27.89621987308368
 20
-5.917313327176515
 30
0.0
 11
-27.89621987308379
 21
-6.668428230246973
 31
0.0
  0
LINE
  5
1B7
330
2
100
AcDbEntity
  8
GAIKEI
 62
     1
100
AcDbLine
 10
-27.04515904633882
 20
-5.816353753160484
 30
0.0
 11
-27.79627394940934
 21
-5.816353753160541
 31
0.0
  0
LINE
  5
1B8
330
2
100
AcDbEntity
  8
GAIKEI
 62
     1
100
AcDbLine
 10
-26.94501039259609
 20
-6.668428230246973
 30
0.0
 11
-26.94501039259609
 21
-5.917313327176515
 31
0.0
  0
LINE
  5
1B9
330
2
100
AcDbEntity
  8
GAIKEI
 62
     1
100
AcDbLine
 10
-27.79627394940934
 20
-6.768374153921428
 30
0.0
 11
-27.04515904633882
 21
-6.768374153921428
 31
0.0
  0
CIRCLE
  5
1BA
330
2
100
AcDbEntity
  8
GAIKEI
 62
     1
100
AcDbCircle
 10
-31.57830473867551
 20
-5.090580108628245
 30
0.0
 40
0.1000472887085757
  0
LINE
  5
1BB
330
2
100
AcDbEntity
  8
GAIKEI
 62
     1
100
AcDbLine
 10
-31.60334190211125
 20
-6.768374153921428
 30
0.0
 11
-30.85222699904074
 21
-6.768374153921428
 31
0.0
  0
LINE
  5
1BC
330
2
100
AcDbEntity
  8
GAIKEI
 62
     1
100
AcDbLine
 10
-30.752078345298
 20
-6.668428230246973
 30
0.0
 11
-30.752078345298
 21
-5.917313327176515
 31
0.0
  0
LINE
  5
1BD
330
2
100
AcDbEntity
  8
GAIKEI
 62
     1
100
AcDbLine
 10
-30.85222699904074
 20
-5.816353753160484
 30
0.0
 11
-31.60334190211114
 21
-5.816353753160541
 31
0.0
  0
LINE
  5
1BE
330
2
100
AcDbEntity
  8
GAIKEI
 62
     1
100
AcDbLine
 10
-31.70328782578559
 20
-5.917313327176515
 30
0.0
 11
-31.70328782578559
 21
-6.668428230246973
 31
0.0
  0
ARC
  5
1BF
330
2
100
AcDbEntity
  8
GAIKEI
 62
     1
100
AcDbCircle
 10
-30.85188079513653
 20
-6.668572200713441
 30
0.0
 40
0.0998025536810726
100
AcDbArc
 50
269.8012469459618
 51
0.0826522234263437
  0
ARC
  5
1C0
330
2
100
AcDbEntity
  8
GAIKEI
 62
     1
100
AcDbCircle
 10
-30.85248576953933
 20
-5.916762355631846
 30
0.0
 40
0.1004089359191444
100
AcDbArc
 50
359.6856006661652
 51
89.85233910002078
  0
ARC
  5
1C1
330
2
100
AcDbEntity
  8
GAIKEI
 62
     1
100
AcDbCircle
 10
-31.6026593806593
 20
-5.916980434267912
 30
0.0
 40
0.100628995752805
100
AcDbArc
 50
90.3886146151237
 51
180.1895417254107
  0
ARC
  5
1C2
330
2
100
AcDbEntity
  8
GAIKEI
 62
     1
100
AcDbCircle
 10
-31.60327010187876
 20
-6.668356430014483
 30
0.0
 40
0.1000177496787004
100
AcDbArc
 50
180.0411312057642
 51
269.9588687942292
  0
LINE
  5
1C3
330
2
100
AcDbEntity
  8
GAIKEI
 62
     1
100
AcDbLine
 10
-31.53806282011697
 20
-6.602540958047796
 30
0.0
 11
-30.91689789083005
 21
-6.602540958047796
 31
0.0
  0
LINE
  5
1C4
330
2
100
AcDbEntity
  8
GAIKEI
 62
     1
100
AcDbLine
 10
-30.91689789083005
 20
-6.602540958047796
 30
0.0
 11
-30.91689789083005
 21
-5.982186949034115
 31
0.0
  0
LINE
  5
1C5
330
2
100
AcDbEntity
  8
GAIKEI
 62
     1
100
AcDbLine
 10
-30.91689789083005
 20
-5.982186949034115
 30
0.0
 11
-31.53806282011697
 21
-5.982186949034115
 31
0.0
  0
LINE
  5
1C6
330
2
100
AcDbEntity
  8
GAIKEI
 62
     1
100
AcDbLine
 10
-31.53806282011697
 20
-5.982186949034115
 30
0.0
 11
-31.53806282011697
 21
-6.602540958047796
 31
0.0
  0
CIRCLE
  5
1C7
330
2
100
AcDbEntity
  8
GAIKEI
 62
     1
100
AcDbCircle
 10
-33.28123731243858
 20
-5.090580108628245
 30
0.0
 40
0.1000472887085757
  0
LINE
  5
1C8
330
2
100
AcDbEntity
  8
GAIKEI
 62
     1
100
AcDbLine
 10
-33.30627447587431
 20
-6.768374153921428
 30
0.0
 11
-32.5551595728038
 21
-6.768374153921428
 31
0.0
  0
LINE
  5
1C9
330
2
100
AcDbEntity
  8
GAIKEI
 62
     1
100
AcDbLine
 10
-32.45501091906106
 20
-6.668428230246973
 30
0.0
 11
-32.45501091906106
 21
-5.917313327176515
 31
0.0
  0
LINE
  5
1CA
330
2
100
AcDbEntity
  8
GAIKEI
 62
     1
100
AcDbLine
 10
-32.5551595728038
 20
-5.816353753160484
 30
0.0
 11
-33.3062744758742
 21
-5.816353753160541
 31
0.0
  0
LINE
  5
1CB
330
2
100
AcDbEntity
  8
GAIKEI
 62
     1
100
AcDbLine
 10
-33.40622039954865
 20
-5.917313327176515
 30
0.0
 11
-33.40622039954865
 21
-6.668428230246973
 31
0.0
  0
ARC
  5
1CC
330
2
100
AcDbEntity
  8
GAIKEI
 62
     1
100
AcDbCircle
 10
-32.5548133688996
 20
-6.668572200713441
 30
0.0
 40
0.0998025536810726
100
AcDbArc
 50
269.8012469459618
 51
0.0826522234263437
  0
ARC
  5
1CD
330
2
100
AcDbEntity
  8
GAIKEI
 62
     1
100
AcDbCircle
 10
-32.55541834330239
 20
-5.916762355631846
 30
0.0
 40
0.1004089359191444
100
AcDbArc
 50
359.6856006661652
 51
89.85233910002078
  0
ARC
  5
1CE
330
2
100
AcDbEntity
  8
GAIKEI
 62
     1
100
AcDbCircle
 10
-33.30559195442237
 20
-5.916980434267912
 30
0.0
 40
0.100628995752805
100
AcDbArc
 50
90.3886146151237
 51
180.1895417254107
  0
ARC
  5
1CF
330
2
100
AcDbEntity
  8
GAIKEI
 62
     1
100
AcDbCircle
 10
-33.30620267564182
 20
-6.668356430014483
 30
0.0
 40
0.1000177496787004
100
AcDbArc
 50
180.0411312057642
 51
269.9588687942292
  0
LINE
  5
1D0
330
2
100
AcDbEntity
  8
GAIKEI
 62
     1
100
AcDbLine
 10
-33.24099539388004
 20
-6.602540958047796
 30
0.0
 11
-32.61983046459312
 21
-6.602540958047796
 31
0.0
  0
LINE
  5
1D1
330
2
100
AcDbEntity
  8
GAIKEI
 62
     1
100
AcDbLine
 10
-32.61983046459312
 20
-6.602540958047796
 30
0.0
 11
-32.61983046459312
 21
-5.982186949034115
 31
0.0
  0
LINE
  5
1D2
330
2
100
AcDbEntity
  8
GAIKEI
 62
     1
100
AcDbLine
 10
-32.61983046459312
 20
-5.982186949034115
 30
0.0
 11
-33.24099539388004
 21
-5.982186949034115
 31
0.0
  0
LINE
  5
1D3
330
2
100
AcDbEntity
  8
GAIKEI
 62
     1
100
AcDbLine
 10
-33.24099539388004
 20
-5.982186949034115
 30
0.0
 11
-33.24099539388004
 21
-6.602540958047796
 31
0.0
  0
CIRCLE
  5
1D4
330
2
100
AcDbEntity
  8
GAIKEI
 62
     1
100
AcDbCircle
 10
-34.98437261626992
 20
-5.090580108628245
 30
0.0
 40
0.1000472887085757
  0
LINE
  5
1D5
330
2
100
AcDbEntity
  8
GAIKEI
 62
     1
100
AcDbLine
 10
-35.00940977970555
 20
-6.768374153921428
 30
0.0
 11
-34.25829487663515
 21
-6.768374153921428
 31
0.0
  0
LINE
  5
1D6
330
2
100
AcDbEntity
  8
GAIKEI
 62
     1
100
AcDbLine
 10
-34.15814622289241
 20
-6.668428230246973
 30
0.0
 11
-34.15814622289241
 21
-5.917313327176515
 31
0.0
  0
LINE
  5
1D7
330
2
100
AcDbEntity
  8
GAIKEI
 62
     1
100
AcDbLine
 10
-34.25829487663503
 20
-5.816353753160484
 30
0.0
 11
-35.00940977970555
 21
-5.816353753160541
 31
0.0
  0
LINE
  5
1D8
330
2
100
AcDbEntity
  8
GAIKEI
 62
     1
100
AcDbLine
 10
-35.10935570337989
 20
-5.917313327176515
 30
0.0
 11
-35.10935570338
 21
-6.668428230246973
 31
0.0
  0
ARC
  5
1D9
330
2
100
AcDbEntity
  8
GAIKEI
 62
     1
100
AcDbCircle
 10
-34.25794867273083
 20
-6.668572200713498
 30
0.0
 40
0.0998025536810726
100
AcDbArc
 50
269.8012469459618
 51
0.0826522234263437
  0
ARC
  5
1DA
330
2
100
AcDbEntity
  8
GAIKEI
 62
     1
100
AcDbCircle
 10
-34.25855364713362
 20
-5.916762355631846
 30
0.0
 40
0.1004089359191444
100
AcDbArc
 50
359.6856006661652
 51
89.85233910002078
  0
ARC
  5
1DB
330
2
100
AcDbEntity
  8
GAIKEI
 62
     1
100
AcDbCircle
 10
-35.00872725825371
 20
-5.916980434267912
 30
0.0
 40
0.100628995752805
100
AcDbArc
 50
90.3886146151237
 51
180.1895417254107
  0
ARC
  5
1DC
330
2
100
AcDbEntity
  8
GAIKEI
 62
     1
100
AcDbCircle
 10
-35.00933797947306
 20
-6.668356430014483
 30
0.0
 40
0.1000177496787004
100
AcDbArc
 50
180.0411312057642
 51
269.9588687942292
  0
LINE
  5
1DD
330
2
100
AcDbEntity
  8
GAIKEI
 62
     1
100
AcDbLine
 10
-34.94413069771127
 20
-6.602540958047796
 30
0.0
 11
-34.32296576842446
 21
-6.602540958047796
 31
0.0
  0
LINE
  5
1DE
330
2
100
AcDbEntity
  8
GAIKEI
 62
     1
100
AcDbLine
 10
-34.32296576842446
 20
-6.602540958047796
 30
0.0
 11
-34.32296576842446
 21
-5.982186949034115
 31
0.0
  0
LINE
  5
1DF
330
2
100
AcDbEntity
  8
GAIKEI
 62
     1
100
AcDbLine
 10
-34.32296576842446
 20
-5.982186949034115
 30
0.0
 11
-34.94413069771127
 21
-5.982186949034115
 31
0.0
  0
LINE
  5
1E0
330
2
100
AcDbEntity
  8
GAIKEI
 62
     1
100
AcDbLine
 10
-34.94413069771127
 20
-5.982186949034115
 30
0.0
 11
-34.94413069771127
 21
-6.602540958047796
 31
0.0
  0
CIRCLE
  5
1E1
330
2
100
AcDbEntity
  8
GAIKEI
 62
     1
100
AcDbCircle
 10
-36.68750792010115
 20
-5.090580108628245
 30
0.0
 40
0.1000472887085757
  0
LINE
  5
1E2
330
2
100
AcDbEntity
  8
GAIKEI
 62
     1
100
AcDbLine
 10
-36.71254508353689
 20
-6.768374153921428
 30
0.0
 11
-35.96143018046638
 21
-6.768374153921428
 31
0.0
  0
LINE
  5
1E3
330
2
100
AcDbEntity
  8
GAIKEI
 62
     1
100
AcDbLine
 10
-35.86128152672364
 20
-6.668428230246973
 30
0.0
 11
-35.86128152672364
 21
-5.917313327176515
 31
0.0
  0
LINE
  5
1E4
330
2
100
AcDbEntity
  8
GAIKEI
 62
     1
100
AcDbLine
 10
-35.96143018046638
 20
-5.816353753160484
 30
0.0
 11
-36.71254508353678
 21
-5.816353753160541
 31
0.0
  0
LINE
  5
1E5
330
2
100
AcDbEntity
  8
GAIKEI
 62
     1
100
AcDbLine
 10
-36.81249100721123
 20
-5.917313327176515
 30
0.0
 11
-36.81249100721123
 21
-6.668428230246973
 31
0.0
  0
ARC
  5
1E6
330
2
100
AcDbEntity
  8
GAIKEI
 62
     1
100
AcDbCircle
 10
-35.96108397656218
 20
-6.668572200713441
 30
0.0
 40
0.0998025536810726
100
AcDbArc
 50
269.8012469459618
 51
0.0826522234263437
  0
ARC
  5
1E7
330
2
100
AcDbEntity
  8
GAIKEI
 62
     1
100
AcDbCircle
 10
-35.96168895096496
 20
-5.916762355631846
 30
0.0
 40
0.1004089359191444
100
AcDbArc
 50
359.6856006661652
 51
89.85233910002078
  0
ARC
  5
1E8
330
2
100
AcDbEntity
  8
GAIKEI
 62
     1
100
AcDbCircle
 10
-36.71186256208494
 20
-5.916980434267912
 30
0.0
 40
0.100628995752805
100
AcDbArc
 50
90.3886146151237
 51
180.1895417254107
  0
ARC
  5
1E9
330
2
100
AcDbEntity
  8
GAIKEI
 62
     1
100
AcDbCircle
 10
-36.7124732833044
 20
-6.668356430014483
 30
0.0
 40
0.1000177496787004
100
AcDbArc
 50
180.0411312057642
 51
269.9588687942292
  0
LINE
  5
1EA
330
2
100
AcDbEntity
  8
GAIKEI
 62
     1
100
AcDbLine
 10
-36.64726600154262
 20
-6.602540958047796
 30
0.0
 11
-36.0261010722557
 21
-6.602540958047796
 31
0.0
  0
LINE
  5
1EB
330
2
100
AcDbEntity
  8
GAIKEI
 62
     1
100
AcDbLine
 10
-36.0261010722557
 20
-6.602540958047796
 30
0.0
 11
-36.0261010722557
 21
-5.982186949034115
 31
0.0
  0
LINE
  5
1EC
330
2
100
AcDbEntity
  8
GAIKEI
 62
     1
100
AcDbLine
 10
-36.0261010722557
 20
-5.982186949034115
 30
0.0
 11
-36.64726600154262
 21
-5.982186949034115
 31
0.0
  0
LINE
  5
1ED
330
2
100
AcDbEntity
  8
GAIKEI
 62
     1
100
AcDbLine
 10
-36.64726600154262
 20
-5.982186949034115
 30
0.0
 11
-36.64726600154262
 21
-6.602540958047796
 31
0.0
  0
LINE
  5
1EE
330
2
100
AcDbEntity
  8
GAIKEI
 62
     1
100
AcDbLine
 10
-38.34999584523728
 20
-5.982186949034115
 30
0.0
 11
-38.3499958452374
 21
-6.602540958047796
 31
0.0
  0
LINE
  5
1EF
330
2
100
AcDbEntity
  8
GAIKEI
 62
     1
100
AcDbLine
 10
-37.72883091595048
 20
-5.982186949034115
 30
0.0
 11
-38.34999584523728
 21
-5.982186949034115
 31
0.0
  0
LINE
  5
1F0
330
2
100
AcDbEntity
  8
GAIKEI
 62
     1
100
AcDbLine
 10
-37.72883091595048
 20
-6.602540958047796
 30
0.0
 11
-37.72883091595048
 21
-5.982186949034115
 31
0.0
  0
LINE
  5
1F1
330
2
100
AcDbEntity
  8
GAIKEI
 62
     1
100
AcDbLine
 10
-38.3499958452374
 20
-6.602540958047796
 30
0.0
 11
-37.72883091595048
 21
-6.602540958047796
 31
0.0
  0
ARC
  5
1F2
330
2
100
AcDbEntity
  8
GAIKEI
 62
     1
100
AcDbCircle
 10
-38.41520312699907
 20
-6.668356430014483
 30
0.0
 40
0.1000177496787004
100
AcDbArc
 50
180.0411312057642
 51
269.9588687942292
  0
ARC
  5
1F3
330
2
100
AcDbEntity
  8
GAIKEI
 62
     1
100
AcDbCircle
 10
-38.41459240577973
 20
-5.916980434267912
 30
0.0
 40
0.100628995752805
100
AcDbArc
 50
90.3886146151237
 51
180.1895417254107
  0
ARC
  5
1F4
330
2
100
AcDbEntity
  8
GAIKEI
 62
     1
100
AcDbCircle
 10
-37.66441879465963
 20
-5.916762355631846
 30
0.0
 40
0.1004089359191444
100
AcDbArc
 50
359.6856006661652
 51
89.85233910002078
  0
ARC
  5
1F5
330
2
100
AcDbEntity
  8
GAIKEI
 62
     1
100
AcDbCircle
 10
-37.66381382025684
 20
-6.668572200713441
 30
0.0
 40
0.0998025536810726
100
AcDbArc
 50
269.8012469459618
 51
0.0826522234263437
  0
LINE
  5
1F6
330
2
100
AcDbEntity
  8
GAIKEI
 62
     1
100
AcDbLine
 10
-38.51522085090602
 20
-5.917313327176515
 30
0.0
 11
-38.51522085090602
 21
-6.668428230246973
 31
0.0
  0
LINE
  5
1F7
330
2
100
AcDbEntity
  8
GAIKEI
 62
     1
100
AcDbLine
 10
-37.66416002416105
 20
-5.816353753160484
 30
0.0
 11
-38.41527492723156
 21
-5.816353753160541
 31
0.0
  0
LINE
  5
1F8
330
2
100
AcDbEntity
  8
GAIKEI
 62
     1
100
AcDbLine
 10
-37.56401137041843
 20
-6.668428230246973
 30
0.0
 11
-37.56401137041843
 21
-5.917313327176515
 31
0.0
  0
LINE
  5
1F9
330
2
100
AcDbEntity
  8
GAIKEI
 62
     1
100
AcDbLine
 10
-38.41527492723156
 20
-6.768374153921428
 30
0.0
 11
-37.66416002416116
 21
-6.768374153921428
 31
0.0
  0
CIRCLE
  5
1FA
330
2
100
AcDbEntity
  8
GAIKEI
 62
     1
100
AcDbCircle
 10
-38.39023776379594
 20
-5.090580108628245
 30
0.0
 40
0.1000472887085757
  0
ARC
  5
1FB
330
2
100
AcDbEntity
  8
GAIKEI
 62
     1
100
AcDbCircle
 10
-43.64962128602525
 20
-5.991859030473989
 30
0.0
 40
0.2103751348019396
100
AcDbArc
 50
90.0944334801497
 51
179.9608446434072
  0
ARC
  5
1FC
330
2
100
AcDbEntity
  8
GAIKEI
 62
     1
100
AcDbCircle
 10
-43.04884398147152
 20
-5.991685749215747
 30
0.0
 40
0.2102016959623351
100
AcDbArc
 50
359.9919554788403
 51
90.06326936460647
  0
ARC
  5
1FD
330
2
100
AcDbEntity
  8
GAIKEI
 62
     1
100
AcDbCircle
 10
-43.04841314951073
 20
-6.593473752193602
 30
0.0
 40
0.209771021052867
100
AcDbArc
 50
269.8189252208932
 51
0.0705718634793649
  0
ARC
  5
1FE
330
2
100
AcDbEntity
  8
GAIKEI
 62
     1
100
AcDbCircle
 10
-43.65005465417158
 20
-6.593302008139147
 30
0.0
 40
0.2099417354054966
100
AcDbArc
 50
179.9763566840595
 51
270.0236433159389
  0
LINE
  5
1FF
330
2
100
AcDbEntity
  8
GAIKEI
 62
     1
100
AcDbLine
 10
-43.85999637170226
 20
-5.991715262244468
 30
0.0
 11
-43.85999637170226
 21
-6.593215374905781
 31
0.0
  0
LINE
  5
200
330
2
100
AcDbEntity
  8
GAIKEI
 62
     1
100
AcDbLine
 10
-43.04907609848174
 20
-5.781484181412082
 30
0.0
 11
-43.64996802093815
 21
-5.781484181412082
 31
0.0
  0
LINE
  5
201
330
2
100
AcDbEntity
  8
GAIKEI
 62
     1
100
AcDbLine
 10
-42.83864228758107
 20
-6.593215374905781
 30
0.0
 11
-42.83864228758107
 21
-5.991715262244468
 31
0.0
  0
LINE
  5
202
330
2
100
AcDbEntity
  8
GAIKEI
 62
     1
100
AcDbLine
 10
-43.64996802093815
 20
-6.803243725669886
 30
0.0
 11
-43.04907609848174
 21
-6.803243725669886
 31
0.0
  0
ARC
  5
203
330
2
100
AcDbEntity
  8
GAIKEI
 62
     1
100
AcDbCircle
 10
-43.67443007707703
 20
-6.618286220709563
 30
0.0
 40
0.4010687214460705
100
AcDbArc
 50
179.9227842798754
 51
269.8743990132755
  0
LINE
  5
204
330
2
100
AcDbEntity
  8
GAIKEI
 62
     1
100
AcDbLine
 10
-44.07549843431064
 20
-5.967590384116164
 30
0.0
 11
-44.07549843431053
 21
-6.617745713170705
 31
0.0
  0
ARC
  5
205
330
2
100
AcDbEntity
  8
GAIKEI
 62
     1
100
AcDbCircle
 10
-43.67555716640635
 20
-5.966937493139511
 30
0.0
 40
0.3999418008153803
100
AcDbArc
 50
89.96448764352232
 51
180.0935333940642
  0
LINE
  5
206
330
2
100
AcDbEntity
  8
GAIKEI
 62
     1
100
AcDbLine
 10
-43.02373483994364
 20
-5.566995769145222
 30
0.0
 11
-43.67530927947626
 21
-5.566995769145222
 31
0.0
  0
ARC
  5
207
330
2
100
AcDbEntity
  8
GAIKEI
 62
     1
100
AcDbCircle
 10
-43.02310829418781
 20
-5.967368869533714
 30
0.0
 40
0.4003735906303622
100
AcDbArc
 50
359.9682999787686
 51
90.08966236278503
  0
LINE
  5
208
330
2
100
AcDbEntity
  8
GAIKEI
 62
     1
100
AcDbLine
 10
-42.62273476483613
 20
-6.617745713170705
 30
0.0
 11
-42.62273476483613
 21
-5.967590384116164
 31
0.0
  0
ARC
  5
209
330
2
100
AcDbEntity
  8
GAIKEI
 62
     1
100
AcDbCircle
 10
-43.02423374454048
 20
-6.617855293795713
 30
0.0
 40
0.4014989946581799
100
AcDbArc
 50
270.0711960316557
 51
0.0156376665732191
  0
LINE
  5
20A
330
2
100
AcDbEntity
  8
GAIKEI
 62
     1
100
AcDbLine
 10
-43.67530927947626
 20
-7.01935397848311
 30
0.0
 11
-43.02373483994364
 21
-7.01935397848311
 31
0.0
  0
CIRCLE
  5
20B
330
2
100
AcDbEntity
  8
GAIKEI
 62
     1
100
AcDbCircle
 10
-44.65175865346788
 20
-5.090580108628245
 30
0.0
 40
0.1000472887085757
  0
LINE
  5
20C
330
2
100
AcDbEntity
  8
GAIKEI
100
AcDbLine
 10
1.68229982270185
 20
-8.628219800552614
 30
0.0
 11
-43.39959638658132
 21
-8.628219800552557
 31
0.0
  0
LINE
  5
20D
330
2
100
AcDbEntity
  8
GAIKEI
 62
     1
100
AcDbLine
 10
1.68229982270185
 20
-8.889336128529606
 30
0.0
 11
-43.39959638658132
 21
-8.889336128529606
 31
0.0
  0
LINE
  5
20E
330
2
100
AcDbEntity
  8
GAIKEI
 62
     1
100
AcDbLine
 10
1.68229982270185
 20
-9.813987970069234
 30
0.0
 11
-43.39959638658132
 21
-9.813987970069234
 31
0.0
  0
LINE
  5
20F
330
2
100
AcDbEntity
  8
GAIKEI
100
AcDbLine
 10
1.682705282838412
 20
-8.701202625142428
 30
0.0
 11
11.09135199869325
 21
-8.701202625142428
 31
0.0
  0
LINE
  5
210
330
2
100
AcDbEntity
  8
GAIKEI
100
AcDbLine
 10
1.68229982270185
 20
-8.628219800552614
 30
0.0
 11
1.68229982270185
 21
-10.0742933777731
 31
0.0
  0
LINE
  5
211
330
2
100
AcDbEntity
  8
GAIKEI
100
AcDbLine
 10
-43.39959638658132
 20
-8.628219800552614
 30
0.0
 11
-43.39959638658132
 21
-10.07429337777304
 31
0.0
  0
LINE
  5
212
330
2
100
AcDbEntity
  8
GAIKEI
100
AcDbLine
 10
12.29135199869318
 20
34.33571465944496
 30
0.0
 11
12.29135199869318
 21
-7.50120262514244
 31
0.0
  0
ARC
  5
213
330
2
100
AcDbEntity
  8
GAIKEI
100
AcDbCircle
 10
11.09135199869325
 20
-7.50120262514244
 30
0.0
 40
1.2
100
AcDbArc
 50
270.0
 51
0.000000000000007
  0
LINE
  5
214
330
2
100
AcDbEntity
  8
GAIKEI
100
AcDbLine
 10
11.90677305911839
 20
-7.471191899721503
 30
0.0
 11
11.90677305911839
 21
-4.447452589968946
 31
0.0
  0
ARC
  5
215
330
2
100
AcDbEntity
  8
GAIKEI
100
AcDbCircle
 10
11.25677305911841
 20
-7.471191899721503
 30
0.0
 40
0.65
100
AcDbArc
 50
270.0
 51
0.000000000000007
  0
LINE
  5
216
330
2
100
AcDbEntity
  8
GAIKEI
 62
     1
100
AcDbLine
 10
11.79832750105896
 20
-7.195701987440571
 30
0.0
 11
11.79832750105896
 21
-4.477844674485396
 31
0.0
  0
ARC
  5
217
330
2
100
AcDbEntity
  8
GAIKEI
 62
     1
100
AcDbCircle
 10
10.998327501059
 20
-7.195701987440571
 30
0.0
 40
0.8
100
AcDbArc
 50
270.0
 51
0.000000000000007
  0
LINE
  5
218
330
2
100
AcDbEntity
  8
GAIKEI
 62
     1
100
AcDbLine
 10
11.93881943839454
 20
-3.888485380996002
 30
0.0
 11
11.93881943839454
 21
34.31890163900956
 31
0.0
  0
ARC
  5
219
330
2
100
AcDbEntity
  8
GAIKEI
100
AcDbCircle
 10
11.69135199869316
 20
-3.887458155420489
 30
0.0
 40
0.6000000000000001
100
AcDbArc
 50
270.0
 51
0.000000000000007
  0
ARC
  5
21A
330
2
100
AcDbEntity
  8
GAIKEI
 62
     1
100
AcDbCircle
 10
11.7388194383945
 20
-3.888485380996002
 30
0.0
 40
0.2
100
AcDbArc
 50
270.0
 51
0.000000000000007
  0
LINE
  5
21B
330
2
100
AcDbEntity
  8
GAIKEI
 62
     1
100
AcDbLine
 10
11.73852213090907
 20
-4.08848538099599
 30
0.0
 11
11.73852213090907
 21
-4.485601097054626
 31
0.0
  0
ARC
  5
21C
330
2
100
AcDbEntity
  8
GAIKEI
100
AcDbCircle
 10
11.09135199869325
 20
34.33571465944496
 30
0.0
 40
1.2
100
AcDbArc
 50
0.000000000000007
 51
90.0
  0
ARC
  5
21D
330
2
100
AcDbEntity
  8
GAIKEI
 62
     1
100
AcDbCircle
 10
11.13881943839447
 20
34.31890163900956
 30
0.0
 40
0.8
100
AcDbArc
 50
0.000000000000007
 51
89.99999999999969
  0
LINE
  5
21E
330
2
100
AcDbEntity
  8
GAIKEI
 62
     1
100
AcDbLine
 10
11.14898309227777
 20
35.53432996764522
 30
0.0
 11
11.14898309227777
 21
35.11883707399155
 31
0.0
  0
LINE
  5
21F
330
2
100
AcDbEntity
  8
GAIKEI
 62
     1
100
AcDbLine
 10
10.84863849608376
 20
-7.34433027797624
 30
0.0
 11
8.744908577281478
 21
-7.34433027797624
 31
0.0
  0
LINE
  5
220
330
2
100
AcDbEntity
  8
GAIKEI
 62
     1
100
AcDbLine
 10
10.84863849608376
 20
-7.34433027797624
 30
0.0
 11
10.84863849608365
 21
-5.241005819310572
 31
0.0
  0
LINE
  5
221
330
2
100
AcDbEntity
  8
GAIKEI
 62
     1
100
AcDbLine
 10
8.744908577281478
 20
-7.34433027797624
 30
0.0
 11
8.744908577281478
 21
-5.241005819310572
 31
0.0
  0
LINE
  5
222
330
2
100
AcDbEntity
  8
GAIKEI
 62
     1
100
AcDbLine
 10
10.84863849608376
 20
-7.044087046816372
 30
0.0
 11
8.744908577281478
 21
-7.044087046816372
 31
0.0
  0
LINE
  5
223
330
2
100
AcDbEntity
  8
GAIKEI
 62
     1
100
AcDbLine
 10
10.84863849608376
 20
-6.743843815656504
 30
0.0
 11
8.744908577281478
 21
-6.743843815656504
 31
0.0
  0
LINE
  5
224
330
2
100
AcDbEntity
  8
GAIKEI
 62
     1
100
AcDbLine
 10
10.84863849608376
 20
-6.14335735333671
 30
0.0
 11
8.744908577281478
 21
-6.14335735333671
 31
0.0
  0
LINE
  5
225
330
2
100
AcDbEntity
  8
GAIKEI
 62
     1
100
AcDbLine
 10
10.84863849608376
 20
-6.443600584496635
 30
0.0
 11
8.744908577281478
 21
-6.443600584496635
 31
0.0
  0
LINE
  5
226
330
2
100
AcDbEntity
  8
GAIKEI
 62
     1
100
AcDbLine
 10
10.84863849608376
 20
-5.242627659857106
 30
0.0
 11
8.744908577281478
 21
-5.242627659857106
 31
0.0
  0
LINE
  5
227
330
2
100
AcDbEntity
  8
GAIKEI
 62
     1
100
AcDbLine
 10
10.84863849608376
 20
-5.542870891016974
 30
0.0
 11
8.744908577281478
 21
-5.542870891016974
 31
0.0
  0
LINE
  5
228
330
2
100
AcDbEntity
  8
GAIKEI
 62
     1
100
AcDbLine
 10
10.84863849608376
 20
-5.843114122176842
 30
0.0
 11
8.744908577281478
 21
-5.843114122176842
 31
0.0
  0
LINE
  5
229
330
2
100
AcDbEntity
  8
GAIKEI
 62
     1
100
AcDbLine
 10
10.54809116982136
 20
-7.34433027797624
 30
0.0
 11
10.54809116982136
 21
-5.241005819310572
 31
0.0
  0
LINE
  5
22A
330
2
100
AcDbEntity
  8
GAIKEI
 62
     1
100
AcDbLine
 10
10.24754384355907
 20
-7.34433027797624
 30
0.0
 11
10.24754384355895
 21
-5.241005819310572
 31
0.0
  0
LINE
  5
22B
330
2
100
AcDbEntity
  8
GAIKEI
 62
     1
100
AcDbLine
 10
9.646449191034378
 20
-7.344330277976297
 30
0.0
 11
9.646449191034264
 21
-5.241005819310629
 31
0.0
  0
LINE
  5
22C
330
2
100
AcDbEntity
  8
GAIKEI
 62
     1
100
AcDbLine
 10
9.946996517296668
 20
-7.344330277976297
 30
0.0
 11
9.946996517296668
 21
-5.241005819310629
 31
0.0
  0
LINE
  5
22D
330
2
100
AcDbEntity
  8
GAIKEI
 62
     1
100
AcDbLine
 10
9.045354538509684
 20
-7.344330277976297
 30
0.0
 11
9.04535453850957
 21
-5.241005819310629
 31
0.0
  0
LINE
  5
22E
330
2
100
AcDbEntity
  8
GAIKEI
 62
     1
100
AcDbLine
 10
9.345901864771974
 20
-7.344330277976297
 30
0.0
 11
9.345901864771974
 21
-5.241005819310629
 31
0.0
  0
LINE
  5
22F
330
2
100
AcDbEntity
  8
GAIKEI
100
AcDbLine
 10
9.347103216697917
 20
-1.660171047603256
 30
0.0
 11
9.347103216697917
 21
31.65058205521151
 31
0.0
  0
ARC
  5
230
330
2
100
AcDbEntity
  8
GAIKEI
100
AcDbCircle
 10
8.947103216697939
 20
-1.660171047603256
 30
0.0
 40
0.4
100
AcDbArc
 50
270.0
 51
0.000000000000007
  0
LINE
  5
231
330
2
100
AcDbEntity
  8
GAIKEI
 62
     1
100
AcDbLine
 10
8.093232772714657
 20
-1.233991942934295
 30
0.0
 11
8.093232772714657
 21
31.22440295054261
 31
0.0
  0
LINE
  5
232
330
2
100
AcDbEntity
  8
GAIKEI
 62
     1
100
AcDbLine
 10
7.981933965215091
 20
-1.219449454341912
 30
0.0
 11
7.981933965215091
 21
31.20986046195023
 31
0.0
  0
ARC
  5
233
330
2
100
AcDbEntity
  8
GAIKEI
 62
     1
100
AcDbCircle
 10
7.993232772714634
 20
-1.233991942934295
 30
0.0
 40
0.1
100
AcDbArc
 50
269.9999999999998
 51
0.0000000000001851
  0
LINE
  5
234
330
2
100
AcDbEntity
  8
GAIKEI
 62
     1
100
AcDbLine
 10
7.993692309176879
 20
-1.337843814232115
 30
0.0
 11
9.020468802749689
 21
-2.053385354035839
 31
0.0
  0
LINE
  5
235
330
2
100
AcDbEntity
  8
GAIKEI
 62
     1
100
AcDbLine
 10
8.097895564285693
 20
-1.234046019259864
 30
0.0
 11
9.347103216697917
 21
-1.621168730484072
 31
0.0
  0
LINE
  5
236
330
2
100
AcDbEntity
  8
GAIKEI
 62
     1
100
AcDbLine
 10
8.097895564285693
 20
31.22445702686817
 30
0.0
 11
9.347103216697917
 21
31.61157973809244
 31
0.0
  0
LINE
  5
237
330
2
100
AcDbEntity
  8
GAIKEI
 62
     1
100
AcDbLine
 10
7.993692309176879
 20
31.32825482184043
 30
0.0
 11
9.020468802749689
 21
32.04379636164421
 31
0.0
  0
ARC
  5
238
330
2
100
AcDbEntity
  8
GAIKEI
 62
     1
100
AcDbCircle
 10
7.993232772714634
 20
31.22440295054261
 30
0.0
 40
0.1
100
AcDbArc
 50
359.9999999999998
 51
90.00000000000007
  0
ARC
  5
239
330
2
100
AcDbEntity
  8
GAIKEI
100
AcDbCircle
 10
8.947103216697939
 20
31.65058205521151
 30
0.0
 40
0.4
100
AcDbArc
 50
0.000000000000007
 51
89.99999999999998
  0
LINE
  5
23A
330
2
100
AcDbEntity
  8
GAIKEI
100
AcDbLine
 10
-50.66439978057741
 20
32.0505820552116
 30
0.0
 11
8.947103216697939
 21
32.0505820552116
 31
0.0
  0
ARC
  5
23B
330
2
100
AcDbEntity
  8
GAIKEI
100
AcDbCircle
 10
-50.66439978057741
 20
31.65058205521151
 30
0.0
 40
0.4
100
AcDbArc
 50
90.00000000000003
 51
180.0
  0
LINE
  5
23C
330
2
100
AcDbEntity
  8
GAIKEI
 62
     1
100
AcDbLine
 10
-49.71052933659422
 20
31.32440295054263
 30
0.0
 11
7.993232772714634
 21
31.32440295054263
 31
0.0
  0
LINE
  5
23D
330
2
100
AcDbEntity
  8
GAIKEI
 62
     1
100
AcDbLine
 10
-49.69923052909468
 20
31.20986046195023
 30
0.0
 11
7.981933965215091
 21
31.20986046195023
 31
0.0
  0
ARC
  5
23E
330
2
100
AcDbEntity
  8
GAIKEI
 62
     1
100
AcDbCircle
 10
-49.71052933659422
 20
31.22440295054261
 30
0.0
 40
0.1
100
AcDbArc
 50
89.99999999999991
 51
180.0000000000001
  0
LINE
  5
23F
330
2
100
AcDbEntity
  8
GAIKEI
 62
     1
100
AcDbLine
 10
-49.71098887305635
 20
31.32825482184043
 30
0.0
 11
-50.73776536662916
 21
32.04379636164421
 31
0.0
  0
LINE
  5
240
330
2
100
AcDbEntity
  8
GAIKEI
 62
     1
100
AcDbLine
 10
-49.81519212816516
 20
31.22445702686817
 30
0.0
 11
-51.0643997805775
 21
31.61157973809244
 31
0.0
  0
LINE
  5
241
330
2
100
AcDbEntity
  8
GAIKEI
 62
     1
100
AcDbLine
 10
-49.81519212816516
 20
-1.234046019259864
 30
0.0
 11
-51.0643997805775
 21
-1.621168730484072
 31
0.0
  0
LINE
  5
242
330
2
100
AcDbEntity
  8
GAIKEI
 62
     1
100
AcDbLine
 10
-49.71098887305635
 20
-1.337843814232115
 30
0.0
 11
-50.73776536662916
 21
-2.053385354035839
 31
0.0
  0
ARC
  5
243
330
2
100
AcDbEntity
  8
GAIKEI
 62
     1
100
AcDbCircle
 10
-49.71052933659422
 20
-1.233991942934295
 30
0.0
 40
0.1
100
AcDbArc
 50
179.9999999999998
 51
270.0000000000001
  0
LINE
  5
244
330
2
100
AcDbEntity
  8
GAIKEI
 62
     1
100
AcDbLine
 10
-49.69923052909468
 20
-1.219449454341912
 30
0.0
 11
-49.69923052909468
 21
31.20986046195023
 31
0.0
  0
LINE
  5
245
330
2
100
AcDbEntity
  8
GAIKEI
 62
     1
100
AcDbLine
 10
-49.69923052909468
 20
-1.219449454341912
 30
0.0
 11
7.981933965215091
 21
-1.219449454341912
 31
0.0
  0
LINE
  5
246
330
2
100
AcDbEntity
  8
GAIKEI
 62
     1
100
AcDbLine
 10
-49.81052933659412
 20
-1.233991942934295
 30
0.0
 11
-49.81052933659412
 21
31.22440295054261
 31
0.0
  0
LINE
  5
247
330
2
100
AcDbEntity
  8
GAIKEI
 62
     1
100
AcDbLine
 10
-49.71052933659422
 20
-1.333991942934318
 30
0.0
 11
7.993232772714634
 21
-1.333991942934318
 31
0.0
  0
ARC
  5
248
330
2
100
AcDbEntity
  8
GAIKEI
100
AcDbCircle
 10
-50.66439978057741
 20
-1.660171047603256
 30
0.0
 40
0.4
100
AcDbArc
 50
180.0
 51
270.0
  0
LINE
  5
249
330
2
100
AcDbEntity
  8
GAIKEI
100
AcDbLine
 10
-51.0643997805775
 20
-1.660171047603256
 30
0.0
 11
-51.0643997805775
 21
31.65058205521151
 31
0.0
  0
LINE
  5
24A
330
2
100
AcDbEntity
  8
GAIKEI
100
AcDbLine
 10
-50.66439978057741
 20
-2.060171047603233
 30
0.0
 11
8.947103216697939
 21
-2.060171047603233
 31
0.0
  0
LINE
  5
24B
330
2
100
AcDbEntity
  8
GAIKEI
 62
     1
100
AcDbLine
 10
-51.06319842865156
 20
-7.344330277976297
 30
0.0
 11
-51.06319842865144
 21
-5.241005819310629
 31
0.0
  0
LINE
  5
24C
330
2
100
AcDbEntity
  8
GAIKEI
 62
     1
100
AcDbLine
 10
-50.76265110238916
 20
-7.344330277976297
 30
0.0
 11
-50.76265110238916
 21
-5.241005819310629
 31
0.0
  0
LINE
  5
24D
330
2
100
AcDbEntity
  8
GAIKEI
 62
     1
100
AcDbLine
 10
-51.66429308117625
 20
-7.344330277976297
 30
0.0
 11
-51.66429308117614
 21
-5.241005819310629
 31
0.0
  0
LINE
  5
24E
330
2
100
AcDbEntity
  8
GAIKEI
 62
     1
100
AcDbLine
 10
-51.36374575491385
 20
-7.344330277976297
 30
0.0
 11
-51.36374575491385
 21
-5.241005819310629
 31
0.0
  0
LINE
  5
24F
330
2
100
AcDbEntity
  8
GAIKEI
 62
     1
100
AcDbLine
 10
-51.96484040743854
 20
-7.34433027797624
 30
0.0
 11
-51.96484040743854
 21
-5.241005819310572
 31
0.0
  0
LINE
  5
250
330
2
100
AcDbEntity
  8
GAIKEI
 62
     1
100
AcDbLine
 10
-52.26538773370094
 20
-7.34433027797624
 30
0.0
 11
-52.26538773370084
 21
-5.241005819310572
 31
0.0
  0
LINE
  5
251
330
2
100
AcDbEntity
  8
GAIKEI
 62
     1
100
AcDbLine
 10
-52.56593505996324
 20
-5.843114122176842
 30
0.0
 11
-50.46220514116106
 21
-5.843114122176842
 31
0.0
  0
LINE
  5
252
330
2
100
AcDbEntity
  8
GAIKEI
 62
     1
100
AcDbLine
 10
-52.56593505996324
 20
-5.542870891016974
 30
0.0
 11
-50.46220514116106
 21
-5.542870891016974
 31
0.0
  0
LINE
  5
253
330
2
100
AcDbEntity
  8
GAIKEI
 62
     1
100
AcDbLine
 10
-52.56593505996324
 20
-5.242627659857106
 30
0.0
 11
-50.46220514116106
 21
-5.242627659857106
 31
0.0
  0
LINE
  5
254
330
2
100
AcDbEntity
  8
GAIKEI
 62
     1
100
AcDbLine
 10
-52.56593505996324
 20
-6.443600584496635
 30
0.0
 11
-50.46220514116106
 21
-6.443600584496635
 31
0.0
  0
LINE
  5
255
330
2
100
AcDbEntity
  8
GAIKEI
 62
     1
100
AcDbLine
 10
-52.56593505996324
 20
-6.14335735333671
 30
0.0
 11
-50.46220514116106
 21
-6.14335735333671
 31
0.0
  0
LINE
  5
256
330
2
100
AcDbEntity
  8
GAIKEI
 62
     1
100
AcDbLine
 10
-52.56593505996324
 20
-6.743843815656504
 30
0.0
 11
-50.46220514116106
 21
-6.743843815656504
 31
0.0
  0
LINE
  5
257
330
2
100
AcDbEntity
  8
GAIKEI
 62
     1
100
AcDbLine
 10
-52.56593505996324
 20
-7.044087046816372
 30
0.0
 11
-50.46220514116106
 21
-7.044087046816372
 31
0.0
  0
LINE
  5
258
330
2
100
AcDbEntity
  8
GAIKEI
 62
     1
100
AcDbLine
 10
-50.46220514116106
 20
-7.34433027797624
 30
0.0
 11
-50.46220514116095
 21
-5.241005819310572
 31
0.0
  0
LINE
  5
259
330
2
100
AcDbEntity
  8
GAIKEI
 62
     1
100
AcDbLine
 10
-52.56593505996324
 20
-7.34433027797624
 30
0.0
 11
-52.56593505996324
 21
-5.241005819310572
 31
0.0
  0
LINE
  5
25A
330
2
100
AcDbEntity
  8
GAIKEI
 62
     1
100
AcDbLine
 10
-52.56593505996324
 20
-7.34433027797624
 30
0.0
 11
-50.46220514116106
 21
-7.34433027797624
 31
0.0
  0
LINE
  5
25B
330
2
100
AcDbEntity
  8
GAIKEI
 62
     1
100
AcDbLine
 10
-52.86627965615725
 20
35.53432996764522
 30
0.0
 11
-52.86627965615725
 21
35.11883707399155
 31
0.0
  0
ARC
  5
25C
330
2
100
AcDbEntity
  8
GAIKEI
 62
     1
100
AcDbCircle
 10
-52.85611600227406
 20
34.31890163900956
 30
0.0
 40
0.8
100
AcDbArc
 50
90.0000000000003
 51
180.0
  0
ARC
  5
25D
330
2
100
AcDbEntity
  8
GAIKEI
100
AcDbCircle
 10
-52.80864856257273
 20
34.33571465944496
 30
0.0
 40
1.2
100
AcDbArc
 50
90.0
 51
180.0
  0
LINE
  5
25E
330
2
100
AcDbEntity
  8
GAIKEI
 62
     1
100
AcDbLine
 10
-52.85611600227406
 20
35.11890163900952
 30
0.0
 11
11.14898309227766
 21
35.11890163900963
 31
0.0
  0
LINE
  5
25F
330
2
100
AcDbEntity
  8
GAIKEI
100
AcDbLine
 10
-52.80864856257273
 20
35.53571465944489
 30
0.0
 11
11.09135199869325
 21
35.53571465944489
 31
0.0
  0
LINE
  5
260
330
2
100
AcDbEntity
  8
GAIKEI
 62
     1
100
AcDbLine
 10
-53.45581869478855
 20
-4.387714961814339
 30
0.0
 11
11.73852213090907
 21
-4.387714961814339
 31
0.0
  0
LINE
  5
261
330
2
100
AcDbEntity
  8
GAIKEI
 62
     1
100
AcDbLine
 10
-53.45581869478855
 20
-4.08848538099599
 30
0.0
 11
-53.45581869478855
 21
-4.485601097054626
 31
0.0
  0
ARC
  5
262
330
2
100
AcDbEntity
  8
GAIKEI
 62
     1
100
AcDbCircle
 10
-53.45611600227408
 20
-3.888485380996002
 30
0.0
 40
0.2
100
AcDbArc
 50
180.0
 51
270.0
  0
LINE
  5
263
330
2
100
AcDbEntity
  8
GAIKEI
 62
     1
100
AcDbLine
 10
-53.45611600227408
 20
-4.08848538099599
 30
0.0
 11
11.7388194383945
 21
-4.08848538099599
 31
0.0
  0
ARC
  5
264
330
2
100
AcDbEntity
  8
GAIKEI
100
AcDbCircle
 10
-53.40864856257275
 20
-3.887458155420489
 30
0.0
 40
0.6000000000000001
100
AcDbArc
 50
180.0
 51
270.0
  0
LINE
  5
265
330
2
100
AcDbEntity
  8
GAIKEI
100
AcDbLine
 10
-53.40864856257275
 20
-4.487458155420455
 30
0.0
 11
11.69135199869316
 21
-4.487458155420455
 31
0.0
  0
LINE
  5
266
330
2
100
AcDbEntity
  8
GAIKEI
 62
     1
100
AcDbLine
 10
-53.65611600227402
 20
-3.888485380996002
 30
0.0
 11
-53.65611600227402
 21
34.31890163900956
 31
0.0
  0
ARC
  5
267
330
2
100
AcDbEntity
  8
GAIKEI
 62
     1
100
AcDbCircle
 10
-52.71562406493848
 20
-7.195701987440571
 30
0.0
 40
0.8
100
AcDbArc
 50
180.0
 51
270.0
  0
LINE
  5
268
330
2
100
AcDbEntity
  8
GAIKEI
 62
     1
100
AcDbLine
 10
-53.51562406493854
 20
-7.195701987440571
 30
0.0
 11
-53.51562406493854
 21
-4.477844674485396
 31
0.0
  0
LINE
  5
269
330
2
100
AcDbEntity
  8
GAIKEI
 62
     1
100
AcDbLine
 10
-52.71562406493848
 20
-7.995701987440583
 30
0.0
 11
10.998327501059
 21
-7.995701987440583
 31
0.0
  0
ARC
  5
26A
330
2
100
AcDbEntity
  8
GAIKEI
100
AcDbCircle
 10
-52.97406962299788
 20
-7.471191899721503
 30
0.0
 40
0.65
100
AcDbArc
 50
180.0
 51
270.0
  0
LINE
  5
26B
330
2
100
AcDbEntity
  8
GAIKEI
100
AcDbLine
 10
-53.62406962299798
 20
-7.471191899721503
 30
0.0
 11
-53.62406962299798
 21
-4.447452589968946
 31
0.0
  0
LINE
  5
26C
330
2
100
AcDbEntity
  8
GAIKEI
100
AcDbLine
 10
-52.97406962299788
 20
-8.12119189972148
 30
0.0
 11
11.25677305911841
 21
-8.12119189972148
 31
0.0
  0
ARC
  5
26D
330
2
100
AcDbEntity
  8
GAIKEI
100
AcDbCircle
 10
-52.80864856257273
 20
-7.50120262514244
 30
0.0
 40
1.2
100
AcDbArc
 50
180.0
 51
270.0
  0
LINE
  5
26E
330
2
100
AcDbEntity
  8
GAIKEI
100
AcDbLine
 10
-52.80864856257273
 20
-8.701202625142428
 30
0.0
 11
-43.39959638658132
 21
-8.701202625142428
 31
0.0
  0
LINE
  5
26F
330
2
100
AcDbEntity
  8
GAIKEI
100
AcDbLine
 10
32.59714800415526
 20
-4.088485380996218
 30
0.0
 11
32.59714800415526
 21
35.11890163898871
 31
0.0
  0
LINE
  5
270
330
2
100
AcDbEntity
  8
GAIKEI
100
AcDbLine
 10
-43.39959638658132
 20
-10.07429337777304
 30
0.0
 11
1.68229982270185
 21
-10.0742933777731
 31
0.0
  0
LINE
  5
271
330
2
100
AcDbEntity
  8
GAIKEI
100
AcDbLine
 10
-54.00864856257277
 20
34.33571465944496
 30
0.0
 11
-54.00864856257277
 21
-7.50120262514244
 31
0.0
  0
LINE
  5
272
330
2
100
AcDbEntity
  8
GAIKEI
 62
     1
100
AcDbLine
 10
37.40436277104658
 20
35.43536327563387
 30
0.0
 11
37.40436277104658
 21
-8.600648511263074
 31
0.0
  0
ENDSEC
  0
SECTION
  2
OBJECTS
  0
DICTIONARY
  5
9
330
0
100
AcDbDictionary
281
     1
  3
ACAD_COLOR
350
32
  3
ACAD_GROUP
350
2E
  3
ACAD_LAYOUT
350
D
  3
ACAD_MATERIAL
350
31
  3
ACAD_MLINESTYLE
350
2F
  3
ACAD_PLOTSETTINGS
350
30
  3
ACAD_PLOTSTYLENAME
350
8
  3
AcDbVariableDictionary
350
286
  3
ASE_INDEX_DICTIONARY
350
27B
  0
DICTIONARY
  5
15
330
14
100
AcDbDictionary
280
     1
281
     1
  3
ACAD_LAYERFILTERS
360
16
  3
ACAD_LAYERSTATES
360
18
  0
DICTIONARY
  5
3
330
2
100
AcDbDictionary
280
     1
281
     1
  0
DICTIONARY
  5
F
330
E
100
AcDbDictionary
280
     1
281
     1
  0
DICTIONARY
  5
32
102
{ACAD_REACTORS
330
9
102
}
330
9
100
AcDbDictionary
281
     1
  0
DICTIONARY
  5
2E
102
{ACAD_REACTORS
330
9
102
}
330
9
100
AcDbDictionary
281
     1
  0
DICTIONARY
  5
D
102
{ACAD_REACTORS
330
9
102
}
330
9
100
AcDbDictionary
281
     1
  3
Model
350
C
  3
ﾚｲｱｳﾄ1
350
13
  0
DICTIONARY
  5
31
102
{ACAD_REACTORS
330
9
102
}
330
9
100
AcDbDictionary
281
     1
  0
DICTIONARY
  5
2F
102
{ACAD_REACTORS
330
9
102
}
330
9
100
AcDbDictionary
281
     1
  3
STANDARD
350
34
  0
DICTIONARY
  5
30
102
{ACAD_REACTORS
330
9
102
}
330
9
100
AcDbDictionary
281
     1
  0
ACDBDICTIONARYWDFLT
  5
8
102
{ACAD_REACTORS
330
9
102
}
330
9
100
AcDbDictionary
281
     1
  3
Normal
350
7
100
AcDbDictionaryWithDefault
340
7
  0
DICTIONARY
  5
286
102
{ACAD_REACTORS
330
9
102
}
330
9
100
AcDbDictionary
281
     1
  3
DIMASSOC
350
288
  3
HIDETEXT
350
287
  3
PROJECTNAME
350
289
  0
DICTIONARY
  5
27B
102
{ACAD_REACTORS
330
9
102
}
330
9
100
AcDbDictionary
281
     1
  3
ASEBlockHierarchyIndexRecord
350
27D
1001
DCO15
1040
1573461670.312
  0
DICTIONARY
  5
16
102
{ACAD_REACTORS
330
15
102
}
330
15
100
AcDbDictionary
280
     1
281
     1
  3
ロック画層
360
17
  0
DICTIONARY
  5
18
102
{ACAD_REACTORS
330
15
102
}
330
15
100
AcDbDictionary
281
     1
  0
LAYOUT
  5
C
102
{ACAD_XDICTIONARY
360
282
102
}
102
{ACAD_REACTORS
330
D
102
}
330
D
100
AcDbPlotSettings
  1

  2
\\URANUS\8FPAM09
  4
A4
  6

 40
4.180416584014892
 41
4.349743366241455
 42
4.222747802734375
 43
4.349761962890625
 44
210.0156707763671
 45
297.0106506347656
 46
6.099999999999999
 47
0.0
 48
0.0
 49
0.0
140
0.0
141
0.0
142
1.0
143
1.367646292461481
 70
 11956
 72
     1
 73
     0
 74
     1
  7
tmsacad.ctb
 75
     0
147
0.7311832054179783
148
0.5194275913872844
149
0.032829241710715
100
AcDbLayout
  1
Model
 70
     1
 71
     0
 10
0.0
 20
0.0
 11
12.0
 21
9.0
 12
0.0
 22
0.0
 32
0.0
 14
0.0
 24
0.0
 34
0.0
 15
0.0
 25
0.0
 35
0.0
146
0.0
 13
0.0
 23
0.0
 33
0.0
 16
1.0
 26
0.0
 36
0.0
 17
0.0
 27
1.0
 37
0.0
 76
     0
330
2
  0
LAYOUT
  5
13
102
{ACAD_XDICTIONARY
360
284
102
}
102
{ACAD_REACTORS
330
D
102
}
330
D
100
AcDbPlotSettings
  1

  2
C:\Documents and Settings\10773\Application Data\Autodesk\AutoCAD 2004\R16.0\jpn\plotters\8FPAM09.pc3
  4
A3
  6

 40
4.349750041961669
 41
3.545409202575683
 42
4.3497314453125
 43
3.503082275390625
 44
297.0106506347656
 45
419.9889831542968
 46
0.0
 47
0.0
 48
0.0
 49
0.0
140
0.0
141
0.0
142
1.0
143
1.0
 70
   688
 72
     0
 73
     1
 74
     5
  7
tmsacad.ctb
 75
    16
147
1.0
148
0.0
149
0.0
100
AcDbLayout
  1
ﾚｲｱｳﾄ1
 70
     1
 71
     1
 10
-0.1379166250153789
 20
-0.1712500016520342
 11
16.39708271176796
 21
11.52208270050409
 12
0.0
 22
0.0
 32
0.0
 14
1.000000000000000E+20
 24
1.000000000000000E+20
 34
1.000000000000000E+20
 15
-1.000000000000000E+20
 25
-1.000000000000000E+20
 35
-1.000000000000000E+20
146
0.0
 13
0.0
 23
0.0
 33
0.0
 16
1.0
 26
0.0
 36
0.0
 17
0.0
 27
1.0
 37
0.0
 76
     0
330
E
  0
MLINESTYLE
  5
34
102
{ACAD_REACTORS
330
2F
102
}
330
2F
100
AcDbMlineStyle
  2
STANDARD
 70
     0
  3

 62
   256
 51
90.0
 52
90.0
 71
     2
 49
0.5
 62
   256
  6
BYLAYER
 49
-0.5
 62
   256
  6
BYLAYER
  0
ACDBPLACEHOLDER
  5
7
102
{ACAD_REACTORS
330
8
102
}
330
8
  0
DICTIONARYVAR
  5
288
102
{ACAD_REACTORS
330
286
102
}
330
286
100
DictionaryVariables
280
     0
  1
1
  0
DICTIONARYVAR
  5
287
102
{ACAD_REACTORS
330
286
102
}
330
286
100
DictionaryVariables
280
     0
  1
1
  0
DICTIONARYVAR
  5
289
102
{ACAD_REACTORS
330
286
102
}
330
286
100
DictionaryVariables
280
     0
  1

  0
XRECORD
  5
27D
102
{ACAD_REACTORS
330
27B
102
}
330
27B
100
AcDbXrecord
280
     1
330
67
330
68
330
5A
330
5B
330
4D
330
4E
330
3F
330
40
  0
XRECORD
  5
17
102
{ACAD_REACTORS
330
16
102
}
330
16
100
AcDbXrecord
280
     1
  1
ロック画層
  1
*
  1
*
  1
*
 70
   256
  1
*
  1
*
  0
DICTIONARY
  5
282
330
C
100
AcDbDictionary
280
     1
281
     1
  3
ACAD_XREC_ROUNDTRIP
360
283
  0
DICTIONARY
  5
284
330
13
100
AcDbDictionary
280
     1
281
     1
  3
ACAD_XREC_ROUNDTRIP
360
285
  0
XRECORD
  5
283
102
{ACAD_REACTORS
330
282
102
}
330
282
100
AcDbXrecord
280
     1
102
SHADEPLOT
 70
     0
102
SHADEPLOTRESLEVEL
 70
     2
102
SHADEPLOTCUSTOMDPI
 70
   300
  0
XRECORD
  5
285
102
{ACAD_REACTORS
330
284
102
}
330
284
100
AcDbXrecord
280
     1
102
SHADEPLOT
 70
     0
102
SHADEPLOTRESLEVEL
 70
     2
102
SHADEPLOTCUSTOMDPI
 70
   300
  0
ENDSEC
  0
EOF
