  0
SECTION
  2
HEADER
  9
$ACADVER
  1
AC1015
  9
$ACADMAINTVER
 70
    20
  9
$DWGCODEPAGE
  3
ANSI_932
  9
$INSBASE
 10
0.0
 20
372.4992141396417
 30
0.0
  9
$EXTMIN
 10
-63.34722231225533
 20
-52.84269239167134
 30
-0.0015258207003583
  9
$EXTMAX
 10
61.73328665770942
 20
60.16790913656951
 30
0.0000000349246037
  9
$LIMMIN
 10
-1101.784450318844
 20
-1579.160531687244
  9
$LIMMAX
 10
-508.2420711400536
 20
-1161.440814074914
  9
$ORTHOMODE
 70
     1
  9
$REGENMODE
 70
     1
  9
$FILLMODE
 70
     1
  9
$QTEXTMODE
 70
     0
  9
$MIRRTEXT
 70
     1
  9
$LTSCALE
 40
1.0
  9
$ATTMODE
 70
     1
  9
$TEXTSIZE
 40
3.0
  9
$TRACEWID
 40
0.5
  9
$TEXTSTYLE
  7
STANDARD
  9
$CLAYER
  8
GAIKEI
  9
$CELTYPE
  6
BYLAYER
  9
$CECOLOR
 62
   256
  9
$CELTSCALE
 40
1.0
  9
$DISPSILH
 70
     0
  9
$DIMSCALE
 40
1.0
  9
$DIMASZ
 40
2.0
  9
$DIMEXO
 40
2.0
  9
$DIMDLI
 40
8.0
  9
$DIMRND
 40
0.0
  9
$DIMDLE
 40
0.0
  9
$DIMEXE
 40
2.0
  9
$DIMTP
 40
0.0
  9
$DIMTM
 40
0.0
  9
$DIMTXT
 40
2.5
  9
$DIMCEN
 40
0.0
  9
$DIMTSZ
 40
0.0
  9
$DIMTOL
 70
     0
  9
$DIMLIM
 70
     0
  9
$DIMTIH
 70
     0
  9
$DIMTOH
 70
     0
  9
$DIMSE1
 70
     0
  9
$DIMSE2
 70
     0
  9
$DIMTAD
 70
     3
  9
$DIMZIN
 70
     0
  9
$DIMBLK
  1

  9
$DIMASO
 70
     1
  9
$DIMSHO
 70
     1
  9
$DIMPOST
  1

  9
$DIMAPOST
  1

  9
$DIMALT
 70
     0
  9
$DIMALTD
 70
     2
  9
$DIMALTF
 40
25.4
  9
$DIMLFAC
 40
1.0
  9
$DIMTOFL
 70
     1
  9
$DIMTVP
 40
0.0
  9
$DIMTIX
 70
     0
  9
$DIMSOXD
 70
     0
  9
$DIMSAH
 70
     1
  9
$DIMBLK1
  1
OPEN30
  9
$DIMBLK2
  1
OPEN30
  9
$DIMSTYLE
  2
STANDARD
  9
$DIMCLRD
 70
     0
  9
$DIMCLRE
 70
     0
  9
$DIMCLRT
 70
     0
  9
$DIMTFAC
 40
1.0
  9
$DIMGAP
 40
0.5
  9
$DIMJUST
 70
     0
  9
$DIMSD1
 70
     0
  9
$DIMSD2
 70
     0
  9
$DIMTOLJ
 70
     1
  9
$DIMTZIN
 70
     0
  9
$DIMALTZ
 70
     0
  9
$DIMALTTZ
 70
     0
  9
$DIMUPT
 70
     0
  9
$DIMDEC
 70
     4
  9
$DIMTDEC
 70
     4
  9
$DIMALTU
 70
     2
  9
$DIMALTTD
 70
     2
  9
$DIMTXSTY
  7
STANDARD
  9
$DIMAUNIT
 70
     0
  9
$DIMADEC
 70
     0
  9
$DIMALTRND
 40
0.0
  9
$DIMAZIN
 70
     0
  9
$DIMDSEP
 70
    46
  9
$DIMATFIT
 70
     3
  9
$DIMFRAC
 70
     0
  9
$DIMLDRBLK
  1
OPEN30
  9
$DIMLUNIT
 70
     2
  9
$DIMLWD
 70
    -2
  9
$DIMLWE
 70
    -2
  9
$DIMTMOVE
 70
     0
  9
$LUNITS
 70
     2
  9
$LUPREC
 70
     4
  9
$SKETCHINC
 40
0.1
  9
$FILLETRAD
 40
0.0
  9
$AUNITS
 70
     0
  9
$AUPREC
 70
     0
  9
$MENU
  1
ACAD
  9
$ELEVATION
 40
0.0
  9
$PELEVATION
 40
0.0
  9
$THICKNESS
 40
0.0
  9
$LIMCHECK
 70
     0
  9
$CHAMFERA
 40
0.0
  9
$CHAMFERB
 40
0.0
  9
$CHAMFERC
 40
0.0
  9
$CHAMFERD
 40
0.0
  9
$SKPOLY
 70
     0
  9
$TDCREATE
 40
2451815.565532581
  9
$TDUCREATE
 40
2451815.190532581
  9
$TDUPDATE
 40
2455995.579942964
  9
$TDUUPDATE
 40
2455995.204942963
  9
$TDINDWG
 40
0.7293665394
  9
$TDUSRTIMER
 40
0.7293665394
  9
$USRTIMER
 70
     1
  9
$ANGBASE
 50
0.0
  9
$ANGDIR
 70
     0
  9
$PDMODE
 70
     0
  9
$PDSIZE
 40
0.0
  9
$PLINEWID
 40
0.0
  9
$SPLFRAME
 70
     0
  9
$SPLINETYPE
 70
     6
  9
$SPLINESEGS
 70
     8
  9
$HANDSEED
  5
50F
  9
$SURFTAB1
 70
     6
  9
$SURFTAB2
 70
     6
  9
$SURFTYPE
 70
     6
  9
$SURFU
 70
     6
  9
$SURFV
 70
     6
  9
$UCSBASE
  2

  9
$UCSNAME
  2

  9
$UCSORG
 10
0.0
 20
0.0
 30
0.0
  9
$UCSXDIR
 10
1.0
 20
0.0
 30
0.0
  9
$UCSYDIR
 10
0.0
 20
1.0
 30
0.0
  9
$UCSORTHOREF
  2

  9
$UCSORTHOVIEW
 70
     0
  9
$UCSORGTOP
 10
0.0
 20
0.0
 30
0.0
  9
$UCSORGBOTTOM
 10
0.0
 20
0.0
 30
0.0
  9
$UCSORGLEFT
 10
0.0
 20
0.0
 30
0.0
  9
$UCSORGRIGHT
 10
0.0
 20
0.0
 30
0.0
  9
$UCSORGFRONT
 10
0.0
 20
0.0
 30
0.0
  9
$UCSORGBACK
 10
0.0
 20
0.0
 30
0.0
  9
$PUCSBASE
  2

  9
$PUCSNAME
  2

  9
$PUCSORG
 10
0.0
 20
0.0
 30
0.0
  9
$PUCSXDIR
 10
1.0
 20
0.0
 30
0.0
  9
$PUCSYDIR
 10
0.0
 20
1.0
 30
0.0
  9
$PUCSORTHOREF
  2

  9
$PUCSORTHOVIEW
 70
     0
  9
$PUCSORGTOP
 10
0.0
 20
0.0
 30
0.0
  9
$PUCSORGBOTTOM
 10
0.0
 20
0.0
 30
0.0
  9
$PUCSORGLEFT
 10
0.0
 20
0.0
 30
0.0
  9
$PUCSORGRIGHT
 10
0.0
 20
0.0
 30
0.0
  9
$PUCSORGFRONT
 10
0.0
 20
0.0
 30
0.0
  9
$PUCSORGBACK
 10
0.0
 20
0.0
 30
0.0
  9
$USERI1
 70
     0
  9
$USERI2
 70
     0
  9
$USERI3
 70
     0
  9
$USERI4
 70
     0
  9
$USERI5
 70
     0
  9
$USERR1
 40
0.0
  9
$USERR2
 40
0.0
  9
$USERR3
 40
0.0
  9
$USERR4
 40
0.0
  9
$USERR5
 40
0.0
  9
$WORLDVIEW
 70
     1
  9
$SHADEDGE
 70
     3
  9
$SHADEDIF
 70
    70
  9
$TILEMODE
 70
     1
  9
$MAXACTVP
 70
    48
  9
$PINSBASE
 10
0.0
 20
0.0
 30
0.0
  9
$PLIMCHECK
 70
     0
  9
$PEXTMIN
 10
1.000000000000000E+20
 20
1.000000000000000E+20
 30
1.000000000000000E+20
  9
$PEXTMAX
 10
-1.000000000000000E+20
 20
-1.000000000000000E+20
 30
-1.000000000000000E+20
  9
$PLIMMIN
 10
0.0
 20
0.0
  9
$PLIMMAX
 10
12.0
 20
9.0
  9
$UNITMODE
 70
     0
  9
$VISRETAIN
 70
     1
  9
$PLINEGEN
 70
     0
  9
$PSLTSCALE
 70
     1
  9
$TREEDEPTH
 70
  3020
  9
$CMLSTYLE
  2
STANDARD
  9
$CMLJUST
 70
     0
  9
$CMLSCALE
 40
1.0
  9
$PROXYGRAPHICS
 70
     1
  9
$MEASUREMENT
 70
     0
  9
$CELWEIGHT
370
    -1
  9
$ENDCAPS
280
     0
  9
$JOINSTYLE
280
     0
  9
$LWDISPLAY
290
     0
  9
$INSUNITS
 70
     0
  9
$HYPERLINKBASE
  1

  9
$STYLESHEET
  1

  9
$XEDIT
290
     1
  9
$CEPSNTYPE
380
     0
  9
$PSTYLEMODE
290
     1
  9
$FINGERPRINTGUID
  2
{1754B7AB-9B3C-11D4-AD9E-00104B1004F2}
  9
$VERSIONGUID
  2
{5426F093-1109-476D-81A9-DFD044279041}
  9
$EXTNAMES
290
     1
  9
$PSVPSCALE
 40
0.0
  9
$OLESTARTUP
290
     0
  0
ENDSEC
  0
SECTION
  2
CLASSES
  0
CLASS
  1
ACDBDICTIONARYWDFLT
  2
AcDbDictionaryWithDefault
  3
ObjectDBX Classes
 90
        0
280
     0
281
     0
  0
CLASS
  1
ACDBPLACEHOLDER
  2
AcDbPlaceHolder
  3
ObjectDBX Classes
 90
        0
280
     0
281
     0
  0
CLASS
  1
LAYOUT
  2
AcDbLayout
  3
ObjectDBX Classes
 90
        0
280
     0
281
     0
  0
CLASS
  1
DICTIONARYVAR
  2
AcDbDictionaryVar
  3
ObjectDBX Classes
 90
        0
280
     0
281
     0
  0
ENDSEC
  0
SECTION
  2
TABLES
  0
TABLE
  2
VPORT
  5
21
330
0
100
AcDbSymbolTable
 70
     3
  0
VPORT
  5
507
330
21
100
AcDbSymbolTableRecord
100
AcDbViewportTableRecord
  2
*Active
 70
     0
 10
0.0
 20
0.0
 11
1.0
 21
1.0
 12
-0.806967827272949
 22
3.662608372449085
 13
0.0
 23
0.0
 14
1.0
 24
1.0
 15
0.0
 25
0.0
 16
0.0
 26
0.0
 36
1.0
 17
0.0
 27
0.0
 37
0.0
 40
113.8603052991298
 41
2.166875784190715
 42
50.0
 43
0.0
 44
0.0
 50
0.0
 51
0.0
 71
     0
 72
   100
 73
     1
 74
     0
 75
     0
 76
     1
 77
     0
 78
     0
281
     0
 65
     1
110
0.0
120
0.0
130
0.0
111
1.0
121
0.0
131
0.0
112
0.0
122
1.0
132
0.0
 79
     0
146
0.0
  0
ENDTAB
  0
TABLE
  2
LTYPE
  5
1C
330
0
100
AcDbSymbolTable
 70
     2
  0
LTYPE
  5
1D
330
1C
100
AcDbSymbolTableRecord
100
AcDbLinetypeTableRecord
  2
BYBLOCK
 70
     0
  3

 72
    65
 73
     0
 40
0.0
  0
LTYPE
  5
1E
330
1C
100
AcDbSymbolTableRecord
100
AcDbLinetypeTableRecord
  2
BYLAYER
 70
     0
  3

 72
    65
 73
     0
 40
0.0
  0
LTYPE
  5
A
330
1C
100
AcDbSymbolTableRecord
100
AcDbLinetypeTableRecord
  2
CONTINUOUS
 70
     0
  3
Solid line
 72
    65
 73
     0
 40
0.0
  0
LTYPE
  5
30D
330
1C
100
AcDbSymbolTableRecord
100
AcDbLinetypeTableRecord
  2
DASHDOT
 70
     0
  3
 __ . __ . __ . __ . __ . __ . __ . 
 72
    65
 73
     4
 40
18.5
 49
12.0
 74
     0
 49
-3.0
 74
     0
 49
0.5
 74
     0
 49
-3.0
 74
     0
  0
ENDTAB
  0
TABLE
  2
LAYER
  5
14
102
{ACAD_XDICTIONARY
360
15
102
}
330
0
100
AcDbSymbolTable
 70
     7
  0
LAYER
  5
6
330
14
100
AcDbSymbolTableRecord
100
AcDbLayerTableRecord
  2
0
 70
     0
 62
     7
  6
CONTINUOUS
370
    -3
390
7
  0
LAYER
  5
46
330
14
100
AcDbSymbolTableRecord
100
AcDbLayerTableRecord
  2
DEFPOINTS
 70
     0
 62
     7
  6
CONTINUOUS
290
     0
370
    -3
390
7
  0
LAYER
  5
2FF
330
14
100
AcDbSymbolTableRecord
100
AcDbLayerTableRecord
  2
WAKU
 70
     0
 62
     4
  6
CONTINUOUS
370
    -3
390
7
  0
LAYER
  5
36
330
14
100
AcDbSymbolTableRecord
100
AcDbLayerTableRecord
  2
MOJI1
 70
     0
 62
     2
  6
CONTINUOUS
370
    -3
390
7
  0
LAYER
  5
33
330
14
100
AcDbSymbolTableRecord
100
AcDbLayerTableRecord
  2
GAIKEI
 70
     0
 62
     7
  6
CONTINUOUS
370
    -3
390
7
  0
LAYER
  5
3C
330
14
100
AcDbSymbolTableRecord
100
AcDbLayerTableRecord
  2
SUNPO
 70
     0
 62
     3
  6
CONTINUOUS
370
    -3
390
7
  0
LAYER
  5
38
330
14
100
AcDbSymbolTableRecord
100
AcDbLayerTableRecord
  2
TOUROKU
 70
     0
 62
     1
  6
CONTINUOUS
370
    -3
390
7
  0
ENDTAB
  0
TABLE
  2
STYLE
  5
19
330
0
100
AcDbSymbolTable
 70
     1
  0
STYLE
  5
1A
330
19
100
AcDbSymbolTableRecord
100
AcDbTextStyleTableRecord
  2
STANDARD
 70
     0
 40
0.0
 41
1.0
 50
0.0
 71
     0
 42
3.0
  3
MONOTXT.shx
  4
BIGFONT.shx
  0
ENDTAB
  0
TABLE
  2
VIEW
  5
1F
330
0
100
AcDbSymbolTable
 70
     0
  0
ENDTAB
  0
TABLE
  2
UCS
  5
20
330
0
100
AcDbSymbolTable
 70
     0
  0
ENDTAB
  0
TABLE
  2
APPID
  5
23
330
0
100
AcDbSymbolTable
 70
     1
  0
APPID
  5
24
330
23
100
AcDbSymbolTableRecord
100
AcDbRegAppTableRecord
  2
ACAD
 70
     0
  0
ENDTAB
  0
TABLE
  2
DIMSTYLE
  5
25
330
0
100
AcDbSymbolTable
 70
     1
100
AcDbDimStyleTable
 71
     1
340
26
  0
DIMSTYLE
105
26
102
{ACAD_REACTORS
330
57
330
4A
330
3B
102
}
330
25
100
AcDbSymbolTableRecord
100
AcDbDimStyleTableRecord
  2
STANDARD
 70
     0
 40
0.0
 41
2.0
 42
2.0
 43
8.0
 44
2.0
 73
     0
 74
     0
 77
     3
140
3.0
141
0.0
173
     1
279
     2
288
     1
340
1A
341
27
343
27
344
27
  0
ENDTAB
  0
TABLE
  2
BLOCK_RECORD
  5
1
330
0
100
AcDbSymbolTable
 70
     7
  0
BLOCK_RECORD
  5
2
102
{ACAD_XDICTIONARY
360
3
102
}
330
1
100
AcDbSymbolTableRecord
100
AcDbBlockTableRecord
  2
*MODEL_SPACE
340
C
  0
BLOCK_RECORD
  5
E
102
{ACAD_XDICTIONARY
360
F
102
}
330
1
100
AcDbSymbolTableRecord
100
AcDbBlockTableRecord
  2
*PAPER_SPACE
340
13
  0
BLOCK_RECORD
  5
27
330
1
100
AcDbSymbolTableRecord
100
AcDbBlockTableRecord
  2
_OPEN30
340
0
102
{BLKREFS
331
5D
331
5E
331
42
331
43
331
50
331
51
331
4E3
331
4E4
331
4EF
331
4F0
331
4FB
331
4FC
102
}
  0
BLOCK_RECORD
  5
58
330
1
100
AcDbSymbolTableRecord
100
AcDbBlockTableRecord
  2
*D1
340
0
  0
BLOCK_RECORD
  5
4B
330
1
100
AcDbSymbolTableRecord
100
AcDbBlockTableRecord
  2
*D2
340
0
  0
BLOCK_RECORD
  5
3D
330
1
100
AcDbSymbolTableRecord
100
AcDbBlockTableRecord
  2
*D3
340
0
  0
BLOCK_RECORD
  5
4DF
330
1
100
AcDbSymbolTableRecord
100
AcDbBlockTableRecord
  2
*D4
340
0
  0
BLOCK_RECORD
  5
4EB
330
1
100
AcDbSymbolTableRecord
100
AcDbBlockTableRecord
  2
*D5
340
0
  0
BLOCK_RECORD
  5
4F7
330
1
100
AcDbSymbolTableRecord
100
AcDbBlockTableRecord
  2
*D6
340
0
  0
ENDTAB
  0
ENDSEC
  0
SECTION
  2
BLOCKS
  0
BLOCK
  5
5
330
2
100
AcDbEntity
  8
0
100
AcDbBlockBegin
  2
*MODEL_SPACE
 70
     0
 10
0.0
 20
0.0
 30
0.0
  3
*MODEL_SPACE
  1

  0
ENDBLK
  5
B
330
2
100
AcDbEntity
  8
0
100
AcDbBlockEnd
  0
BLOCK
  5
11
330
E
100
AcDbEntity
 67
     1
  8
0
100
AcDbBlockBegin
  2
*PAPER_SPACE
 70
     0
 10
0.0
 20
0.0
 30
0.0
  3
*PAPER_SPACE
  1

  0
ENDBLK
  5
12
330
E
100
AcDbEntity
 67
     1
  8
0
100
AcDbBlockEnd
  0
BLOCK
  5
28
330
27
100
AcDbEntity
  8
0
100
AcDbBlockBegin
  2
_OPEN30
 70
     0
 10
0.0
 20
0.0
 30
0.0
  3
_OPEN30
  1

  0
LINE
  5
29
330
27
100
AcDbEntity
  8
0
  6
ByBlock
 62
     0
100
AcDbLine
 10
-1.0
 20
0.26794919
 30
0.0
 11
0.0
 21
0.0
 31
0.0
  0
LINE
  5
2A
330
27
100
AcDbEntity
  8
0
  6
ByBlock
 62
     0
100
AcDbLine
 10
0.0
 20
0.0
 30
0.0
 11
-1.0
 21
-0.26794919
 31
0.0
  0
LINE
  5
2B
330
27
100
AcDbEntity
  8
0
  6
ByBlock
 62
     0
100
AcDbLine
 10
0.0
 20
0.0
 30
0.0
 11
-1.0
 21
0.0
 31
0.0
  0
ENDBLK
  5
2C
330
27
100
AcDbEntity
  8
0
100
AcDbBlockEnd
  0
BLOCK
  5
59
330
58
100
AcDbEntity
  8
0
100
AcDbBlockBegin
  2
*D1
 70
     1
 10
0.0
 20
0.0
 30
0.0
  3
*D1
  1

  0
LINE
  5
5A
330
58
100
AcDbEntity
  8
SUNPO
 62
     0
370
    -2
100
AcDbLine
 10
41.42524687662304
 20
336.7388641971436
 30
0.0
 11
41.42524687662304
 21
344.7388641971436
 31
0.0
  0
LINE
  5
5B
330
58
100
AcDbEntity
  8
SUNPO
 62
     0
370
    -2
100
AcDbLine
 10
55.82525392748812
 20
336.7388641971436
 30
0.0
 11
55.82525392748812
 21
344.7388641971436
 31
0.0
  0
LINE
  5
5C
330
58
100
AcDbEntity
  8
SUNPO
 62
     0
370
    -2
100
AcDbLine
 10
43.42524687662304
 20
342.7388641971436
 30
0.0
 11
53.82525392748812
 21
342.7388641971436
 31
0.0
  0
INSERT
  5
5D
330
58
100
AcDbEntity
  8
SUNPO
 62
     0
370
    -2
100
AcDbBlockReference
  2
_OPEN30
 10
41.42524687662304
 20
342.7388641971436
 30
0.0
 41
2.0
 42
2.0
 43
2.0
 50
180.0
  0
INSERT
  5
5E
330
58
100
AcDbEntity
  8
SUNPO
 62
     0
370
    -2
100
AcDbBlockReference
  2
_OPEN30
 10
55.82525392748812
 20
342.7388641971436
 30
0.0
 41
2.0
 42
2.0
 43
2.0
  0
MTEXT
  5
5F
330
58
100
AcDbEntity
  8
SUNPO
 62
     0
100
AcDbMText
 10
48.62525040205558
 20
344.4888641971436
 30
0.0
 40
2.5
 41
0.0
 71
     5
 72
     1
  1
\A1;72
 73
     1
 44
1.0
1001
ACAD
1000
MTEXTBEGIN
1070
    73
1070
     1
1070
    44
1040
1.0
1070
    74
1070
     0
1000
MTEXTEND
  0
POINT
  5
60
330
58
100
AcDbEntity
  8
DEFPOINTS
 62
     0
100
AcDbPoint
 10
41.42524687662304
 20
334.7388641971436
 30
0.0
  0
POINT
  5
61
330
58
100
AcDbEntity
  8
DEFPOINTS
 62
     0
100
AcDbPoint
 10
55.82525392748812
 20
334.7388641971436
 30
0.0
  0
POINT
  5
62
330
58
100
AcDbEntity
  8
DEFPOINTS
 62
     0
100
AcDbPoint
 10
55.82525392748812
 20
342.7388641971436
 30
0.0
  0
ENDBLK
  5
63
330
58
100
AcDbEntity
  8
0
100
AcDbBlockEnd
  0
BLOCK
  5
4C
330
4B
100
AcDbEntity
  8
0
100
AcDbBlockBegin
  2
*D2
 70
     1
 10
0.0
 20
0.0
 30
0.0
  3
*D2
  1

  0
LINE
  5
4D
330
4B
100
AcDbEntity
  8
SUNPO
 62
     0
370
    -2
100
AcDbLine
 10
57.82146119759395
 20
338.5861221815117
 30
0.0
 11
65.82146119759395
 21
338.5861221815117
 31
0.0
  0
LINE
  5
4E
330
4B
100
AcDbEntity
  8
SUNPO
 62
     0
370
    -2
100
AcDbLine
 10
57.82146119759395
 20
325.1511215768468
 30
0.0
 11
65.82146119759395
 21
325.1511215768468
 31
0.0
  0
LINE
  5
4F
330
4B
100
AcDbEntity
  8
SUNPO
 62
     0
370
    -2
100
AcDbLine
 10
63.82146119759395
 20
336.5861221815117
 30
0.0
 11
63.82146119759394
 21
327.1511215768468
 31
0.0
  0
INSERT
  5
50
330
4B
100
AcDbEntity
  8
SUNPO
 62
     0
370
    -2
100
AcDbBlockReference
  2
_OPEN30
 10
63.82146119759395
 20
338.5861221815117
 30
0.0
 41
2.0
 42
2.0
 43
2.0
 50
90.0
  0
INSERT
  5
51
330
4B
100
AcDbEntity
  8
SUNPO
 62
     0
370
    -2
100
AcDbBlockReference
  2
_OPEN30
 10
63.82146119759394
 20
325.1511215768468
 30
0.0
 41
2.0
 42
2.0
 43
2.0
 50
270.0
  0
MTEXT
  5
52
330
4B
100
AcDbEntity
  8
SUNPO
 62
     0
100
AcDbMText
 10
62.07146119759389
 20
331.8686218791792
 30
0.0
 40
2.5
 41
0.0
 71
     5
 72
     1
  1
\A1;67
 11
0.0000000000000001
 21
1.0
 31
0.0
 73
     1
 44
1.0
1001
ACAD
1000
MTEXTBEGIN
1070
    73
1070
     1
1070
    44
1040
1.0
1070
    74
1070
     0
1000
MTEXTEND
  0
POINT
  5
53
330
4B
100
AcDbEntity
  8
DEFPOINTS
 62
     0
100
AcDbPoint
 10
55.82146119759395
 20
338.5861221815117
 30
0.0
  0
POINT
  5
54
330
4B
100
AcDbEntity
  8
DEFPOINTS
 62
     0
100
AcDbPoint
 10
55.82146119759395
 20
325.1511215768468
 30
0.0
  0
POINT
  5
55
330
4B
100
AcDbEntity
  8
DEFPOINTS
 62
     0
100
AcDbPoint
 10
63.82146119759394
 20
325.1511215768468
 30
0.0
  0
ENDBLK
  5
56
330
4B
100
AcDbEntity
  8
0
100
AcDbBlockEnd
  0
BLOCK
  5
3E
330
3D
100
AcDbEntity
  8
0
100
AcDbBlockBegin
  2
*D3
 70
     1
 10
0.0
 20
0.0
 30
0.0
  3
*D3
  1

  0
LINE
  5
3F
330
3D
100
AcDbEntity
  8
SUNPO
 62
     0
370
    -2
100
AcDbLine
 10
74.32505385353469
 20
336.7388641971435
 30
0.0
 11
74.32505385353469
 21
344.7388641971435
 31
0.0
  0
LINE
  5
40
330
3D
100
AcDbEntity
  8
SUNPO
 62
     0
370
    -2
100
AcDbLine
 10
81.74001515916121
 20
336.7388641971435
 30
0.0
 11
81.74001515916121
 21
344.7388641971435
 31
0.0
  0
LINE
  5
41
330
3D
100
AcDbEntity
  8
SUNPO
 62
     0
370
    -2
100
AcDbLine
 10
76.32505385353468
 20
342.7388641971435
 30
0.0
 11
79.7400151591612
 21
342.7388641971435
 31
0.0
  0
INSERT
  5
42
330
3D
100
AcDbEntity
  8
SUNPO
 62
     0
370
    -2
100
AcDbBlockReference
  2
_OPEN30
 10
74.32505385353469
 20
342.7388641971435
 30
0.0
 41
2.0
 42
2.0
 43
2.0
 50
180.0
  0
INSERT
  5
43
330
3D
100
AcDbEntity
  8
SUNPO
 62
     0
370
    -2
100
AcDbBlockReference
  2
_OPEN30
 10
81.74001515916121
 20
342.7388641971435
 30
0.0
 41
2.0
 42
2.0
 43
2.0
  0
MTEXT
  5
44
330
3D
100
AcDbEntity
  8
SUNPO
 62
     0
100
AcDbMText
 10
78.03253450634795
 20
344.4888641971435
 30
0.0
 40
2.5
 41
0.0
 71
     5
 72
     1
  1
\A1;37
 73
     1
 44
1.0
1001
ACAD
1000
MTEXTBEGIN
1070
    73
1070
     1
1070
    44
1040
1.0
1070
    74
1070
     0
1000
MTEXTEND
  0
POINT
  5
45
330
3D
100
AcDbEntity
  8
DEFPOINTS
 62
     0
100
AcDbPoint
 10
74.32505385353469
 20
334.7388641971435
 30
0.0
  0
POINT
  5
47
330
3D
100
AcDbEntity
  8
DEFPOINTS
 62
     0
100
AcDbPoint
 10
81.74001515916121
 20
334.7388641971435
 30
0.0
  0
POINT
  5
48
330
3D
100
AcDbEntity
  8
DEFPOINTS
 62
     0
100
AcDbPoint
 10
81.74001515916121
 20
342.7388641971435
 30
0.0
  0
ENDBLK
  5
49
330
3D
100
AcDbEntity
  8
0
100
AcDbBlockEnd
  0
BLOCK
  5
4E9
330
4DF
100
AcDbEntity
  8
0
100
AcDbBlockBegin
  2
*D4
 70
     1
 10
0.0
 20
0.0
 30
0.0
  3
*D4
  1

  0
LINE
  5
4E0
330
4DF
100
AcDbEntity
  8
SUNPO
 62
     0
370
    -2
100
AcDbLine
 10
-23.93606642993794
 20
26.38743611866062
 30
0.0
 11
-23.93606642993794
 21
34.38743611866062
 31
0.0
  0
LINE
  5
4E1
330
4DF
100
AcDbEntity
  8
SUNPO
 62
     0
370
    -2
100
AcDbLine
 10
-9.536059379072867
 20
26.38743611866062
 30
0.0
 11
-9.536059379072867
 21
34.38743611866062
 31
0.0
  0
LINE
  5
4E2
330
4DF
100
AcDbEntity
  8
SUNPO
 62
     0
370
    -2
100
AcDbLine
 10
-21.93606642993794
 20
32.38743611866062
 30
0.0
 11
-11.53605937907286
 21
32.38743611866062
 31
0.0
  0
INSERT
  5
4E3
330
4DF
100
AcDbEntity
  8
SUNPO
 62
     0
370
    -2
100
AcDbBlockReference
  2
_OPEN30
 10
-23.93606642993794
 20
32.38743611866062
 30
0.0
 41
2.0
 42
2.0
 43
2.0
 50
180.0
  0
INSERT
  5
4E4
330
4DF
100
AcDbEntity
  8
SUNPO
 62
     0
370
    -2
100
AcDbBlockReference
  2
_OPEN30
 10
-9.536059379072867
 20
32.38743611866062
 30
0.0
 41
2.0
 42
2.0
 43
2.0
  0
MTEXT
  5
4E5
330
4DF
100
AcDbEntity
  8
SUNPO
 62
     0
100
AcDbMText
 10
-16.7360629045054
 20
34.13743611866062
 30
0.0
 40
2.5
 41
0.0
 71
     5
 72
     1
  1
\A1;72
 73
     1
 44
1.0
1001
ACAD
1000
MTEXTBEGIN
1070
    73
1070
     1
1070
    44
1040
1.0
1070
    74
1070
     0
1000
MTEXTEND
  0
POINT
  5
4E6
330
4DF
100
AcDbEntity
  8
DEFPOINTS
 62
     0
100
AcDbPoint
 10
-23.93606642993794
 20
24.38743611866062
 30
0.0
  0
POINT
  5
4E7
330
4DF
100
AcDbEntity
  8
DEFPOINTS
 62
     0
100
AcDbPoint
 10
-9.536059379072867
 20
24.38743611866062
 30
0.0
  0
POINT
  5
4E8
330
4DF
100
AcDbEntity
  8
DEFPOINTS
 62
     0
100
AcDbPoint
 10
-9.536059379072867
 20
32.38743611866062
 30
0.0
  0
ENDBLK
  5
4EA
330
4DF
100
AcDbEntity
  8
0
100
AcDbBlockEnd
  0
BLOCK
  5
4F5
330
4EB
100
AcDbEntity
  8
0
100
AcDbBlockBegin
  2
*D5
 70
     1
 10
0.0
 20
0.0
 30
0.0
  3
*D5
  1

  0
LINE
  5
4EC
330
4EB
100
AcDbEntity
  8
SUNPO
 62
     0
370
    -2
100
AcDbLine
 10
-7.53985210896704
 20
28.23469410302868
 30
0.0
 11
0.4601478910329632
 21
28.23469410302868
 31
0.0
  0
LINE
  5
4ED
330
4EB
100
AcDbEntity
  8
SUNPO
 62
     0
370
    -2
100
AcDbLine
 10
-7.539852108967039
 20
14.79969349836381
 30
0.0
 11
0.4601478910329602
 21
14.79969349836381
 31
0.0
  0
LINE
  5
4EE
330
4EB
100
AcDbEntity
  8
SUNPO
 62
     0
370
    -2
100
AcDbLine
 10
-1.539852108967037
 20
26.23469410302869
 30
0.0
 11
-1.539852108967039
 21
16.79969349836381
 31
0.0
  0
INSERT
  5
4EF
330
4EB
100
AcDbEntity
  8
SUNPO
 62
     0
370
    -2
100
AcDbBlockReference
  2
_OPEN30
 10
-1.539852108967036
 20
28.23469410302868
 30
0.0
 41
2.0
 42
2.0
 43
2.0
 50
90.0
  0
INSERT
  5
4F0
330
4EB
100
AcDbEntity
  8
SUNPO
 62
     0
370
    -2
100
AcDbBlockReference
  2
_OPEN30
 10
-1.539852108967039
 20
14.79969349836381
 30
0.0
 41
2.0
 42
2.0
 43
2.0
 50
270.0
  0
MTEXT
  5
4F1
330
4EB
100
AcDbEntity
  8
SUNPO
 62
     0
100
AcDbMText
 10
-3.289852108967041
 20
21.51719380069625
 30
0.0
 40
2.5
 41
0.0
 71
     5
 72
     1
  1
\A1;67
 11
0.0000000000000001
 21
1.0
 31
0.0
 73
     1
 44
1.0
1001
ACAD
1000
MTEXTBEGIN
1070
    73
1070
     1
1070
    44
1040
1.0
1070
    74
1070
     0
1000
MTEXTEND
  0
POINT
  5
4F2
330
4EB
100
AcDbEntity
  8
DEFPOINTS
 62
     0
100
AcDbPoint
 10
-9.539852108967039
 20
28.23469410302869
 30
0.0
  0
POINT
  5
4F3
330
4EB
100
AcDbEntity
  8
DEFPOINTS
 62
     0
100
AcDbPoint
 10
-9.539852108967039
 20
14.79969349836381
 30
0.0
  0
POINT
  5
4F4
330
4EB
100
AcDbEntity
  8
DEFPOINTS
 62
     0
100
AcDbPoint
 10
-1.539852108967039
 20
14.79969349836381
 30
0.0
  0
ENDBLK
  5
4F6
330
4EB
100
AcDbEntity
  8
0
100
AcDbBlockEnd
  0
BLOCK
  5
501
330
4F7
100
AcDbEntity
  8
0
100
AcDbBlockBegin
  2
*D6
 70
     1
 10
0.0
 20
0.0
 30
0.0
  3
*D6
  1

  0
LINE
  5
4F8
330
4F7
100
AcDbEntity
  8
SUNPO
 62
     0
370
    -2
100
AcDbLine
 10
8.963740546973696
 20
26.38743611866056
 30
0.0
 11
8.963740546973696
 21
34.38743611866056
 31
0.0
  0
LINE
  5
4F9
330
4F7
100
AcDbEntity
  8
SUNPO
 62
     0
370
    -2
100
AcDbLine
 10
16.37870185260021
 20
26.38743611866056
 30
0.0
 11
16.37870185260021
 21
34.38743611866056
 31
0.0
  0
LINE
  5
4FA
330
4F7
100
AcDbEntity
  8
SUNPO
 62
     0
370
    -2
100
AcDbLine
 10
10.96374054697369
 20
32.38743611866056
 30
0.0
 11
14.37870185260021
 21
32.38743611866056
 31
0.0
  0
INSERT
  5
4FB
330
4F7
100
AcDbEntity
  8
SUNPO
 62
     0
370
    -2
100
AcDbBlockReference
  2
_OPEN30
 10
8.963740546973696
 20
32.38743611866056
 30
0.0
 41
2.0
 42
2.0
 43
2.0
 50
180.0
  0
INSERT
  5
4FC
330
4F7
100
AcDbEntity
  8
SUNPO
 62
     0
370
    -2
100
AcDbBlockReference
  2
_OPEN30
 10
16.37870185260021
 20
32.38743611866056
 30
0.0
 41
2.0
 42
2.0
 43
2.0
  0
MTEXT
  5
4FD
330
4F7
100
AcDbEntity
  8
SUNPO
 62
     0
100
AcDbMText
 10
12.67122119978695
 20
34.13743611866056
 30
0.0
 40
2.5
 41
0.0
 71
     5
 72
     1
  1
\A1;37
 73
     1
 44
1.0
1001
ACAD
1000
MTEXTBEGIN
1070
    73
1070
     1
1070
    44
1040
1.0
1070
    74
1070
     0
1000
MTEXTEND
  0
POINT
  5
4FE
330
4F7
100
AcDbEntity
  8
DEFPOINTS
 62
     0
100
AcDbPoint
 10
8.963740546973696
 20
24.38743611866056
 30
0.0
  0
POINT
  5
4FF
330
4F7
100
AcDbEntity
  8
DEFPOINTS
 62
     0
100
AcDbPoint
 10
16.37870185260021
 20
24.38743611866056
 30
0.0
  0
POINT
  5
500
330
4F7
100
AcDbEntity
  8
DEFPOINTS
 62
     0
100
AcDbPoint
 10
16.37870185260021
 20
32.38743611866056
 30
0.0
  0
ENDBLK
  5
502
330
4F7
100
AcDbEntity
  8
0
100
AcDbBlockEnd
  0
ENDSEC
  0
SECTION
  2
ENTITIES
  0
TEXT
  5
35
330
2
100
AcDbEntity
  8
MOJI1
100
AcDbText
 10
-36.36131330656144
 20
56.14778606115862
 30
0.0
 40
4.0
  1
ドーム型コンビネーションカメラ
 41
0.95
100
AcDbText
  0
TEXT
  5
37
330
2
100
AcDbEntity
  8
TOUROKU
100
AcDbText
 10
48.0386367263663
 20
50.14778606115874
 30
0.0
 40
2.0
  1
ＤＧＣＷ６Ｓ
 72
     2
 11
61.6386367263663
 21
50.14778606115874
 31
0.0
100
AcDbText
  0
TEXT
  5
39
330
2
100
AcDbEntity
  8
MOJI1
100
AcDbText
 10
-21.36135619447157
 20
-26.7838773169832
 30
0.0
 40
3.0
  1
約１５ｇ
100
AcDbText
  0
TEXT
  5
3A
330
2
100
AcDbEntity
  8
MOJI1
100
AcDbText
 10
-60.7931176584085
 20
-26.81202190569332
 30
0.0
 40
3.0
  1
質　量
100
AcDbText
  0
DIMENSION
  5
3B
330
2
100
AcDbEntity
  8
SUNPO
100
AcDbDimension
  2
*D6
 10
16.37870185260021
 20
32.38743611866056
 30
0.0
 11
12.67122119978695
 21
34.13743611866056
 31
0.0
 70
    33
  1
37
 71
     5
 42
7.414961305626519
  3
STANDARD
100
AcDbAlignedDimension
 13
8.963740546973696
 23
24.38743611866056
 33
0.0
 14
16.37870185260021
 24
24.38743611866056
 34
0.0
1001
ACAD
1000
DSTYLE
1002
{
1070
    40
1040
1.0
1070
   140
1040
2.5
1070
   147
1040
0.5
1070
   172
1070
     1
1070
   279
1070
     0
1070
   288
1070
     0
1002
}
  0
DIMENSION
  5
4A
330
2
100
AcDbEntity
  8
SUNPO
100
AcDbDimension
  2
*D5
 10
-1.539852108967039
 20
14.79969349836381
 30
0.0
 11
-3.289852108967041
 21
21.51719380069625
 31
0.0
 70
    33
  1
67
 71
     5
 42
13.43500060466487
  3
STANDARD
100
AcDbAlignedDimension
 13
-9.539852108967039
 23
28.23469410302869
 33
0.0
 14
-9.539852108967039
 24
14.79969349836381
 34
0.0
1001
ACAD
1000
DSTYLE
1002
{
1070
    40
1040
1.0
1070
   140
1040
2.5
1070
   147
1040
0.5
1070
   172
1070
     1
1070
   279
1070
     0
1070
   288
1070
     0
1002
}
  0
DIMENSION
  5
57
330
2
100
AcDbEntity
  8
SUNPO
100
AcDbDimension
  2
*D4
 10
-9.536059379072867
 20
32.38743611866062
 30
0.0
 11
-16.7360629045054
 21
34.13743611866062
 31
0.0
 70
    33
  1
72
 71
     5
 42
14.40000705086507
  3
STANDARD
100
AcDbAlignedDimension
 13
-23.93606642993794
 23
24.38743611866062
 33
0.0
 14
-9.536059379072867
 24
24.38743611866062
 34
0.0
1001
ACAD
1000
DSTYLE
1002
{
1070
    40
1040
1.0
1070
   140
1040
2.5
1070
   147
1040
0.5
1070
   172
1070
     1
1070
   279
1070
     0
1070
   288
1070
     0
1002
}
  0
LINE
  5
64
330
2
100
AcDbEntity
  8
GAIKEI
370
    13
100
AcDbLine
 10
14.78607986379435
 20
19.70917104042974
 30
0.0
 11
14.90519004837901
 21
21.36846906493054
 31
0.0
  0
LINE
  5
65
330
2
100
AcDbEntity
  8
GAIKEI
370
    13
100
AcDbLine
 10
14.76029781242167
 20
19.32532092343103
 30
0.0
 11
14.78607986379435
 21
19.70917104042974
 31
0.0
  0
LINE
  5
66
330
2
100
AcDbEntity
  8
GAIKEI
370
    13
100
AcDbLine
 10
14.66587087528012
 20
17.78874822308205
 30
0.0
 11
14.76029781242167
 21
19.32532092343103
 31
0.0
  0
LINE
  5
67
330
2
100
AcDbEntity
  8
GAIKEI
370
    13
100
AcDbLine
 10
14.60788864405603
 20
16.66016866376299
 30
0.0
 11
14.66587087528012
 21
17.78874822308205
 31
0.0
  0
LINE
  5
68
330
2
100
AcDbEntity
  8
GAIKEI
370
    13
100
AcDbLine
 10
14.57518697226987
 20
15.88079028431195
 30
0.0
 11
14.60788864405603
 21
16.66016866376299
 31
0.0
  0
LINE
  5
69
330
2
100
AcDbEntity
  8
GAIKEI
370
    13
100
AcDbLine
 10
14.73160061223564
 20
19.75267233901479
 30
0.0
 11
14.84884866003418
 21
21.37297240602174
 31
0.0
  0
LINE
  5
6A
330
2
100
AcDbEntity
  8
GAIKEI
370
    13
100
AcDbLine
 10
14.70577539140433
 20
19.37128328460858
 30
0.0
 11
14.73160061223564
 21
19.75267233901479
 31
0.0
  0
LINE
  5
6B
330
2
100
AcDbEntity
  8
GAIKEI
370
    13
100
AcDbLine
 10
14.61073581105845
 20
17.83464885596822
 30
0.0
 11
14.70577539140433
 21
19.37128328460858
 31
0.0
  0
LINE
  5
6C
330
2
100
AcDbEntity
  8
GAIKEI
370
    13
100
AcDbLine
 10
14.55255366893036
 20
16.70473951594363
 30
0.0
 11
14.61073581105845
 21
17.83464885596822
 31
0.0
  0
LINE
  5
6D
330
2
100
AcDbEntity
  8
GAIKEI
370
    13
100
AcDbLine
 10
14.51997182265072
 20
15.92529497021951
 30
0.0
 11
14.55255366893036
 21
16.70473951594363
 31
0.0
  0
LINE
  5
6E
330
2
100
AcDbEntity
  8
GAIKEI
370
    40
100
AcDbLine
 10
15.23234313331559
 20
17.08369070629828
 30
0.0
 11
15.27537804036677
 21
17.09092259924398
 31
0.0
  0
LINE
  5
6F
330
2
100
AcDbEntity
  8
GAIKEI
370
    40
100
AcDbLine
 10
15.20503724040003
 20
17.07003786070368
 30
0.0
 11
15.23234313331559
 21
17.08369070629828
 31
0.0
  0
LINE
  5
70
330
2
100
AcDbEntity
  8
GAIKEI
370
    40
100
AcDbLine
 10
15.18384446558284
 20
17.0499731401502
 30
0.0
 11
15.20503724040003
 21
17.07003786070368
 31
0.0
  0
LINE
  5
71
330
2
100
AcDbEntity
  8
GAIKEI
370
    40
100
AcDbLine
 10
14.86503014657921
 20
18.0281059259313
 30
0.0
 11
14.88141799927442
 21
18.08468615838353
 31
0.0
  0
LINE
  5
72
330
2
100
AcDbEntity
  8
GAIKEI
370
    40
100
AcDbLine
 10
14.85391522135145
 20
17.95623079464678
 30
0.0
 11
14.86503014657921
 21
18.0281059259313
 31
0.0
  0
LINE
  5
73
330
2
100
AcDbEntity
  8
GAIKEI
370
    40
100
AcDbLine
 10
14.84816823674532
 20
17.88468185501881
 30
0.0
 11
14.85391522135145
 21
17.95623079464678
 31
0.0
  0
LINE
  5
74
330
2
100
AcDbEntity
  8
GAIKEI
370
    40
100
AcDbLine
 10
14.84579210098499
 20
17.80700285227147
 30
0.0
 11
14.84816823674532
 21
17.88468185501881
 31
0.0
  0
LINE
  5
75
330
2
100
AcDbEntity
  8
GAIKEI
370
    40
100
AcDbLine
 10
14.85027688324356
 20
17.63872769751617
 30
0.0
 11
14.84579210098499
 21
17.80700285227147
 31
0.0
  0
LINE
  5
76
330
2
100
AcDbEntity
  8
GAIKEI
370
    40
100
AcDbLine
 10
14.86602748210845
 20
17.45945905685107
 30
0.0
 11
14.85027688324356
 21
17.63872769751617
 31
0.0
  0
LINE
  5
77
330
2
100
AcDbEntity
  8
GAIKEI
370
    40
100
AcDbLine
 10
15.26476783469689
 20
17.90075884726696
 30
0.0
 11
15.18779991765757
 21
17.94202844622418
 31
0.0
  0
LINE
  5
78
330
2
100
AcDbEntity
  8
GAIKEI
370
    40
100
AcDbLine
 10
15.3390915215345
 20
17.85703907894515
 30
0.0
 11
15.26476783469689
 21
17.90075884726696
 31
0.0
  0
LINE
  5
79
330
2
100
AcDbEntity
  8
GAIKEI
370
    40
100
AcDbLine
 10
15.41071893274832
 20
17.80902052014437
 30
0.0
 11
15.3390915215345
 21
17.85703907894515
 31
0.0
  0
LINE
  5
7A
330
2
100
AcDbEntity
  8
GAIKEI
370
    40
100
AcDbLine
 10
15.44615419955005
 20
17.78159782761884
 30
0.0
 11
15.41071893274832
 21
17.80902052014437
 31
0.0
  0
LINE
  5
7B
330
2
100
AcDbEntity
  8
GAIKEI
370
    40
100
AcDbLine
 10
15.47932064905859
 20
17.75190651952664
 30
0.0
 11
15.44615419955005
 21
17.78159782761884
 31
0.0
  0
LINE
  5
7C
330
2
100
AcDbEntity
  8
GAIKEI
370
    40
100
AcDbLine
 10
15.51290265503766
 20
17.71349780496985
 30
0.0
 11
15.47932064905859
 21
17.75190651952664
 31
0.0
  0
LINE
  5
7D
330
2
100
AcDbEntity
  8
GAIKEI
370
    40
100
AcDbLine
 10
15.52621861747408
 20
17.69226044860898
 30
0.0
 11
15.51290265503766
 21
17.71349780496985
 31
0.0
  0
LINE
  5
7E
330
2
100
AcDbEntity
  8
GAIKEI
370
    40
100
AcDbLine
 10
15.53793690648985
 20
17.65976655505801
 30
0.0
 11
15.52621861747408
 21
17.69226044860898
 31
0.0
  0
LINE
  5
7F
330
2
100
AcDbEntity
  8
GAIKEI
370
    40
100
AcDbLine
 10
15.53920818652733
 20
17.64267387017446
 30
0.0
 11
15.53793690648985
 21
17.65976655505801
 31
0.0
  0
LINE
  5
80
330
2
100
AcDbEntity
  8
GAIKEI
370
    40
100
AcDbLine
 10
15.53659482047123
 20
17.62575507348401
 30
0.0
 11
15.53920818652733
 21
17.64267387017446
 31
0.0
  0
LINE
  5
81
330
2
100
AcDbEntity
  8
GAIKEI
370
    40
100
AcDbLine
 10
15.52784997921054
 20
17.60591830380986
 30
0.0
 11
15.53659482047123
 21
17.62575507348401
 31
0.0
  0
LINE
  5
82
330
2
100
AcDbEntity
  8
GAIKEI
370
    40
100
AcDbLine
 10
15.51616558023698
 20
17.5905523972699
 30
0.0
 11
15.52784997921054
 21
17.60591830380986
 31
0.0
  0
LINE
  5
83
330
2
100
AcDbEntity
  8
GAIKEI
370
    40
100
AcDbLine
 10
15.50177845039354
 20
17.5770702122453
 30
0.0
 11
15.51616558023698
 21
17.5905523972699
 31
0.0
  0
LINE
  5
84
330
2
100
AcDbEntity
  8
GAIKEI
370
    40
100
AcDbLine
 10
15.47661186639541
 20
17.55978205443944
 30
0.0
 11
15.50177845039354
 21
17.5770702122453
 31
0.0
  0
LINE
  5
85
330
2
100
AcDbEntity
  8
GAIKEI
370
    40
100
AcDbLine
 10
15.44910606257582
 20
17.54557062832691
 30
0.0
 11
15.47661186639541
 21
17.55978205443944
 31
0.0
  0
LINE
  5
86
330
2
100
AcDbEntity
  8
GAIKEI
370
    40
100
AcDbLine
 10
15.40588637410377
 20
17.52854552180145
 30
0.0
 11
15.44910606257582
 21
17.54557062832691
 31
0.0
  0
LINE
  5
87
330
2
100
AcDbEntity
  8
GAIKEI
370
    40
100
AcDbLine
 10
15.33107612308808
 20
17.50745905681924
 30
0.0
 11
15.40588637410377
 21
17.52854552180145
 31
0.0
  0
LINE
  5
88
330
2
100
AcDbEntity
  8
GAIKEI
370
    40
100
AcDbLine
 10
15.25509948978472
 20
17.49223476224154
 30
0.0
 11
15.33107612308808
 21
17.50745905681924
 31
0.0
  0
LINE
  5
89
330
2
100
AcDbEntity
  8
GAIKEI
370
    40
100
AcDbLine
 10
15.17766982091965
 20
17.48069338731534
 30
0.0
 11
15.25509948978472
 21
17.49223476224154
 31
0.0
  0
LINE
  5
8A
330
2
100
AcDbEntity
  8
GAIKEI
370
    40
100
AcDbLine
 10
14.85732560857991
 20
16.89687447080587
 30
0.0
 11
14.86635367376519
 21
17.45663650047459
 31
0.0
  0
LINE
  5
8B
330
2
100
AcDbEntity
  8
GAIKEI
370
    40
100
AcDbLine
 10
14.85266532431683
 20
16.00789266880213
 30
0.0
 11
14.85732560857991
 21
16.89687447080587
 31
0.0
  0
LINE
  5
8C
330
2
100
AcDbEntity
  8
GAIKEI
370
    40
100
AcDbLine
 10
14.85713174946915
 20
15.40939593464634
 30
0.0
 11
14.85266532431683
 21
16.00789266880213
 31
0.0
  0
LINE
  5
8D
330
2
100
AcDbEntity
  8
GAIKEI
370
    40
100
AcDbLine
 10
14.86869309531306
 20
14.80519397325781
 30
0.0
 11
14.85713174946915
 21
15.40939593464634
 31
0.0
  0
LINE
  5
8E
330
2
100
AcDbEntity
  8
GAIKEI
370
    40
100
AcDbLine
 10
15.16548352655843
 20
16.44180503518555
 30
0.0
 11
15.1701869802801
 21
17.01183231830839
 31
0.0
  0
LINE
  5
8F
330
2
100
AcDbEntity
  8
GAIKEI
370
    40
100
AcDbLine
 10
15.16800772952717
 20
15.64020124326055
 30
0.0
 11
15.16548352655843
 21
16.44180503518555
 31
0.0
  0
LINE
  5
90
330
2
100
AcDbEntity
  8
GAIKEI
370
    40
100
AcDbLine
 10
15.18384749147947
 20
14.79969349836381
 30
0.0
 11
15.16800772952717
 21
15.64020124326055
 31
0.0
  0
LINE
  5
91
330
2
100
AcDbEntity
  8
GAIKEI
370
    13
100
AcDbLine
 10
15.24424922964886
 20
18.15984559787023
 30
0.0
 11
15.24017677623777
 21
18.16033357413346
 31
0.0
  0
LINE
  5
92
330
2
100
AcDbEntity
  8
GAIKEI
370
    13
100
AcDbLine
 10
15.25832227142212
 20
18.15254753865167
 30
0.0
 11
15.24424922964886
 21
18.15984559787023
 31
0.0
  0
LINE
  5
93
330
2
100
AcDbEntity
  8
GAIKEI
370
    13
100
AcDbLine
 10
15.27285383739803
 20
18.13657060271873
 30
0.0
 11
15.25832227142212
 21
18.15254753865167
 31
0.0
  0
LINE
  5
94
330
2
100
AcDbEntity
  8
GAIKEI
370
    13
100
AcDbLine
 10
15.28701926988171
 20
18.11302630276725
 30
0.0
 11
15.27285383739803
 21
18.13657060271873
 31
0.0
  0
LINE
  5
95
330
2
100
AcDbEntity
  8
GAIKEI
370
    40
100
AcDbLine
 10
15.28443676797121
 20
18.08731485564919
 30
0.0
 11
15.2971310095134
 21
18.08632982543293
 31
0.0
  0
LINE
  5
96
330
2
100
AcDbEntity
  8
GAIKEI
370
    40
100
AcDbLine
 10
15.25409287483916
 20
18.09547791785121
 30
0.0
 11
15.28443676797121
 21
18.08731485564919
 31
0.0
  0
LINE
  5
97
330
2
100
AcDbEntity
  8
GAIKEI
370
    40
100
AcDbLine
 10
15.22749806763164
 20
18.11136246307353
 30
0.0
 11
15.25409287483916
 21
18.09547791785121
 31
0.0
  0
LINE
  5
98
330
2
100
AcDbEntity
  8
GAIKEI
370
    40
100
AcDbLine
 10
15.21088246578344
 20
18.12871678715237
 30
0.0
 11
15.22749806763164
 21
18.11136246307353
 31
0.0
  0
LINE
  5
99
330
2
100
AcDbEntity
  8
GAIKEI
370
    40
100
AcDbLine
 10
15.1994627319018
 20
18.1495385870428
 30
0.0
 11
15.21088246578344
 21
18.12871678715237
 31
0.0
  0
LINE
  5
9A
330
2
100
AcDbEntity
  8
GAIKEI
370
    40
100
AcDbLine
 10
15.28636365894522
 20
20.49335575408793
 30
0.0
 11
15.29959953598416
 21
20.7540801199475
 31
0.0
  0
LINE
  5
9B
330
2
100
AcDbEntity
  8
GAIKEI
370
    40
100
AcDbLine
 10
15.2332880199699
 20
19.31788730404332
 30
0.0
 11
15.28636365894522
 21
20.49335575408793
 31
0.0
  0
LINE
  5
9C
330
2
100
AcDbEntity
  8
GAIKEI
370
    40
100
AcDbLine
 10
15.19427614335151
 20
18.17992867553005
 30
0.0
 11
15.2332880199699
 21
19.31788730404332
 31
0.0
  0
LINE
  5
9D
330
2
100
AcDbEntity
  8
GAIKEI
370
    40
100
AcDbLine
 10
14.93991422947269
 20
19.69380049418157
 30
0.0
 11
14.99320833818467
 21
20.7953297479869
 31
0.0
  0
LINE
  5
9E
330
2
100
AcDbEntity
  8
GAIKEI
370
    40
100
AcDbLine
 10
14.91714556769059
 20
19.14648337217261
 30
0.0
 11
14.93991422947269
 21
19.69380049418157
 31
0.0
  0
LINE
  5
9F
330
2
100
AcDbEntity
  8
GAIKEI
370
    40
100
AcDbLine
 10
14.88141497337778
 20
18.08467687896711
 30
0.0
 11
14.91714556769059
 21
19.14648337217261
 31
0.0
  0
LINE
  5
A0
330
2
100
AcDbEntity
  8
GAIKEI
370
    40
100
AcDbLine
 10
15.28636365894522
 20
20.49335575408793
 30
0.0
 11
15.29959953598416
 21
20.7540801199475
 31
0.0
  0
LINE
  5
A1
330
2
100
AcDbEntity
  8
GAIKEI
370
    40
100
AcDbLine
 10
15.2332880199699
 20
19.31788730404332
 30
0.0
 11
15.28636365894522
 21
20.49335575408793
 31
0.0
  0
LINE
  5
A2
330
2
100
AcDbEntity
  8
GAIKEI
370
    40
100
AcDbLine
 10
15.19427614335151
 20
18.17992867553005
 30
0.0
 11
15.2332880199699
 21
19.31788730404332
 31
0.0
  0
LINE
  5
A3
330
2
100
AcDbEntity
  8
GAIKEI
370
    40
100
AcDbLine
 10
15.38291134617151
 20
23.03023440554341
 30
0.0
 11
15.39676914583114
 21
23.02914488103022
 31
0.0
  0
LINE
  5
A4
330
2
100
AcDbEntity
  8
GAIKEI
370
    40
100
AcDbLine
 10
15.35521470913778
 20
23.03821288805102
 30
0.0
 11
15.38291134617151
 21
23.03023440554341
 31
0.0
  0
LINE
  5
A5
330
2
100
AcDbEntity
  8
GAIKEI
370
    40
100
AcDbLine
 10
15.33059298825947
 20
23.05361571052992
 30
0.0
 11
15.35521470913778
 21
23.03821288805102
 31
0.0
  0
LINE
  5
A6
330
2
100
AcDbEntity
  8
GAIKEI
370
    40
100
AcDbLine
 10
15.31148727521122
 20
23.07521173650469
 30
0.0
 11
15.33059298825947
 21
23.05361571052992
 31
0.0
  0
LINE
  5
A7
330
2
100
AcDbEntity
  8
GAIKEI
370
    40
100
AcDbLine
 10
15.30192342459599
 20
23.09417281169396
 30
0.0
 11
15.31148727521122
 21
23.07521173650469
 31
0.0
  0
LINE
  5
A8
330
2
100
AcDbEntity
  8
GAIKEI
370
    40
100
AcDbLine
 10
15.29683850617249
 20
23.11458672071865
 30
0.0
 11
15.30192342459599
 21
23.09417281169396
 31
0.0
  0
LINE
  5
A9
330
2
100
AcDbEntity
  8
GAIKEI
370
    13
100
AcDbLine
 10
14.87218679556207
 20
21.72076089561631
 30
0.0
 11
14.84884866003418
 21
21.37297240602174
 31
0.0
  0
LINE
  5
AA
330
2
100
AcDbEntity
  8
GAIKEI
370
    13
100
AcDbLine
 10
14.88592739215886
 20
22.06659021800613
 30
0.0
 11
14.87218679556207
 21
21.72076089561631
 31
0.0
  0
LINE
  5
AB
330
2
100
AcDbEntity
  8
GAIKEI
370
    13
100
AcDbLine
 10
14.88771892469029
 20
22.23939332447856
 30
0.0
 11
14.88592739215886
 21
22.06659021800613
 31
0.0
  0
LINE
  5
AC
330
2
100
AcDbEntity
  8
GAIKEI
370
    13
100
AcDbLine
 10
14.88548097154273
 20
22.41207620199157
 30
0.0
 11
14.88771892469029
 21
22.23939332447856
 31
0.0
  0
LINE
  5
AD
330
2
100
AcDbEntity
  8
GAIKEI
370
    13
100
AcDbLine
 10
14.87557257216457
 20
22.64167801065298
 30
0.0
 11
14.88548097154273
 21
22.41207620199157
 31
0.0
  0
LINE
  5
AE
330
2
100
AcDbEntity
  8
GAIKEI
370
    13
100
AcDbLine
 10
14.85713780126241
 20
22.86996073011005
 30
0.0
 11
14.87557257216457
 21
22.64167801065298
 31
0.0
  0
LINE
  5
AF
330
2
100
AcDbEntity
  8
GAIKEI
370
    13
100
AcDbLine
 10
14.82974577115612
 20
23.09626895115286
 30
0.0
 11
14.85713780126241
 21
22.86996073011005
 31
0.0
  0
LINE
  5
B0
330
2
100
AcDbEntity
  8
GAIKEI
370
    13
100
AcDbLine
 10
14.79359054268289
 20
23.31779988659616
 30
0.0
 11
14.82974577115612
 21
23.09626895115286
 31
0.0
  0
LINE
  5
B1
330
2
100
AcDbEntity
  8
GAIKEI
370
    13
100
AcDbLine
 10
14.74846554796613
 20
23.53608181596462
 30
0.0
 11
14.79359054268289
 21
23.31779988659616
 31
0.0
  0
LINE
  5
B2
330
2
100
AcDbEntity
  8
GAIKEI
370
    13
100
AcDbLine
 10
14.69457412725941
 20
23.75041474850457
 30
0.0
 11
14.74846554796613
 21
23.53608181596462
 31
0.0
  0
LINE
  5
B3
330
2
100
AcDbEntity
  8
GAIKEI
370
    13
100
AcDbLine
 10
14.64908905084368
 20
23.90664058115283
 30
0.0
 11
14.69457412725941
 21
23.75041474850457
 31
0.0
  0
LINE
  5
B4
330
2
100
AcDbEntity
  8
GAIKEI
370
    13
100
AcDbLine
 10
14.59923296588272
 20
24.05988691425273
 30
0.0
 11
14.64908905084368
 21
23.90664058115283
 31
0.0
  0
LINE
  5
B5
330
2
100
AcDbEntity
  8
GAIKEI
370
    13
100
AcDbLine
 10
14.52733161016067
 20
24.25679935644087
 30
0.0
 11
14.59923296588272
 21
24.05988691425273
 31
0.0
  0
LINE
  5
B6
330
2
100
AcDbEntity
  8
GAIKEI
370
    13
100
AcDbLine
 10
14.44899699647678
 20
24.44753836432437
 30
0.0
 11
14.52733161016067
 21
24.25679935644087
 31
0.0
  0
LINE
  5
B7
330
2
100
AcDbEntity
  8
GAIKEI
370
    13
100
AcDbLine
 10
14.36470943548949
 20
24.63225382064991
 30
0.0
 11
14.44899699647678
 21
24.44753836432437
 31
0.0
  0
LINE
  5
B8
330
2
100
AcDbEntity
  8
GAIKEI
370
    40
100
AcDbLine
 10
14.81111108934993
 20
24.32285064534494
 30
0.0
 11
14.85036302043428
 21
24.19157272523171
 31
0.0
  0
LINE
  5
B9
330
2
100
AcDbEntity
  8
GAIKEI
370
    40
100
AcDbLine
 10
14.77846166471221
 20
24.40496218320232
 30
0.0
 11
14.81111108934993
 21
24.32285064534494
 31
0.0
  0
LINE
  5
BA
330
2
100
AcDbEntity
  8
GAIKEI
370
    40
100
AcDbLine
 10
14.76094111804519
 20
24.43983241424007
 30
0.0
 11
14.77846166471221
 21
24.40496218320232
 31
0.0
  0
LINE
  5
BB
330
2
100
AcDbEntity
  8
GAIKEI
370
    40
100
AcDbLine
 10
14.74195845812656
 20
24.46750605445937
 30
0.0
 11
14.76094111804519
 21
24.43983241424007
 31
0.0
  0
LINE
  5
BC
330
2
100
AcDbEntity
  8
GAIKEI
370
    40
100
AcDbLine
 10
14.73627925360495
 20
24.4723125903929
 30
0.0
 11
14.74195845812656
 21
24.46750605445937
 31
0.0
  0
LINE
  5
BD
330
2
100
AcDbEntity
  8
GAIKEI
370
    40
100
AcDbLine
 10
14.73370300521415
 20
24.47354372686834
 30
0.0
 11
14.73627925360495
 21
24.4723125903929
 31
0.0
  0
LINE
  5
BE
330
2
100
AcDbEntity
  8
GAIKEI
370
    40
100
AcDbLine
 10
14.73016613550658
 20
24.47372084268443
 30
0.0
 11
14.73370300521415
 21
24.47354372686834
 31
0.0
  0
LINE
  5
BF
330
2
100
AcDbEntity
  8
GAIKEI
370
    40
100
AcDbLine
 10
14.72729435787823
 20
24.47168300216743
 30
0.0
 11
14.73016613550658
 21
24.47372084268443
 31
0.0
  0
LINE
  5
C0
330
2
100
AcDbEntity
  8
GAIKEI
370
    40
100
AcDbLine
 10
14.72441935262685
 20
24.46464960804064
 30
0.0
 11
14.72729435787823
 21
24.47168300216743
 31
0.0
  0
LINE
  5
C1
330
2
100
AcDbEntity
  8
GAIKEI
370
    40
100
AcDbLine
 10
14.72343129651395
 20
24.43971238700703
 30
0.0
 11
14.72441935262685
 21
24.46464960804064
 31
0.0
  0
LINE
  5
C2
330
2
100
AcDbEntity
  8
GAIKEI
370
    40
100
AcDbLine
 10
14.72765141368057
 20
24.40199640105209
 30
0.0
 11
14.72343129651395
 21
24.43971238700703
 31
0.0
  0
LINE
  5
C3
330
2
100
AcDbEntity
  8
GAIKEI
370
    40
100
AcDbLine
 10
14.74447317995253
 20
24.31644663771715
 30
0.0
 11
14.72765141368057
 21
24.40199640105209
 31
0.0
  0
LINE
  5
C4
330
2
100
AcDbEntity
  8
GAIKEI
370
    40
100
AcDbLine
 10
14.77039704501396
 20
24.21315019237375
 30
0.0
 11
14.74447317995253
 21
24.31644663771715
 31
0.0
  0
LINE
  5
C5
330
2
100
AcDbEntity
  8
GAIKEI
370
    40
100
AcDbLine
 10
14.88855608942458
 20
24.02597548899382
 30
0.0
 11
14.8749631565833
 21
24.0907665928147
 31
0.0
  0
LINE
  5
C6
330
2
100
AcDbEntity
  8
GAIKEI
370
    40
100
AcDbLine
 10
14.90078837741458
 20
23.93158708160274
 30
0.0
 11
14.88855608942458
 21
24.02597548899382
 31
0.0
  0
LINE
  5
C7
330
2
100
AcDbEntity
  8
GAIKEI
370
    40
100
AcDbLine
 10
14.90126868807297
 20
23.89235512143614
 30
0.0
 11
14.90078837741458
 21
23.93158708160274
 31
0.0
  0
LINE
  5
C8
330
2
100
AcDbEntity
  8
GAIKEI
370
    40
100
AcDbLine
 10
14.89829826621451
 20
23.87193495889176
 30
0.0
 11
14.90126868807297
 21
23.89235512143614
 31
0.0
  0
LINE
  5
C9
330
2
100
AcDbEntity
  8
GAIKEI
370
    40
100
AcDbLine
 10
14.89561732180036
 20
23.86543876228007
 30
0.0
 11
14.89829826621451
 21
23.87193495889176
 31
0.0
  0
LINE
  5
CA
330
2
100
AcDbEntity
  8
GAIKEI
370
    40
100
AcDbLine
 10
14.89215125807391
 20
23.86197733826179
 30
0.0
 11
14.89561732180036
 21
23.86543876228007
 31
0.0
  0
LINE
  5
CB
330
2
100
AcDbEntity
  8
GAIKEI
370
    40
100
AcDbLine
 10
14.89014750932551
 20
23.86145869957943
 30
0.0
 11
14.89215125807391
 21
23.86197733826179
 31
0.0
  0
LINE
  5
CC
330
2
100
AcDbEntity
  8
GAIKEI
370
    40
100
AcDbLine
 10
14.88819600772561
 20
23.86169270225218
 30
0.0
 11
14.89014750932551
 21
23.86145869957943
 31
0.0
  0
LINE
  5
CD
330
2
100
AcDbEntity
  8
GAIKEI
370
    40
100
AcDbLine
 10
14.88396358524599
 20
23.864098290073
 30
0.0
 11
14.88819600772561
 21
23.86169270225218
 31
0.0
  0
LINE
  5
CE
330
2
100
AcDbEntity
  8
GAIKEI
370
    40
100
AcDbLine
 10
14.87234979052721
 20
23.87954710618067
 30
0.0
 11
14.88396358524599
 21
23.864098290073
 31
0.0
  0
LINE
  5
CF
330
2
100
AcDbEntity
  8
GAIKEI
370
    40
100
AcDbLine
 10
14.86414053297
 20
23.89565960228253
 30
0.0
 11
14.87234979052721
 21
23.87954710618067
 31
0.0
  0
LINE
  5
D0
330
2
100
AcDbEntity
  8
GAIKEI
370
    40
100
AcDbLine
 10
14.84782671387901
 20
23.93616889427983
 30
0.0
 11
14.86414053297
 21
23.89565960228253
 31
0.0
  0
LINE
  5
D1
330
2
100
AcDbEntity
  8
GAIKEI
370
    40
100
AcDbLine
 10
14.82391587698231
 20
24.01042500275946
 30
0.0
 11
14.84782671387901
 21
23.93616889427983
 31
0.0
  0
LINE
  5
D2
330
2
100
AcDbEntity
  8
GAIKEI
370
    40
100
AcDbLine
 10
14.80224299323316
 20
24.0907665928147
 30
0.0
 11
14.82391587698231
 21
24.01042500275946
 31
0.0
  0
LINE
  5
D3
330
2
100
AcDbEntity
  8
GAIKEI
370
    40
100
AcDbLine
 10
15.04028180860467
 20
21.69526348025318
 30
0.0
 11
15.02303823234254
 21
21.34565118189653
 31
0.0
  0
LINE
  5
D4
330
2
100
AcDbEntity
  8
GAIKEI
370
    40
100
AcDbLine
 10
15.04629023067966
 20
21.87086917218437
 30
0.0
 11
15.04028180860467
 21
21.69526348025318
 31
0.0
  0
LINE
  5
D5
330
2
100
AcDbEntity
  8
GAIKEI
370
    40
100
AcDbLine
 10
15.05027029338032
 20
22.13474389988869
 30
0.0
 11
15.04629023067966
 21
21.87086917218437
 31
0.0
  0
LINE
  5
D6
330
2
100
AcDbEntity
  8
GAIKEI
370
    40
100
AcDbLine
 10
15.03648955322154
 20
22.29808966730729
 30
0.0
 11
15.05026726748369
 21
22.13473946190697
 31
0.0
  0
LINE
  5
D7
330
2
100
AcDbEntity
  8
GAIKEI
370
    40
100
AcDbLine
 10
15.0262426568737
 20
22.56577520922736
 30
0.0
 11
15.03648955322154
 21
22.29808966730729
 31
0.0
  0
LINE
  5
D8
330
2
100
AcDbEntity
  8
GAIKEI
370
    40
100
AcDbLine
 10
14.63752145148007
 20
24.87322594021453
 30
0.0
 11
14.62470133263809
 21
24.87928378526783
 31
0.0
  0
LINE
  5
D9
330
2
100
AcDbEntity
  8
GAIKEI
370
    40
100
AcDbLine
 10
14.65132377636817
 20
24.86234642974455
 30
0.0
 11
14.63752145148007
 21
24.87322594021453
 31
0.0
  0
LINE
  5
DA
330
2
100
AcDbEntity
  8
GAIKEI
370
    40
100
AcDbLine
 10
14.67049424360431
 20
24.84206323945443
 30
0.0
 11
14.65132377636817
 21
24.86234642974455
 31
0.0
  0
LINE
  5
DB
330
2
100
AcDbEntity
  8
GAIKEI
370
    40
100
AcDbLine
 10
14.70901975777104
 20
24.78848893271447
 30
0.0
 11
14.67049424360431
 21
24.84206323945443
 31
0.0
  0
LINE
  5
DC
330
2
100
AcDbEntity
  8
GAIKEI
370
    40
100
AcDbLine
 10
14.75769675167851
 20
24.70199730862191
 30
0.0
 11
14.70901975777104
 21
24.78848893271447
 31
0.0
  0
LINE
  5
DD
330
2
100
AcDbEntity
  8
GAIKEI
370
    40
100
AcDbLine
 10
14.80318182809424
 20
24.60377972990875
 30
0.0
 11
14.75769675167851
 21
24.70199730862191
 31
0.0
  0
LINE
  5
DE
330
2
100
AcDbEntity
  8
GAIKEI
370
    40
100
AcDbLine
 10
14.86149347859805
 20
24.44983320432857
 30
0.0
 11
14.80318182809424
 21
24.60377972990875
 31
0.0
  0
LINE
  5
DF
330
2
100
AcDbEntity
  8
GAIKEI
370
    40
100
AcDbLine
 10
14.91065986085385
 20
24.28505618780401
 30
0.0
 11
14.86149347859805
 21
24.44983320432857
 31
0.0
  0
LINE
  5
E0
330
2
100
AcDbEntity
  8
GAIKEI
370
    40
100
AcDbLine
 10
14.94909318603658
 20
24.11364761622508
 30
0.0
 11
14.91065986085385
 21
24.28505618780401
 31
0.0
  0
LINE
  5
E1
330
2
100
AcDbEntity
  8
GAIKEI
370
    40
100
AcDbLine
 10
14.96903908971575
 20
23.98648975696324
 30
0.0
 11
14.94909318603658
 21
24.11364761622508
 31
0.0
  0
LINE
  5
E2
330
2
100
AcDbEntity
  8
GAIKEI
370
    40
100
AcDbLine
 10
14.97995712993614
 20
23.86277456116056
 30
0.0
 11
14.96903908971575
 21
23.98648975696324
 31
0.0
  0
LINE
  5
E3
330
2
100
AcDbEntity
  8
GAIKEI
370
    13
100
AcDbLine
 10
14.92863610755336
 20
21.72053153265176
 30
0.0
 11
14.90519004837901
 21
21.36846906493054
 31
0.0
  0
LINE
  5
E4
330
2
100
AcDbEntity
  8
GAIKEI
370
    13
100
AcDbLine
 10
14.94252436790572
 20
22.07177378065967
 30
0.0
 11
14.92863610755336
 21
21.72053153265176
 31
0.0
  0
LINE
  5
E5
330
2
100
AcDbEntity
  8
GAIKEI
370
    13
100
AcDbLine
 10
14.94437742700194
 20
22.24761650116022
 30
0.0
 11
14.94252436790572
 21
22.07177378065967
 31
0.0
  0
LINE
  5
E6
330
2
100
AcDbEntity
  8
GAIKEI
370
    13
100
AcDbLine
 10
14.94217659151971
 20
22.42344671462138
 30
0.0
 11
14.94437742700194
 21
22.24761650116022
 31
0.0
  0
LINE
  5
E7
330
2
100
AcDbEntity
  8
GAIKEI
370
    13
100
AcDbLine
 10
14.93226516624494
 20
22.65737938826601
 30
0.0
 11
14.94217659151971
 21
22.42344671462138
 31
0.0
  0
LINE
  5
E8
330
2
100
AcDbEntity
  8
GAIKEI
370
    13
100
AcDbLine
 10
14.91376564115487
 20
22.89010997404273
 30
0.0
 11
14.93226516624494
 21
22.65737938826601
 31
0.0
  0
LINE
  5
E9
330
2
100
AcDbEntity
  8
GAIKEI
370
    13
100
AcDbLine
 10
14.88623220081274
 20
23.12094917269928
 30
0.0
 11
14.91376564115487
 21
22.89010997404273
 31
0.0
  0
LINE
  5
EA
330
2
100
AcDbEntity
  8
GAIKEI
370
    13
100
AcDbLine
 10
14.84985809914994
 20
23.34702339106934
 30
0.0
 11
14.88623220081274
 21
23.12094917269928
 31
0.0
  0
LINE
  5
EB
330
2
100
AcDbEntity
  8
GAIKEI
370
    13
100
AcDbLine
 10
14.80442849750579
 20
23.56986413630068
 30
0.0
 11
14.84985809914994
 21
23.34702339106934
 31
0.0
  0
LINE
  5
EC
330
2
100
AcDbEntity
  8
GAIKEI
370
    13
100
AcDbLine
 10
14.75014613095445
 20
23.78874176385239
 30
0.0
 11
14.80442849750579
 21
23.56986413630068
 31
0.0
  0
LINE
  5
ED
330
2
100
AcDbEntity
  8
GAIKEI
370
    13
100
AcDbLine
 10
14.70433163525894
 20
23.94825957030764
 30
0.0
 11
14.75014613095445
 21
23.78874176385239
 31
0.0
  0
LINE
  5
EE
330
2
100
AcDbEntity
  8
GAIKEI
370
    13
100
AcDbLine
 10
14.6541001373894
 20
24.10476721479529
 30
0.0
 11
14.70433163525894
 21
23.94825957030764
 31
0.0
  0
LINE
  5
EF
330
2
100
AcDbEntity
  8
GAIKEI
370
    13
100
AcDbLine
 10
14.58168478269312
 20
24.30579346431512
 30
0.0
 11
14.6541001373894
 21
24.10476721479529
 31
0.0
  0
LINE
  5
F0
330
2
100
AcDbEntity
  8
GAIKEI
370
    13
100
AcDbLine
 10
14.50275003284429
 20
24.50061884473428
 30
0.0
 11
14.58168478269312
 21
24.30579346431512
 31
0.0
  0
LINE
  5
F1
330
2
100
AcDbEntity
  8
GAIKEI
370
    13
100
AcDbLine
 10
14.41781593861037
 20
24.68928934968165
 30
0.0
 11
14.50275003284429
 21
24.50061884473428
 31
0.0
  0
LINE
  5
F2
330
2
100
AcDbEntity
  8
GAIKEI
370
    40
100
AcDbLine
 10
15.38291134617151
 20
23.03023440554341
 30
0.0
 11
15.39676914583114
 21
23.02914488103022
 31
0.0
  0
LINE
  5
F3
330
2
100
AcDbEntity
  8
GAIKEI
370
    40
100
AcDbLine
 10
15.35521470913778
 20
23.03821288805102
 30
0.0
 11
15.38291134617151
 21
23.03023440554341
 31
0.0
  0
LINE
  5
F4
330
2
100
AcDbEntity
  8
GAIKEI
370
    40
100
AcDbLine
 10
15.33059298825947
 20
23.05361571052992
 30
0.0
 11
15.35521470913778
 21
23.03821288805102
 31
0.0
  0
LINE
  5
F5
330
2
100
AcDbEntity
  8
GAIKEI
370
    40
100
AcDbLine
 10
15.31148727521122
 20
23.07521173650469
 30
0.0
 11
15.33059298825947
 21
23.05361571052992
 31
0.0
  0
LINE
  5
F6
330
2
100
AcDbEntity
  8
GAIKEI
370
    40
100
AcDbLine
 10
15.30192342459599
 20
23.09417281169396
 30
0.0
 11
15.31148727521122
 21
23.07521173650469
 31
0.0
  0
LINE
  5
F7
330
2
100
AcDbEntity
  8
GAIKEI
370
    40
100
AcDbLine
 10
15.29683850617249
 20
23.11458672071865
 30
0.0
 11
15.30192342459599
 21
23.09417281169396
 31
0.0
  0
LINE
  5
F8
330
2
100
AcDbEntity
  8
GAIKEI
370
    40
100
AcDbLine
 10
15.28553879952386
 20
23.97073754428675
 30
0.0
 11
15.29310777735415
 21
23.86761196123973
 31
0.0
  0
LINE
  5
F9
330
2
100
AcDbEntity
  8
GAIKEI
370
    40
100
AcDbLine
 10
15.271434893605
 20
24.07722893301855
 30
0.0
 11
15.28553879952386
 21
23.97073754428675
 31
0.0
  0
LINE
  5
FA
330
2
100
AcDbEntity
  8
GAIKEI
370
    40
100
AcDbLine
 10
15.24683778335262
 20
24.20856535379994
 30
0.0
 11
15.271434893605
 21
24.07722893301855
 31
0.0
  0
LINE
  5
FB
330
2
100
AcDbEntity
  8
GAIKEI
370
    40
100
AcDbLine
 10
15.21545358695914
 20
24.3376749163881
 30
0.0
 11
15.24683778335262
 21
24.20856535379994
 31
0.0
  0
LINE
  5
FC
330
2
100
AcDbEntity
  8
GAIKEI
370
    40
100
AcDbLine
 10
15.16095880246436
 20
24.5129189128088
 30
0.0
 11
15.21545358695914
 21
24.3376749163881
 31
0.0
  0
LINE
  5
FD
330
2
100
AcDbEntity
  8
GAIKEI
370
    40
100
AcDbLine
 10
15.12984229705944
 20
24.59539033063879
 30
0.0
 11
15.16095880246436
 21
24.5129189128088
 31
0.0
  0
LINE
  5
FE
330
2
100
AcDbEntity
  8
GAIKEI
370
    40
100
AcDbLine
 10
15.09637406479365
 20
24.67331564137192
 30
0.0
 11
15.12984229705944
 21
24.59539033063879
 31
0.0
  0
LINE
  5
FF
330
2
100
AcDbEntity
  8
GAIKEI
370
    40
100
AcDbLine
 10
15.05320985109316
 20
24.75915609250967
 30
0.0
 11
15.09637406479365
 21
24.67331564137192
 31
0.0
  0
LINE
  5
100
330
2
100
AcDbEntity
  8
GAIKEI
370
    40
100
AcDbLine
 10
15.00786941253634
 20
24.83126986617515
 30
0.0
 11
15.05320985109316
 21
24.75915609250967
 31
0.0
  0
LINE
  5
101
330
2
100
AcDbEntity
  8
GAIKEI
370
    40
100
AcDbLine
 10
14.98148097147901
 20
24.86286204253031
 30
0.0
 11
15.00786941253634
 21
24.83126986617515
 31
0.0
  0
LINE
  5
102
330
2
100
AcDbEntity
  8
GAIKEI
370
    40
100
AcDbLine
 10
14.96865137149424
 20
24.87441108306132
 30
0.0
 11
14.98148097147901
 21
24.86286204253031
 31
0.0
  0
LINE
  5
103
330
2
100
AcDbEntity
  8
GAIKEI
370
    40
100
AcDbLine
 10
14.95075843781527
 20
24.88426400766787
 30
0.0
 11
14.96865137149424
 21
24.87441108306132
 31
0.0
  0
LINE
  5
104
330
2
100
AcDbEntity
  8
GAIKEI
370
    13
100
AcDbLine
 10
13.83116357249656
 20
25.48272846559303
 30
0.0
 11
13.97359050960622
 21
25.29543998849988
 31
0.0
  0
LINE
  5
105
330
2
100
AcDbEntity
  8
GAIKEI
370
    13
100
AcDbLine
 10
13.68691766805935
 20
25.65158862703015
 30
0.0
 11
13.83116357249656
 21
25.48272846559303
 31
0.0
  0
LINE
  5
106
330
2
100
AcDbEntity
  8
GAIKEI
370
    13
100
AcDbLine
 10
13.58579280786409
 20
25.759592964077
 30
0.0
 11
13.68691766805935
 21
25.65158862703015
 31
0.0
  0
LINE
  5
107
330
2
100
AcDbEntity
  8
GAIKEI
370
    13
100
AcDbLine
 10
13.48474500716966
 20
25.86021451679949
 30
0.0
 11
13.58579280786409
 21
25.759592964077
 31
0.0
  0
LINE
  5
108
330
2
100
AcDbEntity
  8
GAIKEI
370
    13
100
AcDbLine
 10
13.37357013563394
 20
25.96356946281105
 30
0.0
 11
13.48474500716966
 21
25.86021451679949
 31
0.0
  0
LINE
  5
109
330
2
100
AcDbEntity
  8
GAIKEI
370
    13
100
AcDbLine
 10
13.26496223307268
 20
26.05809484245629
 30
0.0
 11
13.37357013563394
 21
25.96356946281105
 31
0.0
  0
LINE
  5
10A
330
2
100
AcDbEntity
  8
GAIKEI
370
    40
100
AcDbLine
 10
15.0110613300281
 20
24.82686678312564
 30
0.0
 11
15.05662971946438
 21
24.75293989219949
 31
0.0
  0
LINE
  5
10B
330
2
100
AcDbEntity
  8
GAIKEI
370
    40
100
AcDbLine
 10
14.98322308103212
 20
24.86107676351867
 30
0.0
 11
15.0110613300281
 21
24.82686678312564
 31
0.0
  0
LINE
  5
10C
330
2
100
AcDbEntity
  8
GAIKEI
370
    40
100
AcDbLine
 10
14.96965475881674
 20
24.87361991195576
 30
0.0
 11
14.98322308103212
 21
24.86107676351867
 31
0.0
  0
LINE
  5
10D
330
2
100
AcDbEntity
  8
GAIKEI
370
    40
100
AcDbLine
 10
14.95075843781527
 20
24.88426400766787
 30
0.0
 11
14.96965475881674
 21
24.87361991195576
 31
0.0
  0
LINE
  5
10E
330
2
100
AcDbEntity
  8
GAIKEI
370
    13
100
AcDbLine
 10
13.87671340310015
 20
25.55763877292395
 30
0.0
 11
14.02180897931106
 21
25.36645475650937
 31
0.0
  0
LINE
  5
10F
330
2
100
AcDbEntity
  8
GAIKEI
370
    13
100
AcDbLine
 10
13.72986018440011
 20
25.72994785133995
 30
0.0
 11
13.87671340310015
 21
25.55763877292395
 31
0.0
  0
LINE
  5
110
330
2
100
AcDbEntity
  8
GAIKEI
370
    13
100
AcDbLine
 10
13.62617138112699
 20
25.84095629856108
 30
0.0
 11
13.72986018440011
 21
25.72994785133995
 31
0.0
  0
LINE
  5
111
330
2
100
AcDbEntity
  8
GAIKEI
370
    13
100
AcDbLine
 10
13.52260240336048
 20
25.94430821867604
 30
0.0
 11
13.62617138112699
 21
25.84095629856108
 31
0.0
  0
LINE
  5
112
330
2
100
AcDbEntity
  8
GAIKEI
370
    13
100
AcDbLine
 10
13.41052581462901
 20
26.04876217034359
 30
0.0
 11
13.52260240336048
 21
25.94430821867604
 31
0.0
  0
LINE
  5
113
330
2
100
AcDbEntity
  8
GAIKEI
370
    13
100
AcDbLine
 10
13.30107469554019
 20
26.14433551885509
 30
0.0
 11
13.41052581462901
 21
26.04876217034359
 31
0.0
  0
LINE
  5
114
330
2
100
AcDbEntity
  8
GAIKEI
370
    40
100
AcDbLine
 10
13.23219278120197
 20
27.39861405180727
 30
0.0
 11
13.28052522634652
 21
27.39324893535593
 31
0.0
  0
LINE
  5
115
330
2
100
AcDbEntity
  8
GAIKEI
370
    40
100
AcDbLine
 10
13.20569964412124
 20
27.40766067582524
 30
0.0
 11
13.23219278120197
 21
27.39861405180727
 31
0.0
  0
LINE
  5
116
330
2
100
AcDbEntity
  8
GAIKEI
370
    40
100
AcDbLine
 10
13.1839898444332
 20
27.42193988202223
 30
0.0
 11
13.20569964412124
 21
27.40766067582524
 31
0.0
  0
LINE
  5
117
330
2
100
AcDbEntity
  8
GAIKEI
370
    40
100
AcDbLine
 10
13.17511569652316
 20
27.43407695513156
 30
0.0
 11
13.1839898444332
 21
27.42193988202223
 31
0.0
  0
LINE
  5
118
330
2
100
AcDbEntity
  8
GAIKEI
370
    40
100
AcDbLine
 10
13.17287794510207
 20
27.44803622319148
 30
0.0
 11
13.17511569652316
 21
27.43407695513156
 31
0.0
  0
LINE
  5
119
330
2
100
AcDbEntity
  8
GAIKEI
370
    40
100
AcDbLine
 10
12.88433348562631
 20
27.17228142186502
 30
0.0
 11
12.87410192048807
 21
27.26841355262081
 31
0.0
  0
LINE
  5
11A
330
2
100
AcDbEntity
  8
GAIKEI
370
    40
100
AcDbLine
 10
12.90186956522939
 20
27.09688011237427
 30
0.0
 11
12.88433348562631
 21
27.17228142186502
 31
0.0
  0
LINE
  5
11B
330
2
100
AcDbEntity
  8
GAIKEI
370
    40
100
AcDbLine
 10
12.93150862617312
 20
27.01595069146697
 30
0.0
 11
12.90186956522939
 21
27.09688011237427
 31
0.0
  0
LINE
  5
11C
330
2
100
AcDbEntity
  8
GAIKEI
370
    40
100
AcDbLine
 10
12.96331765845343
 20
26.95451490355583
 30
0.0
 11
12.93150862617312
 21
27.01595069146697
 31
0.0
  0
LINE
  5
11D
330
2
100
AcDbEntity
  8
GAIKEI
370
    40
100
AcDbLine
 10
12.98895829959031
 20
26.91569386015158
 30
0.0
 11
12.96331765845343
 21
26.95451490355583
 31
0.0
  0
LINE
  5
11E
330
2
100
AcDbEntity
  8
GAIKEI
370
    40
100
AcDbLine
 10
13.0137462430568
 20
26.88481438331598
 30
0.0
 11
12.98895829959031
 21
26.91569386015158
 31
0.0
  0
LINE
  5
11F
330
2
100
AcDbEntity
  8
GAIKEI
370
    40
100
AcDbLine
 10
13.05925290420183
 20
26.84318914064147
 30
0.0
 11
13.0137462430568
 21
26.88481438331598
 31
0.0
  0
LINE
  5
120
330
2
100
AcDbEntity
  8
GAIKEI
370
    13
100
AcDbLine
 10
13.10313728130026
 20
26.65843233039538
 30
0.0
 11
13.15462170210108
 21
26.69517559144708
 31
0.0
  0
LINE
  5
121
330
2
100
AcDbEntity
  8
GAIKEI
370
    13
100
AcDbLine
 10
12.98710524049409
 20
26.56786240282497
 30
0.0
 11
13.10313728130026
 21
26.65843233039538
 31
0.0
  0
LINE
  5
122
330
2
100
AcDbEntity
  8
GAIKEI
370
    13
100
AcDbLine
 10
12.87200275513263
 20
26.47381410621495
 30
0.0
 11
12.98710524049409
 21
26.56786240282497
 31
0.0
  0
LINE
  5
123
330
2
100
AcDbEntity
  8
GAIKEI
370
    13
100
AcDbLine
 10
12.81913005295797
 20
27.50067169507043
 30
0.0
 11
12.86600341074757
 21
27.54302012703943
 31
0.0
  0
LINE
  5
124
330
2
100
AcDbEntity
  8
GAIKEI
370
    13
100
AcDbLine
 10
12.75671246245369
 20
27.43763520784205
 30
0.0
 11
12.81913005295797
 21
27.50067169507043
 31
0.0
  0
LINE
  5
125
330
2
100
AcDbEntity
  8
GAIKEI
370
    13
100
AcDbLine
 10
12.69215536130551
 20
27.36525979498129
 30
0.0
 11
12.75671246245369
 21
27.43763520784205
 31
0.0
  0
LINE
  5
126
330
2
100
AcDbEntity
  8
GAIKEI
370
    40
100
AcDbLine
 10
12.98866882214602
 20
28.22288039740579
 30
0.0
 11
12.96906746722976
 21
28.16521225425197
 31
0.0
  0
LINE
  5
127
330
2
100
AcDbEntity
  8
GAIKEI
370
    40
100
AcDbLine
 10
12.98919835405627
 20
28.22531826145734
 30
0.0
 11
12.98866882214602
 21
28.22288039740579
 31
0.0
  0
LINE
  5
128
330
2
100
AcDbEntity
  8
GAIKEI
370
    40
100
AcDbLine
 10
12.98913985338811
 20
28.22567834315634
 30
0.0
 11
12.98919835405627
 21
28.22531826145734
 31
0.0
  0
LINE
  5
129
330
2
100
AcDbEntity
  8
GAIKEI
370
    13
100
AcDbLine
 10
-11.26002384045341
 20
21.29595365391901
 30
0.0
 11
-11.2590065340064
 21
21.37297240602174
 31
0.0
  0
LINE
  5
12A
330
2
100
AcDbEntity
  8
GAIKEI
370
    13
100
AcDbLine
 10
-11.2706447376247
 20
21.04822188300943
 30
0.0
 11
-11.26002384045341
 21
21.29595365391901
 31
0.0
  0
LINE
  5
12B
330
2
100
AcDbEntity
  8
GAIKEI
370
    13
100
AcDbLine
 10
-11.29240073266797
 20
20.80168614817432
 30
0.0
 11
-11.2706447376247
 21
21.04822188300943
 31
0.0
  0
LINE
  5
12C
330
2
100
AcDbEntity
  8
GAIKEI
370
    13
100
AcDbLine
 10
-11.325634962261
 20
20.5540035985166
 30
0.0
 11
-11.29240073266797
 21
20.80168614817432
 31
0.0
  0
LINE
  5
12D
330
2
100
AcDbEntity
  8
GAIKEI
370
    13
100
AcDbLine
 10
-11.37065223505774
 20
20.30549154972925
 30
0.0
 11
-11.325634962261
 21
20.5540035985166
 31
0.0
  0
LINE
  5
12E
330
2
100
AcDbEntity
  8
GAIKEI
370
    13
100
AcDbLine
 10
-11.4276863520044
 20
20.05686411341719
 30
0.0
 11
-11.37065223505774
 21
20.30549154972925
 31
0.0
  0
LINE
  5
12F
330
2
100
AcDbEntity
  8
GAIKEI
370
    13
100
AcDbLine
 10
-11.49681598641336
 20
19.80920456057379
 30
0.0
 11
-11.4276863520044
 21
20.05686411341719
 31
0.0
  0
LINE
  5
130
330
2
100
AcDbEntity
  8
GAIKEI
370
    13
100
AcDbLine
 10
-11.57602165487381
 20
19.56914041172456
 30
0.0
 11
-11.49681598641336
 21
19.80920456057379
 31
0.0
  0
LINE
  5
131
330
2
100
AcDbEntity
  8
GAIKEI
370
    13
100
AcDbLine
 10
-11.66641164245806
 20
19.33248221212204
 30
0.0
 11
-11.57602165487381
 21
19.56914041172456
 31
0.0
  0
LINE
  5
132
330
2
100
AcDbEntity
  8
GAIKEI
370
    13
100
AcDbLine
 10
-11.76657769687452
 20
19.10252798736656
 30
0.0
 11
-11.66641164245806
 21
19.33248221212204
 31
0.0
  0
LINE
  5
133
330
2
100
AcDbEntity
  8
GAIKEI
370
    13
100
AcDbLine
 10
-11.8780388182314
 20
18.87569204995145
 30
0.0
 11
-11.76657769687452
 21
19.10252798736656
 31
0.0
  0
LINE
  5
134
330
2
100
AcDbEntity
  8
GAIKEI
370
    13
100
AcDbLine
 10
-12.00088416961614
 20
18.65242041704016
 30
0.0
 11
-11.8780388182314
 21
18.87569204995145
 31
0.0
  0
LINE
  5
135
330
2
100
AcDbEntity
  8
GAIKEI
370
    13
100
AcDbLine
 10
-12.1349695166227
 20
18.43354884128166
 30
0.0
 11
-12.00088416961614
 21
18.65242041704016
 31
0.0
  0
LINE
  5
136
330
2
100
AcDbEntity
  8
GAIKEI
370
    13
100
AcDbLine
 10
-12.2783504180766
 20
18.22231119926778
 30
0.0
 11
-12.1349695166227
 21
18.43354884128166
 31
0.0
  0
LINE
  5
137
330
2
100
AcDbEntity
  8
GAIKEI
370
    13
100
AcDbLine
 10
-12.43168914188695
 20
18.01762038720255
 30
0.0
 11
-12.2783504180766
 21
18.22231119926778
 31
0.0
  0
LINE
  5
138
330
2
100
AcDbEntity
  8
GAIKEI
370
    13
100
AcDbLine
 10
-12.59160878741466
 20
17.82354300843042
 30
0.0
 11
-12.43168914188695
 21
18.01762038720255
 31
0.0
  0
LINE
  5
139
330
2
100
AcDbEntity
  8
GAIKEI
370
    13
100
AcDbLine
 10
-12.76100755845195
 20
17.63621136187862
 30
0.0
 11
-12.59160878741466
 21
17.82354300843042
 31
0.0
  0
LINE
  5
13A
330
2
100
AcDbEntity
  8
GAIKEI
370
    13
100
AcDbLine
 10
-12.93983280439744
 20
17.45594094770263
 30
0.0
 11
-12.76100755845195
 21
17.63621136187862
 31
0.0
  0
LINE
  5
13B
330
2
100
AcDbEntity
  8
GAIKEI
370
    13
100
AcDbLine
 10
-13.12792173201248
 20
17.28317778306564
 30
0.0
 11
-12.93983280439744
 21
17.45594094770263
 31
0.0
  0
LINE
  5
13C
330
2
100
AcDbEntity
  8
GAIKEI
370
    13
100
AcDbLine
 10
-13.32498183795613
 20
17.11847016043703
 30
0.0
 11
-13.12792173201248
 21
17.28317778306564
 31
0.0
  0
LINE
  5
13D
330
2
100
AcDbEntity
  8
GAIKEI
370
    13
100
AcDbLine
 10
-13.53055137040266
 20
16.9624458525044
 30
0.0
 11
-13.32498183795613
 21
17.11847016043703
 31
0.0
  0
LINE
  5
13E
330
2
100
AcDbEntity
  8
GAIKEI
370
    13
100
AcDbLine
 10
-13.74220920859523
 20
16.81694702513596
 30
0.0
 11
-13.53055137040266
 21
16.9624458525044
 31
0.0
  0
LINE
  5
13F
330
2
100
AcDbEntity
  8
GAIKEI
370
    13
100
AcDbLine
 10
-13.96085908699393
 20
16.68129365849575
 30
0.0
 11
-13.74220920859523
 21
16.81694702513596
 31
0.0
  0
LINE
  5
140
330
2
100
AcDbEntity
  8
GAIKEI
370
    13
100
AcDbLine
 10
-14.20571423884064
 20
16.54553700791723
 30
0.0
 11
-13.96085908699393
 21
16.68129365849575
 31
0.0
  0
LINE
  5
141
330
2
100
AcDbEntity
  8
GAIKEI
370
    13
100
AcDbLine
 10
-14.45752310286954
 20
16.42232068160558
 30
0.0
 11
-14.20571423884064
 21
16.54553700791723
 31
0.0
  0
LINE
  5
142
330
2
100
AcDbEntity
  8
GAIKEI
370
    13
100
AcDbLine
 10
-14.7157817664285
 20
16.31196461769798
 30
0.0
 11
-14.45752310286954
 21
16.42232068160558
 31
0.0
  0
LINE
  5
143
330
2
100
AcDbEntity
  8
GAIKEI
370
    13
100
AcDbLine
 10
-14.97993225417897
 20
16.21480731316399
 30
0.0
 11
-14.7157817664285
 21
16.31196461769798
 31
0.0
  0
LINE
  5
144
330
2
100
AcDbEntity
  8
GAIKEI
370
    13
100
AcDbLine
 10
-15.24935385385887
 20
16.13117697692473
 30
0.0
 11
-14.97993225417897
 21
16.21480731316399
 31
0.0
  0
LINE
  5
145
330
2
100
AcDbEntity
  8
GAIKEI
370
    13
100
AcDbLine
 10
-15.523370983614
 20
16.06139475747591
 30
0.0
 11
-15.24935385385887
 21
16.13117697692473
 31
0.0
  0
LINE
  5
146
330
2
100
AcDbEntity
  8
GAIKEI
370
    13
100
AcDbLine
 10
-15.80125036782766
 20
16.0057549736963
 30
0.0
 11
-15.523370983614
 21
16.06139475747591
 31
0.0
  0
LINE
  5
147
330
2
100
AcDbEntity
  8
GAIKEI
370
    13
100
AcDbLine
 10
-16.08219417842173
 20
15.96451159917649
 30
0.0
 11
-15.80125036782766
 21
16.0057549736963
 31
0.0
  0
LINE
  5
148
330
2
100
AcDbEntity
  8
GAIKEI
370
    13
100
AcDbLine
 10
-16.36534245557396
 20
15.93787059661383
 30
0.0
 11
-16.08219417842173
 21
15.96451159917649
 31
0.0
  0
LINE
  5
149
330
2
100
AcDbEntity
  8
GAIKEI
370
    13
100
AcDbLine
 10
-16.64977512498245
 20
15.92597519178196
 30
0.0
 11
-16.36534245557396
 21
15.93787059661383
 31
0.0
  0
LINE
  5
14A
330
2
100
AcDbEntity
  8
GAIKEI
370
    13
100
AcDbLine
 10
-16.73606199673642
 20
15.92529497021951
 30
0.0
 11
-16.64977512498245
 21
15.92597519178196
 31
0.0
  0
LINE
  5
14B
330
2
100
AcDbEntity
  8
GAIKEI
370
    40
100
AcDbLine
 10
-11.38076236087789
 20
18.04970033809457
 30
0.0
 11
-11.30762805314231
 21
18.08468615838353
 31
0.0
  0
LINE
  5
14C
330
2
100
AcDbEntity
  8
GAIKEI
370
    40
100
AcDbLine
 10
-11.44730001223362
 20
18.00597593006455
 30
0.0
 11
-11.38076236087789
 21
18.04970033809457
 31
0.0
  0
LINE
  5
14D
330
2
100
AcDbEntity
  8
GAIKEI
370
    40
100
AcDbLine
 10
-11.50667052483152
 20
17.95464865416215
 30
0.0
 11
-11.44730001223362
 21
18.00597593006455
 31
0.0
  0
LINE
  5
14E
330
2
100
AcDbEntity
  8
GAIKEI
370
    40
100
AcDbLine
 10
-11.55849949439528
 20
17.89677111896151
 30
0.0
 11
-11.50667052483152
 21
17.95464865416215
 31
0.0
  0
LINE
  5
14F
330
2
100
AcDbEntity
  8
GAIKEI
370
    40
100
AcDbLine
 10
-11.61045474471169
 20
17.81992484296665
 30
0.0
 11
-11.55849949439528
 21
17.89677111896151
 31
0.0
  0
LINE
  5
150
330
2
100
AcDbEntity
  8
GAIKEI
370
    40
100
AcDbLine
 10
-11.65093034839322
 20
17.73639274750462
 30
0.0
 11
-11.61045474471169
 21
17.81992484296665
 31
0.0
  0
LINE
  5
151
330
2
100
AcDbEntity
  8
GAIKEI
370
    40
100
AcDbLine
 10
-11.67963662626914
 20
17.6475572638825
 30
0.0
 11
-11.65093034839322
 21
17.73639274750462
 31
0.0
  0
LINE
  5
152
330
2
100
AcDbEntity
  8
GAIKEI
370
    40
100
AcDbLine
 10
-11.69629701138748
 20
17.55478488701817
 30
0.0
 11
-11.67963662626914
 21
17.6475572638825
 31
0.0
  0
LINE
  5
153
330
2
100
AcDbEntity
  8
GAIKEI
370
    40
100
AcDbLine
 10
-11.70065551289332
 20
17.45945905685107
 30
0.0
 11
-11.69629701138748
 21
17.55478488701817
 31
0.0
  0
LINE
  5
154
330
2
100
AcDbEntity
  8
GAIKEI
370
    40
100
AcDbLine
 10
-11.43151552332645
 20
17.85298659645184
 30
0.0
 11
-11.38203666681201
 21
17.94202844622418
 31
0.0
  0
LINE
  5
155
330
2
100
AcDbEntity
  8
GAIKEI
370
    40
100
AcDbLine
 10
-11.49677281695477
 20
17.74224281432259
 30
0.0
 11
-11.43151552332645
 21
17.85298659645184
 31
0.0
  0
LINE
  5
156
330
2
100
AcDbEntity
  8
GAIKEI
370
    40
100
AcDbLine
 10
-11.62709193128918
 20
17.54468706651096
 30
0.0
 11
-11.49677281695477
 21
17.74224281432259
 31
0.0
  0
LINE
  5
157
330
2
100
AcDbEntity
  8
GAIKEI
370
    40
100
AcDbLine
 10
-11.6770188222313
 20
17.48069338731534
 30
0.0
 11
-11.62709193128918
 21
17.54468706651096
 31
0.0
  0
LINE
  5
158
330
2
100
AcDbEntity
  8
GAIKEI
370
    40
100
AcDbLine
 10
-11.8805597935771
 20
17.21470698721623
 30
0.0
 11
-11.70060003812179
 21
17.45663650047459
 31
0.0
  0
LINE
  5
159
330
2
100
AcDbEntity
  8
GAIKEI
370
    40
100
AcDbLine
 10
-12.07242867126231
 20
16.9805080346681
 30
0.0
 11
-11.8805597935771
 21
17.21470698721623
 31
0.0
  0
LINE
  5
15A
330
2
100
AcDbEntity
  8
GAIKEI
370
    40
100
AcDbLine
 10
-12.27607736452813
 20
16.75455707115418
 30
0.0
 11
-12.07242867126231
 21
16.9805080346681
 31
0.0
  0
LINE
  5
15B
330
2
100
AcDbEntity
  8
GAIKEI
370
    40
100
AcDbLine
 10
-12.4912904295345
 20
16.53749538503336
 30
0.0
 11
-12.27607736452813
 21
16.75455707115418
 31
0.0
  0
LINE
  5
15C
330
2
100
AcDbEntity
  8
GAIKEI
370
    40
100
AcDbLine
 10
-12.69349859427797
 20
16.35131196538941
 30
0.0
 11
-12.4912904295345
 21
16.53749538503336
 31
0.0
  0
LINE
  5
15D
330
2
100
AcDbEntity
  8
GAIKEI
370
    40
100
AcDbLine
 10
-12.90432552125594
 20
16.17344229759965
 30
0.0
 11
-12.69349859427797
 21
16.35131196538941
 31
0.0
  0
LINE
  5
15E
330
2
100
AcDbEntity
  8
GAIKEI
370
    40
100
AcDbLine
 10
-13.12055286681266
 20
16.00652294626104
 30
0.0
 11
-12.90432552125594
 21
16.17344229759965
 31
0.0
  0
LINE
  5
15F
330
2
100
AcDbEntity
  8
GAIKEI
370
    40
100
AcDbLine
 10
-13.34401371912662
 20
15.84903652507671
 30
0.0
 11
-13.12055286681266
 21
16.00652294626104
 31
0.0
  0
LINE
  5
160
330
2
100
AcDbEntity
  8
GAIKEI
370
    40
100
AcDbLine
 10
-13.57307369056474
 20
15.70209414328928
 30
0.0
 11
-13.34401371912662
 21
15.84903652507671
 31
0.0
  0
LINE
  5
161
330
2
100
AcDbEntity
  8
GAIKEI
370
    40
100
AcDbLine
 10
-13.80899478174817
 20
15.56492944214562
 30
0.0
 11
-13.57307369056474
 21
15.70209414328928
 31
0.0
  0
LINE
  5
162
330
2
100
AcDbEntity
  8
GAIKEI
370
    40
100
AcDbLine
 10
-14.07811157277422
 20
15.42477878620741
 30
0.0
 11
-13.80899478174817
 21
15.56492944214562
 31
0.0
  0
LINE
  5
163
330
2
100
AcDbEntity
  8
GAIKEI
370
    40
100
AcDbLine
 10
-14.35423432313092
 20
15.29785170199534
 30
0.0
 11
-14.07811157277422
 21
15.42477878620741
 31
0.0
  0
LINE
  5
164
330
2
100
AcDbEntity
  8
GAIKEI
370
    40
100
AcDbLine
 10
-14.63679315561967
 20
15.18458230481235
 30
0.0
 11
-14.35423432313092
 21
15.29785170199534
 31
0.0
  0
LINE
  5
165
330
2
100
AcDbEntity
  8
GAIKEI
370
    40
100
AcDbLine
 10
-14.92516352517597
 20
15.08539038738422
 30
0.0
 11
-14.63679315561967
 21
15.18458230481235
 31
0.0
  0
LINE
  5
166
330
2
100
AcDbEntity
  8
GAIKEI
370
    40
100
AcDbLine
 10
-15.21866521023742
 20
15.00067193871689
 30
0.0
 11
-14.92516352517597
 21
15.08539038738422
 31
0.0
  0
LINE
  5
167
330
2
100
AcDbEntity
  8
GAIKEI
370
    40
100
AcDbLine
 10
-15.51656533864025
 20
14.93079289057584
 30
0.0
 11
-15.21866521023742
 21
15.00067193871689
 31
0.0
  0
LINE
  5
168
330
2
100
AcDbEntity
  8
GAIKEI
370
    40
100
AcDbLine
 10
-15.8180822204217
 20
14.87607197073964
 30
0.0
 11
-15.51656533864025
 21
14.93079289057584
 31
0.0
  0
LINE
  5
169
330
2
100
AcDbEntity
  8
GAIKEI
370
    40
100
AcDbLine
 10
-16.122380304659
 20
14.83677687019667
 30
0.0
 11
-15.8180822204217
 21
14.87607197073964
 31
0.0
  0
LINE
  5
16A
330
2
100
AcDbEntity
  8
GAIKEI
370
    40
100
AcDbLine
 10
-16.42857522263043
 20
14.81310770157745
 30
0.0
 11
-16.122380304659
 21
14.83677687019667
 31
0.0
  0
LINE
  5
16B
330
2
100
AcDbEntity
  8
GAIKEI
370
    40
100
AcDbLine
 10
-16.73573802407054
 20
14.80519397325781
 30
0.0
 11
-16.42857522263043
 21
14.81310770157745
 31
0.0
  0
LINE
  5
16C
330
2
100
AcDbEntity
  8
GAIKEI
370
    40
100
AcDbLine
 10
-12.19413366307043
 20
16.83481998789716
 30
0.0
 11
-12.03855254813081
 21
17.01183231830839
 31
0.0
  0
LINE
  5
16D
330
2
100
AcDbEntity
  8
GAIKEI
370
    40
100
AcDbLine
 10
-12.35678670188724
 20
16.66293897299101
 30
0.0
 11
-12.19413366307043
 21
16.83481998789716
 31
0.0
  0
LINE
  5
16E
330
2
100
AcDbEntity
  8
GAIKEI
370
    40
100
AcDbLine
 10
-12.52633454876519
 20
16.4965675106688
 30
0.0
 11
-12.35678670188724
 21
16.66293897299101
 31
0.0
  0
LINE
  5
16F
330
2
100
AcDbEntity
  8
GAIKEI
370
    40
100
AcDbLine
 10
-12.72239126738631
 20
16.31878256798472
 30
0.0
 11
-12.52633454876519
 21
16.4965675106688
 31
0.0
  0
LINE
  5
170
330
2
100
AcDbEntity
  8
GAIKEI
370
    40
100
AcDbLine
 10
-12.92643998418663
 20
16.14871426688637
 30
0.0
 11
-12.72239126738631
 21
16.31878256798472
 31
0.0
  0
LINE
  5
171
330
2
100
AcDbEntity
  8
GAIKEI
370
    40
100
AcDbLine
 10
-13.13804113724896
 20
15.98693087076106
 30
0.0
 11
-12.92643998418663
 21
16.14871426688637
 31
0.0
  0
LINE
  5
172
330
2
100
AcDbEntity
  8
GAIKEI
370
    40
100
AcDbLine
 10
-13.35668940183615
 20
15.83398006689867
 30
0.0
 11
-13.13804113724896
 21
15.98693087076106
 31
0.0
  0
LINE
  5
173
330
2
100
AcDbEntity
  8
GAIKEI
370
    40
100
AcDbLine
 10
-13.58191394843251
 20
15.69032037950194
 30
0.0
 11
-13.35668940183615
 21
15.83398006689867
 31
0.0
  0
LINE
  5
174
330
2
100
AcDbEntity
  8
GAIKEI
370
    40
100
AcDbLine
 10
-13.81356428911235
 20
15.55617532146857
 30
0.0
 11
-13.58191394843251
 21
15.69032037950194
 31
0.0
  0
LINE
  5
175
330
2
100
AcDbEntity
  8
GAIKEI
370
    40
100
AcDbLine
 10
-14.05121982424407
 20
15.43193382137872
 30
0.0
 11
-13.81356428911235
 21
15.55617532146857
 31
0.0
  0
LINE
  5
176
330
2
100
AcDbEntity
  8
GAIKEI
370
    40
100
AcDbLine
 10
-14.29440367251882
 20
15.31797330940548
 30
0.0
 11
-14.05121982424407
 21
15.43193382137872
 31
0.0
  0
LINE
  5
177
330
2
100
AcDbEntity
  8
GAIKEI
370
    40
100
AcDbLine
 10
-14.54273557959339
 20
15.21459375276799
 30
0.0
 11
-14.29440367251882
 21
15.31797330940548
 31
0.0
  0
LINE
  5
178
330
2
100
AcDbEntity
  8
GAIKEI
370
    40
100
AcDbLine
 10
-14.7958018045353
 20
15.12209209278887
 30
0.0
 11
-14.54273557959339
 21
15.21459375276799
 31
0.0
  0
LINE
  5
179
330
2
100
AcDbEntity
  8
GAIKEI
370
    40
100
AcDbLine
 10
-15.05314947148218
 20
15.04075175511923
 30
0.0
 11
-14.7958018045353
 21
15.12209209278887
 31
0.0
  0
LINE
  5
17A
330
2
100
AcDbEntity
  8
GAIKEI
370
    40
100
AcDbLine
 10
-15.31428475410408
 20
14.97084507045565
 30
0.0
 11
-15.05314947148218
 21
15.04075175511923
 31
0.0
  0
LINE
  5
17B
330
2
100
AcDbEntity
  8
GAIKEI
370
    40
100
AcDbLine
 10
-15.576572903342
 20
14.91302906181977
 30
0.0
 11
-15.31428475410408
 21
14.97084507045565
 31
0.0
  0
LINE
  5
17C
330
2
100
AcDbEntity
  8
GAIKEI
370
    40
100
AcDbLine
 10
-15.84154199699409
 20
14.86691601099005
 30
0.0
 11
-15.576572903342
 21
14.91302906181977
 31
0.0
  0
LINE
  5
17D
330
2
100
AcDbEntity
  8
GAIKEI
370
    40
100
AcDbLine
 10
-16.1086096508223
 20
14.8326830337827
 30
0.0
 11
-15.84154199699409
 21
14.86691601099005
 31
0.0
  0
LINE
  5
17E
330
2
100
AcDbEntity
  8
GAIKEI
370
    40
100
AcDbLine
 10
-16.37713861099638
 20
14.81046992662186
 30
0.0
 11
-16.1086096508223
 21
14.8326830337827
 31
0.0
  0
LINE
  5
17F
330
2
100
AcDbEntity
  8
GAIKEI
370
    40
100
AcDbLine
 10
-16.55633483186872
 20
14.80239279988416
 30
0.0
 11
-16.37713861099638
 21
14.81046992662186
 31
0.0
  0
LINE
  5
180
330
2
100
AcDbEntity
  8
GAIKEI
370
    40
100
AcDbLine
 10
-16.73573802407054
 20
14.79969349836381
 30
0.0
 11
-16.55633483186872
 21
14.80239279988416
 31
0.0
  0
LINE
  5
181
330
2
100
AcDbEntity
  8
GAIKEI
370
    40
100
AcDbLine
 10
-11.29842307386744
 20
18.0865775455037
 30
0.0
 11
-11.29845393801307
 21
18.08632982543293
 31
0.0
  0
LINE
  5
182
330
2
100
AcDbEntity
  8
GAIKEI
370
    40
100
AcDbLine
 10
-11.29798452058253
 20
18.08776107453889
 30
0.0
 11
-11.29842307386744
 21
18.0865775455037
 31
0.0
  0
LINE
  5
183
330
2
100
AcDbEntity
  8
GAIKEI
370
    40
100
AcDbLine
 10
-11.29390440156663
 20
18.0962951116677
 30
0.0
 11
-11.29798452058253
 21
18.08776107453889
 31
0.0
  0
LINE
  5
184
330
2
100
AcDbEntity
  8
GAIKEI
370
    40
100
AcDbLine
 10
-11.25024918570631
 20
18.17992403582184
 30
0.0
 11
-11.29390440156663
 21
18.0962951116677
 31
0.0
  0
LINE
  5
185
330
2
100
AcDbEntity
  8
GAIKEI
370
    40
100
AcDbLine
 10
-22.04061089086369
 20
17.85298659645184
 30
0.0
 11
-22.09008894047236
 21
17.94202844622418
 31
0.0
  0
LINE
  5
186
330
2
100
AcDbEntity
  8
GAIKEI
370
    40
100
AcDbLine
 10
-21.97535279032956
 20
17.74224281432259
 30
0.0
 11
-22.04061089086369
 21
17.85298659645184
 31
0.0
  0
LINE
  5
187
330
2
100
AcDbEntity
  8
GAIKEI
370
    40
100
AcDbLine
 10
-21.84503367599516
 20
17.54468706651096
 30
0.0
 11
-21.97535279032956
 21
17.74224281432259
 31
0.0
  0
LINE
  5
188
330
2
100
AcDbEntity
  8
GAIKEI
370
    40
100
AcDbLine
 10
-21.79510678505303
 20
17.48069338731534
 30
0.0
 11
-21.84503367599516
 21
17.54468706651096
 31
0.0
  0
LINE
  5
189
330
2
100
AcDbEntity
  8
GAIKEI
370
    40
100
AcDbLine
 10
-22.09136324640645
 20
18.04970033809457
 30
0.0
 11
-22.16449755414203
 21
18.08468615838353
 31
0.0
  0
LINE
  5
18A
330
2
100
AcDbEntity
  8
GAIKEI
370
    40
100
AcDbLine
 10
-22.02482559505074
 20
18.00597593006455
 30
0.0
 11
-22.09136324640645
 21
18.04970033809457
 31
0.0
  0
LINE
  5
18B
330
2
100
AcDbEntity
  8
GAIKEI
370
    40
100
AcDbLine
 10
-21.9654558893586
 20
17.95464865416215
 30
0.0
 11
-22.02482559505074
 21
18.00597593006455
 31
0.0
  0
LINE
  5
18C
330
2
100
AcDbEntity
  8
GAIKEI
370
    40
100
AcDbLine
 10
-21.91362611288909
 20
17.89677111896151
 30
0.0
 11
-21.9654558893586
 21
17.95464865416215
 31
0.0
  0
LINE
  5
18D
330
2
100
AcDbEntity
  8
GAIKEI
370
    40
100
AcDbLine
 10
-21.86167086257268
 20
17.81992484296665
 30
0.0
 11
-21.91362611288909
 21
17.89677111896151
 31
0.0
  0
LINE
  5
18E
330
2
100
AcDbEntity
  8
GAIKEI
370
    40
100
AcDbLine
 10
-21.82119525889112
 20
17.73639274750462
 30
0.0
 11
-21.86167086257268
 21
17.81992484296665
 31
0.0
  0
LINE
  5
18F
330
2
100
AcDbEntity
  8
GAIKEI
370
    40
100
AcDbLine
 10
-21.79248898101523
 20
17.6475572638825
 30
0.0
 11
-21.82119525889112
 21
17.73639274750462
 31
0.0
  0
LINE
  5
190
330
2
100
AcDbEntity
  8
GAIKEI
370
    40
100
AcDbLine
 10
-21.77582799071755
 20
17.55478488701817
 30
0.0
 11
-21.79248898101523
 21
17.6475572638825
 31
0.0
  0
LINE
  5
191
330
2
100
AcDbEntity
  8
GAIKEI
370
    40
100
AcDbLine
 10
-21.77147009439102
 20
17.45945905685107
 30
0.0
 11
-21.77582799071755
 21
17.55478488701817
 31
0.0
  0
LINE
  5
192
330
2
100
AcDbEntity
  8
GAIKEI
370
    40
100
AcDbLine
 10
-21.27799275111968
 20
16.83481998789716
 30
0.0
 11
-21.43357305915353
 21
17.01183231830839
 31
0.0
  0
LINE
  5
193
330
2
100
AcDbEntity
  8
GAIKEI
370
    40
100
AcDbLine
 10
-21.11533971230287
 20
16.66293897299101
 30
0.0
 11
-21.27799275111968
 21
16.83481998789716
 31
0.0
  0
LINE
  5
194
330
2
100
AcDbEntity
  8
GAIKEI
370
    40
100
AcDbLine
 10
-20.94579105851918
 20
16.4965675106688
 30
0.0
 11
-21.11533971230287
 21
16.66293897299101
 31
0.0
  0
LINE
  5
195
330
2
100
AcDbEntity
  8
GAIKEI
370
    40
100
AcDbLine
 10
-20.74973373471869
 20
16.31878256798472
 30
0.0
 11
-20.94579105851918
 21
16.4965675106688
 31
0.0
  0
LINE
  5
196
330
2
100
AcDbEntity
  8
GAIKEI
370
    40
100
AcDbLine
 10
-20.54568562309771
 20
16.14871426688637
 30
0.0
 11
-20.74973373471869
 21
16.31878256798472
 31
0.0
  0
LINE
  5
197
330
2
100
AcDbEntity
  8
GAIKEI
370
    40
100
AcDbLine
 10
-20.33408467176181
 20
15.98693087076106
 30
0.0
 11
-20.54568562309771
 21
16.14871426688637
 31
0.0
  0
LINE
  5
198
330
2
100
AcDbEntity
  8
GAIKEI
370
    40
100
AcDbLine
 10
-20.11543620544822
 20
15.83398006689867
 30
0.0
 11
-20.33408467176181
 21
15.98693087076106
 31
0.0
  0
LINE
  5
199
330
2
100
AcDbEntity
  8
GAIKEI
370
    40
100
AcDbLine
 10
-19.89021246575763
 20
15.69032037950194
 30
0.0
 11
-20.11543620544822
 21
15.83398006689867
 31
0.0
  0
LINE
  5
19A
330
2
100
AcDbEntity
  8
GAIKEI
370
    40
100
AcDbLine
 10
-19.65856131817202
 20
15.55617532146857
 30
0.0
 11
-19.89021246575763
 21
15.69032037950194
 31
0.0
  0
LINE
  5
19B
330
2
100
AcDbEntity
  8
GAIKEI
370
    40
100
AcDbLine
 10
-19.42090658994604
 20
15.43193382137872
 30
0.0
 11
-19.65856131817202
 21
15.55617532146857
 31
0.0
  0
LINE
  5
19C
330
2
100
AcDbEntity
  8
GAIKEI
370
    40
100
AcDbLine
 10
-19.17772274167129
 20
15.31797330940548
 30
0.0
 11
-19.42090658994604
 21
15.43193382137872
 31
0.0
  0
LINE
  5
19D
330
2
100
AcDbEntity
  8
GAIKEI
370
    40
100
AcDbLine
 10
-18.92939002769094
 20
15.21459375276799
 30
0.0
 11
-19.17772274167129
 21
15.31797330940548
 31
0.0
  0
LINE
  5
19E
330
2
100
AcDbEntity
  8
GAIKEI
370
    40
100
AcDbLine
 10
-18.67632400447547
 20
15.12209209278887
 30
0.0
 11
-18.92939002769094
 21
15.21459375276799
 31
0.0
  0
LINE
  5
19F
330
2
100
AcDbEntity
  8
GAIKEI
370
    40
100
AcDbLine
 10
-18.41897694270793
 20
15.04075175511923
 30
0.0
 11
-18.67632400447547
 21
15.12209209278887
 31
0.0
  0
LINE
  5
1A0
330
2
100
AcDbEntity
  8
GAIKEI
370
    40
100
AcDbLine
 10
-18.15784085318026
 20
14.97084507045565
 30
0.0
 11
-18.41897694270793
 21
15.04075175511923
 31
0.0
  0
LINE
  5
1A1
330
2
100
AcDbEntity
  8
GAIKEI
370
    40
100
AcDbLine
 10
-17.89555270394237
 20
14.91302906181977
 30
0.0
 11
-18.15784085318026
 21
14.97084507045565
 31
0.0
  0
LINE
  5
1A2
330
2
100
AcDbEntity
  8
GAIKEI
370
    40
100
AcDbLine
 10
-17.63058361029027
 20
14.86691601099005
 30
0.0
 11
-17.89555270394237
 21
14.91302906181977
 31
0.0
  0
LINE
  5
1A3
330
2
100
AcDbEntity
  8
GAIKEI
370
    40
100
AcDbLine
 10
-17.36351615818847
 20
14.8326830337827
 30
0.0
 11
-17.63058361029027
 21
14.86691601099005
 31
0.0
  0
LINE
  5
1A4
330
2
100
AcDbEntity
  8
GAIKEI
370
    40
100
AcDbLine
 10
-17.09498719801442
 20
14.81046992662186
 30
0.0
 11
-17.36351615818847
 21
14.8326830337827
 31
0.0
  0
LINE
  5
1A5
330
2
100
AcDbEntity
  8
GAIKEI
370
    40
100
AcDbLine
 10
-16.91579077541564
 20
14.80239279988416
 30
0.0
 11
-17.09498719801442
 21
14.81046992662186
 31
0.0
  0
LINE
  5
1A6
330
2
100
AcDbEntity
  8
GAIKEI
370
    40
100
AcDbLine
 10
-16.7363875832138
 20
14.79969349836381
 30
0.0
 11
-16.91579077541564
 21
14.80239279988416
 31
0.0
  0
LINE
  5
1A7
330
2
100
AcDbEntity
  8
GAIKEI
370
    40
100
AcDbLine
 10
-21.59156581370726
 20
17.21470698721623
 30
0.0
 11
-21.77152556916258
 21
17.45663650047459
 31
0.0
  0
LINE
  5
1A8
330
2
100
AcDbEntity
  8
GAIKEI
370
    40
100
AcDbLine
 10
-21.39969713774846
 20
16.9805080346681
 30
0.0
 11
-21.59156581370726
 21
17.21470698721623
 31
0.0
  0
LINE
  5
1A9
330
2
100
AcDbEntity
  8
GAIKEI
370
    40
100
AcDbLine
 10
-21.19604844448264
 20
16.75455707115418
 30
0.0
 11
-21.39969713774846
 21
16.9805080346681
 31
0.0
  0
LINE
  5
1AA
330
2
100
AcDbEntity
  8
GAIKEI
370
    40
100
AcDbLine
 10
-20.98083517774987
 20
16.53749538503336
 30
0.0
 11
-21.19604844448264
 21
16.75455707115418
 31
0.0
  0
LINE
  5
1AB
330
2
100
AcDbEntity
  8
GAIKEI
370
    40
100
AcDbLine
 10
-20.77862701300637
 20
16.35131196538941
 30
0.0
 11
-20.98083517774987
 21
16.53749538503336
 31
0.0
  0
LINE
  5
1AC
330
2
100
AcDbEntity
  8
GAIKEI
370
    40
100
AcDbLine
 10
-20.56779948084909
 20
16.17344229759965
 30
0.0
 11
-20.77862701300637
 21
16.35131196538941
 31
0.0
  0
LINE
  5
1AD
330
2
100
AcDbEntity
  8
GAIKEI
370
    40
100
AcDbLine
 10
-20.35157274047168
 20
16.00652294626104
 30
0.0
 11
-20.56779948084909
 21
16.17344229759965
 31
0.0
  0
LINE
  5
1AE
330
2
100
AcDbEntity
  8
GAIKEI
370
    40
100
AcDbLine
 10
-20.12811188815772
 20
15.84903652507671
 30
0.0
 11
-20.35157274047168
 21
16.00652294626104
 31
0.0
  0
LINE
  5
1AF
330
2
100
AcDbEntity
  8
GAIKEI
370
    40
100
AcDbLine
 10
-19.8990519167196
 20
15.70209414328928
 30
0.0
 11
-20.12811188815772
 21
15.84903652507671
 31
0.0
  0
LINE
  5
1B0
330
2
100
AcDbEntity
  8
GAIKEI
370
    40
100
AcDbLine
 10
-19.66313001863042
 20
15.56492944214562
 30
0.0
 11
-19.8990519167196
 21
15.70209414328928
 31
0.0
  0
LINE
  5
1B1
330
2
100
AcDbEntity
  8
GAIKEI
370
    40
100
AcDbLine
 10
-19.39401403451012
 20
15.42477878620741
 30
0.0
 11
-19.66313001863042
 21
15.56492944214562
 31
0.0
  0
LINE
  5
1B2
330
2
100
AcDbEntity
  8
GAIKEI
370
    40
100
AcDbLine
 10
-19.11789209105919
 20
15.29785170199534
 30
0.0
 11
-19.39401403451012
 21
15.42477878620741
 31
0.0
  0
LINE
  5
1B3
330
2
100
AcDbEntity
  8
GAIKEI
370
    40
100
AcDbLine
 10
-18.83533325857047
 20
15.18458230481235
 30
0.0
 11
-19.11789209105919
 21
15.29785170199534
 31
0.0
  0
LINE
  5
1B4
330
2
100
AcDbEntity
  8
GAIKEI
370
    40
100
AcDbLine
 10
-18.54696288901417
 20
15.08539038738422
 30
0.0
 11
-18.83533325857047
 21
15.18458230481235
 31
0.0
  0
LINE
  5
1B5
330
2
100
AcDbEntity
  8
GAIKEI
370
    40
100
AcDbLine
 10
-18.25346059877339
 20
15.00067193871689
 30
0.0
 11
-18.54696288901417
 21
15.08539038738422
 31
0.0
  0
LINE
  5
1B6
330
2
100
AcDbEntity
  8
GAIKEI
370
    40
100
AcDbLine
 10
-17.95555966346478
 20
14.93079289057584
 30
0.0
 11
-18.25346059877339
 21
15.00067193871689
 31
0.0
  0
LINE
  5
1B7
330
2
100
AcDbEntity
  8
GAIKEI
370
    40
100
AcDbLine
 10
-17.65404338686266
 20
14.87607197073964
 30
0.0
 11
-17.95555966346478
 21
14.93079289057584
 31
0.0
  0
LINE
  5
1B8
330
2
100
AcDbEntity
  8
GAIKEI
370
    40
100
AcDbLine
 10
-17.34974530262536
 20
14.83677687019667
 30
0.0
 11
-17.65404338686266
 21
14.87607197073964
 31
0.0
  0
LINE
  5
1B9
330
2
100
AcDbEntity
  8
GAIKEI
370
    40
100
AcDbLine
 10
-17.04355058638038
 20
14.81310770157745
 30
0.0
 11
-17.34974530262536
 21
14.83677687019667
 31
0.0
  0
LINE
  5
1BA
330
2
100
AcDbEntity
  8
GAIKEI
370
    40
100
AcDbLine
 10
-16.7363875832138
 20
14.80519397325781
 30
0.0
 11
-17.04355058638038
 21
14.81310770157745
 31
0.0
  0
LINE
  5
1BB
330
2
100
AcDbEntity
  8
GAIKEI
370
    40
100
AcDbLine
 10
-22.17370253341693
 20
18.0865775455037
 30
0.0
 11
-22.17367187099774
 21
18.08632982543293
 31
0.0
  0
LINE
  5
1BC
330
2
100
AcDbEntity
  8
GAIKEI
370
    40
100
AcDbLine
 10
-22.17414108670184
 20
18.08776107453889
 30
0.0
 11
-22.17370253341693
 21
18.0865775455037
 31
0.0
  0
LINE
  5
1BD
330
2
100
AcDbEntity
  8
GAIKEI
370
    40
100
AcDbLine
 10
-22.17822120571773
 20
18.0962951116677
 30
0.0
 11
-22.17414108670184
 21
18.08776107453889
 31
0.0
  0
LINE
  5
1BE
330
2
100
AcDbEntity
  8
GAIKEI
370
    40
100
AcDbLine
 10
-22.22187561467229
 20
18.17992403582184
 30
0.0
 11
-22.17822120571773
 21
18.0962951116677
 31
0.0
  0
LINE
  5
1BF
330
2
100
AcDbEntity
  8
GAIKEI
370
    40
100
AcDbLine
 10
-10.7437477781601
 20
23.02942023762353
 30
0.0
 11
-10.74355835703107
 21
23.02914488103022
 31
0.0
  0
LINE
  5
1C0
330
2
100
AcDbEntity
  8
GAIKEI
370
    40
100
AcDbLine
 10
-10.7444326394307
 20
23.03111171383966
 30
0.0
 11
-10.7437477781601
 21
23.02942023762353
 31
0.0
  0
LINE
  5
1C1
330
2
100
AcDbEntity
  8
GAIKEI
370
    40
100
AcDbLine
 10
-10.76499885191904
 20
23.10091834218804
 30
0.0
 11
-10.7444326394307
 21
23.03111171383966
 31
0.0
  0
LINE
  5
1C2
330
2
100
AcDbEntity
  8
GAIKEI
370
    40
100
AcDbLine
 10
-10.76887421859629
 20
23.11458672071865
 30
0.0
 11
-10.76499885191904
 21
23.10091834218804
 31
0.0
  0
LINE
  5
1C3
330
2
100
AcDbEntity
  8
GAIKEI
370
    40
100
AcDbLine
 10
-10.52710628821796
 20
21.86139791400603
 30
0.0
 11
-10.52704012194496
 21
21.86162868905569
 31
0.0
  0
LINE
  5
1C4
330
2
100
AcDbEntity
  8
GAIKEI
370
    40
100
AcDbLine
 10
-10.52716478888612
 20
21.86020207965782
 30
0.0
 11
-10.52710628821796
 21
21.86139791400603
 31
0.0
  0
LINE
  5
1C5
330
2
100
AcDbEntity
  8
GAIKEI
370
    40
100
AcDbLine
 10
-10.52678614835449
 20
21.85124925843547
 30
0.0
 11
-10.52716478888612
 21
21.86020207965782
 31
0.0
  0
LINE
  5
1C6
330
2
100
AcDbEntity
  8
GAIKEI
370
    40
100
AcDbLine
 10
-10.51970050707925
 20
21.76106704908648
 30
0.0
 11
-10.52678614835449
 21
21.85124925843547
 31
0.0
  0
LINE
  5
1C7
330
2
100
AcDbEntity
  8
GAIKEI
370
    13
100
AcDbLine
 10
-11.26477490161539
 20
21.65825232648661
 30
0.0
 11
-11.2590065340064
 21
21.37297240602174
 31
0.0
  0
LINE
  5
1C8
330
2
100
AcDbEntity
  8
GAIKEI
370
    13
100
AcDbLine
 10
-11.27796296948759
 20
21.85926627069341
 30
0.0
 11
-11.26477490161539
 21
21.65825232648661
 31
0.0
  0
LINE
  5
1C9
330
2
100
AcDbEntity
  8
GAIKEI
370
    13
100
AcDbLine
 10
-11.29884932183938
 20
22.06056021120184
 30
0.0
 11
-11.27796296948759
 21
21.85926627069341
 31
0.0
  0
LINE
  5
1CA
330
2
100
AcDbEntity
  8
GAIKEI
370
    13
100
AcDbLine
 10
-11.33755336390726
 20
22.32129083058101
 30
0.0
 11
-11.29884932183938
 21
22.06056021120184
 31
0.0
  0
LINE
  5
1CB
330
2
100
AcDbEntity
  8
GAIKEI
370
    13
100
AcDbLine
 10
-11.38948723122084
 20
22.5808393330102
 30
0.0
 11
-11.33755336390726
 21
22.32129083058101
 31
0.0
  0
LINE
  5
1CC
330
2
100
AcDbEntity
  8
GAIKEI
370
    13
100
AcDbLine
 10
-11.45464588061904
 20
22.83821322439451
 30
0.0
 11
-11.38948723122084
 21
22.5808393330102
 31
0.0
  0
LINE
  5
1CD
330
2
100
AcDbEntity
  8
GAIKEI
370
    13
100
AcDbLine
 10
-11.53291755565303
 20
23.09243977983078
 30
0.0
 11
-11.45464588061904
 21
22.83821322439451
 31
0.0
  0
LINE
  5
1CE
330
2
100
AcDbEntity
  8
GAIKEI
370
    13
100
AcDbLine
 10
-11.61337130561011
 20
23.31512196807864
 30
0.0
 11
-11.53291755565303
 21
23.09243977983078
 31
0.0
  0
LINE
  5
1CF
330
2
100
AcDbEntity
  8
GAIKEI
370
    13
100
AcDbLine
 10
-11.70381051444622
 20
23.53393948115058
 30
0.0
 11
-11.61337130561011
 21
23.31512196807864
 31
0.0
  0
LINE
  5
1D0
330
2
100
AcDbEntity
  8
GAIKEI
370
    13
100
AcDbLine
 10
-11.80391665610938
 20
23.74819071448155
 30
0.0
 11
-11.70381051444622
 21
23.53393948115058
 31
0.0
  0
LINE
  5
1D1
330
2
100
AcDbEntity
  8
GAIKEI
370
    13
100
AcDbLine
 10
-11.88483377170377
 20
23.90496625168418
 30
0.0
 11
-11.80391665610938
 21
23.74819071448155
 31
0.0
  0
LINE
  5
1D2
330
2
100
AcDbEntity
  8
GAIKEI
370
    13
100
AcDbLine
 10
-11.97067422284158
 20
24.05842480100114
 30
0.0
 11
-11.88483377170377
 21
23.90496625168418
 31
0.0
  0
LINE
  5
1D3
330
2
100
AcDbEntity
  8
GAIKEI
370
    13
100
AcDbLine
 10
-12.09172985723288
 20
24.25640982268135
 30
0.0
 11
-11.97067422284158
 21
24.05842480100114
 31
0.0
  0
LINE
  5
1D4
330
2
100
AcDbEntity
  8
GAIKEI
370
    13
100
AcDbLine
 10
-12.22054671475371
 20
24.44768622980644
 30
0.0
 11
-12.09172985723288
 21
24.25640982268135
 31
0.0
  0
LINE
  5
1D5
330
2
100
AcDbEntity
  8
GAIKEI
370
    13
100
AcDbLine
 10
-12.35688817028756
 20
24.63225382064991
 30
0.0
 11
-12.22054671475371
 21
24.44768622980644
 31
0.0
  0
LINE
  5
1D6
330
2
100
AcDbEntity
  8
GAIKEI
370
    13
100
AcDbLine
 10
-11.23602848017751
 20
21.36953115464769
 30
0.0
 11
-11.20867034011346
 21
21.36846462694882
 31
0.0
  0
LINE
  5
1D7
330
2
100
AcDbEntity
  8
GAIKEI
370
    13
100
AcDbLine
 10
-11.25481102746568
 20
21.37151795837497
 30
0.0
 11
-11.23602848017751
 21
21.36953115464769
 31
0.0
  0
LINE
  5
1D8
330
2
100
AcDbEntity
  8
GAIKEI
370
    13
100
AcDbLine
 10
-11.25827083767243
 20
21.37246607265229
 30
0.0
 11
-11.25481102746568
 21
21.37151795837497
 31
0.0
  0
LINE
  5
1D9
330
2
100
AcDbEntity
  8
GAIKEI
370
    13
100
AcDbLine
 10
-11.25884636321146
 20
21.37280315753685
 30
0.0
 11
-11.25827083767243
 21
21.37246607265229
 31
0.0
  0
LINE
  5
1DA
330
2
100
AcDbEntity
  8
GAIKEI
370
    13
100
AcDbLine
 10
-11.2590065340064
 20
21.37297240602174
 30
0.0
 11
-11.25884636321146
 21
21.37280315753685
 31
0.0
  0
LINE
  5
1DB
330
2
100
AcDbEntity
  8
GAIKEI
370
    40
100
AcDbLine
 10
-10.45567434992642
 20
24.24504394975975
 30
0.0
 11
-10.45217762378081
 21
24.19157272523171
 31
0.0
  0
LINE
  5
1DC
330
2
100
AcDbEntity
  8
GAIKEI
370
    40
100
AcDbLine
 10
-10.46874097848052
 20
24.29699012238632
 30
0.0
 11
-10.45567434992642
 21
24.24504394975975
 31
0.0
  0
LINE
  5
1DD
330
2
100
AcDbEntity
  8
GAIKEI
370
    40
100
AcDbLine
 10
-10.49118344860591
 20
24.3460933642657
 30
0.0
 11
-10.46874097848052
 21
24.29699012238632
 31
0.0
  0
LINE
  5
1DE
330
2
100
AcDbEntity
  8
GAIKEI
370
    40
100
AcDbLine
 10
-10.5212810337523
 20
24.38876213782464
 30
0.0
 11
-10.49118344860591
 21
24.3460933642657
 31
0.0
  0
LINE
  5
1DF
330
2
100
AcDbEntity
  8
GAIKEI
370
    40
100
AcDbLine
 10
-10.56016965551464
 20
24.42576239836342
 30
0.0
 11
-10.5212810337523
 21
24.38876213782464
 31
0.0
  0
LINE
  5
1E0
330
2
100
AcDbEntity
  8
GAIKEI
370
    40
100
AcDbLine
 10
-10.60777870963818
 20
24.45442732231868
 30
0.0
 11
-10.56016965551464
 21
24.42576239836342
 31
0.0
  0
LINE
  5
1E1
330
2
100
AcDbEntity
  8
GAIKEI
370
    40
100
AcDbLine
 10
-10.63661590797497
 20
24.4651543275985
 30
0.0
 11
-10.60777870963818
 21
24.45442732231868
 31
0.0
  0
LINE
  5
1E2
330
2
100
AcDbEntity
  8
GAIKEI
370
    40
100
AcDbLine
 10
-10.66731847072091
 20
24.47184014706568
 30
0.0
 11
-10.63661590797497
 21
24.4651543275985
 31
0.0
  0
LINE
  5
1E3
330
2
100
AcDbEntity
  8
GAIKEI
370
    40
100
AcDbLine
 10
-10.69845192114698
 20
24.47390542237895
 30
0.0
 11
-10.66731847072091
 21
24.47184014706568
 31
0.0
  0
LINE
  5
1E4
330
2
100
AcDbEntity
  8
GAIKEI
370
    40
100
AcDbLine
 10
-10.72984862457986
 20
24.4712075329436
 30
0.0
 11
-10.69845192114698
 21
24.47390542237895
 31
0.0
  0
LINE
  5
1E5
330
2
100
AcDbEntity
  8
GAIKEI
370
    40
100
AcDbLine
 10
-10.75896581921813
 20
24.46420641504756
 30
0.0
 11
-10.72984862457986
 21
24.4712075329436
 31
0.0
  0
LINE
  5
1E6
330
2
100
AcDbEntity
  8
GAIKEI
370
    40
100
AcDbLine
 10
-10.78648413007712
 20
24.45319901001335
 30
0.0
 11
-10.75896581921813
 21
24.46420641504756
 31
0.0
  0
LINE
  5
1E7
330
2
100
AcDbEntity
  8
GAIKEI
370
    40
100
AcDbLine
 10
-10.81354512709211
 20
24.43751619123293
 30
0.0
 11
-10.78648413007712
 21
24.45319901001335
 31
0.0
  0
LINE
  5
1E8
330
2
100
AcDbEntity
  8
GAIKEI
370
    40
100
AcDbLine
 10
-10.83760201393281
 20
24.41856742135656
 30
0.0
 11
-10.81354512709211
 21
24.43751619123293
 31
0.0
  0
LINE
  5
1E9
330
2
100
AcDbEntity
  8
GAIKEI
370
    40
100
AcDbLine
 10
-10.86550037740852
 20
24.38842969264817
 30
0.0
 11
-10.83760201393281
 21
24.41856742135656
 31
0.0
  0
LINE
  5
1EA
330
2
100
AcDbEntity
  8
GAIKEI
370
    40
100
AcDbLine
 10
-10.88737962730784
 20
24.35501996105063
 30
0.0
 11
-10.86550037740852
 21
24.38842969264817
 31
0.0
  0
LINE
  5
1EB
330
2
100
AcDbEntity
  8
GAIKEI
370
    40
100
AcDbLine
 10
-10.90313183998429
 20
24.32050819790038
 30
0.0
 11
-10.88737962730784
 21
24.35501996105063
 31
0.0
  0
LINE
  5
1EC
330
2
100
AcDbEntity
  8
GAIKEI
370
    40
100
AcDbLine
 10
-10.91374668536235
 20
24.28485930279658
 30
0.0
 11
-10.90313183998429
 21
24.32050819790038
 31
0.0
  0
LINE
  5
1ED
330
2
100
AcDbEntity
  8
GAIKEI
370
    40
100
AcDbLine
 10
-10.91947652322091
 20
24.24908856492186
 30
0.0
 11
-10.91374668536235
 21
24.28485930279658
 31
0.0
  0
LINE
  5
1EE
330
2
100
AcDbEntity
  8
GAIKEI
370
    40
100
AcDbLine
 10
-10.92070322171472
 20
24.21315019237375
 30
0.0
 11
-10.91947652322091
 21
24.24908856492186
 31
0.0
  0
LINE
  5
1EF
330
2
100
AcDbEntity
  8
GAIKEI
370
    40
100
AcDbLine
 10
-10.45297646049113
 20
24.87046027069471
 30
0.0
 11
-10.52921473298974
 21
24.87928378526783
 31
0.0
  0
LINE
  5
1F0
330
2
100
AcDbEntity
  8
GAIKEI
370
    40
100
AcDbLine
 10
-10.38037329847734
 20
24.85289211658744
 30
0.0
 11
-10.45297646049113
 21
24.87046027069471
 31
0.0
  0
LINE
  5
1F1
330
2
100
AcDbEntity
  8
GAIKEI
370
    40
100
AcDbLine
 10
-10.31057413400737
 20
24.82680666864587
 30
0.0
 11
-10.38037329847734
 21
24.85289211658744
 31
0.0
  0
LINE
  5
1F2
330
2
100
AcDbEntity
  8
GAIKEI
370
    40
100
AcDbLine
 10
-10.24617881746567
 20
24.79360632909516
 30
0.0
 11
-10.31057413400737
 21
24.82680666864587
 31
0.0
  0
LINE
  5
1F3
330
2
100
AcDbEntity
  8
GAIKEI
370
    40
100
AcDbLine
 10
-10.20388565854173
 20
24.76617415542682
 30
0.0
 11
-10.24617881746567
 21
24.79360632909516
 31
0.0
  0
LINE
  5
1F4
330
2
100
AcDbEntity
  8
GAIKEI
370
    40
100
AcDbLine
 10
-10.1645782526858
 20
24.73589037677448
 30
0.0
 11
-10.20388565854173
 21
24.76617415542682
 31
0.0
  0
LINE
  5
1F5
330
2
100
AcDbEntity
  8
GAIKEI
370
    40
100
AcDbLine
 10
-10.09517023578687
 20
24.66777199701926
 30
0.0
 11
-10.1645782526858
 21
24.73589037677448
 31
0.0
  0
LINE
  5
1F6
330
2
100
AcDbEntity
  8
GAIKEI
370
    40
100
AcDbLine
 10
-10.03842842045466
 20
24.59107641067669
 30
0.0
 11
-10.09517023578687
 21
24.66777199701926
 31
0.0
  0
LINE
  5
1F7
330
2
100
AcDbEntity
  8
GAIKEI
370
    40
100
AcDbLine
 10
-9.994821013761111
 20
24.50735832343514
 30
0.0
 11
-10.03842842045466
 21
24.59107641067669
 31
0.0
  0
LINE
  5
1F8
330
2
100
AcDbEntity
  8
GAIKEI
370
    40
100
AcDbLine
 10
-9.96460017375864
 20
24.41686202601591
 30
0.0
 11
-9.994821013761111
 21
24.50735832343514
 31
0.0
  0
LINE
  5
1F9
330
2
100
AcDbEntity
  8
GAIKEI
370
    40
100
AcDbLine
 10
-9.949108188192354
 20
24.32203970504804
 30
0.0
 11
-9.96460017375864
 21
24.41686202601591
 31
0.0
  0
LINE
  5
1FA
330
2
100
AcDbEntity
  8
GAIKEI
370
    40
100
AcDbLine
 10
-9.947147407176117
 20
24.27290701110803
 30
0.0
 11
-9.949108188192354
 21
24.32203970504804
 31
0.0
  0
LINE
  5
1FB
330
2
100
AcDbEntity
  8
GAIKEI
370
    40
100
AcDbLine
 10
-9.949292767886788
 20
24.22334645538467
 30
0.0
 11
-9.947147407176117
 21
24.27290701110803
 31
0.0
  0
LINE
  5
1FC
330
2
100
AcDbEntity
  8
GAIKEI
370
    40
100
AcDbLine
 10
-9.95544441573557
 20
24.17487865179749
 30
0.0
 11
-9.949292767886788
 21
24.22334645538467
 31
0.0
  0
LINE
  5
1FD
330
2
100
AcDbEntity
  8
GAIKEI
370
    40
100
AcDbLine
 10
-9.965699179414656
 20
24.12653551515155
 30
0.0
 11
-9.95544441573557
 21
24.17487865179749
 31
0.0
  0
LINE
  5
1FE
330
2
100
AcDbEntity
  8
GAIKEI
370
    40
100
AcDbLine
 10
-9.979809137126778
 20
24.07958993929572
 30
0.0
 11
-9.965699179414656
 21
24.12653551515155
 31
0.0
  0
LINE
  5
1FF
330
2
100
AcDbEntity
  8
GAIKEI
370
    40
100
AcDbLine
 10
-9.99800526564806
 20
24.03336150094129
 30
0.0
 11
-9.979809137126778
 21
24.07958993929572
 31
0.0
  0
LINE
  5
200
330
2
100
AcDbEntity
  8
GAIKEI
370
    40
100
AcDbLine
 10
-10.02870177660077
 20
23.97342474222069
 30
0.0
 11
-9.99800526564806
 21
24.03336150094129
 31
0.0
  0
LINE
  5
201
330
2
100
AcDbEntity
  8
GAIKEI
370
    40
100
AcDbLine
 10
-10.06676856483838
 20
23.91624437360349
 30
0.0
 11
-10.02870177660077
 21
23.97342474222069
 31
0.0
  0
LINE
  5
202
330
2
100
AcDbEntity
  8
GAIKEI
370
    40
100
AcDbLine
 10
-10.11210295160191
 20
23.86277456116056
 30
0.0
 11
-10.06676856483838
 21
23.91624437360349
 31
0.0
  0
LINE
  5
203
330
2
100
AcDbEntity
  8
GAIKEI
370
    13
100
AcDbLine
 10
-11.21413087317197
 20
21.65731510543708
 30
0.0
 11
-11.20867034011346
 21
21.36846906493054
 31
0.0
  0
LINE
  5
204
330
2
100
AcDbEntity
  8
GAIKEI
370
    13
100
AcDbLine
 10
-11.22721585883229
 20
21.86119618756402
 30
0.0
 11
-11.21413087317197
 21
21.65731510543708
 31
0.0
  0
LINE
  5
205
330
2
100
AcDbEntity
  8
GAIKEI
370
    13
100
AcDbLine
 10
-11.24808849378604
 20
22.06556222005759
 30
0.0
 11
-11.22721585883229
 21
21.86119618756402
 31
0.0
  0
LINE
  5
206
330
2
100
AcDbEntity
  8
GAIKEI
370
    13
100
AcDbLine
 10
-11.28697106375509
 20
22.33092669753603
 30
0.0
 11
-11.24808849378604
 21
22.06556222005759
 31
0.0
  0
LINE
  5
207
330
2
100
AcDbEntity
  8
GAIKEI
370
    13
100
AcDbLine
 10
-11.33925250572824
 20
22.59532651916879
 30
0.0
 11
-11.28697106375509
 21
22.33092669753603
 31
0.0
  0
LINE
  5
208
330
2
100
AcDbEntity
  8
GAIKEI
370
    13
100
AcDbLine
 10
-11.40492071611894
 20
22.85769293826627
 30
0.0
 11
-11.33925250572824
 21
22.59532651916879
 31
0.0
  0
LINE
  5
209
330
2
100
AcDbEntity
  8
GAIKEI
370
    13
100
AcDbLine
 10
-11.48385244007113
 20
23.11698908091637
 30
0.0
 11
-11.40492071611894
 21
22.85769293826627
 31
0.0
  0
LINE
  5
20A
330
2
100
AcDbEntity
  8
GAIKEI
370
    13
100
AcDbLine
 10
-11.56503119486078
 20
23.34425308184143
 30
0.0
 11
-11.48385244007113
 21
23.11698908091637
 31
0.0
  0
LINE
  5
20B
330
2
100
AcDbEntity
  8
GAIKEI
370
    13
100
AcDbLine
 10
-11.65631543576239
 20
23.56764635579725
 30
0.0
 11
-11.56503119486078
 21
23.34425308184143
 31
0.0
  0
LINE
  5
20C
330
2
100
AcDbEntity
  8
GAIKEI
370
    13
100
AcDbLine
 10
-11.75738179528949
 20
23.78644087205487
 30
0.0
 11
-11.65631543576239
 21
23.56764635579725
 31
0.0
  0
LINE
  5
20D
330
2
100
AcDbEntity
  8
GAIKEI
370
    13
100
AcDbLine
 10
-11.83906547136345
 20
23.94652674017084
 30
0.0
 11
-11.75738179528949
 21
23.78644087205487
 31
0.0
  0
LINE
  5
20E
330
2
100
AcDbEntity
  8
GAIKEI
370
    13
100
AcDbLine
 10
-11.92573239573414
 20
24.10325749410345
 30
0.0
 11
-11.83906547136345
 21
23.94652674017084
 31
0.0
  0
LINE
  5
20F
330
2
100
AcDbEntity
  8
GAIKEI
370
    13
100
AcDbLine
 10
-12.04787150284545
 20
24.30533473838603
 30
0.0
 11
-11.92573239573414
 21
24.10325749410345
 31
0.0
  0
LINE
  5
210
330
2
100
AcDbEntity
  8
GAIKEI
370
    13
100
AcDbLine
 10
-12.17800906338203
 20
24.50082662296961
 30
0.0
 11
-12.04787150284545
 21
24.30533473838603
 31
0.0
  0
LINE
  5
211
330
2
100
AcDbEntity
  8
GAIKEI
370
    13
100
AcDbLine
 10
-12.31563249045481
 20
24.68928934968165
 30
0.0
 11
-12.17800906338203
 21
24.50082662296961
 31
0.0
  0
LINE
  5
212
330
2
100
AcDbEntity
  8
GAIKEI
370
    40
100
AcDbLine
 10
-22.72837762739781
 20
23.02942023762353
 30
0.0
 11
-22.72856684680039
 21
23.02914488103022
 31
0.0
  0
LINE
  5
213
330
2
100
AcDbEntity
  8
GAIKEI
370
    40
100
AcDbLine
 10
-22.72769337130654
 20
23.03111171383966
 30
0.0
 11
-22.72837762739781
 21
23.02942023762353
 31
0.0
  0
LINE
  5
214
330
2
100
AcDbEntity
  8
GAIKEI
370
    40
100
AcDbLine
 10
-22.70712756227107
 20
23.10091834218804
 30
0.0
 11
-22.72769337130654
 21
23.03111171383966
 31
0.0
  0
LINE
  5
215
330
2
100
AcDbEntity
  8
GAIKEI
370
    40
100
AcDbLine
 10
-22.7032505817823
 20
23.11458672071865
 30
0.0
 11
-22.70712756227107
 21
23.10091834218804
 31
0.0
  0
LINE
  5
216
330
2
100
AcDbEntity
  8
GAIKEI
370
    40
100
AcDbLine
 10
-22.94501972251928
 20
21.86139791400603
 30
0.0
 11
-22.94508588879225
 21
21.86162868905569
 31
0.0
  0
LINE
  5
217
330
2
100
AcDbEntity
  8
GAIKEI
370
    40
100
AcDbLine
 10
-22.94496081839822
 20
21.86020207965782
 30
0.0
 11
-22.94501972251928
 21
21.86139791400603
 31
0.0
  0
LINE
  5
218
330
2
100
AcDbEntity
  8
GAIKEI
370
    40
100
AcDbLine
 10
-22.94533986238275
 20
21.85124925843547
 30
0.0
 11
-22.94496081839822
 21
21.86020207965782
 31
0.0
  0
LINE
  5
219
330
2
100
AcDbEntity
  8
GAIKEI
370
    40
100
AcDbLine
 10
-22.95242570538443
 20
21.76106704908648
 30
0.0
 11
-22.94533986238275
 21
21.85124925843547
 31
0.0
  0
LINE
  5
21A
330
2
100
AcDbEntity
  8
GAIKEI
370
    40
100
AcDbLine
 10
-10.47246383996764
 20
24.14245092451961
 30
0.0
 11
-10.47031081365219
 21
24.10143065944465
 31
0.0
  0
LINE
  5
21B
330
2
100
AcDbEntity
  8
GAIKEI
370
    40
100
AcDbLine
 10
-10.48083790802795
 20
24.18264774225827
 30
0.0
 11
-10.47246383996764
 21
24.14245092451961
 31
0.0
  0
LINE
  5
21C
330
2
100
AcDbEntity
  8
GAIKEI
370
    40
100
AcDbLine
 10
-10.49746581518911
 20
24.22580126445735
 30
0.0
 11
-10.48083790802795
 21
24.18264774225827
 31
0.0
  0
LINE
  5
21D
330
2
100
AcDbEntity
  8
GAIKEI
370
    40
100
AcDbLine
 10
-10.52170264201609
 20
24.26586897727316
 30
0.0
 11
-10.49746581518911
 21
24.22580126445735
 31
0.0
  0
LINE
  5
21E
330
2
100
AcDbEntity
  8
GAIKEI
370
    40
100
AcDbLine
 10
-10.55354253844206
 20
24.30138856572762
 30
0.0
 11
-10.52170264201609
 21
24.26586897727316
 31
0.0
  0
LINE
  5
21F
330
2
100
AcDbEntity
  8
GAIKEI
370
    40
100
AcDbLine
 10
-10.58744952571919
 20
24.32718937765947
 30
0.0
 11
-10.55354253844206
 21
24.30138856572762
 31
0.0
  0
LINE
  5
220
330
2
100
AcDbEntity
  8
GAIKEI
370
    40
100
AcDbLine
 10
-10.62672747951455
 20
24.34645828739929
 30
0.0
 11
-10.58744952571919
 21
24.32718937765947
 31
0.0
  0
LINE
  5
221
330
2
100
AcDbEntity
  8
GAIKEI
370
    40
100
AcDbLine
 10
-10.67026105433038
 20
24.35722705005253
 30
0.0
 11
-10.62672747951455
 21
24.34645828739929
 31
0.0
  0
LINE
  5
222
330
2
100
AcDbEntity
  8
GAIKEI
370
    40
100
AcDbLine
 10
-10.69804100438463
 20
24.35884913237271
 30
0.0
 11
-10.67026105433038
 21
24.35722705005253
 31
0.0
  0
LINE
  5
223
330
2
100
AcDbEntity
  8
GAIKEI
370
    40
100
AcDbLine
 10
-10.7259008381099
 20
24.35641893392597
 30
0.0
 11
-10.69804100438463
 21
24.35884913237271
 31
0.0
  0
LINE
  5
224
330
2
100
AcDbEntity
  8
GAIKEI
370
    40
100
AcDbLine
 10
-10.75309275558575
 20
24.34993806852379
 30
0.0
 11
-10.7259008381099
 21
24.35641893392597
 31
0.0
  0
LINE
  5
225
330
2
100
AcDbEntity
  8
GAIKEI
370
    40
100
AcDbLine
 10
-10.77890425901898
 20
24.33964174919765
 30
0.0
 11
-10.75309275558575
 21
24.34993806852379
 31
0.0
  0
LINE
  5
226
330
2
100
AcDbEntity
  8
GAIKEI
370
    40
100
AcDbLine
 10
-10.80702734575109
 20
24.3230045626201
 30
0.0
 11
-10.77890425901898
 21
24.33964174919765
 31
0.0
  0
LINE
  5
227
330
2
100
AcDbEntity
  8
GAIKEI
370
    40
100
AcDbLine
 10
-10.83167972904857
 20
24.30248454548701
 30
0.0
 11
-10.80702734575109
 21
24.3230045626201
 31
0.0
  0
LINE
  5
228
330
2
100
AcDbEntity
  8
GAIKEI
370
    40
100
AcDbLine
 10
-10.8526756188584
 20
24.27884926691013
 30
0.0
 11
-10.83167972904857
 21
24.30248454548701
 31
0.0
  0
LINE
  5
229
330
2
100
AcDbEntity
  8
GAIKEI
370
    40
100
AcDbLine
 10
-10.86980057997266
 20
24.25303776347687
 30
0.0
 11
-10.8526756188584
 21
24.27884926691013
 31
0.0
  0
LINE
  5
22A
330
2
100
AcDbEntity
  8
GAIKEI
370
    40
100
AcDbLine
 10
-10.88882015583019
 20
24.2105416677523
 30
0.0
 11
-10.86980057997266
 21
24.25303776347687
 31
0.0
  0
LINE
  5
22B
330
2
100
AcDbEntity
  8
GAIKEI
370
    40
100
AcDbLine
 10
-10.89945961183414
 20
24.16606300455567
 30
0.0
 11
-10.88882015583019
 21
24.2105416677523
 31
0.0
  0
LINE
  5
22C
330
2
100
AcDbEntity
  8
GAIKEI
370
    40
100
AcDbLine
 10
-10.90214842357954
 20
24.12092106481782
 30
0.0
 11
-10.89945961183414
 21
24.16606300455567
 31
0.0
  0
LINE
  5
22D
330
2
100
AcDbEntity
  8
GAIKEI
370
    40
100
AcDbLine
 10
-10.04038920147093
 20
23.94078762289587
 30
0.0
 11
-10.09992896255366
 21
23.86761196123973
 31
0.0
  0
LINE
  5
22E
330
2
100
AcDbEntity
  8
GAIKEI
370
    40
100
AcDbLine
 10
-9.994050015299762
 20
24.02039654251394
 30
0.0
 11
-10.04038920147093
 21
23.94078762289587
 31
0.0
  0
LINE
  5
22F
330
2
100
AcDbEntity
  8
GAIKEI
370
    40
100
AcDbLine
 10
-9.961146617071591
 20
24.10416849071544
 30
0.0
 11
-9.994050015299762
 21
24.02039654251394
 31
0.0
  0
LINE
  5
230
330
2
100
AcDbEntity
  8
GAIKEI
370
    40
100
AcDbLine
 10
-9.948594189218141
 20
24.15193448801085
 30
0.0
 11
-9.961146617071591
 21
24.10416849071544
 31
0.0
  0
LINE
  5
231
330
2
100
AcDbEntity
  8
GAIKEI
370
    40
100
AcDbLine
 10
-9.940126318362302
 20
24.20004523579564
 30
0.0
 11
-9.948594189218141
 21
24.15193448801085
 31
0.0
  0
LINE
  5
232
330
2
100
AcDbEntity
  8
GAIKEI
370
    40
100
AcDbLine
 10
-9.935601392541798
 20
24.24944884834725
 30
0.0
 11
-9.940126318362302
 21
24.20004523579564
 31
0.0
  0
LINE
  5
233
330
2
100
AcDbEntity
  8
GAIKEI
370
    40
100
AcDbLine
 10
-9.935198141384262
 20
24.2986198703112
 30
0.0
 11
-9.935601392541798
 21
24.24944884834725
 31
0.0
  0
LINE
  5
234
330
2
100
AcDbEntity
  8
GAIKEI
370
    40
100
AcDbLine
 10
-9.94610851599981
 20
24.39400722704306
 30
0.0
 11
-9.935198141384262
 21
24.2986198703112
 31
0.0
  0
LINE
  5
235
330
2
100
AcDbEntity
  8
GAIKEI
370
    40
100
AcDbLine
 10
-9.971867570558117
 20
24.4856007145803
 30
0.0
 11
-9.94610851599981
 21
24.39400722704306
 31
0.0
  0
LINE
  5
236
330
2
100
AcDbEntity
  8
GAIKEI
370
    40
100
AcDbLine
 10
-10.0124678411808
 20
24.57320647381209
 30
0.0
 11
-9.971867570558117
 21
24.4856007145803
 31
0.0
  0
LINE
  5
237
330
2
100
AcDbEntity
  8
GAIKEI
370
    40
100
AcDbLine
 10
-10.06691784240544
 20
24.65376048181088
 30
0.0
 11
-10.0124678411808
 21
24.57320647381209
 31
0.0
  0
LINE
  5
238
330
2
100
AcDbEntity
  8
GAIKEI
370
    40
100
AcDbLine
 10
-10.09956585495806
 20
24.69134413521988
 30
0.0
 11
-10.06691784240544
 21
24.65376048181088
 31
0.0
  0
LINE
  5
239
330
2
100
AcDbEntity
  8
GAIKEI
370
    40
100
AcDbLine
 10
-10.13551794490419
 20
24.72646975193311
 30
0.0
 11
-10.09956585495806
 21
24.69134413521988
 31
0.0
  0
LINE
  5
23A
330
2
100
AcDbEntity
  8
GAIKEI
370
    40
100
AcDbLine
 10
-10.17366804616233
 20
24.75811417543673
 30
0.0
 11
-10.13551794490419
 21
24.72646975193311
 31
0.0
  0
LINE
  5
23B
330
2
100
AcDbEntity
  8
GAIKEI
370
    40
100
AcDbLine
 10
-10.2148036987621
 20
24.7869499616885
 30
0.0
 11
-10.17366804616233
 21
24.75811417543673
 31
0.0
  0
LINE
  5
23C
330
2
100
AcDbEntity
  8
GAIKEI
370
    40
100
AcDbLine
 10
-10.28199413688412
 20
24.82439805492845
 30
0.0
 11
-10.2148036987621
 21
24.7869499616885
 31
0.0
  0
LINE
  5
23D
330
2
100
AcDbEntity
  8
GAIKEI
370
    40
100
AcDbLine
 10
-10.35528357225359
 20
24.85388783830513
 30
0.0
 11
-10.28199413688412
 21
24.82439805492845
 31
0.0
  0
LINE
  5
23E
330
2
100
AcDbEntity
  8
GAIKEI
370
    40
100
AcDbLine
 10
-10.43387377333948
 20
24.87423860695333
 30
0.0
 11
-10.35528357225359
 21
24.85388783830513
 31
0.0
  0
LINE
  5
23F
330
2
100
AcDbEntity
  8
GAIKEI
370
    40
100
AcDbLine
 10
-10.51655155731964
 20
24.88426400766787
 30
0.0
 11
-10.43387377333948
 21
24.87423860695333
 31
0.0
  0
LINE
  5
240
330
2
100
AcDbEntity
  8
GAIKEI
370
    13
100
AcDbLine
 10
-22.23609712710686
 20
21.36953882025239
 30
0.0
 11
-22.26345567062379
 21
21.36846906493054
 31
0.0
  0
LINE
  5
241
330
2
100
AcDbEntity
  8
GAIKEI
370
    13
100
AcDbLine
 10
-22.21731377291289
 20
21.37152259808306
 30
0.0
 11
-22.23609712710686
 21
21.36953882025239
 31
0.0
  0
LINE
  5
242
330
2
100
AcDbEntity
  8
GAIKEI
370
    13
100
AcDbLine
 10
-22.2138541644326
 20
21.372469098549
 30
0.0
 11
-22.21731377291289
 21
21.37152259808306
 31
0.0
  0
LINE
  5
243
330
2
100
AcDbEntity
  8
GAIKEI
370
    13
100
AcDbLine
 10
-22.21327924407291
 20
21.37280456962196
 30
0.0
 11
-22.2138541644326
 21
21.372469098549
 31
0.0
  0
LINE
  5
244
330
2
100
AcDbEntity
  8
GAIKEI
370
    13
100
AcDbLine
 10
-22.21311846809863
 20
21.37297401983324
 30
0.0
 11
-22.21327924407291
 21
21.37280456962196
 31
0.0
  0
LINE
  5
245
330
2
100
AcDbEntity
  8
GAIKEI
370
    13
100
AcDbLine
 10
-13.08074981908876
 20
25.39099497990503
 30
0.0
 11
-12.96985817147762
 21
25.29543998849988
 31
0.0
  0
LINE
  5
246
330
2
100
AcDbEntity
  8
GAIKEI
370
    13
100
AcDbLine
 10
-13.25100592750453
 20
25.5255033472605
 30
0.0
 11
-13.08074981908876
 21
25.39099497990503
 31
0.0
  0
LINE
  5
247
330
2
100
AcDbEntity
  8
GAIKEI
370
    13
100
AcDbLine
 10
-13.42669150310675
 20
25.65032965230569
 30
0.0
 11
-13.25100592750453
 21
25.5255033472605
 31
0.0
  0
LINE
  5
248
330
2
100
AcDbEntity
  8
GAIKEI
370
    13
100
AcDbLine
 10
-13.60783155997421
 20
25.76575994313532
 30
0.0
 11
-13.42669150310675
 21
25.65032965230569
 31
0.0
  0
LINE
  5
249
330
2
100
AcDbEntity
  8
GAIKEI
370
    13
100
AcDbLine
 10
-13.79440451337763
 20
25.8720514209632
 30
0.0
 11
-13.60783155997421
 21
25.76575994313532
 31
0.0
  0
LINE
  5
24A
330
2
100
AcDbEntity
  8
GAIKEI
370
    13
100
AcDbLine
 10
-13.98627339106286
 20
25.96942255552574
 30
0.0
 11
-13.79440451337763
 21
25.8720514209632
 31
0.0
  0
LINE
  5
24B
330
2
100
AcDbEntity
  8
GAIKEI
370
    13
100
AcDbLine
 10
-14.18320883006535
 20
26.05809484245629
 30
0.0
 11
-13.98627339106286
 21
25.96942255552574
 31
0.0
  0
LINE
  5
24C
330
2
100
AcDbEntity
  8
GAIKEI
370
    40
100
AcDbLine
 10
-23.03715948526144
 20
24.23919569847965
 30
0.0
 11
-23.03993221520673
 21
24.19063247828546
 31
0.0
  0
LINE
  5
24D
330
2
100
AcDbEntity
  8
GAIKEI
370
    40
100
AcDbLine
 10
-23.02648008742196
 20
24.28659213293338
 30
0.0
 11
-23.03715948526144
 21
24.23919569847965
 31
0.0
  0
LINE
  5
24E
330
2
100
AcDbEntity
  8
GAIKEI
370
    40
100
AcDbLine
 10
-23.00806488398464
 20
24.33185409990426
 30
0.0
 11
-23.02648008742196
 21
24.28659213293338
 31
0.0
  0
LINE
  5
24F
330
2
100
AcDbEntity
  8
GAIKEI
370
    40
100
AcDbLine
 10
-22.9801388839864
 20
24.37622504118076
 30
0.0
 11
-23.00806488398464
 21
24.33185409990426
 31
0.0
  0
LINE
  5
250
330
2
100
AcDbEntity
  8
GAIKEI
370
    40
100
AcDbLine
 10
-22.94330202186566
 20
24.41538155565809
 30
0.0
 11
-22.9801388839864
 21
24.37622504118076
 31
0.0
  0
LINE
  5
251
330
2
100
AcDbEntity
  8
GAIKEI
370
    40
100
AcDbLine
 10
-22.89750850572011
 20
24.44683817184421
 30
0.0
 11
-22.94330202186566
 21
24.41538155565809
 31
0.0
  0
LINE
  5
252
330
2
100
AcDbEntity
  8
GAIKEI
370
    40
100
AcDbLine
 10
-22.85485143229479
 20
24.46418644412984
 30
0.0
 11
-22.89750850572011
 21
24.44683817184421
 31
0.0
  0
LINE
  5
253
330
2
100
AcDbEntity
  8
GAIKEI
370
    40
100
AcDbLine
 10
-22.80802870784217
 20
24.47234022691544
 30
0.0
 11
-22.85485143229479
 21
24.46418644412984
 31
0.0
  0
LINE
  5
254
330
2
100
AcDbEntity
  8
GAIKEI
370
    40
100
AcDbLine
 10
-22.53215166029182
 20
24.24855762092648
 30
0.0
 11
-22.53106596858097
 21
24.21406603042044
 31
0.0
  0
LINE
  5
255
330
2
100
AcDbEntity
  8
GAIKEI
370
    40
100
AcDbLine
 10
-22.53737718204539
 20
24.28290457357366
 30
0.0
 11
-22.53215166029182
 21
24.24855762092648
 31
0.0
  0
LINE
  5
256
330
2
100
AcDbEntity
  8
GAIKEI
370
    40
100
AcDbLine
 10
-22.54667152613411
 20
24.31605427978741
 30
0.0
 11
-22.53737718204539
 21
24.28290457357366
 31
0.0
  0
LINE
  5
257
330
2
100
AcDbEntity
  8
GAIKEI
370
    40
100
AcDbLine
 10
-22.56031045260414
 20
24.34826515114025
 30
0.0
 11
-22.54667152613411
 21
24.31605427978741
 31
0.0
  0
LINE
  5
258
330
2
100
AcDbEntity
  8
GAIKEI
370
    40
100
AcDbLine
 10
-22.59272325212538
 20
24.39743919900081
 30
0.0
 11
-22.56031045260414
 21
24.34826515114025
 31
0.0
  0
LINE
  5
259
330
2
100
AcDbEntity
  8
GAIKEI
370
    40
100
AcDbLine
 10
-22.61388798696714
 20
24.41938622898465
 30
0.0
 11
-22.59272325212538
 21
24.39743919900081
 31
0.0
  0
LINE
  5
25A
330
2
100
AcDbEntity
  8
GAIKEI
370
    40
100
AcDbLine
 10
-22.63836264926926
 20
24.43870577206144
 30
0.0
 11
-22.61388798696714
 21
24.41938622898465
 31
0.0
  0
LINE
  5
25B
330
2
100
AcDbEntity
  8
GAIKEI
370
    40
100
AcDbLine
 10
-22.67790889923248
 20
24.45994312842231
 30
0.0
 11
-22.63836264926926
 21
24.43870577206144
 31
0.0
  0
LINE
  5
25C
330
2
100
AcDbEntity
  8
GAIKEI
370
    40
100
AcDbLine
 10
-22.72189736717499
 20
24.47237250314618
 30
0.0
 11
-22.67790889923248
 21
24.45994312842231
 31
0.0
  0
LINE
  5
25D
330
2
100
AcDbEntity
  8
GAIKEI
370
    40
100
AcDbLine
 10
-22.76768341944217
 20
24.47474722682136
 30
0.0
 11
-22.72189736717499
 21
24.47237250314618
 31
0.0
  0
LINE
  5
25E
330
2
100
AcDbEntity
  8
GAIKEI
370
    13
100
AcDbLine
 10
-22.26342460475169
 20
21.45445435565364
 30
0.0
 11
-22.26345567062379
 21
21.36846906493054
 31
0.0
  0
LINE
  5
25F
330
2
100
AcDbEntity
  8
GAIKEI
370
    13
100
AcDbLine
 10
-22.25497246855835
 20
21.71678708643526
 30
0.0
 11
-22.26342460475169
 21
21.45445435565364
 31
0.0
  0
LINE
  5
260
330
2
100
AcDbEntity
  8
GAIKEI
370
    13
100
AcDbLine
 10
-22.23367661152929
 20
21.9805157641955
 30
0.0
 11
-22.25497246855835
 21
21.71678708643526
 31
0.0
  0
LINE
  5
261
330
2
100
AcDbEntity
  8
GAIKEI
370
    13
100
AcDbLine
 10
-22.19927741173368
 20
22.24463982578209
 30
0.0
 11
-22.23367661152929
 21
21.9805157641955
 31
0.0
  0
LINE
  5
262
330
2
100
AcDbEntity
  8
GAIKEI
370
    13
100
AcDbLine
 10
-22.15162801232174
 20
22.50816072530711
 30
0.0
 11
-22.19927741173368
 21
22.24463982578209
 31
0.0
  0
LINE
  5
263
330
2
100
AcDbEntity
  8
GAIKEI
370
    13
100
AcDbLine
 10
-22.09070158367669
 20
22.77004864928404
 30
0.0
 11
-22.15162801232174
 21
22.50816072530711
 31
0.0
  0
LINE
  5
264
330
2
100
AcDbEntity
  8
GAIKEI
370
    13
100
AcDbLine
 10
-22.02502873357781
 20
23.00202982132873
 30
0.0
 11
-22.09070158367669
 21
22.77004864928404
 31
0.0
  0
LINE
  5
265
330
2
100
AcDbEntity
  8
GAIKEI
370
    13
100
AcDbLine
 10
-21.948944176628
 20
23.23111278958129
 30
0.0
 11
-22.02502873357781
 21
23.00202982132873
 31
0.0
  0
LINE
  5
266
330
2
100
AcDbEntity
  8
GAIKEI
370
    13
100
AcDbLine
 10
-21.86264883236348
 20
23.45659917709941
 30
0.0
 11
-21.948944176628
 21
23.23111278958129
 31
0.0
  0
LINE
  5
267
330
2
100
AcDbEntity
  8
GAIKEI
370
    13
100
AcDbLine
 10
-21.76664439444551
 20
23.6773052531214
 30
0.0
 11
-21.86264883236348
 21
23.45659917709941
 31
0.0
  0
LINE
  5
268
330
2
100
AcDbEntity
  8
GAIKEI
370
    13
100
AcDbLine
 10
-21.66104403140801
 20
23.89315234433491
 30
0.0
 11
-21.76664439444551
 21
23.6773052531214
 31
0.0
  0
LINE
  5
269
330
2
100
AcDbEntity
  8
GAIKEI
370
    13
100
AcDbLine
 10
-21.54641943598765
 20
24.10320504522849
 30
0.0
 11
-21.66104403140801
 21
23.89315234433491
 31
0.0
  0
LINE
  5
26A
330
2
100
AcDbEntity
  8
GAIKEI
370
    13
100
AcDbLine
 10
-21.42430574640804
 20
24.30524860119533
 30
0.0
 11
-21.54641943598765
 21
24.10320504522849
 31
0.0
  0
LINE
  5
26B
330
2
100
AcDbEntity
  8
GAIKEI
370
    13
100
AcDbLine
 10
-21.29409193327638
 20
24.50086495099356
 30
0.0
 11
-21.42430574640804
 21
24.30524860119533
 31
0.0
  0
LINE
  5
26C
330
2
100
AcDbEntity
  8
GAIKEI
370
    13
100
AcDbLine
 10
-21.1564939237353
 20
24.68929096349314
 30
0.0
 11
-21.29409193327638
 21
24.50086495099356
 31
0.0
  0
LINE
  5
26D
330
2
100
AcDbEntity
  8
GAIKEI
370
    40
100
AcDbLine
 10
-23.01914914679324
 20
24.87046027069471
 30
0.0
 11
-22.94291047084172
 21
24.87928378526783
 31
0.0
  0
LINE
  5
26E
330
2
100
AcDbEntity
  8
GAIKEI
370
    40
100
AcDbLine
 10
-23.0917527122599
 20
24.85289211658744
 30
0.0
 11
-23.01914914679324
 21
24.87046027069471
 31
0.0
  0
LINE
  5
26F
330
2
100
AcDbEntity
  8
GAIKEI
370
    40
100
AcDbLine
 10
-23.1615510698241
 20
24.82680666864587
 30
0.0
 11
-23.0917527122599
 21
24.85289211658744
 31
0.0
  0
LINE
  5
270
330
2
100
AcDbEntity
  8
GAIKEI
370
    40
100
AcDbLine
 10
-23.22594598291289
 20
24.79360632909516
 30
0.0
 11
-23.1615510698241
 21
24.82680666864587
 31
0.0
  0
LINE
  5
271
330
2
100
AcDbEntity
  8
GAIKEI
370
    40
100
AcDbLine
 10
-23.2682399487426
 20
24.76617415542682
 30
0.0
 11
-23.22594598291289
 21
24.79360632909516
 31
0.0
  0
LINE
  5
272
330
2
100
AcDbEntity
  8
GAIKEI
370
    40
100
AcDbLine
 10
-23.30754816150429
 20
24.73589037677448
 30
0.0
 11
-23.2682399487426
 21
24.76617415542682
 31
0.0
  0
LINE
  5
273
330
2
100
AcDbEntity
  8
GAIKEI
370
    40
100
AcDbLine
 10
-23.37695537149747
 20
24.66777199701926
 30
0.0
 11
-23.30754816150429
 21
24.73589037677448
 31
0.0
  0
LINE
  5
274
330
2
100
AcDbEntity
  8
GAIKEI
370
    40
100
AcDbLine
 10
-23.43369718682968
 20
24.59107641067669
 30
0.0
 11
-23.37695537149747
 21
24.66777199701926
 31
0.0
  0
LINE
  5
275
330
2
100
AcDbEntity
  8
GAIKEI
370
    40
100
AcDbLine
 10
-23.47730459352326
 20
24.50735832343514
 30
0.0
 11
-23.43369718682968
 21
24.59107641067669
 31
0.0
  0
LINE
  5
276
330
2
100
AcDbEntity
  8
GAIKEI
370
    40
100
AcDbLine
 10
-23.50752462661995
 20
24.41686202601591
 30
0.0
 11
-23.47730459352326
 21
24.50735832343514
 31
0.0
  0
LINE
  5
277
330
2
100
AcDbEntity
  8
GAIKEI
370
    40
100
AcDbLine
 10
-23.52301741909199
 20
24.32203970504804
 30
0.0
 11
-23.50752462661995
 21
24.41686202601591
 31
0.0
  0
LINE
  5
278
330
2
100
AcDbEntity
  8
GAIKEI
370
    40
100
AcDbLine
 10
-23.52497820010822
 20
24.27290701110803
 30
0.0
 11
-23.52301741909199
 21
24.32203970504804
 31
0.0
  0
LINE
  5
279
330
2
100
AcDbEntity
  8
GAIKEI
370
    40
100
AcDbLine
 10
-23.52283203249178
 20
24.22334645538467
 30
0.0
 11
-23.52497820010822
 21
24.27290701110803
 31
0.0
  0
LINE
  5
27A
330
2
100
AcDbEntity
  8
GAIKEI
370
    40
100
AcDbLine
 10
-23.51668119154877
 20
24.17487865179749
 30
0.0
 11
-23.52283203249178
 21
24.22334645538467
 31
0.0
  0
LINE
  5
27B
330
2
100
AcDbEntity
  8
GAIKEI
370
    40
100
AcDbLine
 10
-23.50642582269037
 20
24.12653551515155
 30
0.0
 11
-23.51668119154877
 21
24.17487865179749
 31
0.0
  0
LINE
  5
27C
330
2
100
AcDbEntity
  8
GAIKEI
370
    40
100
AcDbLine
 10
-23.49231647015756
 20
24.07958993929572
 30
0.0
 11
-23.50642582269037
 21
24.12653551515155
 31
0.0
  0
LINE
  5
27D
330
2
100
AcDbEntity
  8
GAIKEI
370
    40
100
AcDbLine
 10
-23.47412034163628
 20
24.03336150094129
 30
0.0
 11
-23.49231647015756
 21
24.07958993929572
 31
0.0
  0
LINE
  5
27E
330
2
100
AcDbEntity
  8
GAIKEI
370
    40
100
AcDbLine
 10
-23.44342463758938
 20
23.97342474222069
 30
0.0
 11
-23.47412034163628
 21
24.03336150094129
 31
0.0
  0
LINE
  5
27F
330
2
100
AcDbEntity
  8
GAIKEI
370
    40
100
AcDbLine
 10
-23.40535784935173
 20
23.91624437360349
 30
0.0
 11
-23.44342463758938
 21
23.97342474222069
 31
0.0
  0
LINE
  5
280
330
2
100
AcDbEntity
  8
GAIKEI
370
    40
100
AcDbLine
 10
-23.3600234625882
 20
23.86277456116056
 30
0.0
 11
-23.40535784935173
 21
23.91624437360349
 31
0.0
  0
LINE
  5
281
330
2
100
AcDbEntity
  8
GAIKEI
370
    40
100
AcDbLine
 10
-23.01826497979795
 20
24.1508709862087
 30
0.0
 11
-23.02180184950552
 21
24.10051018168986
 31
0.0
  0
LINE
  5
282
330
2
100
AcDbEntity
  8
GAIKEI
370
    40
100
AcDbLine
 10
-23.00535206679265
 20
24.19972368384708
 30
0.0
 11
-23.01826497979795
 21
24.1508709862087
 31
0.0
  0
LINE
  5
283
330
2
100
AcDbEntity
  8
GAIKEI
370
    40
100
AcDbLine
 10
-22.98511204596102
 20
24.24255383855973
 30
0.0
 11
-23.00535206679265
 21
24.19972368384708
 31
0.0
  0
LINE
  5
284
330
2
100
AcDbEntity
  8
GAIKEI
370
    40
100
AcDbLine
 10
-22.95693308100448
 20
24.28157963430261
 30
0.0
 11
-22.98511204596102
 21
24.24255383855973
 31
0.0
  0
LINE
  5
285
330
2
100
AcDbEntity
  8
GAIKEI
370
    40
100
AcDbLine
 10
-22.92084966714461
 20
24.31503535952891
 30
0.0
 11
-22.95693308100448
 21
24.28157963430261
 31
0.0
  0
LINE
  5
286
330
2
100
AcDbEntity
  8
GAIKEI
370
    40
100
AcDbLine
 10
-22.89509020913343
 20
24.33173266058612
 30
0.0
 11
-22.92084966714461
 21
24.31503535952891
 31
0.0
  0
LINE
  5
287
330
2
100
AcDbEntity
  8
GAIKEI
370
    40
100
AcDbLine
 10
-22.8666990279599
 20
24.34486384160175
 30
0.0
 11
-22.89509020913343
 21
24.33173266058612
 31
0.0
  0
LINE
  5
288
330
2
100
AcDbEntity
  8
GAIKEI
370
    40
100
AcDbLine
 10
-22.83806174052714
 20
24.35328854299894
 30
0.0
 11
-22.8666990279599
 21
24.34486384160175
 31
0.0
  0
LINE
  5
289
330
2
100
AcDbEntity
  8
GAIKEI
370
    40
100
AcDbLine
 10
-22.80802870784217
 20
24.35737935351631
 30
0.0
 11
-22.83806174052714
 21
24.35328854299894
 31
0.0
  0
LINE
  5
28A
330
2
100
AcDbEntity
  8
GAIKEI
370
    40
100
AcDbLine
 10
-22.55080147158117
 20
24.15465718979851
 30
0.0
 11
-22.54962338915988
 21
24.1218199578434
 31
0.0
  0
LINE
  5
28B
330
2
100
AcDbEntity
  8
GAIKEI
370
    40
100
AcDbLine
 10
-22.55611978749803
 20
24.18730036091654
 30
0.0
 11
-22.55080147158117
 21
24.15465718979851
 31
0.0
  0
LINE
  5
28C
330
2
100
AcDbEntity
  8
GAIKEI
370
    40
100
AcDbLine
 10
-22.56530862865759
 20
24.21818145156374
 30
0.0
 11
-22.55611978749803
 21
24.18730036091654
 31
0.0
  0
LINE
  5
28D
330
2
100
AcDbEntity
  8
GAIKEI
370
    40
100
AcDbLine
 10
-22.57864899999351
 20
24.24799742659707
 30
0.0
 11
-22.56530862865759
 21
24.21818145156374
 31
0.0
  0
LINE
  5
28E
330
2
100
AcDbEntity
  8
GAIKEI
370
    40
100
AcDbLine
 10
-22.60969127006777
 20
24.29266228329959
 30
0.0
 11
-22.57864899999351
 21
24.24799742659707
 31
0.0
  0
LINE
  5
28F
330
2
100
AcDbEntity
  8
GAIKEI
370
    40
100
AcDbLine
 10
-22.62964968078637
 20
24.31226061231916
 30
0.0
 11
-22.60969127006777
 21
24.29266228329959
 31
0.0
  0
LINE
  5
290
330
2
100
AcDbEntity
  8
GAIKEI
370
    40
100
AcDbLine
 10
-22.6524592930362
 20
24.32927018590863
 30
0.0
 11
-22.62964968078637
 21
24.31226061231916
 31
0.0
  0
LINE
  5
291
330
2
100
AcDbEntity
  8
GAIKEI
370
    40
100
AcDbLine
 10
-22.68810818814001
 20
24.34733862159215
 30
0.0
 11
-22.6524592930362
 21
24.32927018590863
 31
0.0
  0
LINE
  5
292
330
2
100
AcDbEntity
  8
GAIKEI
370
    40
100
AcDbLine
 10
-22.72720438641113
 20
24.35776404584113
 30
0.0
 11
-22.68810818814001
 21
24.34733862159215
 31
0.0
  0
LINE
  5
293
330
2
100
AcDbEntity
  8
GAIKEI
370
    40
100
AcDbLine
 10
-22.76768341944217
 20
24.35971090773285
 30
0.0
 11
-22.72720438641113
 21
24.35776404584113
 31
0.0
  0
LINE
  5
294
330
2
100
AcDbEntity
  8
GAIKEI
370
    40
100
AcDbLine
 10
-23.43173721271918
 20
23.94078762289587
 30
0.0
 11
-23.37219664473071
 21
23.86761196123973
 31
0.0
  0
LINE
  5
295
330
2
100
AcDbEntity
  8
GAIKEI
370
    40
100
AcDbLine
 10
-23.47807559198458
 20
24.02039654251394
 30
0.0
 11
-23.43173721271918
 21
23.94078762289587
 31
0.0
  0
LINE
  5
296
330
2
100
AcDbEntity
  8
GAIKEI
370
    40
100
AcDbLine
 10
-23.51097899021275
 20
24.10416849071544
 30
0.0
 11
-23.47807559198458
 21
24.02039654251394
 31
0.0
  0
LINE
  5
297
330
2
100
AcDbEntity
  8
GAIKEI
370
    40
100
AcDbLine
 10
-23.52353081288689
 20
24.15193448801085
 30
0.0
 11
-23.51097899021275
 21
24.10416849071544
 31
0.0
  0
LINE
  5
298
330
2
100
AcDbEntity
  8
GAIKEI
370
    40
100
AcDbLine
 10
-23.53200009582781
 20
24.20004523579564
 30
0.0
 11
-23.52353081288689
 21
24.15193448801085
 31
0.0
  0
LINE
  5
299
330
2
100
AcDbEntity
  8
GAIKEI
370
    40
100
AcDbLine
 10
-23.53652502164832
 20
24.24944884834725
 30
0.0
 11
-23.53200009582781
 21
24.20004523579564
 31
0.0
  0
LINE
  5
29A
330
2
100
AcDbEntity
  8
GAIKEI
370
    40
100
AcDbLine
 10
-23.53692746590011
 20
24.2986198703112
 30
0.0
 11
-23.53652502164832
 21
24.24944884834725
 31
0.0
  0
LINE
  5
29B
330
2
100
AcDbEntity
  8
GAIKEI
370
    40
100
AcDbLine
 10
-23.52601709128453
 20
24.39400722704306
 30
0.0
 11
-23.53692746590011
 21
24.2986198703112
 31
0.0
  0
LINE
  5
29C
330
2
100
AcDbEntity
  8
GAIKEI
370
    40
100
AcDbLine
 10
-23.50025803672622
 20
24.4856007145803
 30
0.0
 11
-23.52601709128453
 21
24.39400722704306
 31
0.0
  0
LINE
  5
29D
330
2
100
AcDbEntity
  8
GAIKEI
370
    40
100
AcDbLine
 10
-23.45965716092422
 20
24.57320647381209
 30
0.0
 11
-23.50025803672622
 21
24.4856007145803
 31
0.0
  0
LINE
  5
29E
330
2
100
AcDbEntity
  8
GAIKEI
370
    40
100
AcDbLine
 10
-23.4052077648789
 20
24.65376048181088
 30
0.0
 11
-23.45965716092422
 21
24.57320647381209
 31
0.0
  0
LINE
  5
29F
330
2
100
AcDbEntity
  8
GAIKEI
370
    40
100
AcDbLine
 10
-23.37255995405275
 20
24.69134413521988
 30
0.0
 11
-23.4052077648789
 21
24.65376048181088
 31
0.0
  0
LINE
  5
2A0
330
2
100
AcDbEntity
  8
GAIKEI
370
    40
100
AcDbLine
 10
-23.33660766238017
 20
24.72646975193311
 30
0.0
 11
-23.37255995405275
 21
24.69134413521988
 31
0.0
  0
LINE
  5
2A1
330
2
100
AcDbEntity
  8
GAIKEI
370
    40
100
AcDbLine
 10
-23.2984569559427
 20
24.75811417543673
 30
0.0
 11
-23.33660766238017
 21
24.72646975193311
 31
0.0
  0
LINE
  5
2A2
330
2
100
AcDbEntity
  8
GAIKEI
370
    40
100
AcDbLine
 10
-23.25732271542802
 20
24.7869499616885
 30
0.0
 11
-23.2984569559427
 21
24.75811417543673
 31
0.0
  0
LINE
  5
2A3
330
2
100
AcDbEntity
  8
GAIKEI
370
    40
100
AcDbLine
 10
-23.19013126867378
 20
24.82439805492845
 30
0.0
 11
-23.25732271542802
 21
24.7869499616885
 31
0.0
  0
LINE
  5
2A4
330
2
100
AcDbEntity
  8
GAIKEI
370
    40
100
AcDbLine
 10
-23.11684243848365
 20
24.85388783830513
 30
0.0
 11
-23.19013126867378
 21
24.82439805492845
 31
0.0
  0
LINE
  5
2A5
330
2
100
AcDbEntity
  8
GAIKEI
370
    40
100
AcDbLine
 10
-23.03825183394486
 20
24.87423860695333
 30
0.0
 11
-23.11684243848365
 21
24.85388783830513
 31
0.0
  0
LINE
  5
2A6
330
2
100
AcDbEntity
  8
GAIKEI
370
    40
100
AcDbLine
 10
-22.95557404996472
 20
24.88426400766787
 30
0.0
 11
-23.03825183394486
 21
24.87423860695333
 31
0.0
  0
LINE
  5
2A7
330
2
100
AcDbEntity
  8
GAIKEI
370
    13
100
AcDbLine
 10
-22.21149134261745
 20
21.54326058894174
 30
0.0
 11
-22.21311846809863
 21
21.37297401983324
 31
0.0
  0
LINE
  5
2A8
330
2
100
AcDbEntity
  8
GAIKEI
370
    13
100
AcDbLine
 10
-22.19872750545278
 20
21.80155959778915
 30
0.0
 11
-22.21149134261745
 21
21.54326058894174
 31
0.0
  0
LINE
  5
2A9
330
2
100
AcDbEntity
  8
GAIKEI
370
    13
100
AcDbLine
 10
-22.17327305782189
 20
22.06058643563927
 30
0.0
 11
-22.19872750545278
 21
21.80155959778915
 31
0.0
  0
LINE
  5
2AA
330
2
100
AcDbEntity
  8
GAIKEI
370
    13
100
AcDbLine
 10
-22.13456598985738
 20
22.32132774651995
 30
0.0
 11
-22.17327305782189
 21
22.06058643563927
 31
0.0
  0
LINE
  5
2AB
330
2
100
AcDbEntity
  8
GAIKEI
370
    13
100
AcDbLine
 10
-22.08263454326112
 20
22.58086091773941
 30
0.0
 11
-22.13456598985738
 21
22.32132774651995
 31
0.0
  0
LINE
  5
2AC
330
2
100
AcDbEntity
  8
GAIKEI
370
    13
100
AcDbLine
 10
-22.01748113875038
 20
22.8382101984979
 30
0.0
 11
-22.08263454326112
 21
22.58086091773941
 31
0.0
  0
LINE
  5
2AD
330
2
100
AcDbEntity
  8
GAIKEI
370
    13
100
AcDbLine
 10
-21.93921349824527
 20
23.09242122099806
 30
0.0
 11
-22.01748113875038
 21
22.8382101984979
 31
0.0
  0
LINE
  5
2AE
330
2
100
AcDbEntity
  8
GAIKEI
370
    13
100
AcDbLine
 10
-21.85876902770451
 20
23.31508505213969
 30
0.0
 11
-21.93921349824527
 21
23.09242122099806
 31
0.0
  0
LINE
  5
2AF
330
2
100
AcDbEntity
  8
GAIKEI
370
    13
100
AcDbLine
 10
-21.76833344994435
 20
23.53389792550354
 30
0.0
 11
-21.85876902770451
 21
23.31508505213969
 31
0.0
  0
LINE
  5
2B0
330
2
100
AcDbEntity
  8
GAIKEI
370
    13
100
AcDbLine
 10
-21.66823598251821
 20
23.74813685352149
 30
0.0
 11
-21.76833344994435
 21
23.53389792550354
 31
0.0
  0
LINE
  5
2B1
330
2
100
AcDbEntity
  8
GAIKEI
370
    13
100
AcDbLine
 10
-21.54546204229391
 20
23.98125535924624
 30
0.0
 11
-21.66823598251821
 21
23.74813685352149
 31
0.0
  0
LINE
  5
2B2
330
2
100
AcDbEntity
  8
GAIKEI
370
    13
100
AcDbLine
 10
-21.41195706226103
 20
24.20665399576205
 30
0.0
 11
-21.54546204229391
 21
23.98125535924624
 31
0.0
  0
LINE
  5
2B3
330
2
100
AcDbEntity
  8
GAIKEI
370
    13
100
AcDbLine
 10
-21.26838996730115
 20
24.4237247595728
 30
0.0
 11
-21.41195706226103
 21
24.20665399576205
 31
0.0
  0
LINE
  5
2B4
330
2
100
AcDbEntity
  8
GAIKEI
370
    13
100
AcDbLine
 10
-21.11523582318526
 20
24.63225523273502
 30
0.0
 11
-21.26838996730115
 21
24.4237247595728
 31
0.0
  0
LINE
  5
2B5
330
2
100
AcDbEntity
  8
GAIKEI
370
    13
100
AcDbLine
 10
-13.04978420506245
 20
25.46405525403645
 30
0.0
 11
-12.93728580634075
 21
25.36645475650937
 31
0.0
  0
LINE
  5
2B6
330
2
100
AcDbEntity
  8
GAIKEI
370
    13
100
AcDbLine
 10
-13.22225789225513
 20
25.60128773526458
 30
0.0
 11
-13.04978420506245
 21
25.46405525403645
 31
0.0
  0
LINE
  5
2B7
330
2
100
AcDbEntity
  8
GAIKEI
370
    13
100
AcDbLine
 10
-13.40017052777702
 20
25.72865337276164
 30
0.0
 11
-13.22225789225513
 21
25.60128773526458
 31
0.0
  0
LINE
  5
2B8
330
2
100
AcDbEntity
  8
GAIKEI
370
    13
100
AcDbLine
 10
-13.58339603260188
 20
25.84634925326145
 30
0.0
 11
-13.40017052777702
 21
25.72865337276164
 31
0.0
  0
LINE
  5
2B9
330
2
100
AcDbEntity
  8
GAIKEI
370
    13
100
AcDbLine
 10
-13.77201610593869
 20
25.95471387373368
 30
0.0
 11
-13.58339603260188
 21
25.84634925326145
 31
0.0
  0
LINE
  5
2BA
330
2
100
AcDbEntity
  8
GAIKEI
370
    13
100
AcDbLine
 10
-13.96589478416558
 20
26.05396711600008
 30
0.0
 11
-13.77201610593869
 21
25.95471387373368
 31
0.0
  0
LINE
  5
2BB
330
2
100
AcDbEntity
  8
GAIKEI
370
    13
100
AcDbLine
 10
-14.16481722862178
 20
26.14433551885509
 30
0.0
 11
-13.96589478416558
 21
26.05396711600008
 31
0.0
  0
LINE
  5
2BC
330
2
100
AcDbEntity
  8
GAIKEI
370
    40
100
AcDbLine
 10
-13.60288966559813
 20
27.39353841280013
 30
0.0
 11
-13.60200166580043
 21
27.39324893535593
 31
0.0
  0
LINE
  5
2BD
330
2
100
AcDbEntity
  8
GAIKEI
370
    40
100
AcDbLine
 10
-13.62445341534214
 20
27.40546286623965
 30
0.0
 11
-13.60288966559813
 21
27.39353841280013
 31
0.0
  0
LINE
  5
2BE
330
2
100
AcDbEntity
  8
GAIKEI
370
    40
100
AcDbLine
 10
-13.6980569387818
 20
27.44803622319148
 30
0.0
 11
-13.62445341534214
 21
27.40546286623965
 31
0.0
  0
LINE
  5
2BF
330
2
100
AcDbEntity
  8
GAIKEI
370
    13
100
AcDbLine
 10
-20.30944439205086
 20
25.45748663763209
 30
0.0
 11
-20.50226743580674
 21
25.29543998849988
 31
0.0
  0
LINE
  5
2C0
330
2
100
AcDbEntity
  8
GAIKEI
370
    13
100
AcDbLine
 10
-20.10787570012849
 20
25.60749163026185
 30
0.0
 11
-20.30944439205086
 21
25.45748663763209
 31
0.0
  0
LINE
  5
2C1
330
2
100
AcDbEntity
  8
GAIKEI
370
    13
100
AcDbLine
 10
-19.89883102626561
 20
25.74472411149009
 30
0.0
 11
-20.10787570012849
 21
25.60749163026185
 31
0.0
  0
LINE
  5
2C2
330
2
100
AcDbEntity
  8
GAIKEI
370
    13
100
AcDbLine
 10
-19.68236584523376
 20
25.86955041653528
 30
0.0
 11
-19.89883102626561
 21
25.74472411149009
 31
0.0
  0
LINE
  5
2C3
330
2
100
AcDbEntity
  8
GAIKEI
370
    13
100
AcDbLine
 10
-19.45828327202557
 20
25.9824952358731
 30
0.0
 11
-19.68236584523376
 21
25.86955041653528
 31
0.0
  0
LINE
  5
2C4
330
2
100
AcDbEntity
  8
GAIKEI
370
    13
100
AcDbLine
 10
-19.22750721374535
 20
26.08360012515061
 30
0.0
 11
-19.45828327202557
 21
25.9824952358731
 31
0.0
  0
LINE
  5
2C5
330
2
100
AcDbEntity
  8
GAIKEI
370
    13
100
AcDbLine
 10
-18.9878285641268
 20
26.17423621899411
 30
0.0
 11
-19.22750721374535
 21
26.08360012515061
 31
0.0
  0
LINE
  5
2C6
330
2
100
AcDbEntity
  8
GAIKEI
370
    13
100
AcDbLine
 10
-18.74154660115582
 20
26.25392986371764
 30
0.0
 11
-18.9878285641268
 21
26.17423621899411
 31
0.0
  0
LINE
  5
2C7
330
2
100
AcDbEntity
  8
GAIKEI
370
    13
100
AcDbLine
 10
-18.48894596084207
 20
26.32313171619296
 30
0.0
 11
-18.74154660115582
 21
26.25392986371764
 31
0.0
  0
LINE
  5
2C8
330
2
100
AcDbEntity
  8
GAIKEI
370
    13
100
AcDbLine
 10
-18.23045551360124
 20
26.38218208892738
 30
0.0
 11
-18.48894596084207
 21
26.32313171619296
 31
0.0
  0
LINE
  5
2C9
330
2
100
AcDbEntity
  8
GAIKEI
370
    40
100
AcDbLine
 10
-13.40228220017189
 20
27.21384191035168
 30
0.0
 11
-13.42295008278699
 21
27.26841355262081
 31
0.0
  0
LINE
  5
2CA
330
2
100
AcDbEntity
  8
GAIKEI
370
    40
100
AcDbLine
 10
-13.38140028580182
 20
27.17026819197383
 30
0.0
 11
-13.40228220017189
 21
27.21384191035168
 31
0.0
  0
LINE
  5
2CB
330
2
100
AcDbEntity
  8
GAIKEI
370
    40
100
AcDbLine
 10
-13.3362323233529
 20
27.09722183696704
 30
0.0
 11
-13.38140028580182
 21
27.17026819197383
 31
0.0
  0
LINE
  5
2CC
330
2
100
AcDbEntity
  8
GAIKEI
370
    40
100
AcDbLine
 10
-13.30598061920483
 20
27.05829004574605
 30
0.0
 11
-13.3362323233529
 21
27.09722183696704
 31
0.0
  0
LINE
  5
2CD
330
2
100
AcDbEntity
  8
GAIKEI
370
    40
100
AcDbLine
 10
-13.27507189203515
 20
27.0241476437111
 30
0.0
 11
-13.30598061920483
 21
27.05829004574605
 31
0.0
  0
LINE
  5
2CE
330
2
100
AcDbEntity
  8
GAIKEI
370
    40
100
AcDbLine
 10
-13.21178465883938
 20
26.96726441814315
 30
0.0
 11
-13.27507189203515
 21
27.0241476437111
 31
0.0
  0
LINE
  5
2CF
330
2
100
AcDbEntity
  8
GAIKEI
370
    40
100
AcDbLine
 10
-13.14661209031666
 20
26.92230564601459
 30
0.0
 11
-13.21178465883938
 21
26.96726441814315
 31
0.0
  0
LINE
  5
2D0
330
2
100
AcDbEntity
  8
GAIKEI
370
    40
100
AcDbLine
 10
-13.08086984632174
 20
26.8876770832544
 30
0.0
 11
-13.14661209031666
 21
26.92230564601459
 31
0.0
  0
LINE
  5
2D1
330
2
100
AcDbEntity
  8
GAIKEI
370
    40
100
AcDbLine
 10
-13.01395658033101
 20
26.8615563331856
 30
0.0
 11
-13.08086984632174
 21
26.8876770832544
 31
0.0
  0
LINE
  5
2D2
330
2
100
AcDbEntity
  8
GAIKEI
370
    40
100
AcDbLine
 10
-12.945710507738
 20
26.84318914064147
 30
0.0
 11
-13.01395658033101
 21
26.8615563331856
 31
0.0
  0
LINE
  5
2D3
330
2
100
AcDbEntity
  8
GAIKEI
370
    13
100
AcDbLine
 10
-13.31069012471977
 20
26.65803230686095
 30
0.0
 11
-12.94707095086284
 21
26.69517559144708
 31
0.0
  0
LINE
  5
2D4
330
2
100
AcDbEntity
  8
GAIKEI
370
    13
100
AcDbLine
 10
-13.91210503358559
 20
26.59418003790108
 30
0.0
 11
-13.31069012471977
 21
26.65803230686095
 31
0.0
  0
LINE
  5
2D5
330
2
100
AcDbEntity
  8
GAIKEI
370
    13
100
AcDbLine
 10
-14.39125455458745
 20
26.54528760015353
 30
0.0
 11
-13.91210503358559
 21
26.59418003790108
 31
0.0
  0
LINE
  5
2D6
330
2
100
AcDbEntity
  8
GAIKEI
370
    13
100
AcDbLine
 10
-14.85873359574026
 20
26.50261580069798
 30
0.0
 11
-14.39125455458745
 21
26.54528760015353
 31
0.0
  0
LINE
  5
2D7
330
2
100
AcDbEntity
  8
GAIKEI
370
    13
100
AcDbLine
 10
-15.2317086402507
 20
26.47381410621495
 30
0.0
 11
-14.85873359574026
 21
26.50261580069798
 31
0.0
  0
LINE
  5
2D8
330
2
100
AcDbEntity
  8
GAIKEI
370
    13
100
AcDbLine
 10
-20.33919581462277
 20
25.53200438530678
 30
0.0
 11
-20.53483919576428
 21
25.36645475650937
 31
0.0
  0
LINE
  5
2D9
330
2
100
AcDbEntity
  8
GAIKEI
370
    13
100
AcDbLine
 10
-20.13512006647923
 20
25.68498907921151
 30
0.0
 11
-20.33919581462277
 21
25.53200438530678
 31
0.0
  0
LINE
  5
2DA
330
2
100
AcDbEntity
  8
GAIKEI
370
    13
100
AcDbLine
 10
-19.92355663626156
 20
25.82496261933352
 30
0.0
 11
-20.13512006647923
 21
25.68498907921151
 31
0.0
  0
LINE
  5
2DB
330
2
100
AcDbEntity
  8
GAIKEI
370
    13
100
AcDbLine
 10
-19.70461909595656
 20
25.95226511645421
 30
0.0
 11
-19.92355663626156
 21
25.82496261933352
 31
0.0
  0
LINE
  5
2DC
330
2
100
AcDbEntity
  8
GAIKEI
370
    13
100
AcDbLine
 10
-19.50008684087478
 20
26.05692523254561
 30
0.0
 11
-19.70461909595656
 21
25.95226511645421
 31
0.0
  0
LINE
  5
2DD
330
2
100
AcDbEntity
  8
GAIKEI
370
    13
100
AcDbLine
 10
-19.28988102961176
 20
26.15173847582355
 30
0.0
 11
-19.50008684087478
 21
26.05692523254561
 31
0.0
  0
LINE
  5
2DE
330
2
100
AcDbEntity
  8
GAIKEI
370
    13
100
AcDbLine
 10
-19.0741900746643
 20
26.23704193117283
 30
0.0
 11
-19.28988102961176
 21
26.15173847582355
 31
0.0
  0
LINE
  5
2DF
330
2
100
AcDbEntity
  8
GAIKEI
370
    13
100
AcDbLine
 10
-18.8532516097811
 20
26.31317409556289
 30
0.0
 11
-19.0741900746643
 21
26.23704193117283
 31
0.0
  0
LINE
  5
2E0
330
2
100
AcDbEntity
  8
GAIKEI
370
    13
100
AcDbLine
 10
-18.70562355981735
 20
26.35828678496671
 30
0.0
 11
-18.8532516097811
 21
26.31317409556289
 31
0.0
  0
LINE
  5
2E1
330
2
100
AcDbEntity
  8
GAIKEI
370
    13
100
AcDbLine
 10
-18.5559270069173
 20
26.39968710265839
 30
0.0
 11
-18.70562355981735
 21
26.35828678496671
 31
0.0
  0
LINE
  5
2E2
330
2
100
AcDbEntity
  8
GAIKEI
370
    13
100
AcDbLine
 10
-18.39919948060779
 20
26.43864047860859
 30
0.0
 11
-18.5559270069173
 21
26.39968710265839
 31
0.0
  0
LINE
  5
2E3
330
2
100
AcDbEntity
  8
GAIKEI
370
    13
100
AcDbLine
 10
-18.24041474804278
 20
26.47380785269536
 30
0.0
 11
-18.39919948060779
 21
26.43864047860859
 31
0.0
  0
LINE
  5
2E4
330
2
100
AcDbEntity
  8
GAIKEI
370
    40
100
AcDbLine
 10
-19.86923594168624
 20
27.39353841280013
 30
0.0
 11
-19.87012394148394
 21
27.39324893535593
 31
0.0
  0
LINE
  5
2E5
330
2
100
AcDbEntity
  8
GAIKEI
370
    40
100
AcDbLine
 10
-19.84767158676288
 20
27.40546286623965
 30
0.0
 11
-19.86923594168624
 21
27.39353841280013
 31
0.0
  0
LINE
  5
2E6
330
2
100
AcDbEntity
  8
GAIKEI
370
    40
100
AcDbLine
 10
-19.77406947540831
 20
27.44803622319148
 30
0.0
 11
-19.84767158676288
 21
27.40546286623965
 31
0.0
  0
LINE
  5
2E7
330
2
100
AcDbEntity
  8
GAIKEI
370
    13
100
AcDbLine
 10
-14.42519361636886
 20
27.48244631621503
 30
0.0
 11
-13.88472066908409
 21
27.54302012703943
 31
0.0
  0
LINE
  5
2E8
330
2
100
AcDbEntity
  8
GAIKEI
370
    13
100
AcDbLine
 10
-14.84546846836724
 20
27.4375920383834
 30
0.0
 11
-14.42519361636886
 21
27.48244631621503
 31
0.0
  0
LINE
  5
2E9
330
2
100
AcDbEntity
  8
GAIKEI
370
    13
100
AcDbLine
 10
-15.32563065610793
 20
27.39283963240507
 30
0.0
 11
-14.84546846836724
 21
27.4375920383834
 31
0.0
  0
LINE
  5
2EA
330
2
100
AcDbEntity
  8
GAIKEI
370
    13
100
AcDbLine
 10
-15.69988767215727
 20
27.36525979498129
 30
0.0
 11
-15.32563065610793
 21
27.39283963240507
 31
0.0
  0
LINE
  5
2EB
330
2
100
AcDbEntity
  8
GAIKEI
370
    13
100
AcDbLine
 10
-20.16143548256457
 20
26.65803230686095
 30
0.0
 11
-20.52505546332728
 21
26.69517559144708
 31
0.0
  0
LINE
  5
2EC
330
2
100
AcDbEntity
  8
GAIKEI
370
    13
100
AcDbLine
 10
-19.56002057369875
 20
26.59418003790108
 30
0.0
 11
-20.16143548256457
 21
26.65803230686095
 31
0.0
  0
LINE
  5
2ED
330
2
100
AcDbEntity
  8
GAIKEI
370
    13
100
AcDbLine
 10
-19.08087105269689
 20
26.54528760015353
 30
0.0
 11
-19.56002057369875
 21
26.59418003790108
 31
0.0
  0
LINE
  5
2EE
330
2
100
AcDbEntity
  8
GAIKEI
370
    13
100
AcDbLine
 10
-18.61339140636474
 20
26.50261580069798
 30
0.0
 11
-19.08087105269689
 21
26.54528760015353
 31
0.0
  0
LINE
  5
2EF
330
2
100
AcDbEntity
  8
GAIKEI
370
    13
100
AcDbLine
 10
-18.2404171687601
 20
26.47381410621495
 30
0.0
 11
-18.61339140636474
 21
26.50261580069798
 31
0.0
  0
LINE
  5
2F0
330
2
100
AcDbEntity
  8
GAIKEI
370
    40
100
AcDbLine
 10
-20.06984421401825
 20
27.21384191035168
 30
0.0
 11
-20.04917552449734
 21
27.26841355262081
 31
0.0
  0
LINE
  5
2F1
330
2
100
AcDbEntity
  8
GAIKEI
370
    40
100
AcDbLine
 10
-20.09072451457678
 20
27.17026819197383
 30
0.0
 11
-20.06984421401825
 21
27.21384191035168
 31
0.0
  0
LINE
  5
2F2
330
2
100
AcDbEntity
  8
GAIKEI
370
    40
100
AcDbLine
 10
-20.13589328393144
 20
27.09722183696704
 30
0.0
 11
-20.09072451457678
 21
27.17026819197383
 31
0.0
  0
LINE
  5
2F3
330
2
100
AcDbEntity
  8
GAIKEI
370
    40
100
AcDbLine
 10
-20.16614418117376
 20
27.05829004574605
 30
0.0
 11
-20.13589328393144
 21
27.09722183696704
 31
0.0
  0
LINE
  5
2F4
330
2
100
AcDbEntity
  8
GAIKEI
370
    40
100
AcDbLine
 10
-20.19705371524921
 20
27.0241476437111
 30
0.0
 11
-20.16614418117376
 21
27.05829004574605
 31
0.0
  0
LINE
  5
2F5
330
2
100
AcDbEntity
  8
GAIKEI
370
    40
100
AcDbLine
 10
-20.26034094844496
 20
26.96726441814315
 30
0.0
 11
-20.19705371524921
 21
27.0241476437111
 31
0.0
  0
LINE
  5
2F6
330
2
100
AcDbEntity
  8
GAIKEI
370
    40
100
AcDbLine
 10
-20.32551432387345
 20
26.92230564601459
 30
0.0
 11
-20.26034094844496
 21
26.96726441814315
 31
0.0
  0
LINE
  5
2F7
330
2
100
AcDbEntity
  8
GAIKEI
370
    40
100
AcDbLine
 10
-20.39125656786837
 20
26.8876770832544
 30
0.0
 11
-20.32551432387345
 21
26.92230564601459
 31
0.0
  0
LINE
  5
2F8
330
2
100
AcDbEntity
  8
GAIKEI
370
    40
100
AcDbLine
 10
-20.45816902695333
 20
26.8615563331856
 30
0.0
 11
-20.39125656786837
 21
26.8876770832544
 31
0.0
  0
LINE
  5
2F9
330
2
100
AcDbEntity
  8
GAIKEI
370
    40
100
AcDbLine
 10
-20.52641429264057
 20
26.84318914064147
 30
0.0
 11
-20.45816902695333
 21
26.8615563331856
 31
0.0
  0
LINE
  5
2FA
330
2
100
AcDbEntity
  8
GAIKEI
370
    13
100
AcDbLine
 10
-19.04693118400973
 20
27.48244631621503
 30
0.0
 11
-19.58740413129447
 21
27.54302012703943
 31
0.0
  0
LINE
  5
2FB
330
2
100
AcDbEntity
  8
GAIKEI
370
    13
100
AcDbLine
 10
-18.62665713891712
 20
27.4375920383834
 30
0.0
 11
-19.04693118400973
 21
27.48244631621503
 31
0.0
  0
LINE
  5
2FC
330
2
100
AcDbEntity
  8
GAIKEI
370
    13
100
AcDbLine
 10
-18.14649495117643
 20
27.39283963240507
 30
0.0
 11
-18.62665713891712
 21
27.4375920383834
 31
0.0
  0
LINE
  5
2FD
330
2
100
AcDbEntity
  8
GAIKEI
370
    13
100
AcDbLine
 10
-17.77223793512709
 20
27.36525979498129
 30
0.0
 11
-18.14649495117643
 21
27.39283963240507
 31
0.0
  0
LINE
  5
2FE
330
2
100
AcDbEntity
  8
WAKU
 62
     4
100
AcDbLine
 10
61.70688234159138
 20
-52.79952954387289
 30
0.0
 11
-63.2931176584085
 21
-52.79952954387289
 31
0.0
  0
LINE
  5
300
330
2
100
AcDbEntity
  8
WAKU
 62
     1
100
AcDbLine
 10
61.70688234159138
 20
-47.79952954387289
 30
0.0
 11
-63.2931176584085
 21
-47.79952954387289
 31
0.0
  0
LINE
  5
301
330
2
100
AcDbEntity
  8
WAKU
 62
     1
100
AcDbLine
 10
61.70688234159138
 20
-42.79952954387289
 30
0.0
 11
-63.2931176584085
 21
-42.79952954387289
 31
0.0
  0
LINE
  5
302
330
2
100
AcDbEntity
  8
WAKU
 62
     4
100
AcDbLine
 10
61.70688234159138
 20
-17.79952954387289
 30
0.0
 11
61.70688234159138
 21
-52.79952954387289
 31
0.0
  0
LINE
  5
303
330
2
100
AcDbEntity
  8
WAKU
 62
     4
100
AcDbLine
 10
-23.29311765840853
 20
-17.79952954387289
 30
0.0
 11
-23.2931176584085
 21
-52.79952954387289
 31
0.0
  0
LINE
  5
304
330
2
100
AcDbEntity
  8
WAKU
 62
     4
100
AcDbLine
 10
-63.2931176584085
 20
-17.79952954387289
 30
0.0
 11
-63.2931176584085
 21
-52.79952954387289
 31
0.0
  0
LINE
  5
305
330
2
100
AcDbEntity
  8
WAKU
 62
     4
100
AcDbLine
 10
-63.2931176584085
 20
-17.79952954387289
 30
0.0
 11
61.70688234159138
 21
-17.79952954387289
 31
0.0
  0
LINE
  5
306
330
2
100
AcDbEntity
  8
WAKU
 62
     1
100
AcDbLine
 10
-63.2931176584085
 20
-22.79952954387289
 30
0.0
 11
61.70688234159138
 21
-22.79952954387289
 31
0.0
  0
LINE
  5
307
330
2
100
AcDbEntity
  8
WAKU
 62
     1
100
AcDbLine
 10
-63.2931176584085
 20
-27.79952954387289
 30
0.0
 11
61.70688234159138
 21
-27.79952954387289
 31
0.0
  0
LINE
  5
308
330
2
100
AcDbEntity
  8
WAKU
 62
     1
100
AcDbLine
 10
61.70688234159138
 20
-37.79952954387289
 30
0.0
 11
-63.2931176584085
 21
-37.79952954387289
 31
0.0
  0
LINE
  5
309
330
2
100
AcDbEntity
  8
WAKU
 62
     1
100
AcDbLine
 10
-63.2931176584085
 20
-32.79952954387289
 30
0.0
 11
61.70688234159138
 21
-32.79952954387289
 31
0.0
  0
TEXT
  5
30A
330
2
100
AcDbEntity
  8
MOJI1
100
AcDbText
 10
-60.7931176584085
 20
-21.81202190569331
 30
0.0
 40
3.0
  1
使用温度範囲
100
AcDbText
  0
TEXT
  5
30B
330
2
100
AcDbEntity
  8
MOJI1
100
AcDbText
 10
-21.36135619447157
 20
-21.7838773169832
 30
0.0
 40
3.0
  1
－３０℃～＋５０℃
100
AcDbText
  0
LINE
  5
30C
330
2
100
AcDbEntity
  8
GAIKEI
  6
DASHDOT
 48
0.069438
370
    13
100
AcDbLine
 10
-10.4058660741322
 20
24.09316431330433
 30
0.0
 11
-10.96616207369297
 21
24.09316431330433
 31
0.0
  0
LINE
  5
30E
330
2
100
AcDbEntity
  8
GAIKEI
  6
DASHDOT
 48
0.069438
370
    13
100
AcDbLine
 10
-10.68601488081836
 20
24.37331311999049
 30
0.0
 11
-10.68601488081836
 21
23.81301550661817
 31
0.0
  0
LINE
  5
30F
330
2
100
AcDbEntity
  8
GAIKEI
  6
DASHDOT
 48
0.069466
370
    13
100
AcDbLine
 10
-22.52577892026258
 20
24.09328756816047
 30
0.0
 11
-23.08630730868455
 21
24.09328756816047
 31
0.0
  0
LINE
  5
310
330
2
100
AcDbEntity
  8
GAIKEI
  6
DASHDOT
 48
0.069466
370
    13
100
AcDbLine
 10
-22.80604311447357
 20
24.37355176237145
 30
0.0
 11
-22.80604311447357
 21
23.81302337394948
 31
0.0
  0
POINT
  5
311
330
2
100
AcDbEntity
  8
GAIKEI
370
     5
100
AcDbPoint
 10
-9.66017298459846
 20
22.1441060240619
 30
0.0
  0
POINT
  5
312
330
2
100
AcDbEntity
  8
GAIKEI
370
     5
100
AcDbPoint
 10
-9.536059379072867
 20
22.82368307050365
 30
0.0
  0
POINT
  5
313
330
2
100
AcDbEntity
  8
GAIKEI
370
     5
100
AcDbPoint
 10
-23.93606642993794
 20
22.82368307050365
 30
0.0
  0
POINT
  5
314
330
2
100
AcDbEntity
  8
GAIKEI
370
     5
100
AcDbPoint
 10
-23.93606642993794
 20
22.82368307050365
 30
0.0
  0
ARC
  5
315
330
2
100
AcDbEntity
  8
GAIKEI
370
    40
100
AcDbCircle
 10
-16.73621208120926
 20
-95.65154514633428
 30
0.0
 40
123.8808168426019
100
AcDbArc
 50
89.99993399999857
 51
90.43623300000026
  0
ARC
  5
316
330
2
100
AcDbEntity
  8
GAIKEI
370
    40
100
AcDbCircle
 10
-17.67884524945367
 20
28.16551080938609
 30
0.0
 40
0.060188715046656
100
AcDbArc
 50
90.52772999999859
 51
180.284923
  0
LINE
  5
317
330
2
100
AcDbEntity
  8
GAIKEI
 48
0.002152
370
    40
100
AcDbLine
 10
-17.739069871807
 20
28.14784542313373
 30
0.0
 11
-17.73906825799545
 21
28.16521225425197
 31
0.0
  0
ARC
  5
318
330
2
100
AcDbEntity
  8
GAIKEI
370
    40
100
AcDbCircle
 10
-16.73670389027484
 20
21.95542603797173
 30
0.0
 40
6.273022009233234
100
AcDbArc
 50
99.19470099999976
 51
103.2624810000005
  0
ARC
  5
319
330
2
100
AcDbEntity
  8
GAIKEI
370
    13
100
AcDbCircle
 10
-16.76205041425928
 20
43.22878391177221
 30
0.0
 40
15.89567144431451
100
AcDbArc
 50
266.3563309999988
 51
270.0936740000015
  0
ARC
  5
31A
330
2
100
AcDbEntity
  8
GAIKEI
370
    40
100
AcDbCircle
 10
-16.73671458177628
 20
21.95567234595751
 30
0.0
 40
6.278435540030746
100
AcDbArc
 50
99.23861200000096
 51
103.2628980000014
  0
LINE
  5
31B
330
2
100
AcDbEntity
  8
GAIKEI
 48
0.000918
370
    40
100
AcDbLine
 10
-17.74469501364217
 20
28.15266587819179
 30
0.0
 11
-17.739069871807
 21
28.14784542313373
 31
0.0
  0
ARC
  5
31C
330
2
100
AcDbEntity
  8
GAIKEI
370
    40
100
AcDbCircle
 10
-16.73984436752391
 20
21.96680280412124
 30
0.0
 40
6.261220407196907
100
AcDbArc
 50
103.2583970000001
 51
117.0516699999995
  0
ARC
  5
31D
330
2
100
AcDbEntity
  8
GAIKEI
370
    13
100
AcDbCircle
 10
-16.72269378715151
 20
18.92896316184908
 30
0.0
 40
7.69362863332264
100
AcDbArc
 50
90.09955900000054
 51
98.1970419999989
  0
ARC
  5
31E
330
2
100
AcDbEntity
  8
GAIKEI
370
    13
100
AcDbCircle
 10
-16.71007519302509
 20
43.22878391177221
 30
0.0
 40
15.89567144431451
100
AcDbArc
 50
269.9063280000007
 51
273.6436639999998
  0
ARC
  5
31F
330
2
100
AcDbEntity
  8
GAIKEI
370
    40
100
AcDbCircle
 10
-16.7354217170095
 20
21.95542603797173
 30
0.0
 40
6.273022009233234
100
AcDbArc
 50
76.73751699999968
 51
80.80529699999951
  0
LINE
  5
320
330
2
100
AcDbEntity
  8
GAIKEI
 48
0.002152
370
    40
100
AcDbLine
 10
-15.73305593720377
 20
28.14784542313373
 30
0.0
 11
-15.73305734928888
 21
28.16521225425197
 31
0.0
  0
ARC
  5
321
330
2
100
AcDbEntity
  8
GAIKEI
370
    40
100
AcDbCircle
 10
-15.79328035783067
 20
28.16551080938609
 30
0.0
 40
0.060188715046656
100
AcDbArc
 50
359.715077
 51
89.47226799999844
  0
ARC
  5
322
330
2
100
AcDbEntity
  8
GAIKEI
370
    40
100
AcDbCircle
 10
-16.73591352607511
 20
-95.65154514633428
 30
0.0
 40
123.8808168426019
100
AcDbArc
 50
89.56376500000088
 51
90.00007099999868
  0
LINE
  5
323
330
2
100
AcDbEntity
  8
GAIKEI
 48
0.005373
370
    40
100
AcDbLine
 10
-18.17711056982588
 20
28.06664528534123
 30
0.0
 11
-18.21927200138322
 21
28.05655513043883
 31
0.0
  0
ARC
  5
324
330
2
100
AcDbEntity
  8
GAIKEI
370
    40
100
AcDbCircle
 10
-16.73990811307959
 20
21.96715219431883
 30
0.0
 40
6.266519559101806
100
AcDbArc
 50
103.6549369999997
 51
117.0525850000002
  0
LINE
  5
325
330
2
100
AcDbEntity
  8
GAIKEI
 48
0.000699
370
    13
100
AcDbLine
 10
-19.58996908300452
 20
27.54804049300151
 30
0.0
 11
-19.58740413129447
 21
27.54302012703943
 31
0.0
  0
ARC
  5
326
330
2
100
AcDbEntity
  8
GAIKEI
370
    40
100
AcDbCircle
 10
-17.71725598127489
 20
23.8811292466653
 30
0.0
 40
4.117438205935558
100
AcDbArc
 50
117.0536650000008
 51
119.4685459999982
  0
ARC
  5
327
330
2
100
AcDbEntity
  8
GAIKEI
370
    13
100
AcDbCircle
 10
-16.57528662764173
 20
17.80634260162685
 30
0.0
 40
8.825957682019062
100
AcDbArc
 50
98.10512199999966
 51
100.8747429999987
  0
ARC
  5
328
330
2
100
AcDbEntity
  8
GAIKEI
370
    40
100
AcDbCircle
 10
-17.68002575259226
 20
23.80693789237364
 30
0.0
 40
4.194802717159862
100
AcDbArc
 50
117.0457279999998
 51
121.3039820000004
  0
LINE
  5
329
330
2
100
AcDbEntity
  8
GAIKEI
 48
0.001936
370
    40
100
AcDbLine
 10
-19.87288275230472
 20
27.38292820713025
 30
0.0
 11
-19.85955448455533
 21
27.39106968460294
 31
0.0
  0
ARC
  5
32A
330
2
100
AcDbEntity
  8
GAIKEI
370
    40
100
AcDbCircle
 10
-17.74478962334348
 20
23.91365400436177
 30
0.0
 40
4.069965922339697
100
AcDbArc
 50
121.5254300000007
 51
124.4851700000013
  0
ARC
  5
32B
330
2
100
AcDbEntity
  8
GAIKEI
370
    13
100
AcDbCircle
 10
-16.74947095506257
 20
18.92965871462104
 30
0.0
 40
7.692939132343885
100
AcDbArc
 50
81.80192499999845
 51
89.90013800000127
  0
ARC
  5
32C
330
2
100
AcDbEntity
  8
GAIKEI
370
    13
100
AcDbCircle
 10
-16.72291770350213
 20
19.45670353956768
 30
0.0
 40
7.085027219960551
100
AcDbArc
 50
90.10630099999955
 51
98.84586199999972
  0
LINE
  5
32D
330
2
100
AcDbEntity
  8
GAIKEI
 48
0.000918
370
    40
100
AcDbLine
 10
-15.72743059364217
 20
28.15266587819179
 30
0.0
 11
-15.73305593720377
 21
28.14784542313373
 31
0.0
  0
ARC
  5
32E
330
2
100
AcDbEntity
  8
GAIKEI
370
    40
100
AcDbCircle
 10
-16.73541102550806
 20
21.95567234595751
 30
0.0
 40
6.278435540030746
100
AcDbArc
 50
76.73709999999899
 51
80.7613860000006
  0
ARC
  5
32F
330
2
100
AcDbEntity
  8
GAIKEI
370
    40
100
AcDbCircle
 10
-16.73228144148689
 20
21.96680280412124
 30
0.0
 40
6.261220407196907
100
AcDbArc
 50
62.94833500000002
 51
76.74160100000054
  0
LINE
  5
330
330
2
100
AcDbEntity
  8
GAIKEI
 48
0.00446
370
    40
100
AcDbLine
 10
-19.74281599774926
 20
27.46587368209896
 30
0.0
 11
-19.77406866850254
 21
27.44803622319148
 31
0.0
  0
LINE
  5
331
330
2
100
AcDbEntity
  8
GAIKEI
 48
0.000699
370
    13
100
AcDbLine
 10
-13.88215672600626
 20
27.54804049300151
 30
0.0
 11
-13.88472066908409
 21
27.54302012703943
 31
0.0
  0
ARC
  5
332
330
2
100
AcDbEntity
  8
GAIKEI
370
    40
100
AcDbCircle
 10
-16.73221749420477
 20
21.96715219431883
 30
0.0
 40
6.266519559101806
100
AcDbArc
 50
62.94741299999966
 51
76.34506100000068
  0
LINE
  5
333
330
2
100
AcDbEntity
  8
GAIKEI
 48
0.005373
370
    40
100
AcDbLine
 10
-15.29501584436423
 20
28.06664528534123
 30
0.0
 11
-15.25285360590115
 21
28.05655513043883
 31
0.0
  0
ARC
  5
334
330
2
100
AcDbEntity
  8
GAIKEI
370
    40
100
AcDbCircle
 10
-15.75486962600945
 20
23.8811292466653
 30
0.0
 40
4.117438205935558
100
AcDbArc
 50
60.5314450000011
 51
62.94633999999956
  0
ARC
  5
335
330
2
100
AcDbEntity
  8
GAIKEI
370
    40
100
AcDbCircle
 10
-18.65812626214267
 20
24.93838943104731
 30
0.0
 40
2.694469365210331
100
AcDbArc
 50
135.2534959999992
 51
138.8655729999997
  0
LINE
  5
336
330
2
100
AcDbEntity
  8
GAIKEI
 48
0.020227
370
    13
100
AcDbLine
 10
-20.68751060850448
 20
26.71087696906011
 30
0.0
 11
-20.52505546332728
 21
26.69517559144708
 31
0.0
  0
ARC
  5
337
330
2
100
AcDbEntity
  8
GAIKEI
370
    40
100
AcDbCircle
 10
-20.66267646968274
 20
27.48578589746228
 30
0.0
 40
0.6568866545192082
100
AcDbArc
 50
277.9492240000014
 51
281.9725339999999
  0
LINE
  5
338
330
2
100
AcDbEntity
  8
GAIKEI
 48
0.004535
370
    40
100
AcDbLine
 10
-20.55373874438879
 20
26.86703522335029
 30
0.0
 11
-20.57181101287469
 21
26.83521388575707
 31
0.0
  0
ARC
  5
339
330
2
100
AcDbEntity
  8
GAIKEI
370
    40
100
AcDbCircle
 10
-19.50730965613059
 20
25.71179771644745
 30
0.0
 40
1.648223646287896
100
AcDbArc
 50
109.1934689999991
 51
111.187685999999
  0
ARC
  5
33A
330
2
100
AcDbEntity
  8
GAIKEI
370
    40
100
AcDbCircle
 10
-20.66975928678781
 20
27.46106875997691
 30
0.0
 40
0.605258402765264
100
AcDbArc
 50
281.0513599999996
 51
339.4494049999997
  0
ARC
  5
33B
330
2
100
AcDbEntity
  8
GAIKEI
370
    40
100
AcDbCircle
 10
-17.80924364227977
 20
24.04092119935524
 30
0.0
 40
3.943430187425009
100
AcDbArc
 50
121.7098870000012
 51
125.5680960000002
  0
LINE
  5
33C
330
2
100
AcDbEntity
  8
GAIKEI
 48
0.001501
370
    40
100
AcDbLine
 10
-19.88198464936775
 20
27.39568074761417
 30
0.0
 11
-19.87012232767239
 21
27.39324893535593
 31
0.0
  0
ARC
  5
33D
330
2
100
AcDbEntity
  8
GAIKEI
370
    13
100
AcDbCircle
 10
-16.5726448181573
 20
18.3940768266491
 30
0.0
 40
8.15830549246964
100
AcDbArc
 50
98.74106700000076
 51
101.7244390000001
  0
ELLIPSE
  5
33E
330
2
100
AcDbEntity
  8
GAIKEI
370
    13
100
AcDbEllipse
 10
-18.24705961704228
 20
26.43770487137056
 30
0.0
 11
0.0122631552875977
 21
-0.0592626829197083
 31
0.0
210
0.0
220
0.0
230
1.0
 40
0.276142
 41
0.3044078845273031
 42
2.167660009041012
  0
ARC
  5
33F
330
2
100
AcDbEntity
  8
GAIKEI
370
    40
100
AcDbCircle
 10
-15.72733517703511
 20
23.91365400436177
 30
0.0
 40
4.069965922339697
100
AcDbArc
 50
55.51482499999929
 51
58.47456800000045
  0
LINE
  5
340
330
2
100
AcDbEntity
  8
GAIKEI
 48
0.001936
370
    40
100
AcDbLine
 10
-13.59924366188539
 20
27.38292820713025
 30
0.0
 11
-13.61257192963478
 21
27.39106968460294
 31
0.0
  0
ARC
  5
341
330
2
100
AcDbEntity
  8
GAIKEI
370
    40
100
AcDbCircle
 10
-15.79210005641854
 20
23.80693789237364
 30
0.0
 40
4.194802717159862
100
AcDbArc
 50
58.69601600000098
 51
62.95427700000121
  0
ARC
  5
342
330
2
100
AcDbEntity
  8
GAIKEI
370
    13
100
AcDbCircle
 10
-16.89683595374598
 20
17.80635813456285
 30
0.0
 40
8.825941543903702
100
AcDbArc
 50
79.12524900000017
 51
81.89488300000114
  0
ARC
  5
343
330
2
100
AcDbEntity
  8
GAIKEI
370
    13
100
AcDbCircle
 10
-16.74920709687646
 20
19.45654034287611
 30
0.0
 40
7.085189811472805
100
AcDbArc
 50
81.15434100000108
 51
89.89369100000148
  0
ARC
  5
344
330
2
100
AcDbEntity
  8
GAIKEI
370
    13
100
AcDbCircle
 10
-16.73606280364217
 20
21.3851278362373
 30
0.0
 40
5.439149450466674
100
AcDbArc
 50
137.3876839999989
 51
42.6123069999994
  0
ELLIPSE
  5
345
330
2
100
AcDbEntity
  8
GAIKEI
370
    13
100
AcDbEllipse
 10
-24.46261561301651
 20
16.62083664728129
 30
0.0
 11
11.94811778323646
 21
8.120024880113465
 31
0.0
210
0.0
220
0.0
230
1.0
 40
0.476878
 41
0.2987174111523577
 42
0.4329655972066309
  0
ARC
  5
346
330
2
100
AcDbEntity
  8
GAIKEI
370
    13
100
AcDbCircle
 10
-16.89948159603281
 20
18.39407218694089
 30
0.0
 40
8.15831053563069
100
AcDbArc
 50
78.27555899999982
 51
81.25893100000139
  0
ARC
  5
347
330
2
100
AcDbEntity
  8
GAIKEI
370
    13
100
AcDbCircle
 10
-17.60108777512033
 20
22.04384152714169
 30
0.0
 40
4.3577248590503
100
AcDbArc
 50
131.7403470000003
 51
136.0613160000006
  0
LINE
  5
348
330
2
100
AcDbEntity
  8
GAIKEI
 48
0.00446
370
    40
100
AcDbLine
 10
-13.72930880262933
 20
27.46587368209896
 30
0.0
 11
-13.6980569387818
 21
27.44803622319148
 31
0.0
  0
ARC
  5
349
330
2
100
AcDbEntity
  8
GAIKEI
370
    40
100
AcDbCircle
 10
-12.32364002157001
 20
19.44021119257547
 30
0.0
 40
11.0889894608365
100
AcDbArc
 50
139.7411219999999
 51
142.3228650000005
  0
ARC
  5
34A
330
2
100
AcDbEntity
  8
GAIKEI
370
    40
100
AcDbCircle
 10
-12.35397322320068
 20
19.45678059906856
 30
0.0
 40
11.04852212793909
100
AcDbArc
 50
138.9613870000007
 51
142.6915859999991
  0
ARC
  5
34B
330
2
100
AcDbEntity
  8
GAIKEI
370
    13
100
AcDbCircle
 10
-17.56778415163126
 20
22.06326435415679
 30
0.0
 40
4.44010388616984
100
AcDbArc
 50
131.9314149999994
 51
136.2458270000009
  0
ARC
  5
34C
330
2
100
AcDbEntity
  8
GAIKEI
370
    13
100
AcDbCircle
 10
-16.90332448475291
 20
21.42516629871909
 30
0.0
 40
5.361340737617086
100
AcDbArc
 50
136.2309779999994
 51
142.495312999999
  0
LINE
  5
34D
330
2
100
AcDbEntity
  8
GAIKEI
 48
0.000829
370
    13
100
AcDbLine
 10
-20.69255094538428
 20
26.7152695623347
 30
0.0
 11
-20.68750899469293
 21
26.71087696906011
 31
0.0
  0
ARC
  5
34E
330
2
100
AcDbEntity
  8
GAIKEI
370
    40
100
AcDbCircle
 10
-18.69990058065778
 20
25.02835155684818
 30
0.0
 40
2.611009084361672
100
AcDbArc
 50
135.2351360000001
 51
139.749769000001
  0
ELLIPSE
  5
34F
330
2
100
AcDbEntity
  8
GAIKEI
370
    40
100
AcDbEllipse
 10
-20.66972842264218
 20
27.46967521689851
 30
0.0
 11
0.6051793260000001
 21
0.0
 31
0.0
210
0.0
220
0.0
230
1.0
 40
0.9654729999999998
 41
0.6033363491969137
 42
3.744929002786705
  0
LINE
  5
350
330
2
100
AcDbEntity
  8
GAIKEI
 48
0.059819
370
    40
100
AcDbLine
 10
-21.16806152309891
 20
27.13815757866269
 30
0.0
 11
-20.88766499634198
 21
26.74527173087404
 31
0.0
  0
LINE
  5
351
330
2
100
AcDbEntity
  8
GAIKEI
 48
0.023761
370
    40
100
AcDbLine
 10
-20.88766499634198
 20
26.74527173087404
 30
0.0
 11
-20.69981067657898
 21
26.70691243929548
 31
0.0
  0
LINE
  5
352
330
2
100
AcDbEntity
  8
GAIKEI
 48
0.001372
370
    40
100
AcDbLine
 10
-20.69268347965669
 20
26.71538031015132
 30
0.0
 11
-20.69981067657898
 21
26.70691243929548
 31
0.0
  0
LINE
  5
353
330
2
100
AcDbEntity
  8
GAIKEI
 48
0.061742
370
    40
100
AcDbLine
 10
-19.88198464936775
 20
27.39568074761417
 30
0.0
 11
-20.17139532218545
 21
27.80119588103071
 31
0.0
  0
ELLIPSE
  5
354
330
2
100
AcDbEntity
  8
GAIKEI
370
    40
100
AcDbEllipse
 10
-20.66972842264218
 20
27.46967521689851
 30
0.0
 11
0.2420718843050614
 21
0.0
 31
0.0
210
0.0
220
0.0
230
1.0
 40
0.965473
 41
3.141592653589793
 42
6.283185307179587
  0
ARC
  5
355
330
2
100
AcDbEntity
  8
GAIKEI
370
    40
100
AcDbCircle
 10
-20.66972842264218
 20
27.47082021618326
 30
0.0
 40
0.24207374766442
100
AcDbArc
 50
359.7295199999998
 51
180.2704839999999
  0
ELLIPSE
  5
356
330
2
100
AcDbEntity
  8
GAIKEI
370
    13
100
AcDbEllipse
 10
-26.32659436326043
 20
14.56445868053606
 30
0.0
 11
13.76960111375603
 21
10.35745356846203
 31
0.0
210
0.0
220
0.0
230
1.0
 40
0.449973
 41
0.253363412935428
 42
0.3761495629410964
  0
ARC
  5
357
330
2
100
AcDbEntity
  8
GAIKEI
370
    40
100
AcDbCircle
 10
-12.8094491376016
 20
27.48578589746228
 30
0.0
 40
0.6568866545192082
100
AcDbArc
 50
258.0274679999997
 51
262.0507770000012
  0
LINE
  5
358
330
2
100
AcDbEntity
  8
GAIKEI
 48
0.020227
370
    13
100
AcDbLine
 10
-12.78461499877989
 20
26.71087696906011
 30
0.0
 11
-12.94707095086284
 21
26.69517559144708
 31
0.0
  0
ARC
  5
359
330
2
100
AcDbEntity
  8
GAIKEI
370
    40
100
AcDbCircle
 10
-14.8139995468681
 20
24.93838943104731
 30
0.0
 40
2.694469365210331
100
AcDbArc
 50
41.1344219999989
 51
44.74650600000035
  0
ARC
  5
35A
330
2
100
AcDbEntity
  8
GAIKEI
370
    40
100
AcDbCircle
 10
-12.80236652222299
 20
27.46106875997691
 30
0.0
 40
0.605258402765264
100
AcDbArc
 50
200.5506000000001
 51
258.9486419999987
  0
ARC
  5
35B
330
2
100
AcDbEntity
  8
GAIKEI
370
    40
100
AcDbCircle
 10
-13.96481595115375
 20
25.71179771644745
 30
0.0
 40
1.648223646287896
100
AcDbArc
 50
68.81231200000108
 51
70.80652900000008
  0
LINE
  5
35C
330
2
100
AcDbEntity
  8
GAIKEI
 48
0.004535
370
    40
100
AcDbLine
 10
-12.91838625771621
 20
26.86703522335029
 30
0.0
 11
-12.90031459440965
 21
26.83521388575707
 31
0.0
  0
LINE
  5
35D
330
2
100
AcDbEntity
  8
GAIKEI
 48
0.001501
370
    40
100
AcDbLine
 10
-13.59014015101081
 20
27.39568074761417
 30
0.0
 11
-13.60200327961198
 21
27.39324893535593
 31
0.0
  0
ARC
  5
35E
330
2
100
AcDbEntity
  8
GAIKEI
370
    40
100
AcDbCircle
 10
-15.66288277191034
 20
24.04092119935524
 30
0.0
 40
3.943430187425009
100
AcDbArc
 50
54.43189800000049
 51
58.29011200000061
  0
ELLIPSE
  5
35F
330
2
100
AcDbEntity
  8
GAIKEI
370
    13
100
AcDbEllipse
 10
-15.22506599024208
 20
26.43770487137056
 30
0.0
 11
-0.0122631552875977
 21
-0.0592626829197083
 31
0.0
210
0.0
220
0.0
230
1.0
 40
0.276145
 41
4.115525808255796
 42
5.978777105858023
  0
ARC
  5
360
330
2
100
AcDbEntity
  8
GAIKEI
370
    13
100
AcDbCircle
 10
-16.95312509494235
 20
21.41574728768921
 30
0.0
 40
5.260142852449807
100
AcDbArc
 50
136.0322740000004
 51
142.3029070000006
  0
ARC
  5
361
330
2
100
AcDbEntity
  8
GAIKEI
370
    13
100
AcDbCircle
 10
-16.73010440972482
 20
21.40663913710648
 30
0.0
 40
5.483085469534273
100
AcDbArc
 50
180.3517769999999
 51
241.4052400000013
  0
ELLIPSE
  5
362
330
2
100
AcDbEntity
  8
GAIKEI
370
    13
100
AcDbEllipse
 10
-20.78349043579655
 20
25.10853458992006
 30
0.0
 11
0.0435689838148346
 21
-0.04200223029039
 31
0.0
210
0.0
220
0.0
230
1.0
 40
0.4071140000000001
 41
0.0573308765829896
 42
1.760928422316473
  0
ARC
  5
363
330
2
100
AcDbEntity
  8
GAIKEI
370
    40
100
AcDbCircle
 10
-21.14848558571432
 20
19.44021119257547
 30
0.0
 40
11.0889894608365
100
AcDbArc
 50
37.67713300000143
 51
40.2588830000004
  0
LINE
  5
364
330
2
100
AcDbEntity
  8
GAIKEI
 48
0.002377
370
    40
100
AcDbLine
 10
-22.97394426840546
 20
21.32657310537081
 30
0.0
 11
-22.97360597316222
 21
21.34574659850364
 31
0.0
  0
ARC
  5
365
330
2
100
AcDbEntity
  8
GAIKEI
370
    40
100
AcDbCircle
 10
-16.42330612796536
 20
21.21982451542556
 30
0.0
 40
6.551512826292588
100
AcDbArc
 50
175.2612059999994
 51
178.8986920000007
  0
LINE
  5
366
330
2
100
AcDbEntity
  8
GAIKEI
 48
0.005918
370
    40
100
AcDbLine
 10
-22.7032505817823
 20
23.11458672071865
 30
0.0
 11
-22.6900736088644
 21
23.16048735360482
 31
0.0
  0
ARC
  5
367
330
2
100
AcDbEntity
  8
GAIKEI
370
    40
100
AcDbCircle
 10
35.82905052331415
 20
80.29052320617143
 30
0.0
 40
81.78221359081618
100
AcDbArc
 50
223.6234979999991
 51
224.3118439999994
  0
ARC
  5
368
330
2
100
AcDbEntity
  8
GAIKEI
370
    40
100
AcDbCircle
 10
-13.72851783325023
 20
-147.0106429915869
 30
0.0
 40
172.1423745085254
100
AcDbArc
 50
92.73570500000017
 51
93.07260399999922
  0
ARC
  5
369
330
2
100
AcDbEntity
  8
GAIKEI
370
    40
100
AcDbCircle
 10
-13.17392100912886
 20
20.07711341366507
 30
0.0
 40
10.02657899866372
100
AcDbArc
 50
142.6711629999997
 51
151.0165210000001
  0
LINE
  5
36A
330
2
100
AcDbEntity
  8
GAIKEI
 48
0.009489
370
    40
100
AcDbLine
 10
-21.1002146671346
 20
26.21792673698178
 30
0.0
 11
-21.14680480099957
 21
26.15716511883977
 31
0.0
  0
LINE
  5
36B
330
2
100
AcDbEntity
  8
GAIKEI
 48
0.005
370
    40
100
AcDbLine
 10
-22.76768341944217
 20
23.87749111028381
 30
0.0
 11
-22.80802870784217
 21
23.87781266223237
 31
0.0
  0
ARC
  5
36C
330
2
100
AcDbEntity
  8
GAIKEI
370
    40
100
AcDbCircle
 10
-22.76610087550469
 20
24.09333820149743
 30
0.0
 40
0.215869886301504
100
AcDbArc
 50
269.5799069999999
 51
359.3174429999991
  0
LINE
  5
36D
330
2
100
AcDbEntity
  8
GAIKEI
 48
0.003849
370
    40
100
AcDbLine
 10
-22.55023098920319
 20
24.0907665928147
 30
0.0
 11
-22.54962338915988
 21
24.1218199578434
 31
0.0
  0
LINE
  5
36E
330
2
100
AcDbEntity
  8
GAIKEI
 48
0.005008
370
    40
100
AcDbLine
 10
-22.76768341944217
 20
24.35971090773285
 30
0.0
 11
-22.80802870784217
 21
24.35737935351631
 31
0.0
  0
LINE
  5
36F
330
2
100
AcDbEntity
  8
GAIKEI
 48
0.001208
370
    40
100
AcDbLine
 10
-23.02180184950552
 20
24.10051018168986
 30
0.0
 11
-23.0216186818962
 21
24.0907665928147
 31
0.0
  0
ARC
  5
370
330
2
100
AcDbEntity
  8
GAIKEI
370
    40
100
AcDbCircle
 10
-22.80604311447357
 20
24.09328756816047
 30
0.0
 40
0.215587671009146
100
AcDbArc
 50
180.6700909999991
 51
231.4266889999988
  0
ARC
  5
371
330
2
100
AcDbEntity
  8
GAIKEI
370
    40
100
AcDbCircle
 10
-22.80631161236787
 20
24.09297186627873
 30
0.0
 40
0.2151656592924819
100
AcDbArc
 50
258.8171130000014
 51
269.5427850000003
  0
LINE
  5
372
330
2
100
AcDbEntity
  8
GAIKEI
 48
0.016411
370
    40
100
AcDbLine
 10
-20.69981067657898
 20
26.70691243929548
 30
0.0
 11
-20.78600515762253
 21
26.60638468936861
 31
0.0
  0
LINE
  5
373
330
2
100
AcDbEntity
  8
GAIKEI
 48
0.021331
370
    40
100
AcDbLine
 10
-20.88766499634198
 20
26.74527173087404
 30
0.0
 11
-20.78600515762253
 21
26.60638468936861
 31
0.0
  0
ARC
  5
374
330
2
100
AcDbEntity
  8
GAIKEI
370
    13
100
AcDbCircle
 10
-14.63839062731387
 20
-222.9049470942425
 30
0.0
 40
244.3922667218269
100
AcDbArc
 50
91.78792099999924
 51
91.95323900000134
  0
ARC
  5
375
330
2
100
AcDbEntity
  8
GAIKEI
370
    40
100
AcDbCircle
 10
-16.34302081958734
 20
21.21563687621608
 30
0.0
 40
6.626503219020993
100
AcDbArc
 50
172.0273159999999
 51
178.8757699999997
  0
ARC
  5
376
330
2
100
AcDbEntity
  8
GAIKEI
370
    40
100
AcDbCircle
 10
-23.38951183387977
 20
22.56630756530774
 30
0.0
 40
0.6484817223132781
100
AcDbArc
 50
318.2780930000007
 51
359.952936
  0
ARC
  5
377
330
2
100
AcDbEntity
  8
GAIKEI
370
    40
100
AcDbCircle
 10
-6.89574408239676
 20
22.54623840677254
 30
0.0
 40
15.84529228268943
100
AcDbArc
 50
179.0485730000003
 51
179.9293539999994
  0
ARC
  5
378
330
2
100
AcDbEntity
  8
GAIKEI
370
    40
100
AcDbCircle
 10
-23.45673212751521
 20
22.82122826143098
 30
0.0
 40
0.7179754729500681
100
AcDbArc
 50
359.0518139999999
 51
8.82456900000022
  0
ARC
  5
379
330
2
100
AcDbEntity
  8
GAIKEI
370
    40
100
AcDbCircle
 10
-15.33295191386742
 20
21.02283844308602
 30
0.0
 40
7.65600665188964
100
AcDbArc
 50
163.7749859999999
 51
165.5647419999996
  0
ARC
  5
37A
330
2
100
AcDbEntity
  8
GAIKEI
370
    40
100
AcDbCircle
 10
35.49822843785051
 20
79.96064923498511
 30
0.0
 40
81.30967746948886
100
AcDbArc
 50
223.6244409999999
 51
224.3105600000006
  0
ARC
  5
37B
330
2
100
AcDbEntity
  8
GAIKEI
370
    40
100
AcDbCircle
 10
-13.75641458291443
 20
-146.6101449965093
 30
0.0
 40
171.7353000297121
100
AcDbArc
 50
92.73170900000145
 51
93.06634099999975
  0
ARC
  5
37C
330
2
100
AcDbEntity
  8
GAIKEI
370
    40
100
AcDbCircle
 10
-13.18642724162709
 20
20.08058088947667
 30
0.0
 40
10.00823641674554
100
AcDbArc
 50
142.6435419999999
 51
151.0171220000009
  0
LINE
  5
37D
330
2
100
AcDbEntity
  8
GAIKEI
 48
0.005
370
    40
100
AcDbLine
 10
-22.76768341944217
 20
23.86129873051095
 30
0.0
 11
-22.80802870784217
 21
23.86162028245951
 31
0.0
  0
ARC
  5
37E
330
2
100
AcDbEntity
  8
GAIKEI
370
    40
100
AcDbCircle
 10
-22.76600162609523
 20
24.09366600696558
 30
0.0
 40
0.23239491297726
100
AcDbArc
 50
269.5852680000002
 51
359.2851300000005
  0
ARC
  5
37F
330
2
100
AcDbEntity
  8
GAIKEI
370
    40
100
AcDbCircle
 10
-13.94859896075493
 20
23.97516382587719
 30
0.0
 40
8.585787626787796
100
AcDbArc
 50
178.4055249999991
 51
179.228520999999
  0
LINE
  5
380
330
2
100
AcDbEntity
  8
GAIKEI
 48
0.005009
370
    40
100
AcDbLine
 10
-22.76768341944217
 20
24.47474722682136
 30
0.0
 11
-22.80802870784217
 21
24.47234022691544
 31
0.0
  0
LINE
  5
381
330
2
100
AcDbEntity
  8
GAIKEI
 48
0.012379
370
    40
100
AcDbLine
 10
-23.03993221520673
 20
24.19063247828546
 30
0.0
 11
-23.03796376858568
 21
24.0907665928147
 31
0.0
  0
ARC
  5
382
330
2
100
AcDbEntity
  8
GAIKEI
370
    40
100
AcDbCircle
 10
-22.80605541978653
 20
24.09350139818901
 30
0.0
 40
0.23190673498762
100
AcDbArc
 50
180.6754870000006
 51
269.5123829999994
  0
ELLIPSE
  5
383
330
2
100
AcDbEntity
  8
GAIKEI
370
    13
100
AcDbEllipse
 10
-21.16378068627321
 20
24.6682521059513
 30
0.0
 11
0.0478944855638047
 21
-0.0369941595943756
 31
0.0
210
0.0
220
0.0
230
1.0
 40
0.351173
 41
0.0559251064393427
 42
1.688298063439986
  0
ARC
  5
384
330
2
100
AcDbEntity
  8
GAIKEI
370
    13
100
AcDbCircle
 10
-16.56872870273875
 20
21.42521390615934
 30
0.0
 40
5.361255205605679
100
AcDbArc
 50
37.50476700000093
 51
43.76919400000102
  0
ARC
  5
385
330
2
100
AcDbEntity
  8
GAIKEI
370
    13
100
AcDbCircle
 10
-15.90454540108595
 20
22.06304568269366
 30
0.0
 40
4.440402239577557
100
AcDbArc
 50
43.75440000000087
 51
48.06851800000103
  0
ARC
  5
386
330
2
100
AcDbEntity
  8
GAIKEI
370
    40
100
AcDbCircle
 10
-21.11815238408369
 20
19.45678059906856
 30
0.0
 40
11.04852212793909
100
AcDbArc
 50
37.30841600000036
 51
41.03860800000058
  0
ARC
  5
387
330
2
100
AcDbEntity
  8
GAIKEI
370
    40
100
AcDbCircle
 10
-14.77222502662655
 20
25.02835155684818
 30
0.0
 40
2.611009084361672
100
AcDbArc
 50
40.25023299999932
 51
44.76486499999944
  0
LINE
  5
388
330
2
100
AcDbEntity
  8
GAIKEI
 48
0.000829
370
    13
100
AcDbLine
 10
-12.77957466190005
 20
26.7152695623347
 30
0.0
 11
-12.78461661259141
 21
26.71087696906011
 31
0.0
  0
LINE
  5
389
330
2
100
AcDbEntity
  8
GAIKEI
 48
0.061742
370
    40
100
AcDbLine
 10
-13.59014015101081
 20
27.39568074761417
 30
0.0
 11
-13.30072947819312
 21
27.80119588103071
 31
0.0
  0
LINE
  5
38A
330
2
100
AcDbEntity
  8
GAIKEI
 48
0.001372
370
    40
100
AcDbLine
 10
-12.77944232935411
 20
26.71538031015132
 30
0.0
 11
-12.77231493070536
 21
26.70691243929548
 31
0.0
  0
LINE
  5
38B
330
2
100
AcDbEntity
  8
GAIKEI
 48
0.023761
370
    40
100
AcDbLine
 10
-12.58446141784816
 20
26.74527173087404
 30
0.0
 11
-12.77231493070536
 21
26.70691243929548
 31
0.0
  0
LINE
  5
38C
330
2
100
AcDbEntity
  8
GAIKEI
 48
0.059819
370
    40
100
AcDbLine
 10
-12.30406489109123
 20
27.13815757866269
 30
0.0
 11
-12.58446141784816
 21
26.74527173087404
 31
0.0
  0
ELLIPSE
  5
38D
330
2
100
AcDbEntity
  8
GAIKEI
370
    40
100
AcDbEllipse
 10
-12.80239718464219
 20
27.46967521689851
 30
0.0
 11
0.6051793260000001
 21
0.0
 31
0.0
210
0.0
220
0.0
230
1.0
 40
0.9654729999999998
 41
5.679848957982673
 42
8.821441611572463
  0
ARC
  5
38E
330
2
100
AcDbEntity
  8
GAIKEI
370
    40
100
AcDbCircle
 10
-12.80239718464219
 20
27.47082021618326
 30
0.0
 40
0.24207374766442
100
AcDbArc
 50
359.7295199999998
 51
180.2704839999999
  0
ELLIPSE
  5
38F
330
2
100
AcDbEntity
  8
GAIKEI
370
    40
100
AcDbEllipse
 10
-12.80239718464219
 20
27.46967521689851
 30
0.0
 11
0.2420718843050614
 21
0.0
 31
0.0
210
0.0
220
0.0
230
1.0
 40
0.965473
 41
3.141592653589793
 42
6.283185307179587
  0
ARC
  5
390
330
2
100
AcDbEntity
  8
GAIKEI
370
    13
100
AcDbCircle
 10
-16.73416133019987
 20
21.40972030678154
 30
0.0
 40
5.529446643887599
100
AcDbArc
 50
180.427455999999
 51
241.4697440000005
  0
ELLIPSE
  5
391
330
2
100
AcDbEntity
  8
GAIKEI
370
    13
100
AcDbEllipse
 10
-12.68863517148782
 20
25.10853458992006
 30
0.0
 11
0.0435689838148346
 21
0.04200223029039
 31
0.0
210
0.0
220
0.0
230
1.0
 40
0.4071140000000001
 41
1.380664496084499
 42
3.084261911329621
  0
ARC
  5
392
330
2
100
AcDbEntity
  8
GAIKEI
370
    13
100
AcDbCircle
 10
-15.871037832164
 20
22.04384152714169
 30
0.0
 40
4.35772586768251
100
AcDbArc
 50
43.93868199999984
 51
48.25966499999998
  0
LINE
  5
393
330
2
100
AcDbEntity
  8
GAIKEI
 48
0.009489
370
    40
100
AcDbLine
 10
-12.37191094014974
 20
26.21792673698178
 30
0.0
 11
-12.32532080628476
 21
26.15716511883977
 31
0.0
  0
ARC
  5
394
330
2
100
AcDbEntity
  8
GAIKEI
370
    40
100
AcDbCircle
 10
-20.29820399297617
 20
20.07711341366507
 30
0.0
 40
10.02657899866372
100
AcDbArc
 50
28.98348399999906
 51
37.32883100000064
  0
ARC
  5
395
330
2
100
AcDbEntity
  8
GAIKEI
370
    40
100
AcDbCircle
 10
-19.74360858093987
 20
-147.0106429915869
 30
0.0
 40
172.1423745085254
100
AcDbArc
 50
86.92740100000133
 51
87.26429300000067
  0
ARC
  5
396
330
2
100
AcDbEntity
  8
GAIKEI
370
    40
100
AcDbCircle
 10
-69.30117290297545
 20
80.29052320617143
 30
0.0
 40
81.78221359081618
100
AcDbArc
 50
315.6881609999991
 51
316.3764969999991
  0
LINE
  5
397
330
2
100
AcDbEntity
  8
GAIKEI
 48
0.005918
370
    40
100
AcDbLine
 10
-10.76887421859629
 20
23.11458672071865
 30
0.0
 11
-10.78205159496707
 21
23.16048735360482
 31
0.0
  0
ARC
  5
398
330
2
100
AcDbEntity
  8
GAIKEI
370
    40
100
AcDbCircle
 10
-17.04881947931898
 20
21.21982451542556
 30
0.0
 40
6.551512826292588
100
AcDbArc
 50
1.101314000000607
 51
4.738798000000596
  0
LINE
  5
399
330
2
100
AcDbEntity
  8
GAIKEI
 48
0.002377
370
    40
100
AcDbLine
 10
-10.49818133887891
 20
21.32657310537081
 30
0.0
 11
-10.49852003757502
 21
21.34574659850364
 31
0.0
  0
LINE
  5
39A
330
2
100
AcDbEntity
  8
GAIKEI
 48
0.003738
370
    40
100
AcDbLine
 10
-10.90155897891603
 20
24.0907665928147
 30
0.0
 11
-10.90214842357954
 21
24.12092106481782
 31
0.0
  0
ARC
  5
39B
330
2
100
AcDbEntity
  8
GAIKEI
370
    40
100
AcDbCircle
 10
-10.68601488081836
 20
24.09316431330433
 30
0.0
 40
0.2154989113746661
100
AcDbArc
 50
180.6374700000009
 51
359.3624069999994
  0
LINE
  5
39C
330
2
100
AcDbEntity
  8
GAIKEI
 48
0.001322
370
    40
100
AcDbLine
 10
-10.47031081365219
 20
24.10143065944465
 30
0.0
 11
-10.47051233836774
 21
24.0907665928147
 31
0.0
  0
LINE
  5
39D
330
2
100
AcDbEntity
  8
GAIKEI
 48
0.016411
370
    40
100
AcDbLine
 10
-12.77231493070536
 20
26.70691243929548
 30
0.0
 11
-12.68612044966184
 21
26.60638468936861
 31
0.0
  0
LINE
  5
39E
330
2
100
AcDbEntity
  8
GAIKEI
 48
0.02133
370
    40
100
AcDbLine
 10
-12.58446141784816
 20
26.74527173087404
 30
0.0
 11
-12.68612044966184
 21
26.60638468936861
 31
0.0
  0
ARC
  5
39F
330
2
100
AcDbEntity
  8
GAIKEI
370
    40
100
AcDbCircle
 10
-16.47890354919212
 20
21.22167918833327
 30
0.0
 40
6.490506110523622
100
AcDbArc
 50
178.9084449999996
 51
179.9972319999998
  0
ARC
  5
3A0
330
2
100
AcDbEntity
  8
GAIKEI
370
    40
100
AcDbCircle
 10
-16.47853741569989
 20
21.22163601887462
 30
0.0
 40
6.496254910667737
100
AcDbArc
 50
179.0785849999997
 51
179.9968490000008
  0
LINE
  5
3A1
330
2
100
AcDbEntity
  8
GAIKEI
 48
0.002734
370
    40
100
AcDbLine
 10
-22.90781975280294
 20
22.15668467635282
 30
0.0
 11
-22.90549848663486
 21
22.13474389988869
 31
0.0
  0
LINE
  5
3A2
330
2
100
AcDbEntity
  8
GAIKEI
 48
0.000772
370
    40
100
AcDbLine
 10
-22.69007401231727
 20
23.16048735360482
 30
0.0
 11
-22.68403472609668
 21
23.16200494162797
 31
0.0
  0
LINE
  5
3A3
330
2
100
AcDbEntity
  8
GAIKEI
 48
0.008185
370
    40
100
AcDbLine
 10
-22.74725700337814
 20
22.93137190739515
 30
0.0
 11
-22.76857948829755
 21
22.86886495207705
 31
0.0
  0
LINE
  5
3A4
330
2
100
AcDbEntity
  8
GAIKEI
 48
0.001623
370
    13
100
AcDbLine
 10
-23.3600234625882
 20
23.86277456116056
 30
0.0
 11
-23.37219664473071
 21
23.86761196123973
 31
0.0
  0
LINE
  5
3A5
330
2
100
AcDbEntity
  8
GAIKEI
 48
0.001686
370
    13
100
AcDbLine
 10
-22.94291047084172
 20
24.87928378526783
 30
0.0
 11
-22.95557404996472
 21
24.88426400766787
 31
0.0
  0
LINE
  5
3A6
330
2
100
AcDbEntity
  8
GAIKEI
 48
0.00081
370
    40
100
AcDbLine
 10
-21.94468714352248
 20
24.93552370521229
 30
0.0
 11
-21.94120352959558
 21
24.92998934027605
 31
0.0
  0
LINE
  5
3A7
330
2
100
AcDbEntity
  8
GAIKEI
 48
0.002007
370
    13
100
AcDbLine
 10
-22.80802870784217
 20
23.87781266223237
 30
0.0
 11
-22.80802870784217
 21
23.86162028245951
 31
0.0
  0
LINE
  5
3A8
330
2
100
AcDbEntity
  8
GAIKEI
 48
0.002007
370
    13
100
AcDbLine
 10
-22.76768341944217
 20
23.87749111028381
 30
0.0
 11
-22.76768341944217
 21
23.86129873051095
 31
0.0
  0
LINE
  5
3A9
330
2
100
AcDbEntity
  8
GAIKEI
 48
0.00206
370
    13
100
AcDbLine
 10
-22.55023098920319
 20
24.0907665928147
 30
0.0
 11
-22.53360610793862
 21
24.0907665928147
 31
0.0
  0
LINE
  5
3AA
330
2
100
AcDbEntity
  8
GAIKEI
 48
0.011661
370
    13
100
AcDbLine
 10
-22.54962338915988
 20
24.1218199578434
 30
0.0
 11
-22.53106596858097
 21
24.21406603042044
 31
0.0
  0
LINE
  5
3AB
330
2
100
AcDbEntity
  8
GAIKEI
 48
0.014256
370
    13
100
AcDbLine
 10
-22.76768341944217
 20
24.35971090773285
 30
0.0
 11
-22.76768341944217
 21
24.47474722682136
 31
0.0
  0
LINE
  5
3AC
330
2
100
AcDbEntity
  8
GAIKEI
 48
0.014247
370
    13
100
AcDbLine
 10
-22.80802870784217
 20
24.35737935351631
 30
0.0
 11
-22.80802870784217
 21
24.47234022691544
 31
0.0
  0
LINE
  5
3AD
330
2
100
AcDbEntity
  8
GAIKEI
 48
0.011393
370
    13
100
AcDbLine
 10
-23.02180184950552
 20
24.10051018168986
 30
0.0
 11
-23.03993221520673
 21
24.19063247828546
 31
0.0
  0
LINE
  5
3AE
330
2
100
AcDbEntity
  8
GAIKEI
 48
0.002026
370
    13
100
AcDbLine
 10
-23.0216186818962
 20
24.0907665928147
 30
0.0
 11
-23.03796376858568
 21
24.0907665928147
 31
0.0
  0
ARC
  5
3AF
330
2
100
AcDbEntity
  8
GAIKEI
370
    40
100
AcDbCircle
 10
-22.80802810266283
 20
24.08929217425021
 30
0.0
 40
0.211225134974454
100
AcDbArc
 50
231.1717719999991
 51
259.0802390000009
  0
LINE
  5
3B0
330
2
100
AcDbEntity
  8
GAIKEI
 48
0.004301
370
    40
100
AcDbLine
 10
-22.91093198835012
 20
22.19126724548414
 30
0.0
 11
-22.90780744749
 21
22.15670000756233
 31
0.0
  0
LINE
  5
3B1
330
2
100
AcDbEntity
  8
GAIKEI
 48
0.005804
370
    13
100
AcDbLine
 10
-22.78785566018928
 20
22.56577520922736
 30
0.0
 11
-22.7410220425088
 21
22.56577520922736
 31
0.0
  0
ARC
  5
3B2
330
2
100
AcDbEntity
  8
GAIKEI
370
    40
100
AcDbCircle
 10
-23.39313161315502
 20
22.55721192176441
 30
0.0
 40
0.6053362691718762
100
AcDbArc
 50
322.8048519999997
 51
0.8105590000001905
  0
LINE
  5
3B3
330
2
100
AcDbEntity
  8
GAIKEI
 48
0.030791
370
    13
100
AcDbLine
 10
-22.78785566018928
 20
22.56577520922736
 30
0.0
 11
-22.73885429016306
 21
22.80934677572361
 31
0.0
  0
ARC
  5
3B4
330
2
100
AcDbEntity
  8
GAIKEI
370
    40
100
AcDbCircle
 10
-17.40476336551066
 20
21.07950017302085
 30
0.0
 40
5.654398624506145
100
AcDbArc
 50
161.5515679999998
 51
163.0169580000005
  0
ELLIPSE
  5
3B5
330
2
100
AcDbEntity
  8
GAIKEI
370
    40
100
AcDbEllipse
 10
-23.39303458273642
 20
22.56577520922736
 30
0.0
 11
0.6051793260000001
 21
0.0
 31
0.0
210
0.0
220
0.0
230
1.0
 40
0.9654729999999998
 41
0.0
 42
0.2868471840754961
  0
ARC
  5
3B6
330
2
100
AcDbEntity
  8
GAIKEI
370
    40
100
AcDbCircle
 10
-20.28569917256303
 20
20.08058088947667
 30
0.0
 40
10.00823641674554
100
AcDbArc
 50
28.98287600000099
 51
37.35646299999914
  0
ARC
  5
3B7
330
2
100
AcDbEntity
  8
GAIKEI
370
    40
100
AcDbCircle
 10
-19.71571021746416
 20
-146.6101449965093
 30
0.0
 40
171.7353000297121
100
AcDbArc
 50
86.93365700000004
 51
87.26828899999956
  0
ARC
  5
3B8
330
2
100
AcDbEntity
  8
GAIKEI
370
    40
100
AcDbCircle
 10
-68.97035707103151
 20
79.96064923498511
 30
0.0
 40
81.30967746948886
100
AcDbArc
 50
315.6894349999996
 51
316.3755540000015
  0
ARC
  5
3B9
330
2
100
AcDbEntity
  8
GAIKEI
370
    40
100
AcDbCircle
 10
-18.13917369341692
 20
21.02283844308602
 30
0.0
 40
7.65600665188964
100
AcDbArc
 50
14.43526000000017
 51
16.2250099999998
  0
ARC
  5
3BA
330
2
100
AcDbEntity
  8
GAIKEI
370
    40
100
AcDbCircle
 10
-10.01539347976913
 20
22.82122826143098
 30
0.0
 40
0.7179754729500681
100
AcDbArc
 50
171.1754280000002
 51
180.9481889999998
  0
ARC
  5
3BB
330
2
100
AcDbEntity
  8
GAIKEI
370
    40
100
AcDbCircle
 10
-26.57638152488761
 20
22.54623840677254
 30
0.0
 40
15.84529228268943
100
AcDbArc
 50
0.0706450000000534
 51
0.9514320000007256
  0
ARC
  5
3BC
330
2
100
AcDbEntity
  8
GAIKEI
370
    40
100
AcDbCircle
 10
-10.08261458031035
 20
22.56630756530774
 30
0.0
 40
0.6484817223132781
100
AcDbArc
 50
180.0470690000005
 51
221.7219049999997
  0
ARC
  5
3BD
330
2
100
AcDbEntity
  8
GAIKEI
370
    40
100
AcDbCircle
 10
-17.129104787697
 20
21.21563687621608
 30
0.0
 40
6.626503219020993
100
AcDbArc
 50
1.1242369999994
 51
7.972685999999293
  0
ARC
  5
3BE
330
2
100
AcDbEntity
  8
GAIKEI
370
    13
100
AcDbCircle
 10
-18.83373639205558
 20
-222.9049717048685
 30
0.0
 40
244.3923062602095
100
AcDbArc
 50
88.04675999999922
 51
88.21207800000101
  0
ARC
  5
3BF
330
2
100
AcDbEntity
  8
GAIKEI
370
    40
100
AcDbCircle
 10
-19.44476881077022
 20
23.9760903554253
 30
0.0
 40
8.527358369768263
100
AcDbArc
 50
0.7705360000009906
 51
1.593014999999988
  0
ARC
  5
3C0
330
2
100
AcDbEntity
  8
GAIKEI
370
    40
100
AcDbCircle
 10
-10.68614882717585
 20
24.09345681664524
 30
0.0
 40
0.231978549600972
100
AcDbArc
 50
180.6640399999997
 51
359.335810999999
  0
LINE
  5
3C1
330
2
100
AcDbEntity
  8
GAIKEI
 48
0.012495
370
    40
100
AcDbLine
 10
-10.45217762378081
 20
24.19157272523171
 30
0.0
 11
-10.45416604131958
 21
24.0907665928147
 31
0.0
  0
ELLIPSE
  5
3C2
330
2
100
AcDbEntity
  8
GAIKEI
370
    13
100
AcDbEllipse
 10
-12.30834350892604
 20
24.66824908005469
 30
0.0
 11
0.0478944855638047
 21
0.0369941595943756
 31
0.0
210
0.0
220
0.0
230
1.0
 40
0.3511709999999999
 41
1.4532924759379
 42
3.085667613264852
  0
ARC
  5
3C3
330
2
100
AcDbEntity
  8
GAIKEI
370
    13
100
AcDbCircle
 10
-16.51900051234202
 20
21.41574567387761
 30
0.0
 40
5.260143457629133
100
AcDbArc
 50
37.69710799999891
 51
43.96772400000013
  0
ARC
  5
3C4
330
2
100
AcDbEntity
  8
GAIKEI
370
    40
100
AcDbCircle
 10
-16.99358839331091
 20
21.22163601887462
 30
0.0
 40
6.496254910667737
100
AcDbArc
 50
0.0031460000003309
 51
0.9214169999995071
  0
ARC
  5
3C5
330
2
100
AcDbEntity
  8
GAIKEI
370
    40
100
AcDbCircle
 10
-16.99322205809224
 20
21.22167918833327
 30
0.0
 40
6.490506110523622
100
AcDbArc
 50
0.0027699999997674
 51
1.09156100000008
  0
LINE
  5
3C6
330
2
100
AcDbEntity
  8
GAIKEI
 48
0.002734
370
    40
100
AcDbLine
 10
-10.56430666138718
 20
22.15668467635282
 30
0.0
 11
-10.56662752410238
 21
22.13474389988869
 31
0.0
  0
LINE
  5
3C7
330
2
100
AcDbEntity
  8
GAIKEI
 48
0.008185
370
    40
100
AcDbLine
 10
-10.72486820045333
 20
22.93137190739515
 30
0.0
 11
-10.70354611898682
 21
22.86886495207705
 31
0.0
  0
LINE
  5
3C8
330
2
100
AcDbEntity
  8
GAIKEI
 48
0.000772
370
    40
100
AcDbLine
 10
-10.78205159496707
 20
23.16048735360482
 30
0.0
 11
-10.78809088118765
 21
23.16200494162797
 31
0.0
  0
LINE
  5
3C9
330
2
100
AcDbEntity
  8
GAIKEI
 48
0.001623
370
    13
100
AcDbLine
 10
-10.11210295160191
 20
23.86277456116056
 30
0.0
 11
-10.09992896255366
 21
23.86761196123973
 31
0.0
  0
LINE
  5
3CA
330
2
100
AcDbEntity
  8
GAIKEI
 48
0.001686
370
    13
100
AcDbLine
 10
-10.52921473298974
 20
24.87928378526783
 30
0.0
 11
-10.51655155731964
 21
24.88426400766787
 31
0.0
  0
LINE
  5
3CB
330
2
100
AcDbEntity
  8
GAIKEI
 48
0.00081
370
    40
100
AcDbLine
 10
-11.52743846376185
 20
24.93552370521229
 30
0.0
 11
-11.53092288459453
 21
24.92998934027605
 31
0.0
  0
LINE
  5
3CC
330
2
100
AcDbEntity
  8
GAIKEI
 48
0.002026
370
    13
100
AcDbLine
 10
-10.47051233836774
 20
24.0907665928147
 30
0.0
 11
-10.45416604131958
 21
24.0907665928147
 31
0.0
  0
LINE
  5
3CD
330
2
100
AcDbEntity
  8
GAIKEI
 48
0.011395
370
    13
100
AcDbLine
 10
-10.47031081365219
 20
24.10143065944465
 30
0.0
 11
-10.45217762378081
 21
24.19157272523171
 31
0.0
  0
LINE
  5
3CE
330
2
100
AcDbEntity
  8
GAIKEI
 48
0.00206
370
    13
100
AcDbLine
 10
-10.90155897891603
 20
24.0907665928147
 30
0.0
 11
-10.91818365845412
 21
24.0907665928147
 31
0.0
  0
LINE
  5
3CF
330
2
100
AcDbEntity
  8
GAIKEI
 48
0.011659
370
    13
100
AcDbLine
 10
-10.90214842357954
 20
24.12092106481782
 30
0.0
 11
-10.92070322171472
 21
24.21315019237375
 31
0.0
  0
LINE
  5
3D0
330
2
100
AcDbEntity
  8
GAIKEI
 48
0.00004
370
    40
100
AcDbLine
 10
-22.96940986144216
 20
21.22167152272846
 30
0.0
 11
-22.96940986144216
 21
21.22199146086552
 31
0.0
  0
ARC
  5
3D1
330
2
100
AcDbEntity
  8
GAIKEI
370
    40
100
AcDbCircle
 10
-16.47040723490795
 20
21.22174999431445
 30
0.0
 40
6.499002828260661
100
AcDbArc
 50
180.0006920000006
 51
183.7592219999992
  0
ARC
  5
3D2
330
2
100
AcDbEntity
  8
GAIKEI
370
    40
100
AcDbCircle
 10
-16.46956462355973
 20
21.22173446137833
 30
0.0
 40
6.505227501081456
100
AcDbArc
 50
179.997736999999
 51
183.7586070000008
  0
ARC
  5
3D3
330
2
100
AcDbEntity
  8
GAIKEI
370
    40
100
AcDbCircle
 10
-16.44363853950745
 20
21.22460482692156
 30
0.0
 40
6.531316781825315
100
AcDbArc
 50
184.1312619999991
 51
207.7856830000004
  0
LINE
  5
3D4
330
2
100
AcDbEntity
  8
GAIKEI
 48
0.00512
370
    40
100
AcDbLine
 10
-22.95796148240581
 20
20.7540801199475
 30
0.0
 11
-22.96080037862407
 21
20.79529747175627
 31
0.0
  0
LINE
  5
3D5
330
2
100
AcDbEntity
  8
GAIKEI
 48
0.00004
370
    40
100
AcDbLine
 10
-22.95540601183853
 20
20.7953283359019
 30
0.0
 11
-22.95542719311496
 21
20.79564988785035
 31
0.0
  0
ARC
  5
3D6
330
2
100
AcDbEntity
  8
GAIKEI
370
    40
100
AcDbCircle
 10
-16.44414104007447
 20
21.22452030354236
 30
0.0
 40
6.525417493755468
100
AcDbArc
 50
183.771188000001
 51
208.7619350000001
  0
ARC
  5
3D7
330
2
100
AcDbEntity
  8
GAIKEI
370
    40
100
AcDbCircle
 10
-17.57724471830818
 20
20.38650710782736
 30
0.0
 40
5.13237154307787
100
AcDbArc
 50
206.6469939999993
 51
208.4440310000011
  0
LINE
  5
3D8
330
2
100
AcDbEntity
  8
GAIKEI
 48
0.006198
370
    40
100
AcDbLine
 10
-21.43357305915353
 20
17.01183231830839
 30
0.0
 11
-21.46592090276044
 21
17.0499731401502
 31
0.0
  0
ARC
  5
3D9
330
2
100
AcDbEntity
  8
GAIKEI
370
    40
100
AcDbCircle
 10
-21.63573200264517
 20
17.61233300293907
 30
0.0
 40
0.206664503573718
100
AcDbArc
 50
219.5555879999997
 51
228.7489949999995
  0
LINE
  5
3DA
330
2
100
AcDbEntity
  8
GAIKEI
 48
0.00007
370
    40
100
AcDbLine
 10
-21.77152556916258
 20
17.45663650047459
 30
0.0
 11
-21.771965736259
 21
17.45699194246538
 31
0.0
  0
LINE
  5
3DB
330
2
100
AcDbEntity
  8
GAIKEI
 48
0.00004
370
    40
100
AcDbLine
 10
-16.73606361054794
 20
14.80519397325781
 30
0.0
 11
-16.7363875832138
 21
14.80519397325781
 31
0.0
  0
LINE
  5
3DC
330
2
100
AcDbEntity
  8
GAIKEI
 48
0.00004
370
    40
100
AcDbLine
 10
-16.73606441745372
 20
14.79969349836381
 30
0.0
 11
-16.7363875832138
 21
14.79969349836381
 31
0.0
  0
ARC
  5
3DD
330
2
100
AcDbEntity
  8
GAIKEI
370
    40
100
AcDbCircle
 10
-16.11423559956324
 20
21.21994918236669
 30
0.0
 40
6.865748560242133
100
AcDbArc
 50
171.8669029999995
 51
174.5876399999995
  0
LINE
  5
3DE
330
2
100
AcDbEntity
  8
GAIKEI
 48
0.000906
370
    40
100
AcDbLine
 10
-22.94507862664034
 20
21.8616270752442
 30
0.0
 11
-22.94937217223187
 21
21.86754794804335
 31
0.0
  0
LINE
  5
3DF
330
2
100
AcDbEntity
  8
GAIKEI
 48
0.002019
370
    40
100
AcDbLine
 10
-22.74250291631952
 20
23.02070767259352
 30
0.0
 11
-22.72856684680039
 21
23.02914488103022
 31
0.0
  0
LINE
  5
3E0
330
2
100
AcDbEntity
  8
GAIKEI
 48
0.065346
370
    40
100
AcDbLine
 10
-22.74250291631952
 20
23.02070767259352
 30
0.0
 11
-23.25721580041378
 21
23.13515454701849
 31
0.0
  0
ARC
  5
3E1
330
2
100
AcDbEntity
  8
GAIKEI
370
    40
100
AcDbCircle
 10
-15.36011316892407
 20
21.08097297777385
 30
0.0
 40
7.632969290486798
100
AcDbArc
 50
165.2782149999997
 51
167.5150889999993
  0
LINE
  5
3E2
330
2
100
AcDbEntity
  8
GAIKEI
 48
0.000312
370
    13
100
AcDbLine
 10
-21.771965736259
 20
17.45699194246538
 30
0.0
 11
-21.77147009439102
 21
17.45945905685107
 31
0.0
  0
LINE
  5
3E3
330
2
100
AcDbEntity
  8
GAIKEI
 48
0.00035
370
    40
100
AcDbLine
 10
-21.77147009439102
 20
17.45945905685107
 30
0.0
 11
-21.7715247622568
 21
17.45663488666309
 31
0.0
  0
ELLIPSE
  5
3E4
330
2
100
AcDbEntity
  8
GAIKEI
370
    40
100
AcDbEllipse
 10
-23.39303458273642
 20
22.56577520922736
 30
0.0
 11
0.6051793260000001
 21
0.0
 31
0.0
210
0.0
220
0.0
230
1.0
 40
0.9654729999999998
 41
3.947826233028184
 42
4.486032788525544
  0
LINE
  5
3E5
330
2
100
AcDbEntity
  8
GAIKEI
 48
0.073569
370
    40
100
AcDbLine
 10
-22.94937217223187
 20
21.86754794804335
 30
0.0
 11
-23.52885437369125
 21
21.99639566970973
 31
0.0
  0
ELLIPSE
  5
3E6
330
2
100
AcDbEntity
  8
GAIKEI
370
    40
100
AcDbEllipse
 10
-23.39303458273642
 20
22.56577520922736
 30
0.0
 11
0.6051793260000001
 21
0.0
 31
0.0
210
0.0
220
0.0
230
1.0
 40
0.9654729999999998
 41
1.344440134935748
 42
2.684424942118656
  0
LINE
  5
3E7
330
2
100
AcDbEntity
  8
GAIKEI
 48
0.085613
370
    40
100
AcDbLine
 10
-23.81195262268591
 20
22.1441060240619
 30
0.0
 11
-23.93606642993794
 21
22.82368307050365
 31
0.0
  0
ELLIPSE
  5
3E8
330
2
100
AcDbEntity
  8
GAIKEI
370
    40
100
AcDbEllipse
 10
-23.39303458273642
 20
22.56577520922736
 30
0.0
 11
0.2420718843050614
 21
0.0
 31
0.0
210
0.0
220
0.0
230
1.0
 40
0.965473
 41
3.141592653589792
 42
6.283185307179585
  0
ARC
  5
3E9
330
2
100
AcDbEntity
  8
GAIKEI
370
    40
100
AcDbCircle
 10
-23.39303458273642
 20
22.56691859470061
 30
0.0
 40
0.24207374766442
100
AcDbArc
 50
359.7295199999998
 51
180.2704839999999
  0
ARC
  5
3EA
330
2
100
AcDbEntity
  8
GAIKEI
370
    40
100
AcDbCircle
 10
-10.07899480103512
 20
22.55721192176441
 30
0.0
 40
0.6053362691718762
100
AcDbArc
 50
179.1894390000004
 51
217.1951419999995
  0
LINE
  5
3EB
330
2
100
AcDbEntity
  8
GAIKEI
 48
0.005804
370
    13
100
AcDbLine
 10
-10.68426954364219
 20
22.56577520922736
 30
0.0
 11
-10.73110295959623
 21
22.56577520922736
 31
0.0
  0
LINE
  5
3EC
330
2
100
AcDbEntity
  8
GAIKEI
 48
0.004301
370
    40
100
AcDbLine
 10
-10.56119321548135
 20
22.19126724548414
 30
0.0
 11
-10.56431896670014
 21
22.15670000756233
 31
0.0
  0
LINE
  5
3ED
330
2
100
AcDbEntity
  8
GAIKEI
 48
0.030791
370
    13
100
AcDbLine
 10
-10.68426954364219
 20
22.56577520922736
 30
0.0
 11
-10.73327131712128
 21
22.80934677572361
 31
0.0
  0
ELLIPSE
  5
3EE
330
2
100
AcDbEntity
  8
GAIKEI
370
    40
100
AcDbEllipse
 10
-10.07909021764217
 20
22.56577520922736
 30
0.0
 11
-0.6051793260000001
 21
0.0
 31
0.0
210
0.0
220
0.0
230
1.0
 40
0.9654729999999998
 41
5.996338123104089
 42
6.283185307179585
  0
ARC
  5
3EF
330
2
100
AcDbEntity
  8
GAIKEI
370
    40
100
AcDbCircle
 10
-16.06736224177368
 20
21.07950017302085
 30
0.0
 40
5.654398624506145
100
AcDbArc
 50
16.98304500000061
 51
18.44842599999965
  0
ARC
  5
3F0
330
2
100
AcDbEntity
  8
GAIKEI
370
    40
100
AcDbCircle
 10
-17.00256098372463
 20
21.22173446137833
 30
0.0
 40
6.505227501081456
100
AcDbArc
 50
356.2413949999998
 51
0.0022660000003396
  0
ARC
  5
3F1
330
2
100
AcDbEntity
  8
GAIKEI
370
    40
100
AcDbCircle
 10
-17.00171837237639
 20
21.22174999431445
 30
0.0
 40
6.499002828260661
100
AcDbArc
 50
356.2407760000002
 51
359.999308000001
  0
LINE
  5
3F2
330
2
100
AcDbEntity
  8
GAIKEI
 48
0.00004
370
    40
100
AcDbLine
 10
-10.50271554411574
 20
21.22167152272846
 30
0.0
 11
-10.50271554411574
 21
21.22199146086552
 31
0.0
  0
ARC
  5
3F3
330
2
100
AcDbEntity
  8
GAIKEI
370
    40
100
AcDbCircle
 10
-15.89488088897619
 20
20.38650710782736
 30
0.0
 40
5.13237154307787
100
AcDbArc
 50
331.5559709999999
 51
333.3530109999999
  0
ARC
  5
3F4
330
2
100
AcDbEntity
  8
GAIKEI
370
    40
100
AcDbCircle
 10
-17.0279845672099
 20
21.22452030354236
 30
0.0
 40
6.525417493755468
100
AcDbArc
 50
331.2380699999999
 51
356.2288109999999
  0
LINE
  5
3F5
330
2
100
AcDbEntity
  8
GAIKEI
 48
0.00004
370
    40
100
AcDbLine
 10
-10.51671919199293
 20
20.7953283359019
 30
0.0
 11
-10.51669780899007
 21
20.79564988785035
 31
0.0
  0
LINE
  5
3F6
330
2
100
AcDbEntity
  8
GAIKEI
 48
0.00512
370
    40
100
AcDbLine
 10
-10.51416452833143
 20
20.7540801199475
 30
0.0
 11
-10.51132482520739
 21
20.79529747175627
 31
0.0
  0
ARC
  5
3F7
330
2
100
AcDbEntity
  8
GAIKEI
370
    40
100
AcDbCircle
 10
-17.02848706777692
 20
21.22460482692156
 30
0.0
 40
6.531316781825315
100
AcDbArc
 50
332.2143119999997
 51
355.8687419999991
  0
LINE
  5
3F8
330
2
100
AcDbEntity
  8
GAIKEI
 48
0.006198
370
    40
100
AcDbLine
 10
-12.03855254813081
 20
17.01183231830839
 30
0.0
 11
-12.00620470452392
 21
17.0499731401502
 31
0.0
  0
LINE
  5
3F9
330
2
100
AcDbEntity
  8
GAIKEI
 48
0.00007
370
    40
100
AcDbLine
 10
-11.70060003812179
 20
17.45663650047459
 30
0.0
 11
-11.70015987102533
 21
17.45699194246538
 31
0.0
  0
ARC
  5
3FA
330
2
100
AcDbEntity
  8
GAIKEI
370
    40
100
AcDbCircle
 10
-11.83639360463917
 20
17.61233300293907
 30
0.0
 40
0.206664503573718
100
AcDbArc
 50
311.2510070000009
 51
320.4444179999999
  0
LINE
  5
3FB
330
2
100
AcDbEntity
  8
GAIKEI
 48
0.00004
370
    40
100
AcDbLine
 10
-16.73606118983065
 20
14.79969349836381
 30
0.0
 11
-16.73573802407054
 21
14.79969349836381
 31
0.0
  0
LINE
  5
3FC
330
2
100
AcDbEntity
  8
GAIKEI
 48
0.00004
370
    40
100
AcDbLine
 10
-16.73606199673642
 20
14.80519397325781
 30
0.0
 11
-16.73573802407054
 21
14.80519397325781
 31
0.0
  0
LINE
  5
3FD
330
2
100
AcDbEntity
  8
GAIKEI
 48
0.000906
370
    40
100
AcDbLine
 10
-10.52704637546469
 20
21.8616270752442
 30
0.0
 11
-10.52275383850536
 21
21.86754794804335
 31
0.0
  0
ARC
  5
3FE
330
2
100
AcDbEntity
  8
GAIKEI
370
    40
100
AcDbCircle
 10
-17.35789000772112
 20
21.21994918236669
 30
0.0
 40
6.865748560242133
100
AcDbArc
 50
5.41236000000048
 51
8.133096000000108
  0
ARC
  5
3FF
330
2
100
AcDbEntity
  8
GAIKEI
370
    40
100
AcDbCircle
 10
-18.11201264008673
 20
21.08097297777385
 30
0.0
 40
7.632969290486798
100
AcDbArc
 50
12.48491099999909
 51
14.72179100000009
  0
LINE
  5
400
330
2
100
AcDbEntity
  8
GAIKEI
 48
0.002019
370
    40
100
AcDbLine
 10
-10.72962228751194
 20
23.02070767259352
 30
0.0
 11
-10.74355835703107
 21
23.02914488103022
 31
0.0
  0
LINE
  5
401
330
2
100
AcDbEntity
  8
GAIKEI
 48
0.065346
370
    40
100
AcDbLine
 10
-10.72962228751194
 20
23.02070767259352
 30
0.0
 11
-10.21491000859703
 21
23.13515454701849
 31
0.0
  0
LINE
  5
402
330
2
100
AcDbEntity
  8
GAIKEI
 48
0.001451
370
    40
100
AcDbLine
 10
-21.50183163878594
 20
17.09092259924398
 30
0.0
 11
-21.51338209140198
 21
17.09284807813287
 31
0.0
  0
ARC
  5
403
330
2
100
AcDbEntity
  8
GAIKEI
370
    40
100
AcDbCircle
 10
-16.4878870328337
 20
21.22739208117071
 30
0.0
 40
6.507703289704121
100
AcDbArc
 50
209.0291730000006
 51
219.4445969999995
  0
LINE
  5
404
330
2
100
AcDbEntity
  8
GAIKEI
 48
0.002156
370
    40
100
AcDbLine
 10
-22.1780549831295
 20
18.06949252622496
 30
0.0
 11
-22.17367187099774
 21
18.08632982543293
 31
0.0
  0
ARC
  5
405
330
2
100
AcDbEntity
  8
GAIKEI
370
    40
100
AcDbCircle
 10
-22.07461611891805
 20
16.55850499224118
 30
0.0
 40
0.7821561525574622
100
AcDbArc
 50
38.91775199999941
 51
42.90823500000044
  0
LINE
  5
406
330
2
100
AcDbEntity
  8
GAIKEI
 48
0.083941
370
    40
100
AcDbLine
 10
-22.1780549831295
 20
18.06949252622496
 30
0.0
 11
-22.75291421971758
 21
17.71129394359104
 31
0.0
  0
LINE
  5
407
330
2
100
AcDbEntity
  8
GAIKEI
 48
0.000312
370
    13
100
AcDbLine
 10
-11.70015987102533
 20
17.45699194246538
 30
0.0
 11
-11.70065551289332
 21
17.45945905685107
 31
0.0
  0
LINE
  5
408
330
2
100
AcDbEntity
  8
GAIKEI
 48
0.00035
370
    40
100
AcDbLine
 10
-11.70065551289332
 20
17.45945905685107
 30
0.0
 11
-11.70060003812179
 21
17.45663488666309
 31
0.0
  0
LINE
  5
409
330
2
100
AcDbEntity
  8
GAIKEI
 48
0.085613
370
    40
100
AcDbLine
 10
-9.66017298459846
 20
22.1441060240619
 30
0.0
 11
-9.536059379072867
 21
22.82368307050365
 31
0.0
  0
ELLIPSE
  5
40A
330
2
100
AcDbEntity
  8
GAIKEI
370
    40
100
AcDbEllipse
 10
-10.07909021764217
 20
22.56577520922736
 30
0.0
 11
0.6051793260000001
 21
0.0
 31
0.0
210
0.0
220
0.0
230
1.0
 40
0.9654729999999998
 41
0.4571677114711366
 42
1.797152518654044
  0
LINE
  5
40B
330
2
100
AcDbEntity
  8
GAIKEI
 48
0.073569
370
    40
100
AcDbLine
 10
-10.52275383850536
 20
21.86754794804335
 30
0.0
 11
-9.943272040498868
 21
21.99639566970973
 31
0.0
  0
ELLIPSE
  5
40C
330
2
100
AcDbEntity
  8
GAIKEI
370
    40
100
AcDbEllipse
 10
-10.07909021764217
 20
22.56577520922736
 30
0.0
 11
0.6051793260000001
 21
0.0
 31
0.0
210
0.0
220
0.0
230
1.0
 40
0.9654729999999998
 41
4.938745172243835
 42
5.476951727741193
  0
ARC
  5
40D
330
2
100
AcDbEntity
  8
GAIKEI
370
    40
100
AcDbCircle
 10
-10.07909021764217
 20
22.56691859470061
 30
0.0
 40
0.24207374766442
100
AcDbArc
 50
359.7295199999998
 51
180.2704839999999
  0
ELLIPSE
  5
40E
330
2
100
AcDbEntity
  8
GAIKEI
370
    40
100
AcDbEllipse
 10
-10.07909021764217
 20
22.56577520922736
 30
0.0
 11
0.2420718843050614
 21
0.0
 31
0.0
210
0.0
220
0.0
230
1.0
 40
0.965473
 41
3.14159265358979
 42
6.283185307179585
  0
ARC
  5
40F
330
2
100
AcDbEntity
  8
GAIKEI
370
    40
100
AcDbCircle
 10
-11.39750868146052
 20
16.55850499224118
 30
0.0
 40
0.7821561525574622
100
AcDbArc
 50
137.0917590000007
 51
141.0822429999998
  0
LINE
  5
410
330
2
100
AcDbEntity
  8
GAIKEI
 48
0.002156
370
    40
100
AcDbLine
 10
-11.29407062415484
 20
18.06949252622496
 30
0.0
 11
-11.29845393801307
 21
18.08632982543293
 31
0.0
  0
ARC
  5
411
330
2
100
AcDbEntity
  8
GAIKEI
370
    40
100
AcDbCircle
 10
-16.98423857445064
 20
21.22739208117071
 30
0.0
 40
6.507703289704121
100
AcDbArc
 50
320.5553979999987
 51
330.9708319999995
  0
LINE
  5
412
330
2
100
AcDbEntity
  8
GAIKEI
 48
0.001451
370
    40
100
AcDbLine
 10
-11.97029417022483
 20
17.09092259924398
 30
0.0
 11
-11.95874351588236
 21
17.09284807813287
 31
0.0
  0
LINE
  5
413
330
2
100
AcDbEntity
  8
GAIKEI
 48
0.083941
370
    40
100
AcDbLine
 10
-11.29407062415484
 20
18.06949252622496
 30
0.0
 11
-10.71921219447253
 21
17.71129394359104
 31
0.0
  0
LINE
  5
414
330
2
100
AcDbEntity
  8
GAIKEI
 48
0.085159
370
    40
100
AcDbLine
 10
-21.51338209140198
 20
17.09284807813287
 30
0.0
 11
-22.09658231291388
 21
16.72945362753239
 31
0.0
  0
ELLIPSE
  5
415
330
2
100
AcDbEntity
  8
GAIKEI
370
    40
100
AcDbEllipse
 10
-22.42474786286286
 20
17.22037368469853
 30
0.0
 11
0.6051793260000001
 21
0.0
 31
0.0
210
0.0
220
0.0
230
1.0
 40
0.9654729999999998
 41
2.143923994476253
 42
5.285516648066048
  0
ELLIPSE
  5
416
330
2
100
AcDbEntity
  8
GAIKEI
370
    40
100
AcDbEllipse
 10
-22.42474786286286
 20
17.22037368469853
 30
0.0
 11
0.2420718843050614
 21
0.0
 31
0.0
210
0.0
220
0.0
230
1.0
 40
0.965473
 41
3.141592653589793
 42
6.283185307179587
  0
ARC
  5
417
330
2
100
AcDbEntity
  8
GAIKEI
370
    40
100
AcDbCircle
 10
-22.42474786286286
 20
17.22151565808667
 30
0.0
 40
0.24207374766442
100
AcDbArc
 50
359.7295199999998
 51
180.2704839999999
  0
LINE
  5
418
330
2
100
AcDbEntity
  8
GAIKEI
 48
0.085159
370
    40
100
AcDbLine
 10
-11.95874351588236
 20
17.09284807813287
 30
0.0
 11
-11.37554329437046
 21
16.72945362753239
 31
0.0
  0
ELLIPSE
  5
419
330
2
100
AcDbEntity
  8
GAIKEI
370
    40
100
AcDbEllipse
 10
-11.04737774442151
 20
17.22037368469853
 30
0.0
 11
0.6051793260000001
 21
0.0
 31
0.0
210
0.0
220
0.0
230
1.0
 40
0.9654729999999998
 41
4.139261312703332
 42
7.280853966293125
  0
ARC
  5
41A
330
2
100
AcDbEntity
  8
GAIKEI
370
    40
100
AcDbCircle
 10
-11.04737774442151
 20
17.22151565808667
 30
0.0
 40
0.24207374766442
100
AcDbArc
 50
359.7295199999998
 51
180.2704839999999
  0
ELLIPSE
  5
41B
330
2
100
AcDbEntity
  8
GAIKEI
370
    40
100
AcDbEllipse
 10
-11.04737774442151
 20
17.22037368469853
 30
0.0
 11
0.2420718843050614
 21
0.0
 31
0.0
210
0.0
220
0.0
230
1.0
 40
0.965473
 41
3.141592653589793
 42
6.283185307179587
  0
ARC
  5
41C
330
2
100
AcDbEntity
  8
GAIKEI
370
    13
100
AcDbCircle
 10
-16.73581508357139
 20
21.39770043673502
 30
0.0
 40
5.47241575456401
100
AcDbArc
 50
241.4129440000007
 51
269.9974160000009
  0
ARC
  5
41D
330
2
100
AcDbEntity
  8
GAIKEI
370
    13
100
AcDbCircle
 10
-16.7359597214303
 20
21.40668997216983
 30
0.0
 40
5.525903924113194
100
AcDbArc
 50
241.4711240000001
 51
269.9989249999993
  0
ARC
  5
41E
330
2
100
AcDbEntity
  8
GAIKEI
370
    13
100
AcDbCircle
 10
-16.73722252895723
 20
21.40927711378845
 30
0.0
 40
5.52862783625952
100
AcDbArc
 50
270.012024999999
 51
359.577094999999
  0
LINE
  5
41F
330
2
100
AcDbEntity
  8
GAIKEI
 48
0.000965
370
    13
100
AcDbLine
 10
-15.73305734928888
 20
28.16521225425197
 30
0.0
 11
-15.727545981167
 21
28.17071272914598
 31
0.0
  0
LINE
  5
420
330
2
100
AcDbEntity
  8
GAIKEI
 48
0.002251
370
    40
100
AcDbLine
 10
-15.72743059364217
 20
28.15266587819179
 30
0.0
 11
-15.727545981167
 21
28.17082670458569
 31
0.0
  0
LINE
  5
421
330
2
100
AcDbEntity
  8
GAIKEI
 48
0.000904
370
    13
100
AcDbLine
 10
-15.79272641702096
 20
28.22567834315634
 30
0.0
 11
-15.78756060629419
 21
28.23083104166438
 31
0.0
  0
ARC
  5
422
330
2
100
AcDbEntity
  8
GAIKEI
370
    40
100
AcDbCircle
 10
-15.7880499946425
 20
28.17032803682105
 30
0.0
 40
0.060504416928386
100
AcDbArc
 50
0.3629960000000742
 51
89.53651299999858
  0
ARC
  5
423
330
2
100
AcDbEntity
  8
GAIKEI
370
    40
100
AcDbCircle
 10
-16.73591513988663
 20
-88.20386986360858
 30
0.0
 40
116.4385645718166
100
AcDbArc
 50
89.53333699999896
 51
90.00007099999868
  0
ARC
  5
424
330
2
100
AcDbEntity
  8
GAIKEI
370
    40
100
AcDbCircle
 10
-16.73621066912415
 20
-88.20386986360858
 30
0.0
 40
116.4385645718166
100
AcDbArc
 50
89.99992699999852
 51
90.46666199999902
  0
LINE
  5
425
330
2
100
AcDbEntity
  8
GAIKEI
 48
0.000904
370
    13
100
AcDbLine
 10
-17.67939919026341
 20
28.22567834315634
 30
0.0
 11
-17.68456500099015
 21
28.23083104166438
 31
0.0
  0
LINE
  5
426
330
2
100
AcDbEntity
  8
GAIKEI
 48
0.002251
370
    40
100
AcDbLine
 10
-17.74469501364217
 20
28.15266587819179
 30
0.0
 11
-17.74457881921157
 21
28.17082670458569
 31
0.0
  0
LINE
  5
427
330
2
100
AcDbEntity
  8
GAIKEI
 48
0.000965
370
    13
100
AcDbLine
 10
-17.73906825799545
 20
28.16521225425197
 30
0.0
 11
-17.74457962611734
 21
28.17071272914598
 31
0.0
  0
ARC
  5
428
330
2
100
AcDbEntity
  8
GAIKEI
370
    40
100
AcDbCircle
 10
-17.68407561264186
 20
28.17032803682105
 30
0.0
 40
0.060504416928386
100
AcDbArc
 50
90.46348500000156
 51
179.6370079999995
  0
LINE
  5
429
330
2
100
AcDbEntity
  8
GAIKEI
 48
0.025004
370
    13
100
AcDbLine
 10
13.08510576155567
 20
28.23117276625715
 30
0.0
 11
13.28683220355566
 21
28.23469410302869
 31
0.0
  0
POINT
  5
42A
330
2
100
AcDbEntity
  8
GAIKEI
370
     5
100
AcDbPoint
 10
15.18384749147947
 20
14.79969349836381
 30
0.0
  0
POINT
  5
42B
330
2
100
AcDbEntity
  8
GAIKEI
370
     5
100
AcDbPoint
 10
13.28683220355566
 20
28.23469410302869
 30
0.0
  0
POINT
  5
42C
330
2
100
AcDbEntity
  8
GAIKEI
370
     5
100
AcDbPoint
 10
8.963740546973696
 20
21.3851278362373
 30
0.0
  0
POINT
  5
42D
330
2
100
AcDbEntity
  8
GAIKEI
370
     5
100
AcDbPoint
 10
16.37870185260021
 20
23.14480130720142
 30
0.0
  0
POINT
  5
42E
330
2
100
AcDbEntity
  8
GAIKEI
370
     5
100
AcDbPoint
 10
16.30140754217774
 20
18.13468990709998
 30
0.0
  0
LINE
  5
42F
330
2
100
AcDbEntity
  8
GAIKEI
 48
0.114385
370
    40
100
AcDbLine
 10
15.41118996399038
 20
16.26659028909887
 30
0.0
 11
15.17075020050615
 21
15.37547845759422
 31
0.0
  0
ARC
  5
430
330
2
100
AcDbEntity
  8
GAIKEI
370
    40
100
AcDbCircle
 10
43.7388724950054
 20
17.02367688807681
 30
0.0
 40
32.7402015366
100
AcDbArc
 50
159.9855020000003
 51
161.6462760000002
  0
ARC
  5
431
330
2
100
AcDbEntity
  8
GAIKEI
370
    40
100
AcDbCircle
 10
13.62149576565434
 20
27.01547360843154
 30
0.0
 40
1.00863221
100
AcDbArc
 50
161.6461259999998
 51
202.9327920000003
  0
LINE
  5
432
330
2
100
AcDbEntity
  8
GAIKEI
 48
0.005285
370
    13
100
AcDbLine
 10
12.69215536130551
 20
27.36525979498129
 30
0.0
 11
12.66417247445059
 21
27.33307514806586
 31
0.0
  0
LINE
  5
433
330
2
100
AcDbEntity
  8
GAIKEI
 48
0.010882
370
    40
100
AcDbLine
 10
12.96278510064655
 20
28.14784542313373
 30
0.0
 11
12.94890289208746
 21
28.06114158282412
 31
0.0
  0
LINE
  5
434
330
2
100
AcDbEntity
  8
GAIKEI
 48
0.002289
370
    40
100
AcDbLine
 10
12.96278510064655
 20
28.14784542313373
 30
0.0
 11
12.96906746722976
 21
28.16521225425197
 31
0.0
  0
LINE
  5
435
330
2
100
AcDbEntity
  8
GAIKEI
 48
0.00169
370
    40
100
AcDbLine
 10
12.98913985338811
 20
28.22567834315634
 30
0.0
 11
12.97598406174663
 21
28.22926746001247
 31
0.0
  0
ARC
  5
436
330
2
100
AcDbEntity
  8
GAIKEI
370
    13
100
AcDbCircle
 10
13.34888668646437
 20
27.25163172818441
 30
0.0
 40
0.9092357419597821
100
AcDbArc
 50
223.7910429999999
 51
231.0851379999995
  0
ARC
  5
437
330
2
100
AcDbEntity
  8
GAIKEI
370
    40
100
AcDbCircle
 10
12.63684802270236
 20
26.59887723810312
 30
0.0
 40
0.0605179326
100
AcDbArc
 50
288.7862350000008
 51
22.93278700000068
  0
LINE
  5
438
330
2
100
AcDbEntity
  8
GAIKEI
 48
0.040164
370
    40
100
AcDbLine
 10
13.28683220355566
 20
28.15266587819179
 30
0.0
 11
12.96278510064655
 21
28.14784542313373
 31
0.0
  0
LINE
  5
439
330
2
100
AcDbEntity
  8
GAIKEI
 48
0.010799
370
    40
100
AcDbLine
 10
13.28683220355566
 20
28.15266587819179
 30
0.0
 11
13.27291307905767
 21
28.06664528534123
 31
0.0
  0
LINE
  5
43A
330
2
100
AcDbEntity
  8
GAIKEI
 48
0.065028
370
    40
100
AcDbLine
 10
12.94890289208746
 20
28.06114158282412
 30
0.0
 11
12.86600341074757
 21
27.54302012703943
 31
0.0
  0
LINE
  5
43B
330
2
100
AcDbEntity
  8
GAIKEI
 48
0.04004
370
    13
100
AcDbLine
 10
13.18905317812741
 20
27.54804049300151
 30
0.0
 11
12.86600341074757
 21
27.54302012703943
 31
0.0
  0
LINE
  5
43C
330
2
100
AcDbEntity
  8
GAIKEI
 48
0.063839
370
    40
100
AcDbLine
 10
13.27127869142458
 20
28.05655513043883
 30
0.0
 11
13.18905317812741
 21
27.54804049300151
 31
0.0
  0
LINE
  5
43D
330
2
100
AcDbEntity
  8
GAIKEI
 48
0.001267
370
    40
100
AcDbLine
 10
13.27291307905767
 20
28.06664528534123
 30
0.0
 11
13.27127869142458
 21
28.05655513043883
 31
0.0
  0
LINE
  5
43E
330
2
100
AcDbEntity
  8
GAIKEI
 48
0.01032
370
    40
100
AcDbLine
 10
13.18905317812741
 20
27.54804049300151
 30
0.0
 11
13.17551894768073
 21
27.46587670799556
 31
0.0
  0
LINE
  5
43F
330
2
100
AcDbEntity
  8
GAIKEI
 48
0.058762
370
    40
100
AcDbLine
 10
13.75467294021899
 20
27.39568074761417
 30
0.0
 11
13.28052522634652
 21
27.39324893535593
 31
0.0
  0
ARC
  5
440
330
2
100
AcDbEntity
  8
GAIKEI
370
    40
100
AcDbCircle
 10
13.71299545039602
 20
27.4380445107928
 30
0.0
 40
0.855860337491676
100
AcDbArc
 50
183.6923819999993
 51
191.4314229999993
  0
LINE
  5
441
330
2
100
AcDbEntity
  8
GAIKEI
 48
0.001011
370
    40
100
AcDbLine
 10
12.85892079536893
 20
27.38292820713025
 30
0.0
 11
12.85844976412687
 21
27.39106968460294
 31
0.0
  0
ARC
  5
442
330
2
100
AcDbEntity
  8
GAIKEI
370
    40
100
AcDbCircle
 10
13.57953807780342
 20
27.43165442228963
 30
0.0
 40
0.722200028098432
100
AcDbArc
 50
171.1294200000005
 51
183.2214130000002
  0
ARC
  5
443
330
2
100
AcDbEntity
  8
GAIKEI
370
    13
100
AcDbCircle
 10
13.60640985541582
 20
27.5575642000548
 30
0.0
 40
1.309140863024327
100
AcDbArc
 50
230.726347999999
 51
235.8763380000008
  0
ARC
  5
444
330
2
100
AcDbEntity
  8
GAIKEI
370
    13
100
AcDbCircle
 10
13.35681292182346
 20
27.18625279351147
 30
0.0
 40
0.9520459257545802
100
AcDbArc
 50
222.6242960000008
 51
229.9329259999996
  0
ARC
  5
445
330
2
100
AcDbEntity
  8
GAIKEI
370
    13
100
AcDbCircle
 10
9.368440100385242
 20
21.39699863044325
 30
0.0
 40
6.075413207367338
100
AcDbArc
 50
50.10548899999923
 51
55.13732000000141
  0
ARC
  5
446
330
2
100
AcDbEntity
  8
GAIKEI
370
    13
100
AcDbCircle
 10
13.61282778216804
 20
27.47895564186263
 30
0.0
 40
1.340932950283528
100
AcDbArc
 50
229.6117429999994
 51
234.8764259999998
  0
LINE
  5
447
330
2
100
AcDbEntity
  8
GAIKEI
 48
0.002235
370
    40
100
AcDbLine
 10
13.17551894768073
 20
27.46587368209896
 30
0.0
 11
13.1728809709987
 21
27.44803622319148
 31
0.0
  0
ARC
  5
448
330
2
100
AcDbEntity
  8
GAIKEI
370
    40
100
AcDbCircle
 10
8.66549728189301
 20
22.15601676010328
 30
0.0
 40
6.689154207018702
100
AcDbArc
 50
37.39009099999984
 51
39.85919400000021
  0
ARC
  5
449
330
2
100
AcDbEntity
  8
GAIKEI
370
    13
100
AcDbCircle
 10
9.348454053144109
 20
21.43475919794196
 30
0.0
 40
6.14859068456149
100
AcDbArc
 50
49.99417099999934
 51
55.03692000000033
  0
ARC
  5
44A
330
2
100
AcDbEntity
  8
GAIKEI
370
    40
100
AcDbCircle
 10
13.12718045074294
 20
26.94144222320847
 30
0.0
 40
0.11944424357262
100
AcDbArc
 50
235.3418900000004
 51
242.7996499999998
  0
LINE
  5
44B
330
2
100
AcDbEntity
  8
GAIKEI
 48
0.003501
370
    13
100
AcDbLine
 10
13.17810750138449
 20
26.71087696906011
 30
0.0
 11
13.15462170210108
 21
26.69517559144708
 31
0.0
  0
ARC
  5
44C
330
2
100
AcDbEntity
  8
GAIKEI
370
    40
100
AcDbCircle
 10
14.08412812731166
 20
27.58681231515391
 30
0.0
 40
1.260209088620598
100
AcDbArc
 50
216.6124179999988
 51
224.0325170000003
  0
ARC
  5
44D
330
2
100
AcDbEntity
  8
GAIKEI
370
    40
100
AcDbCircle
 10
8.415210645595465
 20
-180.0899626135777
 30
0.0
 40
207.4062865996265
100
AcDbArc
 50
88.53578099999909
 51
88.76814400000155
  0
LINE
  5
44E
330
2
100
AcDbEntity
  8
GAIKEI
 48
0.066972
370
    40
100
AcDbLine
 10
13.61203358516587
 20
26.86703522335029
 30
0.0
 11
13.07257169080844
 21
26.83521388575707
 31
0.0
  0
LINE
  5
44F
330
2
100
AcDbEntity
  8
GAIKEI
 48
0.058762
370
    40
100
AcDbLine
 10
13.75467294021899
 20
27.39568074761417
 30
0.0
 11
13.28052522634652
 21
27.39324893535593
 31
0.0
  0
ELLIPSE
  5
450
330
2
100
AcDbEntity
  8
GAIKEI
370
    13
100
AcDbEllipse
 10
12.82389200734783
 20
26.43770487137056
 30
0.0
 11
-0.0348779650009461
 21
-0.0494558524111023
 31
0.0
210
0.0
220
0.0
230
0.9999999999999998
 40
0.941177
 41
0.9474921501183676
 42
2.810743447720721
  0
ARC
  5
451
330
2
100
AcDbEntity
  8
GAIKEI
370
    40
100
AcDbCircle
 10
8.540039976537286
 20
22.05567681749392
 30
0.0
 40
6.849781508904948
100
AcDbArc
 50
37.41969299999948
 51
41.63295999999899
  0
LINE
  5
452
330
2
100
AcDbEntity
  8
GAIKEI
 48
0.089614
370
    40
100
AcDbLine
 10
13.80024112792881
 20
26.44311920907387
 30
0.0
 11
13.98861166565686
 21
27.14125105365076
 31
0.0
  0
LINE
  5
453
330
2
100
AcDbEntity
  8
GAIKEI
 48
0.116482
370
    40
100
AcDbLine
 10
14.23346217779544
 20
28.04869990278735
 30
0.0
 11
13.98861166565686
 21
27.14125105365076
 31
0.0
  0
LINE
  5
454
330
2
100
AcDbEntity
  8
GAIKEI
 48
0.024059
370
    40
100
AcDbLine
 10
14.7635113146427
 20
24.93552370521229
 30
0.0
 11
14.95075843781527
 21
24.88426400766787
 31
0.0
  0
ELLIPSE
  5
455
330
2
100
AcDbEntity
  8
GAIKEI
370
    40
100
AcDbEllipse
 10
-8.345161394078502
 20
19.22921340330129
 30
0.0
 11
23.59539426496973
 21
4.177411220847137
 31
0.0
210
0.0
220
0.0
230
1.0
 40
0.499182
 41
0.1333489783327828
 42
0.2467647089455539
  0
LINE
  5
456
330
2
100
AcDbEntity
  8
GAIKEI
 48
0.009441
370
    40
100
AcDbLine
 10
13.98015912601065
 20
26.21792673698178
 30
0.0
 11
14.0261089801487
 21
26.15716511883977
 31
0.0
  0
ARC
  5
457
330
2
100
AcDbEntity
  8
GAIKEI
370
    13
100
AcDbCircle
 10
10.3211924721397
 20
22.75304532921428
 30
0.0
 40
4.531141819085788
100
AcDbArc
 50
25.29751000000043
 51
31.69797599999993
  0
ARC
  5
458
330
2
100
AcDbEntity
  8
GAIKEI
370
    13
100
AcDbCircle
 10
10.60135519795037
 20
22.92503104014384
 30
0.0
 40
4.202387833105503
100
AcDbArc
 50
31.70995200000121
 51
35.51819300000038
  0
ARC
  5
459
330
2
100
AcDbEntity
  8
GAIKEI
370
    40
100
AcDbCircle
 10
8.065261464080663
 20
21.74737890136464
 30
0.0
 40
7.125750745439302
100
AcDbArc
 50
38.19380300000016
 51
44.15082400000073
  0
LINE
  5
45A
330
2
100
AcDbEntity
  8
GAIKEI
 48
0.001237
370
    13
100
AcDbLine
 10
13.57111337640617
 20
26.71538031015132
 30
0.0
 11
13.56113114515025
 21
26.7152663347116
 31
0.0
  0
LINE
  5
45B
330
2
100
AcDbEntity
  8
GAIKEI
 48
0.047471
370
    13
100
AcDbLine
 10
13.56113114515025
 20
26.7152695623347
 30
0.0
 11
13.17811052728112
 21
26.71087696906011
 31
0.0
  0
LINE
  5
45C
330
2
100
AcDbEntity
  8
GAIKEI
 48
0.004924
370
    40
100
AcDbLine
 10
13.57918102200108
 20
26.74527173087404
 30
0.0
 11
13.56882942962986
 21
26.70691243929548
 31
0.0
  0
LINE
  5
45D
330
2
100
AcDbEntity
  8
GAIKEI
 48
0.050432
370
    40
100
AcDbLine
 10
13.68518786381921
 20
27.13815757866269
 30
0.0
 11
13.57918102200108
 21
26.74527173087404
 31
0.0
  0
LINE
  5
45E
330
2
100
AcDbEntity
  8
GAIKEI
 48
0.117555
370
    40
100
AcDbLine
 10
13.93229166031489
 20
28.05396032321539
 30
0.0
 11
13.68518786381921
 21
27.13815757866269
 31
0.0
  0
ELLIPSE
  5
45F
330
2
100
AcDbEntity
  8
GAIKEI
370
    13
100
AcDbEllipse
 10
14.12213359071091
 20
25.10853458992006
 30
0.0
 11
0.0514535401072998
 21
0.0318568086468354
 31
0.0
210
0.0
220
0.0
230
1.0
 40
0.6339209999999999
 41
4.395720816832208
 42
6.099318232077975
  0
ARC
  5
460
330
2
100
AcDbEntity
  8
GAIKEI
370
    13
100
AcDbCircle
 10
10.6313726976993
 20
22.90549907912362
 30
0.0
 40
4.108803103859306
100
AcDbArc
 50
31.7501210000007
 51
35.56768100000063
  0
LINE
  5
461
330
2
100
AcDbEntity
  8
GAIKEI
 48
0.009441
370
    40
100
AcDbLine
 10
13.98015912601065
 20
26.21792673698178
 30
0.0
 11
14.0261089801487
 21
26.15716511883977
 31
0.0
  0
ELLIPSE
  5
462
330
2
100
AcDbEntity
  8
GAIKEI
370
    40
100
AcDbEllipse
 10
-8.345161394078502
 20
19.22921340330129
 30
0.0
 11
23.59539426496973
 21
4.177411220847137
 31
0.0
210
0.0
220
0.0
230
1.0
 40
0.499182
 41
0.1333489783327828
 42
0.2467647089455539
  0
LINE
  5
463
330
2
100
AcDbEntity
  8
GAIKEI
 48
0.024059
370
    40
100
AcDbLine
 10
14.7635113146427
 20
24.93552370521229
 30
0.0
 11
14.95075843781527
 21
24.88426400766787
 31
0.0
  0
ARC
  5
464
330
2
100
AcDbEntity
  8
GAIKEI
370
    40
100
AcDbCircle
 10
7.014203762610776
 20
23.54203193909791
 30
0.0
 40
8.285237216389974
100
AcDbArc
 50
357.3605139999996
 51
2.252080000000952
  0
LINE
  5
465
330
2
100
AcDbEntity
  8
GAIKEI
 48
0.005741
370
    40
100
AcDbLine
 10
15.29683850617249
 20
23.11458672071865
 30
0.0
 11
15.29059002963157
 21
23.16048735360482
 31
0.0
  0
ARC
  5
466
330
2
100
AcDbEntity
  8
GAIKEI
370
    40
100
AcDbCircle
 10
-5.006472584547907
 20
22.49884035850732
 30
0.0
 40
20.37041075194354
100
AcDbArc
 50
356.7549709999993
 51
357.92441
  0
LINE
  5
467
330
2
100
AcDbEntity
  8
GAIKEI
 48
0.00238
370
    40
100
AcDbLine
 10
15.33027587429265
 20
21.32657310537081
 30
0.0
 11
15.33132545697037
 21
21.34574659850364
 31
0.0
  0
ARC
  5
468
330
2
100
AcDbEntity
  8
GAIKEI
370
    40
100
AcDbCircle
 10
8.066274130819522
 20
21.64212470090161
 30
0.0
 40
7.478649369262566
100
AcDbArc
 50
41.58965000000109
 51
42.62780499999879
  0
ARC
  5
469
330
2
100
AcDbEntity
  8
GAIKEI
370
    40
100
AcDbCircle
 10
3.48835880853295
 20
20.80287875489944
 30
0.0
 40
11.71053747551971
100
AcDbArc
 50
29.70799000000031
 51
30.49344800000012
  0
LINE
  5
46A
330
2
100
AcDbEntity
  8
GAIKEI
 48
0.037605
370
    13
100
AcDbLine
 10
13.98861166565686
 20
27.14125105365076
 30
0.0
 11
13.68518786381921
 21
27.13815757866269
 31
0.0
  0
ELLIPSE
  5
46B
330
2
100
AcDbEntity
  8
GAIKEI
370
    40
100
AcDbEllipse
 10
-8.177101683163186
 20
19.60669784069614
 30
0.0
 11
23.13930584999134
 21
3.671746907509795
 31
0.0
210
0.0
220
0.0
230
1.0
 40
0.4922240000000002
 41
0.1491353848685216
 42
0.2669956855734947
  0
LINE
  5
46C
330
2
100
AcDbEntity
  8
GAIKEI
 48
0.024123
370
    40
100
AcDbLine
 10
14.43677398790311
 20
24.92998934027605
 30
0.0
 11
14.62470133263809
 21
24.87928519735294
 31
0.0
  0
ARC
  5
46D
330
2
100
AcDbEntity
  8
GAIKEI
370
    40
100
AcDbCircle
 10
7.088789088643636
 20
23.48552412643846
 30
0.0
 40
7.900108960654812
100
AcDbArc
 50
357.6529870000007
 51
2.737037999999814
  0
ARC
  5
46E
330
2
100
AcDbEntity
  8
GAIKEI
370
    40
100
AcDbCircle
 10
8.763642440813526
 20
22.26642204526286
 30
0.0
 40
6.282728480442948
100
AcDbArc
 50
6.075442999999205
 51
8.195255999998924
  0
LINE
  5
46F
330
2
100
AcDbEntity
  8
GAIKEI
 48
0.015141
370
    40
100
AcDbLine
 10
15.01108291475742
 20
22.93137190739515
 30
0.0
 11
15.0171621428135
 21
22.80934677572361
 31
0.0
  0
ARC
  5
470
330
2
100
AcDbEntity
  8
GAIKEI
370
    40
100
AcDbCircle
 10
7.732161483633944
 20
22.41597012750151
 30
0.0
 40
7.295615908010496
100
AcDbArc
 50
1.176575999999304
 51
3.09087299999902
  0
ARC
  5
471
330
2
100
AcDbEntity
  8
GAIKEI
370
    13
100
AcDbCircle
 10
13.61466853595129
 20
14.44862049884057
 30
0.0
 40
7.039028749749944
100
AcDbArc
 50
78.4585669999992
 51
79.43583099999925
  0
ARC
  5
472
330
2
100
AcDbEntity
  8
GAIKEI
370
    40
100
AcDbCircle
 10
8.884174796814278
 20
22.61606984747323
 30
0.0
 40
6.099036785810632
100
AcDbArc
 50
13.9923130000002
 51
15.18031600000033
  0
LINE
  5
473
330
2
100
AcDbEntity
  8
GAIKEI
 48
0.01286
370
    40
100
AcDbLine
 10
14.85036302043428
 20
24.19157272523171
 30
0.0
 11
14.8749631565833
 21
24.0907665928147
 31
0.0
  0
ELLIPSE
  5
474
330
2
100
AcDbEntity
  8
GAIKEI
370
    13
100
AcDbEllipse
 10
14.36154212862362
 20
24.66824908005469
 30
0.0
 11
0.0546886244966736
 21
0.0259176123297119
 31
0.0
210
0.0
220
0.0
230
1.0
 40
0.5723590000000002
 41
4.503438426431355
 42
6.135813563759779
  0
ARC
  5
475
330
2
100
AcDbEntity
  8
GAIKEI
370
    13
100
AcDbCircle
 10
10.38296070522722
 20
22.72642268375784
 30
0.0
 40
4.414342007441345
100
AcDbArc
 50
25.57774199999995
 51
32.02994700000025
  0
LINE
  5
476
330
2
100
AcDbEntity
  8
GAIKEI
 48
0.007005
370
    13
100
AcDbLine
 10
14.84884866003418
 20
21.37297240602174
 30
0.0
 11
14.90519004837901
 21
21.36846462694882
 31
0.0
  0
LINE
  5
477
330
2
100
AcDbEntity
  8
GAIKEI
 48
0.012922
370
    40
100
AcDbLine
 10
15.32451678609999
 20
21.22199307467702
 30
0.0
 11
15.33025126366672
 21
21.32610207412881
 31
0.0
  0
LINE
  5
478
330
2
100
AcDbEntity
  8
GAIKEI
 48
0.015308
370
    40
100
AcDbLine
 10
15.01617106080397
 20
21.22199146086552
 30
0.0
 11
15.02301987523631
 21
21.34532337642838
 31
0.0
  0
LINE
  5
479
330
2
100
AcDbEntity
  8
GAIKEI
 48
0.038163
370
    40
100
AcDbLine
 10
15.35742482403634
 20
22.15668467635282
 30
0.0
 11
15.05027029338032
 21
22.13474389988869
 31
0.0
  0
ARC
  5
47A
330
2
100
AcDbEntity
  8
GAIKEI
370
    40
100
AcDbCircle
 10
15.4559579029048
 20
21.75571121205144
 30
0.0
 40
0.105955401575406
100
AcDbArc
 50
91.33304399999863
 51
142.4741260000004
  0
ARC
  5
47B
330
2
100
AcDbEntity
  8
GAIKEI
370
    40
100
AcDbCircle
 10
15.45359689662763
 20
21.75724715718081
 30
0.0
 40
0.103139905624412
100
AcDbArc
 50
142.3519070000013
 51
177.8773189999993
  0
ARC
  5
47C
330
2
100
AcDbEntity
  8
GAIKEI
370
    13
100
AcDbCircle
 10
15.44559703111724
 20
21.75887549302058
 30
0.0
 40
0.095867869116754
100
AcDbArc
 50
88.43235099999944
 51
141.1866489999993
  0
ARC
  5
47D
330
2
100
AcDbEntity
  8
GAIKEI
370
    13
100
AcDbCircle
 10
15.43093595676555
 20
21.8702474512902
 30
0.0
 40
0.023133786642118
100
AcDbArc
 50
275.7687750000008
 51
318.137207
  0
ARC
  5
47E
330
2
100
AcDbEntity
  8
GAIKEI
370
    40
100
AcDbCircle
 10
9.608193388787356
 20
-4.993288627299875
 30
0.0
 40
28.44253870839079
100
AcDbArc
 50
78.40544899999904
 51
79.04965900000009
  0
LINE
  5
47F
330
2
100
AcDbEntity
  8
GAIKEI
 48
0.038218
370
    40
100
AcDbLine
 10
15.29059002963157
 20
23.16048735360482
 30
0.0
 11
14.98221041429326
 21
23.16200494162797
 31
0.0
  0
LINE
  5
480
330
2
100
AcDbEntity
  8
GAIKEI
 48
0.038813
370
    13
100
AcDbLine
 10
14.97995712993614
 20
23.86277456116056
 30
0.0
 11
15.29310777735415
 21
23.86761196123973
 31
0.0
  0
LINE
  5
481
330
2
100
AcDbEntity
  8
GAIKEI
 48
0.040413
370
    13
100
AcDbLine
 10
14.62470133263809
 20
24.87928378526783
 30
0.0
 11
14.95075843781527
 21
24.88426400766787
 31
0.0
  0
LINE
  5
482
330
2
100
AcDbEntity
  8
GAIKEI
 48
0.040492
370
    40
100
AcDbLine
 10
14.7635113146427
 20
24.93552370521229
 30
0.0
 11
14.4368292609482
 21
24.92998934027605
 31
0.0
  0
LINE
  5
483
330
2
100
AcDbEntity
  8
GAIKEI
 48
0.009012
370
    13
100
AcDbLine
 10
14.8749631565833
 20
24.0907665928147
 30
0.0
 11
14.80224299323316
 21
24.0907665928147
 31
0.0
  0
LINE
  5
484
330
2
100
AcDbEntity
  8
GAIKEI
 48
0.010265
370
    13
100
AcDbLine
 10
14.85036302043428
 20
24.19157272523171
 30
0.0
 11
14.77039704501396
 21
24.21315019237375
 31
0.0
  0
LINE
  5
485
330
2
100
AcDbEntity
  8
GAIKEI
 48
0.000066
370
    13
100
AcDbLine
 10
15.24017677623777
 20
18.16033357413346
 30
0.0
 11
15.23964119253426
 21
18.16033962592678
 31
0.0
  0
LINE
  5
486
330
2
100
AcDbEntity
  8
GAIKEI
 48
0.080048
370
    40
100
AcDbLine
 10
16.04262862612484
 20
23.02070767259352
 30
0.0
 11
15.39676914583114
 21
23.02914488103022
 31
0.0
  0
LINE
  5
487
330
2
100
AcDbEntity
  8
GAIKEI
 48
0.110749
370
    13
100
AcDbLine
 10
15.91988010343229
 20
22.56577520922736
 30
0.0
 11
15.0262426568737
 21
22.56577520922736
 31
0.0
  0
ARC
  5
488
330
2
100
AcDbEntity
  8
GAIKEI
370
    40
100
AcDbCircle
 10
8.221825995425035
 20
120.5188806723397
 30
0.0
 40
98.62066727921577
100
AcDbArc
 50
274.1492080000004
 51
274.4180169999987
  0
LINE
  5
489
330
2
100
AcDbEntity
  8
GAIKEI
 48
0.115875
370
    13
100
AcDbLine
 10
15.91988010343229
 20
22.56577520922736
 30
0.0
 11
15.0171621428135
 21
22.80934677572361
 31
0.0
  0
ARC
  5
48A
330
2
100
AcDbEntity
  8
GAIKEI
370
    40
100
AcDbCircle
 10
8.380440470873026
 20
-10.93081656667277
 30
0.0
 40
34.50565931156197
100
AcDbArc
 50
77.30322699999904
 51
78.38990999999857
  0
LINE
  5
48B
330
2
100
AcDbEntity
  8
GAIKEI
 48
0.052956
370
    40
100
AcDbLine
 10
15.30173581900493
 20
20.79529747175627
 30
0.0
 11
15.32451678609999
 21
21.22199146086552
 31
0.0
  0
LINE
  5
48C
330
2
100
AcDbEntity
  8
GAIKEI
 48
0.052873
370
    40
100
AcDbLine
 10
14.99322689701734
 20
20.79564988785035
 30
0.0
 11
15.01614947607467
 21
21.22167152272846
 31
0.0
  0
LINE
  5
48D
330
2
100
AcDbEntity
  8
GAIKEI
 48
0.00004
370
    40
100
AcDbLine
 10
15.01615270369774
 20
21.22167152272846
 30
0.0
 11
15.01617106080397
 21
21.22199146086552
 31
0.0
  0
ARC
  5
48E
330
2
100
AcDbEntity
  8
GAIKEI
370
    40
100
AcDbCircle
 10
13.00017166732175
 20
13.63774092165966
 30
0.0
 40
4.828400860855938
100
AcDbArc
 50
63.0565110000009
 51
67.06932299999909
  0
LINE
  5
48F
330
2
100
AcDbEntity
  8
GAIKEI
 48
0.00004
370
    40
100
AcDbLine
 10
14.99320833818467
 20
20.7953283359019
 30
0.0
 11
14.99322689701734
 21
20.79564988785035
 31
0.0
  0
LINE
  5
490
330
2
100
AcDbEntity
  8
GAIKEI
 48
0.005115
370
    40
100
AcDbLine
 10
15.29959953598416
 20
20.7540801199475
 30
0.0
 11
15.30173581900493
 21
20.79529747175627
 31
0.0
  0
ARC
  5
491
330
2
100
AcDbEntity
  8
GAIKEI
370
    40
100
AcDbCircle
 10
15.273617371981
 20
18.17785109490387
 30
0.0
 40
0.079373101407298
100
AcDbArc
 50
178.5035240000005
 51
200.8970129999995
  0
ELLIPSE
  5
492
330
2
100
AcDbEntity
  8
GAIKEI
370
    13
100
AcDbEllipse
 10
15.28877993826748
 20
18.1984834736653
 30
0.0
 11
0.0943253339942627
 21
0.0357244428383179
 31
0.0
210
0.0
220
0.0
230
1.0
 40
0.8287459999999999
 41
3.22249132325944
 42
4.390449169269688
  0
LINE
  5
493
330
2
100
AcDbEntity
  8
GAIKEI
 48
0.003538
370
    13
100
AcDbLine
 10
15.2971310095134
 20
18.08632982543293
 30
0.0
 11
15.28701926988171
 21
18.11302630276725
 31
0.0
  0
ARC
  5
494
330
2
100
AcDbEntity
  8
GAIKEI
370
    40
100
AcDbCircle
 10
15.23510718902386
 20
17.00992398616711
 30
0.0
 40
0.064997066518168
100
AcDbArc
 50
142.0027340000009
 51
178.3160629999998
  0
LINE
  5
495
330
2
100
AcDbEntity
  8
GAIKEI
 48
0.001092
370
    40
100
AcDbLine
 10
14.86636920670119
 20
17.45663650047459
 30
0.0
 11
14.87516932100701
 21
17.45699194246538
 31
0.0
  0
ARC
  5
496
330
2
100
AcDbEntity
  8
GAIKEI
370
    40
100
AcDbCircle
 10
14.75419074611653
 20
20.97365188818606
 30
0.0
 40
3.518632426870548
100
AcDbArc
 50
271.9702609999995
 51
276.9126609999993
  0
LINE
  5
497
330
2
100
AcDbEntity
  8
GAIKEI
 48
0.03906
370
    40
100
AcDbLine
 10
15.18384749147947
 20
14.79969349836381
 30
0.0
 11
14.86871468004236
 21
14.80519397325781
 31
0.0
  0
LINE
  5
498
330
2
100
AcDbEntity
  8
GAIKEI
 48
0.034458
370
    40
100
AcDbLine
 10
15.45349845412394
 20
21.8616270752442
 30
0.0
 11
15.73148172745522
 21
21.86754794804335
 31
0.0
  0
LINE
  5
499
330
2
100
AcDbEntity
  8
GAIKEI
 48
0.001069
370
    13
100
AcDbLine
 10
15.44824105959253
 20
21.85478290052004
 30
0.0
 11
15.45349240233068
 21
21.8616270752442
 31
0.0
  0
LINE
  5
49A
330
2
100
AcDbEntity
  8
GAIKEI
 48
0.000923
370
    40
100
AcDbLine
 10
16.03395761674193
 20
21.86712311215649
 30
0.0
 11
16.03201842045499
 21
21.85993580075444
 31
0.0
  0
LINE
  5
49B
330
2
100
AcDbEntity
  8
GAIKEI
 48
0.072606
370
    13
100
AcDbLine
 10
15.44822250075987
 20
21.85475828989411
 30
0.0
 11
16.03395761674193
 21
21.86712311215649
 31
0.0
  0
LINE
  5
49C
330
2
100
AcDbEntity
  8
GAIKEI
 48
0.080048
370
    40
100
AcDbLine
 10
16.04262862612484
 20
23.02070767259352
 30
0.0
 11
15.39676914583114
 21
23.02914488103022
 31
0.0
  0
LINE
  5
49D
330
2
100
AcDbEntity
  8
GAIKEI
 48
0.001173
370
    13
100
AcDbLine
 10
14.87516932100701
 20
17.45699194246538
 30
0.0
 11
14.86602748210845
 21
17.45945905685107
 31
0.0
  0
LINE
  5
49E
330
2
100
AcDbEntity
  8
GAIKEI
 48
0.000352
370
    40
100
AcDbLine
 10
14.86602748210845
 20
17.45945905685107
 30
0.0
 11
14.86635367376519
 21
17.45663488666309
 31
0.0
  0
LINE
  5
49F
330
2
100
AcDbEntity
  8
GAIKEI
 48
0.087232
370
    40
100
AcDbLine
 10
15.80610417115341
 20
22.1441060240619
 30
0.0
 11
15.98946967412902
 21
22.82368307050365
 31
0.0
  0
LINE
  5
4A0
330
2
100
AcDbEntity
  8
GAIKEI
 48
0.041894
370
    40
100
AcDbLine
 10
16.07753113339325
 20
23.15005870173274
 30
0.0
 11
15.98946664823239
 21
22.82368307050365
 31
0.0
  0
LINE
  5
4A1
330
2
100
AcDbEntity
  8
GAIKEI
 48
0.016539
370
    40
100
AcDbLine
 10
15.73148172745522
 20
21.86754794804335
 30
0.0
 11
15.76624887628105
 21
21.99639566970973
 31
0.0
  0
LINE
  5
4A2
330
2
100
AcDbEntity
  8
GAIKEI
 48
0.01896
370
    40
100
AcDbLine
 10
15.80610417115341
 20
22.1441060240619
 30
0.0
 11
15.76624887628105
 21
21.99639566970973
 31
0.0
  0
LINE
  5
4A3
330
2
100
AcDbEntity
  8
GAIKEI
 48
0.084806
370
    40
100
AcDbLine
 10
15.98122652652958
 20
18.06949252622496
 30
0.0
 11
15.2971310095134
 21
18.08632982543293
 31
0.0
  0
LINE
  5
4A4
330
2
100
AcDbEntity
  8
GAIKEI
 48
0.054818
370
    40
100
AcDbLine
 10
15.27537804036677
 20
17.09092259924398
 30
0.0
 11
15.71770724081614
 21
17.09284807813287
 31
0.0
  0
LINE
  5
4A5
330
2
100
AcDbEntity
  8
GAIKEI
 48
0.124216
370
    13
100
AcDbLine
 10
16.28903061632883
 20
18.08881388483974
 30
0.0
 11
15.28701926988171
 21
18.11302630276725
 31
0.0
  0
LINE
  5
4A6
330
2
100
AcDbEntity
  8
GAIKEI
 48
0.049031
370
    40
100
AcDbLine
 10
16.18596333222354
 20
17.70683679785497
 30
0.0
 11
16.28903061632883
 21
18.08881388483974
 31
0.0
  0
LINE
  5
4A7
330
2
100
AcDbEntity
  8
GAIKEI
 48
0.037355
370
    13
100
AcDbLine
 10
16.18596333222354
 20
17.70683679785497
 30
0.0
 11
15.88457737090294
 21
17.71129394359104
 31
0.0
  0
LINE
  5
4A8
330
2
100
AcDbEntity
  8
GAIKEI
 48
0.045979
370
    40
100
AcDbLine
 10
15.98122652652958
 20
18.06949252622496
 30
0.0
 11
15.88457737090294
 21
17.71129394359104
 31
0.0
  0
LINE
  5
4A9
330
2
100
AcDbEntity
  8
GAIKEI
 48
0.005889
370
    40
100
AcDbLine
 10
16.30140754217774
 20
18.13468990709998
 30
0.0
 11
16.28903061632883
 21
18.08881388483974
 31
0.0
  0
LINE
  5
4AA
330
2
100
AcDbEntity
  8
GAIKEI
 48
0.037679
370
    13
100
AcDbLine
 10
16.07023610007121
 20
22.00157761855189
 30
0.0
 11
15.76624887628105
 21
21.99639566970973
 31
0.0
  0
LINE
  5
4AB
330
2
100
AcDbEntity
  8
GAIKEI
 48
0.017259
370
    40
100
AcDbLine
 10
16.07023610007121
 20
22.00157761855189
 30
0.0
 11
16.03395761674193
 21
21.86712311215649
 31
0.0
  0
LINE
  5
4AC
330
2
100
AcDbEntity
  8
GAIKEI
 48
0.086783
370
    40
100
AcDbLine
 10
16.10942327696767
 20
22.14681621881016
 30
0.0
 11
16.29184389328895
 21
22.8228965391063
 31
0.0
  0
LINE
  5
4AD
330
2
100
AcDbEntity
  8
GAIKEI
 48
0.04132
370
    40
100
AcDbLine
 10
16.37870185260021
 20
23.14480130720142
 30
0.0
 11
16.29184389328895
 21
22.8228965391063
 31
0.0
  0
LINE
  5
4AE
330
2
100
AcDbEntity
  8
GAIKEI
 48
0.018643
370
    40
100
AcDbLine
 10
16.10942327696767
 20
22.14681621881016
 30
0.0
 11
16.07023610007121
 21
22.00157761855189
 31
0.0
  0
LINE
  5
4AF
330
2
100
AcDbEntity
  8
GAIKEI
 48
0.037474
370
    40
100
AcDbLine
 10
15.98946664823239
 20
22.82368307050365
 30
0.0
 11
16.29184389328895
 21
22.8228965391063
 31
0.0
  0
LINE
  5
4B0
330
2
100
AcDbEntity
  8
GAIKEI
 48
0.037592
370
    40
100
AcDbLine
 10
16.10942327696767
 20
22.14681621881016
 30
0.0
 11
15.80610417115341
 21
22.1441060240619
 31
0.0
  0
LINE
  5
4B1
330
2
100
AcDbEntity
  8
GAIKEI
 48
0.138016
370
    40
100
AcDbLine
 10
15.88457737090294
 20
17.71129394359104
 30
0.0
 11
15.59446630387862
 21
16.63609019219302
 31
0.0
  0
LINE
  5
4B2
330
2
100
AcDbEntity
  8
GAIKEI
 48
0.136762
370
    40
100
AcDbLine
 10
16.18596333222354
 20
17.70683679785497
 30
0.0
 11
15.89848721598463
 21
16.64139680797632
 31
0.0
  0
LINE
  5
4B3
330
2
100
AcDbEntity
  8
GAIKEI
370
    13
100
AcDbLine
 10
14.12530089757675
 20
15.94597838577067
 30
0.0
 11
14.12530089757675
 21
25.06761740705702
 31
0.0
  0
LINE
  5
4B4
330
2
100
AcDbEntity
  8
GAIKEI
 48
0.138173
370
    40
100
AcDbLine
 10
14.57518697226987
 20
15.88079028431195
 30
0.0
 11
14.86869309531306
 21
14.80519397325781
 31
0.0
  0
ARC
  5
4B5
330
2
100
AcDbEntity
  8
GAIKEI
370
    40
100
AcDbCircle
 10
14.51680451578488
 20
15.86485954373427
 30
0.0
 40
0.0605179326
100
AcDbArc
 50
15.26314200000008
 51
86.99999900000017
  0
LINE
  5
4B6
330
2
100
AcDbEntity
  8
GAIKEI
 48
0.039387
370
    13
100
AcDbLine
 10
12.96906746722976
 20
28.16521225425197
 30
0.0
 11
13.28683220355566
 21
28.17071272914598
 31
0.0
  0
LINE
  5
4B7
330
2
100
AcDbEntity
  8
GAIKEI
 48
0.002251
370
    40
100
AcDbLine
 10
13.28683220355566
 20
28.15266587819179
 30
0.0
 11
13.28683220355566
 21
28.17082670458569
 31
0.0
  0
LINE
  5
4B8
330
2
100
AcDbEntity
  8
GAIKEI
 48
0.036899
370
    13
100
AcDbLine
 10
12.98913985338811
 20
28.22567834315634
 30
0.0
 11
13.28683220355566
 21
28.23083104166438
 31
0.0
  0
LINE
  5
4B9
330
2
100
AcDbEntity
  8
GAIKEI
 48
0.00745
370
    40
100
AcDbLine
 10
13.28683220355566
 20
28.23083104166438
 30
0.0
 11
13.28683220355566
 21
28.17071272914598
 31
0.0
  0
LINE
  5
4BA
330
2
100
AcDbEntity
  8
GAIKEI
 48
0.038529
370
    40
100
AcDbLine
 10
12.97598406174663
 20
28.22926746001247
 30
0.0
 11
13.28683220355566
 21
28.23469410302869
 31
0.0
  0
LINE
  5
4BB
330
2
100
AcDbEntity
  8
GAIKEI
 48
0.000479
370
    40
100
AcDbLine
 10
13.28683220355566
 20
28.23469410302869
 30
0.0
 11
13.28683220355566
 21
28.23083104166438
 31
0.0
  0
LINE
  5
4BC
330
2
100
AcDbEntity
  8
GAIKEI
 48
0.031805
370
    40
100
AcDbLine
 10
15.41118996399038
 20
16.26659028909887
 30
0.0
 11
15.16518194552765
 21
16.33967981356443
 31
0.0
  0
LINE
  5
4BD
330
2
100
AcDbEntity
  8
GAIKEI
 48
0.031805
370
    40
100
AcDbLine
 10
15.41118996399038
 20
16.26659028909887
 30
0.0
 11
15.16518194552765
 21
16.33967981356443
 31
0.0
  0
ARC
  5
4BE
330
2
100
AcDbEntity
  8
GAIKEI
370
    40
100
AcDbCircle
 10
14.41035448097369
 20
21.3851278362373
 30
0.0
 40
5.446613934
100
AcDbArc
 50
108.7862330000006
 51
180.0000050000005
  0
LINE
  5
4BF
330
2
100
AcDbEntity
  8
GAIKEI
 48
0.03733
370
    40
100
AcDbLine
 10
14.23346217779544
 20
28.04870292868395
 30
0.0
 11
13.93229166031489
 21
28.05396032321539
 31
0.0
  0
LINE
  5
4C0
330
2
100
AcDbEntity
  8
GAIKEI
 48
0.03733
370
    40
100
AcDbLine
 10
14.23346217779544
 20
28.04870292868395
 30
0.0
 11
13.93229166031489
 21
28.05396032321539
 31
0.0
  0
ARC
  5
4C1
330
2
100
AcDbEntity
  8
GAIKEI
370
    40
100
AcDbCircle
 10
15.43354932282167
 20
21.76354808259668
 30
0.0
 40
0.083657569308936
100
AcDbArc
 50
90.20152700000144
 51
139.5675659999996
  0
ARC
  5
4C2
330
2
100
AcDbEntity
  8
GAIKEI
370
    40
100
AcDbCircle
 10
15.24145108217189
 20
18.24109374655597
 30
0.0
 40
0.080746253297992
100
AcDbArc
 50
234.1272630000008
 51
269.0958030000008
  0
ARC
  5
4C3
330
2
100
AcDbEntity
  8
GAIKEI
370
    40
100
AcDbCircle
 10
15.24145108217189
 20
18.24109374655597
 30
0.0
 40
0.080746253297992
100
AcDbArc
 50
234.1266489999994
 51
269.0958309999993
  0
LINE
  5
4C4
330
2
100
AcDbEntity
  8
GAIKEI
 48
0.074221
370
    40
100
AcDbLine
 10
16.03201842045499
 20
21.85993418694295
 30
0.0
 11
15.43325681948076
 21
21.84729542017226
 31
0.0
  0
LINE
  5
4C5
330
2
100
AcDbEntity
  8
GAIKEI
 48
0.131542
370
    40
100
AcDbLine
 10
15.24017677623777
 20
18.16033357413346
 30
0.0
 11
16.30128751494476
 21
18.1346929329967
 31
0.0
  0
LINE
  5
4C6
330
2
100
AcDbEntity
  8
GAIKEI
 48
0.03733
370
    40
100
AcDbLine
 10
16.37870185260021
 20
23.14480130720142
 30
0.0
 11
16.07753113339325
 21
23.15005870173274
 31
0.0
  0
LINE
  5
4C7
330
2
100
AcDbEntity
  8
GAIKEI
 48
0.131542
370
    40
100
AcDbLine
 10
15.24017677623777
 20
18.16033357413346
 30
0.0
 11
16.30128751494476
 21
18.1346929329967
 31
0.0
  0
LINE
  5
4C8
330
2
100
AcDbEntity
  8
GAIKEI
 48
0.03733
370
    40
100
AcDbLine
 10
16.37870185260021
 20
23.14480130720142
 30
0.0
 11
16.07753113339325
 21
23.15005870173274
 31
0.0
  0
LINE
  5
4C9
330
2
100
AcDbEntity
  8
GAIKEI
 48
0.037683
370
    40
100
AcDbLine
 10
15.89848721598463
 20
16.64139680797632
 30
0.0
 11
15.59446630387862
 21
16.63609019219302
 31
0.0
  0
ARC
  5
4CA
330
2
100
AcDbEntity
  8
GAIKEI
370
    40
100
AcDbCircle
 10
14.41035448097369
 20
21.3851278362373
 30
0.0
 40
5.446613934
100
AcDbArc
 50
179.9999949999995
 51
267.0000009999984
  0
LINE
  5
4CB
330
2
100
AcDbEntity
  8
GAIKEI
 48
0.048979
370
    40
100
AcDbLine
 10
14.12530089757675
 20
15.94597838577067
 30
0.0
 11
14.51997182265072
 21
15.92529497021951
 31
0.0
  0
ENDSEC
  0
SECTION
  2
OBJECTS
  0
DICTIONARY
  5
9
330
0
100
AcDbDictionary
281
     1
  3
ACAD_COLOR
350
32
  3
ACAD_GROUP
350
2E
  3
ACAD_LAYOUT
350
D
  3
ACAD_MATERIAL
350
31
  3
ACAD_MLINESTYLE
350
2F
  3
ACAD_PLOTSETTINGS
350
30
  3
ACAD_PLOTSTYLENAME
350
8
  3
ACDBHEADERROUNDTRIPXREC
350
508
  3
AcDbVariableDictionary
350
503
  0
DICTIONARY
  5
15
330
14
100
AcDbDictionary
280
     1
281
     1
  3
ACAD_LAYERFILTERS
360
16
  3
ACAD_LAYERSTATES
360
18
  0
DICTIONARY
  5
3
330
2
100
AcDbDictionary
280
     1
281
     1
  3
ACAD_LAYOUTSELFREF
360
4
  0
DICTIONARY
  5
F
330
E
100
AcDbDictionary
280
     1
281
     1
  3
ACAD_LAYOUTSELFREF
360
10
  0
DICTIONARY
  5
32
102
{ACAD_REACTORS
330
9
102
}
330
9
100
AcDbDictionary
281
     1
  0
DICTIONARY
  5
2E
102
{ACAD_REACTORS
330
9
102
}
330
9
100
AcDbDictionary
281
     1
  0
DICTIONARY
  5
D
102
{ACAD_REACTORS
330
9
102
}
330
9
100
AcDbDictionary
281
     1
  3
Model
350
C
  3
ﾚｲｱｳﾄ1
350
13
  0
DICTIONARY
  5
31
102
{ACAD_REACTORS
330
9
102
}
330
9
100
AcDbDictionary
281
     1
  0
DICTIONARY
  5
2F
102
{ACAD_REACTORS
330
9
102
}
330
9
100
AcDbDictionary
281
     1
  3
STANDARD
350
34
  0
DICTIONARY
  5
30
102
{ACAD_REACTORS
330
9
102
}
330
9
100
AcDbDictionary
281
     1
  0
ACDBDICTIONARYWDFLT
  5
8
102
{ACAD_REACTORS
330
9
102
}
330
9
100
AcDbDictionary
281
     1
  3
Normal
350
7
100
AcDbDictionaryWithDefault
340
7
  0
DICTIONARY
  5
508
102
{ACAD_REACTORS
330
9
102
}
330
9
100
AcDbDictionary
281
     1
  3
COLORDICT
350
50A
  3
MATERIALDICT
350
509
  0
DICTIONARY
  5
503
102
{ACAD_REACTORS
330
9
102
}
330
9
100
AcDbDictionary
281
     1
  3
DIMASSOC
350
505
  3
HIDETEXT
350
504
  3
PROJECTNAME
350
506
  0
DICTIONARY
  5
16
102
{ACAD_REACTORS
330
15
102
}
330
15
100
AcDbDictionary
280
     1
281
     1
  3
ロック画層
360
17
  0
DICTIONARY
  5
18
102
{ACAD_REACTORS
330
15
102
}
330
15
100
AcDbDictionary
281
     1
  0
XRECORD
  5
4
102
{ACAD_REACTORS
330
3
102
}
330
3
100
AcDbXrecord
280
     1
340
2
  0
XRECORD
  5
10
102
{ACAD_REACTORS
330
F
102
}
330
F
100
AcDbXrecord
280
     1
340
E
  0
LAYOUT
  5
C
102
{ACAD_XDICTIONARY
360
50B
102
}
102
{ACAD_REACTORS
330
D
102
}
330
D
100
AcDbPlotSettings
  1

  2
\\MARS\NX800A(RPDL)
  4
A4
  6

 40
5.831416606903076
 41
4.942422866821289
 42
7.609405517578125
 43
5.789093017578125
 44
209.9733276367187
 45
296.9683227539062
 46
4.23
 47
0.0
 48
0.0
 49
0.0
140
0.0
141
0.0
142
1.0
143
1.377557041813
 70
 11956
 72
     1
 73
     0
 74
     1
  7
tmsacad.ctb
 75
     0
147
0.7259227528494222
148
0.5228791232484547
149
0.0333900090324306
100
AcDbLayout
  1
Model
 70
     1
 71
     0
 10
0.0
 20
0.0
 11
12.0
 21
9.0
 12
0.0
 22
0.0
 32
0.0
 14
0.0
 24
0.0
 34
0.0
 15
0.0
 25
0.0
 35
0.0
146
0.0
 13
0.0
 23
0.0
 33
0.0
 16
1.0
 26
0.0
 36
0.0
 17
0.0
 27
1.0
 37
0.0
 76
     0
330
2
  0
LAYOUT
  5
13
102
{ACAD_XDICTIONARY
360
50D
102
}
102
{ACAD_REACTORS
330
D
102
}
330
D
100
AcDbPlotSettings
  1

  2
C:\Program Files\ACAD2000\plotters\DWF ePlot.pc3
  4

  6

 40
0.0
 41
0.0
 42
0.0
 43
0.0
 44
0.0
 45
0.0
 46
0.0
 47
0.0
 48
0.0
 49
0.0
140
0.0
141
0.0
142
1.0
143
1.0
 70
   688
 72
     0
 73
     0
 74
     5
  7
tmsacad.ctb
 75
    16
147
1.0
148
0.0
149
0.0
100
AcDbLayout
  1
ﾚｲｱｳﾄ1
 70
     1
 71
     1
 10
0.0
 20
0.0
 11
12.0
 21
9.0
 12
0.0
 22
0.0
 32
0.0
 14
1.000000000000000E+20
 24
1.000000000000000E+20
 34
1.000000000000000E+20
 15
-1.000000000000000E+20
 25
-1.000000000000000E+20
 35
-1.000000000000000E+20
146
0.0
 13
0.0
 23
0.0
 33
0.0
 16
1.0
 26
0.0
 36
0.0
 17
0.0
 27
1.0
 37
0.0
 76
     0
330
E
  0
MLINESTYLE
  5
34
102
{ACAD_REACTORS
330
2F
102
}
330
2F
100
AcDbMlineStyle
  2
STANDARD
 70
     0
  3

 62
   256
 51
90.0
 52
90.0
 71
     2
 49
0.5
 62
   256
  6
BYLAYER
 49
-0.5
 62
   256
  6
BYLAYER
  0
ACDBPLACEHOLDER
  5
7
102
{ACAD_REACTORS
330
8
102
}
330
8
  0
XRECORD
  5
50A
102
{ACAD_REACTORS
330
508
102
}
330
508
100
AcDbXrecord
280
     1
340
32
  0
XRECORD
  5
509
102
{ACAD_REACTORS
330
508
102
}
330
508
100
AcDbXrecord
280
     1
340
31
  0
DICTIONARYVAR
  5
505
102
{ACAD_REACTORS
330
503
102
}
330
503
100
DictionaryVariables
280
     0
  1
1
  0
DICTIONARYVAR
  5
504
102
{ACAD_REACTORS
330
503
102
}
330
503
100
DictionaryVariables
280
     0
  1
1
  0
DICTIONARYVAR
  5
506
102
{ACAD_REACTORS
330
503
102
}
330
503
100
DictionaryVariables
280
     0
  1

  0
XRECORD
  5
17
102
{ACAD_REACTORS
330
16
102
}
330
16
100
AcDbXrecord
280
     1
  1
ロック画層
  1
*
  1
*
  1
*
 70
   256
  1
*
  1
*
  0
DICTIONARY
  5
50B
330
C
100
AcDbDictionary
280
     1
281
     1
  3
ACAD_XREC_ROUNDTRIP
360
50C
  0
DICTIONARY
  5
50D
330
13
100
AcDbDictionary
280
     1
281
     1
  3
ACAD_XREC_ROUNDTRIP
360
50E
  0
XRECORD
  5
50C
102
{ACAD_REACTORS
330
50B
102
}
330
50B
100
AcDbXrecord
280
     1
102
SHADEPLOT
 70
     0
102
SHADEPLOTRESLEVEL
 70
     2
102
SHADEPLOTCUSTOMDPI
 70
   300
  0
XRECORD
  5
50E
102
{ACAD_REACTORS
330
50D
102
}
330
50D
100
AcDbXrecord
280
     1
102
SHADEPLOT
 70
     0
102
SHADEPLOTRESLEVEL
 70
     2
102
SHADEPLOTCUSTOMDPI
 70
   300
  0
ENDSEC
  0
EOF
