  0
SECTION
  2
HEADER
  9
$ACADVER
  1
AC1015
  9
$ACADMAINTVER
 70
    20
  9
$DWGCODEPAGE
  3
ANSI_932
  9
$INSBASE
 10
0.0
 20
246.4992141396417
 30
0.0
  9
$EXTMIN
 10
-62.84286541607525
 20
-60.43295679689254
 30
-0.0015258207003583
  9
$EXTMAX
 10
62.23764355388948
 20
52.69812511873351
 30
0.0000000349246037
  9
$LIMMIN
 10
-1101.784450318844
 20
-1579.160531687244
  9
$LIMMAX
 10
-508.2420711400536
 20
-1161.440814074914
  9
$ORTHOMODE
 70
     1
  9
$REGENMODE
 70
     1
  9
$FILLMODE
 70
     1
  9
$QTEXTMODE
 70
     0
  9
$MIRRTEXT
 70
     1
  9
$LTSCALE
 40
1.0
  9
$ATTMODE
 70
     1
  9
$TEXTSIZE
 40
3.0
  9
$TRACEWID
 40
0.5
  9
$TEXTSTYLE
  7
STANDARD
  9
$CLAYER
  8
MOJI1
  9
$CELTYPE
  6
BYLAYER
  9
$CECOLOR
 62
   256
  9
$CELTSCALE
 40
1.0
  9
$DISPSILH
 70
     0
  9
$DIMSCALE
 40
1.0
  9
$DIMASZ
 40
2.0
  9
$DIMEXO
 40
2.0
  9
$DIMDLI
 40
8.0
  9
$DIMRND
 40
0.0
  9
$DIMDLE
 40
0.0
  9
$DIMEXE
 40
2.0
  9
$DIMTP
 40
0.0
  9
$DIMTM
 40
0.0
  9
$DIMTXT
 40
2.5
  9
$DIMCEN
 40
0.0
  9
$DIMTSZ
 40
0.0
  9
$DIMTOL
 70
     0
  9
$DIMLIM
 70
     0
  9
$DIMTIH
 70
     0
  9
$DIMTOH
 70
     0
  9
$DIMSE1
 70
     0
  9
$DIMSE2
 70
     0
  9
$DIMTAD
 70
     3
  9
$DIMZIN
 70
     0
  9
$DIMBLK
  1

  9
$DIMASO
 70
     1
  9
$DIMSHO
 70
     1
  9
$DIMPOST
  1

  9
$DIMAPOST
  1

  9
$DIMALT
 70
     0
  9
$DIMALTD
 70
     2
  9
$DIMALTF
 40
25.4
  9
$DIMLFAC
 40
1.0
  9
$DIMTOFL
 70
     1
  9
$DIMTVP
 40
0.0
  9
$DIMTIX
 70
     0
  9
$DIMSOXD
 70
     0
  9
$DIMSAH
 70
     1
  9
$DIMBLK1
  1
OPEN30
  9
$DIMBLK2
  1
OPEN30
  9
$DIMSTYLE
  2
STANDARD
  9
$DIMCLRD
 70
     0
  9
$DIMCLRE
 70
     0
  9
$DIMCLRT
 70
     0
  9
$DIMTFAC
 40
1.0
  9
$DIMGAP
 40
0.5
  9
$DIMJUST
 70
     0
  9
$DIMSD1
 70
     0
  9
$DIMSD2
 70
     0
  9
$DIMTOLJ
 70
     1
  9
$DIMTZIN
 70
     0
  9
$DIMALTZ
 70
     0
  9
$DIMALTTZ
 70
     0
  9
$DIMUPT
 70
     0
  9
$DIMDEC
 70
     4
  9
$DIMTDEC
 70
     4
  9
$DIMALTU
 70
     2
  9
$DIMALTTD
 70
     2
  9
$DIMTXSTY
  7
STANDARD
  9
$DIMAUNIT
 70
     0
  9
$DIMADEC
 70
     0
  9
$DIMALTRND
 40
0.0
  9
$DIMAZIN
 70
     0
  9
$DIMDSEP
 70
    46
  9
$DIMATFIT
 70
     3
  9
$DIMFRAC
 70
     0
  9
$DIMLDRBLK
  1
OPEN30
  9
$DIMLUNIT
 70
     2
  9
$DIMLWD
 70
    -2
  9
$DIMLWE
 70
    -2
  9
$DIMTMOVE
 70
     0
  9
$LUNITS
 70
     2
  9
$LUPREC
 70
     4
  9
$SKETCHINC
 40
0.1
  9
$FILLETRAD
 40
0.0
  9
$AUNITS
 70
     0
  9
$AUPREC
 70
     0
  9
$MENU
  1
ACAD
  9
$ELEVATION
 40
0.0
  9
$PELEVATION
 40
0.0
  9
$THICKNESS
 40
0.0
  9
$LIMCHECK
 70
     0
  9
$CHAMFERA
 40
0.0
  9
$CHAMFERB
 40
0.0
  9
$CHAMFERC
 40
0.0
  9
$CHAMFERD
 40
0.0
  9
$SKPOLY
 70
     0
  9
$TDCREATE
 40
2451815.565532581
  9
$TDUCREATE
 40
2451815.190532581
  9
$TDUPDATE
 40
2454047.596623981
  9
$TDUUPDATE
 40
2454047.221623981
  9
$TDINDWG
 40
0.7673460301
  9
$TDUSRTIMER
 40
0.7673460301
  9
$USRTIMER
 70
     1
  9
$ANGBASE
 50
0.0
  9
$ANGDIR
 70
     0
  9
$PDMODE
 70
     0
  9
$PDSIZE
 40
0.0
  9
$PLINEWID
 40
0.0
  9
$SPLFRAME
 70
     0
  9
$SPLINETYPE
 70
     6
  9
$SPLINESEGS
 70
     8
  9
$HANDSEED
  5
1D9
  9
$SURFTAB1
 70
     6
  9
$SURFTAB2
 70
     6
  9
$SURFTYPE
 70
     6
  9
$SURFU
 70
     6
  9
$SURFV
 70
     6
  9
$UCSBASE
  2

  9
$UCSNAME
  2

  9
$UCSORG
 10
0.0
 20
0.0
 30
0.0
  9
$UCSXDIR
 10
1.0
 20
0.0
 30
0.0
  9
$UCSYDIR
 10
0.0
 20
1.0
 30
0.0
  9
$UCSORTHOREF
  2

  9
$UCSORTHOVIEW
 70
     0
  9
$UCSORGTOP
 10
0.0
 20
0.0
 30
0.0
  9
$UCSORGBOTTOM
 10
0.0
 20
0.0
 30
0.0
  9
$UCSORGLEFT
 10
0.0
 20
0.0
 30
0.0
  9
$UCSORGRIGHT
 10
0.0
 20
0.0
 30
0.0
  9
$UCSORGFRONT
 10
0.0
 20
0.0
 30
0.0
  9
$UCSORGBACK
 10
0.0
 20
0.0
 30
0.0
  9
$PUCSBASE
  2

  9
$PUCSNAME
  2

  9
$PUCSORG
 10
0.0
 20
0.0
 30
0.0
  9
$PUCSXDIR
 10
1.0
 20
0.0
 30
0.0
  9
$PUCSYDIR
 10
0.0
 20
1.0
 30
0.0
  9
$PUCSORTHOREF
  2

  9
$PUCSORTHOVIEW
 70
     0
  9
$PUCSORGTOP
 10
0.0
 20
0.0
 30
0.0
  9
$PUCSORGBOTTOM
 10
0.0
 20
0.0
 30
0.0
  9
$PUCSORGLEFT
 10
0.0
 20
0.0
 30
0.0
  9
$PUCSORGRIGHT
 10
0.0
 20
0.0
 30
0.0
  9
$PUCSORGFRONT
 10
0.0
 20
0.0
 30
0.0
  9
$PUCSORGBACK
 10
0.0
 20
0.0
 30
0.0
  9
$USERI1
 70
     0
  9
$USERI2
 70
     0
  9
$USERI3
 70
     0
  9
$USERI4
 70
     0
  9
$USERI5
 70
     0
  9
$USERR1
 40
0.0
  9
$USERR2
 40
0.0
  9
$USERR3
 40
0.0
  9
$USERR4
 40
0.0
  9
$USERR5
 40
0.0
  9
$WORLDVIEW
 70
     1
  9
$SHADEDGE
 70
     3
  9
$SHADEDIF
 70
    70
  9
$TILEMODE
 70
     1
  9
$MAXACTVP
 70
    48
  9
$PINSBASE
 10
0.0
 20
0.0
 30
0.0
  9
$PLIMCHECK
 70
     0
  9
$PEXTMIN
 10
1.000000000000000E+20
 20
1.000000000000000E+20
 30
1.000000000000000E+20
  9
$PEXTMAX
 10
-1.000000000000000E+20
 20
-1.000000000000000E+20
 30
-1.000000000000000E+20
  9
$PLIMMIN
 10
0.0
 20
0.0
  9
$PLIMMAX
 10
12.0
 20
9.0
  9
$UNITMODE
 70
     0
  9
$VISRETAIN
 70
     1
  9
$PLINEGEN
 70
     0
  9
$PSLTSCALE
 70
     1
  9
$TREEDEPTH
 70
  3020
  9
$CMLSTYLE
  2
STANDARD
  9
$CMLJUST
 70
     0
  9
$CMLSCALE
 40
1.0
  9
$PROXYGRAPHICS
 70
     1
  9
$MEASUREMENT
 70
     0
  9
$CELWEIGHT
370
    -1
  9
$ENDCAPS
280
     0
  9
$JOINSTYLE
280
     0
  9
$LWDISPLAY
290
     0
  9
$INSUNITS
 70
     0
  9
$HYPERLINKBASE
  1

  9
$STYLESHEET
  1

  9
$XEDIT
290
     1
  9
$CEPSNTYPE
380
     0
  9
$PSTYLEMODE
290
     1
  9
$FINGERPRINTGUID
  2
{1754B7AB-9B3C-11D4-AD9E-00104B1004F2}
  9
$VERSIONGUID
  2
{FBADAF86-C339-4995-A020-75017D0AC645}
  9
$EXTNAMES
290
     1
  9
$PSVPSCALE
 40
0.0
  9
$OLESTARTUP
290
     0
  0
ENDSEC
  0
SECTION
  2
CLASSES
  0
CLASS
  1
ACDBDICTIONARYWDFLT
  2
AcDbDictionaryWithDefault
  3
ObjectDBX Classes
 90
        0
280
     0
281
     0
  0
CLASS
  1
ACDBPLACEHOLDER
  2
AcDbPlaceHolder
  3
ObjectDBX Classes
 90
        0
280
     0
281
     0
  0
CLASS
  1
LAYOUT
  2
AcDbLayout
  3
ObjectDBX Classes
 90
        0
280
     0
281
     0
  0
CLASS
  1
DICTIONARYVAR
  2
AcDbDictionaryVar
  3
ObjectDBX Classes
 90
        0
280
     0
281
     0
  0
ENDSEC
  0
SECTION
  2
TABLES
  0
TABLE
  2
VPORT
  5
20
330
0
100
AcDbSymbolTable
 70
     3
  0
VPORT
  5
1D1
330
20
100
AcDbSymbolTableRecord
100
AcDbViewportTableRecord
  2
*Active
 70
     0
 10
0.0
 20
0.0
 11
1.0
 21
1.0
 12
-0.3026109310928753
 22
-3.867415839079512
 13
0.0
 23
0.0
 14
1.0
 24
1.0
 15
0.0
 25
0.0
 16
0.0
 26
0.0
 36
1.0
 17
0.0
 27
0.0
 37
0.0
 40
114.0137691607415
 41
1.421875
 42
50.0
 43
0.0
 44
0.0
 50
0.0
 51
0.0
 71
     0
 72
 10000
 73
     1
 74
     0
 75
     0
 76
     1
 77
     0
 78
     0
281
     0
 65
     1
110
0.0
120
0.0
130
0.0
111
1.0
121
0.0
131
0.0
112
0.0
122
1.0
132
0.0
 79
     0
146
0.0
  0
ENDTAB
  0
TABLE
  2
LTYPE
  5
1B
330
0
100
AcDbSymbolTable
 70
     1
  0
LTYPE
  5
1C
330
1B
100
AcDbSymbolTableRecord
100
AcDbLinetypeTableRecord
  2
BYBLOCK
 70
     0
  3

 72
    65
 73
     0
 40
0.0
  0
LTYPE
  5
1D
330
1B
100
AcDbSymbolTableRecord
100
AcDbLinetypeTableRecord
  2
BYLAYER
 70
     0
  3

 72
    65
 73
     0
 40
0.0
  0
LTYPE
  5
A
330
1B
100
AcDbSymbolTableRecord
100
AcDbLinetypeTableRecord
  2
CONTINUOUS
 70
     0
  3
Solid line
 72
    65
 73
     0
 40
0.0
  0
ENDTAB
  0
TABLE
  2
LAYER
  5
14
102
{ACAD_XDICTIONARY
360
15
102
}
330
0
100
AcDbSymbolTable
 70
     7
  0
LAYER
  5
6
330
14
100
AcDbSymbolTableRecord
100
AcDbLayerTableRecord
  2
0
 70
     0
 62
     7
  6
CONTINUOUS
370
    -3
390
7
  0
LAYER
  5
161
330
14
100
AcDbSymbolTableRecord
100
AcDbLayerTableRecord
  2
DEFPOINTS
 70
     0
 62
     7
  6
CONTINUOUS
290
     0
370
    -3
390
7
  0
LAYER
  5
183
330
14
100
AcDbSymbolTableRecord
100
AcDbLayerTableRecord
  2
WAKU
 70
     0
 62
     4
  6
CONTINUOUS
370
    -3
390
7
  0
LAYER
  5
32
330
14
100
AcDbSymbolTableRecord
100
AcDbLayerTableRecord
  2
MOJI1
 70
     0
 62
     2
  6
CONTINUOUS
370
    -3
390
7
  0
LAYER
  5
39
330
14
100
AcDbSymbolTableRecord
100
AcDbLayerTableRecord
  2
GAIKEI
 70
     0
 62
     7
  6
CONTINUOUS
370
    -3
390
7
  0
LAYER
  5
37
330
14
100
AcDbSymbolTableRecord
100
AcDbLayerTableRecord
  2
TOUROKU
 70
     0
 62
     1
  6
CONTINUOUS
370
    -3
390
7
  0
LAYER
  5
157
330
14
100
AcDbSymbolTableRecord
100
AcDbLayerTableRecord
  2
SUNPO
 70
     0
 62
     3
  6
CONTINUOUS
370
    -3
390
7
  0
ENDTAB
  0
TABLE
  2
STYLE
  5
18
330
0
100
AcDbSymbolTable
 70
     2
  0
STYLE
  5
19
330
18
100
AcDbSymbolTableRecord
100
AcDbTextStyleTableRecord
  2
STANDARD
 70
     0
 40
0.0
 41
1.0
 50
0.0
 71
     0
 42
3.0
  3
MONOTXT.shx
  4
BIGFONT.shx
  0
STYLE
  5
35
330
18
100
AcDbSymbolTableRecord
100
AcDbTextStyleTableRecord
  2
KANJI
 70
     0
 40
0.0
 41
1.0
 50
0.0
 71
     0
 42
3.5
  3
MONOTXT
  4
BIGFONT
  0
ENDTAB
  0
TABLE
  2
VIEW
  5
1E
330
0
100
AcDbSymbolTable
 70
     0
  0
ENDTAB
  0
TABLE
  2
UCS
  5
1F
330
0
100
AcDbSymbolTable
 70
     0
  0
ENDTAB
  0
TABLE
  2
APPID
  5
22
330
0
100
AcDbSymbolTable
 70
     1
  0
APPID
  5
23
330
22
100
AcDbSymbolTableRecord
100
AcDbRegAppTableRecord
  2
ACAD
 70
     0
  0
ENDTAB
  0
TABLE
  2
DIMSTYLE
  5
24
330
0
100
AcDbSymbolTable
 70
     1
100
AcDbDimStyleTable
 71
     1
340
25
  0
DIMSTYLE
105
25
102
{ACAD_REACTORS
330
172
330
165
330
156
102
}
330
24
100
AcDbSymbolTableRecord
100
AcDbDimStyleTableRecord
  2
STANDARD
 70
     0
 40
0.0
 41
2.0
 42
2.0
 43
8.0
 44
2.0
 73
     0
 74
     0
 77
     3
140
3.0
141
0.0
173
     1
279
     2
288
     1
340
19
341
26
343
26
344
26
  0
ENDTAB
  0
TABLE
  2
BLOCK_RECORD
  5
1
330
0
100
AcDbSymbolTable
 70
     7
  0
BLOCK_RECORD
  5
2
102
{ACAD_XDICTIONARY
360
3
102
}
330
1
100
AcDbSymbolTableRecord
100
AcDbBlockTableRecord
  2
*MODEL_SPACE
340
C
  0
BLOCK_RECORD
  5
E
102
{ACAD_XDICTIONARY
360
F
102
}
330
1
100
AcDbSymbolTableRecord
100
AcDbBlockTableRecord
  2
*PAPER_SPACE
340
13
  0
BLOCK_RECORD
  5
26
330
1
100
AcDbSymbolTableRecord
100
AcDbBlockTableRecord
  2
_OPEN30
340
0
102
{BLKREFS
331
178
331
179
331
16B
331
16C
331
15D
331
15E
331
1AD
331
1AE
331
1B9
331
1BA
331
1C5
331
1C6
102
}
  0
BLOCK_RECORD
  5
173
330
1
100
AcDbSymbolTableRecord
100
AcDbBlockTableRecord
  2
*D1
340
0
  0
BLOCK_RECORD
  5
166
330
1
100
AcDbSymbolTableRecord
100
AcDbBlockTableRecord
  2
*D2
340
0
  0
BLOCK_RECORD
  5
158
330
1
100
AcDbSymbolTableRecord
100
AcDbBlockTableRecord
  2
*D3
340
0
  0
BLOCK_RECORD
  5
1A9
330
1
100
AcDbSymbolTableRecord
100
AcDbBlockTableRecord
  2
*D4
340
0
  0
BLOCK_RECORD
  5
1B5
330
1
100
AcDbSymbolTableRecord
100
AcDbBlockTableRecord
  2
*D5
340
0
  0
BLOCK_RECORD
  5
1C1
330
1
100
AcDbSymbolTableRecord
100
AcDbBlockTableRecord
  2
*D6
340
0
  0
ENDTAB
  0
ENDSEC
  0
SECTION
  2
BLOCKS
  0
BLOCK
  5
5
330
2
100
AcDbEntity
  8
0
100
AcDbBlockBegin
  2
*MODEL_SPACE
 70
     0
 10
0.0
 20
0.0
 30
0.0
  3
*MODEL_SPACE
  1

  0
ENDBLK
  5
B
330
2
100
AcDbEntity
  8
0
100
AcDbBlockEnd
  0
BLOCK
  5
11
330
E
100
AcDbEntity
 67
     1
  8
0
100
AcDbBlockBegin
  2
*PAPER_SPACE
 70
     0
 10
0.0
 20
0.0
 30
0.0
  3
*PAPER_SPACE
  1

  0
ENDBLK
  5
12
330
E
100
AcDbEntity
 67
     1
  8
0
100
AcDbBlockEnd
  0
BLOCK
  5
27
330
26
100
AcDbEntity
  8
0
100
AcDbBlockBegin
  2
_OPEN30
 70
     0
 10
0.0
 20
0.0
 30
0.0
  3
_OPEN30
  1

  0
LINE
  5
28
330
26
100
AcDbEntity
  8
0
  6
ByBlock
 62
     0
100
AcDbLine
 10
-1.0
 20
0.26794919
 30
0.0
 11
0.0
 21
0.0
 31
0.0
  0
LINE
  5
29
330
26
100
AcDbEntity
  8
0
  6
ByBlock
 62
     0
100
AcDbLine
 10
0.0
 20
0.0
 30
0.0
 11
-1.0
 21
-0.26794919
 31
0.0
  0
LINE
  5
2A
330
26
100
AcDbEntity
  8
0
  6
ByBlock
 62
     0
100
AcDbLine
 10
0.0
 20
0.0
 30
0.0
 11
-1.0
 21
0.0
 31
0.0
  0
ENDBLK
  5
2B
330
26
100
AcDbEntity
  8
0
100
AcDbBlockEnd
  0
BLOCK
  5
174
330
173
100
AcDbEntity
  8
0
100
AcDbBlockBegin
  2
*D1
 70
     1
 10
0.0
 20
0.0
 30
0.0
  3
*D1
  1

  0
LINE
  5
175
330
173
100
AcDbEntity
  8
SUNPO
 62
     0
370
    -2
100
AcDbLine
 10
73.24703664293008
 20
205.6788201471913
 30
0.0
 11
73.24703664293008
 21
213.6788201471913
 31
0.0
  0
LINE
  5
176
330
173
100
AcDbEntity
  8
SUNPO
 62
     0
370
    -2
100
AcDbLine
 10
109.2470082297648
 20
205.6788201471913
 30
0.0
 11
109.2470082297648
 21
213.6788201471913
 31
0.0
  0
LINE
  5
177
330
173
100
AcDbEntity
  8
SUNPO
 62
     0
370
    -2
100
AcDbLine
 10
75.24703664293008
 20
211.6788201471913
 30
0.0
 11
107.2470082297648
 21
211.6788201471913
 31
0.0
  0
INSERT
  5
178
330
173
100
AcDbEntity
  8
SUNPO
 62
     0
370
    -2
100
AcDbBlockReference
  2
_OPEN30
 10
73.24703664293008
 20
211.6788201471913
 30
0.0
 41
2.0
 42
2.0
 43
2.0
 50
180.0
  0
INSERT
  5
179
330
173
100
AcDbEntity
  8
SUNPO
 62
     0
370
    -2
100
AcDbBlockReference
  2
_OPEN30
 10
109.2470082297648
 20
211.6788201471913
 30
0.0
 41
2.0
 42
2.0
 43
2.0
  0
MTEXT
  5
17A
330
173
100
AcDbEntity
  8
SUNPO
 62
     0
100
AcDbMText
 10
91.24702243634748
 20
213.4288201471913
 30
0.0
 40
2.5
 41
0.0
 71
     5
 72
     1
  1
\A1;360
 73
     1
 44
1.0
1001
ACAD
1000
MTEXTBEGIN
1070
    73
1070
     1
1070
    44
1040
1.0
1070
    74
1070
     0
1000
MTEXTEND
  0
POINT
  5
17B
330
173
100
AcDbEntity
  8
DEFPOINTS
 62
     0
100
AcDbPoint
 10
73.24703664293008
 20
203.6788201471913
 30
0.0
  0
POINT
  5
17C
330
173
100
AcDbEntity
  8
DEFPOINTS
 62
     0
100
AcDbPoint
 10
109.2470082297648
 20
203.6788201471913
 30
0.0
  0
POINT
  5
17D
330
173
100
AcDbEntity
  8
DEFPOINTS
 62
     0
100
AcDbPoint
 10
109.2470082297648
 20
211.6788201471913
 30
0.0
  0
ENDBLK
  5
17E
330
173
100
AcDbEntity
  8
0
100
AcDbBlockEnd
  0
BLOCK
  5
167
330
166
100
AcDbEntity
  8
0
100
AcDbBlockBegin
  2
*D2
 70
     1
 10
0.0
 20
0.0
 30
0.0
  3
*D2
  1

  0
LINE
  5
168
330
166
100
AcDbEntity
  8
SUNPO
 62
     0
370
    -2
100
AcDbLine
 10
52.45389679366194
 20
203.6636262201496
 30
0.0
 11
60.45389679366194
 21
203.6636262201496
 31
0.0
  0
LINE
  5
169
330
166
100
AcDbEntity
  8
SUNPO
 62
     0
370
    -2
100
AcDbLine
 10
52.45389679366194
 20
194.8636262201495
 30
0.0
 11
60.45389679366194
 21
194.8636262201495
 31
0.0
  0
LINE
  5
16A
330
166
100
AcDbEntity
  8
SUNPO
 62
     0
370
    -2
100
AcDbLine
 10
58.45389679366194
 20
201.6636262201496
 30
0.0
 11
58.45389679366194
 21
196.8636262201495
 31
0.0
  0
INSERT
  5
16B
330
166
100
AcDbEntity
  8
SUNPO
 62
     0
370
    -2
100
AcDbBlockReference
  2
_OPEN30
 10
58.45389679366194
 20
203.6636262201496
 30
0.0
 41
2.0
 42
2.0
 43
2.0
 50
90.0
  0
INSERT
  5
16C
330
166
100
AcDbEntity
  8
SUNPO
 62
     0
370
    -2
100
AcDbBlockReference
  2
_OPEN30
 10
58.45389679366194
 20
194.8636262201495
 30
0.0
 41
2.0
 42
2.0
 43
2.0
 50
270.0
  0
MTEXT
  5
16D
330
166
100
AcDbEntity
  8
SUNPO
 62
     0
100
AcDbMText
 10
56.70389679366191
 20
199.2636262201495
 30
0.0
 40
2.5
 41
0.0
 71
     5
 72
     1
  1
\A1;88
 11
0.0000000000000001
 21
1.0
 31
0.0
 73
     1
 44
1.0
1001
ACAD
1000
MTEXTBEGIN
1070
    73
1070
     1
1070
    44
1040
1.0
1070
    74
1070
     0
1000
MTEXTEND
  0
POINT
  5
16E
330
166
100
AcDbEntity
  8
DEFPOINTS
 62
     0
100
AcDbPoint
 10
50.45389679366194
 20
203.6636262201496
 30
0.0
  0
POINT
  5
16F
330
166
100
AcDbEntity
  8
DEFPOINTS
 62
     0
100
AcDbPoint
 10
50.45389679366194
 20
194.8636262201495
 30
0.0
  0
POINT
  5
170
330
166
100
AcDbEntity
  8
DEFPOINTS
 62
     0
100
AcDbPoint
 10
58.45389679366194
 20
194.8636262201495
 30
0.0
  0
ENDBLK
  5
171
330
166
100
AcDbEntity
  8
0
100
AcDbBlockEnd
  0
BLOCK
  5
159
330
158
100
AcDbEntity
  8
0
100
AcDbBlockBegin
  2
*D3
 70
     1
 10
0.0
 20
0.0
 30
0.0
  3
*D3
  1

  0
LINE
  5
15A
330
158
100
AcDbEntity
  8
SUNPO
 62
     0
370
    -2
100
AcDbLine
 10
23.45768972515731
 20
205.6502492376685
 30
0.0
 11
23.45768972515731
 21
213.6502492376685
 31
0.0
  0
LINE
  5
15B
330
158
100
AcDbEntity
  8
SUNPO
 62
     0
370
    -2
100
AcDbLine
 10
50.4576897251573
 20
205.6502492376685
 30
0.0
 11
50.4576897251573
 21
213.6502492376685
 31
0.0
  0
LINE
  5
15C
330
158
100
AcDbEntity
  8
SUNPO
 62
     0
370
    -2
100
AcDbLine
 10
25.45768972515731
 20
211.6502492376685
 30
0.0
 11
48.45768972515731
 21
211.6502492376685
 31
0.0
  0
INSERT
  5
15D
330
158
100
AcDbEntity
  8
SUNPO
 62
     0
370
    -2
100
AcDbBlockReference
  2
_OPEN30
 10
23.45768972515731
 20
211.6502492376685
 30
0.0
 41
2.0
 42
2.0
 43
2.0
 50
180.0
  0
INSERT
  5
15E
330
158
100
AcDbEntity
  8
SUNPO
 62
     0
370
    -2
100
AcDbBlockReference
  2
_OPEN30
 10
50.4576897251573
 20
211.6502492376685
 30
0.0
 41
2.0
 42
2.0
 43
2.0
  0
MTEXT
  5
15F
330
158
100
AcDbEntity
  8
SUNPO
 62
     0
100
AcDbMText
 10
36.95768972515731
 20
213.4002492376685
 30
0.0
 40
2.5
 41
0.0
 71
     5
 72
     1
  1
\A1;270
 73
     1
 44
1.0
1001
ACAD
1000
MTEXTBEGIN
1070
    73
1070
     1
1070
    44
1040
1.0
1070
    74
1070
     0
1000
MTEXTEND
  0
POINT
  5
160
330
158
100
AcDbEntity
  8
DEFPOINTS
 62
     0
100
AcDbPoint
 10
23.45768972515731
 20
203.6502492376685
 30
0.0
  0
POINT
  5
162
330
158
100
AcDbEntity
  8
DEFPOINTS
 62
     0
100
AcDbPoint
 10
50.4576897251573
 20
203.6502492376685
 30
0.0
  0
POINT
  5
163
330
158
100
AcDbEntity
  8
DEFPOINTS
 62
     0
100
AcDbPoint
 10
50.4576897251573
 20
211.6502492376685
 30
0.0
  0
ENDBLK
  5
164
330
158
100
AcDbEntity
  8
0
100
AcDbBlockEnd
  0
BLOCK
  5
1B3
330
1A9
100
AcDbEntity
  8
0
100
AcDbBlockBegin
  2
*D4
 70
     1
 10
0.0
 20
0.0
 30
0.0
  3
*D4
  1

  0
LINE
  5
1AA
330
1A9
100
AcDbEntity
  8
SUNPO
 62
     0
370
    -2
100
AcDbLine
 10
8.473050517681599
 20
13.81834470483269
 30
0.0
 11
8.473050517681599
 21
21.8183447048327
 31
0.0
  0
LINE
  5
1AB
330
1A9
100
AcDbEntity
  8
SUNPO
 62
     0
370
    -2
100
AcDbLine
 10
44.47302210451638
 20
13.81834470483269
 30
0.0
 11
44.47302210451638
 21
21.8183447048327
 31
0.0
  0
LINE
  5
1AC
330
1A9
100
AcDbEntity
  8
SUNPO
 62
     0
370
    -2
100
AcDbLine
 10
10.4730505176816
 20
19.8183447048327
 30
0.0
 11
42.47302210451638
 21
19.8183447048327
 31
0.0
  0
INSERT
  5
1AD
330
1A9
100
AcDbEntity
  8
SUNPO
 62
     0
370
    -2
100
AcDbBlockReference
  2
_OPEN30
 10
8.473050517681599
 20
19.8183447048327
 30
0.0
 41
2.0
 42
2.0
 43
2.0
 50
180.0
  0
INSERT
  5
1AE
330
1A9
100
AcDbEntity
  8
SUNPO
 62
     0
370
    -2
100
AcDbBlockReference
  2
_OPEN30
 10
44.47302210451638
 20
19.8183447048327
 30
0.0
 41
2.0
 42
2.0
 43
2.0
  0
MTEXT
  5
1AF
330
1A9
100
AcDbEntity
  8
SUNPO
 62
     0
100
AcDbMText
 10
26.47303631109899
 20
21.5683447048327
 30
0.0
 40
2.5
 41
0.0
 71
     5
 72
     1
  1
\A1;360
 73
     1
 44
1.0
1001
ACAD
1000
MTEXTBEGIN
1070
    73
1070
     1
1070
    44
1040
1.0
1070
    74
1070
     0
1000
MTEXTEND
  0
POINT
  5
1B0
330
1A9
100
AcDbEntity
  8
DEFPOINTS
 62
     0
100
AcDbPoint
 10
8.473050517681599
 20
11.81834470483269
 30
0.0
  0
POINT
  5
1B1
330
1A9
100
AcDbEntity
  8
DEFPOINTS
 62
     0
100
AcDbPoint
 10
44.47302210451638
 20
11.81834470483269
 30
0.0
  0
POINT
  5
1B2
330
1A9
100
AcDbEntity
  8
DEFPOINTS
 62
     0
100
AcDbPoint
 10
44.47302210451638
 20
19.8183447048327
 30
0.0
  0
ENDBLK
  5
1B4
330
1A9
100
AcDbEntity
  8
0
100
AcDbBlockEnd
  0
BLOCK
  5
1BF
330
1B5
100
AcDbEntity
  8
0
100
AcDbBlockBegin
  2
*D5
 70
     1
 10
0.0
 20
0.0
 30
0.0
  3
*D5
  1

  0
LINE
  5
1B6
330
1B5
100
AcDbEntity
  8
SUNPO
 62
     0
370
    -2
100
AcDbLine
 10
-12.32008933158654
 20
11.80315077779093
 30
0.0
 11
-4.320089331586543
 21
11.80315077779093
 31
0.0
  0
LINE
  5
1B7
330
1B5
100
AcDbEntity
  8
SUNPO
 62
     0
370
    -2
100
AcDbLine
 10
-12.32008933158654
 20
3.003150777790949
 30
0.0
 11
-4.320089331586543
 21
3.003150777790946
 31
0.0
  0
LINE
  5
1B8
330
1B5
100
AcDbEntity
  8
SUNPO
 62
     0
370
    -2
100
AcDbLine
 10
-6.320089331586543
 20
9.80315077779093
 30
0.0
 11
-6.320089331586544
 21
5.003150777790947
 31
0.0
  0
INSERT
  5
1B9
330
1B5
100
AcDbEntity
  8
SUNPO
 62
     0
370
    -2
100
AcDbBlockReference
  2
_OPEN30
 10
-6.320089331586542
 20
11.80315077779093
 30
0.0
 41
2.0
 42
2.0
 43
2.0
 50
90.0
  0
INSERT
  5
1BA
330
1B5
100
AcDbEntity
  8
SUNPO
 62
     0
370
    -2
100
AcDbBlockReference
  2
_OPEN30
 10
-6.320089331586544
 20
3.003150777790947
 30
0.0
 41
2.0
 42
2.0
 43
2.0
 50
270.0
  0
MTEXT
  5
1BB
330
1B5
100
AcDbEntity
  8
SUNPO
 62
     0
100
AcDbMText
 10
-8.070089331586544
 20
7.403150777790938
 30
0.0
 40
2.5
 41
0.0
 71
     5
 72
     1
  1
\A1;88
 11
0.0000000000000001
 21
1.0
 31
0.0
 73
     1
 44
1.0
1001
ACAD
1000
MTEXTBEGIN
1070
    73
1070
     1
1070
    44
1040
1.0
1070
    74
1070
     0
1000
MTEXTEND
  0
POINT
  5
1BC
330
1B5
100
AcDbEntity
  8
DEFPOINTS
 62
     0
100
AcDbPoint
 10
-14.32008933158654
 20
11.80315077779093
 30
0.0
  0
POINT
  5
1BD
330
1B5
100
AcDbEntity
  8
DEFPOINTS
 62
     0
100
AcDbPoint
 10
-14.32008933158654
 20
3.003150777790949
 30
0.0
  0
POINT
  5
1BE
330
1B5
100
AcDbEntity
  8
DEFPOINTS
 62
     0
100
AcDbPoint
 10
-6.320089331586544
 20
3.003150777790947
 30
0.0
  0
ENDBLK
  5
1C0
330
1B5
100
AcDbEntity
  8
0
100
AcDbBlockEnd
  0
BLOCK
  5
1CB
330
1C1
100
AcDbEntity
  8
0
100
AcDbBlockBegin
  2
*D6
 70
     1
 10
0.0
 20
0.0
 30
0.0
  3
*D6
  1

  0
LINE
  5
1C2
330
1C1
100
AcDbEntity
  8
SUNPO
 62
     0
370
    -2
100
AcDbLine
 10
-41.31629640009117
 20
13.78977379530985
 30
0.0
 11
-41.31629640009117
 21
21.78977379530985
 31
0.0
  0
LINE
  5
1C3
330
1C1
100
AcDbEntity
  8
SUNPO
 62
     0
370
    -2
100
AcDbLine
 10
-14.31629640009117
 20
13.78977379530985
 30
0.0
 11
-14.31629640009117
 21
21.78977379530985
 31
0.0
  0
LINE
  5
1C4
330
1C1
100
AcDbEntity
  8
SUNPO
 62
     0
370
    -2
100
AcDbLine
 10
-39.31629640009118
 20
19.78977379530985
 30
0.0
 11
-16.31629640009117
 21
19.78977379530985
 31
0.0
  0
INSERT
  5
1C5
330
1C1
100
AcDbEntity
  8
SUNPO
 62
     0
370
    -2
100
AcDbBlockReference
  2
_OPEN30
 10
-41.31629640009117
 20
19.78977379530985
 30
0.0
 41
2.0
 42
2.0
 43
2.0
 50
180.0
  0
INSERT
  5
1C6
330
1C1
100
AcDbEntity
  8
SUNPO
 62
     0
370
    -2
100
AcDbBlockReference
  2
_OPEN30
 10
-14.31629640009117
 20
19.78977379530985
 30
0.0
 41
2.0
 42
2.0
 43
2.0
  0
MTEXT
  5
1C7
330
1C1
100
AcDbEntity
  8
SUNPO
 62
     0
100
AcDbMText
 10
-27.81629640009118
 20
21.53977379530986
 30
0.0
 40
2.5
 41
0.0
 71
     5
 72
     1
  1
\A1;270
 73
     1
 44
1.0
1001
ACAD
1000
MTEXTBEGIN
1070
    73
1070
     1
1070
    44
1040
1.0
1070
    74
1070
     0
1000
MTEXTEND
  0
POINT
  5
1C8
330
1C1
100
AcDbEntity
  8
DEFPOINTS
 62
     0
100
AcDbPoint
 10
-41.31629640009117
 20
11.78977379530985
 30
0.0
  0
POINT
  5
1C9
330
1C1
100
AcDbEntity
  8
DEFPOINTS
 62
     0
100
AcDbPoint
 10
-14.31629640009117
 20
11.78977379530985
 30
0.0
  0
POINT
  5
1CA
330
1C1
100
AcDbEntity
  8
DEFPOINTS
 62
     0
100
AcDbPoint
 10
-14.31629640009117
 20
19.78977379530985
 30
0.0
  0
ENDBLK
  5
1CC
330
1C1
100
AcDbEntity
  8
0
100
AcDbBlockEnd
  0
ENDSEC
  0
SECTION
  2
ENTITIES
  0
TEXT
  5
34
330
2
100
AcDbEntity
  8
MOJI1
100
AcDbText
 10
-35.77398612524837
 20
48.63873869728343
 30
0.0
 40
4.0
  1
ネットワークディスクレコーダー
  7
KANJI
100
AcDbText
  0
TEXT
  5
36
330
2
100
AcDbEntity
  8
TOUROKU
100
AcDbText
 10
46.35929724101214
 20
42.6387386972832
 30
0.0
 40
2.0
  1
ＤＧＮＤ２００
 72
     2
 11
62.2259639076788
 21
42.6387386972832
 31
0.0
100
AcDbText
  0
ARC
  5
38
330
2
100
AcDbEntity
  8
GAIKEI
  6
Continuous
100
AcDbCircle
 10
-38.8064895859809
 20
2.153150777790955
 30
0.0
 40
0.1
100
AcDbArc
 50
270.0
 51
354.5596679689273
  0
ARC
  5
3A
330
2
100
AcDbEntity
  8
GAIKEI
  6
Continuous
100
AcDbCircle
 10
-40.62463222303108
 20
2.153150777790955
 30
0.0
 40
0.1
100
AcDbArc
 50
185.4403320310792
 51
270.0
  0
ARC
  5
3B
330
2
100
AcDbEntity
  8
GAIKEI
  6
Continuous
100
AcDbCircle
 10
-16.82464422605437
 20
2.153150777790955
 30
0.0
 40
0.1
100
AcDbArc
 50
185.4403320310792
 51
270.0
  0
ARC
  5
3C
330
2
100
AcDbEntity
  8
GAIKEI
  6
Continuous
100
AcDbCircle
 10
-15.00650158900419
 20
2.153150777790955
 30
0.0
 40
0.1
100
AcDbArc
 50
270.0
 51
354.5596679689273
  0
LINE
  5
3D
330
2
100
AcDbEntity
  8
GAIKEI
  6
Continuous
100
AcDbLine
 10
-40.62463222303108
 20
2.053150777790961
 30
0.0
 11
-38.8064895859809
 21
2.053150777790961
 31
0.0
  0
LINE
  5
3E
330
2
100
AcDbEntity
  8
GAIKEI
  6
Continuous
100
AcDbLine
 10
-38.70694003872137
 20
2.143669868528036
 30
0.0
 11
-38.62508471402981
 21
3.003150777790949
 31
0.0
  0
LINE
  5
3F
330
2
100
AcDbEntity
  8
GAIKEI
  6
Continuous
100
AcDbLine
 10
-40.80603709498217
 20
3.003150777790949
 30
0.0
 11
-40.72418177029049
 21
2.143669868528036
 31
0.0
  0
LINE
  5
40
330
2
100
AcDbEntity
  8
GAIKEI
  6
Continuous
100
AcDbLine
 10
-17.0060490980054
 20
3.003150777790949
 30
0.0
 11
-16.92419377331379
 21
2.143669868528036
 31
0.0
  0
LINE
  5
41
330
2
100
AcDbEntity
  8
GAIKEI
  6
Continuous
100
AcDbLine
 10
-14.90695204174471
 20
2.143669868528036
 30
0.0
 11
-14.8250967170531
 21
3.003150777790949
 31
0.0
  0
LINE
  5
42
330
2
100
AcDbEntity
  8
GAIKEI
  6
Continuous
100
AcDbLine
 10
-16.82464422605437
 20
2.053150777790961
 30
0.0
 11
-15.00650158900419
 21
2.053150777790961
 31
0.0
  0
LINE
  5
43
330
2
100
AcDbEntity
  8
GAIKEI
  6
Continuous
100
AcDbLine
 10
-14.31630152064906
 20
3.003150777790949
 30
0.0
 11
-41.31629640009117
 21
3.003150777790949
 31
0.0
  0
LINE
  5
44
330
2
100
AcDbEntity
  8
GAIKEI
  6
Continuous
100
AcDbLine
 10
-41.31629640009117
 20
11.80315077779093
 30
0.0
 11
-14.31629640009117
 21
11.80315077779093
 31
0.0
  0
LINE
  5
45
330
2
100
AcDbEntity
  8
GAIKEI
  6
Continuous
100
AcDbLine
 10
-14.31629640009117
 20
3.003150777790949
 30
0.0
 11
-14.31629640009117
 21
11.80315077779093
 31
0.0
  0
LINE
  5
46
330
2
100
AcDbEntity
  8
GAIKEI
  6
Continuous
100
AcDbLine
 10
-41.31629640009117
 20
3.003150777790949
 30
0.0
 11
-41.31629640009117
 21
11.80315077779093
 31
0.0
  0
SPLINE
  5
47
330
2
100
AcDbEntity
  8
GAIKEI
  6
Continuous
 62
     1
100
AcDbSpline
210
0.0
220
0.0
230
1.0
 70
     8
 71
     3
 72
    11
 73
     7
 74
     5
 42
0.0000000001
 43
0.0000000001
 44
0.00000000001
 40
0.0
 40
0.0
 40
0.0
 40
0.0
 40
0.1992999793706902
 40
0.3986772277338636
 40
0.5984408359593923
 40
0.798281719110066
 40
0.798281719110066
 40
0.798281719110066
 40
0.798281719110066
 10
-17.98051869406117
 20
3.236357648850969
 30
0.0
 10
-17.98007899930654
 20
3.302789521058201
 30
0.0
 10
-17.97919943932676
 20
3.435679021239678
 30
0.0
 10
-17.97797333366004
 20
3.635155537559739
 30
0.0
 10
-17.97680872103218
 20
3.834812726622431
 30
0.0
 10
-17.97609417123767
 20
3.968012308828747
 30
0.0
 10
-17.97573682725112
 20
4.034624978900978
 30
0.0
 11
-17.98051869406117
 21
3.236357648850969
 31
0.0
 11
-17.97921528789254
 21
3.43565336608924
 31
0.0
 11
-17.97798453389953
 21
3.635026815699461
 31
0.0
 11
-17.97682446762354
 21
3.83478705553091
 31
0.0
 11
-17.97573682725112
 21
4.034624978900978
 31
0.0
  0
SPLINE
  5
48
330
2
100
AcDbEntity
  8
GAIKEI
  6
Continuous
 62
     1
100
AcDbSpline
210
0.0
220
0.0
230
1.0
 70
     8
 71
     3
 72
    11
 73
     7
 74
     5
 42
0.0000000001
 43
0.0000000001
 44
0.00000000001
 40
0.0
 40
0.0
 40
0.0
 40
0.0
 40
0.6358372401217706
 40
1.271350420705419
 40
1.905244285137541
 40
2.538814485074382
 40
2.538814485074382
 40
2.538814485074382
 40
2.538814485074382
 10
-17.7289767616611
 20
6.825198072460977
 30
0.0
 10
-17.72877969057277
 20
6.613252361748067
 30
0.0
 10
-17.72838564883499
 20
6.189468960149895
 30
0.0
 10
-17.72643375623698
 20
5.554390148539226
 30
0.0
 10
-17.72357313938596
 20
4.920070460415388
 30
0.0
 10
-17.72075310072407
 20
4.497591737648917
 30
0.0
 10
-17.71934344146109
 20
4.28640631916096
 30
0.0
 11
-17.7289767616611
 21
6.825198072460977
 31
0.0
 11
-17.7281583234452
 21
6.189361359078873
 31
0.0
 11
-17.72627977784106
 21
5.553850954945346
 31
0.0
 11
-17.7233438495947
 21
4.919963889538564
 31
0.0
 11
-17.71934344146109
 21
4.28640631916096
 31
0.0
  0
SPLINE
  5
49
330
2
100
AcDbEntity
  8
GAIKEI
  6
Continuous
 62
     1
100
AcDbSpline
210
0.0
220
0.0
230
1.0
 70
     8
 71
     3
 72
    21
 73
    17
 74
    15
 42
0.0000000001
 43
0.0000000001
 44
0.00000000001
 40
0.0
 40
0.0
 40
0.0
 40
0.0
 40
0.0010704583518323
 40
0.0021562884020188
 40
0.0036007463494679
 40
0.0050765637822888
 40
0.0071158150129248
 40
0.0091823865102243
 40
0.0118063809609074
 40
0.0144319058553453
 40
0.0174175352367186
 40
0.0203025287368573
 40
0.02384493199512
 40
0.0275004989452622
 40
0.0323088408080198
 40
0.0373289142075379
 40
0.0373289142075379
 40
0.0373289142075379
 40
0.0373289142075379
 10
-32.7452866494412
 20
11.02977211050097
 30
0.0
 10
-32.74533142484377
 20
11.03012755181572
 30
0.0
 10
-32.74542161862019
 20
11.03084353855476
 30
0.0
 10
-32.74526408171116
 20
11.03204213864464
 30
0.0
 10
-32.74498824001823
 20
11.03334659857506
 30
0.0
 10
-32.74466767373652
 20
11.03496911429752
 30
0.0
 10
-32.7442722202069
 20
11.03678706513329
 30
0.0
 10
-32.74375293125387
 20
11.03896957641052
 30
0.0
 10
-32.74315551344872
 20
11.04133399368098
 30
0.0
 10
-32.74246094154479
 20
11.04398975012168
 30
0.0
 10
-32.74172035774672
 20
11.04672329077894
 30
0.0
 10
-32.74087604804986
 20
11.0497452658966
 30
0.0
 10
-32.73994493643996
 20
11.0529747414445
 30
0.0
 10
-32.73881243563979
 20
11.05681328184238
 30
0.0
 10
-32.73750518433643
 20
11.06111376383276
 30
0.0
 10
-32.73651286487786
 20
11.06423603205667
 30
0.0
 10
-32.73600601648116
 20
11.06583079736094
 30
0.0
 11
-32.7452866494412
 21
11.02977211050097
 31
0.0
 11
-32.74537549756934
 21
11.0308388752797
 31
0.0
 11
-32.74526807444102
 21
11.03191937848163
 31
0.0
 11
-32.74499341354693
 21
11.03333748290487
 31
0.0
 11
-32.74470024265474
 21
11.03478388807735
 31
0.0
 11
-32.74426776131634
 21
11.03677675171383
 31
0.0
 11
-32.74379185011014
 21
11.03878777788901
 31
0.0
 11
-32.74315211765395
 21
11.04133259404381
 31
0.0
 11
-32.74248784349021
 21
11.04387269656274
 31
0.0
 11
-32.74170774576368
 21
11.04675461091608
 31
0.0
 11
-32.74093158447141
 21
11.0495332366815
 31
0.0
 11
-32.73995193397116
 21
11.05293748487184
 31
0.0
 11
-32.73891703033871
 21
11.05644350030229
 31
0.0
 11
-32.73751626451269
 21
11.06104328361999
 31
0.0
 11
-32.73600601648116
 21
11.06583079736094
 31
0.0
  0
SPLINE
  5
4A
330
2
100
AcDbEntity
  8
GAIKEI
  6
Continuous
 62
     1
100
AcDbSpline
210
0.0
220
0.0
230
1.0
 70
     8
 71
     3
 72
    11
 73
     7
 74
     5
 42
0.0000000001
 43
0.0000000001
 44
0.00000000001
 40
0.0
 40
0.0
 40
0.0
 40
0.0
 40
0.0633329752338694
 40
0.1267294914118904
 40
0.1904438560678299
 40
0.2542218168060798
 40
0.2542218168060798
 40
0.2542218168060798
 40
0.2542218168060798
 10
-20.2107235910911
 20
10.95315077779094
 30
0.0
 10
-20.20696356977545
 20
10.93237731982566
 30
0.0
 10
-20.19943975477593
 20
10.89080956222256
 30
0.0
 10
-20.18797089569486
 20
10.82837282609697
 30
0.0
 10
-20.17636924150523
 20
10.76580977061712
 30
0.0
 10
-20.16851693681207
 20
10.72404405329743
 30
0.0
 10
-20.16458882601108
 20
10.70315077779094
 30
0.0
 11
-20.2107235910911
 21
10.95315077779094
 31
0.0
 11
-20.19941654057237
 21
10.89083531935131
 31
0.0
 11
-20.1879724795939
 21
10.82848027359051
 31
0.0
 11
-20.17634720714693
 21
10.7658354549377
 31
0.0
 11
-20.16458882601108
 21
10.70315077779094
 31
0.0
  0
CIRCLE
  5
4B
330
2
100
AcDbEntity
  8
GAIKEI
  6
Continuous
 62
     1
100
AcDbCircle
 10
-34.4162964000912
 20
4.953150777790938
 30
0.0
 40
0.4601149004112
  0
CIRCLE
  5
4C
330
2
100
AcDbEntity
  8
GAIKEI
  6
Continuous
 62
     1
100
AcDbCircle
 10
-34.4162964000912
 20
4.953150777790938
 30
0.0
 40
0.4601149004112
  0
CIRCLE
  5
4D
330
2
100
AcDbEntity
  8
GAIKEI
  6
Continuous
 62
     1
100
AcDbCircle
 10
-34.4162964000912
 20
4.953150777790938
 30
0.0
 40
0.3051344361669
  0
CIRCLE
  5
4E
330
2
100
AcDbEntity
  8
GAIKEI
  6
Continuous
 62
     1
100
AcDbCircle
 10
-34.4162964000912
 20
4.953150777790938
 30
0.0
 40
0.36
  0
CIRCLE
  5
4F
330
2
100
AcDbEntity
  8
GAIKEI
  6
Continuous
 62
     1
100
AcDbCircle
 10
-16.26629640009116
 20
8.503150777790949
 30
0.0
 40
0.9
  0
CIRCLE
  5
50
330
2
100
AcDbEntity
  8
GAIKEI
  6
Continuous
 62
     1
100
AcDbCircle
 10
-16.26629640009116
 20
8.503150777790949
 30
0.0
 40
0.76
  0
ARC
  5
51
330
2
100
AcDbEntity
  8
GAIKEI
  6
Continuous
 62
     1
100
AcDbCircle
 10
-21.75868198504009
 20
9.245343732317735
 30
0.0
 40
0.0998392935872
100
AcDbArc
 50
270.0270546345274
 51
0.1943625257390433
  0
ARC
  5
52
330
2
100
AcDbEntity
  8
GAIKEI
  6
Continuous
 62
     1
100
AcDbCircle
 10
-21.7589578761108
 20
9.260286265220656
 30
0.0
 40
0.1000855586518
100
AcDbArc
 50
0.1736675531024372
 51
90.05856332071173
  0
ARC
  5
53
330
2
100
AcDbEntity
  8
GAIKEI
  6
Continuous
 62
     1
100
AcDbCircle
 10
-21.7592596381599
 20
6.660212764007042
 30
0.0
 40
0.099957014976
100
AcDbArc
 50
359.9696242716148
 51
90.00145037929994
  0
ARC
  5
54
330
2
100
AcDbEntity
  8
GAIKEI
  6
Continuous
 62
     1
100
AcDbCircle
 10
-21.75931846441597
 20
6.646208032383754
 30
0.0
 40
0.1000116124012
100
AcDbArc
 50
269.9952176611199
 51
359.9644727628068
  0
ARC
  5
55
330
2
100
AcDbEntity
  8
GAIKEI
  6
Continuous
 62
     1
100
AcDbCircle
 10
-29.27327828282989
 20
6.646204082552344
 30
0.0
 40
0.1000076629772
100
AcDbArc
 50
180.0332657265149
 51
270.0070438552923
  0
ARC
  5
56
330
2
100
AcDbEntity
  8
GAIKEI
  6
Continuous
 62
     1
100
AcDbCircle
 10
-29.27332276293737
 20
6.660202370160561
 30
0.0
 40
0.0999674091001
100
AcDbArc
 50
90.00450995656869
 51
180.024415392544
  0
ARC
  5
57
330
2
100
AcDbEntity
  8
GAIKEI
  6
Continuous
 62
     1
100
AcDbCircle
 10
-29.27393565791681
 20
9.245318985372051
 30
0.0
 40
0.0998145380023
100
AcDbArc
 50
179.7913838802964
 51
269.9871989594365
  0
ARC
  5
58
330
2
100
AcDbEntity
  8
GAIKEI
  6
Continuous
 62
     1
100
AcDbCircle
 10
-29.27364277001408
 20
9.260294143018853
 30
0.0
 40
0.1000776891853
100
AcDbArc
 50
89.93694017322217
 51
179.8308289529566
  0
ARC
  5
59
330
2
100
AcDbEntity
  8
GAIKEI
  6
Continuous
 62
     1
100
AcDbCircle
 10
-23.6904271899578
 20
8.059749114663844
 30
0.0
 40
9.567762262964199
100
AcDbArc
 50
162.0515704714115
 51
204.0025192296359
  0
ARC
  5
5A
330
2
100
AcDbEntity
  8
GAIKEI
  6
Continuous
 62
     1
100
AcDbCircle
 10
-23.45982477076848
 20
8.087005896013749
 30
0.0
 40
9.992104238365399
100
AcDbArc
 50
159.5705396581192
 51
203.1846944645208
  0
ARC
  5
5B
330
2
100
AcDbEntity
  8
GAIKEI
  6
Continuous
 62
     1
100
AcDbCircle
 10
-32.76388373338881
 20
10.99877335570355
 30
0.0
 40
0.0301800436321
100
AcDbArc
 50
89.85729913413747
 51
161.8815030290254
  0
ARC
  5
5C
330
2
100
AcDbEntity
  8
GAIKEI
  6
Continuous
 62
     1
100
AcDbCircle
 10
-23.45199640009122
 20
8.087784749900947
 30
0.0
 40
9.700000000000001
100
AcDbArc
 50
162.949610899702
 51
203.9577184880016
  0
ARC
  5
5D
330
2
100
AcDbEntity
  8
GAIKEI
  6
Continuous
 62
     1
100
AcDbCircle
 10
-32.69697338697119
 20
10.92315077779093
 30
0.0
 40
0.03
100
AcDbArc
 50
90.0
 51
162.9496108994857
  0
LINE
  5
5E
330
2
100
AcDbEntity
  8
GAIKEI
  6
Continuous
 62
     1
100
AcDbLine
 10
-21.65930263723118
 20
6.660159771150944
 30
0.0
 11
-21.6593068712412
 21
6.646146018460939
 31
0.0
  0
LINE
  5
5F
330
2
100
AcDbEntity
  8
GAIKEI
  6
Continuous
 62
     1
100
AcDbLine
 10
-29.37329016296121
 20
6.660159771150944
 30
0.0
 11
-29.37328592895119
 21
6.646146018460939
 31
0.0
  0
LINE
  5
60
330
2
100
AcDbEntity
  8
GAIKEI
  6
Continuous
 62
     1
100
AcDbLine
 10
-32.5570706442212
 20
11.57478919144094
 30
0.0
 11
-32.73600601648122
 21
11.06583079736094
 31
0.0
  0
LINE
  5
61
330
2
100
AcDbEntity
  8
GAIKEI
  6
Continuous
 62
     1
100
AcDbLine
 10
-32.79907457474121
 20
11.62812333453095
 30
0.0
 11
-32.8234519410712
 21
11.57478919144094
 31
0.0
  0
LINE
  5
62
330
2
100
AcDbEntity
  8
GAIKEI
  6
Continuous
 62
     1
100
AcDbLine
 10
-32.53185673558119
 20
11.62832604978095
 30
0.0
 11
-32.5570706442212
 21
11.57478919144094
 31
0.0
  0
LINE
  5
63
330
2
100
AcDbEntity
  8
GAIKEI
  6
Continuous
 62
     1
100
AcDbLine
 10
-21.65887277722118
 20
9.260589631150935
 30
0.0
 11
-21.65884326590117
 21
9.245682413110955
 31
0.0
  0
LINE
  5
64
330
2
100
AcDbEntity
  8
GAIKEI
  6
Continuous
 62
     1
100
AcDbLine
 10
-29.37372002297122
 20
9.260589631150935
 30
0.0
 11
-29.37374953429122
 21
9.245682413110955
 31
0.0
  0
LINE
  5
65
330
2
100
AcDbEntity
  8
GAIKEI
  6
Continuous
 62
     1
100
AcDbLine
 10
-32.7452866494412
 20
11.02977211050094
 30
0.0
 11
-32.74455345465117
 21
11.02895326489096
 31
0.0
  0
LINE
  5
66
330
2
100
AcDbEntity
  8
GAIKEI
  6
Continuous
 62
     1
100
AcDbLine
 10
-32.74455345465117
 20
11.02895326489096
 30
0.0
 11
-32.76380856705117
 21
11.02895330573093
 31
0.0
  0
LINE
  5
67
330
2
100
AcDbEntity
  8
GAIKEI
  6
Continuous
 62
     1
100
AcDbLine
 10
-32.53185673558119
 20
11.62832604978095
 30
0.0
 11
-32.79907457474121
 21
11.62812333453095
 31
0.0
  0
LINE
  5
68
330
2
100
AcDbEntity
  8
GAIKEI
  6
Continuous
 62
     1
100
AcDbLine
 10
-32.4271666836712
 20
4.03462497890095
 30
0.0
 11
-32.41999020009121
 21
3.236357677790948
 31
0.0
  0
LINE
  5
69
330
2
100
AcDbEntity
  8
GAIKEI
  6
Continuous
 62
     1
100
AcDbLine
 10
-32.43084182924122
 20
4.167805300320935
 30
0.0
 11
-32.4302811097312
 21
4.094313315260933
 31
0.0
  0
LINE
  5
6A
330
2
100
AcDbEntity
  8
GAIKEI
  6
Continuous
 62
     1
100
AcDbLine
 10
-32.61647991504117
 20
4.094313315260933
 30
0.0
 11
-32.64497207602119
 21
4.153150777790955
 31
0.0
  0
LINE
  5
6B
330
2
100
AcDbEntity
  8
GAIKEI
  6
Continuous
 62
     1
100
AcDbLine
 10
-32.61647991504117
 20
4.094313315260933
 30
0.0
 11
-32.4302811097312
 21
4.094313315260933
 31
0.0
  0
LINE
  5
6C
330
2
100
AcDbEntity
  8
GAIKEI
  6
Continuous
 62
     1
100
AcDbLine
 10
-41.31629640009117
 20
11.80315077779093
 30
0.0
 11
-41.1904969000912
 21
11.67736997779093
 31
0.0
  0
LINE
  5
6D
330
2
100
AcDbEntity
  8
GAIKEI
  6
Continuous
 62
     1
100
AcDbLine
 10
-41.19598933802916
 20
11.68286159928215
 30
0.0
 11
-41.18406380009122
 21
11.57478917779093
 31
0.0
  0
LINE
  5
6E
330
2
100
AcDbEntity
  8
GAIKEI
  6
Continuous
 62
     1
100
AcDbLine
 10
-41.15813800009118
 20
5.804715777790931
 30
0.0
 11
-41.16163790009119
 21
4.977146777790949
 31
0.0
  0
LINE
  5
6F
330
2
100
AcDbEntity
  8
GAIKEI
  6
Continuous
 62
     1
100
AcDbLine
 10
-41.15644140009118
 20
6.634158977790946
 30
0.0
 11
-41.15813800009118
 21
5.804715777790931
 31
0.0
  0
LINE
  5
70
330
2
100
AcDbEntity
  8
GAIKEI
  6
Continuous
 62
     1
100
AcDbLine
 10
-41.1565502000912
 20
7.464456877790951
 30
0.0
 11
-41.15644140009118
 21
6.634158977790946
 31
0.0
  0
LINE
  5
71
330
2
100
AcDbEntity
  8
GAIKEI
  6
Continuous
 62
     1
100
AcDbLine
 10
-41.1584642000912
 20
8.29370117779095
 30
0.0
 11
-41.1565502000912
 21
7.464456877790951
 31
0.0
  0
LINE
  5
72
330
2
100
AcDbEntity
  8
GAIKEI
  6
Continuous
 62
     1
100
AcDbLine
 10
-41.16218120009119
 20
9.120966677790931
 30
0.0
 11
-41.1584642000912
 21
8.29370117779095
 31
0.0
  0
LINE
  5
73
330
2
100
AcDbEntity
  8
GAIKEI
  6
Continuous
 62
     1
100
AcDbLine
 10
-41.16769280009117
 20
9.944366077790959
 30
0.0
 11
-41.16218120009119
 21
9.120966677790931
 31
0.0
  0
LINE
  5
74
330
2
100
AcDbEntity
  8
GAIKEI
  6
Continuous
 62
     1
100
AcDbLine
 10
-41.17499210009117
 20
10.76286137779095
 30
0.0
 11
-41.16769280009117
 21
9.944366077790959
 31
0.0
  0
LINE
  5
75
330
2
100
AcDbEntity
  8
GAIKEI
  6
Continuous
 62
     1
100
AcDbLine
 10
-41.18406380009122
 20
11.57474137779096
 30
0.0
 11
-41.17499210009117
 21
10.76286137779095
 31
0.0
  0
LINE
  5
76
330
2
100
AcDbEntity
  8
GAIKEI
  6
Continuous
 62
     1
100
AcDbLine
 10
-41.16163790009119
 20
4.977146777790949
 30
0.0
 11
-41.16693420009119
 21
4.153150777790955
 31
0.0
  0
LINE
  5
77
330
2
100
AcDbEntity
  8
GAIKEI
  6
Continuous
 62
     1
100
AcDbLine
 10
-41.16693420009119
 20
4.153150777790955
 30
0.0
 11
-41.17314590009118
 21
4.03462497779094
 31
0.0
  0
LINE
  5
78
330
2
100
AcDbEntity
  8
GAIKEI
  6
Continuous
 62
     1
100
AcDbLine
 10
-41.18032230009117
 20
3.236357677790948
 30
0.0
 11
-41.18654690009117
 21
3.132927077790952
 31
0.0
  0
LINE
  5
79
330
2
100
AcDbEntity
  8
GAIKEI
  6
Continuous
 62
     1
100
AcDbLine
 10
-41.17314590009118
 20
4.03462497779094
 30
0.0
 11
-41.18032230009117
 21
3.236357677790948
 31
0.0
  0
LINE
  5
7A
330
2
100
AcDbEntity
  8
GAIKEI
  6
Continuous
 62
     1
100
AcDbLine
 10
-32.82345200009121
 20
11.57478917779093
 30
0.0
 11
-41.18406380009122
 21
11.57478917779093
 31
0.0
  0
LINE
  5
7B
330
2
100
AcDbEntity
  8
GAIKEI
  6
Continuous
 62
     1
100
AcDbLine
 10
-18.05883140009121
 20
11.57478919144094
 30
0.0
 11
-32.5570706442212
 21
11.57478919144094
 31
0.0
  0
LINE
  5
7C
330
2
100
AcDbEntity
  8
GAIKEI
  6
Continuous
 62
     1
100
AcDbLine
 10
-32.7452866494412
 20
11.02977211050094
 30
0.0
 11
-18.05883140009121
 21
11.02977211050094
 31
0.0
  0
LINE
  5
7D
330
2
100
AcDbEntity
  8
GAIKEI
  6
Continuous
 62
     1
100
AcDbLine
 10
-32.69697338697119
 20
10.95315077779094
 30
0.0
 11
-18.06629640009117
 21
10.95315077779094
 31
0.0
  0
LINE
  5
7E
330
2
100
AcDbEntity
  8
GAIKEI
  6
Continuous
 62
     1
100
AcDbLine
 10
-41.19049690300118
 20
11.67736995408094
 30
0.0
 11
-14.44209589718122
 21
11.67736995408094
 31
0.0
  0
LINE
  5
7F
330
2
100
AcDbEntity
  8
GAIKEI
  6
Continuous
 62
     1
100
AcDbLine
 10
-14.4485289866912
 20
11.57478919144094
 30
0.0
 11
-17.97883140009122
 21
11.57478919144094
 31
0.0
  0
LINE
  5
80
330
2
100
AcDbEntity
  8
GAIKEI
  6
Continuous
 62
     1
100
AcDbLine
 10
-41.18654690009117
 20
3.132927077790952
 30
0.0
 11
-41.31629640009117
 21
3.003150777790949
 31
0.0
  0
LINE
  5
81
330
2
100
AcDbEntity
  8
GAIKEI
  6
Continuous
 62
     1
100
AcDbLine
 10
-32.41376570009118
 20
3.132927077790952
 30
0.0
 11
-41.18654690009117
 21
3.132927077790952
 31
0.0
  0
LINE
  5
82
330
2
100
AcDbEntity
  8
GAIKEI
  6
Continuous
 62
     1
100
AcDbLine
 10
-32.41999020009121
 20
3.236357677790948
 30
0.0
 11
-41.18032230009117
 21
3.236357677790948
 31
0.0
  0
LINE
  5
83
330
2
100
AcDbEntity
  8
GAIKEI
  6
Continuous
 62
     1
100
AcDbLine
 10
-32.42716670009122
 20
4.03462497779094
 30
0.0
 11
-41.17314590009118
 21
4.03462497779094
 31
0.0
  0
LINE
  5
84
330
2
100
AcDbEntity
  8
GAIKEI
  6
Continuous
 62
     1
100
AcDbLine
 10
-41.16693420009119
 20
4.153150777790955
 30
0.0
 11
-32.6449721000912
 21
4.153150777790955
 31
0.0
  0
LINE
  5
85
330
2
100
AcDbEntity
  8
GAIKEI
  6
Continuous
 62
     1
100
AcDbLine
 10
-32.31629640009118
 20
3.240343705040942
 30
0.0
 11
-18.06629640009117
 21
3.240343705040942
 31
0.0
  0
LINE
  5
86
330
2
100
AcDbEntity
  8
GAIKEI
  6
Continuous
 62
     1
100
AcDbLine
 10
-32.0751197480912
 20
3.128184778280939
 30
0.0
 11
-18.3144550780712
 21
3.128184778280939
 31
0.0
  0
LINE
  5
87
330
2
100
AcDbEntity
  8
GAIKEI
  6
Continuous
 62
     1
100
AcDbLine
 10
-32.36629640009119
 20
3.085447987100934
 30
0.0
 11
-18.01629640009122
 21
3.085447987100934
 31
0.0
  0
LINE
  5
88
330
2
100
AcDbEntity
  8
GAIKEI
  6
Continuous
 62
     1
100
AcDbLine
 10
-32.31814863799121
 20
4.153150777790955
 30
0.0
 11
-18.06629640009117
 21
4.153150777790955
 31
0.0
  0
LINE
  5
89
330
2
100
AcDbEntity
  8
GAIKEI
  6
Continuous
 62
     1
100
AcDbLine
 10
-18.06629640009117
 20
4.034625077600935
 30
0.0
 11
-32.31629640009118
 21
4.034625077600935
 31
0.0
  0
LINE
  5
8A
330
2
100
AcDbEntity
  8
GAIKEI
  6
Continuous
 62
     1
100
AcDbLine
 10
-17.9715978151512
 20
4.153150777790955
 30
0.0
 11
-14.46565857105116
 21
4.153150777790955
 31
0.0
  0
LINE
  5
8B
330
2
100
AcDbEntity
  8
GAIKEI
  6
Continuous
 62
     1
100
AcDbLine
 10
-14.45944689714116
 20
4.03462497890095
 30
0.0
 11
-17.97573682725118
 21
4.03462497890095
 31
0.0
  0
LINE
  5
8C
330
2
100
AcDbEntity
  8
GAIKEI
  6
Continuous
 62
     1
100
AcDbLine
 10
-14.44604586696118
 20
3.132927045760936
 30
0.0
 11
-17.9846663085612
 21
3.132927045760936
 31
0.0
  0
LINE
  5
8D
330
2
100
AcDbEntity
  8
GAIKEI
  6
Continuous
 62
     1
100
AcDbLine
 10
-14.45227049189117
 20
3.23635764885094
 30
0.0
 11
-17.98051869406117
 21
3.23635764885094
 31
0.0
  0
LINE
  5
8E
330
2
100
AcDbEntity
  8
GAIKEI
  6
Continuous
 62
     1
100
AcDbLine
 10
-14.46565857105116
 20
4.153150777790955
 30
0.0
 11
-14.45944689714116
 21
4.03462497890095
 31
0.0
  0
LINE
  5
8F
330
2
100
AcDbEntity
  8
GAIKEI
  6
Continuous
 62
     1
100
AcDbLine
 10
-14.45227049189117
 20
3.23635764885094
 30
0.0
 11
-14.44604586696118
 21
3.132927045760936
 31
0.0
  0
LINE
  5
90
330
2
100
AcDbEntity
  8
GAIKEI
  6
Continuous
 62
     1
100
AcDbLine
 10
-14.31629640009117
 20
3.003150777790949
 30
0.0
 11
-14.44604586696118
 21
3.132927045760936
 31
0.0
  0
LINE
  5
91
330
2
100
AcDbEntity
  8
GAIKEI
  6
Continuous
 62
     1
100
AcDbLine
 10
-14.45944689714116
 20
4.03462497890095
 30
0.0
 11
-14.45227049189117
 21
3.23635764885094
 31
0.0
  0
LINE
  5
92
330
2
100
AcDbEntity
  8
GAIKEI
  6
Continuous
 62
     1
100
AcDbLine
 10
-14.44209589718122
 20
11.67736995408094
 30
0.0
 11
-14.4485289866912
 21
11.57478919144094
 31
0.0
  0
LINE
  5
93
330
2
100
AcDbEntity
  8
GAIKEI
  6
Continuous
 62
     1
100
AcDbLine
 10
-14.31629640009117
 20
11.80315077779093
 30
0.0
 11
-14.44209589718122
 21
11.67736995408094
 31
0.0
  0
LINE
  5
94
330
2
100
AcDbEntity
  8
GAIKEI
  6
Continuous
 62
     1
100
AcDbLine
 10
-14.4485289866912
 20
11.57478919144094
 30
0.0
 11
-14.46565857105116
 21
4.153150777790955
 31
0.0
  0
LINE
  5
95
330
2
100
AcDbEntity
  8
GAIKEI
  6
Continuous
 62
     1
100
AcDbLine
 10
-16.1662964000912
 20
8.193150777790947
 30
0.0
 11
-16.1662964000912
 21
9.043150777790941
 31
0.0
  0
LINE
  5
96
330
2
100
AcDbEntity
  8
GAIKEI
  6
Continuous
 62
     1
100
AcDbLine
 10
-16.36629640009118
 20
9.043150777790941
 30
0.0
 11
-16.36629640009118
 21
8.193150777790947
 31
0.0
  0
LINE
  5
97
330
2
100
AcDbEntity
  8
GAIKEI
  6
Continuous
 62
     1
100
AcDbLine
 10
-16.1662964000912
 20
9.043150777790941
 30
0.0
 11
-16.36629640009118
 21
9.043150777790941
 31
0.0
  0
LINE
  5
98
330
2
100
AcDbEntity
  8
GAIKEI
  6
Continuous
 62
     1
100
AcDbLine
 10
-16.36629640009118
 20
8.193150777790947
 30
0.0
 11
-16.1662964000912
 21
8.193150777790947
 31
0.0
  0
LINE
  5
99
330
2
100
AcDbEntity
  8
GAIKEI
  6
Continuous
 62
     1
100
AcDbLine
 10
-15.09877741548121
 20
6.09114882903367
 30
0.0
 11
-15.09877741548121
 21
5.010807807256185
 31
0.0
  0
LINE
  5
9A
330
2
100
AcDbEntity
  8
GAIKEI
  6
Continuous
 62
     1
100
AcDbLine
 10
-15.12875914029121
 20
6.061445761691118
 30
0.0
 11
-15.12875914029121
 21
5.044855793900779
 31
0.0
  0
LINE
  5
9B
330
2
100
AcDbEntity
  8
GAIKEI
  6
Continuous
 62
     1
100
AcDbLine
 10
-15.26629640009116
 20
6.056642854744836
 30
0.0
 11
-15.26629640009116
 21
5.049658700847061
 31
0.0
  0
LINE
  5
9C
330
2
100
AcDbEntity
  8
GAIKEI
  6
Continuous
 62
     1
100
AcDbLine
 10
-15.29629640009119
 20
6.084240952301513
 30
0.0
 11
-15.29629640009119
 21
5.017715684005366
 31
0.0
  0
LINE
  5
9D
330
2
100
AcDbEntity
  8
GAIKEI
  6
Continuous
 62
     1
100
AcDbLine
 10
-15.13863777102119
 20
6.089754783680945
 30
0.0
 11
-15.13932931404952
 21
6.779800684610961
 31
0.0
  0
LINE
  5
9E
330
2
100
AcDbEntity
  8
GAIKEI
  6
Continuous
 62
     1
100
AcDbLine
 10
-15.0137938922378
 20
6.905236572270951
 30
0.0
 11
-17.72928046380451
 21
6.905236572270951
 31
0.0
  0
LINE
  5
9F
330
2
100
AcDbEntity
  8
GAIKEI
  6
Continuous
 62
     1
100
AcDbLine
 10
-15.13932931404952
 20
6.779800684610961
 30
0.0
 11
-17.63629640009117
 21
6.779800684610933
 31
0.0
  0
LINE
  5
A0
330
2
100
AcDbEntity
  8
GAIKEI
  6
Continuous
 62
     1
100
AcDbLine
 10
-15.29629640009119
 20
5.017715684005366
 30
0.0
 11
-15.09877741548121
 21
5.010807807256185
 31
0.0
  0
LINE
  5
A1
330
2
100
AcDbEntity
  8
GAIKEI
  6
Continuous
 62
     1
100
AcDbLine
 10
-15.26629640009116
 20
5.049658700847061
 30
0.0
 11
-15.12875914029121
 21
5.044855793900779
 31
0.0
  0
LINE
  5
A2
330
2
100
AcDbEntity
  8
GAIKEI
  6
Continuous
 62
     1
100
AcDbLine
 10
-15.09877741548121
 20
6.09114882903367
 30
0.0
 11
-15.29629640009119
 21
6.084240952301513
 31
0.0
  0
LINE
  5
A3
330
2
100
AcDbEntity
  8
GAIKEI
  6
Continuous
 62
     1
100
AcDbLine
 10
-15.26629640009116
 20
6.056642854744836
 30
0.0
 11
-15.12875914029121
 21
6.061445761691118
 31
0.0
  0
LINE
  5
A4
330
2
100
AcDbEntity
  8
GAIKEI
  6
Continuous
 62
     1
100
AcDbLine
 10
-17.63629640009117
 20
4.315883159890944
 30
0.0
 11
-15.13590844853121
 21
4.315883159890944
 31
0.0
  0
LINE
  5
A5
330
2
100
AcDbEntity
  8
GAIKEI
  6
Continuous
 62
     1
100
AcDbLine
 10
-17.71904204088702
 20
4.206974381240939
 30
0.0
 11
-15.02403231515541
 21
4.206974381240939
 31
0.0
  0
LINE
  5
A6
330
2
100
AcDbEntity
  8
GAIKEI
  6
Continuous
 62
     1
100
AcDbLine
 10
-18.28443042201121
 20
3.125735682720943
 30
0.0
 11
-18.3144550780712
 21
3.128184778280939
 31
0.0
  0
LINE
  5
A7
330
2
100
AcDbEntity
  8
GAIKEI
  6
Continuous
 62
     1
100
AcDbLine
 10
-17.9846663085612
 20
3.132927045760936
 30
0.0
 11
-18.01629640009122
 21
3.085447987100934
 31
0.0
  0
LINE
  5
A8
330
2
100
AcDbEntity
  8
GAIKEI
  6
Continuous
 62
     1
100
AcDbLine
 10
-18.06629640009117
 20
3.124620122380946
 30
0.0
 11
-18.06629640009117
 21
10.95315077779094
 31
0.0
  0
LINE
  5
A9
330
2
100
AcDbEntity
  8
GAIKEI
  6
Continuous
 62
     1
100
AcDbLine
 10
-18.28443042201121
 20
3.125735682720943
 30
0.0
 11
-18.2837505643912
 21
3.124620579810937
 31
0.0
  0
LINE
  5
AA
330
2
100
AcDbEntity
  8
GAIKEI
  6
Continuous
 62
     1
100
AcDbLine
 10
-18.28375146144117
 20
3.124619849350949
 30
0.0
 11
-18.06629640009117
 21
3.124619849350949
 31
0.0
  0
LINE
  5
AB
330
2
100
AcDbEntity
  8
GAIKEI
  6
Continuous
 62
     1
100
AcDbLine
 10
-17.63629640009117
 20
6.779800684610933
 30
0.0
 11
-17.63629640009117
 21
4.315883159890944
 31
0.0
  0
LINE
  5
AC
330
2
100
AcDbEntity
  8
GAIKEI
  6
Continuous
 62
     1
100
AcDbLine
 10
-18.05883140009121
 20
11.67736995408094
 30
0.0
 11
-18.05883140009121
 21
11.02977211050094
 31
0.0
  0
LINE
  5
AD
330
2
100
AcDbEntity
  8
GAIKEI
  6
Continuous
 62
     1
100
AcDbLine
 10
-18.46800397418121
 20
10.70315077779094
 30
0.0
 11
-20.1645888260112
 21
10.70315077779094
 31
0.0
  0
LINE
  5
AE
330
2
100
AcDbEntity
  8
GAIKEI
  6
Continuous
 62
     1
100
AcDbLine
 10
-32.0751197480912
 20
3.128184778280939
 30
0.0
 11
-32.10514440415119
 21
3.125735682720943
 31
0.0
  0
LINE
  5
AF
330
2
100
AcDbEntity
  8
GAIKEI
  6
Continuous
 62
     1
100
AcDbLine
 10
-32.10582426177121
 20
3.124620579810937
 30
0.0
 11
-32.10514440415119
 21
3.125735682720943
 31
0.0
  0
LINE
  5
B0
330
2
100
AcDbEntity
  8
GAIKEI
  6
Continuous
 62
     1
100
AcDbLine
 10
-32.31629640009118
 20
3.124619849350949
 30
0.0
 11
-32.10582336472118
 21
3.124619849350949
 31
0.0
  0
LINE
  5
B1
330
2
100
AcDbEntity
  8
GAIKEI
  6
Continuous
 62
     1
100
AcDbLine
 10
-32.31629640009118
 20
3.124620122380946
 30
0.0
 11
-32.31629640009118
 21
4.148979663330948
 31
0.0
  0
LINE
  5
B2
330
2
100
AcDbEntity
  8
GAIKEI
  6
Continuous
 62
     1
100
AcDbLine
 10
-32.4199902375612
 20
3.23635764885094
 30
0.0
 11
-32.41376565349117
 21
3.132927045760936
 31
0.0
  0
LINE
  5
B3
330
2
100
AcDbEntity
  8
GAIKEI
  6
Continuous
 62
     1
100
AcDbLine
 10
-32.36629640009119
 20
3.085447987100934
 30
0.0
 11
-32.41376565349117
 21
3.132927045760936
 31
0.0
  0
LINE
  5
B4
330
2
100
AcDbEntity
  8
GAIKEI
  6
Continuous
 62
     1
100
AcDbLine
 10
-32.4271666836712
 20
4.03462497890095
 30
0.0
 11
-32.4302811097312
 21
4.09405176823094
 31
0.0
  0
LINE
  5
B5
330
2
100
AcDbEntity
  8
GAIKEI
  6
Continuous
 62
     1
100
AcDbLine
 10
-23.49129640009119
 20
8.402904205360954
 30
0.0
 11
-23.49129640009119
 21
7.503182521950947
 31
0.0
  0
LINE
  5
B6
330
2
100
AcDbEntity
  8
GAIKEI
  6
Continuous
 62
     1
100
AcDbLine
 10
-23.59129640009121
 20
7.603150777790943
 30
0.0
 11
-23.59129640009121
 21
8.303150777790932
 31
0.0
  0
LINE
  5
B7
330
2
100
AcDbEntity
  8
GAIKEI
  6
Continuous
 62
     1
100
AcDbLine
 10
-29.27353262437117
 20
9.360371771590962
 30
0.0
 11
-21.75906017582122
 21
9.360371771590962
 31
0.0
  0
LINE
  5
B8
330
2
100
AcDbEntity
  8
GAIKEI
  6
Continuous
 62
     1
100
AcDbLine
 10
-29.27395795851118
 20
9.145504449860936
 30
0.0
 11
-21.75863484168122
 21
9.145504449860936
 31
0.0
  0
LINE
  5
B9
330
2
100
AcDbEntity
  8
GAIKEI
  6
Continuous
 62
     1
100
AcDbLine
 10
-27.5412964000912
 20
8.402904205360954
 30
0.0
 11
-23.49129640009119
 21
8.402904205360954
 31
0.0
  0
LINE
  5
BA
330
2
100
AcDbEntity
  8
GAIKEI
  6
Continuous
 62
     1
100
AcDbLine
 10
-27.44129640009118
 20
8.303150777790932
 30
0.0
 11
-23.59129640009121
 21
8.303150777790932
 31
0.0
  0
LINE
  5
BB
330
2
100
AcDbEntity
  8
GAIKEI
  6
Continuous
 62
     1
100
AcDbLine
 10
-27.44129640009118
 20
7.603150777790943
 30
0.0
 11
-23.59129640009121
 21
7.603150777790943
 31
0.0
  0
LINE
  5
BC
330
2
100
AcDbEntity
  8
GAIKEI
  6
Continuous
 62
     1
100
AcDbLine
 10
-27.44129640009118
 20
8.303150777790932
 30
0.0
 11
-27.44129640009118
 21
7.603150777790943
 31
0.0
  0
LINE
  5
BD
330
2
100
AcDbEntity
  8
GAIKEI
  6
Continuous
 62
     1
100
AcDbLine
 10
-27.5412964000912
 20
8.402904205360954
 30
0.0
 11
-27.5412964000912
 21
7.503182521950947
 31
0.0
  0
LINE
  5
BE
330
2
100
AcDbEntity
  8
GAIKEI
  6
Continuous
 62
     1
100
AcDbLine
 10
-27.5412964000912
 20
7.503182521950947
 30
0.0
 11
-23.49129640009119
 21
7.503182521950947
 31
0.0
  0
LINE
  5
BF
330
2
100
AcDbEntity
  8
GAIKEI
  6
Continuous
 62
     1
100
AcDbLine
 10
-29.2733306317312
 20
6.760169778950938
 30
0.0
 11
-21.75926216846119
 21
6.760169778950938
 31
0.0
  0
LINE
  5
C0
330
2
100
AcDbEntity
  8
GAIKEI
  6
Continuous
 62
     1
100
AcDbLine
 10
-29.2732659880412
 20
6.546196420330943
 30
0.0
 11
-21.75932681214118
 21
6.546196420330943
 31
0.0
  0
ARC
  5
C1
330
2
100
AcDbEntity
  8
GAIKEI
  6
Continuous
 62
     1
100
AcDbCircle
 10
44.6730296164645
 20
7.628149738972524
 30
0.0
 40
0.1
100
AcDbArc
 50
0.0
 51
90.0
  0
ARC
  5
C2
330
2
100
AcDbEntity
  8
GAIKEI
  6
Continuous
100
AcDbCircle
 10
40.68208570945168
 20
2.153150777790955
 30
0.0
 40
0.1
100
AcDbArc
 50
270.0
 51
354.5596679689355
  0
ARC
  5
C3
330
2
100
AcDbEntity
  8
GAIKEI
  6
Continuous
100
AcDbCircle
 10
38.8639430724015
 20
2.153150777790955
 30
0.0
 40
0.1
100
AcDbArc
 50
185.4403320310645
 51
270.0
  0
ARC
  5
C4
330
2
100
AcDbEntity
  8
GAIKEI
  6
Continuous
100
AcDbCircle
 10
12.61344307240188
 20
2.153150777790926
 30
0.0
 40
0.1
100
AcDbArc
 50
185.4403320310645
 51
270.0
  0
ARC
  5
C5
330
2
100
AcDbEntity
  8
GAIKEI
  6
Continuous
100
AcDbCircle
 10
14.43158570945206
 20
2.153150777790926
 30
0.0
 40
0.1
100
AcDbArc
 50
270.0
 51
354.5596679689355
  0
CIRCLE
  5
C6
330
2
100
AcDbEntity
  8
GAIKEI
  6
Continuous
 62
     1
100
AcDbCircle
 10
12.42252187991886
 20
9.403149738972132
 30
0.0
 40
0.25
  0
CIRCLE
  5
C7
330
2
100
AcDbEntity
  8
GAIKEI
  6
Continuous
 62
     1
100
AcDbCircle
 10
12.42252187991886
 20
5.403149738972132
 30
0.0
 40
0.25
  0
CIRCLE
  5
C8
330
2
100
AcDbEntity
  8
GAIKEI
  6
Continuous
 62
     1
100
AcDbCircle
 10
36.17302210451644
 20
4.823149738971949
 30
0.0
 40
0.4150000000000001
  0
CIRCLE
  5
C9
330
2
100
AcDbEntity
  8
GAIKEI
  6
Continuous
 62
     1
100
AcDbCircle
 10
15.02252210451638
 20
4.873150258381627
 30
0.0
 40
0.4150000000000001
  0
ARC
  5
CA
330
2
100
AcDbEntity
  8
GAIKEI
  6
Continuous
100
AcDbCircle
 10
28.46897267978727
 20
6.999295989197236
 30
0.0
 40
20.000000024105
100
AcDbArc
 50
178.8429655930786
 51
188.1813825436514
  0
ARC
  5
CB
330
2
100
AcDbEntity
  8
GAIKEI
  6
Continuous
100
AcDbCircle
 10
28.46897267978727
 20
6.999295989197236
 30
0.0
 40
20.000000024105
100
AcDbArc
 50
166.7750615100452
 51
178.8429655930786
  0
ARC
  5
CC
330
2
100
AcDbEntity
  8
GAIKEI
  6
Continuous
 62
     1
100
AcDbCircle
 10
8.541508334862157
 20
5.24212728838944
 30
0.0
 40
0.0500004716359
100
AcDbArc
 50
89.47483931916705
 51
168.5252884724347
  0
ARC
  5
CD
330
2
100
AcDbEntity
  8
GAIKEI
  6
Continuous
 62
     1
100
AcDbCircle
 10
8.606314566233095
 20
4.66304129885114
 30
0.0
 40
0.0499998658642
100
AcDbArc
 50
204.2460691628622
 51
276.3007271826805
  0
ARC
  5
CE
330
2
100
AcDbEntity
  8
GAIKEI
  6
Continuous
 62
     1
100
AcDbCircle
 10
44.65202066739979
 20
4.594649581502238
 30
0.0
 40
0.1
100
AcDbArc
 50
270.0
 51
0.0
  0
ARC
  5
CF
330
2
100
AcDbEntity
  8
GAIKEI
  6
Continuous
 62
     1
100
AcDbCircle
 10
43.78615567739276
 20
8.05242008742914
 30
0.0
 40
0.8568549215006999
100
AcDbArc
 50
339.2754553012838
 51
20.72454469870228
  0
ARC
  5
D0
330
2
100
AcDbEntity
  8
GAIKEI
  6
Continuous
 62
     1
100
AcDbCircle
 10
43.66203024747195
 20
10.25241996027344
 30
0.0
 40
1.0643235
100
AcDbArc
 50
339.9499699999951
 51
20.05006600000893
  0
ARC
  5
D1
330
2
100
AcDbEntity
  8
GAIKEI
  6
Continuous
 62
     1
100
AcDbCircle
 10
44.59922269747195
 20
9.910382507430028
 30
0.0
 40
0.066666669
100
AcDbArc
 50
275.0000100000015
 51
339.9498599999629
  0
ARC
  5
D2
330
2
100
AcDbEntity
  8
GAIKEI
  6
Continuous
 62
     1
100
AcDbCircle
 10
44.599222607472
 20
10.59445740743004
 30
0.0
 40
0.0666666690001
100
AcDbArc
 50
20.05001099999528
 51
85.00001470000588
  0
ARC
  5
D3
330
2
100
AcDbEntity
  8
GAIKEI
  6
Continuous
 62
     1
100
AcDbCircle
 10
44.843029601403
 20
4.920299361037933
 30
0.0
 40
0.030000001
100
AcDbArc
 50
275.7105929990392
 51
0.1448282327404581
  0
ARC
  5
D4
330
2
100
AcDbEntity
  8
GAIKEI
  6
Continuous
 62
     1
100
AcDbCircle
 10
44.843029601403
 20
7.286000116906336
 30
0.0
 40
0.0300000009999
100
AcDbArc
 50
0.0
 51
84.28940700095846
  0
ARC
  5
D5
330
2
100
AcDbEntity
  8
GAIKEI
  6
Continuous
 62
     1
100
AcDbCircle
 10
44.99302372091503
 20
5.580246115454741
 30
0.0
 40
0.1
100
AcDbArc
 50
271.2555262481158
 51
0.0
  0
ARC
  5
D6
330
2
100
AcDbEntity
  8
GAIKEI
  6
Continuous
 62
     1
100
AcDbCircle
 10
44.99302372091503
 20
6.62457611545463
 30
0.0
 40
0.100004026239
100
AcDbArc
 50
0.0
 51
88.7440264922429
  0
ARC
  5
D7
330
2
100
AcDbEntity
  8
GAIKEI
  6
Continuous
 62
     1
100
AcDbCircle
 10
44.52802961646452
 20
4.248198412695728
 30
0.0
 40
0.0550000000001
100
AcDbArc
 50
9.999999999780266
 51
179.9999999995701
  0
ARC
  5
D8
330
2
100
AcDbEntity
  8
GAIKEI
  6
Continuous
 62
     1
100
AcDbCircle
 10
44.52802961646452
 20
3.358101065248519
 30
0.0
 40
0.0550000000001
100
AcDbArc
 50
180.0000000004038
 51
350.0000000000081
  0
ARC
  5
D9
330
2
100
AcDbEntity
  8
GAIKEI
  6
Continuous
 62
     1
100
AcDbCircle
 10
41.87302210451636
 20
4.823149738972318
 30
0.0
 40
0.6000000000000001
100
AcDbArc
 50
270.0
 51
90.0
  0
ARC
  5
DA
330
2
100
AcDbEntity
  8
GAIKEI
  6
Continuous
 62
     1
100
AcDbCircle
 10
14.62252210451635
 20
4.823149738972318
 30
0.0
 40
0.6000000000000001
100
AcDbArc
 50
90.0
 51
270.0
  0
ARC
  5
DB
330
2
100
AcDbEntity
  8
GAIKEI
  6
Continuous
 62
     1
100
AcDbCircle
 10
41.87302210451636
 20
4.823149738972318
 30
0.0
 40
0.95
100
AcDbArc
 50
270.0
 51
90.0
  0
ARC
  5
DC
330
2
100
AcDbEntity
  8
GAIKEI
  6
Continuous
 62
     1
100
AcDbCircle
 10
14.62252210451635
 20
4.823149738972318
 30
0.0
 40
0.95
100
AcDbArc
 50
90.0
 51
270.0
  0
ARC
  5
DD
330
2
100
AcDbEntity
  8
GAIKEI
  6
Continuous
100
AcDbCircle
 10
28.46897286431374
 20
6.999294850371626
 30
0.0
 40
19.900000036709
100
AcDbArc
 50
188.5677301664117
 51
190.8998208173764
  0
ARC
  5
DE
330
2
100
AcDbEntity
  8
GAIKEI
  6
Continuous
100
AcDbCircle
 10
9.025414809132939
 20
3.259231803676044
 30
0.0
 40
0.1000000138103
100
AcDbArc
 50
193.5185765201169
 51
250.080212286361
  0
ARC
  5
DF
330
2
100
AcDbEntity
  8
GAIKEI
  6
Continuous
100
AcDbCircle
 10
9.22252235201978
 20
3.803149679950735
 30
0.0
 40
0.6785309460810001
100
AcDbArc
 50
250.0802495783324
 51
252.5343689344221
  0
ARC
  5
E0
330
2
100
AcDbEntity
  8
GAIKEI
  6
Continuous
 62
     1
100
AcDbCircle
 10
9.472522162830671
 20
5.053149870724041
 30
0.0
 40
1.000000022831899
100
AcDbArc
 50
168.5258815792334
 51
204.2451280376938
  0
ARC
  5
E1
330
2
100
AcDbEntity
  8
GAIKEI
  6
Continuous
 62
     1
100
AcDbCircle
 10
36.26302210451647
 20
4.913149738971924
 30
0.0
 40
0.045
100
AcDbArc
 50
180.0
 51
270.0
  0
ARC
  5
E2
330
2
100
AcDbEntity
  8
GAIKEI
  6
Continuous
 62
     1
100
AcDbCircle
 10
36.26302210451647
 20
4.733149738971832
 30
0.0
 40
0.0450000000001
100
AcDbArc
 50
90.0
 51
180.0
  0
ARC
  5
E3
330
2
100
AcDbEntity
  8
GAIKEI
  6
Continuous
 62
     1
100
AcDbCircle
 10
36.0830221045164
 20
4.733149738971832
 30
0.0
 40
0.045
100
AcDbArc
 50
0.0
 51
90.0
  0
ARC
  5
E4
330
2
100
AcDbEntity
  8
GAIKEI
  6
Continuous
 62
     1
100
AcDbCircle
 10
36.0830221045164
 20
4.913149738971924
 30
0.0
 40
0.0450000000001
100
AcDbArc
 50
270.0
 51
0.0
  0
ARC
  5
E5
330
2
100
AcDbEntity
  8
GAIKEI
  6
Continuous
 62
     1
100
AcDbCircle
 10
14.93252210451635
 20
4.963150258381631
 30
0.0
 40
0.0450000000001
100
AcDbArc
 50
270.0
 51
0.0
  0
ARC
  5
E6
330
2
100
AcDbEntity
  8
GAIKEI
  6
Continuous
 62
     1
100
AcDbCircle
 10
14.93252210451635
 20
4.783150258381539
 30
0.0
 40
0.045
100
AcDbArc
 50
0.0
 51
90.0
  0
ARC
  5
E7
330
2
100
AcDbEntity
  8
GAIKEI
  6
Continuous
 62
     1
100
AcDbCircle
 10
15.11252210451647
 20
4.783150258381539
 30
0.0
 40
0.0450000000001
100
AcDbArc
 50
90.0
 51
180.0
  0
ARC
  5
E8
330
2
100
AcDbEntity
  8
GAIKEI
  6
Continuous
 62
     1
100
AcDbCircle
 10
15.11252210451647
 20
4.963150258381631
 30
0.0
 40
0.045
100
AcDbArc
 50
180.0
 51
270.0
  0
LINE
  5
E9
330
2
100
AcDbEntity
  8
GAIKEI
  6
Continuous
 62
     1
100
AcDbLine
 10
8.842518700185962
 20
11.09703033599214
 30
0.0
 11
8.842518700185962
 21
10.84667238757472
 31
0.0
  0
LINE
  5
EA
330
2
100
AcDbEntity
  8
GAIKEI
  6
Continuous
 62
     1
100
AcDbLine
 10
8.483692484825951
 20
10.95314973897214
 30
0.0
 11
8.483692484825951
 21
10.70314973897214
 31
0.0
  0
LINE
  5
EB
330
2
100
AcDbEntity
  8
GAIKEI
  6
Continuous
 62
     1
100
AcDbLine
 10
8.483695962115973
 20
10.70314973897214
 30
0.0
 11
8.814928099485769
 21
10.70314973897214
 31
0.0
  0
LINE
  5
EC
330
2
100
AcDbEntity
  8
GAIKEI
  6
Continuous
 62
     1
100
AcDbLine
 10
8.483696928255938
 20
10.95314973897214
 30
0.0
 11
8.842518700185962
 21
10.95314973897214
 31
0.0
  0
LINE
  5
ED
330
2
100
AcDbEntity
  8
GAIKEI
  6
Continuous
 62
     1
100
AcDbLine
 10
8.893258792746053
 20
11.09703033599214
 30
0.0
 11
8.842518700185962
 21
11.09703033599214
 31
0.0
  0
LINE
  5
EE
330
2
100
AcDbEntity
  8
GAIKEI
  6
Continuous
 62
     1
100
AcDbLine
 10
44.75202066739981
 20
4.594649581502238
 30
0.0
 11
44.75202066739981
 21
4.688148581501934
 31
0.0
  0
LINE
  5
EF
330
2
100
AcDbEntity
  8
GAIKEI
  6
Continuous
 62
     1
100
AcDbLine
 10
44.47302210451638
 20
4.494649581502244
 30
0.0
 11
44.65202066739979
 21
4.494649581502244
 31
0.0
  0
LINE
  5
F0
330
2
100
AcDbEntity
  8
GAIKEI
  6
Continuous
 62
     1
100
AcDbLine
 10
44.47302961646468
 20
4.688148581501934
 30
0.0
 11
44.82702817934771
 21
4.688148581501934
 31
0.0
  0
LINE
  5
F1
330
2
100
AcDbEntity
  8
GAIKEI
  6
Continuous
 62
     1
100
AcDbLine
 10
44.82702817934771
 20
4.688148581501934
 30
0.0
 11
44.82702817934771
 21
4.888549604345115
 31
0.0
  0
LINE
  5
F2
330
2
100
AcDbEntity
  8
GAIKEI
  6
Continuous
 62
     1
100
AcDbLine
 10
44.58756567739269
 20
7.749200087428931
 30
0.0
 11
44.58756567739269
 21
8.355640087429236
 31
0.0
  0
LINE
  5
F3
330
2
100
AcDbEntity
  8
GAIKEI
  6
Continuous
 62
     1
100
AcDbLine
 10
44.58756567739269
 20
8.355640087429236
 30
0.0
 11
44.4730206774719
 21
8.36566862774174
 31
0.0
  0
LINE
  5
F4
330
2
100
AcDbEntity
  8
GAIKEI
  6
Continuous
 62
     1
100
AcDbLine
 10
44.58756567739269
 20
7.749200087428931
 30
0.0
 11
44.47302067747202
 21
7.739179315546522
 31
0.0
  0
LINE
  5
F5
330
2
100
AcDbEntity
  8
GAIKEI
  6
Continuous
 62
     1
100
AcDbLine
 10
44.47302961646457
 20
10.67241925793925
 30
0.0
 11
44.60503297747195
 21
10.66087049743004
 31
0.0
  0
LINE
  5
F6
330
2
100
AcDbEntity
  8
GAIKEI
  6
Continuous
 62
     1
100
AcDbLine
 10
44.47302961646457
 20
9.832420771967633
 30
0.0
 11
44.60503298747195
 21
9.843969577430044
 31
0.0
  0
LINE
  5
F7
330
2
100
AcDbEntity
  8
GAIKEI
  6
Continuous
 62
     1
100
AcDbLine
 10
44.77302961646453
 20
7.628149738972524
 30
0.0
 11
44.77302961646453
 21
7.323149731273247
 31
0.0
  0
LINE
  5
F8
330
2
100
AcDbEntity
  8
GAIKEI
  6
Continuous
 62
     1
100
AcDbLine
 10
44.6730296164645
 20
7.728149738972518
 30
0.0
 11
44.47302961646445
 21
7.728149738972518
 31
0.0
  0
LINE
  5
F9
330
2
100
AcDbEntity
  8
GAIKEI
  6
Continuous
 62
     1
100
AcDbLine
 10
44.84601474296582
 20
4.890448261194137
 30
0.0
 11
44.47302961646435
 21
4.853149738972149
 31
0.0
  0
LINE
  5
FA
330
2
100
AcDbEntity
  8
GAIKEI
  6
Continuous
 62
     1
100
AcDbLine
 10
44.47302961646435
 20
7.35314973897212
 30
0.0
 11
44.84601474296582
 21
7.315851216750132
 31
0.0
  0
LINE
  5
FB
330
2
100
AcDbEntity
  8
GAIKEI
  6
Continuous
 62
     1
100
AcDbLine
 10
44.87302950656178
 20
4.920375192845057
 30
0.0
 11
44.87302962140299
 21
7.286000115335639
 31
0.0
  0
LINE
  5
FC
330
2
100
AcDbEntity
  8
GAIKEI
  6
Continuous
 62
     1
100
AcDbLine
 10
44.87302953513093
 20
5.477600347976817
 30
0.0
 11
44.99521472091507
 21
5.480276115454529
 31
0.0
  0
LINE
  5
FD
330
2
100
AcDbEntity
  8
GAIKEI
  6
Continuous
 62
     1
100
AcDbLine
 10
44.99521572091507
 20
6.724556115454646
 30
0.0
 11
44.87302960056169
 21
6.727231894985521
 31
0.0
  0
LINE
  5
FE
330
2
100
AcDbEntity
  8
GAIKEI
  6
Continuous
 62
     1
100
AcDbLine
 10
45.09302372091505
 20
5.580246115454741
 30
0.0
 11
45.09302372091505
 21
6.62457611545463
 31
0.0
  0
LINE
  5
FF
330
2
100
AcDbEntity
  8
GAIKEI
  6
Continuous
 62
     1
100
AcDbLine
 10
44.58219404288032
 20
4.25774906246724
 30
0.0
 11
44.60063772577618
 21
4.153149738971336
 31
0.0
  0
LINE
  5
100
330
2
100
AcDbEntity
  8
GAIKEI
  6
Continuous
 62
     1
100
AcDbLine
 10
44.60063772577618
 20
4.153149738971336
 30
0.0
 11
44.78302961646451
 21
4.053149738971342
 31
0.0
  0
LINE
  5
101
330
2
100
AcDbEntity
  8
GAIKEI
  6
Continuous
 62
     1
100
AcDbLine
 10
44.78302961646463
 20
3.553149738971342
 30
0.0
 11
44.60063772577618
 21
3.453149738971347
 31
0.0
  0
LINE
  5
102
330
2
100
AcDbEntity
  8
GAIKEI
  6
Continuous
 62
     1
100
AcDbLine
 10
44.60063772577618
 20
3.45314973897095
 30
0.0
 11
44.60063772577618
 21
4.153149738971336
 31
0.0
  0
LINE
  5
103
330
2
100
AcDbEntity
  8
GAIKEI
  6
Continuous
 62
     1
100
AcDbLine
 10
44.78302961646451
 20
4.053149738971342
 30
0.0
 11
44.78302961646463
 21
3.553149738971342
 31
0.0
  0
LINE
  5
104
330
2
100
AcDbEntity
  8
GAIKEI
  6
Continuous
 62
     1
100
AcDbLine
 10
44.60063772577618
 20
3.453149738972825
 30
0.0
 11
44.58219404288032
 21
3.348550415476836
 31
0.0
  0
LINE
  5
105
330
2
100
AcDbEntity
  8
GAIKEI
  6
Continuous
100
AcDbLine
 10
40.87301439092661
 20
3.103150777790943
 30
0.0
 11
40.78163525671103
 21
2.143669868528036
 31
0.0
  0
LINE
  5
106
330
2
100
AcDbEntity
  8
GAIKEI
  6
Continuous
100
AcDbLine
 10
38.76439352514203
 20
2.143669868528036
 30
0.0
 11
38.67301439092657
 21
3.103150777790943
 31
0.0
  0
LINE
  5
107
330
2
100
AcDbEntity
  8
GAIKEI
  6
Continuous
100
AcDbLine
 10
40.68208570945168
 20
2.053150777790932
 30
0.0
 11
38.8639430724015
 21
2.053150777790932
 31
0.0
  0
LINE
  5
108
330
2
100
AcDbEntity
  8
GAIKEI
  6
Continuous
100
AcDbLine
 10
14.43158570945206
 20
2.053150777790932
 30
0.0
 11
12.61344307240188
 21
2.053150777790932
 31
0.0
  0
LINE
  5
109
330
2
100
AcDbEntity
  8
GAIKEI
  6
Continuous
100
AcDbLine
 10
12.51389352514235
 20
2.143669868528036
 30
0.0
 11
12.42251439092695
 21
3.103150777790943
 31
0.0
  0
LINE
  5
10A
330
2
100
AcDbEntity
  8
GAIKEI
  6
Continuous
100
AcDbLine
 10
14.62251439092699
 20
3.103150777790943
 30
0.0
 11
14.53113525671148
 21
2.143669868528036
 31
0.0
  0
LINE
  5
10B
330
2
100
AcDbEntity
  8
GAIKEI
  6
Continuous
100
AcDbLine
 10
12.37251439092699
 20
3.103150777790943
 30
0.0
 11
14.67251439092695
 21
3.103150777790943
 31
0.0
  0
LINE
  5
10C
330
2
100
AcDbEntity
  8
GAIKEI
  6
Continuous
 62
     1
100
AcDbLine
 10
14.6225221045164
 20
5.423149738972341
 30
0.0
 11
41.87302210451636
 21
5.423149738972341
 31
0.0
  0
LINE
  5
10D
330
2
100
AcDbEntity
  8
GAIKEI
  6
Continuous
 62
     1
100
AcDbLine
 10
14.6225221045164
 20
4.223149738972324
 30
0.0
 11
41.87302210451636
 21
4.223149738972324
 31
0.0
  0
LINE
  5
10E
330
2
100
AcDbEntity
  8
GAIKEI
  6
Continuous
100
AcDbLine
 10
44.47302245826605
 20
3.303015521989635
 30
0.0
 11
44.47302212900328
 21
11.53315079536713
 31
0.0
  0
LINE
  5
10F
330
2
100
AcDbEntity
  8
GAIKEI
  6
Continuous
100
AcDbLine
 10
44.14302245720804
 20
3.303015521989635
 30
0.0
 11
44.14302246294491
 21
3.103150777790943
 31
0.0
  0
LINE
  5
110
330
2
100
AcDbEntity
  8
GAIKEI
  6
Continuous
 62
     1
100
AcDbLine
 10
11.54251870018595
 20
3.103150777790943
 30
0.0
 11
11.54251870018595
 21
11.80314973897214
 31
0.0
  0
LINE
  5
111
330
2
100
AcDbEntity
  8
GAIKEI
  6
Continuous
100
AcDbLine
 10
44.14302247002294
 20
3.103150777790943
 30
0.0
 11
11.54251870018595
 21
3.103150777790943
 31
0.0
  0
LINE
  5
112
330
2
100
AcDbEntity
  8
GAIKEI
  6
Continuous
100
AcDbLine
 10
44.47302210451638
 20
3.303015521989635
 30
0.0
 11
44.39302245720805
 21
3.303015521989635
 31
0.0
  0
LINE
  5
113
330
2
100
AcDbEntity
  8
GAIKEI
  6
Continuous
100
AcDbLine
 10
44.47302210451638
 20
11.75314921956283
 30
0.0
 11
44.47302210451638
 21
3.303015521989635
 31
0.0
  0
LINE
  5
114
330
2
100
AcDbEntity
  8
GAIKEI
  6
Continuous
100
AcDbLine
 10
11.54251870018595
 20
11.75314921956283
 30
0.0
 11
44.47302210451638
 21
11.75314921956283
 31
0.0
  0
LINE
  5
115
330
2
100
AcDbEntity
  8
GAIKEI
  6
Continuous
100
AcDbLine
 10
44.14302245720804
 20
3.303015521989635
 30
0.0
 11
44.39302245720805
 21
3.303015521989635
 31
0.0
  0
LINE
  5
116
330
2
100
AcDbEntity
  8
GAIKEI
  6
Continuous
 62
     1
100
AcDbLine
 10
14.6225221045164
 20
3.87314973897233
 30
0.0
 11
41.87302210451636
 21
3.87314973897233
 31
0.0
  0
LINE
  5
117
330
2
100
AcDbEntity
  8
GAIKEI
  6
Continuous
 62
     1
100
AcDbLine
 10
14.6225221045164
 20
5.773149738972335
 30
0.0
 11
41.87302210451636
 21
5.773149738972335
 31
0.0
  0
LINE
  5
118
330
2
100
AcDbEntity
  8
GAIKEI
  6
Continuous
100
AcDbLine
 10
11.5225221775753
 20
3.003149738972126
 30
0.0
 11
11.5225221775753
 21
11.80314973897214
 31
0.0
  0
LINE
  5
119
330
2
100
AcDbEntity
  8
GAIKEI
  6
Continuous
100
AcDbLine
 10
11.5225221775753
 20
11.80314973897214
 30
0.0
 11
9.122124777575265
 21
11.67736893897213
 31
0.0
  0
LINE
  5
11A
330
2
100
AcDbEntity
  8
GAIKEI
  6
Continuous
100
AcDbLine
 10
9.122124777575265
 20
11.67736893897213
 30
0.0
 11
8.999384277575245
 21
11.57478813897214
 31
0.0
  0
LINE
  5
11B
330
2
100
AcDbEntity
  8
GAIKEI
  6
Continuous
100
AcDbLine
 10
8.9279826775753
 20
3.236356638972125
 30
0.0
 11
9.046754877575267
 21
3.132926038972101
 31
0.0
  0
LINE
  5
11C
330
2
100
AcDbEntity
  8
GAIKEI
  6
Continuous
100
AcDbLine
 10
8.79104797757526
 20
4.034623938972146
 30
0.0
 11
8.672522177575274
 21
4.153149738972132
 31
0.0
  0
LINE
  5
11D
330
2
100
AcDbEntity
  8
GAIKEI
  6
Continuous
 62
     1
100
AcDbLine
 10
8.302522177575269
 20
9.363149738972111
 30
0.0
 11
8.202522177575247
 21
9.263149738972117
 31
0.0
  0
LINE
  5
11E
330
2
100
AcDbEntity
  8
GAIKEI
  6
Continuous
 62
     1
100
AcDbLine
 10
8.609159277575258
 20
9.363149738972111
 30
0.0
 11
8.302522177575269
 21
9.363149738972111
 31
0.0
  0
LINE
  5
11F
330
2
100
AcDbEntity
  8
GAIKEI
  6
Continuous
 62
     1
100
AcDbLine
 10
8.202522177575247
 20
9.263149738972117
 30
0.0
 11
8.202522177575247
 21
7.743149738972107
 31
0.0
  0
LINE
  5
120
330
2
100
AcDbEntity
  8
GAIKEI
  6
Continuous
 62
     1
100
AcDbLine
 10
8.302522177575269
 20
9.363149738972111
 30
0.0
 11
8.302522177575269
 21
7.643149738972113
 31
0.0
  0
LINE
  5
121
330
2
100
AcDbEntity
  8
GAIKEI
  6
Continuous
 62
     1
100
AcDbLine
 10
8.302522177575269
 20
7.643149738972113
 30
0.0
 11
8.202522177575247
 21
7.743149738972107
 31
0.0
  0
LINE
  5
122
330
2
100
AcDbEntity
  8
GAIKEI
  6
Continuous
 62
     1
100
AcDbLine
 10
8.479501777575251
 20
7.643149738972113
 30
0.0
 11
8.302522177575269
 21
7.643149738972113
 31
0.0
  0
LINE
  5
123
330
2
100
AcDbEntity
  8
GAIKEI
  6
Continuous
100
AcDbLine
 10
9.046754877575267
 20
3.132926038972101
 30
0.0
 11
11.5225221775753
 21
3.003149738972126
 31
0.0
  0
LINE
  5
124
330
2
100
AcDbEntity
  8
GAIKEI
  6
Continuous
 62
     1
100
AcDbLine
 10
36.38302210451636
 20
4.778149738971848
 30
0.0
 11
36.38302210451636
 21
4.868149738971936
 31
0.0
  0
LINE
  5
125
330
2
100
AcDbEntity
  8
GAIKEI
  6
Continuous
 62
     1
100
AcDbLine
 10
36.12802210451636
 20
4.913149738971924
 30
0.0
 11
36.12802210451636
 21
5.033149738971843
 31
0.0
  0
LINE
  5
126
330
2
100
AcDbEntity
  8
GAIKEI
  6
Continuous
 62
     1
100
AcDbLine
 10
36.21802210451639
 20
4.613149738971941
 30
0.0
 11
36.12802210451636
 21
4.613149738971941
 31
0.0
  0
LINE
  5
127
330
2
100
AcDbEntity
  8
GAIKEI
  6
Continuous
 62
     1
100
AcDbLine
 10
35.96302210451651
 20
4.778149738971848
 30
0.0
 11
35.96302210451651
 21
4.868149738971936
 31
0.0
  0
LINE
  5
128
330
2
100
AcDbEntity
  8
GAIKEI
  6
Continuous
 62
     1
100
AcDbLine
 10
36.0830221045164
 20
4.778149738971848
 30
0.0
 11
35.96302210451651
 21
4.778149738971848
 31
0.0
  0
LINE
  5
129
330
2
100
AcDbEntity
  8
GAIKEI
  6
Continuous
 62
     1
100
AcDbLine
 10
36.21802210451639
 20
4.913149738971924
 30
0.0
 11
36.21802210451639
 21
5.033149738971843
 31
0.0
  0
LINE
  5
12A
330
2
100
AcDbEntity
  8
GAIKEI
  6
Continuous
 62
     1
100
AcDbLine
 10
36.38302210451636
 20
4.778149738971848
 30
0.0
 11
36.26302210451647
 21
4.778149738971848
 31
0.0
  0
LINE
  5
12B
330
2
100
AcDbEntity
  8
GAIKEI
  6
Continuous
 62
     1
100
AcDbLine
 10
36.12802210451636
 20
4.613149738971941
 30
0.0
 11
36.12802210451636
 21
4.733149738971832
 31
0.0
  0
LINE
  5
12C
330
2
100
AcDbEntity
  8
GAIKEI
  6
Continuous
 62
     1
100
AcDbLine
 10
36.21802210451639
 20
4.613149738971941
 30
0.0
 11
36.21802210451639
 21
4.733149738971832
 31
0.0
  0
LINE
  5
12D
330
2
100
AcDbEntity
  8
GAIKEI
  6
Continuous
 62
     1
100
AcDbLine
 10
36.0830221045164
 20
4.868149738971936
 30
0.0
 11
35.96302210451651
 21
4.868149738971936
 31
0.0
  0
LINE
  5
12E
330
2
100
AcDbEntity
  8
GAIKEI
  6
Continuous
 62
     1
100
AcDbLine
 10
36.38302210451636
 20
4.868149738971936
 30
0.0
 11
36.26302210451647
 21
4.868149738971936
 31
0.0
  0
LINE
  5
12F
330
2
100
AcDbEntity
  8
GAIKEI
  6
Continuous
 62
     1
100
AcDbLine
 10
36.21802210451639
 20
5.033149738971843
 30
0.0
 11
36.12802210451636
 21
5.033149738971843
 31
0.0
  0
LINE
  5
130
330
2
100
AcDbEntity
  8
GAIKEI
  6
Continuous
 62
     1
100
AcDbLine
 10
15.06752210451634
 20
5.08315025838155
 30
0.0
 11
14.97752210451636
 21
5.08315025838155
 31
0.0
  0
LINE
  5
131
330
2
100
AcDbEntity
  8
GAIKEI
  6
Continuous
 62
     1
100
AcDbLine
 10
15.23252210451636
 20
4.918150258381643
 30
0.0
 11
15.11252210451647
 21
4.918150258381643
 31
0.0
  0
LINE
  5
132
330
2
100
AcDbEntity
  8
GAIKEI
  6
Continuous
 62
     1
100
AcDbLine
 10
14.93252210451635
 20
4.918150258381643
 30
0.0
 11
14.81252210451646
 21
4.918150258381643
 31
0.0
  0
LINE
  5
133
330
2
100
AcDbEntity
  8
GAIKEI
  6
Continuous
 62
     1
100
AcDbLine
 10
15.06752210451634
 20
4.66315025838162
 30
0.0
 11
15.06752210451634
 21
4.783150258381539
 31
0.0
  0
LINE
  5
134
330
2
100
AcDbEntity
  8
GAIKEI
  6
Continuous
 62
     1
100
AcDbLine
 10
14.97752210451636
 20
4.66315025838162
 30
0.0
 11
14.97752210451636
 21
4.783150258381539
 31
0.0
  0
LINE
  5
135
330
2
100
AcDbEntity
  8
GAIKEI
  6
Continuous
 62
     1
100
AcDbLine
 10
15.23252210451636
 20
4.828150258381555
 30
0.0
 11
15.11252210451647
 21
4.828150258381555
 31
0.0
  0
LINE
  5
136
330
2
100
AcDbEntity
  8
GAIKEI
  6
Continuous
 62
     1
100
AcDbLine
 10
15.06752210451634
 20
4.963150258381631
 30
0.0
 11
15.06752210451634
 21
5.08315025838155
 31
0.0
  0
LINE
  5
137
330
2
100
AcDbEntity
  8
GAIKEI
  6
Continuous
 62
     1
100
AcDbLine
 10
14.93252210451635
 20
4.828150258381555
 30
0.0
 11
14.81252210451646
 21
4.828150258381555
 31
0.0
  0
LINE
  5
138
330
2
100
AcDbEntity
  8
GAIKEI
  6
Continuous
 62
     1
100
AcDbLine
 10
14.81252210451646
 20
4.828150258381555
 30
0.0
 11
14.81252210451646
 21
4.918150258381643
 31
0.0
  0
LINE
  5
139
330
2
100
AcDbEntity
  8
GAIKEI
  6
Continuous
 62
     1
100
AcDbLine
 10
15.06752210451634
 20
4.66315025838162
 30
0.0
 11
14.97752210451636
 21
4.66315025838162
 31
0.0
  0
LINE
  5
13A
330
2
100
AcDbEntity
  8
GAIKEI
  6
Continuous
 62
     1
100
AcDbLine
 10
14.97752210451636
 20
4.963150258381631
 30
0.0
 11
14.97752210451636
 21
5.08315025838155
 31
0.0
  0
LINE
  5
13B
330
2
100
AcDbEntity
  8
GAIKEI
  6
Continuous
 62
     1
100
AcDbLine
 10
15.23252210451636
 20
4.828150258381555
 30
0.0
 11
15.23252210451636
 21
4.918150258381643
 31
0.0
  0
ELLIPSE
  5
13C
330
2
100
AcDbEntity
  8
GAIKEI
 62
     1
100
AcDbEllipse
 10
-37.81631458780885
 20
4.952701113920738
 30
0.0
 11
0.3112110494995425
 21
-0.0000065264352938
 31
0.0
210
0.0
220
0.0
230
1.0
 40
0.325348134743159
 41
0.0
 42
6.283185307179586
  0
ELLIPSE
  5
13D
330
2
100
AcDbEntity
  8
GAIKEI
 62
     1
100
AcDbEllipse
 10
-37.81631458780885
 20
4.952701113920738
 30
0.0
 11
0.4561906021630291
 21
-0.0000065767890367
 31
0.0
210
0.0
220
0.0
230
1.0
 40
0.3277961039776104
 41
0.0
 42
6.283185307179586
  0
ELLIPSE
  5
13E
330
2
100
AcDbEntity
  8
GAIKEI
 62
     1
100
AcDbEllipse
 10
-36.11631458780886
 20
4.952701113920738
 30
0.0
 11
0.4561906021630291
 21
-0.0000065767890367
 31
0.0
210
0.0
220
0.0
230
1.0
 40
0.3277961039776104
 41
0.0
 42
6.283185307179586
  0
ELLIPSE
  5
13F
330
2
100
AcDbEntity
  8
GAIKEI
 62
     1
100
AcDbEllipse
 10
-36.11631458780886
 20
4.952701113920738
 30
0.0
 11
0.3112110494995425
 21
-0.0000065264352938
 31
0.0
210
0.0
220
0.0
230
1.0
 40
0.325348134743159
 41
0.0
 42
6.283185307179586
  0
ELLIPSE
  5
140
330
2
100
AcDbEntity
  8
GAIKEI
 62
     1
100
AcDbEllipse
 10
-36.11631458780886
 20
6.052701113920733
 30
0.0
 11
0.3112110494995425
 21
-0.0000065264352938
 31
0.0
210
0.0
220
0.0
230
1.0
 40
0.325348134743159
 41
0.0
 42
6.283185307179586
  0
ELLIPSE
  5
141
330
2
100
AcDbEntity
  8
GAIKEI
 62
     1
100
AcDbEllipse
 10
-36.11631458780886
 20
6.052701113920733
 30
0.0
 11
0.4561906021630291
 21
-0.0000065767890367
 31
0.0
210
0.0
220
0.0
230
1.0
 40
0.3277961039776104
 41
0.0
 42
6.283185307179586
  0
ELLIPSE
  5
142
330
2
100
AcDbEntity
  8
GAIKEI
 62
     1
100
AcDbEllipse
 10
-37.81631458780885
 20
6.052701113920733
 30
0.0
 11
0.4561906021630291
 21
-0.0000065767890367
 31
0.0
210
0.0
220
0.0
230
1.0
 40
0.3277961039776104
 41
0.0
 42
6.283185307179586
  0
ELLIPSE
  5
143
330
2
100
AcDbEntity
  8
GAIKEI
 62
     1
100
AcDbEllipse
 10
-37.81631458780885
 20
6.052701113920733
 30
0.0
 11
0.3112110494995425
 21
-0.0000065264352938
 31
0.0
210
0.0
220
0.0
230
1.0
 40
0.325348134743159
 41
0.0
 42
6.283185307179586
  0
ELLIPSE
  5
144
330
2
100
AcDbEntity
  8
GAIKEI
 62
     1
100
AcDbEllipse
 10
-36.11631458780886
 20
7.152701113920727
 30
0.0
 11
0.3112110494995425
 21
-0.0000065264352938
 31
0.0
210
0.0
220
0.0
230
1.0
 40
0.325348134743159
 41
0.0
 42
6.283185307179586
  0
ELLIPSE
  5
145
330
2
100
AcDbEntity
  8
GAIKEI
 62
     1
100
AcDbEllipse
 10
-36.11631458780886
 20
7.152701113920727
 30
0.0
 11
0.4561906021630291
 21
-0.0000065767890367
 31
0.0
210
0.0
220
0.0
230
1.0
 40
0.3277961039776104
 41
0.0
 42
6.283185307179586
  0
ELLIPSE
  5
146
330
2
100
AcDbEntity
  8
GAIKEI
 62
     1
100
AcDbEllipse
 10
-37.81631458780885
 20
7.152701113920727
 30
0.0
 11
0.4561906021630291
 21
-0.0000065767890367
 31
0.0
210
0.0
220
0.0
230
1.0
 40
0.3277961039776104
 41
0.0
 42
6.283185307179586
  0
ELLIPSE
  5
147
330
2
100
AcDbEntity
  8
GAIKEI
 62
     1
100
AcDbEllipse
 10
-37.81631458780885
 20
7.152701113920727
 30
0.0
 11
0.3112110494995425
 21
-0.0000065264352938
 31
0.0
210
0.0
220
0.0
230
1.0
 40
0.325348134743159
 41
0.0
 42
6.283185307179586
  0
ELLIPSE
  5
148
330
2
100
AcDbEntity
  8
GAIKEI
 62
     1
100
AcDbEllipse
 10
-36.11631458780886
 20
8.25270111392075
 30
0.0
 11
0.3112110494995425
 21
-0.0000065264352938
 31
0.0
210
0.0
220
0.0
230
1.0
 40
0.325348134743159
 41
0.0
 42
6.283185307179586
  0
ELLIPSE
  5
149
330
2
100
AcDbEntity
  8
GAIKEI
 62
     1
100
AcDbEllipse
 10
-36.11631458780886
 20
8.25270111392075
 30
0.0
 11
0.4561906021630291
 21
-0.0000065767890367
 31
0.0
210
0.0
220
0.0
230
1.0
 40
0.3277961039776104
 41
0.0
 42
6.283185307179586
  0
ELLIPSE
  5
14A
330
2
100
AcDbEntity
  8
GAIKEI
 62
     1
100
AcDbEllipse
 10
-37.81631458780885
 20
8.25270111392075
 30
0.0
 11
0.4561906021630291
 21
-0.0000065767890367
 31
0.0
210
0.0
220
0.0
230
1.0
 40
0.3277961039776104
 41
0.0
 42
6.283185307179586
  0
ELLIPSE
  5
14B
330
2
100
AcDbEntity
  8
GAIKEI
 62
     1
100
AcDbEllipse
 10
-37.81631458780885
 20
8.25270111392075
 30
0.0
 11
0.3112110494995425
 21
-0.0000065264352938
 31
0.0
210
0.0
220
0.0
230
1.0
 40
0.325348134743159
 41
0.0
 42
6.283185307179586
  0
ELLIPSE
  5
14C
330
2
100
AcDbEntity
  8
GAIKEI
 62
     1
100
AcDbEllipse
 10
-36.11631458780886
 20
9.352701113920744
 30
0.0
 11
0.3112110494995425
 21
-0.0000065264352938
 31
0.0
210
0.0
220
0.0
230
1.0
 40
0.325348134743159
 41
0.0
 42
6.283185307179586
  0
ELLIPSE
  5
14D
330
2
100
AcDbEntity
  8
GAIKEI
 62
     1
100
AcDbEllipse
 10
-36.11631458780886
 20
9.352701113920744
 30
0.0
 11
0.4561906021630291
 21
-0.0000065767890367
 31
0.0
210
0.0
220
0.0
230
1.0
 40
0.3277961039776104
 41
0.0
 42
6.283185307179586
  0
ELLIPSE
  5
14E
330
2
100
AcDbEntity
  8
GAIKEI
 62
     1
100
AcDbEllipse
 10
-37.81631458780885
 20
9.352701113920744
 30
0.0
 11
0.4561906021630291
 21
-0.0000065767890367
 31
0.0
210
0.0
220
0.0
230
1.0
 40
0.3277961039776104
 41
0.0
 42
6.283185307179586
  0
ELLIPSE
  5
14F
330
2
100
AcDbEntity
  8
GAIKEI
 62
     1
100
AcDbEllipse
 10
-37.81631458780885
 20
9.352701113920744
 30
0.0
 11
0.3112110494995425
 21
-0.0000065264352938
 31
0.0
210
0.0
220
0.0
230
1.0
 40
0.325348134743159
 41
0.0
 42
6.283185307179586
  0
LINE
  5
150
330
2
100
AcDbEntity
  8
GAIKEI
 62
     1
100
AcDbLine
 10
-18.4218692090912
 20
10.95315077779094
 30
0.0
 11
-18.46800397418121
 21
10.70315077779094
 31
0.0
  0
LINE
  5
151
330
2
100
AcDbEntity
  8
GAIKEI
 62
     1
100
AcDbLine
 10
-17.9846663085612
 20
3.132927045760936
 30
0.0
 11
-17.97573682725118
 21
4.03462497890095
 31
0.0
  0
LINE
  5
152
330
2
100
AcDbEntity
  8
GAIKEI
 62
     1
100
AcDbLine
 10
-17.98125272910442
 20
11.67736995408094
 30
0.0
 11
-17.97159781515114
 21
4.153150777790926
 31
0.0
  0
LINE
  5
153
330
2
100
AcDbEntity
  8
GAIKEI
 62
     1
100
AcDbLine
 10
-17.72928046380451
 20
6.905236572270951
 30
0.0
 11
-17.71904204088702
 21
4.206974381240939
 31
0.0
  0
LINE
  5
154
330
2
100
AcDbEntity
  8
GAIKEI
 62
     1
100
AcDbLine
 10
-15.0137938922378
 20
6.905236572270951
 30
0.0
 11
-15.02403231515541
 21
4.206974381240939
 31
0.0
  0
LINE
  5
155
330
2
100
AcDbEntity
  8
GAIKEI
 62
     1
100
AcDbLine
 10
-15.13590844853121
 20
5.012106399390916
 30
0.0
 11
-15.13590844853121
 21
4.315883159890944
 31
0.0
  0
DIMENSION
  5
156
330
2
100
AcDbEntity
  8
SUNPO
100
AcDbDimension
  2
*D6
 10
-14.31629640009117
 20
19.78977379530985
 30
0.0
 11
-27.81629640009118
 21
21.53977379530986
 31
0.0
 70
    33
  1
270
 71
     5
 42
27.0
  3
STANDARD
100
AcDbAlignedDimension
 13
-41.31629640009117
 23
11.78977379530985
 33
0.0
 14
-14.31629640009117
 24
11.78977379530985
 34
0.0
1001
ACAD
1000
DSTYLE
1002
{
1070
    40
1040
1.0
1070
   140
1040
2.5
1070
   147
1040
0.5
1070
   172
1070
     1
1070
   279
1070
     0
1070
   288
1070
     0
1002
}
  0
DIMENSION
  5
165
330
2
100
AcDbEntity
  8
SUNPO
100
AcDbDimension
  2
*D5
 10
-6.320089331586544
 20
3.003150777790947
 30
0.0
 11
-8.070089331586544
 21
7.403150777790938
 31
0.0
 70
    33
  1
88
 71
     5
 42
8.799999999999982
  3
STANDARD
100
AcDbAlignedDimension
 13
-14.32008933158654
 23
11.80315077779093
 33
0.0
 14
-14.32008933158654
 24
3.003150777790949
 34
0.0
1001
ACAD
1000
DSTYLE
1002
{
1070
    40
1040
1.0
1070
   140
1040
2.5
1070
   147
1040
0.5
1070
   172
1070
     1
1070
   279
1070
     0
1070
   288
1070
     0
1002
}
  0
DIMENSION
  5
172
330
2
100
AcDbEntity
  8
SUNPO
100
AcDbDimension
  2
*D4
 10
44.47302210451638
 20
19.8183447048327
 30
0.0
 11
26.47303631109899
 21
21.5683447048327
 31
0.0
 70
    33
  1
360
 71
     5
 42
35.99997158683479
  3
STANDARD
100
AcDbAlignedDimension
 13
8.473050517681599
 23
11.81834470483269
 33
0.0
 14
44.47302210451638
 24
11.81834470483269
 34
0.0
1001
ACAD
1000
DSTYLE
1002
{
1070
    40
1040
1.0
1070
   140
1040
2.5
1070
   147
1040
0.5
1070
   172
1070
     1
1070
   279
1070
     0
1070
   288
1070
     0
1002
}
  0
TEXT
  5
17F
330
2
100
AcDbEntity
  8
MOJI1
100
AcDbText
 10
-20.27398612524848
 20
-54.36126130271668
 30
0.0
 40
3.0
  1
スケジュール録画、イベント録画
100
AcDbText
  0
TEXT
  5
180
330
2
100
AcDbEntity
  8
MOJI1
100
AcDbText
 10
-60.27398612524848
 20
-29.36126130271669
 30
0.0
 40
3.0
  1
電　源
100
AcDbText
  0
TEXT
  5
181
330
2
100
AcDbEntity
  8
MOJI1
100
AcDbText
 10
-20.27398612524848
 20
-29.36126130271669
 30
0.0
 40
3.0
  1
ＡＣ１００Ｖ、５０ Ｈｚ／６０ Ｈｚ
 41
0.95
100
AcDbText
  0
LINE
  5
182
330
2
100
AcDbEntity
  8
WAKU
 62
     1
100
AcDbLine
 10
-62.77398612524848
 20
-40.36126130271668
 30
0.0
 11
62.2260138747514
 21
-40.36126130271668
 31
0.0
  0
LINE
  5
184
330
2
100
AcDbEntity
  8
WAKU
 62
     1
100
AcDbLine
 10
-62.77398612524848
 20
-45.36126130271668
 30
0.0
 11
62.2260138747514
 21
-45.36126130271668
 31
0.0
  0
LINE
  5
185
330
2
100
AcDbEntity
  8
WAKU
 62
     1
100
AcDbLine
 10
-62.77398612524848
 20
-50.36126130271668
 30
0.0
 11
62.2260138747514
 21
-50.36126130271668
 31
0.0
  0
LINE
  5
186
330
2
100
AcDbEntity
  8
WAKU
 62
     1
100
AcDbLine
 10
-62.77398612524848
 20
-55.36126130271668
 30
0.0
 11
62.2260138747514
 21
-55.36126130271668
 31
0.0
  0
LINE
  5
187
330
2
100
AcDbEntity
  8
WAKU
 62
     4
100
AcDbLine
 10
-62.77398612524848
 20
-25.36126130271668
 30
0.0
 11
62.2260138747514
 21
-25.36126130271668
 31
0.0
  0
LINE
  5
188
330
2
100
AcDbEntity
  8
WAKU
 62
     1
100
AcDbLine
 10
-62.77398612524848
 20
-30.36126130271668
 30
0.0
 11
62.2260138747514
 21
-30.36126130271668
 31
0.0
  0
LINE
  5
189
330
2
100
AcDbEntity
  8
WAKU
 62
     1
100
AcDbLine
 10
-62.77398612524848
 20
-35.36126130271668
 30
0.0
 11
62.2260138747514
 21
-35.36126130271668
 31
0.0
  0
TEXT
  5
18A
330
2
100
AcDbEntity
  8
MOJI1
100
AcDbText
 10
-20.27398612524848
 20
-34.36126130271669
 30
0.0
 40
3.0
  1
最大１６台（ネットワーク経由)
 41
0.9
100
AcDbText
  0
TEXT
  5
18B
330
2
100
AcDbEntity
  8
MOJI1
100
AcDbText
 10
-60.27398612524848
 20
-34.36126130271669
 30
0.0
 40
3.0
  1
カメラ入力
100
AcDbText
  0
TEXT
  5
18C
330
2
100
AcDbEntity
  8
MOJI1
100
AcDbText
 10
-60.27398612524848
 20
-39.36126130271669
 30
0.0
 40
3.0
  1
ＨＤＤ機能
100
AcDbText
  0
TEXT
  5
18D
330
2
100
AcDbEntity
  8
MOJI1
100
AcDbText
 10
-20.27398612524848
 20
-39.36126130271669
 30
0.0
 40
3.0
  1
２．５インチ リムーバブルＨＤＤ×最大２台搭載可能
 41
0.9
100
AcDbText
  0
TEXT
  5
18E
330
2
100
AcDbEntity
  8
MOJI1
100
AcDbText
 10
-20.27398612524848
 20
-44.36126130271668
 30
0.0
 40
3.0
  1
１０ＢＡＳＥ－Ｔ／１００ＢＡＳＥ－ＴＸ（ＲＪ４５）
 41
0.9
100
AcDbText
  0
TEXT
  5
18F
330
2
100
AcDbEntity
  8
MOJI1
100
AcDbText
 10
-60.27398612524848
 20
-44.36126130271668
 30
0.0
 40
3.0
  1
ネットワークポート
100
AcDbText
  0
TEXT
  5
190
330
2
100
AcDbEntity
  8
MOJI1
100
AcDbText
 10
-60.27398612524848
 20
-49.36126130271668
 30
0.0
 40
3.0
  1
機　能
100
AcDbText
  0
TEXT
  5
191
330
2
100
AcDbEntity
  8
MOJI1
100
AcDbText
 10
-20.27398612524848
 20
-49.36126130271668
 30
0.0
 40
3.0
  1
同時録画、再生可能、ＭＰＥＧ－４／ＪＰＥＧ録画
 41
0.85
100
AcDbText
  0
LINE
  5
192
330
2
100
AcDbEntity
  8
WAKU
 62
     4
100
AcDbLine
 10
62.2260138747514
 20
-25.36126130271668
 30
0.0
 11
62.2260138747514
 21
-60.36126130271668
 31
0.0
  0
LINE
  5
193
330
2
100
AcDbEntity
  8
WAKU
 62
     4
100
AcDbLine
 10
-22.77398612524848
 20
-25.36126130271668
 30
0.0
 11
-22.77398612524848
 21
-60.36126130271668
 31
0.0
  0
LINE
  5
194
330
2
100
AcDbEntity
  8
WAKU
 62
     4
100
AcDbLine
 10
-62.77398612524848
 20
-25.36126130271668
 30
0.0
 11
-62.77398612524848
 21
-60.36126130271668
 31
0.0
  0
LINE
  5
195
330
2
100
AcDbEntity
  8
WAKU
 62
     4
100
AcDbLine
 10
62.2260138747514
 20
-60.36126130271668
 30
0.0
 11
-62.77398612524848
 21
-60.36126130271668
 31
0.0
  0
ENDSEC
  0
SECTION
  2
OBJECTS
  0
DICTIONARY
  5
9
330
0
100
AcDbDictionary
281
     1
  3
ACAD_COLOR
350
31
  3
ACAD_GROUP
350
2D
  3
ACAD_LAYOUT
350
D
  3
ACAD_MATERIAL
350
30
  3
ACAD_MLINESTYLE
350
2E
  3
ACAD_PLOTSETTINGS
350
2F
  3
ACAD_PLOTSTYLENAME
350
8
  3
ACDBHEADERROUNDTRIPXREC
350
1D2
  3
AcDbVariableDictionary
350
1CD
  0
DICTIONARY
  5
15
330
14
100
AcDbDictionary
280
     1
281
     1
  3
ACAD_LAYERFILTERS
360
16
  3
ACAD_LAYERSTATES
360
17
  0
DICTIONARY
  5
3
330
2
100
AcDbDictionary
280
     1
281
     1
  3
ACAD_LAYOUTSELFREF
360
4
  0
DICTIONARY
  5
F
330
E
100
AcDbDictionary
280
     1
281
     1
  3
ACAD_LAYOUTSELFREF
360
10
  0
DICTIONARY
  5
31
102
{ACAD_REACTORS
330
9
102
}
330
9
100
AcDbDictionary
281
     1
  0
DICTIONARY
  5
2D
102
{ACAD_REACTORS
330
9
102
}
330
9
100
AcDbDictionary
281
     1
  0
DICTIONARY
  5
D
102
{ACAD_REACTORS
330
9
102
}
330
9
100
AcDbDictionary
281
     1
  3
Model
350
C
  3
ﾚｲｱｳﾄ1
350
13
  0
DICTIONARY
  5
30
102
{ACAD_REACTORS
330
9
102
}
330
9
100
AcDbDictionary
281
     1
  0
DICTIONARY
  5
2E
102
{ACAD_REACTORS
330
9
102
}
330
9
100
AcDbDictionary
281
     1
  3
STANDARD
350
33
  0
DICTIONARY
  5
2F
102
{ACAD_REACTORS
330
9
102
}
330
9
100
AcDbDictionary
281
     1
  0
ACDBDICTIONARYWDFLT
  5
8
102
{ACAD_REACTORS
330
9
102
}
330
9
100
AcDbDictionary
281
     1
  3
Normal
350
7
100
AcDbDictionaryWithDefault
340
7
  0
DICTIONARY
  5
1D2
102
{ACAD_REACTORS
330
9
102
}
330
9
100
AcDbDictionary
281
     1
  3
COLORDICT
350
1D4
  3
MATERIALDICT
350
1D3
  0
DICTIONARY
  5
1CD
102
{ACAD_REACTORS
330
9
102
}
330
9
100
AcDbDictionary
281
     1
  3
DIMASSOC
350
1CF
  3
HIDETEXT
350
1CE
  3
PROJECTNAME
350
1D0
  0
DICTIONARY
  5
16
102
{ACAD_REACTORS
330
15
102
}
330
15
100
AcDbDictionary
280
     1
281
     1
  0
DICTIONARY
  5
17
102
{ACAD_REACTORS
330
15
102
}
330
15
100
AcDbDictionary
281
     1
  0
XRECORD
  5
4
102
{ACAD_REACTORS
330
3
102
}
330
3
100
AcDbXrecord
280
     1
340
2
  0
XRECORD
  5
10
102
{ACAD_REACTORS
330
F
102
}
330
F
100
AcDbXrecord
280
     1
340
E
  0
LAYOUT
  5
C
102
{ACAD_XDICTIONARY
360
1D5
102
}
102
{ACAD_REACTORS
330
D
102
}
330
D
100
AcDbPlotSettings
  1

  2
8FPAM09-A4.pc3
  4
A4
  6

 40
4.349750041961669
 41
4.222751140594482
 42
4.3497314453125
 43
4.180419921875
 44
297.0106506347656
 45
210.0156707763672
 46
0.0
 47
6.07
 48
0.0
 49
0.0
140
0.0
141
0.0
142
1.0
143
1.367708310374901
 70
 11956
 72
     1
 73
     1
 74
     1
  7
tmsacad.ctb
 75
     0
147
0.7311500503538586
148
0.5559478779000529
149
0.1116542191393819
100
AcDbLayout
  1
Model
 70
     1
 71
     0
 10
0.0
 20
0.0
 11
12.0
 21
9.0
 12
0.0
 22
0.0
 32
0.0
 14
0.0
 24
0.0
 34
0.0
 15
0.0
 25
0.0
 35
0.0
146
0.0
 13
0.0
 23
0.0
 33
0.0
 16
1.0
 26
0.0
 36
0.0
 17
0.0
 27
1.0
 37
0.0
 76
     0
330
2
  0
LAYOUT
  5
13
102
{ACAD_XDICTIONARY
360
1D7
102
}
102
{ACAD_REACTORS
330
D
102
}
330
D
100
AcDbPlotSettings
  1

  2
C:\Program Files\ACAD2000\plotters\DWF ePlot.pc3
  4

  6

 40
0.0
 41
0.0
 42
0.0
 43
0.0
 44
0.0
 45
0.0
 46
0.0
 47
0.0
 48
0.0
 49
0.0
140
0.0
141
0.0
142
1.0
143
1.0
 70
   688
 72
     0
 73
     0
 74
     5
  7
tmsacad.ctb
 75
    16
147
1.0
148
0.0
149
0.0
100
AcDbLayout
  1
ﾚｲｱｳﾄ1
 70
     1
 71
     1
 10
0.0
 20
0.0
 11
12.0
 21
9.0
 12
0.0
 22
0.0
 32
0.0
 14
1.000000000000000E+20
 24
1.000000000000000E+20
 34
1.000000000000000E+20
 15
-1.000000000000000E+20
 25
-1.000000000000000E+20
 35
-1.000000000000000E+20
146
0.0
 13
0.0
 23
0.0
 33
0.0
 16
1.0
 26
0.0
 36
0.0
 17
0.0
 27
1.0
 37
0.0
 76
     0
330
E
  0
MLINESTYLE
  5
33
102
{ACAD_REACTORS
330
2E
102
}
330
2E
100
AcDbMlineStyle
  2
STANDARD
 70
     0
  3

 62
   256
 51
90.0
 52
90.0
 71
     2
 49
0.5
 62
   256
  6
BYLAYER
 49
-0.5
 62
   256
  6
BYLAYER
  0
ACDBPLACEHOLDER
  5
7
102
{ACAD_REACTORS
330
8
102
}
330
8
  0
XRECORD
  5
1D4
102
{ACAD_REACTORS
330
1D2
102
}
330
1D2
100
AcDbXrecord
280
     1
340
31
  0
XRECORD
  5
1D3
102
{ACAD_REACTORS
330
1D2
102
}
330
1D2
100
AcDbXrecord
280
     1
340
30
  0
DICTIONARYVAR
  5
1CF
102
{ACAD_REACTORS
330
1CD
102
}
330
1CD
100
DictionaryVariables
280
     0
  1
1
  0
DICTIONARYVAR
  5
1CE
102
{ACAD_REACTORS
330
1CD
102
}
330
1CD
100
DictionaryVariables
280
     0
  1
1
  0
DICTIONARYVAR
  5
1D0
102
{ACAD_REACTORS
330
1CD
102
}
330
1CD
100
DictionaryVariables
280
     0
  1

  0
DICTIONARY
  5
1D5
330
C
100
AcDbDictionary
280
     1
281
     1
  3
ACAD_XREC_ROUNDTRIP
360
1D6
  0
DICTIONARY
  5
1D7
330
13
100
AcDbDictionary
280
     1
281
     1
  3
ACAD_XREC_ROUNDTRIP
360
1D8
  0
XRECORD
  5
1D6
102
{ACAD_REACTORS
330
1D5
102
}
330
1D5
100
AcDbXrecord
280
     1
102
SHADEPLOT
 70
     0
102
SHADEPLOTRESLEVEL
 70
     2
102
SHADEPLOTCUSTOMDPI
 70
   300
  0
XRECORD
  5
1D8
102
{ACAD_REACTORS
330
1D7
102
}
330
1D7
100
AcDbXrecord
280
     1
102
SHADEPLOT
 70
     0
102
SHADEPLOTRESLEVEL
 70
     2
102
SHADEPLOTCUSTOMDPI
 70
   300
  0
ENDSEC
  0
EOF
