  0
SECTION
  2
HEADER
  9
$ACADVER
  1
AC1015
  9
$ACADMAINTVER
 70
    20
  9
$DWGCODEPAGE
  3
ANSI_932
  9
$INSBASE
 10
0.0
 20
246.4992141396417
 30
0.0
  9
$EXTMIN
 10
-56.87464214461352
 20
-57.66190788704989
 30
-0.0015258207003583
  9
$EXTMAX
 10
68.20586682535122
 20
55.46917402857616
 30
0.0000000349246037
  9
$LIMMIN
 10
-1101.784450318844
 20
-1579.160531687244
  9
$LIMMAX
 10
-508.2420711400536
 20
-1161.440814074914
  9
$ORTHOMODE
 70
     0
  9
$REGENMODE
 70
     1
  9
$FILLMODE
 70
     1
  9
$QTEXTMODE
 70
     0
  9
$MIRRTEXT
 70
     1
  9
$LTSCALE
 40
1.0
  9
$ATTMODE
 70
     1
  9
$TEXTSIZE
 40
3.0
  9
$TRACEWID
 40
0.5
  9
$TEXTSTYLE
  7
STANDARD
  9
$CLAYER
  8
MOJI1
  9
$CELTYPE
  6
BYLAYER
  9
$CECOLOR
 62
   256
  9
$CELTSCALE
 40
1.0
  9
$DISPSILH
 70
     0
  9
$DIMSCALE
 40
1.0
  9
$DIMASZ
 40
2.0
  9
$DIMEXO
 40
2.0
  9
$DIMDLI
 40
8.0
  9
$DIMRND
 40
0.0
  9
$DIMDLE
 40
0.0
  9
$DIMEXE
 40
2.0
  9
$DIMTP
 40
0.0
  9
$DIMTM
 40
0.0
  9
$DIMTXT
 40
2.5
  9
$DIMCEN
 40
0.0
  9
$DIMTSZ
 40
0.0
  9
$DIMTOL
 70
     0
  9
$DIMLIM
 70
     0
  9
$DIMTIH
 70
     0
  9
$DIMTOH
 70
     0
  9
$DIMSE1
 70
     0
  9
$DIMSE2
 70
     0
  9
$DIMTAD
 70
     3
  9
$DIMZIN
 70
     0
  9
$DIMBLK
  1

  9
$DIMASO
 70
     1
  9
$DIMSHO
 70
     1
  9
$DIMPOST
  1

  9
$DIMAPOST
  1

  9
$DIMALT
 70
     0
  9
$DIMALTD
 70
     2
  9
$DIMALTF
 40
25.4
  9
$DIMLFAC
 40
1.0
  9
$DIMTOFL
 70
     1
  9
$DIMTVP
 40
0.0
  9
$DIMTIX
 70
     0
  9
$DIMSOXD
 70
     0
  9
$DIMSAH
 70
     1
  9
$DIMBLK1
  1
OPEN30
  9
$DIMBLK2
  1
OPEN30
  9
$DIMSTYLE
  2
STANDARD
  9
$DIMCLRD
 70
     0
  9
$DIMCLRE
 70
     0
  9
$DIMCLRT
 70
     0
  9
$DIMTFAC
 40
1.0
  9
$DIMGAP
 40
0.5
  9
$DIMJUST
 70
     0
  9
$DIMSD1
 70
     0
  9
$DIMSD2
 70
     0
  9
$DIMTOLJ
 70
     1
  9
$DIMTZIN
 70
     0
  9
$DIMALTZ
 70
     0
  9
$DIMALTTZ
 70
     0
  9
$DIMUPT
 70
     0
  9
$DIMDEC
 70
     4
  9
$DIMTDEC
 70
     4
  9
$DIMALTU
 70
     2
  9
$DIMALTTD
 70
     2
  9
$DIMTXSTY
  7
STANDARD
  9
$DIMAUNIT
 70
     0
  9
$DIMADEC
 70
     0
  9
$DIMALTRND
 40
0.0
  9
$DIMAZIN
 70
     0
  9
$DIMDSEP
 70
    46
  9
$DIMATFIT
 70
     3
  9
$DIMFRAC
 70
     0
  9
$DIMLDRBLK
  1
OPEN30
  9
$DIMLUNIT
 70
     2
  9
$DIMLWD
 70
    -2
  9
$DIMLWE
 70
    -2
  9
$DIMTMOVE
 70
     0
  9
$LUNITS
 70
     2
  9
$LUPREC
 70
     4
  9
$SKETCHINC
 40
0.1
  9
$FILLETRAD
 40
0.0
  9
$AUNITS
 70
     0
  9
$AUPREC
 70
     0
  9
$MENU
  1
ACAD
  9
$ELEVATION
 40
0.0
  9
$PELEVATION
 40
0.0
  9
$THICKNESS
 40
0.0
  9
$LIMCHECK
 70
     0
  9
$CHAMFERA
 40
0.0
  9
$CHAMFERB
 40
0.0
  9
$CHAMFERC
 40
0.0
  9
$CHAMFERD
 40
0.0
  9
$SKPOLY
 70
     0
  9
$TDCREATE
 40
2451815.565532581
  9
$TDUCREATE
 40
2451815.190532581
  9
$TDUPDATE
 40
2454256.725484120
  9
$TDUUPDATE
 40
2454256.350484120
  9
$TDINDWG
 40
0.7604267361
  9
$TDUSRTIMER
 40
0.7604267361
  9
$USRTIMER
 70
     1
  9
$ANGBASE
 50
0.0
  9
$ANGDIR
 70
     0
  9
$PDMODE
 70
     0
  9
$PDSIZE
 40
0.0
  9
$PLINEWID
 40
0.0
  9
$SPLFRAME
 70
     0
  9
$SPLINETYPE
 70
     6
  9
$SPLINESEGS
 70
     8
  9
$HANDSEED
  5
4D4
  9
$SURFTAB1
 70
     6
  9
$SURFTAB2
 70
     6
  9
$SURFTYPE
 70
     6
  9
$SURFU
 70
     6
  9
$SURFV
 70
     6
  9
$UCSBASE
  2

  9
$UCSNAME
  2

  9
$UCSORG
 10
0.0
 20
0.0
 30
0.0
  9
$UCSXDIR
 10
1.0
 20
0.0
 30
0.0
  9
$UCSYDIR
 10
0.0
 20
1.0
 30
0.0
  9
$UCSORTHOREF
  2

  9
$UCSORTHOVIEW
 70
     0
  9
$UCSORGTOP
 10
0.0
 20
0.0
 30
0.0
  9
$UCSORGBOTTOM
 10
0.0
 20
0.0
 30
0.0
  9
$UCSORGLEFT
 10
0.0
 20
0.0
 30
0.0
  9
$UCSORGRIGHT
 10
0.0
 20
0.0
 30
0.0
  9
$UCSORGFRONT
 10
0.0
 20
0.0
 30
0.0
  9
$UCSORGBACK
 10
0.0
 20
0.0
 30
0.0
  9
$PUCSBASE
  2

  9
$PUCSNAME
  2

  9
$PUCSORG
 10
0.0
 20
0.0
 30
0.0
  9
$PUCSXDIR
 10
1.0
 20
0.0
 30
0.0
  9
$PUCSYDIR
 10
0.0
 20
1.0
 30
0.0
  9
$PUCSORTHOREF
  2

  9
$PUCSORTHOVIEW
 70
     0
  9
$PUCSORGTOP
 10
0.0
 20
0.0
 30
0.0
  9
$PUCSORGBOTTOM
 10
0.0
 20
0.0
 30
0.0
  9
$PUCSORGLEFT
 10
0.0
 20
0.0
 30
0.0
  9
$PUCSORGRIGHT
 10
0.0
 20
0.0
 30
0.0
  9
$PUCSORGFRONT
 10
0.0
 20
0.0
 30
0.0
  9
$PUCSORGBACK
 10
0.0
 20
0.0
 30
0.0
  9
$USERI1
 70
     0
  9
$USERI2
 70
     0
  9
$USERI3
 70
     0
  9
$USERI4
 70
     0
  9
$USERI5
 70
     0
  9
$USERR1
 40
0.0
  9
$USERR2
 40
0.0
  9
$USERR3
 40
0.0
  9
$USERR4
 40
0.0
  9
$USERR5
 40
0.0
  9
$WORLDVIEW
 70
     1
  9
$SHADEDGE
 70
     3
  9
$SHADEDIF
 70
    70
  9
$TILEMODE
 70
     1
  9
$MAXACTVP
 70
    48
  9
$PINSBASE
 10
0.0
 20
0.0
 30
0.0
  9
$PLIMCHECK
 70
     0
  9
$PEXTMIN
 10
1.000000000000000E+20
 20
1.000000000000000E+20
 30
1.000000000000000E+20
  9
$PEXTMAX
 10
-1.000000000000000E+20
 20
-1.000000000000000E+20
 30
-1.000000000000000E+20
  9
$PLIMMIN
 10
0.0
 20
0.0
  9
$PLIMMAX
 10
12.0
 20
9.0
  9
$UNITMODE
 70
     0
  9
$VISRETAIN
 70
     1
  9
$PLINEGEN
 70
     0
  9
$PSLTSCALE
 70
     1
  9
$TREEDEPTH
 70
  3020
  9
$CMLSTYLE
  2
STANDARD
  9
$CMLJUST
 70
     0
  9
$CMLSCALE
 40
1.0
  9
$PROXYGRAPHICS
 70
     1
  9
$MEASUREMENT
 70
     0
  9
$CELWEIGHT
370
    -1
  9
$ENDCAPS
280
     0
  9
$JOINSTYLE
280
     0
  9
$LWDISPLAY
290
     0
  9
$INSUNITS
 70
     0
  9
$HYPERLINKBASE
  1

  9
$STYLESHEET
  1

  9
$XEDIT
290
     1
  9
$CEPSNTYPE
380
     0
  9
$PSTYLEMODE
290
     1
  9
$FINGERPRINTGUID
  2
{1754B7AB-9B3C-11D4-AD9E-00104B1004F2}
  9
$VERSIONGUID
  2
{FFE31531-EDB7-4AB2-9832-CAB77FE373BE}
  9
$EXTNAMES
290
     1
  9
$PSVPSCALE
 40
0.0
  9
$OLESTARTUP
290
     0
  0
ENDSEC
  0
SECTION
  2
CLASSES
  0
CLASS
  1
ACDBDICTIONARYWDFLT
  2
AcDbDictionaryWithDefault
  3
ObjectDBX Classes
 90
        0
280
     0
281
     0
  0
CLASS
  1
ACDBPLACEHOLDER
  2
AcDbPlaceHolder
  3
ObjectDBX Classes
 90
        0
280
     0
281
     0
  0
CLASS
  1
LAYOUT
  2
AcDbLayout
  3
ObjectDBX Classes
 90
        0
280
     0
281
     0
  0
CLASS
  1
DICTIONARYVAR
  2
AcDbDictionaryVar
  3
ObjectDBX Classes
 90
        0
280
     0
281
     0
  0
ENDSEC
  0
SECTION
  2
TABLES
  0
TABLE
  2
VPORT
  5
20
330
0
100
AcDbSymbolTable
 70
     3
  0
VPORT
  5
4CC
330
20
100
AcDbSymbolTableRecord
100
AcDbViewportTableRecord
  2
*Active
 70
     0
 10
0.0
 20
0.0
 11
1.0
 21
1.0
 12
5.665612340368838
 22
-1.096366929236864
 13
0.0
 23
0.0
 14
1.0
 24
1.0
 15
0.0
 25
0.0
 16
0.0
 26
0.0
 36
1.0
 17
0.0
 27
0.0
 37
0.0
 40
114.0035581257722
 41
1.407979407979407
 42
50.0
 43
0.0
 44
0.0
 50
0.0
 51
0.0
 71
     0
 72
 10000
 73
     1
 74
     0
 75
     0
 76
     1
 77
     0
 78
     0
281
     0
 65
     1
110
0.0
120
0.0
130
0.0
111
1.0
121
0.0
131
0.0
112
0.0
122
1.0
132
0.0
 79
     0
146
0.0
  0
ENDTAB
  0
TABLE
  2
LTYPE
  5
1B
330
0
100
AcDbSymbolTable
 70
     4
  0
LTYPE
  5
1C
330
1B
100
AcDbSymbolTableRecord
100
AcDbLinetypeTableRecord
  2
BYBLOCK
 70
     0
  3

 72
    65
 73
     0
 40
0.0
  0
LTYPE
  5
1D
330
1B
100
AcDbSymbolTableRecord
100
AcDbLinetypeTableRecord
  2
BYLAYER
 70
     0
  3

 72
    65
 73
     0
 40
0.0
  0
LTYPE
  5
A
330
1B
100
AcDbSymbolTableRecord
100
AcDbLinetypeTableRecord
  2
CONTINUOUS
 70
     0
  3
Solid line
 72
    65
 73
     0
 40
0.0
  0
LTYPE
  5
A7
330
1B
100
AcDbSymbolTableRecord
100
AcDbLinetypeTableRecord
  2
Phantom
 70
     0
  3
Phantom
 72
    65
 73
     6
 40
45.0
 49
40.0
 74
     0
 49
-1.0
 74
     0
 49
1.0
 74
     0
 49
-1.0
 74
     0
 49
1.0
 74
     0
 49
-1.0
 74
     0
  0
LTYPE
  5
D5
330
1B
100
AcDbSymbolTableRecord
100
AcDbLinetypeTableRecord
  2
S10
 70
     0
  3
- - - - - - - - - 1,-1,1,-1
 72
    65
 73
     4
 40
4.0
 49
1.0
 74
     0
 49
-1.0
 74
     0
 49
1.0
 74
     0
 49
-1.0
 74
     0
  0
LTYPE
  5
D3
330
1B
100
AcDbSymbolTableRecord
100
AcDbLinetypeTableRecord
  2
HIDDEN2
 70
     0
  3
Hidden (.5x) _ _ _ _ _ _ _ _ _ _ _ _ _ _ _ _ _
 72
    65
 73
     2
 40
1.399999999999999
 49
0.7
 74
     0
 49
-0.7
 74
     0
  0
ENDTAB
  0
TABLE
  2
LAYER
  5
14
102
{ACAD_XDICTIONARY
360
15
102
}
330
0
100
AcDbSymbolTable
 70
     7
  0
LAYER
  5
6
330
14
100
AcDbSymbolTableRecord
100
AcDbLayerTableRecord
  2
0
 70
     0
 62
     7
  6
CONTINUOUS
370
    -3
390
7
  0
LAYER
  5
BD
330
14
100
AcDbSymbolTableRecord
100
AcDbLayerTableRecord
  2
DEFPOINTS
 70
     0
 62
     7
  6
CONTINUOUS
290
     0
370
    -3
390
7
  0
LAYER
  5
479
330
14
100
AcDbSymbolTableRecord
100
AcDbLayerTableRecord
  2
WAKU
 70
     0
 62
     4
  6
CONTINUOUS
370
    -3
390
7
  0
LAYER
  5
2B
330
14
100
AcDbSymbolTableRecord
100
AcDbLayerTableRecord
  2
MOJI1
 70
     0
 62
     2
  6
CONTINUOUS
370
    -3
390
7
  0
LAYER
  5
38
330
14
100
AcDbSymbolTableRecord
100
AcDbLayerTableRecord
  2
GAIKEI
 70
     0
 62
     7
  6
CONTINUOUS
370
    -3
390
7
  0
LAYER
  5
36
330
14
100
AcDbSymbolTableRecord
100
AcDbLayerTableRecord
  2
TOUROKU
 70
     0
 62
     1
  6
CONTINUOUS
370
    -3
390
7
  0
LAYER
  5
B3
330
14
100
AcDbSymbolTableRecord
100
AcDbLayerTableRecord
  2
SUNPO
 70
     0
 62
     3
  6
CONTINUOUS
370
    -3
390
7
  0
ENDTAB
  0
TABLE
  2
STYLE
  5
18
330
0
100
AcDbSymbolTable
 70
     1
  0
STYLE
  5
19
330
18
100
AcDbSymbolTableRecord
100
AcDbTextStyleTableRecord
  2
STANDARD
 70
     0
 40
0.0
 41
1.0
 50
0.0
 71
     0
 42
3.0
  3
MONOTXT.shx
  4
BIGFONT.shx
  0
ENDTAB
  0
TABLE
  2
VIEW
  5
1E
330
0
100
AcDbSymbolTable
 70
     0
  0
ENDTAB
  0
TABLE
  2
UCS
  5
1F
330
0
100
AcDbSymbolTable
 70
     0
  0
ENDTAB
  0
TABLE
  2
APPID
  5
22
330
0
100
AcDbSymbolTable
 70
     1
  0
APPID
  5
23
330
22
100
AcDbSymbolTableRecord
100
AcDbRegAppTableRecord
  2
ACAD
 70
     0
  0
ENDTAB
  0
TABLE
  2
DIMSTYLE
  5
24
330
0
100
AcDbSymbolTable
 70
     1
100
AcDbDimStyleTable
 71
     0
  0
DIMSTYLE
105
33
102
{ACAD_REACTORS
330
B2
330
45F
330
452
102
}
330
24
100
AcDbSymbolTableRecord
100
AcDbDimStyleTableRecord
  2
STANDARD
 70
     0
 40
0.0
 41
2.0
 42
2.0
 43
8.0
 44
2.0
 73
     0
 74
     0
 77
     3
140
3.0
141
0.0
173
     1
279
     2
288
     1
340
19
341
2C
343
2C
344
2C
  0
ENDTAB
  0
TABLE
  2
BLOCK_RECORD
  5
1
330
0
100
AcDbSymbolTable
 70
     7
  0
BLOCK_RECORD
  5
2
102
{ACAD_XDICTIONARY
360
3
102
}
330
1
100
AcDbSymbolTableRecord
100
AcDbBlockTableRecord
  2
*MODEL_SPACE
340
C
  0
BLOCK_RECORD
  5
E
102
{ACAD_XDICTIONARY
360
F
102
}
330
1
100
AcDbSymbolTableRecord
100
AcDbBlockTableRecord
  2
*PAPER_SPACE
340
13
  0
BLOCK_RECORD
  5
2C
330
1
100
AcDbSymbolTableRecord
100
AcDbBlockTableRecord
  2
_OPEN30
340
0
102
{BLKREFS
331
B9
331
BA
331
465
331
466
331
458
331
459
331
4A8
331
4A9
331
4B4
331
4B5
331
4C0
331
4C1
102
}
  0
BLOCK_RECORD
  5
B4
330
1
100
AcDbSymbolTableRecord
100
AcDbBlockTableRecord
  2
*D1
340
0
  0
BLOCK_RECORD
  5
460
330
1
100
AcDbSymbolTableRecord
100
AcDbBlockTableRecord
  2
*D2
340
0
  0
BLOCK_RECORD
  5
453
330
1
100
AcDbSymbolTableRecord
100
AcDbBlockTableRecord
  2
*D3
340
0
  0
BLOCK_RECORD
  5
4A4
330
1
100
AcDbSymbolTableRecord
100
AcDbBlockTableRecord
  2
*D4
340
0
  0
BLOCK_RECORD
  5
4B0
330
1
100
AcDbSymbolTableRecord
100
AcDbBlockTableRecord
  2
*D5
340
0
  0
BLOCK_RECORD
  5
4BC
330
1
100
AcDbSymbolTableRecord
100
AcDbBlockTableRecord
  2
*D6
340
0
  0
ENDTAB
  0
ENDSEC
  0
SECTION
  2
BLOCKS
  0
BLOCK
  5
5
330
2
100
AcDbEntity
  8
0
100
AcDbBlockBegin
  2
*MODEL_SPACE
 70
     0
 10
0.0
 20
0.0
 30
0.0
  3
*MODEL_SPACE
  1

  0
ENDBLK
  5
B
330
2
100
AcDbEntity
  8
0
100
AcDbBlockEnd
  0
BLOCK
  5
11
330
E
100
AcDbEntity
 67
     1
  8
0
100
AcDbBlockBegin
  2
*PAPER_SPACE
 70
     0
 10
0.0
 20
0.0
 30
0.0
  3
*PAPER_SPACE
  1

  0
ENDBLK
  5
12
330
E
100
AcDbEntity
 67
     1
  8
0
100
AcDbBlockEnd
  0
BLOCK
  5
2D
330
2C
100
AcDbEntity
  8
0
100
AcDbBlockBegin
  2
_OPEN30
 70
     0
 10
0.0
 20
0.0
 30
0.0
  3
_OPEN30
  1

  0
LINE
  5
2E
330
2C
100
AcDbEntity
  8
0
  6
ByBlock
 62
     0
100
AcDbLine
 10
-1.0
 20
0.26794919
 30
0.0
 11
0.0
 21
0.0
 31
0.0
  0
LINE
  5
2F
330
2C
100
AcDbEntity
  8
0
  6
ByBlock
 62
     0
100
AcDbLine
 10
0.0
 20
0.0
 30
0.0
 11
-1.0
 21
-0.26794919
 31
0.0
  0
LINE
  5
30
330
2C
100
AcDbEntity
  8
0
  6
ByBlock
 62
     0
100
AcDbLine
 10
0.0
 20
0.0
 30
0.0
 11
-1.0
 21
0.0
 31
0.0
  0
ENDBLK
  5
31
330
2C
100
AcDbEntity
  8
0
100
AcDbBlockEnd
  0
BLOCK
  5
B5
330
B4
100
AcDbEntity
  8
0
100
AcDbBlockBegin
  2
*D1
 70
     1
 10
0.0
 20
0.0
 30
0.0
  3
*D1
  1

  0
LINE
  5
B6
330
B4
100
AcDbEntity
  8
SUNPO
 62
     0
370
    -2
100
AcDbLine
 10
83.92280887094818
 20
205.5384986688184
 30
0.0
 11
83.92280887094818
 21
213.5384986688184
 31
0.0
  0
LINE
  5
B7
330
B4
100
AcDbEntity
  8
SUNPO
 62
     0
370
    -2
100
AcDbLine
 10
118.9228088709482
 20
205.5384986688184
 30
0.0
 11
118.9228088709482
 21
213.5384986688184
 31
0.0
  0
LINE
  5
B8
330
B4
100
AcDbEntity
  8
SUNPO
 62
     0
370
    -2
100
AcDbLine
 10
85.92280887094819
 20
211.5384986688184
 30
0.0
 11
116.9228088709482
 21
211.5384986688184
 31
0.0
  0
INSERT
  5
B9
330
B4
100
AcDbEntity
  8
SUNPO
 62
     0
370
    -2
100
AcDbBlockReference
  2
_OPEN30
 10
83.92280887094818
 20
211.5384986688184
 30
0.0
 41
2.0
 42
2.0
 43
2.0
 50
180.0
  0
INSERT
  5
BA
330
B4
100
AcDbEntity
  8
SUNPO
 62
     0
370
    -2
100
AcDbBlockReference
  2
_OPEN30
 10
118.9228088709482
 20
211.5384986688184
 30
0.0
 41
2.0
 42
2.0
 43
2.0
  0
MTEXT
  5
BB
330
B4
100
AcDbEntity
  8
SUNPO
 62
     0
100
AcDbMText
 10
101.4228088709482
 20
213.2884986688184
 30
0.0
 40
2.5
 41
0.0
 71
     5
 72
     1
  1
\A1;350
 73
     1
 44
1.0
1001
ACAD
1000
MTEXTBEGIN
1070
    73
1070
     1
1070
    44
1040
1.0
1070
    74
1070
     0
1000
MTEXTEND
  0
POINT
  5
BC
330
B4
100
AcDbEntity
  8
DEFPOINTS
 62
     0
100
AcDbPoint
 10
83.92280887094818
 20
203.5384986688184
 30
0.0
  0
POINT
  5
BE
330
B4
100
AcDbEntity
  8
DEFPOINTS
 62
     0
100
AcDbPoint
 10
118.9228088709482
 20
203.5384986688184
 30
0.0
  0
POINT
  5
BF
330
B4
100
AcDbEntity
  8
DEFPOINTS
 62
     0
100
AcDbPoint
 10
118.9228088709482
 20
211.5384986688184
 30
0.0
  0
ENDBLK
  5
C0
330
B4
100
AcDbEntity
  8
0
100
AcDbBlockEnd
  0
BLOCK
  5
461
330
460
100
AcDbEntity
  8
0
100
AcDbBlockBegin
  2
*D2
 70
     1
 10
0.0
 20
0.0
 30
0.0
  3
*D2
  1

  0
LINE
  5
462
330
460
100
AcDbEntity
  8
SUNPO
 62
     0
370
    -2
100
AcDbLine
 10
14.4802321801535
 20
205.5517160505942
 30
0.0
 11
14.4802321801535
 21
213.5517160505942
 31
0.0
  0
LINE
  5
463
330
460
100
AcDbEntity
  8
SUNPO
 62
     0
370
    -2
100
AcDbLine
 10
56.4802321801535
 20
205.5517160505942
 30
0.0
 11
56.4802321801535
 21
213.5517160505942
 31
0.0
  0
LINE
  5
464
330
460
100
AcDbEntity
  8
SUNPO
 62
     0
370
    -2
100
AcDbLine
 10
16.48023218015351
 20
211.5517160505942
 30
0.0
 11
54.4802321801535
 21
211.5517160505942
 31
0.0
  0
INSERT
  5
465
330
460
100
AcDbEntity
  8
SUNPO
 62
     0
370
    -2
100
AcDbBlockReference
  2
_OPEN30
 10
14.4802321801535
 20
211.5517160505942
 30
0.0
 41
2.0
 42
2.0
 43
2.0
 50
180.0
  0
INSERT
  5
466
330
460
100
AcDbEntity
  8
SUNPO
 62
     0
370
    -2
100
AcDbBlockReference
  2
_OPEN30
 10
56.4802321801535
 20
211.5517160505942
 30
0.0
 41
2.0
 42
2.0
 43
2.0
  0
MTEXT
  5
467
330
460
100
AcDbEntity
  8
SUNPO
 62
     0
100
AcDbMText
 10
35.48023218015351
 20
213.3017160505942
 30
0.0
 40
2.5
 41
0.0
 71
     5
 72
     1
  1
\A1;420
 73
     1
 44
1.0
1001
ACAD
1000
MTEXTBEGIN
1070
    73
1070
     1
1070
    44
1040
1.0
1070
    74
1070
     0
1000
MTEXTEND
  0
POINT
  5
468
330
460
100
AcDbEntity
  8
DEFPOINTS
 62
     0
100
AcDbPoint
 10
14.4802321801535
 20
203.5517160505942
 30
0.0
  0
POINT
  5
469
330
460
100
AcDbEntity
  8
DEFPOINTS
 62
     0
100
AcDbPoint
 10
56.4802321801535
 20
203.5517160505942
 30
0.0
  0
POINT
  5
46A
330
460
100
AcDbEntity
  8
DEFPOINTS
 62
     0
100
AcDbPoint
 10
56.4802321801535
 20
211.5517160505942
 30
0.0
  0
ENDBLK
  5
46B
330
460
100
AcDbEntity
  8
0
100
AcDbBlockEnd
  0
BLOCK
  5
454
330
453
100
AcDbEntity
  8
0
100
AcDbBlockBegin
  2
*D3
 70
     1
 10
0.0
 20
0.0
 30
0.0
  3
*D3
  1

  0
LINE
  5
455
330
453
100
AcDbEntity
  8
SUNPO
 62
     0
370
    -2
100
AcDbLine
 10
61.4802321801535
 20
203.5517160505942
 30
0.0
 11
69.4802321801535
 21
203.5517160505942
 31
0.0
  0
LINE
  5
456
330
453
100
AcDbEntity
  8
SUNPO
 62
     0
370
    -2
100
AcDbLine
 10
61.4802321801535
 20
194.7517160505942
 30
0.0
 11
69.4802321801535
 21
194.7517160505942
 31
0.0
  0
LINE
  5
457
330
453
100
AcDbEntity
  8
SUNPO
 62
     0
370
    -2
100
AcDbLine
 10
67.48023218015351
 20
201.5517160505942
 30
0.0
 11
67.48023218015351
 21
196.7517160505942
 31
0.0
  0
INSERT
  5
458
330
453
100
AcDbEntity
  8
SUNPO
 62
     0
370
    -2
100
AcDbBlockReference
  2
_OPEN30
 10
67.48023218015351
 20
203.5517160505942
 30
0.0
 41
2.0
 42
2.0
 43
2.0
 50
90.0
  0
INSERT
  5
459
330
453
100
AcDbEntity
  8
SUNPO
 62
     0
370
    -2
100
AcDbBlockReference
  2
_OPEN30
 10
67.48023218015351
 20
194.7517160505942
 30
0.0
 41
2.0
 42
2.0
 43
2.0
 50
270.0
  0
MTEXT
  5
45A
330
453
100
AcDbEntity
  8
SUNPO
 62
     0
100
AcDbMText
 10
65.73023218015348
 20
199.1517160505942
 30
0.0
 40
2.5
 41
0.0
 71
     5
 72
     1
  1
\A1;88
 11
0.0000000000000001
 21
1.0
 31
0.0
 73
     1
 44
1.0
1001
ACAD
1000
MTEXTBEGIN
1070
    73
1070
     1
1070
    44
1040
1.0
1070
    74
1070
     0
1000
MTEXTEND
  0
POINT
  5
45B
330
453
100
AcDbEntity
  8
DEFPOINTS
 62
     0
100
AcDbPoint
 10
59.4802321801535
 20
203.5517160505942
 30
0.0
  0
POINT
  5
45C
330
453
100
AcDbEntity
  8
DEFPOINTS
 62
     0
100
AcDbPoint
 10
59.4802321801535
 20
194.7517160505942
 30
0.0
  0
POINT
  5
45D
330
453
100
AcDbEntity
  8
DEFPOINTS
 62
     0
100
AcDbPoint
 10
67.48023218015351
 20
194.7517160505942
 30
0.0
  0
ENDBLK
  5
45E
330
453
100
AcDbEntity
  8
0
100
AcDbBlockEnd
  0
BLOCK
  5
4AE
330
4A4
100
AcDbEntity
  8
0
100
AcDbBlockBegin
  2
*D4
 70
     1
 10
0.0
 20
0.0
 30
0.0
  3
*D4
  1

  0
LINE
  5
4A5
330
4A4
100
AcDbEntity
  8
SUNPO
 62
     0
370
    -2
100
AcDbLine
 10
-44.34909997839167
 20
16.4349686577043
 30
0.0
 11
-44.34909997839167
 21
24.43496865770431
 31
0.0
  0
LINE
  5
4A6
330
4A4
100
AcDbEntity
  8
SUNPO
 62
     0
370
    -2
100
AcDbLine
 10
-2.349099978391677
 20
16.4349686577043
 30
0.0
 11
-2.349099978391677
 21
24.43496865770431
 31
0.0
  0
LINE
  5
4A7
330
4A4
100
AcDbEntity
  8
SUNPO
 62
     0
370
    -2
100
AcDbLine
 10
-42.34909997839167
 20
22.4349686577043
 30
0.0
 11
-4.349099978391677
 21
22.4349686577043
 31
0.0
  0
INSERT
  5
4A8
330
4A4
100
AcDbEntity
  8
SUNPO
 62
     0
370
    -2
100
AcDbBlockReference
  2
_OPEN30
 10
-44.34909997839167
 20
22.4349686577043
 30
0.0
 41
2.0
 42
2.0
 43
2.0
 50
180.0
  0
INSERT
  5
4A9
330
4A4
100
AcDbEntity
  8
SUNPO
 62
     0
370
    -2
100
AcDbBlockReference
  2
_OPEN30
 10
-2.349099978391677
 20
22.4349686577043
 30
0.0
 41
2.0
 42
2.0
 43
2.0
  0
MTEXT
  5
4AA
330
4A4
100
AcDbEntity
  8
SUNPO
 62
     0
100
AcDbMText
 10
-23.34909997839168
 20
24.18496865770431
 30
0.0
 40
2.5
 41
0.0
 71
     5
 72
     1
  1
\A1;420
 73
     1
 44
1.0
1001
ACAD
1000
MTEXTBEGIN
1070
    73
1070
     1
1070
    44
1040
1.0
1070
    74
1070
     0
1000
MTEXTEND
  0
POINT
  5
4AB
330
4A4
100
AcDbEntity
  8
DEFPOINTS
 62
     0
100
AcDbPoint
 10
-44.34909997839167
 20
14.4349686577043
 30
0.0
  0
POINT
  5
4AC
330
4A4
100
AcDbEntity
  8
DEFPOINTS
 62
     0
100
AcDbPoint
 10
-2.349099978391677
 20
14.4349686577043
 30
0.0
  0
POINT
  5
4AD
330
4A4
100
AcDbEntity
  8
DEFPOINTS
 62
     0
100
AcDbPoint
 10
-2.349099978391677
 20
22.4349686577043
 30
0.0
  0
ENDBLK
  5
4AF
330
4A4
100
AcDbEntity
  8
0
100
AcDbBlockEnd
  0
BLOCK
  5
4BA
330
4B0
100
AcDbEntity
  8
0
100
AcDbBlockBegin
  2
*D5
 70
     1
 10
0.0
 20
0.0
 30
0.0
  3
*D5
  1

  0
LINE
  5
4B1
330
4B0
100
AcDbEntity
  8
SUNPO
 62
     0
370
    -2
100
AcDbLine
 10
2.650900021608322
 20
14.4349686577043
 30
0.0
 11
10.65090002160832
 21
14.4349686577043
 31
0.0
  0
LINE
  5
4B2
330
4B0
100
AcDbEntity
  8
SUNPO
 62
     0
370
    -2
100
AcDbLine
 10
2.650900021608322
 20
5.634968657704347
 30
0.0
 11
10.65090002160832
 21
5.634968657704344
 31
0.0
  0
LINE
  5
4B3
330
4B0
100
AcDbEntity
  8
SUNPO
 62
     0
370
    -2
100
AcDbLine
 10
8.650900021608324
 20
12.4349686577043
 30
0.0
 11
8.650900021608322
 21
7.634968657704345
 31
0.0
  0
INSERT
  5
4B4
330
4B0
100
AcDbEntity
  8
SUNPO
 62
     0
370
    -2
100
AcDbBlockReference
  2
_OPEN30
 10
8.650900021608324
 20
14.4349686577043
 30
0.0
 41
2.0
 42
2.0
 43
2.0
 50
90.0
  0
INSERT
  5
4B5
330
4B0
100
AcDbEntity
  8
SUNPO
 62
     0
370
    -2
100
AcDbBlockReference
  2
_OPEN30
 10
8.650900021608322
 20
5.634968657704345
 30
0.0
 41
2.0
 42
2.0
 43
2.0
 50
270.0
  0
MTEXT
  5
4B6
330
4B0
100
AcDbEntity
  8
SUNPO
 62
     0
100
AcDbMText
 10
6.900900021608321
 20
10.03496865770432
 30
0.0
 40
2.5
 41
0.0
 71
     5
 72
     1
  1
\A1;88
 11
0.0000000000000001
 21
1.0
 31
0.0
 73
     1
 44
1.0
1001
ACAD
1000
MTEXTBEGIN
1070
    73
1070
     1
1070
    44
1040
1.0
1070
    74
1070
     0
1000
MTEXTEND
  0
POINT
  5
4B7
330
4B0
100
AcDbEntity
  8
DEFPOINTS
 62
     0
100
AcDbPoint
 10
0.6509000216083223
 20
14.4349686577043
 30
0.0
  0
POINT
  5
4B8
330
4B0
100
AcDbEntity
  8
DEFPOINTS
 62
     0
100
AcDbPoint
 10
0.6509000216083223
 20
5.634968657704348
 30
0.0
  0
POINT
  5
4B9
330
4B0
100
AcDbEntity
  8
DEFPOINTS
 62
     0
100
AcDbPoint
 10
8.650900021608322
 20
5.634968657704345
 30
0.0
  0
ENDBLK
  5
4BB
330
4B0
100
AcDbEntity
  8
0
100
AcDbBlockEnd
  0
BLOCK
  5
4C6
330
4BC
100
AcDbEntity
  8
0
100
AcDbBlockBegin
  2
*D6
 70
     1
 10
0.0
 20
0.0
 30
0.0
  3
*D6
  1

  0
LINE
  5
4BD
330
4BC
100
AcDbEntity
  8
SUNPO
 62
     0
370
    -2
100
AcDbLine
 10
25.09347671240301
 20
16.4217512759285
 30
0.0
 11
25.09347671240301
 21
24.4217512759285
 31
0.0
  0
LINE
  5
4BE
330
4BC
100
AcDbEntity
  8
SUNPO
 62
     0
370
    -2
100
AcDbLine
 10
60.093476712403
 20
16.4217512759285
 30
0.0
 11
60.093476712403
 21
24.4217512759285
 31
0.0
  0
LINE
  5
4BF
330
4BC
100
AcDbEntity
  8
SUNPO
 62
     0
370
    -2
100
AcDbLine
 10
27.093476712403
 20
22.4217512759285
 30
0.0
 11
58.093476712403
 21
22.4217512759285
 31
0.0
  0
INSERT
  5
4C0
330
4BC
100
AcDbEntity
  8
SUNPO
 62
     0
370
    -2
100
AcDbBlockReference
  2
_OPEN30
 10
25.09347671240301
 20
22.4217512759285
 30
0.0
 41
2.0
 42
2.0
 43
2.0
 50
180.0
  0
INSERT
  5
4C1
330
4BC
100
AcDbEntity
  8
SUNPO
 62
     0
370
    -2
100
AcDbBlockReference
  2
_OPEN30
 10
60.093476712403
 20
22.4217512759285
 30
0.0
 41
2.0
 42
2.0
 43
2.0
  0
MTEXT
  5
4C2
330
4BC
100
AcDbEntity
  8
SUNPO
 62
     0
100
AcDbMText
 10
42.593476712403
 20
24.1717512759285
 30
0.0
 40
2.5
 41
0.0
 71
     5
 72
     1
  1
\A1;350
 73
     1
 44
1.0
1001
ACAD
1000
MTEXTBEGIN
1070
    73
1070
     1
1070
    44
1040
1.0
1070
    74
1070
     0
1000
MTEXTEND
  0
POINT
  5
4C3
330
4BC
100
AcDbEntity
  8
DEFPOINTS
 62
     0
100
AcDbPoint
 10
25.09347671240301
 20
14.4217512759285
 30
0.0
  0
POINT
  5
4C4
330
4BC
100
AcDbEntity
  8
DEFPOINTS
 62
     0
100
AcDbPoint
 10
60.093476712403
 20
14.4217512759285
 30
0.0
  0
POINT
  5
4C5
330
4BC
100
AcDbEntity
  8
DEFPOINTS
 62
     0
100
AcDbPoint
 10
60.093476712403
 20
22.4217512759285
 30
0.0
  0
ENDBLK
  5
4C7
330
4BC
100
AcDbEntity
  8
0
100
AcDbBlockEnd
  0
ENDSEC
  0
SECTION
  2
ENTITIES
  0
TEXT
  5
34
330
2
100
AcDbEntity
  8
MOJI1
100
AcDbText
 10
-29.82933215854541
 20
51.38246674675179
 30
0.0
 40
4.0
  1
ネットワークディスクレコーダー
100
AcDbText
  0
TEXT
  5
35
330
2
100
AcDbEntity
  8
TOUROKU
100
AcDbText
 10
47.37061787438182
 20
45.38246674675178
 30
0.0
 40
2.0
  1
ＤＧＮＤ３００Ａ２
 72
     2
 11
68.17061787438183
 21
45.38246674675178
 31
0.0
100
AcDbText
  0
LINE
  5
37
330
2
100
AcDbEntity
  8
GAIKEI
 62
     1
100
AcDbLine
 10
-13.12409997839177
 20
6.134968657694344
 30
0.0
 11
-13.12409997839188
 21
7.058754969304231
 31
0.0
  0
LINE
  5
39
330
2
100
AcDbEntity
  8
GAIKEI
 62
     1
100
AcDbLine
 10
-13.12409997839188
 20
7.058754969304231
 30
0.0
 11
-13.32409997839181
 21
7.066262116344205
 31
0.0
  0
LINE
  5
3A
330
2
100
AcDbEntity
  8
GAIKEI
 62
     1
100
AcDbLine
 10
-13.32409997839181
 20
7.066262116344205
 30
0.0
 11
-13.32409997839181
 21
6.134968657704348
 31
0.0
  0
LINE
  5
3B
330
2
100
AcDbEntity
  8
GAIKEI
 62
     1
100
AcDbLine
 10
-13.32409997839181
 20
6.134968657704348
 30
0.0
 11
-13.12409997839177
 21
6.134968657694344
 31
0.0
  0
LINE
  5
3C
330
2
100
AcDbEntity
  8
GAIKEI
 62
     1
100
AcDbLine
 10
-33.77409997839163
 20
6.134968657704348
 30
0.0
 11
-33.97409997839168
 21
6.134968657694344
 31
0.0
  0
LINE
  5
3D
330
2
100
AcDbEntity
  8
GAIKEI
 62
     1
100
AcDbLine
 10
-33.77409997839163
 20
7.066262116344205
 30
0.0
 11
-33.77409997839163
 21
6.134968657704348
 31
0.0
  0
LINE
  5
3E
330
2
100
AcDbEntity
  8
GAIKEI
 62
     1
100
AcDbLine
 10
-33.97409997839168
 20
7.058754969304231
 30
0.0
 11
-33.77409997839163
 21
7.066262116344205
 31
0.0
  0
LINE
  5
3F
330
2
100
AcDbEntity
  8
GAIKEI
 62
     1
100
AcDbLine
 10
-33.97409997839168
 20
6.134968657694344
 30
0.0
 11
-33.97409997839168
 21
7.058754969304231
 31
0.0
  0
ARC
  5
40
330
2
100
AcDbEntity
  8
GAIKEI
 62
     1
100
AcDbCircle
 10
-13.51678012157936
 20
-0.8560188078655528
 30
0.0
 40
7.990987802307673
100
AcDbArc
 50
61.02824575226486
 51
90.01663349054242
  0
LINE
  5
41
330
2
100
AcDbEntity
  8
GAIKEI
 62
     1
100
AcDbLine
 10
-12.77409997839186
 20
6.134968657704348
 30
0.0
 11
-12.77409997839186
 21
7.033311217794334
 31
0.0
  0
LINE
  5
42
330
2
100
AcDbEntity
  8
GAIKEI
 62
     1
100
AcDbLine
 10
-12.77409997839186
 20
7.033311217794334
 30
0.0
 11
-12.97409997839179
 21
7.049774855624264
 31
0.0
  0
LINE
  5
43
330
2
100
AcDbEntity
  8
GAIKEI
 62
     1
100
AcDbLine
 10
-12.97409997839179
 20
6.134968657704348
 30
0.0
 11
-12.77409997839186
 21
6.134968657694344
 31
0.0
  0
LINE
  5
44
330
2
100
AcDbEntity
  8
GAIKEI
 62
     1
100
AcDbLine
 10
-12.62409997839177
 20
6.134968657704348
 30
0.0
 11
-12.42409997839184
 21
6.134968657694344
 31
0.0
  0
LINE
  5
45
330
2
100
AcDbEntity
  8
GAIKEI
 62
     1
100
AcDbLine
 10
-12.27409997840186
 20
6.134968657694344
 30
0.0
 11
-12.07409997840193
 21
6.134968657684339
 31
0.0
  0
LINE
  5
46
330
2
100
AcDbEntity
  8
GAIKEI
 62
     1
100
AcDbLine
 10
-11.92409997845186
 20
6.134968657644321
 30
0.0
 11
-11.72409997845182
 21
6.134968657634317
 31
0.0
  0
LINE
  5
47
330
2
100
AcDbEntity
  8
GAIKEI
 62
     1
100
AcDbLine
 10
-12.42409997839184
 20
6.134968657704348
 30
0.0
 11
-12.42409997839184
 21
6.992060025554337
 31
0.0
  0
LINE
  5
48
330
2
100
AcDbEntity
  8
GAIKEI
 62
     1
100
AcDbLine
 10
-12.42409997839184
 20
6.992060025554337
 30
0.0
 11
-12.62409997840189
 21
7.017577601674247
 31
0.0
  0
LINE
  5
49
330
2
100
AcDbEntity
  8
GAIKEI
 62
     1
100
AcDbLine
 10
-12.62409997840189
 20
7.017577601674247
 30
0.0
 11
-12.62409997839177
 21
6.134968657704348
 31
0.0
  0
LINE
  5
4A
330
2
100
AcDbEntity
  8
GAIKEI
 62
     1
100
AcDbLine
 10
-12.97409997839179
 20
7.049774855624264
 30
0.0
 11
-12.97409997839179
 21
6.134968657704348
 31
0.0
  0
LINE
  5
4B
330
2
100
AcDbEntity
  8
GAIKEI
 62
     1
100
AcDbLine
 10
-12.07409997839181
 20
6.134968657704348
 30
0.0
 11
-12.07409997838181
 21
6.934794196154257
 31
0.0
  0
LINE
  5
4C
330
2
100
AcDbEntity
  8
GAIKEI
 62
     1
100
AcDbLine
 10
-12.07409997838181
 20
6.934794196154257
 30
0.0
 11
-12.27409997840186
 21
6.969494606534226
 31
0.0
  0
LINE
  5
4D
330
2
100
AcDbEntity
  8
GAIKEI
 62
     1
100
AcDbLine
 10
-12.27409997840186
 20
6.969494606534226
 30
0.0
 11
-12.27409997839186
 21
6.134968657704348
 31
0.0
  0
LINE
  5
4E
330
2
100
AcDbEntity
  8
GAIKEI
 62
     1
100
AcDbLine
 10
-11.72409997845182
 20
6.134968657634317
 30
0.0
 11
-11.72409997838179
 21
6.861149158974285
 31
0.0
  0
LINE
  5
4F
330
2
100
AcDbEntity
  8
GAIKEI
 62
     1
100
AcDbLine
 10
-11.72409997838179
 20
6.861149158974285
 30
0.0
 11
-11.92409997841196
 21
6.905267144894196
 31
0.0
  0
LINE
  5
50
330
2
100
AcDbEntity
  8
GAIKEI
 62
     1
100
AcDbLine
 10
-11.92409997841196
 20
6.905267144894196
 30
0.0
 11
-11.92409997845186
 21
6.134968657644321
 31
0.0
  0
LINE
  5
51
330
2
100
AcDbEntity
  8
GAIKEI
 62
     1
100
AcDbLine
 10
-11.3740999784618
 20
6.134968657624312
 30
0.0
 11
-11.37409997839177
 21
6.738147105024154
 31
0.0
  0
LINE
  5
52
330
2
100
AcDbEntity
  8
GAIKEI
 62
     1
100
AcDbLine
 10
-11.37409997839177
 20
6.738147105024154
 30
0.0
 11
-11.57409997839181
 21
6.791758935644338
 31
0.0
  0
LINE
  5
53
330
2
100
AcDbEntity
  8
GAIKEI
 62
     1
100
AcDbLine
 10
-11.57409997839181
 20
6.791758935644338
 30
0.0
 11
-11.57409997839181
 21
6.134968657704348
 31
0.0
  0
LINE
  5
54
330
2
100
AcDbEntity
  8
GAIKEI
 62
     1
100
AcDbLine
 10
-11.57409997839181
 20
6.134968657704348
 30
0.0
 11
-11.3740999784618
 21
6.134968657624312
 31
0.0
  0
LINE
  5
55
330
2
100
AcDbEntity
  8
GAIKEI
 62
     1
100
AcDbLine
 10
-11.0240999784819
 20
6.134968657624312
 30
0.0
 11
-11.02409997839186
 21
6.630545518654344
 31
0.0
  0
LINE
  5
56
330
2
100
AcDbEntity
  8
GAIKEI
 62
     1
100
AcDbLine
 10
-11.02409997839186
 20
6.630545518654344
 30
0.0
 11
-11.22409997839179
 21
6.694204298264253
 31
0.0
  0
LINE
  5
57
330
2
100
AcDbEntity
  8
GAIKEI
 62
     1
100
AcDbLine
 10
-11.22409997839179
 20
6.694204298264253
 30
0.0
 11
-11.22409997827173
 21
6.134968657794274
 31
0.0
  0
LINE
  5
58
330
2
100
AcDbEntity
  8
GAIKEI
 62
     1
100
AcDbLine
 10
-11.22409997827173
 20
6.134968657794274
 30
0.0
 11
-11.0240999784819
 21
6.134968657624312
 31
0.0
  0
LINE
  5
59
330
2
100
AcDbEntity
  8
GAIKEI
 62
     1
100
AcDbLine
 10
-10.67409997846187
 20
6.134968657654326
 30
0.0
 11
-10.67409997839183
 21
6.504819279484195
 31
0.0
  0
LINE
  5
5A
330
2
100
AcDbEntity
  8
GAIKEI
 62
     1
100
AcDbLine
 10
-10.67409997839183
 20
6.504819279484195
 30
0.0
 11
-10.87409997839177
 21
6.578929201934329
 31
0.0
  0
LINE
  5
5B
330
2
100
AcDbEntity
  8
GAIKEI
 62
     1
100
AcDbLine
 10
-10.87409997839177
 20
6.578929201934329
 30
0.0
 11
-10.87409997839177
 21
6.134968657704348
 31
0.0
  0
LINE
  5
5C
330
2
100
AcDbEntity
  8
GAIKEI
 62
     1
100
AcDbLine
 10
-10.67409997839183
 20
6.134968657704348
 30
0.0
 11
-10.87409997839177
 21
6.134968657704348
 31
0.0
  0
LINE
  5
5D
330
2
100
AcDbEntity
  8
GAIKEI
 62
     1
100
AcDbLine
 10
-10.32409997834179
 20
6.134968657704348
 30
0.0
 11
-10.32409997839181
 21
6.360022025534135
 31
0.0
  0
LINE
  5
5E
330
2
100
AcDbEntity
  8
GAIKEI
 62
     1
100
AcDbLine
 10
-10.32409997839181
 20
6.360022025534135
 30
0.0
 11
-10.52409997839186
 21
6.445165383744324
 31
0.0
  0
LINE
  5
5F
330
2
100
AcDbEntity
  8
GAIKEI
 62
     1
100
AcDbLine
 10
-10.52409997839186
 20
6.445165383744324
 30
0.0
 11
-10.52409997855181
 21
6.134968657714352
 31
0.0
  0
LINE
  5
60
330
2
100
AcDbEntity
  8
GAIKEI
 62
     1
100
AcDbLine
 10
-10.52409997855181
 20
6.134968657714352
 30
0.0
 11
-10.32409997834179
 21
6.134968657704348
 31
0.0
  0
LINE
  5
61
330
2
100
AcDbEntity
  8
GAIKEI
 62
     1
100
AcDbLine
 10
-9.974099978391791
 20
6.134968657704348
 30
0.0
 11
-9.974099978391791
 21
6.194909973284211
 31
0.0
  0
LINE
  5
62
330
2
100
AcDbEntity
  8
GAIKEI
 62
     1
100
AcDbLine
 10
-9.974099978391791
 20
6.194909973284211
 30
0.0
 11
-10.17409997839183
 21
6.291826247324252
 31
0.0
  0
LINE
  5
63
330
2
100
AcDbEntity
  8
GAIKEI
 62
     1
100
AcDbLine
 10
-10.17409997839183
 20
6.291826247324252
 30
0.0
 11
-10.17409997839183
 21
6.134968657704348
 31
0.0
  0
LINE
  5
64
330
2
100
AcDbEntity
  8
GAIKEI
 62
     1
100
AcDbLine
 10
-10.17409997839183
 20
6.134968657704348
 30
0.0
 11
-9.974099978391791
 21
6.134968657704348
 31
0.0
  0
LINE
  5
65
330
2
100
AcDbEntity
  8
GAIKEI
 62
     1
100
AcDbLine
 10
-36.92409997839173
 20
6.134968657704348
 30
0.0
 11
-37.12409997839166
 21
6.134968657704348
 31
0.0
  0
LINE
  5
66
330
2
100
AcDbEntity
  8
GAIKEI
 62
     1
100
AcDbLine
 10
-36.92409997839173
 20
6.291826247324252
 30
0.0
 11
-36.92409997839173
 21
6.134968657704348
 31
0.0
  0
LINE
  5
67
330
2
100
AcDbEntity
  8
GAIKEI
 62
     1
100
AcDbLine
 10
-37.12409997839166
 20
6.194909973284211
 30
0.0
 11
-36.92409997839173
 21
6.291826247324252
 31
0.0
  0
LINE
  5
68
330
2
100
AcDbEntity
  8
GAIKEI
 62
     1
100
AcDbLine
 10
-37.12409997839166
 20
6.134968657704348
 30
0.0
 11
-37.12409997839166
 21
6.194909973284211
 31
0.0
  0
LINE
  5
69
330
2
100
AcDbEntity
  8
GAIKEI
 62
     1
100
AcDbLine
 10
-36.57409997823175
 20
6.134968657714352
 30
0.0
 11
-36.77409997844165
 21
6.134968657704348
 31
0.0
  0
LINE
  5
6A
330
2
100
AcDbEntity
  8
GAIKEI
 62
     1
100
AcDbLine
 10
-36.5740999783917
 20
6.445165383744324
 30
0.0
 11
-36.57409997823175
 21
6.134968657714352
 31
0.0
  0
LINE
  5
6B
330
2
100
AcDbEntity
  8
GAIKEI
 62
     1
100
AcDbLine
 10
-36.77409997839163
 20
6.360022025534135
 30
0.0
 11
-36.5740999783917
 21
6.445165383744324
 31
0.0
  0
LINE
  5
6C
330
2
100
AcDbEntity
  8
GAIKEI
 62
     1
100
AcDbLine
 10
-36.77409997844165
 20
6.134968657704348
 30
0.0
 11
-36.77409997839163
 21
6.360022025534135
 31
0.0
  0
LINE
  5
6D
330
2
100
AcDbEntity
  8
GAIKEI
 62
     1
100
AcDbLine
 10
-36.42409997839172
 20
6.134968657704348
 30
0.0
 11
-36.22409997839168
 21
6.134968657704348
 31
0.0
  0
LINE
  5
6E
330
2
100
AcDbEntity
  8
GAIKEI
 62
     1
100
AcDbLine
 10
-36.22409997839168
 20
6.578929201934329
 30
0.0
 11
-36.22409997839168
 21
6.134968657704348
 31
0.0
  0
LINE
  5
6F
330
2
100
AcDbEntity
  8
GAIKEI
 62
     1
100
AcDbLine
 10
-36.42409997839172
 20
6.504819279484195
 30
0.0
 11
-36.22409997839168
 21
6.578929201934329
 31
0.0
  0
LINE
  5
70
330
2
100
AcDbEntity
  8
GAIKEI
 62
     1
100
AcDbLine
 10
-36.4240999783217
 20
6.134968657654326
 30
0.0
 11
-36.42409997839172
 21
6.504819279484195
 31
0.0
  0
LINE
  5
71
330
2
100
AcDbEntity
  8
GAIKEI
 62
     1
100
AcDbLine
 10
-35.87409997851171
 20
6.134968657794274
 30
0.0
 11
-36.07409997830166
 21
6.134968657624312
 31
0.0
  0
LINE
  5
72
330
2
100
AcDbEntity
  8
GAIKEI
 62
     1
100
AcDbLine
 10
-35.87409997839166
 20
6.694204298264253
 30
0.0
 11
-35.87409997851171
 21
6.134968657794274
 31
0.0
  0
LINE
  5
73
330
2
100
AcDbEntity
  8
GAIKEI
 62
     1
100
AcDbLine
 10
-36.0740999783917
 20
6.630545518654344
 30
0.0
 11
-35.87409997839166
 21
6.694204298264253
 31
0.0
  0
LINE
  5
74
330
2
100
AcDbEntity
  8
GAIKEI
 62
     1
100
AcDbLine
 10
-36.07409997830166
 20
6.134968657624312
 30
0.0
 11
-36.0740999783917
 21
6.630545518654344
 31
0.0
  0
LINE
  5
75
330
2
100
AcDbEntity
  8
GAIKEI
 62
     1
100
AcDbLine
 10
-35.52409997839163
 20
6.134968657704348
 30
0.0
 11
-35.72409997832165
 21
6.134968657624312
 31
0.0
  0
LINE
  5
76
330
2
100
AcDbEntity
  8
GAIKEI
 62
     1
100
AcDbLine
 10
-35.52409997839163
 20
6.791758935644338
 30
0.0
 11
-35.52409997839163
 21
6.134968657704348
 31
0.0
  0
LINE
  5
77
330
2
100
AcDbEntity
  8
GAIKEI
 62
     1
100
AcDbLine
 10
-35.72409997839168
 20
6.738147105024154
 30
0.0
 11
-35.52409997839163
 21
6.791758935644338
 31
0.0
  0
LINE
  5
78
330
2
100
AcDbEntity
  8
GAIKEI
 62
     1
100
AcDbLine
 10
-35.72409997832165
 20
6.134968657624312
 30
0.0
 11
-35.72409997839168
 21
6.738147105024154
 31
0.0
  0
LINE
  5
79
330
2
100
AcDbEntity
  8
GAIKEI
 62
     1
100
AcDbLine
 10
-35.1740999783716
 20
6.905267144894196
 30
0.0
 11
-35.1740999783317
 21
6.134968657644321
 31
0.0
  0
LINE
  5
7A
330
2
100
AcDbEntity
  8
GAIKEI
 62
     1
100
AcDbLine
 10
-35.37409997840166
 20
6.861149158974285
 30
0.0
 11
-35.1740999783716
 21
6.905267144894196
 31
0.0
  0
LINE
  5
7B
330
2
100
AcDbEntity
  8
GAIKEI
 62
     1
100
AcDbLine
 10
-35.37409997833163
 20
6.134968657634317
 30
0.0
 11
-35.37409997840166
 21
6.861149158974285
 31
0.0
  0
LINE
  5
7C
330
2
100
AcDbEntity
  8
GAIKEI
 62
     1
100
AcDbLine
 10
-34.82409997838158
 20
6.969494606534226
 30
0.0
 11
-34.8240999783917
 21
6.134968657704348
 31
0.0
  0
LINE
  5
7D
330
2
100
AcDbEntity
  8
GAIKEI
 62
     1
100
AcDbLine
 10
-35.02409997840164
 20
6.934794196154257
 30
0.0
 11
-34.82409997838158
 21
6.969494606534226
 31
0.0
  0
LINE
  5
7E
330
2
100
AcDbEntity
  8
GAIKEI
 62
     1
100
AcDbLine
 10
-35.02409997839163
 20
6.134968657704348
 30
0.0
 11
-35.02409997840164
 21
6.934794196154257
 31
0.0
  0
LINE
  5
7F
330
2
100
AcDbEntity
  8
GAIKEI
 62
     1
100
AcDbLine
 10
-34.12409997839166
 20
7.049774855624264
 30
0.0
 11
-34.12409997839166
 21
6.134968657704348
 31
0.0
  0
LINE
  5
80
330
2
100
AcDbEntity
  8
GAIKEI
 62
     1
100
AcDbLine
 10
-34.47409997838156
 20
7.017577601674247
 30
0.0
 11
-34.47409997839168
 21
6.134968657704348
 31
0.0
  0
LINE
  5
81
330
2
100
AcDbEntity
  8
GAIKEI
 62
     1
100
AcDbLine
 10
-34.67409997839173
 20
6.992060025554337
 30
0.0
 11
-34.47409997838156
 21
7.017577601674247
 31
0.0
  0
LINE
  5
82
330
2
100
AcDbEntity
  8
GAIKEI
 62
     1
100
AcDbLine
 10
-34.67409997839173
 20
6.134968657704348
 30
0.0
 11
-34.67409997839173
 21
6.992060025554337
 31
0.0
  0
LINE
  5
83
330
2
100
AcDbEntity
  8
GAIKEI
 62
     1
100
AcDbLine
 10
-35.1740999783317
 20
6.134968657644321
 30
0.0
 11
-35.37409997833163
 21
6.134968657634317
 31
0.0
  0
LINE
  5
84
330
2
100
AcDbEntity
  8
GAIKEI
 62
     1
100
AcDbLine
 10
-34.82409997838158
 20
6.134968657694344
 30
0.0
 11
-35.02409997838163
 21
6.134968657684339
 31
0.0
  0
LINE
  5
85
330
2
100
AcDbEntity
  8
GAIKEI
 62
     1
100
AcDbLine
 10
-34.47409997839168
 20
6.134968657704348
 30
0.0
 11
-34.67409997839173
 21
6.134968657694344
 31
0.0
  0
LINE
  5
86
330
2
100
AcDbEntity
  8
GAIKEI
 62
     1
100
AcDbLine
 10
-34.12409997839166
 20
6.134968657704348
 30
0.0
 11
-34.3240999783917
 21
6.134968657694344
 31
0.0
  0
LINE
  5
87
330
2
100
AcDbEntity
  8
GAIKEI
 62
     1
100
AcDbLine
 10
-34.3240999783917
 20
7.033311217794334
 30
0.0
 11
-34.12409997839166
 21
7.049774855624264
 31
0.0
  0
LINE
  5
88
330
2
100
AcDbEntity
  8
GAIKEI
 62
     1
100
AcDbLine
 10
-34.3240999783917
 20
6.134968657704348
 30
0.0
 11
-34.3240999783917
 21
7.033311217794334
 31
0.0
  0
ELLIPSE
  5
89
330
2
100
AcDbEntity
  8
GAIKEI
 62
     1
100
AcDbEllipse
 10
-19.8991067034915
 20
14.03496794806426
 30
0.0
 11
0.0000065575891419
 21
-1.050028311288428
 31
0.0
210
0.0
220
0.0
230
1.0
 40
0.1883119117025167
 41
4.712387804347687
 42
7.85398045793748
  0
ELLIPSE
  5
8A
330
2
100
AcDbEntity
  8
GAIKEI
 62
     1
100
AcDbEllipse
 10
-22.29910670349148
 20
14.03496794806426
 30
0.0
 11
0.0000065575891419
 21
-1.050028311288428
 31
0.0
210
0.0
220
0.0
230
1.0
 40
0.1883119117025167
 41
4.712387804347687
 42
7.85398045793748
  0
ELLIPSE
  5
8B
330
2
100
AcDbEntity
  8
GAIKEI
 62
     1
100
AcDbEllipse
 10
-24.69909342077165
 20
14.03496796465424
 30
0.0
 11
0.0000065575891419
 21
-1.050028311288428
 31
0.0
210
0.0
220
0.0
230
1.0
 40
0.1883119117025167
 41
4.712387804347687
 42
7.85398045793748
  0
ELLIPSE
  5
8C
330
2
100
AcDbEntity
  8
GAIKEI
 62
     1
100
AcDbEllipse
 10
-27.09909997839157
 20
14.03496865770421
 30
0.0
 11
0.0000065575891419
 21
-1.050028311288428
 31
0.0
210
0.0
220
0.0
230
1.0
 40
0.1883119117025167
 41
4.712387804347687
 42
7.85398045793748
  0
LINE
  5
8D
330
2
100
AcDbEntity
  8
GAIKEI
 62
     1
100
AcDbLine
 10
-9.646116632191819
 20
13.9349686577043
 30
0.0
 11
-10.35261948427569
 21
14.03496865770421
 31
0.0
  0
ARC
  5
8E
330
2
100
AcDbEntity
  8
GAIKEI
 62
     1
100
AcDbCircle
 10
-13.52056908594659
 20
20.94065848676905
 30
0.0
 40
8.005689963861202
100
AcDbArc
 50
270.0105142296778
 51
298.944510142231
  0
ARC
  5
8F
330
2
100
AcDbEntity
  8
GAIKEI
 62
     1
100
AcDbCircle
 10
-33.57763087083697
 20
20.94065848676905
 30
0.0
 40
8.005689963861202
100
AcDbArc
 50
241.0554898577689
 51
269.9894857703222
  0
LINE
  5
90
330
2
100
AcDbEntity
  8
GAIKEI
  6
Continuous
 62
     1
100
AcDbLine
 10
-3.399099978391632
 20
14.03496865770421
 30
0.0
 11
-3.399099978391632
 21
6.034968657704268
 31
0.0
  0
CIRCLE
  5
91
330
2
100
AcDbEntity
  8
GAIKEI
 62
     1
100
AcDbCircle
 10
-10.39909997839174
 20
10.03496865770421
 30
0.0
 40
0.6299999999999777
  0
CIRCLE
  5
92
330
2
100
AcDbEntity
  8
GAIKEI
 62
     1
100
AcDbCircle
 10
-12.1990999783917
 20
10.03496865770421
 30
0.0
 40
0.6299999999999777
  0
LINE
  5
93
330
2
100
AcDbEntity
  8
GAIKEI
 62
     1
100
AcDbLine
 10
-14.14909997839163
 20
10.03496865770432
 30
0.0
 11
-14.57625836365173
 21
9.834968657704393
 31
0.0
  0
LINE
  5
94
330
2
100
AcDbEntity
  8
GAIKEI
 62
     1
100
AcDbLine
 10
-14.57625836365173
 20
10.23496865770425
 30
0.0
 11
-14.14909997839163
 21
10.03496865770432
 31
0.0
  0
LINE
  5
95
330
2
100
AcDbEntity
  8
GAIKEI
 62
     1
100
AcDbLine
 10
-15.29909997839172
 20
11.1849686577043
 30
0.0
 11
-15.09909997839168
 21
10.75781027244431
 31
0.0
  0
LINE
  5
96
330
2
100
AcDbEntity
  8
GAIKEI
 62
     1
100
AcDbLine
 10
-15.29909997839172
 20
11.18496865770419
 30
0.0
 11
-15.49909997839165
 21
10.7578102724442
 31
0.0
  0
LINE
  5
97
330
2
100
AcDbEntity
  8
GAIKEI
 62
     1
100
AcDbLine
 10
-16.4490999783917
 20
10.03496865770421
 30
0.0
 11
-16.0219415931316
 21
10.23496865770425
 31
0.0
  0
LINE
  5
98
330
2
100
AcDbEntity
  8
GAIKEI
 62
     1
100
AcDbLine
 10
-16.02194159313171
 20
9.834968657704621
 30
0.0
 11
-16.4490999783917
 21
10.03496865770421
 31
0.0
  0
LINE
  5
99
330
2
100
AcDbEntity
  8
GAIKEI
 62
     1
100
AcDbLine
 10
-15.4990999783912
 20
9.31212704296422
 30
0.0
 11
-15.29909997839161
 21
8.884968657704348
 31
0.0
  0
LINE
  5
9A
330
2
100
AcDbEntity
  8
GAIKEI
 62
     1
100
AcDbLine
 10
-15.09909997839168
 20
9.31212704296422
 30
0.0
 11
-15.29909997839161
 21
8.884968657704348
 31
0.0
  0
LINE
  5
9B
330
2
100
AcDbEntity
  8
GAIKEI
  6
Continuous
 62
     1
100
AcDbLine
 10
-28.86909997839189
 20
11.77996865770433
 30
0.0
 11
-28.86909997839178
 21
8.289968657704207
 31
0.0
  0
ARC
  5
9C
330
2
100
AcDbEntity
  8
GAIKEI
 62
     1
100
AcDbCircle
 10
-18.60275022086762
 20
10.03496865770421
 30
0.0
 40
10.41359507297155
100
AcDbArc
 50
170.3534705230551
 51
189.6465294769448
  0
ARC
  5
9D
330
2
100
AcDbEntity
  8
GAIKEI
 62
     1
100
AcDbCircle
 10
-28.49544973591594
 20
10.03496865770421
 30
0.0
 40
10.41359507297155
100
AcDbArc
 50
350.3534705230486
 51
9.646529476944845
  0
ARC
  5
9E
330
2
100
AcDbEntity
  8
GAIKEI
  6
Continuous
 62
     1
100
AcDbCircle
 10
-18.29745746997162
 20
10.03496865770421
 30
0.0
 40
10.45
100
AcDbArc
 50
338.0865399486964
 51
21.91346005130354
  0
ARC
  5
9F
330
2
100
AcDbEntity
  8
GAIKEI
  6
Continuous
 62
     1
100
AcDbCircle
 10
-18.29745746997162
 20
10.03496865770421
 30
0.0
 40
10.4
100
AcDbArc
 50
337.9756871630001
 51
22.02431283699997
  0
LINE
  5
A0
330
2
100
AcDbEntity
  8
GAIKEI
  6
Continuous
 62
     1
100
AcDbLine
 10
-8.602484545821766
 20
6.034968657704268
 30
0.0
 11
-8.602484545821766
 21
6.134968657704234
 31
0.0
  0
LINE
  5
A1
330
2
100
AcDbEntity
  8
GAIKEI
  6
Continuous
 62
     1
100
AcDbLine
 10
-8.602484545821766
 20
13.9349686577043
 30
0.0
 11
-8.602484545821766
 21
14.03496865770421
 31
0.0
  0
LINE
  5
A2
330
2
100
AcDbEntity
  8
GAIKEI
  6
Continuous
 62
     1
100
AcDbLine
 10
-8.656399436751712
 20
6.034968657704268
 30
0.0
 11
-8.656399436751712
 21
6.134968657704234
 31
0.0
  0
LINE
  5
A3
330
2
100
AcDbEntity
  8
GAIKEI
  6
Continuous
 62
     1
100
AcDbLine
 10
-8.656399436751712
 20
13.9349686577043
 30
0.0
 11
-8.656399436751712
 21
14.03496865770421
 31
0.0
  0
LINE
  5
A4
330
2
100
AcDbEntity
  8
GAIKEI
  6
Continuous
 62
     1
100
AcDbLine
 10
-8.64647617421167
 20
13.91034735258427
 30
0.0
 11
-8.59327533937153
 21
13.91034735258427
 31
0.0
  0
LINE
  5
A5
330
2
100
AcDbEntity
  8
GAIKEI
  6
Continuous
 62
     1
100
AcDbLine
 10
-8.656399436751712
 20
13.98496865770425
 30
0.0
 11
-8.602484545821766
 21
13.98496865770425
 31
0.0
  0
LINE
  5
A6
330
2
100
AcDbEntity
  8
GAIKEI
  6
Phantom
 62
     1
100
AcDbLine
 10
-7.78322225538227
 20
10.89657804703461
 30
0.0
 11
-7.783149754522355
 21
10.89570549367465
 31
0.0
  0
ELLIPSE
  5
A8
330
2
100
AcDbEntity
  8
GAIKEI
 62
     1
100
AcDbEllipse
 10
-30.84909997840191
 20
9.734968657704257
 30
0.0
 11
0.4500000094901219
 21
-0.0000000101399564
 31
0.0
210
0.0
220
0.0
230
1.0
 40
0.3333330580148846
 41
0.0
 42
6.283185307179586
  0
ELLIPSE
  5
A9
330
2
100
AcDbEntity
  8
GAIKEI
 62
     1
100
AcDbEllipse
 10
-32.44909997840182
 20
9.734968657704257
 30
0.0
 11
0.4500000094901219
 21
-0.0000000101399564
 31
0.0
210
0.0
220
0.0
230
1.0
 40
0.3333330580148846
 41
0.0
 42
6.283185307179586
  0
ELLIPSE
  5
AA
330
2
100
AcDbEntity
  8
GAIKEI
 62
     1
100
AcDbEllipse
 10
-34.04909997840196
 20
9.734968649434222
 30
0.0
 11
0.4500000094901219
 21
-0.0000000101399564
 31
0.0
210
0.0
220
0.0
230
1.0
 40
0.3333330580148846
 41
0.0
 42
6.283185307179586
  0
ELLIPSE
  5
AB
330
2
100
AcDbEntity
  8
GAIKEI
 62
     1
100
AcDbEllipse
 10
-35.64909997840187
 20
9.734968657704257
 30
0.0
 11
0.4500000094901219
 21
-0.0000000101399564
 31
0.0
210
0.0
220
0.0
230
1.0
 40
0.3333330580148846
 41
0.0
 42
6.283185307179586
  0
ELLIPSE
  5
AC
330
2
100
AcDbEntity
  8
GAIKEI
 62
     1
100
AcDbEllipse
 10
-37.24909997840189
 20
9.734968657704257
 30
0.0
 11
0.4500000094901219
 21
-0.0000000101399564
 31
0.0
210
0.0
220
0.0
230
1.0
 40
0.3333330580148846
 41
0.0
 42
6.283185307179586
  0
ELLIPSE
  5
AD
330
2
100
AcDbEntity
  8
GAIKEI
 62
     1
100
AcDbEllipse
 10
-40.89909998172197
 20
7.434968599144212
 30
0.0
 11
0.4500000094901219
 21
-0.0000000101399564
 31
0.0
210
0.0
220
0.0
230
1.0
 40
0.3333330580148846
 41
0.0
 42
6.283185307179586
  0
ELLIPSE
  5
AE
330
2
100
AcDbEntity
  8
GAIKEI
 62
     1
100
AcDbEllipse
 10
-40.89909997842187
 20
9.734968656704268
 30
0.0
 11
0.4500000094901219
 21
-0.0000000101399564
 31
0.0
210
0.0
220
0.0
230
1.0
 40
0.3333330580148846
 41
0.0
 42
6.283185307179586
  0
ELLIPSE
  5
AF
330
2
100
AcDbEntity
  8
GAIKEI
 62
     1
100
AcDbEllipse
 10
-40.89909997839174
 20
11.13496865770435
 30
0.0
 11
0.4500000094901219
 21
-0.0000000101399564
 31
0.0
210
0.0
220
0.0
230
1.0
 40
0.3333330580148846
 41
0.0
 42
6.283185307179586
  0
ARC
  5
B0
330
2
100
AcDbEntity
  8
GAIKEI
 62
     1
100
AcDbCircle
 10
-33.5814198352042
 20
-0.8560188078655528
 30
0.0
 40
7.990987802307673
100
AcDbArc
 50
89.98336650945756
 51
118.9717542477351
  0
LINE
  5
B1
330
2
100
AcDbEntity
  8
GAIKEI
 62
     1
100
AcDbLine
 10
-37.45208332459174
 20
13.9349686577043
 30
0.0
 11
-36.74558047250787
 21
14.03496865770421
 31
0.0
  0
DIMENSION
  5
B2
330
2
100
AcDbEntity
  8
SUNPO
100
AcDbDimension
  2
*D6
 10
60.093476712403
 20
22.4217512759285
 30
0.0
 11
42.593476712403
 21
24.1717512759285
 31
0.0
 70
    33
  1
350
 71
     5
 42
35.0
  3
STANDARD
100
AcDbAlignedDimension
 13
25.09347671240301
 23
14.4217512759285
 33
0.0
 14
60.093476712403
 24
14.4217512759285
 34
0.0
1001
ACAD
1000
DSTYLE
1002
{
1070
    40
1040
1.0
1070
   140
1040
2.5
1070
   147
1040
0.5
1070
   172
1070
     1
1002
}
  0
LINE
  5
C1
330
2
100
AcDbEntity
  8
GAIKEI
  6
Continuous
 62
     1
100
AcDbLine
 10
-33.42409997839161
 20
7.06872500546433
 30
0.0
 11
-33.62409997839165
 21
7.06872500546433
 31
0.0
  0
LINE
  5
C2
330
2
100
AcDbEntity
  8
GAIKEI
  6
Continuous
 62
     1
100
AcDbLine
 10
-13.47409997839168
 20
7.068726898234217
 30
0.0
 11
-13.47409997839168
 21
6.134968657704234
 31
0.0
  0
LINE
  5
C3
330
2
100
AcDbEntity
  8
GAIKEI
  6
Continuous
 62
     1
100
AcDbLine
 10
-13.67409997839161
 20
7.06872500546433
 30
0.0
 11
-13.47409997839168
 21
7.068726898234217
 31
0.0
  0
LINE
  5
C4
330
2
100
AcDbEntity
  8
GAIKEI
  6
Continuous
 62
     1
100
AcDbLine
 10
-13.47409997839168
 20
6.134968657704234
 30
0.0
 11
-13.67409997839161
 21
6.134968657704234
 31
0.0
  0
LINE
  5
C5
330
2
100
AcDbEntity
  8
GAIKEI
  6
Continuous
 62
     1
100
AcDbLine
 10
-3.399099978391632
 20
14.03496865770421
 30
0.0
 11
-38.44015801161152
 21
14.03496865770421
 31
0.0
  0
LINE
  5
C6
330
2
100
AcDbEntity
  8
GAIKEI
  6
Continuous
100
AcDbLine
 10
25.46347743095998
 20
5.734970248752858
 30
0.0
 11
59.8834762413295
 21
5.73499505833098
 31
0.0
  0
LINE
  5
C7
330
2
100
AcDbEntity
  8
GAIKEI
  6
Continuous
100
AcDbLine
 10
60.01347693246145
 20
14.43497121064001
 30
0.0
 11
27.74347671239889
 21
14.43496892502344
 31
0.0
  0
LINE
  5
C8
330
2
100
AcDbEntity
  8
GAIKEI
  6
Continuous
 62
     1
100
AcDbLine
 10
57.4934769370003
 20
6.404968657705012
 30
0.0
 11
29.19347693700024
 21
6.404969209934279
 31
0.0
  0
LINE
  5
C9
330
2
100
AcDbEntity
  8
GAIKEI
  6
Continuous
 62
     1
100
AcDbLine
 10
57.4934769370003
 20
8.304968657704876
 30
0.0
 11
29.19347693700024
 21
8.30496920993437
 31
0.0
  0
LINE
  5
CA
330
2
100
AcDbEntity
  8
GAIKEI
  6
Continuous
 62
     1
100
AcDbLine
 10
57.4934769370003
 20
6.754968657704921
 30
0.0
 11
29.19347693700024
 21
6.754969209934415
 31
0.0
  0
LINE
  5
CB
330
2
100
AcDbEntity
  8
GAIKEI
  6
Continuous
 62
     1
100
AcDbLine
 10
57.4934769370003
 20
7.954968657704966
 30
0.0
 11
29.19347693700024
 21
7.954969209934347
 31
0.0
  0
LINE
  5
CC
330
2
100
AcDbEntity
  8
GAIKEI
  6
Continuous
 62
     1
100
AcDbLine
 10
-44.34909997839167
 20
14.33496865770428
 30
0.0
 11
-2.349099978391677
 21
14.33496865770428
 31
0.0
  0
LINE
  5
CD
330
2
100
AcDbEntity
  8
GAIKEI
  6
Continuous
100
AcDbLine
 10
-44.34909997839167
 20
14.4349686577043
 30
0.0
 11
-2.349099978391677
 21
14.4349686577043
 31
0.0
  0
LINE
  5
CE
330
2
100
AcDbEntity
  8
GAIKEI
  6
Continuous
100
AcDbLine
 10
-44.34909997839167
 20
5.634968657704348
 30
0.0
 11
-44.34909997839167
 21
10.03496865770421
 31
0.0
  0
LINE
  5
CF
330
2
100
AcDbEntity
  8
GAIKEI
  6
Continuous
100
AcDbLine
 10
-2.349099978391677
 20
5.634968657704348
 30
0.0
 11
-44.34909997839167
 21
5.634968657704348
 31
0.0
  0
LINE
  5
D0
330
2
100
AcDbEntity
  8
GAIKEI
  6
Continuous
100
AcDbLine
 10
-2.349099978391677
 20
10.03496865770421
 30
0.0
 11
-2.349099978391677
 21
5.634968657704348
 31
0.0
  0
LINE
  5
D1
330
2
100
AcDbEntity
  8
GAIKEI
  6
Continuous
100
AcDbLine
 10
-2.349099978391677
 20
5.634968657704348
 30
0.0
 11
-44.34909997839167
 21
5.634968657704348
 31
0.0
  0
LINE
  5
D2
330
2
100
AcDbEntity
  8
GAIKEI
  6
HIDDEN2
 62
     1
100
AcDbLine
 10
-47.14909997839163
 20
14.4349686577043
 30
0.0
 11
-44.34909997839167
 21
14.4349686577043
 31
0.0
  0
LINE
  5
D4
330
2
100
AcDbEntity
  8
GAIKEI
  6
S10
 62
     1
100
AcDbLine
 10
-44.57909997839169
 20
14.4349686577043
 30
0.0
 11
-44.57909997839169
 21
5.634968657704348
 31
0.0
  0
LINE
  5
D6
330
2
100
AcDbEntity
  8
GAIKEI
  6
HIDDEN2
 62
     1
100
AcDbLine
 10
-44.34909997839167
 20
5.634968657704348
 30
0.0
 11
-47.14909997839163
 21
5.634968657704348
 31
0.0
  0
LINE
  5
D7
330
2
100
AcDbEntity
  8
GAIKEI
  6
S10
 62
     1
100
AcDbLine
 10
-46.39909997839175
 20
14.13496865770435
 30
0.0
 11
-46.79909997839172
 21
14.13496865770435
 31
0.0
  0
LINE
  5
D8
330
2
100
AcDbEntity
  8
GAIKEI
  6
S10
 62
     1
100
AcDbLine
 10
-46.39909997839175
 20
13.53496865770432
 30
0.0
 11
-46.79909997839172
 21
13.53496865770432
 31
0.0
  0
LINE
  5
D9
330
2
100
AcDbEntity
  8
GAIKEI
  6
S10
 62
     1
100
AcDbLine
 10
-46.79909997839172
 20
5.934968657704359
 30
0.0
 11
-46.39909997839175
 21
5.934968657704359
 31
0.0
  0
LINE
  5
DA
330
2
100
AcDbEntity
  8
GAIKEI
  6
S10
 62
     1
100
AcDbLine
 10
-46.79909997839172
 20
6.534968657704439
 30
0.0
 11
-46.39909997839175
 21
6.534968657704439
 31
0.0
  0
LINE
  5
DB
330
2
100
AcDbEntity
  8
GAIKEI
  6
HIDDEN2
 62
     1
100
AcDbLine
 10
0.1009000216082541
 20
14.13496865770435
 30
0.0
 11
-0.2990999783917232
 21
14.13496865770435
 31
0.0
  0
LINE
  5
DC
330
2
100
AcDbEntity
  8
GAIKEI
  6
HIDDEN2
 62
     1
100
AcDbLine
 10
0.1009000216082541
 20
13.53496865770432
 30
0.0
 11
-0.2990999783917232
 21
13.53496865770432
 31
0.0
  0
LINE
  5
DD
330
2
100
AcDbEntity
  8
GAIKEI
  6
HIDDEN2
 62
     1
100
AcDbLine
 10
-0.2990999783917232
 20
5.934968657704359
 30
0.0
 11
0.1009000216082541
 21
5.934968657704359
 31
0.0
  0
LINE
  5
DE
330
2
100
AcDbEntity
  8
GAIKEI
  6
HIDDEN2
 62
     1
100
AcDbLine
 10
-0.2990999783917232
 20
6.534968657704439
 30
0.0
 11
0.1009000216082541
 21
6.534968657704439
 31
0.0
  0
LINE
  5
DF
330
2
100
AcDbEntity
  8
GAIKEI
  6
S10
 62
     1
100
AcDbLine
 10
-2.119099978391773
 20
5.634968657704348
 30
0.0
 11
-2.119099978391773
 21
14.4349686577043
 31
0.0
  0
LINE
  5
E0
330
2
100
AcDbEntity
  8
GAIKEI
  6
Continuous
100
AcDbLine
 10
-38.34047911260723
 20
4.675487748441355
 30
0.0
 11
-38.24909997839177
 21
5.634968657704348
 31
0.0
  0
LINE
  5
E1
330
2
100
AcDbEntity
  8
GAIKEI
  6
Continuous
100
AcDbLine
 10
-40.44909997839158
 20
5.634968657704348
 30
0.0
 11
-40.35772084417613
 21
4.675487748441355
 31
0.0
  0
LINE
  5
E2
330
2
100
AcDbEntity
  8
GAIKEI
  6
Continuous
100
AcDbLine
 10
-40.25817129691688
 20
4.584968657704052
 30
0.0
 11
-38.44002865986636
 21
4.584968657704052
 31
0.0
  0
LINE
  5
E3
330
2
100
AcDbEntity
  8
GAIKEI
  6
Continuous
100
AcDbLine
 10
-44.34909997839167
 20
14.4349686577043
 30
0.0
 11
-2.349099978391677
 21
14.4349686577043
 31
0.0
  0
LINE
  5
E4
330
2
100
AcDbEntity
  8
GAIKEI
  6
Continuous
100
AcDbLine
 10
-2.349099978391677
 20
14.4349686577043
 30
0.0
 11
-2.349099978391677
 21
5.634968657704348
 31
0.0
  0
LINE
  5
E5
330
2
100
AcDbEntity
  8
GAIKEI
  6
Continuous
100
AcDbLine
 10
-2.349099978391677
 20
5.634968657704348
 30
0.0
 11
-44.34909997839167
 21
5.634968657704348
 31
0.0
  0
LINE
  5
E6
330
2
100
AcDbEntity
  8
GAIKEI
  6
Continuous
100
AcDbLine
 10
-2.349099978391677
 20
14.4349686577043
 30
0.0
 11
-2.349099978391677
 21
5.634968657704348
 31
0.0
  0
LINE
  5
E7
330
2
100
AcDbEntity
  8
GAIKEI
  6
Continuous
100
AcDbLine
 10
-44.34909997839167
 20
14.4349686577043
 30
0.0
 11
-2.349099978391677
 21
14.4349686577043
 31
0.0
  0
LINE
  5
E8
330
2
100
AcDbEntity
  8
GAIKEI
  6
Continuous
100
AcDbLine
 10
-8.449099978391586
 20
5.634968657704348
 30
0.0
 11
-8.357720844176128
 21
4.675487748441355
 31
0.0
  0
LINE
  5
E9
330
2
100
AcDbEntity
  8
GAIKEI
  6
Continuous
100
AcDbLine
 10
-6.340479112607113
 20
4.675487748441355
 30
0.0
 11
-6.249099978391768
 21
5.634968657704348
 31
0.0
  0
LINE
  5
EA
330
2
100
AcDbEntity
  8
GAIKEI
  6
Continuous
100
AcDbLine
 10
-44.34909997839167
 20
5.634968657704348
 30
0.0
 11
-44.34909997839167
 21
14.4349686577043
 31
0.0
  0
LINE
  5
EB
330
2
100
AcDbEntity
  8
GAIKEI
  6
Continuous
100
AcDbLine
 10
27.94347743096023
 20
5.634970248752836
 30
0.0
 11
27.84347743096021
 21
5.734970248752858
 31
0.0
  0
LINE
  5
EC
330
2
100
AcDbEntity
  8
GAIKEI
  6
Continuous
100
AcDbLine
 10
27.74347671239889
 20
14.43496892502344
 30
0.0
 11
27.74347677467427
 21
14.43496893732413
 31
0.0
  0
LINE
  5
ED
330
2
100
AcDbEntity
  8
GAIKEI
  6
Continuous
100
AcDbLine
 10
27.32347699731008
 20
14.01496920993463
 30
0.0
 11
26.39347693700029
 21
14.01496920993463
 31
0.0
  0
LINE
  5
EE
330
2
100
AcDbEntity
  8
GAIKEI
  6
Continuous
100
AcDbLine
 10
26.39347671240296
 20
14.43496920993459
 30
0.0
 11
26.79348380928627
 21
14.43496690737152
 31
0.0
  0
LINE
  5
EF
330
2
100
AcDbEntity
  8
GAIKEI
  6
Continuous
100
AcDbLine
 10
27.74347671240253
 20
14.28496920993473
 30
0.0
 11
27.52347671240205
 21
14.06496920993447
 31
0.0
  0
LINE
  5
F0
330
2
100
AcDbEntity
  8
GAIKEI
  6
Continuous
100
AcDbLine
 10
27.74347671240253
 20
14.28496920993473
 30
0.0
 11
27.74347677467427
 21
14.43496893732413
 31
0.0
  0
LINE
  5
F1
330
2
100
AcDbEntity
  8
GAIKEI
  6
Continuous
100
AcDbLine
 10
26.39347693700029
 20
14.06496920993447
 30
0.0
 11
27.52347671240205
 21
14.06496920993447
 31
0.0
  0
LINE
  5
F2
330
2
100
AcDbEntity
  8
GAIKEI
  6
Continuous
100
AcDbLine
 10
25.09347671240301
 20
13.69496883364229
 30
0.0
 11
25.09347671240289
 21
6.034968912069075
 31
0.0
  0
LINE
  5
F3
330
2
100
AcDbEntity
  8
GAIKEI
  6
Continuous
100
AcDbLine
 10
25.09347671240301
 20
14.03496883364175
 30
0.0
 11
25.09347671240301
 21
13.69496883364229
 31
0.0
  0
LINE
  5
F4
330
2
100
AcDbEntity
  8
GAIKEI
  6
S10
 62
     1
100
AcDbLine
 10
28.09347671240301
 20
5.83496883364188
 30
0.0
 11
28.09347671240301
 21
14.23496883364191
 31
0.0
  0
LINE
  5
F5
330
2
100
AcDbEntity
  8
GAIKEI
  6
S10
 62
     1
100
AcDbLine
 10
25.32347671240302
 20
14.43496883364185
 30
0.0
 11
25.32347671240302
 21
5.634968833641835
 31
0.0
  0
LINE
  5
F6
330
2
100
AcDbEntity
  8
GAIKEI
  6
Continuous
100
AcDbLine
 10
25.09347671240244
 20
13.78396627380471
 30
0.0
 11
25.09347671240301
 21
14.13496920993452
 31
0.0
  0
LINE
  5
F7
330
2
100
AcDbEntity
  8
GAIKEI
  6
Continuous
100
AcDbLine
 10
26.89347674737007
 20
14.43496690737152
 30
0.0
 11
27.6792895206396
 21
14.43496690737152
 31
0.0
  0
LINE
  5
F8
330
2
100
AcDbEntity
  8
GAIKEI
  6
Continuous
100
AcDbLine
 10
26.89347674737007
 20
14.43496690737152
 30
0.0
 11
26.79348380928627
 21
14.43496690737152
 31
0.0
  0
LINE
  5
F9
330
2
100
AcDbEntity
  8
GAIKEI
  6
Continuous
100
AcDbLine
 10
25.36347671240287
 20
5.964969696522473
 30
0.0
 11
25.36347671240287
 21
13.91496865770443
 31
0.0
  0
LINE
  5
FA
330
2
100
AcDbEntity
  8
GAIKEI
  6
Continuous
100
AcDbLine
 10
26.39347693700029
 20
14.01496920993463
 30
0.0
 11
25.46347668347653
 21
14.01496920993463
 31
0.0
  0
LINE
  5
FB
330
2
100
AcDbEntity
  8
GAIKEI
  6
Continuous
100
AcDbLine
 10
28.08485656517575
 20
4.675488300671759
 30
0.0
 11
27.99347743096018
 21
5.634969209934581
 31
0.0
  0
LINE
  5
FC
330
2
100
AcDbEntity
  8
GAIKEI
  6
Continuous
100
AcDbLine
 10
30.19347743096023
 20
5.634969209934581
 30
0.0
 11
30.10209829674466
 21
4.675488300671759
 31
0.0
  0
LINE
  5
FD
330
2
100
AcDbEntity
  8
GAIKEI
  6
Continuous
100
AcDbLine
 10
30.0025487494853
 20
4.58496920993457
 30
0.0
 11
28.18440611243466
 21
4.58496920993457
 31
0.0
  0
LINE
  5
FE
330
2
100
AcDbEntity
  8
GAIKEI
  6
Continuous
 62
     1
100
AcDbLine
 10
30.78847693700038
 20
7.319969209934015
 30
0.0
 11
30.66347693700038
 21
7.319969209934015
 31
0.0
  0
LINE
  5
FF
330
2
100
AcDbEntity
  8
GAIKEI
  6
Continuous
 62
     1
100
AcDbLine
 10
30.55847693700036
 20
7.549969209934147
 30
0.0
 11
30.55847693700036
 21
7.424969209934147
 31
0.0
  0
LINE
  5
100
330
2
100
AcDbEntity
  8
GAIKEI
  6
Continuous
 62
     1
100
AcDbLine
 10
30.78847693700038
 20
7.389969209934065
 30
0.0
 11
30.78847693700038
 21
7.319969209934015
 31
0.0
  0
LINE
  5
101
330
2
100
AcDbEntity
  8
GAIKEI
  6
Continuous
 62
     1
100
AcDbLine
 10
30.39847693700063
 20
7.389969209934065
 30
0.0
 11
30.39847693700063
 21
7.319969209934015
 31
0.0
  0
LINE
  5
102
330
2
100
AcDbEntity
  8
GAIKEI
  6
Continuous
 62
     1
100
AcDbLine
 10
30.62847693700041
 20
7.159969209934388
 30
0.0
 11
30.55847693700036
 21
7.159969209934388
 31
0.0
  0
LINE
  5
103
330
2
100
AcDbEntity
  8
GAIKEI
  6
Continuous
 62
     1
100
AcDbLine
 10
30.62847693700041
 20
7.549969209934147
 30
0.0
 11
30.55847693700036
 21
7.549969209934147
 31
0.0
  0
LINE
  5
104
330
2
100
AcDbEntity
  8
GAIKEI
  6
Continuous
 62
     1
100
AcDbLine
 10
30.62847693700041
 20
7.284969209934388
 30
0.0
 11
30.62847693700041
 21
7.159969209934388
 31
0.0
  0
LINE
  5
105
330
2
100
AcDbEntity
  8
GAIKEI
  6
Continuous
 62
     1
100
AcDbLine
 10
30.52347693700062
 20
7.319969209934015
 30
0.0
 11
30.39847693700063
 21
7.319969209934015
 31
0.0
  0
LINE
  5
106
330
2
100
AcDbEntity
  8
GAIKEI
  6
Continuous
 62
     1
100
AcDbLine
 10
30.52347693700062
 20
7.389969209934065
 30
0.0
 11
30.39847693700063
 21
7.389969209934065
 31
0.0
  0
LINE
  5
107
330
2
100
AcDbEntity
  8
GAIKEI
  6
Continuous
 62
     1
100
AcDbLine
 10
30.55847693700036
 20
7.284969209934388
 30
0.0
 11
30.55847693700036
 21
7.159969209934388
 31
0.0
  0
LINE
  5
108
330
2
100
AcDbEntity
  8
GAIKEI
  6
Continuous
 62
     1
100
AcDbLine
 10
30.78847693700038
 20
7.389969209934065
 30
0.0
 11
30.66347693700038
 21
7.389969209934065
 31
0.0
  0
LINE
  5
109
330
2
100
AcDbEntity
  8
GAIKEI
  6
Continuous
 62
     1
100
AcDbLine
 10
30.62847693700041
 20
7.549969209934147
 30
0.0
 11
30.62847693700041
 21
7.424969209934147
 31
0.0
  0
LINE
  5
10A
330
2
100
AcDbEntity
  8
GAIKEI
  6
Continuous
100
AcDbLine
 10
26.39347671240296
 20
14.43496920993459
 30
0.0
 11
25.1934767124028
 21
14.43496920993459
 31
0.0
  0
LINE
  5
10B
330
2
100
AcDbEntity
  8
GAIKEI
  6
Continuous
100
AcDbLine
 10
25.34347671240301
 20
14.03496920993461
 30
0.0
 11
25.34347671240301
 21
5.634969209934581
 31
0.0
  0
LINE
  5
10C
330
2
100
AcDbEntity
  8
GAIKEI
  6
Continuous
100
AcDbLine
 10
26.39347671240296
 20
14.43496920993459
 30
0.0
 11
25.19347671240303
 21
14.43496920993459
 31
0.0
  0
LINE
  5
10D
330
2
100
AcDbEntity
  8
GAIKEI
  6
Continuous
100
AcDbLine
 10
25.19347671240303
 20
14.43496920993459
 30
0.0
 11
25.09347671240301
 21
14.33496920993457
 31
0.0
  0
LINE
  5
10E
330
2
100
AcDbEntity
  8
GAIKEI
  6
Continuous
100
AcDbLine
 10
26.39347693700029
 20
14.06496920993447
 30
0.0
 11
25.37347671240264
 21
14.06496920993447
 31
0.0
  0
LINE
  5
10F
330
2
100
AcDbEntity
  8
GAIKEI
  6
Continuous
100
AcDbLine
 10
30.34347743096021
 20
5.734970248752858
 30
0.0
 11
30.24347743096019
 21
5.634970248752836
 31
0.0
  0
LINE
  5
110
330
2
100
AcDbEntity
  8
GAIKEI
  6
Continuous
 62
     1
100
AcDbLine
 10
30.24347743096019
 20
5.634970248752836
 30
0.0
 11
27.94347743096023
 21
5.634970248752836
 31
0.0
  0
LINE
  5
111
330
2
100
AcDbEntity
  8
GAIKEI
  6
Continuous
 62
     1
100
AcDbLine
 10
60.22108338459384
 20
13.35497116950614
 30
0.0
 11
60.22108338459384
 21
14.05497116950573
 31
0.0
  0
LINE
  5
112
330
2
100
AcDbEntity
  8
GAIKEI
  6
Continuous
 62
     1
100
AcDbLine
 10
60.22108338459384
 20
14.05497116950573
 30
0.0
 11
60.4034752752824
 21
13.95497116950616
 31
0.0
  0
LINE
  5
113
330
2
100
AcDbEntity
  8
GAIKEI
  6
Continuous
 62
     1
100
AcDbLine
 10
60.4034752752824
 20
13.95497116950616
 30
0.0
 11
60.40347527528229
 21
13.70497116950616
 31
0.0
  0
LINE
  5
114
330
2
100
AcDbEntity
  8
GAIKEI
  6
Continuous
 62
     1
100
AcDbLine
 10
60.40347527528229
 20
13.45497116950616
 30
0.0
 11
60.22108338459384
 21
13.35497116950614
 31
0.0
  0
LINE
  5
115
330
2
100
AcDbEntity
  8
GAIKEI
  6
Continuous
 62
     1
100
AcDbLine
 10
60.22108338459384
 20
13.35497116950614
 30
0.0
 11
60.20263970169787
 21
13.25037184600956
 31
0.0
  0
LINE
  5
116
330
2
100
AcDbEntity
  8
GAIKEI
  6
Continuous
 62
     1
100
AcDbLine
 10
60.40347527528229
 20
13.70497116950616
 30
0.0
 11
60.40347527528229
 21
13.45497116950616
 31
0.0
  0
LINE
  5
117
330
2
100
AcDbEntity
  8
GAIKEI
  6
Continuous
 62
     1
100
AcDbLine
 10
60.20263970169787
 20
14.15957049300243
 30
0.0
 11
60.22108338459384
 21
14.05497116950573
 31
0.0
  0
LINE
  5
118
330
2
100
AcDbEntity
  8
GAIKEI
  6
Continuous
 62
     1
100
AcDbLine
 10
60.03347624132948
 20
5.825228838377654
 30
0.0
 11
60.10801997215605
 21
5.831755223729942
 31
0.0
  0
LINE
  5
119
330
2
100
AcDbEntity
  8
GAIKEI
  6
Continuous
 62
     1
100
AcDbLine
 10
60.10801997215605
 20
5.831755223729942
 30
0.0
 11
60.10801997215605
 21
6.35266151017845
 31
0.0
  0
LINE
  5
11A
330
2
100
AcDbEntity
  8
GAIKEI
  6
Continuous
 62
     1
100
AcDbLine
 10
60.0934769944331
 20
13.73947309196137
 30
0.0
 11
60.10801997215605
 21
13.73820082462237
 31
0.0
  0
LINE
  5
11B
330
2
100
AcDbEntity
  8
GAIKEI
  6
Continuous
 62
     1
100
AcDbLine
 10
60.09347701873753
 20
13.13048757310798
 30
0.0
 11
60.10801997215605
 21
13.13176082462257
 31
0.0
  0
LINE
  5
11C
330
2
100
AcDbEntity
  8
GAIKEI
  6
Continuous
 62
     1
100
AcDbLine
 10
60.10801997215605
 20
13.13176082462257
 30
0.0
 11
60.10801997215605
 21
13.73820082462237
 31
0.0
  0
LINE
  5
11D
330
2
100
AcDbEntity
  8
GAIKEI
  6
Continuous
 62
     1
100
AcDbLine
 10
60.20263970169787
 20
7.289570323934412
 30
0.0
 11
60.22108338459384
 21
7.184971000437826
 31
0.0
  0
LINE
  5
11E
330
2
100
AcDbEntity
  8
GAIKEI
  6
Continuous
 62
     1
100
AcDbLine
 10
60.40347527528229
 20
6.834971000438144
 30
0.0
 11
60.40347527528229
 21
6.584971000438144
 31
0.0
  0
LINE
  5
11F
330
2
100
AcDbEntity
  8
GAIKEI
  6
Continuous
 62
     1
100
AcDbLine
 10
60.22108338459384
 20
6.484971000438235
 30
0.0
 11
60.20263970169787
 21
6.380371676941649
 31
0.0
  0
LINE
  5
120
330
2
100
AcDbEntity
  8
GAIKEI
  6
Continuous
 62
     1
100
AcDbLine
 10
60.40347527528229
 20
6.584971000438144
 30
0.0
 11
60.22108338459384
 21
6.484971000438235
 31
0.0
  0
LINE
  5
121
330
2
100
AcDbEntity
  8
GAIKEI
  6
Continuous
 62
     1
100
AcDbLine
 10
60.4034752752824
 20
7.084971000438144
 30
0.0
 11
60.40347527528229
 21
6.834971000438144
 31
0.0
  0
LINE
  5
122
330
2
100
AcDbEntity
  8
GAIKEI
  6
Continuous
 62
     1
100
AcDbLine
 10
60.22108338459384
 20
7.184971000437826
 30
0.0
 11
60.4034752752824
 21
7.084971000438144
 31
0.0
  0
LINE
  5
123
330
2
100
AcDbEntity
  8
GAIKEI
  6
Continuous
 62
     1
100
AcDbLine
 10
60.22108338459384
 20
6.484971000438235
 30
0.0
 11
60.22108338459384
 21
7.184971000437826
 31
0.0
  0
LINE
  5
124
330
2
100
AcDbEntity
  8
GAIKEI
  6
Continuous
100
AcDbLine
 10
60.09347729075
 20
5.914834440722245
 30
0.0
 11
60.09347696148734
 21
14.16496971409969
 31
0.0
  0
LINE
  5
125
330
2
100
AcDbEntity
  8
GAIKEI
  6
Continuous
100
AcDbLine
 10
59.7634772896921
 20
5.914834440722245
 30
0.0
 11
59.76347729542886
 21
5.734969696523251
 31
0.0
  0
LINE
  5
126
330
2
100
AcDbEntity
  8
GAIKEI
  6
Continuous
100
AcDbLine
 10
60.09347695451868
 20
14.23497009125094
 30
0.0
 11
60.09347694493704
 21
14.35497121459355
 31
0.0
  0
LINE
  5
127
330
2
100
AcDbEntity
  8
GAIKEI
  6
Continuous
100
AcDbLine
 10
60.09347729075
 20
5.914834440722245
 30
0.0
 11
60.01347728969211
 21
5.914834440722245
 31
0.0
  0
LINE
  5
128
330
2
100
AcDbEntity
  8
GAIKEI
  6
Continuous
100
AcDbLine
 10
60.09347693700033
 20
14.35496865770494
 30
0.0
 11
60.09347693700033
 21
5.914834440722245
 31
0.0
  0
LINE
  5
129
330
2
100
AcDbEntity
  8
GAIKEI
  6
Continuous
100
AcDbLine
 10
59.7634772896921
 20
5.914834440722245
 30
0.0
 11
60.01347728969211
 21
5.914834440722245
 31
0.0
  0
LINE
  5
12A
330
2
100
AcDbEntity
  8
GAIKEI
  6
Continuous
100
AcDbLine
 10
55.08485584661844
 20
4.775487748441946
 30
0.0
 11
54.99347671240298
 21
5.734968657704882
 31
0.0
  0
LINE
  5
12B
330
2
100
AcDbEntity
  8
GAIKEI
  6
Continuous
100
AcDbLine
 10
57.19347671240303
 20
5.734968657704882
 30
0.0
 11
57.10209757818734
 21
4.775487748441946
 31
0.0
  0
LINE
  5
12C
330
2
100
AcDbEntity
  8
GAIKEI
  6
Continuous
100
AcDbLine
 10
57.00254803092798
 20
4.684968657704871
 30
0.0
 11
55.18440539387768
 21
4.684968657704871
 31
0.0
  0
LINE
  5
12D
330
2
100
AcDbEntity
  8
GAIKEI
  6
Continuous
 62
     1
100
AcDbLine
 10
53.48847693700043
 20
7.319968657704748
 30
0.0
 11
53.36347693700043
 21
7.319968657704748
 31
0.0
  0
LINE
  5
12E
330
2
100
AcDbEntity
  8
GAIKEI
  6
Continuous
 62
     1
100
AcDbLine
 10
53.2584769370004
 20
7.549968657704539
 30
0.0
 11
53.2584769370004
 21
7.424968657704539
 31
0.0
  0
LINE
  5
12F
330
2
100
AcDbEntity
  8
GAIKEI
  6
Continuous
 62
     1
100
AcDbLine
 10
53.48847693700043
 20
7.389968657704571
 30
0.0
 11
53.48847693700043
 21
7.319968657704748
 31
0.0
  0
LINE
  5
130
330
2
100
AcDbEntity
  8
GAIKEI
  6
Continuous
 62
     1
100
AcDbLine
 10
53.09847693700044
 20
7.389968657704571
 30
0.0
 11
53.09847693700044
 21
7.319968657704748
 31
0.0
  0
LINE
  5
131
330
2
100
AcDbEntity
  8
GAIKEI
  6
Continuous
 62
     1
100
AcDbLine
 10
53.32847693700023
 20
7.159968657704666
 30
0.0
 11
53.2584769370004
 21
7.159968657704666
 31
0.0
  0
LINE
  5
132
330
2
100
AcDbEntity
  8
GAIKEI
  6
Continuous
 62
     1
100
AcDbLine
 10
53.32847693700023
 20
7.549968657704539
 30
0.0
 11
53.2584769370004
 21
7.549968657704539
 31
0.0
  0
LINE
  5
133
330
2
100
AcDbEntity
  8
GAIKEI
  6
Continuous
 62
     1
100
AcDbLine
 10
53.32847693700023
 20
7.284968657704666
 30
0.0
 11
53.32847693700023
 21
7.159968657704666
 31
0.0
  0
LINE
  5
134
330
2
100
AcDbEntity
  8
GAIKEI
  6
Continuous
 62
     1
100
AcDbLine
 10
53.22347693700044
 20
7.319968657704748
 30
0.0
 11
53.09847693700044
 21
7.319968657704748
 31
0.0
  0
LINE
  5
135
330
2
100
AcDbEntity
  8
GAIKEI
  6
Continuous
 62
     1
100
AcDbLine
 10
53.22347693700044
 20
7.389968657704571
 30
0.0
 11
53.09847693700044
 21
7.389968657704571
 31
0.0
  0
LINE
  5
136
330
2
100
AcDbEntity
  8
GAIKEI
  6
Continuous
 62
     1
100
AcDbLine
 10
53.2584769370004
 20
7.284968657704666
 30
0.0
 11
53.2584769370004
 21
7.159968657704666
 31
0.0
  0
LINE
  5
137
330
2
100
AcDbEntity
  8
GAIKEI
  6
Continuous
 62
     1
100
AcDbLine
 10
53.48847693700043
 20
7.389968657704571
 30
0.0
 11
53.36347693700043
 21
7.389968657704571
 31
0.0
  0
LINE
  5
138
330
2
100
AcDbEntity
  8
GAIKEI
  6
Continuous
 62
     1
100
AcDbLine
 10
53.32847693700023
 20
7.549968657704539
 30
0.0
 11
53.32847693700023
 21
7.424968657704539
 31
0.0
  0
LINE
  5
139
330
2
100
AcDbEntity
  8
GAIKEI
  6
Continuous
 62
     1
100
AcDbLine
 10
59.98347624132953
 20
5.854995058330757
 30
0.0
 11
59.8834762413295
 21
5.854995058330757
 31
0.0
  0
LINE
  5
13A
330
2
100
AcDbEntity
  8
GAIKEI
  6
Continuous
 62
     1
100
AcDbLine
 10
57.99347671240298
 20
5.73499505833098
 30
0.0
 11
57.99347671240298
 21
5.634995058330957
 31
0.0
  0
LINE
  5
13B
330
2
100
AcDbEntity
  8
GAIKEI
  6
Continuous
 62
     1
100
AcDbLine
 10
59.8834762413295
 20
5.634995058330957
 30
0.0
 11
57.99347671240298
 21
5.634995058330957
 31
0.0
  0
LINE
  5
13C
330
2
100
AcDbEntity
  8
GAIKEI
  6
Continuous
 62
     1
100
AcDbLine
 10
59.98347624132953
 20
5.854995058330757
 30
0.0
 11
59.98347624132953
 21
5.73499505833098
 31
0.0
  0
LINE
  5
13D
330
2
100
AcDbEntity
  8
GAIKEI
  6
Continuous
100
AcDbLine
 10
59.8834762413295
 20
5.854995058330757
 30
0.0
 11
59.8834762413295
 21
5.73499505833098
 31
0.0
  0
LINE
  5
13E
330
2
100
AcDbEntity
  8
GAIKEI
  6
Continuous
 62
     1
100
AcDbLine
 10
60.03347624132948
 20
5.834968657704848
 30
0.0
 11
60.03347624132948
 21
5.73499505833098
 31
0.0
  0
LINE
  5
13F
330
2
100
AcDbEntity
  8
GAIKEI
  6
Continuous
 62
     1
100
AcDbLine
 10
60.03347624132948
 20
5.834968657704848
 30
0.0
 11
59.98347624132953
 21
5.834968657704848
 31
0.0
  0
LINE
  5
140
330
2
100
AcDbEntity
  8
GAIKEI
  6
Continuous
 62
     1
100
AcDbLine
 10
60.03347624132948
 20
5.73499505833098
 30
0.0
 11
59.98347624132953
 21
5.73499505833098
 31
0.0
  0
LINE
  5
141
330
2
100
AcDbEntity
  8
GAIKEI
  6
Continuous
100
AcDbLine
 10
59.8834762413295
 20
5.73499505833098
 30
0.0
 11
59.78577369448203
 21
5.73499505833098
 31
0.0
  0
LINE
  5
142
330
2
100
AcDbEntity
  8
GAIKEI
  6
Continuous
 62
     1
100
AcDbLine
 10
59.98347624132953
 20
5.914834440722245
 30
0.0
 11
59.98347624132953
 21
5.854995058330757
 31
0.0
  0
LINE
  5
143
330
2
100
AcDbEntity
  8
GAIKEI
  6
Continuous
100
AcDbLine
 10
59.8834762413295
 20
5.914834440722245
 30
0.0
 11
59.8834762413295
 21
5.854995058330757
 31
0.0
  0
LINE
  5
144
330
2
100
AcDbEntity
  8
GAIKEI
  6
Continuous
 62
     1
100
AcDbLine
 10
60.19347693700024
 20
12.98497238248569
 30
0.0
 11
60.19347693700024
 21
11.28497238248542
 31
0.0
  0
LINE
  5
145
330
2
100
AcDbEntity
  8
GAIKEI
  6
Continuous
 62
     1
100
AcDbLine
 10
60.59347693700033
 20
12.71497238248548
 30
0.0
 11
60.59347693700033
 21
11.55497238248563
 31
0.0
  0
LINE
  5
146
330
2
100
AcDbEntity
  8
GAIKEI
  6
Continuous
 62
     1
100
AcDbLine
 10
60.49347693700031
 20
11.45497238248549
 30
0.0
 11
60.19347693700024
 21
11.45497238248549
 31
0.0
  0
LINE
  5
147
330
2
100
AcDbEntity
  8
GAIKEI
  6
Continuous
 62
     1
100
AcDbLine
 10
60.49347693700031
 20
12.81497238248562
 30
0.0
 11
60.19347693700024
 21
12.81497238248562
 31
0.0
  0
LINE
  5
148
330
2
100
AcDbEntity
  8
GAIKEI
  6
Continuous
 62
     1
100
AcDbLine
 10
60.14347693700028
 20
11.23497238248546
 30
0.0
 11
60.09347693700033
 21
11.23497238248546
 31
0.0
  0
LINE
  5
149
330
2
100
AcDbEntity
  8
GAIKEI
  6
Continuous
 62
     1
100
AcDbLine
 10
60.14347693700028
 20
11.23497238248546
 30
0.0
 11
60.19347693700024
 21
11.28497238248542
 31
0.0
  0
LINE
  5
14A
330
2
100
AcDbEntity
  8
GAIKEI
  6
Continuous
 62
     1
100
AcDbLine
 10
60.4934767477024
 20
7.134972382485784
 30
0.0
 11
60.3634771821894
 21
7.134972382485784
 31
0.0
  0
LINE
  5
14B
330
2
100
AcDbEntity
  8
GAIKEI
  6
Continuous
 62
     1
100
AcDbLine
 10
60.4934767477024
 20
10.13497238248578
 30
0.0
 11
60.3634771821894
 21
10.13497238248578
 31
0.0
  0
LINE
  5
14C
330
2
100
AcDbEntity
  8
GAIKEI
  6
Continuous
 62
     1
100
AcDbLine
 10
60.59347674770243
 20
7.234972382485693
 30
0.0
 11
60.59347674770243
 21
10.03497238248576
 31
0.0
  0
LINE
  5
14D
330
2
100
AcDbEntity
  8
GAIKEI
  6
Continuous
 62
     1
100
AcDbLine
 10
60.3634771821894
 20
10.13497238248578
 30
0.0
 11
60.3634771821894
 21
10.93497238248574
 31
0.0
  0
LINE
  5
14E
330
2
100
AcDbEntity
  8
GAIKEI
  6
Continuous
 62
     1
100
AcDbLine
 10
60.15760992793798
 20
6.234972382485693
 30
0.0
 11
60.26347718218937
 21
6.234972382485693
 31
0.0
  0
LINE
  5
14F
330
2
100
AcDbEntity
  8
GAIKEI
  6
Continuous
 62
     1
100
AcDbLine
 10
60.26347718218937
 20
11.03497238248576
 30
0.0
 11
60.09347693700033
 21
11.03497238248576
 31
0.0
  0
LINE
  5
150
330
2
100
AcDbEntity
  8
GAIKEI
  6
Continuous
 62
     1
100
AcDbLine
 10
60.3634771821894
 20
6.33497238248583
 30
0.0
 11
60.3634771821894
 21
6.563041246356533
 31
0.0
  0
LINE
  5
151
330
2
100
AcDbEntity
  8
GAIKEI
  6
Continuous
 62
     1
100
AcDbLine
 10
60.3634771821894
 20
7.10690075451987
 30
0.0
 11
60.3634771821894
 21
7.134972382485784
 31
0.0
  0
LINE
  5
152
330
2
100
AcDbEntity
  8
GAIKEI
  6
Continuous
 62
     1
100
AcDbLine
 10
60.19347693700024
 20
12.98497238248569
 30
0.0
 11
60.14347693700028
 21
13.03497238248565
 31
0.0
  0
LINE
  5
153
330
2
100
AcDbEntity
  8
GAIKEI
  6
Continuous
 62
     1
100
AcDbLine
 10
60.09347693700033
 20
13.03497238248565
 30
0.0
 11
60.14347693700028
 21
13.03497238248565
 31
0.0
  0
LINE
  5
154
330
2
100
AcDbEntity
  8
GAIKEI
  6
Continuous
 62
     1
100
AcDbLine
 10
29.59347671240244
 20
8.684969695699919
 30
0.0
 11
29.59347671240244
 21
9.184969695699919
 31
0.0
  0
LINE
  5
155
330
2
100
AcDbEntity
  8
GAIKEI
  6
Continuous
 62
     1
100
AcDbLine
 10
29.59347671240244
 20
9.434969695699919
 30
0.0
 11
29.59347671240244
 21
9.934969695699919
 31
0.0
  0
LINE
  5
156
330
2
100
AcDbEntity
  8
GAIKEI
  6
Continuous
 62
     1
100
AcDbLine
 10
29.59347671240244
 20
10.18496969569992
 30
0.0
 11
29.59347671240244
 21
10.68496969569992
 31
0.0
  0
LINE
  5
157
330
2
100
AcDbEntity
  8
GAIKEI
  6
Continuous
 62
     1
100
AcDbLine
 10
29.81347181240244
 20
9.184969695699919
 30
0.0
 11
29.59347671240244
 21
9.184969695699919
 31
0.0
  0
LINE
  5
158
330
2
100
AcDbEntity
  8
GAIKEI
  6
Continuous
 62
     1
100
AcDbLine
 10
29.81347181240244
 20
9.934969695699919
 30
0.0
 11
29.59347671240244
 21
9.934969695699919
 31
0.0
  0
LINE
  5
159
330
2
100
AcDbEntity
  8
GAIKEI
  6
Continuous
 62
     1
100
AcDbLine
 10
29.81347181240244
 20
10.68496969569992
 30
0.0
 11
29.59347671240244
 21
10.68496969569992
 31
0.0
  0
LINE
  5
15A
330
2
100
AcDbEntity
  8
GAIKEI
  6
Continuous
 62
     1
100
AcDbLine
 10
29.81347181240244
 20
8.684969695699919
 30
0.0
 11
29.59347671240244
 21
8.684969695699919
 31
0.0
  0
LINE
  5
15B
330
2
100
AcDbEntity
  8
GAIKEI
  6
Continuous
 62
     1
100
AcDbLine
 10
29.81347181240244
 20
9.434969695699919
 30
0.0
 11
29.59347671240244
 21
9.434969695699919
 31
0.0
  0
LINE
  5
15C
330
2
100
AcDbEntity
  8
GAIKEI
  6
Continuous
 62
     1
100
AcDbLine
 10
29.81347181240244
 20
10.18496969569992
 30
0.0
 11
29.59347671240244
 21
10.18496969569992
 31
0.0
  0
LINE
  5
15D
330
2
100
AcDbEntity
  8
GAIKEI
  6
Continuous
 62
     1
100
AcDbLine
 10
29.81347181240244
 20
8.684969695699919
 30
0.0
 11
29.81347181240244
 21
9.184969695699919
 31
0.0
  0
LINE
  5
15E
330
2
100
AcDbEntity
  8
GAIKEI
  6
Continuous
 62
     1
100
AcDbLine
 10
29.81347181240244
 20
9.434969695699919
 30
0.0
 11
29.81347181240244
 21
9.934969695699919
 31
0.0
  0
LINE
  5
15F
330
2
100
AcDbEntity
  8
GAIKEI
  6
Continuous
 62
     1
100
AcDbLine
 10
29.81347181240244
 20
10.18496969569992
 30
0.0
 11
29.81347181240244
 21
10.68496969569992
 31
0.0
  0
LINE
  5
160
330
2
100
AcDbEntity
  8
GAIKEI
  6
Continuous
 62
     1
100
AcDbLine
 10
29.59347671240244
 20
11.18496969569992
 30
0.0
 11
29.59347671240244
 21
11.68496969569992
 31
0.0
  0
LINE
  5
161
330
2
100
AcDbEntity
  8
GAIKEI
  6
Continuous
 62
     1
100
AcDbLine
 10
29.59347671240244
 20
11.93496969569992
 30
0.0
 11
29.59347671240244
 21
12.43496969569992
 31
0.0
  0
LINE
  5
162
330
2
100
AcDbEntity
  8
GAIKEI
  6
Continuous
 62
     1
100
AcDbLine
 10
29.59347671240244
 20
12.68496969569992
 30
0.0
 11
29.59347671240244
 21
13.18496969569992
 31
0.0
  0
LINE
  5
163
330
2
100
AcDbEntity
  8
GAIKEI
  6
Continuous
 62
     1
100
AcDbLine
 10
29.81347181240244
 20
11.68496969569992
 30
0.0
 11
29.59347671240244
 21
11.68496969569992
 31
0.0
  0
LINE
  5
164
330
2
100
AcDbEntity
  8
GAIKEI
  6
Continuous
 62
     1
100
AcDbLine
 10
29.81347181240244
 20
12.43496969569992
 30
0.0
 11
29.59347671240244
 21
12.43496969569992
 31
0.0
  0
LINE
  5
165
330
2
100
AcDbEntity
  8
GAIKEI
  6
Continuous
 62
     1
100
AcDbLine
 10
29.81347181240244
 20
13.18496969569992
 30
0.0
 11
29.59347671240244
 21
13.18496969569992
 31
0.0
  0
LINE
  5
166
330
2
100
AcDbEntity
  8
GAIKEI
  6
Continuous
 62
     1
100
AcDbLine
 10
29.81347181240244
 20
11.18496969569992
 30
0.0
 11
29.59347671240244
 21
11.18496969569992
 31
0.0
  0
LINE
  5
167
330
2
100
AcDbEntity
  8
GAIKEI
  6
Continuous
 62
     1
100
AcDbLine
 10
29.81347181240244
 20
11.93496969569992
 30
0.0
 11
29.59347671240244
 21
11.93496969569992
 31
0.0
  0
LINE
  5
168
330
2
100
AcDbEntity
  8
GAIKEI
  6
Continuous
 62
     1
100
AcDbLine
 10
29.81347181240244
 20
12.68496969569992
 30
0.0
 11
29.59347671240244
 21
12.68496969569992
 31
0.0
  0
LINE
  5
169
330
2
100
AcDbEntity
  8
GAIKEI
  6
Continuous
 62
     1
100
AcDbLine
 10
29.81347181240244
 20
11.18496969569992
 30
0.0
 11
29.81347181240244
 21
11.68496969569992
 31
0.0
  0
LINE
  5
16A
330
2
100
AcDbEntity
  8
GAIKEI
  6
Continuous
 62
     1
100
AcDbLine
 10
29.81347181240244
 20
11.93496969569992
 30
0.0
 11
29.81347181240244
 21
12.43496969569992
 31
0.0
  0
LINE
  5
16B
330
2
100
AcDbEntity
  8
GAIKEI
  6
Continuous
 62
     1
100
AcDbLine
 10
29.81347181240244
 20
12.68496969569992
 30
0.0
 11
29.81347181240244
 21
13.18496969569992
 31
0.0
  0
LINE
  5
16C
330
2
100
AcDbEntity
  8
GAIKEI
  6
Continuous
 62
     1
100
AcDbLine
 10
30.31347181240244
 20
12.68496969569992
 30
0.0
 11
30.31347181240244
 21
13.18496969569992
 31
0.0
  0
LINE
  5
16D
330
2
100
AcDbEntity
  8
GAIKEI
  6
Continuous
 62
     1
100
AcDbLine
 10
30.31347181240244
 20
11.93496969569992
 30
0.0
 11
30.31347181240244
 21
12.43496969569992
 31
0.0
  0
LINE
  5
16E
330
2
100
AcDbEntity
  8
GAIKEI
  6
Continuous
 62
     1
100
AcDbLine
 10
30.31347181240244
 20
11.18496969569992
 30
0.0
 11
30.31347181240244
 21
11.68496969569992
 31
0.0
  0
LINE
  5
16F
330
2
100
AcDbEntity
  8
GAIKEI
  6
Continuous
 62
     1
100
AcDbLine
 10
30.31347181240244
 20
12.68496969569992
 30
0.0
 11
30.09347671240244
 21
12.68496969569992
 31
0.0
  0
LINE
  5
170
330
2
100
AcDbEntity
  8
GAIKEI
  6
Continuous
 62
     1
100
AcDbLine
 10
30.31347181240244
 20
11.93496969569992
 30
0.0
 11
30.09347671240244
 21
11.93496969569992
 31
0.0
  0
LINE
  5
171
330
2
100
AcDbEntity
  8
GAIKEI
  6
Continuous
 62
     1
100
AcDbLine
 10
30.31347181240244
 20
11.18496969569992
 30
0.0
 11
30.09347671240244
 21
11.18496969569992
 31
0.0
  0
LINE
  5
172
330
2
100
AcDbEntity
  8
GAIKEI
  6
Continuous
 62
     1
100
AcDbLine
 10
30.31347181240244
 20
13.18496969569992
 30
0.0
 11
30.09347671240244
 21
13.18496969569992
 31
0.0
  0
LINE
  5
173
330
2
100
AcDbEntity
  8
GAIKEI
  6
Continuous
 62
     1
100
AcDbLine
 10
30.31347181240244
 20
12.43496969569992
 30
0.0
 11
30.09347671240244
 21
12.43496969569992
 31
0.0
  0
LINE
  5
174
330
2
100
AcDbEntity
  8
GAIKEI
  6
Continuous
 62
     1
100
AcDbLine
 10
30.31347181240244
 20
11.68496969569992
 30
0.0
 11
30.09347671240244
 21
11.68496969569992
 31
0.0
  0
LINE
  5
175
330
2
100
AcDbEntity
  8
GAIKEI
  6
Continuous
 62
     1
100
AcDbLine
 10
30.09347671240244
 20
12.68496969569992
 30
0.0
 11
30.09347671240244
 21
13.18496969569992
 31
0.0
  0
LINE
  5
176
330
2
100
AcDbEntity
  8
GAIKEI
  6
Continuous
 62
     1
100
AcDbLine
 10
30.09347671240244
 20
11.93496969569992
 30
0.0
 11
30.09347671240244
 21
12.43496969569992
 31
0.0
  0
LINE
  5
177
330
2
100
AcDbEntity
  8
GAIKEI
  6
Continuous
 62
     1
100
AcDbLine
 10
30.09347671240244
 20
11.18496969569992
 30
0.0
 11
30.09347671240244
 21
11.68496969569992
 31
0.0
  0
LINE
  5
178
330
2
100
AcDbEntity
  8
GAIKEI
  6
Continuous
 62
     1
100
AcDbLine
 10
30.31347181240244
 20
10.18496969569992
 30
0.0
 11
30.31347181240244
 21
10.68496969569992
 31
0.0
  0
LINE
  5
179
330
2
100
AcDbEntity
  8
GAIKEI
  6
Continuous
 62
     1
100
AcDbLine
 10
30.31347181240244
 20
9.434969695699919
 30
0.0
 11
30.31347181240244
 21
9.934969695699919
 31
0.0
  0
LINE
  5
17A
330
2
100
AcDbEntity
  8
GAIKEI
  6
Continuous
 62
     1
100
AcDbLine
 10
30.31347181240244
 20
8.684969695699919
 30
0.0
 11
30.31347181240244
 21
9.184969695699919
 31
0.0
  0
LINE
  5
17B
330
2
100
AcDbEntity
  8
GAIKEI
  6
Continuous
 62
     1
100
AcDbLine
 10
30.31347181240244
 20
10.18496969569992
 30
0.0
 11
30.09347671240244
 21
10.18496969569992
 31
0.0
  0
LINE
  5
17C
330
2
100
AcDbEntity
  8
GAIKEI
  6
Continuous
 62
     1
100
AcDbLine
 10
30.31347181240244
 20
9.434969695699919
 30
0.0
 11
30.09347671240244
 21
9.434969695699919
 31
0.0
  0
LINE
  5
17D
330
2
100
AcDbEntity
  8
GAIKEI
  6
Continuous
 62
     1
100
AcDbLine
 10
30.31347181240244
 20
8.684969695699919
 30
0.0
 11
30.09347671240244
 21
8.684969695699919
 31
0.0
  0
LINE
  5
17E
330
2
100
AcDbEntity
  8
GAIKEI
  6
Continuous
 62
     1
100
AcDbLine
 10
30.31347181240244
 20
10.68496969569992
 30
0.0
 11
30.09347671240244
 21
10.68496969569992
 31
0.0
  0
LINE
  5
17F
330
2
100
AcDbEntity
  8
GAIKEI
  6
Continuous
 62
     1
100
AcDbLine
 10
30.31347181240244
 20
9.934969695699919
 30
0.0
 11
30.09347671240244
 21
9.934969695699919
 31
0.0
  0
LINE
  5
180
330
2
100
AcDbEntity
  8
GAIKEI
  6
Continuous
 62
     1
100
AcDbLine
 10
30.31347181240244
 20
9.184969695699919
 30
0.0
 11
30.09347671240244
 21
9.184969695699919
 31
0.0
  0
LINE
  5
181
330
2
100
AcDbEntity
  8
GAIKEI
  6
Continuous
 62
     1
100
AcDbLine
 10
30.09347671240244
 20
10.18496969569992
 30
0.0
 11
30.09347671240244
 21
10.68496969569992
 31
0.0
  0
LINE
  5
182
330
2
100
AcDbEntity
  8
GAIKEI
  6
Continuous
 62
     1
100
AcDbLine
 10
30.09347671240244
 20
9.434969695699919
 30
0.0
 11
30.09347671240244
 21
9.934969695699919
 31
0.0
  0
LINE
  5
183
330
2
100
AcDbEntity
  8
GAIKEI
  6
Continuous
 62
     1
100
AcDbLine
 10
30.09347671240244
 20
8.684969695699919
 30
0.0
 11
30.09347671240244
 21
9.184969695699919
 31
0.0
  0
LINE
  5
184
330
2
100
AcDbEntity
  8
GAIKEI
  6
Continuous
 62
     1
100
AcDbLine
 10
30.59347671240244
 20
8.684969695699919
 30
0.0
 11
30.59347671240244
 21
9.184969695699919
 31
0.0
  0
LINE
  5
185
330
2
100
AcDbEntity
  8
GAIKEI
  6
Continuous
 62
     1
100
AcDbLine
 10
30.59347671240244
 20
9.434969695699919
 30
0.0
 11
30.59347671240244
 21
9.934969695699919
 31
0.0
  0
LINE
  5
186
330
2
100
AcDbEntity
  8
GAIKEI
  6
Continuous
 62
     1
100
AcDbLine
 10
30.59347671240244
 20
10.18496969569992
 30
0.0
 11
30.59347671240244
 21
10.68496969569992
 31
0.0
  0
LINE
  5
187
330
2
100
AcDbEntity
  8
GAIKEI
  6
Continuous
 62
     1
100
AcDbLine
 10
30.81347181240244
 20
9.184969695699919
 30
0.0
 11
30.59347671240244
 21
9.184969695699919
 31
0.0
  0
LINE
  5
188
330
2
100
AcDbEntity
  8
GAIKEI
  6
Continuous
 62
     1
100
AcDbLine
 10
30.81347181240244
 20
9.934969695699919
 30
0.0
 11
30.59347671240244
 21
9.934969695699919
 31
0.0
  0
LINE
  5
189
330
2
100
AcDbEntity
  8
GAIKEI
  6
Continuous
 62
     1
100
AcDbLine
 10
30.81347181240244
 20
10.68496969569992
 30
0.0
 11
30.59347671240244
 21
10.68496969569992
 31
0.0
  0
LINE
  5
18A
330
2
100
AcDbEntity
  8
GAIKEI
  6
Continuous
 62
     1
100
AcDbLine
 10
30.81347181240244
 20
8.684969695699919
 30
0.0
 11
30.59347671240244
 21
8.684969695699919
 31
0.0
  0
LINE
  5
18B
330
2
100
AcDbEntity
  8
GAIKEI
  6
Continuous
 62
     1
100
AcDbLine
 10
30.81347181240244
 20
9.434969695699919
 30
0.0
 11
30.59347671240244
 21
9.434969695699919
 31
0.0
  0
LINE
  5
18C
330
2
100
AcDbEntity
  8
GAIKEI
  6
Continuous
 62
     1
100
AcDbLine
 10
30.81347181240244
 20
10.18496969569992
 30
0.0
 11
30.59347671240244
 21
10.18496969569992
 31
0.0
  0
LINE
  5
18D
330
2
100
AcDbEntity
  8
GAIKEI
  6
Continuous
 62
     1
100
AcDbLine
 10
30.81347181240244
 20
8.684969695699919
 30
0.0
 11
30.81347181240244
 21
9.184969695699919
 31
0.0
  0
LINE
  5
18E
330
2
100
AcDbEntity
  8
GAIKEI
  6
Continuous
 62
     1
100
AcDbLine
 10
30.81347181240244
 20
9.434969695699919
 30
0.0
 11
30.81347181240244
 21
9.934969695699919
 31
0.0
  0
LINE
  5
18F
330
2
100
AcDbEntity
  8
GAIKEI
  6
Continuous
 62
     1
100
AcDbLine
 10
30.81347181240244
 20
10.18496969569992
 30
0.0
 11
30.81347181240244
 21
10.68496969569992
 31
0.0
  0
LINE
  5
190
330
2
100
AcDbEntity
  8
GAIKEI
  6
Continuous
 62
     1
100
AcDbLine
 10
30.59347671240244
 20
11.18496969569992
 30
0.0
 11
30.59347671240244
 21
11.68496969569992
 31
0.0
  0
LINE
  5
191
330
2
100
AcDbEntity
  8
GAIKEI
  6
Continuous
 62
     1
100
AcDbLine
 10
30.59347671240244
 20
11.93496969569992
 30
0.0
 11
30.59347671240244
 21
12.43496969569992
 31
0.0
  0
LINE
  5
192
330
2
100
AcDbEntity
  8
GAIKEI
  6
Continuous
 62
     1
100
AcDbLine
 10
30.59347671240244
 20
12.68496969569992
 30
0.0
 11
30.59347671240244
 21
13.18496969569992
 31
0.0
  0
LINE
  5
193
330
2
100
AcDbEntity
  8
GAIKEI
  6
Continuous
 62
     1
100
AcDbLine
 10
30.81347181240244
 20
11.68496969569992
 30
0.0
 11
30.59347671240244
 21
11.68496969569992
 31
0.0
  0
LINE
  5
194
330
2
100
AcDbEntity
  8
GAIKEI
  6
Continuous
 62
     1
100
AcDbLine
 10
30.81347181240244
 20
12.43496969569992
 30
0.0
 11
30.59347671240244
 21
12.43496969569992
 31
0.0
  0
LINE
  5
195
330
2
100
AcDbEntity
  8
GAIKEI
  6
Continuous
 62
     1
100
AcDbLine
 10
30.81347181240244
 20
13.18496969569992
 30
0.0
 11
30.59347671240244
 21
13.18496969569992
 31
0.0
  0
LINE
  5
196
330
2
100
AcDbEntity
  8
GAIKEI
  6
Continuous
 62
     1
100
AcDbLine
 10
30.81347181240244
 20
11.18496969569992
 30
0.0
 11
30.59347671240244
 21
11.18496969569992
 31
0.0
  0
LINE
  5
197
330
2
100
AcDbEntity
  8
GAIKEI
  6
Continuous
 62
     1
100
AcDbLine
 10
30.81347181240244
 20
11.93496969569992
 30
0.0
 11
30.59347671240244
 21
11.93496969569992
 31
0.0
  0
LINE
  5
198
330
2
100
AcDbEntity
  8
GAIKEI
  6
Continuous
 62
     1
100
AcDbLine
 10
30.81347181240244
 20
12.68496969569992
 30
0.0
 11
30.59347671240244
 21
12.68496969569992
 31
0.0
  0
LINE
  5
199
330
2
100
AcDbEntity
  8
GAIKEI
  6
Continuous
 62
     1
100
AcDbLine
 10
30.81347181240244
 20
11.18496969569992
 30
0.0
 11
30.81347181240244
 21
11.68496969569992
 31
0.0
  0
LINE
  5
19A
330
2
100
AcDbEntity
  8
GAIKEI
  6
Continuous
 62
     1
100
AcDbLine
 10
30.81347181240244
 20
11.93496969569992
 30
0.0
 11
30.81347181240244
 21
12.43496969569992
 31
0.0
  0
LINE
  5
19B
330
2
100
AcDbEntity
  8
GAIKEI
  6
Continuous
 62
     1
100
AcDbLine
 10
30.81347181240244
 20
12.68496969569992
 30
0.0
 11
30.81347181240244
 21
13.18496969569992
 31
0.0
  0
LINE
  5
19C
330
2
100
AcDbEntity
  8
GAIKEI
  6
Continuous
 62
     1
100
AcDbLine
 10
31.31347181240244
 20
12.68496969569992
 30
0.0
 11
31.31347181240244
 21
13.18496969569992
 31
0.0
  0
LINE
  5
19D
330
2
100
AcDbEntity
  8
GAIKEI
  6
Continuous
 62
     1
100
AcDbLine
 10
31.31347181240244
 20
11.93496969569992
 30
0.0
 11
31.31347181240244
 21
12.43496969569992
 31
0.0
  0
LINE
  5
19E
330
2
100
AcDbEntity
  8
GAIKEI
  6
Continuous
 62
     1
100
AcDbLine
 10
31.31347181240244
 20
11.18496969569992
 30
0.0
 11
31.31347181240244
 21
11.68496969569992
 31
0.0
  0
LINE
  5
19F
330
2
100
AcDbEntity
  8
GAIKEI
  6
Continuous
 62
     1
100
AcDbLine
 10
31.31347181240244
 20
12.68496969569992
 30
0.0
 11
31.09347671240243
 21
12.68496969569992
 31
0.0
  0
LINE
  5
1A0
330
2
100
AcDbEntity
  8
GAIKEI
  6
Continuous
 62
     1
100
AcDbLine
 10
31.31347181240244
 20
11.93496969569992
 30
0.0
 11
31.09347671240243
 21
11.93496969569992
 31
0.0
  0
LINE
  5
1A1
330
2
100
AcDbEntity
  8
GAIKEI
  6
Continuous
 62
     1
100
AcDbLine
 10
31.31347181240244
 20
11.18496969569992
 30
0.0
 11
31.09347671240243
 21
11.18496969569992
 31
0.0
  0
LINE
  5
1A2
330
2
100
AcDbEntity
  8
GAIKEI
  6
Continuous
 62
     1
100
AcDbLine
 10
31.31347181240244
 20
13.18496969569992
 30
0.0
 11
31.09347671240243
 21
13.18496969569992
 31
0.0
  0
LINE
  5
1A3
330
2
100
AcDbEntity
  8
GAIKEI
  6
Continuous
 62
     1
100
AcDbLine
 10
31.31347181240244
 20
12.43496969569992
 30
0.0
 11
31.09347671240243
 21
12.43496969569992
 31
0.0
  0
LINE
  5
1A4
330
2
100
AcDbEntity
  8
GAIKEI
  6
Continuous
 62
     1
100
AcDbLine
 10
31.31347181240244
 20
11.68496969569992
 30
0.0
 11
31.09347671240243
 21
11.68496969569992
 31
0.0
  0
LINE
  5
1A5
330
2
100
AcDbEntity
  8
GAIKEI
  6
Continuous
 62
     1
100
AcDbLine
 10
31.09347671240243
 20
12.68496969569992
 30
0.0
 11
31.09347671240243
 21
13.18496969569992
 31
0.0
  0
LINE
  5
1A6
330
2
100
AcDbEntity
  8
GAIKEI
  6
Continuous
 62
     1
100
AcDbLine
 10
31.09347671240243
 20
11.93496969569992
 30
0.0
 11
31.09347671240243
 21
12.43496969569992
 31
0.0
  0
LINE
  5
1A7
330
2
100
AcDbEntity
  8
GAIKEI
  6
Continuous
 62
     1
100
AcDbLine
 10
31.09347671240243
 20
11.18496969569992
 30
0.0
 11
31.09347671240243
 21
11.68496969569992
 31
0.0
  0
LINE
  5
1A8
330
2
100
AcDbEntity
  8
GAIKEI
  6
Continuous
 62
     1
100
AcDbLine
 10
31.31347181240244
 20
10.18496969569992
 30
0.0
 11
31.31347181240244
 21
10.68496969569992
 31
0.0
  0
LINE
  5
1A9
330
2
100
AcDbEntity
  8
GAIKEI
  6
Continuous
 62
     1
100
AcDbLine
 10
31.31347181240244
 20
9.434969695699919
 30
0.0
 11
31.31347181240244
 21
9.934969695699919
 31
0.0
  0
LINE
  5
1AA
330
2
100
AcDbEntity
  8
GAIKEI
  6
Continuous
 62
     1
100
AcDbLine
 10
31.31347181240244
 20
8.684969695699919
 30
0.0
 11
31.31347181240244
 21
9.184969695699919
 31
0.0
  0
LINE
  5
1AB
330
2
100
AcDbEntity
  8
GAIKEI
  6
Continuous
 62
     1
100
AcDbLine
 10
31.31347181240244
 20
10.18496969569992
 30
0.0
 11
31.09347671240243
 21
10.18496969569992
 31
0.0
  0
LINE
  5
1AC
330
2
100
AcDbEntity
  8
GAIKEI
  6
Continuous
 62
     1
100
AcDbLine
 10
31.31347181240244
 20
9.434969695699919
 30
0.0
 11
31.09347671240243
 21
9.434969695699919
 31
0.0
  0
LINE
  5
1AD
330
2
100
AcDbEntity
  8
GAIKEI
  6
Continuous
 62
     1
100
AcDbLine
 10
31.31347181240244
 20
8.684969695699919
 30
0.0
 11
31.09347671240243
 21
8.684969695699919
 31
0.0
  0
LINE
  5
1AE
330
2
100
AcDbEntity
  8
GAIKEI
  6
Continuous
 62
     1
100
AcDbLine
 10
31.31347181240244
 20
10.68496969569992
 30
0.0
 11
31.09347671240243
 21
10.68496969569992
 31
0.0
  0
LINE
  5
1AF
330
2
100
AcDbEntity
  8
GAIKEI
  6
Continuous
 62
     1
100
AcDbLine
 10
31.31347181240244
 20
9.934969695699919
 30
0.0
 11
31.09347671240243
 21
9.934969695699919
 31
0.0
  0
LINE
  5
1B0
330
2
100
AcDbEntity
  8
GAIKEI
  6
Continuous
 62
     1
100
AcDbLine
 10
31.31347181240244
 20
9.184969695699919
 30
0.0
 11
31.09347671240243
 21
9.184969695699919
 31
0.0
  0
LINE
  5
1B1
330
2
100
AcDbEntity
  8
GAIKEI
  6
Continuous
 62
     1
100
AcDbLine
 10
31.09347671240243
 20
10.18496969569992
 30
0.0
 11
31.09347671240243
 21
10.68496969569992
 31
0.0
  0
LINE
  5
1B2
330
2
100
AcDbEntity
  8
GAIKEI
  6
Continuous
 62
     1
100
AcDbLine
 10
31.09347671240243
 20
9.434969695699919
 30
0.0
 11
31.09347671240243
 21
9.934969695699919
 31
0.0
  0
LINE
  5
1B3
330
2
100
AcDbEntity
  8
GAIKEI
  6
Continuous
 62
     1
100
AcDbLine
 10
31.09347671240243
 20
8.684969695699919
 30
0.0
 11
31.09347671240243
 21
9.184969695699919
 31
0.0
  0
LINE
  5
1B4
330
2
100
AcDbEntity
  8
GAIKEI
  6
Continuous
 62
     1
100
AcDbLine
 10
31.59347671240244
 20
8.684969695699919
 30
0.0
 11
31.59347671240244
 21
9.184969695699919
 31
0.0
  0
LINE
  5
1B5
330
2
100
AcDbEntity
  8
GAIKEI
  6
Continuous
 62
     1
100
AcDbLine
 10
31.59347671240244
 20
9.434969695699919
 30
0.0
 11
31.59347671240244
 21
9.934969695699919
 31
0.0
  0
LINE
  5
1B6
330
2
100
AcDbEntity
  8
GAIKEI
  6
Continuous
 62
     1
100
AcDbLine
 10
31.59347671240244
 20
10.18496969569992
 30
0.0
 11
31.59347671240244
 21
10.68496969569992
 31
0.0
  0
LINE
  5
1B7
330
2
100
AcDbEntity
  8
GAIKEI
  6
Continuous
 62
     1
100
AcDbLine
 10
31.81347181240244
 20
9.184969695699919
 30
0.0
 11
31.59347671240244
 21
9.184969695699919
 31
0.0
  0
LINE
  5
1B8
330
2
100
AcDbEntity
  8
GAIKEI
  6
Continuous
 62
     1
100
AcDbLine
 10
31.81347181240244
 20
9.934969695699919
 30
0.0
 11
31.59347671240244
 21
9.934969695699919
 31
0.0
  0
LINE
  5
1B9
330
2
100
AcDbEntity
  8
GAIKEI
  6
Continuous
 62
     1
100
AcDbLine
 10
31.81347181240244
 20
10.68496969569992
 30
0.0
 11
31.59347671240244
 21
10.68496969569992
 31
0.0
  0
LINE
  5
1BA
330
2
100
AcDbEntity
  8
GAIKEI
  6
Continuous
 62
     1
100
AcDbLine
 10
31.81347181240244
 20
8.684969695699919
 30
0.0
 11
31.59347671240244
 21
8.684969695699919
 31
0.0
  0
LINE
  5
1BB
330
2
100
AcDbEntity
  8
GAIKEI
  6
Continuous
 62
     1
100
AcDbLine
 10
31.81347181240244
 20
9.434969695699919
 30
0.0
 11
31.59347671240244
 21
9.434969695699919
 31
0.0
  0
LINE
  5
1BC
330
2
100
AcDbEntity
  8
GAIKEI
  6
Continuous
 62
     1
100
AcDbLine
 10
31.81347181240244
 20
10.18496969569992
 30
0.0
 11
31.59347671240244
 21
10.18496969569992
 31
0.0
  0
LINE
  5
1BD
330
2
100
AcDbEntity
  8
GAIKEI
  6
Continuous
 62
     1
100
AcDbLine
 10
31.81347181240244
 20
8.684969695699919
 30
0.0
 11
31.81347181240244
 21
9.184969695699919
 31
0.0
  0
LINE
  5
1BE
330
2
100
AcDbEntity
  8
GAIKEI
  6
Continuous
 62
     1
100
AcDbLine
 10
31.81347181240244
 20
9.434969695699919
 30
0.0
 11
31.81347181240244
 21
9.934969695699919
 31
0.0
  0
LINE
  5
1BF
330
2
100
AcDbEntity
  8
GAIKEI
  6
Continuous
 62
     1
100
AcDbLine
 10
31.81347181240244
 20
10.18496969569992
 30
0.0
 11
31.81347181240244
 21
10.68496969569992
 31
0.0
  0
LINE
  5
1C0
330
2
100
AcDbEntity
  8
GAIKEI
  6
Continuous
 62
     1
100
AcDbLine
 10
31.59347671240244
 20
11.18496969569992
 30
0.0
 11
31.59347671240244
 21
11.68496969569992
 31
0.0
  0
LINE
  5
1C1
330
2
100
AcDbEntity
  8
GAIKEI
  6
Continuous
 62
     1
100
AcDbLine
 10
31.59347671240244
 20
11.93496969569992
 30
0.0
 11
31.59347671240244
 21
12.43496969569992
 31
0.0
  0
LINE
  5
1C2
330
2
100
AcDbEntity
  8
GAIKEI
  6
Continuous
 62
     1
100
AcDbLine
 10
31.59347671240244
 20
12.68496969569992
 30
0.0
 11
31.59347671240244
 21
13.18496969569992
 31
0.0
  0
LINE
  5
1C3
330
2
100
AcDbEntity
  8
GAIKEI
  6
Continuous
 62
     1
100
AcDbLine
 10
31.81347181240244
 20
11.68496969569992
 30
0.0
 11
31.59347671240244
 21
11.68496969569992
 31
0.0
  0
LINE
  5
1C4
330
2
100
AcDbEntity
  8
GAIKEI
  6
Continuous
 62
     1
100
AcDbLine
 10
31.81347181240244
 20
12.43496969569992
 30
0.0
 11
31.59347671240244
 21
12.43496969569992
 31
0.0
  0
LINE
  5
1C5
330
2
100
AcDbEntity
  8
GAIKEI
  6
Continuous
 62
     1
100
AcDbLine
 10
31.81347181240244
 20
13.18496969569992
 30
0.0
 11
31.59347671240244
 21
13.18496969569992
 31
0.0
  0
LINE
  5
1C6
330
2
100
AcDbEntity
  8
GAIKEI
  6
Continuous
 62
     1
100
AcDbLine
 10
31.81347181240244
 20
11.18496969569992
 30
0.0
 11
31.59347671240244
 21
11.18496969569992
 31
0.0
  0
LINE
  5
1C7
330
2
100
AcDbEntity
  8
GAIKEI
  6
Continuous
 62
     1
100
AcDbLine
 10
31.81347181240244
 20
11.93496969569992
 30
0.0
 11
31.59347671240244
 21
11.93496969569992
 31
0.0
  0
LINE
  5
1C8
330
2
100
AcDbEntity
  8
GAIKEI
  6
Continuous
 62
     1
100
AcDbLine
 10
31.81347181240244
 20
12.68496969569992
 30
0.0
 11
31.59347671240244
 21
12.68496969569992
 31
0.0
  0
LINE
  5
1C9
330
2
100
AcDbEntity
  8
GAIKEI
  6
Continuous
 62
     1
100
AcDbLine
 10
31.81347181240244
 20
11.18496969569992
 30
0.0
 11
31.81347181240244
 21
11.68496969569992
 31
0.0
  0
LINE
  5
1CA
330
2
100
AcDbEntity
  8
GAIKEI
  6
Continuous
 62
     1
100
AcDbLine
 10
31.81347181240244
 20
11.93496969569992
 30
0.0
 11
31.81347181240244
 21
12.43496969569992
 31
0.0
  0
LINE
  5
1CB
330
2
100
AcDbEntity
  8
GAIKEI
  6
Continuous
 62
     1
100
AcDbLine
 10
31.81347181240244
 20
12.68496969569992
 30
0.0
 11
31.81347181240244
 21
13.18496969569992
 31
0.0
  0
LINE
  5
1CC
330
2
100
AcDbEntity
  8
GAIKEI
  6
Continuous
 62
     1
100
AcDbLine
 10
32.31347181240244
 20
12.68496969569992
 30
0.0
 11
32.31347181240244
 21
13.18496969569992
 31
0.0
  0
LINE
  5
1CD
330
2
100
AcDbEntity
  8
GAIKEI
  6
Continuous
 62
     1
100
AcDbLine
 10
32.31347181240244
 20
11.93496969569992
 30
0.0
 11
32.31347181240244
 21
12.43496969569992
 31
0.0
  0
LINE
  5
1CE
330
2
100
AcDbEntity
  8
GAIKEI
  6
Continuous
 62
     1
100
AcDbLine
 10
32.31347181240244
 20
11.18496969569992
 30
0.0
 11
32.31347181240244
 21
11.68496969569992
 31
0.0
  0
LINE
  5
1CF
330
2
100
AcDbEntity
  8
GAIKEI
  6
Continuous
 62
     1
100
AcDbLine
 10
32.31347181240244
 20
12.68496969569992
 30
0.0
 11
32.09347671240244
 21
12.68496969569992
 31
0.0
  0
LINE
  5
1D0
330
2
100
AcDbEntity
  8
GAIKEI
  6
Continuous
 62
     1
100
AcDbLine
 10
32.31347181240244
 20
11.93496969569992
 30
0.0
 11
32.09347671240244
 21
11.93496969569992
 31
0.0
  0
LINE
  5
1D1
330
2
100
AcDbEntity
  8
GAIKEI
  6
Continuous
 62
     1
100
AcDbLine
 10
32.31347181240244
 20
11.18496969569992
 30
0.0
 11
32.09347671240244
 21
11.18496969569992
 31
0.0
  0
LINE
  5
1D2
330
2
100
AcDbEntity
  8
GAIKEI
  6
Continuous
 62
     1
100
AcDbLine
 10
32.31347181240244
 20
13.18496969569992
 30
0.0
 11
32.09347671240244
 21
13.18496969569992
 31
0.0
  0
LINE
  5
1D3
330
2
100
AcDbEntity
  8
GAIKEI
  6
Continuous
 62
     1
100
AcDbLine
 10
32.31347181240244
 20
12.43496969569992
 30
0.0
 11
32.09347671240244
 21
12.43496969569992
 31
0.0
  0
LINE
  5
1D4
330
2
100
AcDbEntity
  8
GAIKEI
  6
Continuous
 62
     1
100
AcDbLine
 10
32.31347181240244
 20
11.68496969569992
 30
0.0
 11
32.09347671240244
 21
11.68496969569992
 31
0.0
  0
LINE
  5
1D5
330
2
100
AcDbEntity
  8
GAIKEI
  6
Continuous
 62
     1
100
AcDbLine
 10
32.09347671240244
 20
12.68496969569992
 30
0.0
 11
32.09347671240244
 21
13.18496969569992
 31
0.0
  0
LINE
  5
1D6
330
2
100
AcDbEntity
  8
GAIKEI
  6
Continuous
 62
     1
100
AcDbLine
 10
32.09347671240244
 20
11.93496969569992
 30
0.0
 11
32.09347671240244
 21
12.43496969569992
 31
0.0
  0
LINE
  5
1D7
330
2
100
AcDbEntity
  8
GAIKEI
  6
Continuous
 62
     1
100
AcDbLine
 10
32.09347671240244
 20
11.18496969569992
 30
0.0
 11
32.09347671240244
 21
11.68496969569992
 31
0.0
  0
LINE
  5
1D8
330
2
100
AcDbEntity
  8
GAIKEI
  6
Continuous
 62
     1
100
AcDbLine
 10
32.31347181240244
 20
10.18496969569992
 30
0.0
 11
32.31347181240244
 21
10.68496969569992
 31
0.0
  0
LINE
  5
1D9
330
2
100
AcDbEntity
  8
GAIKEI
  6
Continuous
 62
     1
100
AcDbLine
 10
32.31347181240244
 20
9.434969695699919
 30
0.0
 11
32.31347181240244
 21
9.934969695699919
 31
0.0
  0
LINE
  5
1DA
330
2
100
AcDbEntity
  8
GAIKEI
  6
Continuous
 62
     1
100
AcDbLine
 10
32.31347181240244
 20
8.684969695699919
 30
0.0
 11
32.31347181240244
 21
9.184969695699919
 31
0.0
  0
LINE
  5
1DB
330
2
100
AcDbEntity
  8
GAIKEI
  6
Continuous
 62
     1
100
AcDbLine
 10
32.31347181240244
 20
10.18496969569992
 30
0.0
 11
32.09347671240244
 21
10.18496969569992
 31
0.0
  0
LINE
  5
1DC
330
2
100
AcDbEntity
  8
GAIKEI
  6
Continuous
 62
     1
100
AcDbLine
 10
32.31347181240244
 20
9.434969695699919
 30
0.0
 11
32.09347671240244
 21
9.434969695699919
 31
0.0
  0
LINE
  5
1DD
330
2
100
AcDbEntity
  8
GAIKEI
  6
Continuous
 62
     1
100
AcDbLine
 10
32.31347181240244
 20
8.684969695699919
 30
0.0
 11
32.09347671240244
 21
8.684969695699919
 31
0.0
  0
LINE
  5
1DE
330
2
100
AcDbEntity
  8
GAIKEI
  6
Continuous
 62
     1
100
AcDbLine
 10
32.31347181240244
 20
10.68496969569992
 30
0.0
 11
32.09347671240244
 21
10.68496969569992
 31
0.0
  0
LINE
  5
1DF
330
2
100
AcDbEntity
  8
GAIKEI
  6
Continuous
 62
     1
100
AcDbLine
 10
32.31347181240244
 20
9.934969695699919
 30
0.0
 11
32.09347671240244
 21
9.934969695699919
 31
0.0
  0
LINE
  5
1E0
330
2
100
AcDbEntity
  8
GAIKEI
  6
Continuous
 62
     1
100
AcDbLine
 10
32.31347181240244
 20
9.184969695699919
 30
0.0
 11
32.09347671240244
 21
9.184969695699919
 31
0.0
  0
LINE
  5
1E1
330
2
100
AcDbEntity
  8
GAIKEI
  6
Continuous
 62
     1
100
AcDbLine
 10
32.09347671240244
 20
10.18496969569992
 30
0.0
 11
32.09347671240244
 21
10.68496969569992
 31
0.0
  0
LINE
  5
1E2
330
2
100
AcDbEntity
  8
GAIKEI
  6
Continuous
 62
     1
100
AcDbLine
 10
32.09347671240244
 20
9.434969695699919
 30
0.0
 11
32.09347671240244
 21
9.934969695699919
 31
0.0
  0
LINE
  5
1E3
330
2
100
AcDbEntity
  8
GAIKEI
  6
Continuous
 62
     1
100
AcDbLine
 10
32.09347671240244
 20
8.684969695699919
 30
0.0
 11
32.09347671240244
 21
9.184969695699919
 31
0.0
  0
LINE
  5
1E4
330
2
100
AcDbEntity
  8
GAIKEI
  6
Continuous
 62
     1
100
AcDbLine
 10
32.59347671240244
 20
8.684969695699919
 30
0.0
 11
32.59347671240244
 21
9.184969695699919
 31
0.0
  0
LINE
  5
1E5
330
2
100
AcDbEntity
  8
GAIKEI
  6
Continuous
 62
     1
100
AcDbLine
 10
32.59347671240244
 20
9.434969695699919
 30
0.0
 11
32.59347671240244
 21
9.934969695699919
 31
0.0
  0
LINE
  5
1E6
330
2
100
AcDbEntity
  8
GAIKEI
  6
Continuous
 62
     1
100
AcDbLine
 10
32.59347671240244
 20
10.18496969569992
 30
0.0
 11
32.59347671240244
 21
10.68496969569992
 31
0.0
  0
LINE
  5
1E7
330
2
100
AcDbEntity
  8
GAIKEI
  6
Continuous
 62
     1
100
AcDbLine
 10
32.81347181240244
 20
9.184969695699919
 30
0.0
 11
32.59347671240244
 21
9.184969695699919
 31
0.0
  0
LINE
  5
1E8
330
2
100
AcDbEntity
  8
GAIKEI
  6
Continuous
 62
     1
100
AcDbLine
 10
32.81347181240244
 20
9.934969695699919
 30
0.0
 11
32.59347671240244
 21
9.934969695699919
 31
0.0
  0
LINE
  5
1E9
330
2
100
AcDbEntity
  8
GAIKEI
  6
Continuous
 62
     1
100
AcDbLine
 10
32.81347181240244
 20
10.68496969569992
 30
0.0
 11
32.59347671240244
 21
10.68496969569992
 31
0.0
  0
LINE
  5
1EA
330
2
100
AcDbEntity
  8
GAIKEI
  6
Continuous
 62
     1
100
AcDbLine
 10
32.81347181240244
 20
8.684969695699919
 30
0.0
 11
32.59347671240244
 21
8.684969695699919
 31
0.0
  0
LINE
  5
1EB
330
2
100
AcDbEntity
  8
GAIKEI
  6
Continuous
 62
     1
100
AcDbLine
 10
32.81347181240244
 20
9.434969695699919
 30
0.0
 11
32.59347671240244
 21
9.434969695699919
 31
0.0
  0
LINE
  5
1EC
330
2
100
AcDbEntity
  8
GAIKEI
  6
Continuous
 62
     1
100
AcDbLine
 10
32.81347181240244
 20
10.18496969569992
 30
0.0
 11
32.59347671240244
 21
10.18496969569992
 31
0.0
  0
LINE
  5
1ED
330
2
100
AcDbEntity
  8
GAIKEI
  6
Continuous
 62
     1
100
AcDbLine
 10
32.81347181240244
 20
8.684969695699919
 30
0.0
 11
32.81347181240244
 21
9.184969695699919
 31
0.0
  0
LINE
  5
1EE
330
2
100
AcDbEntity
  8
GAIKEI
  6
Continuous
 62
     1
100
AcDbLine
 10
32.81347181240244
 20
9.434969695699919
 30
0.0
 11
32.81347181240244
 21
9.934969695699919
 31
0.0
  0
LINE
  5
1EF
330
2
100
AcDbEntity
  8
GAIKEI
  6
Continuous
 62
     1
100
AcDbLine
 10
32.81347181240244
 20
10.18496969569992
 30
0.0
 11
32.81347181240244
 21
10.68496969569992
 31
0.0
  0
LINE
  5
1F0
330
2
100
AcDbEntity
  8
GAIKEI
  6
Continuous
 62
     1
100
AcDbLine
 10
32.59347671240244
 20
11.18496969569992
 30
0.0
 11
32.59347671240244
 21
11.68496969569992
 31
0.0
  0
LINE
  5
1F1
330
2
100
AcDbEntity
  8
GAIKEI
  6
Continuous
 62
     1
100
AcDbLine
 10
32.59347671240244
 20
11.93496969569992
 30
0.0
 11
32.59347671240244
 21
12.43496969569992
 31
0.0
  0
LINE
  5
1F2
330
2
100
AcDbEntity
  8
GAIKEI
  6
Continuous
 62
     1
100
AcDbLine
 10
32.59347671240244
 20
12.68496969569992
 30
0.0
 11
32.59347671240244
 21
13.18496969569992
 31
0.0
  0
LINE
  5
1F3
330
2
100
AcDbEntity
  8
GAIKEI
  6
Continuous
 62
     1
100
AcDbLine
 10
32.81347181240244
 20
11.68496969569992
 30
0.0
 11
32.59347671240244
 21
11.68496969569992
 31
0.0
  0
LINE
  5
1F4
330
2
100
AcDbEntity
  8
GAIKEI
  6
Continuous
 62
     1
100
AcDbLine
 10
32.81347181240244
 20
12.43496969569992
 30
0.0
 11
32.59347671240244
 21
12.43496969569992
 31
0.0
  0
LINE
  5
1F5
330
2
100
AcDbEntity
  8
GAIKEI
  6
Continuous
 62
     1
100
AcDbLine
 10
32.81347181240244
 20
13.18496969569992
 30
0.0
 11
32.59347671240244
 21
13.18496969569992
 31
0.0
  0
LINE
  5
1F6
330
2
100
AcDbEntity
  8
GAIKEI
  6
Continuous
 62
     1
100
AcDbLine
 10
32.81347181240244
 20
11.18496969569992
 30
0.0
 11
32.59347671240244
 21
11.18496969569992
 31
0.0
  0
LINE
  5
1F7
330
2
100
AcDbEntity
  8
GAIKEI
  6
Continuous
 62
     1
100
AcDbLine
 10
32.81347181240244
 20
11.93496969569992
 30
0.0
 11
32.59347671240244
 21
11.93496969569992
 31
0.0
  0
LINE
  5
1F8
330
2
100
AcDbEntity
  8
GAIKEI
  6
Continuous
 62
     1
100
AcDbLine
 10
32.81347181240244
 20
12.68496969569992
 30
0.0
 11
32.59347671240244
 21
12.68496969569992
 31
0.0
  0
LINE
  5
1F9
330
2
100
AcDbEntity
  8
GAIKEI
  6
Continuous
 62
     1
100
AcDbLine
 10
32.81347181240244
 20
11.18496969569992
 30
0.0
 11
32.81347181240244
 21
11.68496969569992
 31
0.0
  0
LINE
  5
1FA
330
2
100
AcDbEntity
  8
GAIKEI
  6
Continuous
 62
     1
100
AcDbLine
 10
32.81347181240244
 20
11.93496969569992
 30
0.0
 11
32.81347181240244
 21
12.43496969569992
 31
0.0
  0
LINE
  5
1FB
330
2
100
AcDbEntity
  8
GAIKEI
  6
Continuous
 62
     1
100
AcDbLine
 10
32.81347181240244
 20
12.68496969569992
 30
0.0
 11
32.81347181240244
 21
13.18496969569992
 31
0.0
  0
LINE
  5
1FC
330
2
100
AcDbEntity
  8
GAIKEI
  6
Continuous
 62
     1
100
AcDbLine
 10
33.31347181240244
 20
12.68496969569992
 30
0.0
 11
33.31347181240244
 21
13.18496969569992
 31
0.0
  0
LINE
  5
1FD
330
2
100
AcDbEntity
  8
GAIKEI
  6
Continuous
 62
     1
100
AcDbLine
 10
33.31347181240244
 20
11.93496969569992
 30
0.0
 11
33.31347181240244
 21
12.43496969569992
 31
0.0
  0
LINE
  5
1FE
330
2
100
AcDbEntity
  8
GAIKEI
  6
Continuous
 62
     1
100
AcDbLine
 10
33.31347181240244
 20
11.18496969569992
 30
0.0
 11
33.31347181240244
 21
11.68496969569992
 31
0.0
  0
LINE
  5
1FF
330
2
100
AcDbEntity
  8
GAIKEI
  6
Continuous
 62
     1
100
AcDbLine
 10
33.81347181240244
 20
12.68496969569992
 30
0.0
 11
33.81347181240244
 21
13.18496969569992
 31
0.0
  0
LINE
  5
200
330
2
100
AcDbEntity
  8
GAIKEI
  6
Continuous
 62
     1
100
AcDbLine
 10
33.81347181240244
 20
11.93496969569992
 30
0.0
 11
33.81347181240244
 21
12.43496969569992
 31
0.0
  0
LINE
  5
201
330
2
100
AcDbEntity
  8
GAIKEI
  6
Continuous
 62
     1
100
AcDbLine
 10
33.81347181240244
 20
11.18496969569992
 30
0.0
 11
33.81347181240244
 21
11.68496969569992
 31
0.0
  0
LINE
  5
202
330
2
100
AcDbEntity
  8
GAIKEI
  6
Continuous
 62
     1
100
AcDbLine
 10
34.31347181240244
 20
12.68496969569992
 30
0.0
 11
34.31347181240244
 21
13.18496969569992
 31
0.0
  0
LINE
  5
203
330
2
100
AcDbEntity
  8
GAIKEI
  6
Continuous
 62
     1
100
AcDbLine
 10
34.31347181240244
 20
11.93496969569992
 30
0.0
 11
34.31347181240244
 21
12.43496969569992
 31
0.0
  0
LINE
  5
204
330
2
100
AcDbEntity
  8
GAIKEI
  6
Continuous
 62
     1
100
AcDbLine
 10
34.31347181240244
 20
11.18496969569992
 30
0.0
 11
34.31347181240244
 21
11.68496969569992
 31
0.0
  0
LINE
  5
205
330
2
100
AcDbEntity
  8
GAIKEI
  6
Continuous
 62
     1
100
AcDbLine
 10
34.81347181240244
 20
12.68496969569992
 30
0.0
 11
34.81347181240244
 21
13.18496969569992
 31
0.0
  0
LINE
  5
206
330
2
100
AcDbEntity
  8
GAIKEI
  6
Continuous
 62
     1
100
AcDbLine
 10
34.81347181240244
 20
11.93496969569992
 30
0.0
 11
34.81347181240244
 21
12.43496969569992
 31
0.0
  0
LINE
  5
207
330
2
100
AcDbEntity
  8
GAIKEI
  6
Continuous
 62
     1
100
AcDbLine
 10
34.81347181240244
 20
11.18496969569992
 30
0.0
 11
34.81347181240244
 21
11.68496969569992
 31
0.0
  0
LINE
  5
208
330
2
100
AcDbEntity
  8
GAIKEI
  6
Continuous
 62
     1
100
AcDbLine
 10
35.31347181240244
 20
12.68496969569992
 30
0.0
 11
35.31347181240244
 21
13.18496969569992
 31
0.0
  0
LINE
  5
209
330
2
100
AcDbEntity
  8
GAIKEI
  6
Continuous
 62
     1
100
AcDbLine
 10
35.31347181240244
 20
11.93496969569992
 30
0.0
 11
35.31347181240244
 21
12.43496969569992
 31
0.0
  0
LINE
  5
20A
330
2
100
AcDbEntity
  8
GAIKEI
  6
Continuous
 62
     1
100
AcDbLine
 10
35.31347181240244
 20
11.18496969569992
 30
0.0
 11
35.31347181240244
 21
11.68496969569992
 31
0.0
  0
LINE
  5
20B
330
2
100
AcDbEntity
  8
GAIKEI
  6
Continuous
 62
     1
100
AcDbLine
 10
35.81347181240244
 20
12.68496969569992
 30
0.0
 11
35.81347181240244
 21
13.18496969569992
 31
0.0
  0
LINE
  5
20C
330
2
100
AcDbEntity
  8
GAIKEI
  6
Continuous
 62
     1
100
AcDbLine
 10
35.81347181240244
 20
11.93496969569992
 30
0.0
 11
35.81347181240244
 21
12.43496969569992
 31
0.0
  0
LINE
  5
20D
330
2
100
AcDbEntity
  8
GAIKEI
  6
Continuous
 62
     1
100
AcDbLine
 10
35.81347181240244
 20
11.18496969569992
 30
0.0
 11
35.81347181240244
 21
11.68496969569992
 31
0.0
  0
LINE
  5
20E
330
2
100
AcDbEntity
  8
GAIKEI
  6
Continuous
 62
     1
100
AcDbLine
 10
36.31347181240244
 20
12.68496969569992
 30
0.0
 11
36.31347181240244
 21
13.18496969569992
 31
0.0
  0
LINE
  5
20F
330
2
100
AcDbEntity
  8
GAIKEI
  6
Continuous
 62
     1
100
AcDbLine
 10
36.31347181240244
 20
11.93496969569992
 30
0.0
 11
36.31347181240244
 21
12.43496969569992
 31
0.0
  0
LINE
  5
210
330
2
100
AcDbEntity
  8
GAIKEI
  6
Continuous
 62
     1
100
AcDbLine
 10
36.31347181240244
 20
11.18496969569992
 30
0.0
 11
36.31347181240244
 21
11.68496969569992
 31
0.0
  0
LINE
  5
211
330
2
100
AcDbEntity
  8
GAIKEI
  6
Continuous
 62
     1
100
AcDbLine
 10
36.81347181240244
 20
12.68496969569992
 30
0.0
 11
36.81347181240244
 21
13.18496969569992
 31
0.0
  0
LINE
  5
212
330
2
100
AcDbEntity
  8
GAIKEI
  6
Continuous
 62
     1
100
AcDbLine
 10
36.81347181240244
 20
11.93496969569992
 30
0.0
 11
36.81347181240244
 21
12.43496969569992
 31
0.0
  0
LINE
  5
213
330
2
100
AcDbEntity
  8
GAIKEI
  6
Continuous
 62
     1
100
AcDbLine
 10
36.81347181240244
 20
11.18496969569992
 30
0.0
 11
36.81347181240244
 21
11.68496969569992
 31
0.0
  0
LINE
  5
214
330
2
100
AcDbEntity
  8
GAIKEI
  6
Continuous
 62
     1
100
AcDbLine
 10
37.31347181240244
 20
12.68496969569992
 30
0.0
 11
37.31347181240244
 21
13.18496969569992
 31
0.0
  0
LINE
  5
215
330
2
100
AcDbEntity
  8
GAIKEI
  6
Continuous
 62
     1
100
AcDbLine
 10
37.31347181240244
 20
11.93496969569992
 30
0.0
 11
37.31347181240244
 21
12.43496969569992
 31
0.0
  0
LINE
  5
216
330
2
100
AcDbEntity
  8
GAIKEI
  6
Continuous
 62
     1
100
AcDbLine
 10
37.31347181240244
 20
11.18496969569992
 30
0.0
 11
37.31347181240244
 21
11.68496969569992
 31
0.0
  0
LINE
  5
217
330
2
100
AcDbEntity
  8
GAIKEI
  6
Continuous
 62
     1
100
AcDbLine
 10
33.31347181240244
 20
12.68496969569992
 30
0.0
 11
33.09347671240244
 21
12.68496969569992
 31
0.0
  0
LINE
  5
218
330
2
100
AcDbEntity
  8
GAIKEI
  6
Continuous
 62
     1
100
AcDbLine
 10
33.31347181240244
 20
11.93496969569992
 30
0.0
 11
33.09347671240244
 21
11.93496969569992
 31
0.0
  0
LINE
  5
219
330
2
100
AcDbEntity
  8
GAIKEI
  6
Continuous
 62
     1
100
AcDbLine
 10
33.31347181240244
 20
11.18496969569992
 30
0.0
 11
33.09347671240244
 21
11.18496969569992
 31
0.0
  0
LINE
  5
21A
330
2
100
AcDbEntity
  8
GAIKEI
  6
Continuous
 62
     1
100
AcDbLine
 10
33.81347181240244
 20
12.68496969569992
 30
0.0
 11
33.59347671240243
 21
12.68496969569992
 31
0.0
  0
LINE
  5
21B
330
2
100
AcDbEntity
  8
GAIKEI
  6
Continuous
 62
     1
100
AcDbLine
 10
33.81347181240244
 20
11.93496969569992
 30
0.0
 11
33.59347671240243
 21
11.93496969569992
 31
0.0
  0
LINE
  5
21C
330
2
100
AcDbEntity
  8
GAIKEI
  6
Continuous
 62
     1
100
AcDbLine
 10
33.81347181240244
 20
11.18496969569992
 30
0.0
 11
33.59347671240243
 21
11.18496969569992
 31
0.0
  0
LINE
  5
21D
330
2
100
AcDbEntity
  8
GAIKEI
  6
Continuous
 62
     1
100
AcDbLine
 10
34.31347181240244
 20
12.68496969569992
 30
0.0
 11
34.09347671240244
 21
12.68496969569992
 31
0.0
  0
LINE
  5
21E
330
2
100
AcDbEntity
  8
GAIKEI
  6
Continuous
 62
     1
100
AcDbLine
 10
34.31347181240244
 20
11.93496969569992
 30
0.0
 11
34.09347671240244
 21
11.93496969569992
 31
0.0
  0
LINE
  5
21F
330
2
100
AcDbEntity
  8
GAIKEI
  6
Continuous
 62
     1
100
AcDbLine
 10
34.31347181240244
 20
11.18496969569992
 30
0.0
 11
34.09347671240244
 21
11.18496969569992
 31
0.0
  0
LINE
  5
220
330
2
100
AcDbEntity
  8
GAIKEI
  6
Continuous
 62
     1
100
AcDbLine
 10
34.81347181240244
 20
12.68496969569992
 30
0.0
 11
34.59347671240244
 21
12.68496969569992
 31
0.0
  0
LINE
  5
221
330
2
100
AcDbEntity
  8
GAIKEI
  6
Continuous
 62
     1
100
AcDbLine
 10
34.81347181240244
 20
11.93496969569992
 30
0.0
 11
34.59347671240244
 21
11.93496969569992
 31
0.0
  0
LINE
  5
222
330
2
100
AcDbEntity
  8
GAIKEI
  6
Continuous
 62
     1
100
AcDbLine
 10
34.81347181240244
 20
11.18496969569992
 30
0.0
 11
34.59347671240244
 21
11.18496969569992
 31
0.0
  0
LINE
  5
223
330
2
100
AcDbEntity
  8
GAIKEI
  6
Continuous
 62
     1
100
AcDbLine
 10
35.31347181240244
 20
12.68496969569992
 30
0.0
 11
35.09347671240244
 21
12.68496969569992
 31
0.0
  0
LINE
  5
224
330
2
100
AcDbEntity
  8
GAIKEI
  6
Continuous
 62
     1
100
AcDbLine
 10
35.31347181240244
 20
11.93496969569992
 30
0.0
 11
35.09347671240244
 21
11.93496969569992
 31
0.0
  0
LINE
  5
225
330
2
100
AcDbEntity
  8
GAIKEI
  6
Continuous
 62
     1
100
AcDbLine
 10
35.31347181240244
 20
11.18496969569992
 30
0.0
 11
35.09347671240244
 21
11.18496969569992
 31
0.0
  0
LINE
  5
226
330
2
100
AcDbEntity
  8
GAIKEI
  6
Continuous
 62
     1
100
AcDbLine
 10
35.81347181240244
 20
12.68496969569992
 30
0.0
 11
35.59347211240231
 21
12.68496969569992
 31
0.0
  0
LINE
  5
227
330
2
100
AcDbEntity
  8
GAIKEI
  6
Continuous
 62
     1
100
AcDbLine
 10
35.81347181240244
 20
11.93496969569992
 30
0.0
 11
35.59347211240231
 21
11.93496969569992
 31
0.0
  0
LINE
  5
228
330
2
100
AcDbEntity
  8
GAIKEI
  6
Continuous
 62
     1
100
AcDbLine
 10
35.81347181240244
 20
11.18496969569992
 30
0.0
 11
35.59347211240231
 21
11.18496969569992
 31
0.0
  0
LINE
  5
229
330
2
100
AcDbEntity
  8
GAIKEI
  6
Continuous
 62
     1
100
AcDbLine
 10
36.31347181240244
 20
12.68496969569992
 30
0.0
 11
36.09347211240231
 21
12.68496969569992
 31
0.0
  0
LINE
  5
22A
330
2
100
AcDbEntity
  8
GAIKEI
  6
Continuous
 62
     1
100
AcDbLine
 10
36.31347181240244
 20
11.93496969569992
 30
0.0
 11
36.09347211240231
 21
11.93496969569992
 31
0.0
  0
LINE
  5
22B
330
2
100
AcDbEntity
  8
GAIKEI
  6
Continuous
 62
     1
100
AcDbLine
 10
36.31347181240244
 20
11.18496969569992
 30
0.0
 11
36.09347211240231
 21
11.18496969569992
 31
0.0
  0
LINE
  5
22C
330
2
100
AcDbEntity
  8
GAIKEI
  6
Continuous
 62
     1
100
AcDbLine
 10
36.81347181240244
 20
12.68496969569992
 30
0.0
 11
36.59347211240231
 21
12.68496969569992
 31
0.0
  0
LINE
  5
22D
330
2
100
AcDbEntity
  8
GAIKEI
  6
Continuous
 62
     1
100
AcDbLine
 10
36.81347181240244
 20
11.93496969569992
 30
0.0
 11
36.59347211240231
 21
11.93496969569992
 31
0.0
  0
LINE
  5
22E
330
2
100
AcDbEntity
  8
GAIKEI
  6
Continuous
 62
     1
100
AcDbLine
 10
36.81347181240244
 20
11.18496969569992
 30
0.0
 11
36.59347211240231
 21
11.18496969569992
 31
0.0
  0
LINE
  5
22F
330
2
100
AcDbEntity
  8
GAIKEI
  6
Continuous
 62
     1
100
AcDbLine
 10
37.31347181240244
 20
12.68496969569992
 30
0.0
 11
37.09347211240231
 21
12.68496969569992
 31
0.0
  0
LINE
  5
230
330
2
100
AcDbEntity
  8
GAIKEI
  6
Continuous
 62
     1
100
AcDbLine
 10
37.31347181240244
 20
11.93496969569992
 30
0.0
 11
37.09347211240231
 21
11.93496969569992
 31
0.0
  0
LINE
  5
231
330
2
100
AcDbEntity
  8
GAIKEI
  6
Continuous
 62
     1
100
AcDbLine
 10
37.31347181240244
 20
11.18496969569992
 30
0.0
 11
37.09347211240231
 21
11.18496969569992
 31
0.0
  0
LINE
  5
232
330
2
100
AcDbEntity
  8
GAIKEI
  6
Continuous
 62
     1
100
AcDbLine
 10
33.31347181240244
 20
13.18496969569992
 30
0.0
 11
33.09347671240244
 21
13.18496969569992
 31
0.0
  0
LINE
  5
233
330
2
100
AcDbEntity
  8
GAIKEI
  6
Continuous
 62
     1
100
AcDbLine
 10
33.31347181240244
 20
12.43496969569992
 30
0.0
 11
33.09347671240244
 21
12.43496969569992
 31
0.0
  0
LINE
  5
234
330
2
100
AcDbEntity
  8
GAIKEI
  6
Continuous
 62
     1
100
AcDbLine
 10
33.31347181240244
 20
11.68496969569992
 30
0.0
 11
33.09347671240244
 21
11.68496969569992
 31
0.0
  0
LINE
  5
235
330
2
100
AcDbEntity
  8
GAIKEI
  6
Continuous
 62
     1
100
AcDbLine
 10
33.81347181240244
 20
13.18496969569992
 30
0.0
 11
33.59347671240243
 21
13.18496969569992
 31
0.0
  0
LINE
  5
236
330
2
100
AcDbEntity
  8
GAIKEI
  6
Continuous
 62
     1
100
AcDbLine
 10
33.81347181240244
 20
12.43496969569992
 30
0.0
 11
33.59347671240243
 21
12.43496969569992
 31
0.0
  0
LINE
  5
237
330
2
100
AcDbEntity
  8
GAIKEI
  6
Continuous
 62
     1
100
AcDbLine
 10
33.81347181240244
 20
11.68496969569992
 30
0.0
 11
33.59347671240243
 21
11.68496969569992
 31
0.0
  0
LINE
  5
238
330
2
100
AcDbEntity
  8
GAIKEI
  6
Continuous
 62
     1
100
AcDbLine
 10
34.31347181240244
 20
13.18496969569992
 30
0.0
 11
34.09347671240244
 21
13.18496969569992
 31
0.0
  0
LINE
  5
239
330
2
100
AcDbEntity
  8
GAIKEI
  6
Continuous
 62
     1
100
AcDbLine
 10
34.31347181240244
 20
12.43496969569992
 30
0.0
 11
34.09347671240244
 21
12.43496969569992
 31
0.0
  0
LINE
  5
23A
330
2
100
AcDbEntity
  8
GAIKEI
  6
Continuous
 62
     1
100
AcDbLine
 10
34.31347181240244
 20
11.68496969569992
 30
0.0
 11
34.09347671240244
 21
11.68496969569992
 31
0.0
  0
LINE
  5
23B
330
2
100
AcDbEntity
  8
GAIKEI
  6
Continuous
 62
     1
100
AcDbLine
 10
34.81347181240244
 20
13.18496969569992
 30
0.0
 11
34.59347671240244
 21
13.18496969569992
 31
0.0
  0
LINE
  5
23C
330
2
100
AcDbEntity
  8
GAIKEI
  6
Continuous
 62
     1
100
AcDbLine
 10
34.81347181240244
 20
12.43496969569992
 30
0.0
 11
34.59347671240244
 21
12.43496969569992
 31
0.0
  0
LINE
  5
23D
330
2
100
AcDbEntity
  8
GAIKEI
  6
Continuous
 62
     1
100
AcDbLine
 10
34.81347181240244
 20
11.68496969569992
 30
0.0
 11
34.59347671240244
 21
11.68496969569992
 31
0.0
  0
LINE
  5
23E
330
2
100
AcDbEntity
  8
GAIKEI
  6
Continuous
 62
     1
100
AcDbLine
 10
35.31347181240244
 20
13.18496969569992
 30
0.0
 11
35.09347671240244
 21
13.18496969569992
 31
0.0
  0
LINE
  5
23F
330
2
100
AcDbEntity
  8
GAIKEI
  6
Continuous
 62
     1
100
AcDbLine
 10
35.31347181240244
 20
12.43496969569992
 30
0.0
 11
35.09347671240244
 21
12.43496969569992
 31
0.0
  0
LINE
  5
240
330
2
100
AcDbEntity
  8
GAIKEI
  6
Continuous
 62
     1
100
AcDbLine
 10
35.31347181240244
 20
11.68496969569992
 30
0.0
 11
35.09347671240244
 21
11.68496969569992
 31
0.0
  0
LINE
  5
241
330
2
100
AcDbEntity
  8
GAIKEI
  6
Continuous
 62
     1
100
AcDbLine
 10
35.81347181240244
 20
13.18496969569992
 30
0.0
 11
35.59347211240231
 21
13.18496969569992
 31
0.0
  0
LINE
  5
242
330
2
100
AcDbEntity
  8
GAIKEI
  6
Continuous
 62
     1
100
AcDbLine
 10
35.81347181240244
 20
12.43496969569992
 30
0.0
 11
35.59347211240231
 21
12.43496969569992
 31
0.0
  0
LINE
  5
243
330
2
100
AcDbEntity
  8
GAIKEI
  6
Continuous
 62
     1
100
AcDbLine
 10
35.81347181240244
 20
11.68496969569992
 30
0.0
 11
35.59347211240231
 21
11.68496969569992
 31
0.0
  0
LINE
  5
244
330
2
100
AcDbEntity
  8
GAIKEI
  6
Continuous
 62
     1
100
AcDbLine
 10
36.31347181240244
 20
13.18496969569992
 30
0.0
 11
36.09347211240231
 21
13.18496969569992
 31
0.0
  0
LINE
  5
245
330
2
100
AcDbEntity
  8
GAIKEI
  6
Continuous
 62
     1
100
AcDbLine
 10
36.31347181240244
 20
12.43496969569992
 30
0.0
 11
36.09347211240231
 21
12.43496969569992
 31
0.0
  0
LINE
  5
246
330
2
100
AcDbEntity
  8
GAIKEI
  6
Continuous
 62
     1
100
AcDbLine
 10
36.31347181240244
 20
11.68496969569992
 30
0.0
 11
36.09347211240231
 21
11.68496969569992
 31
0.0
  0
LINE
  5
247
330
2
100
AcDbEntity
  8
GAIKEI
  6
Continuous
 62
     1
100
AcDbLine
 10
36.81347181240244
 20
13.18496969569992
 30
0.0
 11
36.59347211240231
 21
13.18496969569992
 31
0.0
  0
LINE
  5
248
330
2
100
AcDbEntity
  8
GAIKEI
  6
Continuous
 62
     1
100
AcDbLine
 10
36.81347181240244
 20
12.43496969569992
 30
0.0
 11
36.59347211240231
 21
12.43496969569992
 31
0.0
  0
LINE
  5
249
330
2
100
AcDbEntity
  8
GAIKEI
  6
Continuous
 62
     1
100
AcDbLine
 10
36.81347181240244
 20
11.68496969569992
 30
0.0
 11
36.59347211240231
 21
11.68496969569992
 31
0.0
  0
LINE
  5
24A
330
2
100
AcDbEntity
  8
GAIKEI
  6
Continuous
 62
     1
100
AcDbLine
 10
37.31347181240244
 20
13.18496969569992
 30
0.0
 11
37.09347211240231
 21
13.18496969569992
 31
0.0
  0
LINE
  5
24B
330
2
100
AcDbEntity
  8
GAIKEI
  6
Continuous
 62
     1
100
AcDbLine
 10
37.31347181240244
 20
12.43496969569992
 30
0.0
 11
37.09347211240231
 21
12.43496969569992
 31
0.0
  0
LINE
  5
24C
330
2
100
AcDbEntity
  8
GAIKEI
  6
Continuous
 62
     1
100
AcDbLine
 10
37.31347181240244
 20
11.68496969569992
 30
0.0
 11
37.09347211240231
 21
11.68496969569992
 31
0.0
  0
LINE
  5
24D
330
2
100
AcDbEntity
  8
GAIKEI
  6
Continuous
 62
     1
100
AcDbLine
 10
33.09347671240244
 20
12.68496969569992
 30
0.0
 11
33.09347671240244
 21
13.18496969569992
 31
0.0
  0
LINE
  5
24E
330
2
100
AcDbEntity
  8
GAIKEI
  6
Continuous
 62
     1
100
AcDbLine
 10
33.09347671240244
 20
11.93496969569992
 30
0.0
 11
33.09347671240244
 21
12.43496969569992
 31
0.0
  0
LINE
  5
24F
330
2
100
AcDbEntity
  8
GAIKEI
  6
Continuous
 62
     1
100
AcDbLine
 10
33.09347671240244
 20
11.18496969569992
 30
0.0
 11
33.09347671240244
 21
11.68496969569992
 31
0.0
  0
LINE
  5
250
330
2
100
AcDbEntity
  8
GAIKEI
  6
Continuous
 62
     1
100
AcDbLine
 10
33.59347671240243
 20
12.68496969569992
 30
0.0
 11
33.59347671240243
 21
13.18496969569992
 31
0.0
  0
LINE
  5
251
330
2
100
AcDbEntity
  8
GAIKEI
  6
Continuous
 62
     1
100
AcDbLine
 10
33.59347671240243
 20
11.93496969569992
 30
0.0
 11
33.59347671240243
 21
12.43496969569992
 31
0.0
  0
LINE
  5
252
330
2
100
AcDbEntity
  8
GAIKEI
  6
Continuous
 62
     1
100
AcDbLine
 10
33.59347671240243
 20
11.18496969569992
 30
0.0
 11
33.59347671240243
 21
11.68496969569992
 31
0.0
  0
LINE
  5
253
330
2
100
AcDbEntity
  8
GAIKEI
  6
Continuous
 62
     1
100
AcDbLine
 10
34.09347671240244
 20
12.68496969569992
 30
0.0
 11
34.09347671240244
 21
13.18496969569992
 31
0.0
  0
LINE
  5
254
330
2
100
AcDbEntity
  8
GAIKEI
  6
Continuous
 62
     1
100
AcDbLine
 10
34.09347671240244
 20
11.93496969569992
 30
0.0
 11
34.09347671240244
 21
12.43496969569992
 31
0.0
  0
LINE
  5
255
330
2
100
AcDbEntity
  8
GAIKEI
  6
Continuous
 62
     1
100
AcDbLine
 10
34.09347671240244
 20
11.18496969569992
 30
0.0
 11
34.09347671240244
 21
11.68496969569992
 31
0.0
  0
LINE
  5
256
330
2
100
AcDbEntity
  8
GAIKEI
  6
Continuous
 62
     1
100
AcDbLine
 10
34.59347671240244
 20
12.68496969569992
 30
0.0
 11
34.59347671240244
 21
13.18496969569992
 31
0.0
  0
LINE
  5
257
330
2
100
AcDbEntity
  8
GAIKEI
  6
Continuous
 62
     1
100
AcDbLine
 10
34.59347671240244
 20
11.93496969569992
 30
0.0
 11
34.59347671240244
 21
12.43496969569992
 31
0.0
  0
LINE
  5
258
330
2
100
AcDbEntity
  8
GAIKEI
  6
Continuous
 62
     1
100
AcDbLine
 10
34.59347671240244
 20
11.18496969569992
 30
0.0
 11
34.59347671240244
 21
11.68496969569992
 31
0.0
  0
LINE
  5
259
330
2
100
AcDbEntity
  8
GAIKEI
  6
Continuous
 62
     1
100
AcDbLine
 10
35.09347671240244
 20
12.68496969569992
 30
0.0
 11
35.09347671240244
 21
13.18496969569992
 31
0.0
  0
LINE
  5
25A
330
2
100
AcDbEntity
  8
GAIKEI
  6
Continuous
 62
     1
100
AcDbLine
 10
35.09347671240244
 20
11.93496969569992
 30
0.0
 11
35.09347671240244
 21
12.43496969569992
 31
0.0
  0
LINE
  5
25B
330
2
100
AcDbEntity
  8
GAIKEI
  6
Continuous
 62
     1
100
AcDbLine
 10
35.09347671240244
 20
11.18496969569992
 30
0.0
 11
35.09347671240244
 21
11.68496969569992
 31
0.0
  0
LINE
  5
25C
330
2
100
AcDbEntity
  8
GAIKEI
  6
Continuous
 62
     1
100
AcDbLine
 10
35.59347211240231
 20
12.68496969569992
 30
0.0
 11
35.59347211240231
 21
13.18496969569992
 31
0.0
  0
LINE
  5
25D
330
2
100
AcDbEntity
  8
GAIKEI
  6
Continuous
 62
     1
100
AcDbLine
 10
35.59347211240231
 20
11.93496969569992
 30
0.0
 11
35.59347211240231
 21
12.43496969569992
 31
0.0
  0
LINE
  5
25E
330
2
100
AcDbEntity
  8
GAIKEI
  6
Continuous
 62
     1
100
AcDbLine
 10
35.59347211240231
 20
11.18496969569992
 30
0.0
 11
35.59347211240231
 21
11.68496969569992
 31
0.0
  0
LINE
  5
25F
330
2
100
AcDbEntity
  8
GAIKEI
  6
Continuous
 62
     1
100
AcDbLine
 10
36.09347211240231
 20
12.68496969569992
 30
0.0
 11
36.09347211240231
 21
13.18496969569992
 31
0.0
  0
LINE
  5
260
330
2
100
AcDbEntity
  8
GAIKEI
  6
Continuous
 62
     1
100
AcDbLine
 10
36.09347211240231
 20
11.93496969569992
 30
0.0
 11
36.09347211240231
 21
12.43496969569992
 31
0.0
  0
LINE
  5
261
330
2
100
AcDbEntity
  8
GAIKEI
  6
Continuous
 62
     1
100
AcDbLine
 10
36.09347211240231
 20
11.18496969569992
 30
0.0
 11
36.09347211240231
 21
11.68496969569992
 31
0.0
  0
LINE
  5
262
330
2
100
AcDbEntity
  8
GAIKEI
  6
Continuous
 62
     1
100
AcDbLine
 10
36.59347211240231
 20
12.68496969569992
 30
0.0
 11
36.59347211240231
 21
13.18496969569992
 31
0.0
  0
LINE
  5
263
330
2
100
AcDbEntity
  8
GAIKEI
  6
Continuous
 62
     1
100
AcDbLine
 10
36.59347211240231
 20
11.93496969569992
 30
0.0
 11
36.59347211240231
 21
12.43496969569992
 31
0.0
  0
LINE
  5
264
330
2
100
AcDbEntity
  8
GAIKEI
  6
Continuous
 62
     1
100
AcDbLine
 10
36.59347211240231
 20
11.18496969569992
 30
0.0
 11
36.59347211240231
 21
11.68496969569992
 31
0.0
  0
LINE
  5
265
330
2
100
AcDbEntity
  8
GAIKEI
  6
Continuous
 62
     1
100
AcDbLine
 10
37.09347211240231
 20
12.68496969569992
 30
0.0
 11
37.09347211240231
 21
13.18496969569992
 31
0.0
  0
LINE
  5
266
330
2
100
AcDbEntity
  8
GAIKEI
  6
Continuous
 62
     1
100
AcDbLine
 10
37.09347211240231
 20
11.93496969569992
 30
0.0
 11
37.09347211240231
 21
12.43496969569992
 31
0.0
  0
LINE
  5
267
330
2
100
AcDbEntity
  8
GAIKEI
  6
Continuous
 62
     1
100
AcDbLine
 10
37.09347211240231
 20
11.18496969569992
 30
0.0
 11
37.09347211240231
 21
11.68496969569992
 31
0.0
  0
LINE
  5
268
330
2
100
AcDbEntity
  8
GAIKEI
  6
Continuous
 62
     1
100
AcDbLine
 10
33.31347181240244
 20
10.18496969569992
 30
0.0
 11
33.31347181240244
 21
10.68496969569992
 31
0.0
  0
LINE
  5
269
330
2
100
AcDbEntity
  8
GAIKEI
  6
Continuous
 62
     1
100
AcDbLine
 10
33.31347181240244
 20
9.434969695699919
 30
0.0
 11
33.31347181240244
 21
9.934969695699919
 31
0.0
  0
LINE
  5
26A
330
2
100
AcDbEntity
  8
GAIKEI
  6
Continuous
 62
     1
100
AcDbLine
 10
33.31347181240244
 20
8.684969695699919
 30
0.0
 11
33.31347181240244
 21
9.184969695699919
 31
0.0
  0
LINE
  5
26B
330
2
100
AcDbEntity
  8
GAIKEI
  6
Continuous
 62
     1
100
AcDbLine
 10
33.81347181240244
 20
10.18496969569992
 30
0.0
 11
33.81347181240244
 21
10.68496969569992
 31
0.0
  0
LINE
  5
26C
330
2
100
AcDbEntity
  8
GAIKEI
  6
Continuous
 62
     1
100
AcDbLine
 10
33.81347181240244
 20
9.434969695699919
 30
0.0
 11
33.81347181240244
 21
9.934969695699919
 31
0.0
  0
LINE
  5
26D
330
2
100
AcDbEntity
  8
GAIKEI
  6
Continuous
 62
     1
100
AcDbLine
 10
33.81347181240244
 20
8.684969695699919
 30
0.0
 11
33.81347181240244
 21
9.184969695699919
 31
0.0
  0
LINE
  5
26E
330
2
100
AcDbEntity
  8
GAIKEI
  6
Continuous
 62
     1
100
AcDbLine
 10
34.31347181240244
 20
10.18496969569992
 30
0.0
 11
34.31347181240244
 21
10.68496969569992
 31
0.0
  0
LINE
  5
26F
330
2
100
AcDbEntity
  8
GAIKEI
  6
Continuous
 62
     1
100
AcDbLine
 10
34.31347181240244
 20
9.434969695699919
 30
0.0
 11
34.31347181240244
 21
9.934969695699919
 31
0.0
  0
LINE
  5
270
330
2
100
AcDbEntity
  8
GAIKEI
  6
Continuous
 62
     1
100
AcDbLine
 10
34.31347181240244
 20
8.684969695699919
 30
0.0
 11
34.31347181240244
 21
9.184969695699919
 31
0.0
  0
LINE
  5
271
330
2
100
AcDbEntity
  8
GAIKEI
  6
Continuous
 62
     1
100
AcDbLine
 10
34.81347181240244
 20
10.18496969569992
 30
0.0
 11
34.81347181240244
 21
10.68496969569992
 31
0.0
  0
LINE
  5
272
330
2
100
AcDbEntity
  8
GAIKEI
  6
Continuous
 62
     1
100
AcDbLine
 10
34.81347181240244
 20
9.434969695699919
 30
0.0
 11
34.81347181240244
 21
9.934969695699919
 31
0.0
  0
LINE
  5
273
330
2
100
AcDbEntity
  8
GAIKEI
  6
Continuous
 62
     1
100
AcDbLine
 10
34.81347181240244
 20
8.684969695699919
 30
0.0
 11
34.81347181240244
 21
9.184969695699919
 31
0.0
  0
LINE
  5
274
330
2
100
AcDbEntity
  8
GAIKEI
  6
Continuous
 62
     1
100
AcDbLine
 10
35.31347181240244
 20
10.18496969569992
 30
0.0
 11
35.31347181240244
 21
10.68496969569992
 31
0.0
  0
LINE
  5
275
330
2
100
AcDbEntity
  8
GAIKEI
  6
Continuous
 62
     1
100
AcDbLine
 10
35.31347181240244
 20
9.434969695699919
 30
0.0
 11
35.31347181240244
 21
9.934969695699919
 31
0.0
  0
LINE
  5
276
330
2
100
AcDbEntity
  8
GAIKEI
  6
Continuous
 62
     1
100
AcDbLine
 10
35.31347181240244
 20
8.684969695699919
 30
0.0
 11
35.31347181240244
 21
9.184969695699919
 31
0.0
  0
LINE
  5
277
330
2
100
AcDbEntity
  8
GAIKEI
  6
Continuous
 62
     1
100
AcDbLine
 10
35.81347181240244
 20
10.18496969569992
 30
0.0
 11
35.81347181240244
 21
10.68496969569992
 31
0.0
  0
LINE
  5
278
330
2
100
AcDbEntity
  8
GAIKEI
  6
Continuous
 62
     1
100
AcDbLine
 10
35.81347181240244
 20
9.434969695699919
 30
0.0
 11
35.81347181240244
 21
9.934969695699919
 31
0.0
  0
LINE
  5
279
330
2
100
AcDbEntity
  8
GAIKEI
  6
Continuous
 62
     1
100
AcDbLine
 10
35.81347181240244
 20
8.684969695699919
 30
0.0
 11
35.81347181240244
 21
9.184969695699919
 31
0.0
  0
LINE
  5
27A
330
2
100
AcDbEntity
  8
GAIKEI
  6
Continuous
 62
     1
100
AcDbLine
 10
36.31347181240244
 20
10.18496969569992
 30
0.0
 11
36.31347181240244
 21
10.68496969569992
 31
0.0
  0
LINE
  5
27B
330
2
100
AcDbEntity
  8
GAIKEI
  6
Continuous
 62
     1
100
AcDbLine
 10
36.31347181240244
 20
9.434969695699919
 30
0.0
 11
36.31347181240244
 21
9.934969695699919
 31
0.0
  0
LINE
  5
27C
330
2
100
AcDbEntity
  8
GAIKEI
  6
Continuous
 62
     1
100
AcDbLine
 10
36.31347181240244
 20
8.684969695699919
 30
0.0
 11
36.31347181240244
 21
9.184969695699919
 31
0.0
  0
LINE
  5
27D
330
2
100
AcDbEntity
  8
GAIKEI
  6
Continuous
 62
     1
100
AcDbLine
 10
36.81347181240244
 20
10.18496969569992
 30
0.0
 11
36.81347181240244
 21
10.68496969569992
 31
0.0
  0
LINE
  5
27E
330
2
100
AcDbEntity
  8
GAIKEI
  6
Continuous
 62
     1
100
AcDbLine
 10
36.81347181240244
 20
9.434969695699919
 30
0.0
 11
36.81347181240244
 21
9.934969695699919
 31
0.0
  0
LINE
  5
27F
330
2
100
AcDbEntity
  8
GAIKEI
  6
Continuous
 62
     1
100
AcDbLine
 10
36.81347181240244
 20
8.684969695699919
 30
0.0
 11
36.81347181240244
 21
9.184969695699919
 31
0.0
  0
LINE
  5
280
330
2
100
AcDbEntity
  8
GAIKEI
  6
Continuous
 62
     1
100
AcDbLine
 10
37.31347181240244
 20
10.18496969569992
 30
0.0
 11
37.31347181240244
 21
10.68496969569992
 31
0.0
  0
LINE
  5
281
330
2
100
AcDbEntity
  8
GAIKEI
  6
Continuous
 62
     1
100
AcDbLine
 10
37.31347181240244
 20
9.434969695699919
 30
0.0
 11
37.31347181240244
 21
9.934969695699919
 31
0.0
  0
LINE
  5
282
330
2
100
AcDbEntity
  8
GAIKEI
  6
Continuous
 62
     1
100
AcDbLine
 10
37.31347181240244
 20
8.684969695699919
 30
0.0
 11
37.31347181240244
 21
9.184969695699919
 31
0.0
  0
LINE
  5
283
330
2
100
AcDbEntity
  8
GAIKEI
  6
Continuous
 62
     1
100
AcDbLine
 10
33.31347181240244
 20
10.18496969569992
 30
0.0
 11
33.09347671240244
 21
10.18496969569992
 31
0.0
  0
LINE
  5
284
330
2
100
AcDbEntity
  8
GAIKEI
  6
Continuous
 62
     1
100
AcDbLine
 10
33.31347181240244
 20
9.434969695699919
 30
0.0
 11
33.09347671240244
 21
9.434969695699919
 31
0.0
  0
LINE
  5
285
330
2
100
AcDbEntity
  8
GAIKEI
  6
Continuous
 62
     1
100
AcDbLine
 10
33.31347181240244
 20
8.684969695699919
 30
0.0
 11
33.09347671240244
 21
8.684969695699919
 31
0.0
  0
LINE
  5
286
330
2
100
AcDbEntity
  8
GAIKEI
  6
Continuous
 62
     1
100
AcDbLine
 10
33.81347181240244
 20
10.18496969569992
 30
0.0
 11
33.59347671240243
 21
10.18496969569992
 31
0.0
  0
LINE
  5
287
330
2
100
AcDbEntity
  8
GAIKEI
  6
Continuous
 62
     1
100
AcDbLine
 10
33.81347181240244
 20
9.434969695699919
 30
0.0
 11
33.59347671240243
 21
9.434969695699919
 31
0.0
  0
LINE
  5
288
330
2
100
AcDbEntity
  8
GAIKEI
  6
Continuous
 62
     1
100
AcDbLine
 10
33.81347181240244
 20
8.684969695699919
 30
0.0
 11
33.59347671240243
 21
8.684969695699919
 31
0.0
  0
LINE
  5
289
330
2
100
AcDbEntity
  8
GAIKEI
  6
Continuous
 62
     1
100
AcDbLine
 10
34.31347181240244
 20
10.18496969569992
 30
0.0
 11
34.09347671240244
 21
10.18496969569992
 31
0.0
  0
LINE
  5
28A
330
2
100
AcDbEntity
  8
GAIKEI
  6
Continuous
 62
     1
100
AcDbLine
 10
34.31347181240244
 20
9.434969695699919
 30
0.0
 11
34.09347671240244
 21
9.434969695699919
 31
0.0
  0
LINE
  5
28B
330
2
100
AcDbEntity
  8
GAIKEI
  6
Continuous
 62
     1
100
AcDbLine
 10
34.31347181240244
 20
8.684969695699919
 30
0.0
 11
34.09347671240244
 21
8.684969695699919
 31
0.0
  0
LINE
  5
28C
330
2
100
AcDbEntity
  8
GAIKEI
  6
Continuous
 62
     1
100
AcDbLine
 10
34.81347181240244
 20
10.18496969569992
 30
0.0
 11
34.59347671240244
 21
10.18496969569992
 31
0.0
  0
LINE
  5
28D
330
2
100
AcDbEntity
  8
GAIKEI
  6
Continuous
 62
     1
100
AcDbLine
 10
34.81347181240244
 20
9.434969695699919
 30
0.0
 11
34.59347671240244
 21
9.434969695699919
 31
0.0
  0
LINE
  5
28E
330
2
100
AcDbEntity
  8
GAIKEI
  6
Continuous
 62
     1
100
AcDbLine
 10
34.81347181240244
 20
8.684969695699919
 30
0.0
 11
34.59347671240244
 21
8.684969695699919
 31
0.0
  0
LINE
  5
28F
330
2
100
AcDbEntity
  8
GAIKEI
  6
Continuous
 62
     1
100
AcDbLine
 10
35.31347181240244
 20
10.18496969569992
 30
0.0
 11
35.09347671240244
 21
10.18496969569992
 31
0.0
  0
LINE
  5
290
330
2
100
AcDbEntity
  8
GAIKEI
  6
Continuous
 62
     1
100
AcDbLine
 10
35.31347181240244
 20
9.434969695699919
 30
0.0
 11
35.09347671240244
 21
9.434969695699919
 31
0.0
  0
LINE
  5
291
330
2
100
AcDbEntity
  8
GAIKEI
  6
Continuous
 62
     1
100
AcDbLine
 10
35.31347181240244
 20
8.684969695699919
 30
0.0
 11
35.09347671240244
 21
8.684969695699919
 31
0.0
  0
LINE
  5
292
330
2
100
AcDbEntity
  8
GAIKEI
  6
Continuous
 62
     1
100
AcDbLine
 10
35.81347181240244
 20
10.18496969569992
 30
0.0
 11
35.59347211240231
 21
10.18496969569992
 31
0.0
  0
LINE
  5
293
330
2
100
AcDbEntity
  8
GAIKEI
  6
Continuous
 62
     1
100
AcDbLine
 10
35.81347181240244
 20
9.434969695699919
 30
0.0
 11
35.59347211240231
 21
9.434969695699919
 31
0.0
  0
LINE
  5
294
330
2
100
AcDbEntity
  8
GAIKEI
  6
Continuous
 62
     1
100
AcDbLine
 10
35.81347181240244
 20
8.684969695699919
 30
0.0
 11
35.59347211240231
 21
8.684969695699919
 31
0.0
  0
LINE
  5
295
330
2
100
AcDbEntity
  8
GAIKEI
  6
Continuous
 62
     1
100
AcDbLine
 10
36.31347181240244
 20
10.18496969569992
 30
0.0
 11
36.09347211240231
 21
10.18496969569992
 31
0.0
  0
LINE
  5
296
330
2
100
AcDbEntity
  8
GAIKEI
  6
Continuous
 62
     1
100
AcDbLine
 10
36.31347181240244
 20
9.434969695699919
 30
0.0
 11
36.09347211240231
 21
9.434969695699919
 31
0.0
  0
LINE
  5
297
330
2
100
AcDbEntity
  8
GAIKEI
  6
Continuous
 62
     1
100
AcDbLine
 10
36.31347181240244
 20
8.684969695699919
 30
0.0
 11
36.09347211240231
 21
8.684969695699919
 31
0.0
  0
LINE
  5
298
330
2
100
AcDbEntity
  8
GAIKEI
  6
Continuous
 62
     1
100
AcDbLine
 10
36.81347181240244
 20
10.18496969569992
 30
0.0
 11
36.59347211240231
 21
10.18496969569992
 31
0.0
  0
LINE
  5
299
330
2
100
AcDbEntity
  8
GAIKEI
  6
Continuous
 62
     1
100
AcDbLine
 10
36.81347181240244
 20
9.434969695699919
 30
0.0
 11
36.59347211240231
 21
9.434969695699919
 31
0.0
  0
LINE
  5
29A
330
2
100
AcDbEntity
  8
GAIKEI
  6
Continuous
 62
     1
100
AcDbLine
 10
36.81347181240244
 20
8.684969695699919
 30
0.0
 11
36.59347211240231
 21
8.684969695699919
 31
0.0
  0
LINE
  5
29B
330
2
100
AcDbEntity
  8
GAIKEI
  6
Continuous
 62
     1
100
AcDbLine
 10
37.31347181240244
 20
10.18496969569992
 30
0.0
 11
37.09347211240231
 21
10.18496969569992
 31
0.0
  0
LINE
  5
29C
330
2
100
AcDbEntity
  8
GAIKEI
  6
Continuous
 62
     1
100
AcDbLine
 10
37.31347181240244
 20
9.434969695699919
 30
0.0
 11
37.09347211240231
 21
9.434969695699919
 31
0.0
  0
LINE
  5
29D
330
2
100
AcDbEntity
  8
GAIKEI
  6
Continuous
 62
     1
100
AcDbLine
 10
37.31347181240244
 20
8.684969695699919
 30
0.0
 11
37.09347211240231
 21
8.684969695699919
 31
0.0
  0
LINE
  5
29E
330
2
100
AcDbEntity
  8
GAIKEI
  6
Continuous
 62
     1
100
AcDbLine
 10
33.31347181240244
 20
10.68496969569992
 30
0.0
 11
33.09347671240244
 21
10.68496969569992
 31
0.0
  0
LINE
  5
29F
330
2
100
AcDbEntity
  8
GAIKEI
  6
Continuous
 62
     1
100
AcDbLine
 10
33.31347181240244
 20
9.934969695699919
 30
0.0
 11
33.09347671240244
 21
9.934969695699919
 31
0.0
  0
LINE
  5
2A0
330
2
100
AcDbEntity
  8
GAIKEI
  6
Continuous
 62
     1
100
AcDbLine
 10
33.31347181240244
 20
9.184969695699919
 30
0.0
 11
33.09347671240244
 21
9.184969695699919
 31
0.0
  0
LINE
  5
2A1
330
2
100
AcDbEntity
  8
GAIKEI
  6
Continuous
 62
     1
100
AcDbLine
 10
33.81347181240244
 20
10.68496969569992
 30
0.0
 11
33.59347671240243
 21
10.68496969569992
 31
0.0
  0
LINE
  5
2A2
330
2
100
AcDbEntity
  8
GAIKEI
  6
Continuous
 62
     1
100
AcDbLine
 10
33.81347181240244
 20
9.934969695699919
 30
0.0
 11
33.59347671240243
 21
9.934969695699919
 31
0.0
  0
LINE
  5
2A3
330
2
100
AcDbEntity
  8
GAIKEI
  6
Continuous
 62
     1
100
AcDbLine
 10
33.81347181240244
 20
9.184969695699919
 30
0.0
 11
33.59347671240243
 21
9.184969695699919
 31
0.0
  0
LINE
  5
2A4
330
2
100
AcDbEntity
  8
GAIKEI
  6
Continuous
 62
     1
100
AcDbLine
 10
34.31347181240244
 20
10.68496969569992
 30
0.0
 11
34.09347671240244
 21
10.68496969569992
 31
0.0
  0
LINE
  5
2A5
330
2
100
AcDbEntity
  8
GAIKEI
  6
Continuous
 62
     1
100
AcDbLine
 10
34.31347181240244
 20
9.934969695699919
 30
0.0
 11
34.09347671240244
 21
9.934969695699919
 31
0.0
  0
LINE
  5
2A6
330
2
100
AcDbEntity
  8
GAIKEI
  6
Continuous
 62
     1
100
AcDbLine
 10
34.31347181240244
 20
9.184969695699919
 30
0.0
 11
34.09347671240244
 21
9.184969695699919
 31
0.0
  0
LINE
  5
2A7
330
2
100
AcDbEntity
  8
GAIKEI
  6
Continuous
 62
     1
100
AcDbLine
 10
34.81347181240244
 20
10.68496969569992
 30
0.0
 11
34.59347671240244
 21
10.68496969569992
 31
0.0
  0
LINE
  5
2A8
330
2
100
AcDbEntity
  8
GAIKEI
  6
Continuous
 62
     1
100
AcDbLine
 10
34.81347181240244
 20
9.934969695699919
 30
0.0
 11
34.59347671240244
 21
9.934969695699919
 31
0.0
  0
LINE
  5
2A9
330
2
100
AcDbEntity
  8
GAIKEI
  6
Continuous
 62
     1
100
AcDbLine
 10
34.81347181240244
 20
9.184969695699919
 30
0.0
 11
34.59347671240244
 21
9.184969695699919
 31
0.0
  0
LINE
  5
2AA
330
2
100
AcDbEntity
  8
GAIKEI
  6
Continuous
 62
     1
100
AcDbLine
 10
35.31347181240244
 20
10.68496969569992
 30
0.0
 11
35.09347671240244
 21
10.68496969569992
 31
0.0
  0
LINE
  5
2AB
330
2
100
AcDbEntity
  8
GAIKEI
  6
Continuous
 62
     1
100
AcDbLine
 10
35.31347181240244
 20
9.934969695699919
 30
0.0
 11
35.09347671240244
 21
9.934969695699919
 31
0.0
  0
LINE
  5
2AC
330
2
100
AcDbEntity
  8
GAIKEI
  6
Continuous
 62
     1
100
AcDbLine
 10
35.31347181240244
 20
9.184969695699919
 30
0.0
 11
35.09347671240244
 21
9.184969695699919
 31
0.0
  0
LINE
  5
2AD
330
2
100
AcDbEntity
  8
GAIKEI
  6
Continuous
 62
     1
100
AcDbLine
 10
35.81347181240244
 20
10.68496969569992
 30
0.0
 11
35.59347211240231
 21
10.68496969569992
 31
0.0
  0
LINE
  5
2AE
330
2
100
AcDbEntity
  8
GAIKEI
  6
Continuous
 62
     1
100
AcDbLine
 10
35.81347181240244
 20
9.934969695699919
 30
0.0
 11
35.59347211240231
 21
9.934969695699919
 31
0.0
  0
LINE
  5
2AF
330
2
100
AcDbEntity
  8
GAIKEI
  6
Continuous
 62
     1
100
AcDbLine
 10
35.81347181240244
 20
9.184969695699919
 30
0.0
 11
35.59347211240231
 21
9.184969695699919
 31
0.0
  0
LINE
  5
2B0
330
2
100
AcDbEntity
  8
GAIKEI
  6
Continuous
 62
     1
100
AcDbLine
 10
36.31347181240244
 20
10.68496969569992
 30
0.0
 11
36.09347211240231
 21
10.68496969569992
 31
0.0
  0
LINE
  5
2B1
330
2
100
AcDbEntity
  8
GAIKEI
  6
Continuous
 62
     1
100
AcDbLine
 10
36.31347181240244
 20
9.934969695699919
 30
0.0
 11
36.09347211240231
 21
9.934969695699919
 31
0.0
  0
LINE
  5
2B2
330
2
100
AcDbEntity
  8
GAIKEI
  6
Continuous
 62
     1
100
AcDbLine
 10
36.31347181240244
 20
9.184969695699919
 30
0.0
 11
36.09347211240231
 21
9.184969695699919
 31
0.0
  0
LINE
  5
2B3
330
2
100
AcDbEntity
  8
GAIKEI
  6
Continuous
 62
     1
100
AcDbLine
 10
36.81347181240244
 20
10.68496969569992
 30
0.0
 11
36.59347211240231
 21
10.68496969569992
 31
0.0
  0
LINE
  5
2B4
330
2
100
AcDbEntity
  8
GAIKEI
  6
Continuous
 62
     1
100
AcDbLine
 10
36.81347181240244
 20
9.934969695699919
 30
0.0
 11
36.59347211240231
 21
9.934969695699919
 31
0.0
  0
LINE
  5
2B5
330
2
100
AcDbEntity
  8
GAIKEI
  6
Continuous
 62
     1
100
AcDbLine
 10
36.81347181240244
 20
9.184969695699919
 30
0.0
 11
36.59347211240231
 21
9.184969695699919
 31
0.0
  0
LINE
  5
2B6
330
2
100
AcDbEntity
  8
GAIKEI
  6
Continuous
 62
     1
100
AcDbLine
 10
37.31347181240244
 20
10.68496969569992
 30
0.0
 11
37.09347211240231
 21
10.68496969569992
 31
0.0
  0
LINE
  5
2B7
330
2
100
AcDbEntity
  8
GAIKEI
  6
Continuous
 62
     1
100
AcDbLine
 10
37.31347181240244
 20
9.934969695699919
 30
0.0
 11
37.09347211240231
 21
9.934969695699919
 31
0.0
  0
LINE
  5
2B8
330
2
100
AcDbEntity
  8
GAIKEI
  6
Continuous
 62
     1
100
AcDbLine
 10
37.31347181240244
 20
9.184969695699919
 30
0.0
 11
37.09347211240231
 21
9.184969695699919
 31
0.0
  0
LINE
  5
2B9
330
2
100
AcDbEntity
  8
GAIKEI
  6
Continuous
 62
     1
100
AcDbLine
 10
33.09347671240244
 20
10.18496969569992
 30
0.0
 11
33.09347671240244
 21
10.68496969569992
 31
0.0
  0
LINE
  5
2BA
330
2
100
AcDbEntity
  8
GAIKEI
  6
Continuous
 62
     1
100
AcDbLine
 10
33.09347671240244
 20
9.434969695699919
 30
0.0
 11
33.09347671240244
 21
9.934969695699919
 31
0.0
  0
LINE
  5
2BB
330
2
100
AcDbEntity
  8
GAIKEI
  6
Continuous
 62
     1
100
AcDbLine
 10
33.09347671240244
 20
8.684969695699919
 30
0.0
 11
33.09347671240244
 21
9.184969695699919
 31
0.0
  0
LINE
  5
2BC
330
2
100
AcDbEntity
  8
GAIKEI
  6
Continuous
 62
     1
100
AcDbLine
 10
33.59347671240243
 20
10.18496969569992
 30
0.0
 11
33.59347671240243
 21
10.68496969569992
 31
0.0
  0
LINE
  5
2BD
330
2
100
AcDbEntity
  8
GAIKEI
  6
Continuous
 62
     1
100
AcDbLine
 10
33.59347671240243
 20
9.434969695699919
 30
0.0
 11
33.59347671240243
 21
9.934969695699919
 31
0.0
  0
LINE
  5
2BE
330
2
100
AcDbEntity
  8
GAIKEI
  6
Continuous
 62
     1
100
AcDbLine
 10
33.59347671240243
 20
8.684969695699919
 30
0.0
 11
33.59347671240243
 21
9.184969695699919
 31
0.0
  0
LINE
  5
2BF
330
2
100
AcDbEntity
  8
GAIKEI
  6
Continuous
 62
     1
100
AcDbLine
 10
34.09347671240244
 20
10.18496969569992
 30
0.0
 11
34.09347671240244
 21
10.68496969569992
 31
0.0
  0
LINE
  5
2C0
330
2
100
AcDbEntity
  8
GAIKEI
  6
Continuous
 62
     1
100
AcDbLine
 10
34.09347671240244
 20
9.434969695699919
 30
0.0
 11
34.09347671240244
 21
9.934969695699919
 31
0.0
  0
LINE
  5
2C1
330
2
100
AcDbEntity
  8
GAIKEI
  6
Continuous
 62
     1
100
AcDbLine
 10
34.09347671240244
 20
8.684969695699919
 30
0.0
 11
34.09347671240244
 21
9.184969695699919
 31
0.0
  0
LINE
  5
2C2
330
2
100
AcDbEntity
  8
GAIKEI
  6
Continuous
 62
     1
100
AcDbLine
 10
34.59347671240244
 20
10.18496969569992
 30
0.0
 11
34.59347671240244
 21
10.68496969569992
 31
0.0
  0
LINE
  5
2C3
330
2
100
AcDbEntity
  8
GAIKEI
  6
Continuous
 62
     1
100
AcDbLine
 10
34.59347671240244
 20
9.434969695699919
 30
0.0
 11
34.59347671240244
 21
9.934969695699919
 31
0.0
  0
LINE
  5
2C4
330
2
100
AcDbEntity
  8
GAIKEI
  6
Continuous
 62
     1
100
AcDbLine
 10
34.59347671240244
 20
8.684969695699919
 30
0.0
 11
34.59347671240244
 21
9.184969695699919
 31
0.0
  0
LINE
  5
2C5
330
2
100
AcDbEntity
  8
GAIKEI
  6
Continuous
 62
     1
100
AcDbLine
 10
35.09347671240244
 20
10.18496969569992
 30
0.0
 11
35.09347671240244
 21
10.68496969569992
 31
0.0
  0
LINE
  5
2C6
330
2
100
AcDbEntity
  8
GAIKEI
  6
Continuous
 62
     1
100
AcDbLine
 10
35.09347671240244
 20
9.434969695699919
 30
0.0
 11
35.09347671240244
 21
9.934969695699919
 31
0.0
  0
LINE
  5
2C7
330
2
100
AcDbEntity
  8
GAIKEI
  6
Continuous
 62
     1
100
AcDbLine
 10
35.09347671240244
 20
8.684969695699919
 30
0.0
 11
35.09347671240244
 21
9.184969695699919
 31
0.0
  0
LINE
  5
2C8
330
2
100
AcDbEntity
  8
GAIKEI
  6
Continuous
 62
     1
100
AcDbLine
 10
35.59347211240231
 20
10.18496969569992
 30
0.0
 11
35.59347211240231
 21
10.68496969569992
 31
0.0
  0
LINE
  5
2C9
330
2
100
AcDbEntity
  8
GAIKEI
  6
Continuous
 62
     1
100
AcDbLine
 10
35.59347211240231
 20
9.434969695699919
 30
0.0
 11
35.59347211240231
 21
9.934969695699919
 31
0.0
  0
LINE
  5
2CA
330
2
100
AcDbEntity
  8
GAIKEI
  6
Continuous
 62
     1
100
AcDbLine
 10
35.59347211240231
 20
8.684969695699919
 30
0.0
 11
35.59347211240231
 21
9.184969695699919
 31
0.0
  0
LINE
  5
2CB
330
2
100
AcDbEntity
  8
GAIKEI
  6
Continuous
 62
     1
100
AcDbLine
 10
36.09347211240231
 20
10.18496969569992
 30
0.0
 11
36.09347211240231
 21
10.68496969569992
 31
0.0
  0
LINE
  5
2CC
330
2
100
AcDbEntity
  8
GAIKEI
  6
Continuous
 62
     1
100
AcDbLine
 10
36.09347211240231
 20
9.434969695699919
 30
0.0
 11
36.09347211240231
 21
9.934969695699919
 31
0.0
  0
LINE
  5
2CD
330
2
100
AcDbEntity
  8
GAIKEI
  6
Continuous
 62
     1
100
AcDbLine
 10
36.09347211240231
 20
8.684969695699919
 30
0.0
 11
36.09347211240231
 21
9.184969695699919
 31
0.0
  0
LINE
  5
2CE
330
2
100
AcDbEntity
  8
GAIKEI
  6
Continuous
 62
     1
100
AcDbLine
 10
36.59347211240231
 20
10.18496969569992
 30
0.0
 11
36.59347211240231
 21
10.68496969569992
 31
0.0
  0
LINE
  5
2CF
330
2
100
AcDbEntity
  8
GAIKEI
  6
Continuous
 62
     1
100
AcDbLine
 10
36.59347211240231
 20
9.434969695699919
 30
0.0
 11
36.59347211240231
 21
9.934969695699919
 31
0.0
  0
LINE
  5
2D0
330
2
100
AcDbEntity
  8
GAIKEI
  6
Continuous
 62
     1
100
AcDbLine
 10
36.59347211240231
 20
8.684969695699919
 30
0.0
 11
36.59347211240231
 21
9.184969695699919
 31
0.0
  0
LINE
  5
2D1
330
2
100
AcDbEntity
  8
GAIKEI
  6
Continuous
 62
     1
100
AcDbLine
 10
37.09347211240231
 20
10.18496969569992
 30
0.0
 11
37.09347211240231
 21
10.68496969569992
 31
0.0
  0
LINE
  5
2D2
330
2
100
AcDbEntity
  8
GAIKEI
  6
Continuous
 62
     1
100
AcDbLine
 10
37.09347211240231
 20
9.434969695699919
 30
0.0
 11
37.09347211240231
 21
9.934969695699919
 31
0.0
  0
LINE
  5
2D3
330
2
100
AcDbEntity
  8
GAIKEI
  6
Continuous
 62
     1
100
AcDbLine
 10
37.09347211240231
 20
8.684969695699919
 30
0.0
 11
37.09347211240231
 21
9.184969695699919
 31
0.0
  0
LINE
  5
2D4
330
2
100
AcDbEntity
  8
GAIKEI
  6
Continuous
100
AcDbLine
 10
25.46347743095998
 20
5.86496969652245
 30
0.0
 11
25.46347671239914
 21
5.86496969652245
 31
0.0
  0
LINE
  5
2D5
330
2
100
AcDbEntity
  8
GAIKEI
  6
Continuous
100
AcDbLine
 10
25.46347743095998
 20
5.86496969652245
 30
0.0
 11
25.46347671239914
 21
5.86496969652245
 31
0.0
  0
LINE
  5
2D6
330
2
100
AcDbEntity
  8
GAIKEI
  6
Continuous
100
AcDbLine
 10
25.46347743095998
 20
5.81496969652295
 30
0.0
 11
25.46347743095998
 21
5.734967706500867
 31
0.0
  0
LINE
  5
2D7
330
2
100
AcDbEntity
  8
GAIKEI
  6
Continuous
100
AcDbLine
 10
25.46347743095998
 20
5.86496969652245
 30
0.0
 11
25.46347743095998
 21
5.734969696523137
 31
0.0
  0
LINE
  5
2D8
330
2
100
AcDbEntity
  8
GAIKEI
  6
Continuous
100
AcDbLine
 10
25.19347671240303
 20
5.634969209934581
 30
0.0
 11
25.34347671240301
 21
5.634969209934581
 31
0.0
  0
LINE
  5
2D9
330
2
100
AcDbEntity
  8
GAIKEI
  6
Continuous
100
AcDbLine
 10
27.54347964682347
 20
14.01496865770446
 30
0.0
 11
25.46347671240289
 21
14.01496865770446
 31
0.0
  0
LINE
  5
2DA
330
2
100
AcDbEntity
  8
GAIKEI
  6
Continuous
100
AcDbLine
 10
27.54347964682347
 20
14.01496865770446
 30
0.0
 11
27.94347990141659
 21
14.4349686577043
 31
0.0
  0
LINE
  5
2DB
330
2
100
AcDbEntity
  8
GAIKEI
  6
Continuous
100
AcDbLine
 10
27.91109889155348
 20
14.28496865770432
 30
0.0
 11
27.97776538351468
 21
14.35496842970997
 31
0.0
  0
LINE
  5
2DC
330
2
100
AcDbEntity
  8
GAIKEI
  6
Continuous
100
AcDbLine
 10
28.09347671240278
 20
14.38496865770435
 30
0.0
 11
28.09347671240278
 21
14.4349686577043
 31
0.0
  0
LINE
  5
2DD
330
2
100
AcDbEntity
  8
GAIKEI
  6
Continuous
100
AcDbLine
 10
27.80062266763332
 20
14.28496865770432
 30
0.0
 11
27.99347671240275
 21
14.28496865770432
 31
0.0
  0
LINE
  5
2DE
330
2
100
AcDbEntity
  8
GAIKEI
  6
Continuous
100
AcDbLine
 10
27.97776538351468
 20
14.35496842970997
 30
0.0
 11
28.09347671240278
 21
14.35496844029785
 31
0.0
  0
LINE
  5
2DF
330
2
100
AcDbEntity
  8
GAIKEI
  6
Continuous
 62
     1
100
AcDbLine
 10
59.9134767124026
 20
14.25496865510081
 30
0.0
 11
59.9134767124026
 21
14.43497120442157
 31
0.0
  0
LINE
  5
2E0
330
2
100
AcDbEntity
  8
GAIKEI
  6
Continuous
 62
     1
100
AcDbLine
 10
60.09347695171221
 20
14.25496866835419
 30
0.0
 11
59.9134767124026
 21
14.25496865510081
 31
0.0
  0
LINE
  5
2E1
330
2
100
AcDbEntity
  8
GAIKEI
  6
Continuous
 62
     1
100
AcDbLine
 10
60.01347693700018
 20
14.25496866131902
 30
0.0
 11
60.01347693700018
 21
14.35496865770449
 31
0.0
  0
LINE
  5
2E2
330
2
100
AcDbEntity
  8
GAIKEI
  6
Continuous
 62
     1
100
AcDbLine
 10
60.01347693700018
 20
14.35496865770449
 30
0.0
 11
59.9134767124026
 21
14.35496865770449
 31
0.0
  0
LINE
  5
2E3
330
2
100
AcDbEntity
  8
GAIKEI
  6
Continuous
100
AcDbLine
 10
27.74347677467427
 20
14.43496893732413
 30
0.0
 11
25.20591990861817
 21
14.43496883804118
 31
0.0
  0
LINE
  5
2E4
330
2
100
AcDbEntity
  8
GAIKEI
  6
S10
 62
     1
100
AcDbLine
 10
25.09347671240301
 20
14.43496883364185
 30
0.0
 11
25.09347671240301
 21
5.634968833641835
 31
0.0
  0
LINE
  5
2E5
330
2
100
AcDbEntity
  8
GAIKEI
  6
S10
 62
     1
100
AcDbLine
 10
25.09347671240301
 20
5.634968833641835
 30
0.0
 11
27.89347671240296
 21
5.634968833641835
 31
0.0
  0
LINE
  5
2E6
330
2
100
AcDbEntity
  8
GAIKEI
  6
HIDDEN2
 62
     1
100
AcDbLine
 10
-2.349099978391677
 20
14.4349686577043
 30
0.0
 11
0.4509000216082768
 21
14.4349686577043
 31
0.0
  0
LINE
  5
2E7
330
2
100
AcDbEntity
  8
GAIKEI
  6
HIDDEN2
 62
     1
100
AcDbLine
 10
0.4509000216082768
 20
5.634968657704348
 30
0.0
 11
-2.349099978391677
 21
5.634968657704348
 31
0.0
  0
LINE
  5
2E8
330
2
100
AcDbEntity
  8
GAIKEI
  6
S10
 62
     1
100
AcDbLine
 10
0.6509000216083223
 20
14.23496865770437
 30
0.0
 11
0.6509000216083223
 21
5.834968657704337
 31
0.0
  0
LINE
  5
2E9
330
2
100
AcDbEntity
  8
GAIKEI
  6
Continuous
100
AcDbLine
 10
-8.258171296916998
 20
4.584968657704052
 30
0.0
 11
-6.440028659866584
 21
4.584968657704052
 31
0.0
  0
LINE
  5
2EA
330
2
100
AcDbEntity
  8
GAIKEI
  6
S10
 62
     1
100
AcDbLine
 10
-47.34909997839167
 20
5.834968657704337
 30
0.0
 11
-47.34909997839145
 21
14.23496865770437
 31
0.0
  0
LINE
  5
2EB
330
2
100
AcDbEntity
  8
GAIKEI
  6
Continuous
100
AcDbLine
 10
-44.34909997839167
 20
10.03496865770421
 30
0.0
 11
-44.34909997839167
 21
14.4349686577043
 31
0.0
  0
LINE
  5
2EC
330
2
100
AcDbEntity
  8
GAIKEI
  6
Continuous
100
AcDbLine
 10
-2.349099978391677
 20
14.4349686577043
 30
0.0
 11
-2.349099978391677
 21
10.03496865770421
 31
0.0
  0
LINE
  5
2ED
330
2
100
AcDbEntity
  8
GAIKEI
  6
Continuous
 62
     1
100
AcDbLine
 10
-18.22909997839167
 20
11.77996865770433
 30
0.0
 11
-18.22909997839179
 21
8.289968657704207
 31
0.0
  0
LINE
  5
2EE
330
2
100
AcDbEntity
  8
GAIKEI
  6
Continuous
 62
     1
100
AcDbLine
 10
-9.646116632181588
 20
6.134968657704234
 30
0.0
 11
-9.646116632181588
 21
6.049442399704275
 31
0.0
  0
LINE
  5
2EF
330
2
100
AcDbEntity
  8
GAIKEI
  6
Continuous
 62
     1
100
AcDbLine
 10
-13.67409997839161
 20
6.134968657704234
 30
0.0
 11
-13.67409997839161
 21
7.06872500546433
 31
0.0
  0
LINE
  5
2F0
330
2
100
AcDbEntity
  8
GAIKEI
  6
Continuous
 62
     1
100
AcDbLine
 10
-13.82409997839159
 20
7.06872500546433
 30
0.0
 11
-13.82409997839159
 21
6.134968657704234
 31
0.0
  0
LINE
  5
2F1
330
2
100
AcDbEntity
  8
GAIKEI
  6
Continuous
 62
     1
100
AcDbLine
 10
-14.02409997839163
 20
6.134968657704234
 30
0.0
 11
-14.02409997839163
 21
7.06872500546433
 31
0.0
  0
LINE
  5
2F2
330
2
100
AcDbEntity
  8
GAIKEI
  6
Continuous
 62
     1
100
AcDbLine
 10
-14.17409997839161
 20
7.06872500546433
 30
0.0
 11
-14.17409997839161
 21
6.134968657704234
 31
0.0
  0
LINE
  5
2F3
330
2
100
AcDbEntity
  8
GAIKEI
  6
Continuous
 62
     1
100
AcDbLine
 10
-14.37409997839165
 20
6.134968657704234
 30
0.0
 11
-14.37409997839165
 21
7.06872500546433
 31
0.0
  0
LINE
  5
2F4
330
2
100
AcDbEntity
  8
GAIKEI
  6
Continuous
 62
     1
100
AcDbLine
 10
-14.52409997839163
 20
7.06872500546433
 30
0.0
 11
-14.52409997839163
 21
6.134968657704234
 31
0.0
  0
LINE
  5
2F5
330
2
100
AcDbEntity
  8
GAIKEI
  6
Continuous
 62
     1
100
AcDbLine
 10
-14.72409997839168
 20
6.134968657704234
 30
0.0
 11
-14.72409997839168
 21
7.06872500546433
 31
0.0
  0
LINE
  5
2F6
330
2
100
AcDbEntity
  8
GAIKEI
  6
Continuous
 62
     1
100
AcDbLine
 10
-14.87409997839165
 20
7.06872500546433
 30
0.0
 11
-14.87409997839165
 21
6.134968657704234
 31
0.0
  0
LINE
  5
2F7
330
2
100
AcDbEntity
  8
GAIKEI
  6
Continuous
 62
     1
100
AcDbLine
 10
-15.07409997839159
 20
6.134968657704234
 30
0.0
 11
-15.07409997839159
 21
7.06872500546433
 31
0.0
  0
LINE
  5
2F8
330
2
100
AcDbEntity
  8
GAIKEI
  6
Continuous
 62
     1
100
AcDbLine
 10
-15.22409997839168
 20
7.06872500546433
 30
0.0
 11
-15.22409997839168
 21
6.134968657704234
 31
0.0
  0
LINE
  5
2F9
330
2
100
AcDbEntity
  8
GAIKEI
  6
Continuous
 62
     1
100
AcDbLine
 10
-15.42409997839161
 20
6.134968657704234
 30
0.0
 11
-15.42409997839161
 21
7.06872500546433
 31
0.0
  0
LINE
  5
2FA
330
2
100
AcDbEntity
  8
GAIKEI
  6
Continuous
 62
     1
100
AcDbLine
 10
-15.57409997839158
 20
7.06872500546433
 30
0.0
 11
-15.57409997839158
 21
6.134968657704234
 31
0.0
  0
LINE
  5
2FB
330
2
100
AcDbEntity
  8
GAIKEI
  6
Continuous
 62
     1
100
AcDbLine
 10
-15.77409997839163
 20
6.134968657704234
 30
0.0
 11
-15.77409997839163
 21
7.06872500546433
 31
0.0
  0
LINE
  5
2FC
330
2
100
AcDbEntity
  8
GAIKEI
  6
Continuous
 62
     1
100
AcDbLine
 10
-15.92409997839161
 20
7.06872500546433
 30
0.0
 11
-15.92409997839161
 21
6.134968657704234
 31
0.0
  0
LINE
  5
2FD
330
2
100
AcDbEntity
  8
GAIKEI
  6
Continuous
 62
     1
100
AcDbLine
 10
-16.12409997839165
 20
6.134968657704234
 30
0.0
 11
-16.12409997839165
 21
7.06872500546433
 31
0.0
  0
LINE
  5
2FE
330
2
100
AcDbEntity
  8
GAIKEI
  6
Continuous
 62
     1
100
AcDbLine
 10
-16.27409997839163
 20
7.06872500546433
 30
0.0
 11
-16.27409997839163
 21
6.134968657704234
 31
0.0
  0
LINE
  5
2FF
330
2
100
AcDbEntity
  8
GAIKEI
  6
Continuous
 62
     1
100
AcDbLine
 10
-16.47409997839168
 20
6.134968657704234
 30
0.0
 11
-16.47409997839168
 21
7.06872500546433
 31
0.0
  0
LINE
  5
300
330
2
100
AcDbEntity
  8
GAIKEI
  6
Continuous
 62
     1
100
AcDbLine
 10
-16.62409997839165
 20
7.06872500546433
 30
0.0
 11
-16.62409997839165
 21
6.134968657704234
 31
0.0
  0
LINE
  5
301
330
2
100
AcDbEntity
  8
GAIKEI
  6
Continuous
 62
     1
100
AcDbLine
 10
-16.82409997839158
 20
6.134968657704234
 30
0.0
 11
-16.82409997839158
 21
7.06872500546433
 31
0.0
  0
LINE
  5
302
330
2
100
AcDbEntity
  8
GAIKEI
  6
Continuous
 62
     1
100
AcDbLine
 10
-16.97409997839168
 20
7.06872500546433
 30
0.0
 11
-16.97409997839168
 21
6.134968657704234
 31
0.0
  0
LINE
  5
303
330
2
100
AcDbEntity
  8
GAIKEI
  6
Continuous
 62
     1
100
AcDbLine
 10
-17.17409997839161
 20
6.134968657704234
 30
0.0
 11
-17.17409997839161
 21
7.06872500546433
 31
0.0
  0
LINE
  5
304
330
2
100
AcDbEntity
  8
GAIKEI
  6
Continuous
 62
     1
100
AcDbLine
 10
-17.32409997839158
 20
7.06872500546433
 30
0.0
 11
-17.32409997839158
 21
6.134968657704234
 31
0.0
  0
LINE
  5
305
330
2
100
AcDbEntity
  8
GAIKEI
  6
Continuous
 62
     1
100
AcDbLine
 10
-17.52409997839163
 20
6.134968657704234
 30
0.0
 11
-17.52409997839163
 21
7.06872500546433
 31
0.0
  0
LINE
  5
306
330
2
100
AcDbEntity
  8
GAIKEI
  6
Continuous
 62
     1
100
AcDbLine
 10
-17.67409997839161
 20
7.06872500546433
 30
0.0
 11
-17.67409997839161
 21
6.134968657704234
 31
0.0
  0
LINE
  5
307
330
2
100
AcDbEntity
  8
GAIKEI
  6
Continuous
 62
     1
100
AcDbLine
 10
-17.87409997839165
 20
6.134968657704234
 30
0.0
 11
-17.87409997839165
 21
7.06872500546433
 31
0.0
  0
LINE
  5
308
330
2
100
AcDbEntity
  8
GAIKEI
  6
Continuous
 62
     1
100
AcDbLine
 10
-18.02409997839163
 20
7.06872500546433
 30
0.0
 11
-18.02409997839163
 21
6.134968657704234
 31
0.0
  0
LINE
  5
309
330
2
100
AcDbEntity
  8
GAIKEI
  6
Continuous
 62
     1
100
AcDbLine
 10
-18.22409997839168
 20
6.134968657704234
 30
0.0
 11
-18.22409997839168
 21
7.06872500546433
 31
0.0
  0
LINE
  5
30A
330
2
100
AcDbEntity
  8
GAIKEI
  6
Continuous
 62
     1
100
AcDbLine
 10
-18.37409997839165
 20
7.06872500546433
 30
0.0
 11
-18.37409997839165
 21
6.134968657704234
 31
0.0
  0
LINE
  5
30B
330
2
100
AcDbEntity
  8
GAIKEI
  6
Continuous
 62
     1
100
AcDbLine
 10
-18.57409997839159
 20
6.134968657704234
 30
0.0
 11
-18.57409997839159
 21
7.06872500546433
 31
0.0
  0
LINE
  5
30C
330
2
100
AcDbEntity
  8
GAIKEI
  6
Continuous
 62
     1
100
AcDbLine
 10
-18.72409997839168
 20
7.06872500546433
 30
0.0
 11
-18.72409997839168
 21
6.134968657704234
 31
0.0
  0
LINE
  5
30D
330
2
100
AcDbEntity
  8
GAIKEI
  6
Continuous
 62
     1
100
AcDbLine
 10
-18.92409997839161
 20
6.134968657704234
 30
0.0
 11
-18.92409997839161
 21
7.06872500546433
 31
0.0
  0
LINE
  5
30E
330
2
100
AcDbEntity
  8
GAIKEI
  6
Continuous
 62
     1
100
AcDbLine
 10
-19.07409997839159
 20
7.06872500546433
 30
0.0
 11
-19.07409997839159
 21
6.134968657704234
 31
0.0
  0
LINE
  5
30F
330
2
100
AcDbEntity
  8
GAIKEI
  6
Continuous
 62
     1
100
AcDbLine
 10
-38.49407290254146
 20
14.03496865770421
 30
0.0
 11
-43.39696815956165
 21
14.03496865770421
 31
0.0
  0
LINE
  5
310
330
2
100
AcDbEntity
  8
GAIKEI
  6
Continuous
 62
     1
100
AcDbLine
 10
-38.44015801161152
 20
13.98496865770425
 30
0.0
 11
-38.49407290254146
 21
13.98496865770425
 31
0.0
  0
LINE
  5
311
330
2
100
AcDbEntity
  8
GAIKEI
  6
Continuous
 62
     1
100
AcDbLine
 10
-9.646116632181588
 20
13.9349686577043
 30
0.0
 11
-8.674245834801695
 21
13.9349686577043
 31
0.0
  0
LINE
  5
312
330
2
100
AcDbEntity
  8
GAIKEI
  6
Continuous
 62
     1
100
AcDbLine
 10
-38.49407290254146
 20
13.9349686577043
 30
0.0
 11
-43.39696815956165
 21
13.9349686577043
 31
0.0
  0
LINE
  5
313
330
2
100
AcDbEntity
  8
GAIKEI
  6
Continuous
 62
     1
100
AcDbLine
 10
-37.45208332459174
 20
13.9349686577043
 30
0.0
 11
-38.44015801161152
 21
13.9349686577043
 31
0.0
  0
LINE
  5
314
330
2
100
AcDbEntity
  8
GAIKEI
  6
Continuous
 62
     1
100
AcDbLine
 10
-38.45008127415156
 20
13.91034735258427
 30
0.0
 11
-38.5032821089917
 21
13.91034735258427
 31
0.0
  0
LINE
  5
315
330
2
100
AcDbEntity
  8
GAIKEI
  6
Continuous
 62
     1
100
AcDbLine
 10
-19.27409997839163
 20
6.134968657704234
 30
0.0
 11
-19.27409997839163
 21
7.06872500546433
 31
0.0
  0
LINE
  5
316
330
2
100
AcDbEntity
  8
GAIKEI
  6
Continuous
 62
     1
100
AcDbLine
 10
-19.42409997839161
 20
7.06872500546433
 30
0.0
 11
-19.42409997839161
 21
6.134968657704234
 31
0.0
  0
LINE
  5
317
330
2
100
AcDbEntity
  8
GAIKEI
  6
Continuous
 62
     1
100
AcDbLine
 10
-19.62409997839165
 20
6.134968657704234
 30
0.0
 11
-19.62409997839165
 21
7.06872500546433
 31
0.0
  0
LINE
  5
318
330
2
100
AcDbEntity
  8
GAIKEI
  6
Continuous
 62
     1
100
AcDbLine
 10
-19.77409997839163
 20
7.06872500546433
 30
0.0
 11
-19.77409997839163
 21
6.134968657704234
 31
0.0
  0
LINE
  5
319
330
2
100
AcDbEntity
  8
GAIKEI
  6
Continuous
 62
     1
100
AcDbLine
 10
-19.97409997839168
 20
6.134968657704234
 30
0.0
 11
-19.97409997839168
 21
7.06872500546433
 31
0.0
  0
LINE
  5
31A
330
2
100
AcDbEntity
  8
GAIKEI
  6
Continuous
 62
     1
100
AcDbLine
 10
-20.12409997839165
 20
7.06872500546433
 30
0.0
 11
-20.12409997839165
 21
6.134968657704234
 31
0.0
  0
LINE
  5
31B
330
2
100
AcDbEntity
  8
GAIKEI
  6
Continuous
 62
     1
100
AcDbLine
 10
-20.32409997839159
 20
6.134968657704234
 30
0.0
 11
-20.32409997839159
 21
7.06872500546433
 31
0.0
  0
LINE
  5
31C
330
2
100
AcDbEntity
  8
GAIKEI
  6
Continuous
 62
     1
100
AcDbLine
 10
-20.47409997839168
 20
7.06872500546433
 30
0.0
 11
-20.47409997839168
 21
6.134968657704234
 31
0.0
  0
LINE
  5
31D
330
2
100
AcDbEntity
  8
GAIKEI
  6
Continuous
 62
     1
100
AcDbLine
 10
-13.51909997839186
 20
12.9349686577043
 30
0.0
 11
-33.5790999783917
 21
12.9349686577043
 31
0.0
  0
LINE
  5
31E
330
2
100
AcDbEntity
  8
GAIKEI
  6
Continuous
 62
     1
100
AcDbLine
 10
-20.67409997839161
 20
6.134968657704234
 30
0.0
 11
-20.67409997839161
 21
7.06872500546433
 31
0.0
  0
LINE
  5
31F
330
2
100
AcDbEntity
  8
GAIKEI
  6
Continuous
 62
     1
100
AcDbLine
 10
-20.82409997839159
 20
7.06872500546433
 30
0.0
 11
-20.82409997839159
 21
6.134968657704234
 31
0.0
  0
LINE
  5
320
330
2
100
AcDbEntity
  8
GAIKEI
  6
Continuous
 62
     1
100
AcDbLine
 10
-21.02409997839163
 20
6.134968657704234
 30
0.0
 11
-21.02409997839163
 21
7.06872500546433
 31
0.0
  0
LINE
  5
321
330
2
100
AcDbEntity
  8
GAIKEI
  6
Continuous
 62
     1
100
AcDbLine
 10
-21.17409997839161
 20
7.06872500546433
 30
0.0
 11
-21.17409997839161
 21
6.134968657704234
 31
0.0
  0
LINE
  5
322
330
2
100
AcDbEntity
  8
GAIKEI
  6
Continuous
 62
     1
100
AcDbLine
 10
-21.37409997839165
 20
6.134968657704234
 30
0.0
 11
-21.37409997839165
 21
7.06872500546433
 31
0.0
  0
LINE
  5
323
330
2
100
AcDbEntity
  8
GAIKEI
  6
Continuous
 62
     1
100
AcDbLine
 10
-21.52409997839163
 20
7.06872500546433
 30
0.0
 11
-21.52409997839163
 21
6.134968657704234
 31
0.0
  0
LINE
  5
324
330
2
100
AcDbEntity
  8
GAIKEI
  6
Continuous
 62
     1
100
AcDbLine
 10
-21.72409997839168
 20
6.134968657704234
 30
0.0
 11
-21.72409997839168
 21
7.06872500546433
 31
0.0
  0
LINE
  5
325
330
2
100
AcDbEntity
  8
GAIKEI
  6
Continuous
 62
     1
100
AcDbLine
 10
-18.22909997839167
 20
11.77996865770433
 30
0.0
 11
-28.86909997839189
 21
11.77996865770433
 31
0.0
  0
LINE
  5
326
330
2
100
AcDbEntity
  8
GAIKEI
  6
Continuous
 62
     1
100
AcDbLine
 10
-21.87409997839166
 20
7.06872500546433
 30
0.0
 11
-21.87409997839166
 21
6.134968657704234
 31
0.0
  0
LINE
  5
327
330
2
100
AcDbEntity
  8
GAIKEI
  6
Continuous
 62
     1
100
AcDbLine
 10
-22.07409997839159
 20
6.134968657704234
 30
0.0
 11
-22.07409997839159
 21
7.06872500546433
 31
0.0
  0
LINE
  5
328
330
2
100
AcDbEntity
  8
GAIKEI
  6
Continuous
 62
     1
100
AcDbLine
 10
-22.22409997839168
 20
7.06872500546433
 30
0.0
 11
-22.22409997839168
 21
6.134968657704234
 31
0.0
  0
LINE
  5
329
330
2
100
AcDbEntity
  8
GAIKEI
  6
Continuous
 62
     1
100
AcDbLine
 10
-22.42409997839161
 20
6.134968657704234
 30
0.0
 11
-22.42409997839161
 21
7.06872500546433
 31
0.0
  0
LINE
  5
32A
330
2
100
AcDbEntity
  8
GAIKEI
  6
Continuous
 62
     1
100
AcDbLine
 10
-22.57409997839159
 20
7.06872500546433
 30
0.0
 11
-22.57409997839159
 21
6.134968657704234
 31
0.0
  0
LINE
  5
32B
330
2
100
AcDbEntity
  8
GAIKEI
  6
Continuous
 62
     1
100
AcDbLine
 10
-22.77409997839163
 20
6.134968657704234
 30
0.0
 11
-22.77409997839163
 21
7.06872500546433
 31
0.0
  0
LINE
  5
32C
330
2
100
AcDbEntity
  8
GAIKEI
  6
Continuous
 62
     1
100
AcDbLine
 10
-22.92409997839161
 20
7.06872500546433
 30
0.0
 11
-22.92409997839161
 21
6.134968657704234
 31
0.0
  0
LINE
  5
32D
330
2
100
AcDbEntity
  8
GAIKEI
  6
Continuous
 62
     1
100
AcDbLine
 10
-23.12409997839166
 20
6.134968657704234
 30
0.0
 11
-23.12409997839166
 21
7.06872500546433
 31
0.0
  0
LINE
  5
32E
330
2
100
AcDbEntity
  8
GAIKEI
  6
Continuous
 62
     1
100
AcDbLine
 10
-23.27409997839163
 20
7.06872500546433
 30
0.0
 11
-23.27409997839163
 21
6.134968657704234
 31
0.0
  0
LINE
  5
32F
330
2
100
AcDbEntity
  8
GAIKEI
  6
Continuous
 62
     1
100
AcDbLine
 10
-23.47409997839168
 20
6.134968657704234
 30
0.0
 11
-23.47409997839168
 21
7.06872500546433
 31
0.0
  0
LINE
  5
330
330
2
100
AcDbEntity
  8
GAIKEI
  6
Continuous
 62
     1
100
AcDbLine
 10
-23.62409997839165
 20
7.06872500546433
 30
0.0
 11
-23.62409997839165
 21
6.134968657704234
 31
0.0
  0
LINE
  5
331
330
2
100
AcDbEntity
  8
GAIKEI
  6
Continuous
 62
     1
100
AcDbLine
 10
-23.82409997839159
 20
6.134968657704234
 30
0.0
 11
-23.82409997839159
 21
7.06872500546433
 31
0.0
  0
LINE
  5
332
330
2
100
AcDbEntity
  8
GAIKEI
  6
Continuous
 62
     1
100
AcDbLine
 10
-23.97409997839168
 20
7.06872500546433
 30
0.0
 11
-23.97409997839168
 21
6.134968657704234
 31
0.0
  0
LINE
  5
333
330
2
100
AcDbEntity
  8
GAIKEI
  6
Continuous
 62
     1
100
AcDbLine
 10
-24.17409997839161
 20
6.134968657704234
 30
0.0
 11
-24.17409997839161
 21
7.06872500546433
 31
0.0
  0
LINE
  5
334
330
2
100
AcDbEntity
  8
GAIKEI
  6
Continuous
 62
     1
100
AcDbLine
 10
-24.32409997839159
 20
7.06872500546433
 30
0.0
 11
-24.32409997839159
 21
6.134968657704234
 31
0.0
  0
LINE
  5
335
330
2
100
AcDbEntity
  8
GAIKEI
  6
Continuous
 62
     1
100
AcDbLine
 10
-24.52409997839164
 20
6.134968657704234
 30
0.0
 11
-24.52409997839164
 21
7.06872500546433
 31
0.0
  0
LINE
  5
336
330
2
100
AcDbEntity
  8
GAIKEI
  6
Continuous
 62
     1
100
AcDbLine
 10
-18.22909997839179
 20
8.289968657704207
 30
0.0
 11
-28.86909997839178
 21
8.289968657704321
 31
0.0
  0
LINE
  5
337
330
2
100
AcDbEntity
  8
GAIKEI
  6
Continuous
 62
     1
100
AcDbLine
 10
-24.67409997839161
 20
7.06872500546433
 30
0.0
 11
-24.67409997839161
 21
6.134968657704234
 31
0.0
  0
LINE
  5
338
330
2
100
AcDbEntity
  8
GAIKEI
  6
Continuous
 62
     1
100
AcDbLine
 10
-24.87409997839165
 20
6.134968657704234
 30
0.0
 11
-24.87409997839165
 21
7.06872500546433
 31
0.0
  0
LINE
  5
339
330
2
100
AcDbEntity
  8
GAIKEI
  6
Continuous
 62
     1
100
AcDbLine
 10
-25.02409997839163
 20
7.06872500546433
 30
0.0
 11
-25.02409997839163
 21
6.134968657704234
 31
0.0
  0
LINE
  5
33A
330
2
100
AcDbEntity
  8
GAIKEI
  6
Continuous
 62
     1
100
AcDbLine
 10
-25.22409997839168
 20
6.134968657704234
 30
0.0
 11
-25.22409997839168
 21
7.06872500546433
 31
0.0
  0
LINE
  5
33B
330
2
100
AcDbEntity
  8
GAIKEI
  6
Continuous
 62
     1
100
AcDbLine
 10
-25.37409997839166
 20
7.06872500546433
 30
0.0
 11
-25.37409997839166
 21
6.134968657704234
 31
0.0
  0
LINE
  5
33C
330
2
100
AcDbEntity
  8
GAIKEI
  6
Continuous
 62
     1
100
AcDbLine
 10
-25.57409997839159
 20
6.134968657704234
 30
0.0
 11
-25.57409997839159
 21
7.06872500546433
 31
0.0
  0
LINE
  5
33D
330
2
100
AcDbEntity
  8
GAIKEI
  6
Continuous
 62
     1
100
AcDbLine
 10
-25.72409997839168
 20
7.06872500546433
 30
0.0
 11
-25.72409997839168
 21
6.134968657704234
 31
0.0
  0
LINE
  5
33E
330
2
100
AcDbEntity
  8
GAIKEI
  6
Continuous
 62
     1
100
AcDbLine
 10
-25.92409997839161
 20
6.134968657704234
 30
0.0
 11
-25.92409997839161
 21
7.06872500546433
 31
0.0
  0
LINE
  5
33F
330
2
100
AcDbEntity
  8
GAIKEI
  6
Continuous
 62
     1
100
AcDbLine
 10
-33.57909997815159
 20
7.134968657704234
 30
0.0
 11
-13.51909997862151
 21
7.134968657704234
 31
0.0
  0
LINE
  5
340
330
2
100
AcDbEntity
  8
GAIKEI
  6
Continuous
 62
     1
100
AcDbLine
 10
-14.02409997839163
 20
7.06872500546433
 30
0.0
 11
-13.82409997839159
 21
7.06872500546433
 31
0.0
  0
LINE
  5
341
330
2
100
AcDbEntity
  8
GAIKEI
  6
Continuous
 62
     1
100
AcDbLine
 10
-14.37409997839165
 20
7.06872500546433
 30
0.0
 11
-14.17409997839161
 21
7.06872500546433
 31
0.0
  0
LINE
  5
342
330
2
100
AcDbEntity
  8
GAIKEI
  6
Continuous
 62
     1
100
AcDbLine
 10
-14.72409997839168
 20
7.06872500546433
 30
0.0
 11
-14.52409997839163
 21
7.06872500546433
 31
0.0
  0
LINE
  5
343
330
2
100
AcDbEntity
  8
GAIKEI
  6
Continuous
 62
     1
100
AcDbLine
 10
-15.07409997839159
 20
7.06872500546433
 30
0.0
 11
-14.87409997839165
 21
7.06872500546433
 31
0.0
  0
LINE
  5
344
330
2
100
AcDbEntity
  8
GAIKEI
  6
Continuous
 62
     1
100
AcDbLine
 10
-15.42409997839161
 20
7.06872500546433
 30
0.0
 11
-15.22409997839168
 21
7.06872500546433
 31
0.0
  0
LINE
  5
345
330
2
100
AcDbEntity
  8
GAIKEI
  6
Continuous
 62
     1
100
AcDbLine
 10
-15.77409997839163
 20
7.06872500546433
 30
0.0
 11
-15.57409997839158
 21
7.06872500546433
 31
0.0
  0
LINE
  5
346
330
2
100
AcDbEntity
  8
GAIKEI
  6
Continuous
 62
     1
100
AcDbLine
 10
-16.12409997839165
 20
7.06872500546433
 30
0.0
 11
-15.92409997839161
 21
7.06872500546433
 31
0.0
  0
LINE
  5
347
330
2
100
AcDbEntity
  8
GAIKEI
  6
Continuous
 62
     1
100
AcDbLine
 10
-16.47409997839168
 20
7.06872500546433
 30
0.0
 11
-16.27409997839163
 21
7.06872500546433
 31
0.0
  0
LINE
  5
348
330
2
100
AcDbEntity
  8
GAIKEI
  6
Continuous
 62
     1
100
AcDbLine
 10
-16.82409997839158
 20
7.06872500546433
 30
0.0
 11
-16.62409997839165
 21
7.06872500546433
 31
0.0
  0
LINE
  5
349
330
2
100
AcDbEntity
  8
GAIKEI
  6
Continuous
 62
     1
100
AcDbLine
 10
-17.17409997839161
 20
7.06872500546433
 30
0.0
 11
-16.97409997839168
 21
7.06872500546433
 31
0.0
  0
LINE
  5
34A
330
2
100
AcDbEntity
  8
GAIKEI
  6
Continuous
 62
     1
100
AcDbLine
 10
-17.52409997839163
 20
7.06872500546433
 30
0.0
 11
-17.32409997839158
 21
7.06872500546433
 31
0.0
  0
LINE
  5
34B
330
2
100
AcDbEntity
  8
GAIKEI
  6
Continuous
 62
     1
100
AcDbLine
 10
-17.87409997839165
 20
7.06872500546433
 30
0.0
 11
-17.67409997839161
 21
7.06872500546433
 31
0.0
  0
LINE
  5
34C
330
2
100
AcDbEntity
  8
GAIKEI
  6
Continuous
 62
     1
100
AcDbLine
 10
-18.22409997839168
 20
7.06872500546433
 30
0.0
 11
-18.02409997839163
 21
7.06872500546433
 31
0.0
  0
LINE
  5
34D
330
2
100
AcDbEntity
  8
GAIKEI
  6
Continuous
 62
     1
100
AcDbLine
 10
-18.57409997839159
 20
7.06872500546433
 30
0.0
 11
-18.37409997839165
 21
7.06872500546433
 31
0.0
  0
LINE
  5
34E
330
2
100
AcDbEntity
  8
GAIKEI
  6
Continuous
 62
     1
100
AcDbLine
 10
-18.92409997839161
 20
7.06872500546433
 30
0.0
 11
-18.72409997839168
 21
7.06872500546433
 31
0.0
  0
LINE
  5
34F
330
2
100
AcDbEntity
  8
GAIKEI
  6
Continuous
 62
     1
100
AcDbLine
 10
-19.27409997839163
 20
7.06872500546433
 30
0.0
 11
-19.07409997839159
 21
7.06872500546433
 31
0.0
  0
LINE
  5
350
330
2
100
AcDbEntity
  8
GAIKEI
  6
Continuous
 62
     1
100
AcDbLine
 10
-19.62409997839165
 20
7.06872500546433
 30
0.0
 11
-19.42409997839161
 21
7.06872500546433
 31
0.0
  0
LINE
  5
351
330
2
100
AcDbEntity
  8
GAIKEI
  6
Continuous
 62
     1
100
AcDbLine
 10
-19.97409997839168
 20
7.06872500546433
 30
0.0
 11
-19.77409997839163
 21
7.06872500546433
 31
0.0
  0
LINE
  5
352
330
2
100
AcDbEntity
  8
GAIKEI
  6
Continuous
 62
     1
100
AcDbLine
 10
-20.32409997839159
 20
7.06872500546433
 30
0.0
 11
-20.12409997839165
 21
7.06872500546433
 31
0.0
  0
LINE
  5
353
330
2
100
AcDbEntity
  8
GAIKEI
  6
Continuous
 62
     1
100
AcDbLine
 10
-20.67409997839161
 20
7.06872500546433
 30
0.0
 11
-20.47409997839168
 21
7.06872500546433
 31
0.0
  0
LINE
  5
354
330
2
100
AcDbEntity
  8
GAIKEI
  6
Continuous
 62
     1
100
AcDbLine
 10
-21.02409997839163
 20
7.06872500546433
 30
0.0
 11
-20.82409997839159
 21
7.06872500546433
 31
0.0
  0
LINE
  5
355
330
2
100
AcDbEntity
  8
GAIKEI
  6
Continuous
 62
     1
100
AcDbLine
 10
-21.37409997839165
 20
7.06872500546433
 30
0.0
 11
-21.17409997839161
 21
7.06872500546433
 31
0.0
  0
LINE
  5
356
330
2
100
AcDbEntity
  8
GAIKEI
  6
Continuous
 62
     1
100
AcDbLine
 10
-21.72409997839168
 20
7.06872500546433
 30
0.0
 11
-21.52409997839163
 21
7.06872500546433
 31
0.0
  0
LINE
  5
357
330
2
100
AcDbEntity
  8
GAIKEI
  6
Continuous
 62
     1
100
AcDbLine
 10
-22.07409997839159
 20
7.06872500546433
 30
0.0
 11
-21.87409997839166
 21
7.06872500546433
 31
0.0
  0
LINE
  5
358
330
2
100
AcDbEntity
  8
GAIKEI
  6
Continuous
 62
     1
100
AcDbLine
 10
-22.42409997839161
 20
7.06872500546433
 30
0.0
 11
-22.22409997839168
 21
7.06872500546433
 31
0.0
  0
LINE
  5
359
330
2
100
AcDbEntity
  8
GAIKEI
  6
Continuous
 62
     1
100
AcDbLine
 10
-22.77409997839163
 20
7.06872500546433
 30
0.0
 11
-22.57409997839159
 21
7.06872500546433
 31
0.0
  0
LINE
  5
35A
330
2
100
AcDbEntity
  8
GAIKEI
  6
Continuous
 62
     1
100
AcDbLine
 10
-23.12409997839166
 20
7.06872500546433
 30
0.0
 11
-22.92409997839161
 21
7.06872500546433
 31
0.0
  0
LINE
  5
35B
330
2
100
AcDbEntity
  8
GAIKEI
  6
Continuous
 62
     1
100
AcDbLine
 10
-23.47409997839168
 20
7.06872500546433
 30
0.0
 11
-23.27409997839163
 21
7.06872500546433
 31
0.0
  0
LINE
  5
35C
330
2
100
AcDbEntity
  8
GAIKEI
  6
Continuous
 62
     1
100
AcDbLine
 10
-23.82409997839159
 20
7.06872500546433
 30
0.0
 11
-23.62409997839165
 21
7.06872500546433
 31
0.0
  0
LINE
  5
35D
330
2
100
AcDbEntity
  8
GAIKEI
  6
Continuous
 62
     1
100
AcDbLine
 10
-24.17409997839161
 20
7.06872500546433
 30
0.0
 11
-23.97409997839168
 21
7.06872500546433
 31
0.0
  0
LINE
  5
35E
330
2
100
AcDbEntity
  8
GAIKEI
  6
Continuous
 62
     1
100
AcDbLine
 10
-24.52409997839164
 20
7.06872500546433
 30
0.0
 11
-24.32409997839159
 21
7.06872500546433
 31
0.0
  0
LINE
  5
35F
330
2
100
AcDbEntity
  8
GAIKEI
  6
Continuous
 62
     1
100
AcDbLine
 10
-24.87409997839165
 20
7.06872500546433
 30
0.0
 11
-24.67409997839161
 21
7.06872500546433
 31
0.0
  0
LINE
  5
360
330
2
100
AcDbEntity
  8
GAIKEI
  6
Continuous
 62
     1
100
AcDbLine
 10
-25.22409997839168
 20
7.06872500546433
 30
0.0
 11
-25.02409997839163
 21
7.06872500546433
 31
0.0
  0
LINE
  5
361
330
2
100
AcDbEntity
  8
GAIKEI
  6
Continuous
 62
     1
100
AcDbLine
 10
-25.57409997839159
 20
7.06872500546433
 30
0.0
 11
-25.37409997839166
 21
7.06872500546433
 31
0.0
  0
LINE
  5
362
330
2
100
AcDbEntity
  8
GAIKEI
  6
Continuous
 62
     1
100
AcDbLine
 10
-25.92409997839161
 20
7.06872500546433
 30
0.0
 11
-25.72409997839168
 21
7.06872500546433
 31
0.0
  0
LINE
  5
363
330
2
100
AcDbEntity
  8
GAIKEI
  6
Continuous
 62
     1
100
AcDbLine
 10
-26.27409997839163
 20
7.06872500546433
 30
0.0
 11
-26.07409997839159
 21
7.06872500546433
 31
0.0
  0
LINE
  5
364
330
2
100
AcDbEntity
  8
GAIKEI
  6
Continuous
 62
     1
100
AcDbLine
 10
-26.62409997839166
 20
7.06872500546433
 30
0.0
 11
-26.42409997839161
 21
7.06872500546433
 31
0.0
  0
LINE
  5
365
330
2
100
AcDbEntity
  8
GAIKEI
  6
Continuous
 62
     1
100
AcDbLine
 10
-26.97409997839168
 20
7.06872500546433
 30
0.0
 11
-26.77409997839163
 21
7.06872500546433
 31
0.0
  0
LINE
  5
366
330
2
100
AcDbEntity
  8
GAIKEI
  6
Continuous
 62
     1
100
AcDbLine
 10
-27.32409997839159
 20
7.06872500546433
 30
0.0
 11
-27.12409997839166
 21
7.06872500546433
 31
0.0
  0
LINE
  5
367
330
2
100
AcDbEntity
  8
GAIKEI
  6
Continuous
 62
     1
100
AcDbLine
 10
-27.67409997839161
 20
7.06872500546433
 30
0.0
 11
-27.47409997839168
 21
7.06872500546433
 31
0.0
  0
LINE
  5
368
330
2
100
AcDbEntity
  8
GAIKEI
  6
Continuous
 62
     1
100
AcDbLine
 10
-28.02409997839163
 20
7.06872500546433
 30
0.0
 11
-27.82409997839159
 21
7.06872500546433
 31
0.0
  0
LINE
  5
369
330
2
100
AcDbEntity
  8
GAIKEI
  6
Continuous
 62
     1
100
AcDbLine
 10
-28.37409997839166
 20
7.06872500546433
 30
0.0
 11
-28.17409997839161
 21
7.06872500546433
 31
0.0
  0
LINE
  5
36A
330
2
100
AcDbEntity
  8
GAIKEI
  6
Continuous
 62
     1
100
AcDbLine
 10
-28.72409997839168
 20
7.06872500546433
 30
0.0
 11
-28.52409997839163
 21
7.06872500546433
 31
0.0
  0
LINE
  5
36B
330
2
100
AcDbEntity
  8
GAIKEI
  6
Continuous
 62
     1
100
AcDbLine
 10
-29.07409997839159
 20
7.06872500546433
 30
0.0
 11
-28.87409997839166
 21
7.06872500546433
 31
0.0
  0
LINE
  5
36C
330
2
100
AcDbEntity
  8
GAIKEI
  6
Continuous
 62
     1
100
AcDbLine
 10
-29.42409997839161
 20
7.06872500546433
 30
0.0
 11
-29.22409997839168
 21
7.06872500546433
 31
0.0
  0
LINE
  5
36D
330
2
100
AcDbEntity
  8
GAIKEI
  6
Continuous
 62
     1
100
AcDbLine
 10
-29.77409997839163
 20
7.06872500546433
 30
0.0
 11
-29.57409997839159
 21
7.06872500546433
 31
0.0
  0
LINE
  5
36E
330
2
100
AcDbEntity
  8
GAIKEI
  6
Continuous
 62
     1
100
AcDbLine
 10
-30.12409997839166
 20
7.06872500546433
 30
0.0
 11
-29.92409997839161
 21
7.06872500546433
 31
0.0
  0
LINE
  5
36F
330
2
100
AcDbEntity
  8
GAIKEI
  6
Continuous
 62
     1
100
AcDbLine
 10
-30.47409997839168
 20
7.06872500546433
 30
0.0
 11
-30.27409997839163
 21
7.06872500546433
 31
0.0
  0
LINE
  5
370
330
2
100
AcDbEntity
  8
GAIKEI
  6
Continuous
 62
     1
100
AcDbLine
 10
-30.82409997839159
 20
7.06872500546433
 30
0.0
 11
-30.62409997839166
 21
7.06872500546433
 31
0.0
  0
LINE
  5
371
330
2
100
AcDbEntity
  8
GAIKEI
  6
Continuous
 62
     1
100
AcDbLine
 10
-31.17409997839161
 20
7.06872500546433
 30
0.0
 11
-30.97409997839168
 21
7.06872500546433
 31
0.0
  0
LINE
  5
372
330
2
100
AcDbEntity
  8
GAIKEI
  6
Continuous
 62
     1
100
AcDbLine
 10
-31.52409997839163
 20
7.06872500546433
 30
0.0
 11
-31.32409997839159
 21
7.06872500546433
 31
0.0
  0
LINE
  5
373
330
2
100
AcDbEntity
  8
GAIKEI
  6
Continuous
 62
     1
100
AcDbLine
 10
-31.87409997839166
 20
7.06872500546433
 30
0.0
 11
-31.67409997839161
 21
7.06872500546433
 31
0.0
  0
LINE
  5
374
330
2
100
AcDbEntity
  8
GAIKEI
  6
Continuous
 62
     1
100
AcDbLine
 10
-32.22409997839168
 20
7.06872500546433
 30
0.0
 11
-32.02409997839164
 21
7.06872500546433
 31
0.0
  0
LINE
  5
375
330
2
100
AcDbEntity
  8
GAIKEI
  6
Continuous
 62
     1
100
AcDbLine
 10
-32.57409997839159
 20
7.06872500546433
 30
0.0
 11
-32.37409997839165
 21
7.06872500546433
 31
0.0
  0
LINE
  5
376
330
2
100
AcDbEntity
  8
GAIKEI
  6
Continuous
 62
     1
100
AcDbLine
 10
-32.92409997839161
 20
7.06872500546433
 30
0.0
 11
-32.72409997839168
 21
7.06872500546433
 31
0.0
  0
LINE
  5
377
330
2
100
AcDbEntity
  8
GAIKEI
  6
Continuous
 62
     1
100
AcDbLine
 10
-33.27409997839164
 20
7.06872500546433
 30
0.0
 11
-33.07409997839159
 21
7.06872500546433
 31
0.0
  0
LINE
  5
378
330
2
100
AcDbEntity
  8
GAIKEI
  6
Continuous
 62
     1
100
AcDbLine
 10
-26.07409997839159
 20
7.06872500546433
 30
0.0
 11
-26.07409997839159
 21
6.134968657704234
 31
0.0
  0
LINE
  5
379
330
2
100
AcDbEntity
  8
GAIKEI
  6
Continuous
 62
     1
100
AcDbLine
 10
-26.27409997839163
 20
6.134968657704234
 30
0.0
 11
-26.27409997839163
 21
7.06872500546433
 31
0.0
  0
LINE
  5
37A
330
2
100
AcDbEntity
  8
GAIKEI
  6
Continuous
 62
     1
100
AcDbLine
 10
-26.42409997839161
 20
7.06872500546433
 30
0.0
 11
-26.42409997839161
 21
6.134968657704234
 31
0.0
  0
LINE
  5
37B
330
2
100
AcDbEntity
  8
GAIKEI
  6
Continuous
 62
     1
100
AcDbLine
 10
-26.62409997839166
 20
6.134968657704234
 30
0.0
 11
-26.62409997839166
 21
7.06872500546433
 31
0.0
  0
LINE
  5
37C
330
2
100
AcDbEntity
  8
GAIKEI
  6
Continuous
 62
     1
100
AcDbLine
 10
-26.77409997839163
 20
7.06872500546433
 30
0.0
 11
-26.77409997839163
 21
6.134968657704234
 31
0.0
  0
LINE
  5
37D
330
2
100
AcDbEntity
  8
GAIKEI
  6
Continuous
 62
     1
100
AcDbLine
 10
-26.97409997839168
 20
6.134968657704234
 30
0.0
 11
-26.97409997839168
 21
7.06872500546433
 31
0.0
  0
LINE
  5
37E
330
2
100
AcDbEntity
  8
GAIKEI
  6
Continuous
 62
     1
100
AcDbLine
 10
-27.12409997839166
 20
7.06872500546433
 30
0.0
 11
-27.12409997839166
 21
6.134968657704234
 31
0.0
  0
LINE
  5
37F
330
2
100
AcDbEntity
  8
GAIKEI
  6
Continuous
 62
     1
100
AcDbLine
 10
-38.45008127415156
 20
6.159589962814379
 30
0.0
 11
-38.50328208557164
 21
6.159589962814379
 31
0.0
  0
LINE
  5
380
330
2
100
AcDbEntity
  8
GAIKEI
  6
Continuous
 62
     1
100
AcDbLine
 10
-33.62409997839165
 20
6.134968569420266
 30
0.0
 11
-33.42409997839161
 21
6.134968657704234
 31
0.0
  0
LINE
  5
381
330
2
100
AcDbEntity
  8
GAIKEI
  6
Continuous
 62
     1
100
AcDbLine
 10
-14.02409997839163
 20
6.134968657704234
 30
0.0
 11
-13.82409997839159
 21
6.134968657704234
 31
0.0
  0
LINE
  5
382
330
2
100
AcDbEntity
  8
GAIKEI
  6
Continuous
 62
     1
100
AcDbLine
 10
-14.37409997839165
 20
6.134968657704234
 30
0.0
 11
-14.17409997839161
 21
6.134968657704234
 31
0.0
  0
LINE
  5
383
330
2
100
AcDbEntity
  8
GAIKEI
  6
Continuous
 62
     1
100
AcDbLine
 10
-14.72409997839168
 20
6.134968657704234
 30
0.0
 11
-14.52409997839163
 21
6.134968657704234
 31
0.0
  0
LINE
  5
384
330
2
100
AcDbEntity
  8
GAIKEI
  6
Continuous
 62
     1
100
AcDbLine
 10
-15.07409997839159
 20
6.134968657704234
 30
0.0
 11
-14.87409997839165
 21
6.134968657704234
 31
0.0
  0
LINE
  5
385
330
2
100
AcDbEntity
  8
GAIKEI
  6
Continuous
 62
     1
100
AcDbLine
 10
-15.42409997839161
 20
6.134968657704234
 30
0.0
 11
-15.22409997839168
 21
6.134968657704234
 31
0.0
  0
LINE
  5
386
330
2
100
AcDbEntity
  8
GAIKEI
  6
Continuous
 62
     1
100
AcDbLine
 10
-15.77409997839163
 20
6.134968657704234
 30
0.0
 11
-15.57409997839158
 21
6.134968657704234
 31
0.0
  0
LINE
  5
387
330
2
100
AcDbEntity
  8
GAIKEI
  6
Continuous
 62
     1
100
AcDbLine
 10
-16.12409997839165
 20
6.134968657704234
 30
0.0
 11
-15.92409997839161
 21
6.134968657704234
 31
0.0
  0
LINE
  5
388
330
2
100
AcDbEntity
  8
GAIKEI
  6
Continuous
 62
     1
100
AcDbLine
 10
-16.47409997839168
 20
6.134968657704234
 30
0.0
 11
-16.27409997839163
 21
6.134968657704234
 31
0.0
  0
LINE
  5
389
330
2
100
AcDbEntity
  8
GAIKEI
  6
Continuous
 62
     1
100
AcDbLine
 10
-16.82409997839158
 20
6.134968657704234
 30
0.0
 11
-16.62409997839165
 21
6.134968657704234
 31
0.0
  0
LINE
  5
38A
330
2
100
AcDbEntity
  8
GAIKEI
  6
Continuous
 62
     1
100
AcDbLine
 10
-17.17409997839161
 20
6.134968657704234
 30
0.0
 11
-16.97409997839168
 21
6.134968657704234
 31
0.0
  0
LINE
  5
38B
330
2
100
AcDbEntity
  8
GAIKEI
  6
Continuous
 62
     1
100
AcDbLine
 10
-17.52409997839163
 20
6.134968657704234
 30
0.0
 11
-17.32409997839158
 21
6.134968657704234
 31
0.0
  0
LINE
  5
38C
330
2
100
AcDbEntity
  8
GAIKEI
  6
Continuous
 62
     1
100
AcDbLine
 10
-17.87409997839165
 20
6.134968657704234
 30
0.0
 11
-17.67409997839161
 21
6.134968657704234
 31
0.0
  0
LINE
  5
38D
330
2
100
AcDbEntity
  8
GAIKEI
  6
Continuous
 62
     1
100
AcDbLine
 10
-18.22409997839168
 20
6.134968657704234
 30
0.0
 11
-18.02409997839163
 21
6.134968657704234
 31
0.0
  0
LINE
  5
38E
330
2
100
AcDbEntity
  8
GAIKEI
  6
Continuous
 62
     1
100
AcDbLine
 10
-18.57409997839159
 20
6.134968657704234
 30
0.0
 11
-18.37409997839165
 21
6.134968657704234
 31
0.0
  0
LINE
  5
38F
330
2
100
AcDbEntity
  8
GAIKEI
  6
Continuous
 62
     1
100
AcDbLine
 10
-18.92409997839161
 20
6.134968657704234
 30
0.0
 11
-18.72409997839168
 21
6.134968657704234
 31
0.0
  0
LINE
  5
390
330
2
100
AcDbEntity
  8
GAIKEI
  6
Continuous
 62
     1
100
AcDbLine
 10
-19.27409997839163
 20
6.134968657704234
 30
0.0
 11
-19.07409997839159
 21
6.134968657704234
 31
0.0
  0
LINE
  5
391
330
2
100
AcDbEntity
  8
GAIKEI
  6
Continuous
 62
     1
100
AcDbLine
 10
-19.62409997839165
 20
6.134968657704234
 30
0.0
 11
-19.42409997839161
 21
6.134968657704234
 31
0.0
  0
LINE
  5
392
330
2
100
AcDbEntity
  8
GAIKEI
  6
Continuous
 62
     1
100
AcDbLine
 10
-19.97409997839168
 20
6.134968657704234
 30
0.0
 11
-19.77409997839163
 21
6.134968657704234
 31
0.0
  0
LINE
  5
393
330
2
100
AcDbEntity
  8
GAIKEI
  6
Continuous
 62
     1
100
AcDbLine
 10
-20.32409997839159
 20
6.134968657704234
 30
0.0
 11
-20.12409997839165
 21
6.134968657704234
 31
0.0
  0
LINE
  5
394
330
2
100
AcDbEntity
  8
GAIKEI
  6
Continuous
 62
     1
100
AcDbLine
 10
-20.67409997839161
 20
6.134968657704234
 30
0.0
 11
-20.47409997839168
 21
6.134968657704234
 31
0.0
  0
LINE
  5
395
330
2
100
AcDbEntity
  8
GAIKEI
  6
Continuous
 62
     1
100
AcDbLine
 10
-21.02409997839163
 20
6.134968657704234
 30
0.0
 11
-20.82409997839159
 21
6.134968657704234
 31
0.0
  0
LINE
  5
396
330
2
100
AcDbEntity
  8
GAIKEI
  6
Continuous
 62
     1
100
AcDbLine
 10
-21.37409997839165
 20
6.134968657704234
 30
0.0
 11
-21.17409997839161
 21
6.134968657704234
 31
0.0
  0
LINE
  5
397
330
2
100
AcDbEntity
  8
GAIKEI
  6
Continuous
 62
     1
100
AcDbLine
 10
-21.72409997839168
 20
6.134968657704234
 30
0.0
 11
-21.52409997839163
 21
6.134968657704234
 31
0.0
  0
LINE
  5
398
330
2
100
AcDbEntity
  8
GAIKEI
  6
Continuous
 62
     1
100
AcDbLine
 10
-22.07409997839159
 20
6.134968657704234
 30
0.0
 11
-21.87409997839166
 21
6.134968657704234
 31
0.0
  0
LINE
  5
399
330
2
100
AcDbEntity
  8
GAIKEI
  6
Continuous
 62
     1
100
AcDbLine
 10
-22.42409997839161
 20
6.134968657704234
 30
0.0
 11
-22.22409997839168
 21
6.134968657704234
 31
0.0
  0
LINE
  5
39A
330
2
100
AcDbEntity
  8
GAIKEI
  6
Continuous
 62
     1
100
AcDbLine
 10
-22.77409997839163
 20
6.134968657704234
 30
0.0
 11
-22.57409997839159
 21
6.134968657704234
 31
0.0
  0
LINE
  5
39B
330
2
100
AcDbEntity
  8
GAIKEI
  6
Continuous
 62
     1
100
AcDbLine
 10
-23.12409997839166
 20
6.134968657704234
 30
0.0
 11
-22.92409997839161
 21
6.134968657704234
 31
0.0
  0
LINE
  5
39C
330
2
100
AcDbEntity
  8
GAIKEI
  6
Continuous
 62
     1
100
AcDbLine
 10
-23.47409997839168
 20
6.134968657704234
 30
0.0
 11
-23.27409997839163
 21
6.134968657704234
 31
0.0
  0
LINE
  5
39D
330
2
100
AcDbEntity
  8
GAIKEI
  6
Continuous
 62
     1
100
AcDbLine
 10
-23.82409997839159
 20
6.134968657704234
 30
0.0
 11
-23.62409997839165
 21
6.134968657704234
 31
0.0
  0
LINE
  5
39E
330
2
100
AcDbEntity
  8
GAIKEI
  6
Continuous
 62
     1
100
AcDbLine
 10
-24.17409997839161
 20
6.134968657704234
 30
0.0
 11
-23.97409997839168
 21
6.134968657704234
 31
0.0
  0
LINE
  5
39F
330
2
100
AcDbEntity
  8
GAIKEI
  6
Continuous
 62
     1
100
AcDbLine
 10
-24.52409997839164
 20
6.134968657704234
 30
0.0
 11
-24.32409997839159
 21
6.134968657704234
 31
0.0
  0
LINE
  5
3A0
330
2
100
AcDbEntity
  8
GAIKEI
  6
Continuous
 62
     1
100
AcDbLine
 10
-24.87409997839165
 20
6.134968657704234
 30
0.0
 11
-24.67409997839161
 21
6.134968657704234
 31
0.0
  0
LINE
  5
3A1
330
2
100
AcDbEntity
  8
GAIKEI
  6
Continuous
 62
     1
100
AcDbLine
 10
-25.22409997839168
 20
6.134968657704234
 30
0.0
 11
-25.02409997839163
 21
6.134968657704234
 31
0.0
  0
LINE
  5
3A2
330
2
100
AcDbEntity
  8
GAIKEI
  6
Continuous
 62
     1
100
AcDbLine
 10
-25.57409997839159
 20
6.134968657704234
 30
0.0
 11
-25.37409997839166
 21
6.134968657704234
 31
0.0
  0
LINE
  5
3A3
330
2
100
AcDbEntity
  8
GAIKEI
  6
Continuous
 62
     1
100
AcDbLine
 10
-25.92409997839161
 20
6.134968657704234
 30
0.0
 11
-25.72409997839168
 21
6.134968657704234
 31
0.0
  0
LINE
  5
3A4
330
2
100
AcDbEntity
  8
GAIKEI
  6
Continuous
 62
     1
100
AcDbLine
 10
-26.27409997839163
 20
6.134968657704234
 30
0.0
 11
-26.07409997839159
 21
6.134968657704234
 31
0.0
  0
LINE
  5
3A5
330
2
100
AcDbEntity
  8
GAIKEI
  6
Continuous
 62
     1
100
AcDbLine
 10
-26.62409997839166
 20
6.134968657704234
 30
0.0
 11
-26.42409997839161
 21
6.134968657704234
 31
0.0
  0
LINE
  5
3A6
330
2
100
AcDbEntity
  8
GAIKEI
  6
Continuous
 62
     1
100
AcDbLine
 10
-26.97409997839168
 20
6.134968657704234
 30
0.0
 11
-26.77409997839163
 21
6.134968657704234
 31
0.0
  0
LINE
  5
3A7
330
2
100
AcDbEntity
  8
GAIKEI
  6
Continuous
 62
     1
100
AcDbLine
 10
-27.32409997839159
 20
6.134968657704234
 30
0.0
 11
-27.12409997839166
 21
6.134968657704234
 31
0.0
  0
LINE
  5
3A8
330
2
100
AcDbEntity
  8
GAIKEI
  6
Continuous
 62
     1
100
AcDbLine
 10
-27.67409997839161
 20
6.134968657704234
 30
0.0
 11
-27.47409997839168
 21
6.134968657704234
 31
0.0
  0
LINE
  5
3A9
330
2
100
AcDbEntity
  8
GAIKEI
  6
Continuous
 62
     1
100
AcDbLine
 10
-28.02409997839163
 20
6.134968657704234
 30
0.0
 11
-27.82409997839159
 21
6.134968657704234
 31
0.0
  0
LINE
  5
3AA
330
2
100
AcDbEntity
  8
GAIKEI
  6
Continuous
 62
     1
100
AcDbLine
 10
-28.37409997839166
 20
6.134968657704234
 30
0.0
 11
-28.17409997839161
 21
6.134968657704234
 31
0.0
  0
LINE
  5
3AB
330
2
100
AcDbEntity
  8
GAIKEI
  6
Continuous
 62
     1
100
AcDbLine
 10
-28.72409997839168
 20
6.134968657704234
 30
0.0
 11
-28.52409997839163
 21
6.134968657704234
 31
0.0
  0
LINE
  5
3AC
330
2
100
AcDbEntity
  8
GAIKEI
  6
Continuous
 62
     1
100
AcDbLine
 10
-29.07409997839159
 20
6.134968657704234
 30
0.0
 11
-28.87409997839166
 21
6.134968657704234
 31
0.0
  0
LINE
  5
3AD
330
2
100
AcDbEntity
  8
GAIKEI
  6
Continuous
 62
     1
100
AcDbLine
 10
-29.42409997839161
 20
6.134968657704234
 30
0.0
 11
-29.22409997839168
 21
6.134968657704234
 31
0.0
  0
LINE
  5
3AE
330
2
100
AcDbEntity
  8
GAIKEI
  6
Continuous
 62
     1
100
AcDbLine
 10
-29.77409997839163
 20
6.134968657704234
 30
0.0
 11
-29.57409997839159
 21
6.134968657704234
 31
0.0
  0
LINE
  5
3AF
330
2
100
AcDbEntity
  8
GAIKEI
  6
Continuous
 62
     1
100
AcDbLine
 10
-30.12409997839166
 20
6.134968657704234
 30
0.0
 11
-29.92409997839161
 21
6.134968657704234
 31
0.0
  0
LINE
  5
3B0
330
2
100
AcDbEntity
  8
GAIKEI
  6
Continuous
 62
     1
100
AcDbLine
 10
-30.47409997839168
 20
6.134968657704234
 30
0.0
 11
-30.27409997839163
 21
6.134968657704234
 31
0.0
  0
LINE
  5
3B1
330
2
100
AcDbEntity
  8
GAIKEI
  6
Continuous
 62
     1
100
AcDbLine
 10
-30.82409997839159
 20
6.134968657704234
 30
0.0
 11
-30.62409997839166
 21
6.134968657704234
 31
0.0
  0
LINE
  5
3B2
330
2
100
AcDbEntity
  8
GAIKEI
  6
Continuous
 62
     1
100
AcDbLine
 10
-31.17409997839161
 20
6.134968657704234
 30
0.0
 11
-30.97409997839168
 21
6.134968657704234
 31
0.0
  0
LINE
  5
3B3
330
2
100
AcDbEntity
  8
GAIKEI
  6
Continuous
 62
     1
100
AcDbLine
 10
-31.52409997839163
 20
6.134968657704234
 30
0.0
 11
-31.32409997839159
 21
6.134968657704234
 31
0.0
  0
LINE
  5
3B4
330
2
100
AcDbEntity
  8
GAIKEI
  6
Continuous
 62
     1
100
AcDbLine
 10
-31.87409997839166
 20
6.134968657704234
 30
0.0
 11
-31.67409997839161
 21
6.134968657704234
 31
0.0
  0
LINE
  5
3B5
330
2
100
AcDbEntity
  8
GAIKEI
  6
Continuous
 62
     1
100
AcDbLine
 10
-32.22409997839168
 20
6.134968657704234
 30
0.0
 11
-32.02409997839164
 21
6.134968657704234
 31
0.0
  0
LINE
  5
3B6
330
2
100
AcDbEntity
  8
GAIKEI
  6
Continuous
 62
     1
100
AcDbLine
 10
-32.57409997839159
 20
6.134968657704234
 30
0.0
 11
-32.37409997839165
 21
6.134968657704234
 31
0.0
  0
LINE
  5
3B7
330
2
100
AcDbEntity
  8
GAIKEI
  6
Continuous
 62
     1
100
AcDbLine
 10
-32.92409997839161
 20
6.134968657704234
 30
0.0
 11
-32.72409997839168
 21
6.134968657704234
 31
0.0
  0
LINE
  5
3B8
330
2
100
AcDbEntity
  8
GAIKEI
  6
Continuous
 62
     1
100
AcDbLine
 10
-33.27409997839164
 20
6.134968657704234
 30
0.0
 11
-33.07409997839159
 21
6.134968657704234
 31
0.0
  0
LINE
  5
3B9
330
2
100
AcDbEntity
  8
GAIKEI
  6
Continuous
 62
     1
100
AcDbLine
 10
-38.49407290254146
 20
6.134968657704234
 30
0.0
 11
-43.39696815956165
 21
6.134968657704234
 31
0.0
  0
LINE
  5
3BA
330
2
100
AcDbEntity
  8
GAIKEI
  6
Continuous
 62
     1
100
AcDbLine
 10
-37.45208332459174
 20
6.134968657704234
 30
0.0
 11
-38.44015801161152
 21
6.134968657704234
 31
0.0
  0
LINE
  5
3BB
330
2
100
AcDbEntity
  8
GAIKEI
  6
Continuous
 62
     1
100
AcDbLine
 10
-8.674245834801695
 20
6.134968657704234
 30
0.0
 11
-9.646116632181588
 21
6.134968657704234
 31
0.0
  0
LINE
  5
3BC
330
2
100
AcDbEntity
  8
GAIKEI
  6
Continuous
 62
     1
100
AcDbLine
 10
-3.416560363131679
 20
6.134968657704234
 30
0.0
 11
-8.598041945161639
 21
6.134968657704234
 31
0.0
  0
LINE
  5
3BD
330
2
100
AcDbEntity
  8
GAIKEI
  6
Continuous
 62
     1
100
AcDbLine
 10
-38.44015801161152
 20
6.08496865770428
 30
0.0
 11
-38.49407290254146
 21
6.08496865770428
 31
0.0
  0
LINE
  5
3BE
330
2
100
AcDbEntity
  8
GAIKEI
  6
Continuous
 62
     1
100
AcDbLine
 10
-38.49407290254146
 20
6.034968657704268
 30
0.0
 11
-43.39696815956165
 21
6.034968657704268
 31
0.0
  0
LINE
  5
3BF
330
2
100
AcDbEntity
  8
GAIKEI
  6
Continuous
 62
     1
100
AcDbLine
 10
-8.648041945161594
 20
6.034968657704268
 30
0.0
 11
-38.44015801161152
 21
6.034968657704268
 31
0.0
  0
LINE
  5
3C0
330
2
100
AcDbEntity
  8
GAIKEI
  6
Continuous
 62
     1
100
AcDbLine
 10
-3.399099978391632
 20
6.034968657704268
 30
0.0
 11
-8.598041945161639
 21
6.034968657704268
 31
0.0
  0
LINE
  5
3C1
330
2
100
AcDbEntity
  8
GAIKEI
  6
Continuous
 62
     1
100
AcDbLine
 10
-27.32409997839159
 20
6.134968657704234
 30
0.0
 11
-27.32409997839159
 21
7.06872500546433
 31
0.0
  0
LINE
  5
3C2
330
2
100
AcDbEntity
  8
GAIKEI
  6
Continuous
 62
     1
100
AcDbLine
 10
-27.47409997839168
 20
7.06872500546433
 30
0.0
 11
-27.47409997839168
 21
6.134968657704234
 31
0.0
  0
LINE
  5
3C3
330
2
100
AcDbEntity
  8
GAIKEI
  6
Continuous
 62
     1
100
AcDbLine
 10
-27.67409997839161
 20
6.134968657704234
 30
0.0
 11
-27.67409997839161
 21
7.06872500546433
 31
0.0
  0
LINE
  5
3C4
330
2
100
AcDbEntity
  8
GAIKEI
  6
Continuous
 62
     1
100
AcDbLine
 10
-27.82409997839159
 20
7.06872500546433
 30
0.0
 11
-27.82409997839159
 21
6.134968657704234
 31
0.0
  0
LINE
  5
3C5
330
2
100
AcDbEntity
  8
GAIKEI
  6
Continuous
 62
     1
100
AcDbLine
 10
-28.02409997839163
 20
6.134968657704234
 30
0.0
 11
-28.02409997839163
 21
7.06872500546433
 31
0.0
  0
LINE
  5
3C6
330
2
100
AcDbEntity
  8
GAIKEI
  6
Continuous
 62
     1
100
AcDbLine
 10
-28.17409997839161
 20
7.06872500546433
 30
0.0
 11
-28.17409997839161
 21
6.134968657704234
 31
0.0
  0
LINE
  5
3C7
330
2
100
AcDbEntity
  8
GAIKEI
  6
Continuous
 62
     1
100
AcDbLine
 10
-28.37409997839166
 20
6.134968657704234
 30
0.0
 11
-28.37409997839166
 21
7.06872500546433
 31
0.0
  0
LINE
  5
3C8
330
2
100
AcDbEntity
  8
GAIKEI
  6
Continuous
 62
     1
100
AcDbLine
 10
-28.52409997839163
 20
7.06872500546433
 30
0.0
 11
-28.52409997839163
 21
6.134968657704234
 31
0.0
  0
LINE
  5
3C9
330
2
100
AcDbEntity
  8
GAIKEI
  6
Continuous
 62
     1
100
AcDbLine
 10
-28.72409997839168
 20
6.134968657704234
 30
0.0
 11
-28.72409997839168
 21
7.06872500546433
 31
0.0
  0
LINE
  5
3CA
330
2
100
AcDbEntity
  8
GAIKEI
  6
Continuous
 62
     1
100
AcDbLine
 10
-28.87409997839166
 20
7.06872500546433
 30
0.0
 11
-28.87409997839166
 21
6.134968657704234
 31
0.0
  0
LINE
  5
3CB
330
2
100
AcDbEntity
  8
GAIKEI
  6
Continuous
 62
     1
100
AcDbLine
 10
-29.07409997839159
 20
6.134968657704234
 30
0.0
 11
-29.07409997839159
 21
7.06872500546433
 31
0.0
  0
LINE
  5
3CC
330
2
100
AcDbEntity
  8
GAIKEI
  6
Continuous
 62
     1
100
AcDbLine
 10
-29.22409997839168
 20
7.06872500546433
 30
0.0
 11
-29.22409997839168
 21
6.134968657704234
 31
0.0
  0
LINE
  5
3CD
330
2
100
AcDbEntity
  8
GAIKEI
  6
Continuous
 62
     1
100
AcDbLine
 10
-29.42409997839161
 20
6.134968657704234
 30
0.0
 11
-29.42409997839161
 21
7.06872500546433
 31
0.0
  0
LINE
  5
3CE
330
2
100
AcDbEntity
  8
GAIKEI
  6
Continuous
 62
     1
100
AcDbLine
 10
-29.57409997839159
 20
7.06872500546433
 30
0.0
 11
-29.57409997839159
 21
6.134968657704234
 31
0.0
  0
LINE
  5
3CF
330
2
100
AcDbEntity
  8
GAIKEI
  6
Continuous
 62
     1
100
AcDbLine
 10
-29.77409997839163
 20
6.134968657704234
 30
0.0
 11
-29.77409997839163
 21
7.06872500546433
 31
0.0
  0
LINE
  5
3D0
330
2
100
AcDbEntity
  8
GAIKEI
  6
Continuous
 62
     1
100
AcDbLine
 10
-29.92409997839161
 20
7.06872500546433
 30
0.0
 11
-29.92409997839161
 21
6.134968657704234
 31
0.0
  0
LINE
  5
3D1
330
2
100
AcDbEntity
  8
GAIKEI
  6
Continuous
 62
     1
100
AcDbLine
 10
-30.12409997839166
 20
6.134968657704234
 30
0.0
 11
-30.12409997839166
 21
7.06872500546433
 31
0.0
  0
LINE
  5
3D2
330
2
100
AcDbEntity
  8
GAIKEI
  6
Continuous
 62
     1
100
AcDbLine
 10
-30.27409997839163
 20
7.06872500546433
 30
0.0
 11
-30.27409997839163
 21
6.134968657704234
 31
0.0
  0
LINE
  5
3D3
330
2
100
AcDbEntity
  8
GAIKEI
  6
Continuous
 62
     1
100
AcDbLine
 10
-30.47409997839168
 20
6.134968657704234
 30
0.0
 11
-30.47409997839168
 21
7.06872500546433
 31
0.0
  0
LINE
  5
3D4
330
2
100
AcDbEntity
  8
GAIKEI
  6
Continuous
 62
     1
100
AcDbLine
 10
-30.62409997839166
 20
7.06872500546433
 30
0.0
 11
-30.62409997839166
 21
6.134968657704234
 31
0.0
  0
LINE
  5
3D5
330
2
100
AcDbEntity
  8
GAIKEI
  6
Continuous
 62
     1
100
AcDbLine
 10
-30.82409997839159
 20
6.134968657704234
 30
0.0
 11
-30.82409997839159
 21
7.06872500546433
 31
0.0
  0
LINE
  5
3D6
330
2
100
AcDbEntity
  8
GAIKEI
  6
Continuous
 62
     1
100
AcDbLine
 10
-30.97409997839168
 20
7.06872500546433
 30
0.0
 11
-30.97409997839168
 21
6.134968657704234
 31
0.0
  0
LINE
  5
3D7
330
2
100
AcDbEntity
  8
GAIKEI
  6
Continuous
 62
     1
100
AcDbLine
 10
-31.17409997839161
 20
6.134968657704234
 30
0.0
 11
-31.17409997839161
 21
7.06872500546433
 31
0.0
  0
LINE
  5
3D8
330
2
100
AcDbEntity
  8
GAIKEI
  6
Continuous
 62
     1
100
AcDbLine
 10
-31.32409997839159
 20
7.06872500546433
 30
0.0
 11
-31.32409997839159
 21
6.134968657704234
 31
0.0
  0
LINE
  5
3D9
330
2
100
AcDbEntity
  8
GAIKEI
  6
Continuous
 62
     1
100
AcDbLine
 10
-31.52409997839163
 20
6.134968657704234
 30
0.0
 11
-31.52409997839163
 21
7.06872500546433
 31
0.0
  0
LINE
  5
3DA
330
2
100
AcDbEntity
  8
GAIKEI
  6
Continuous
 62
     1
100
AcDbLine
 10
-31.67409997839161
 20
7.06872500546433
 30
0.0
 11
-31.67409997839161
 21
6.134968657704234
 31
0.0
  0
LINE
  5
3DB
330
2
100
AcDbEntity
  8
GAIKEI
  6
Continuous
 62
     1
100
AcDbLine
 10
-31.87409997839166
 20
6.134968657704234
 30
0.0
 11
-31.87409997839166
 21
7.06872500546433
 31
0.0
  0
LINE
  5
3DC
330
2
100
AcDbEntity
  8
GAIKEI
  6
Continuous
 62
     1
100
AcDbLine
 10
-32.02409997839164
 20
7.06872500546433
 30
0.0
 11
-32.02409997839164
 21
6.134968657704234
 31
0.0
  0
LINE
  5
3DD
330
2
100
AcDbEntity
  8
GAIKEI
  6
Continuous
 62
     1
100
AcDbLine
 10
-32.22409997839168
 20
6.134968657704234
 30
0.0
 11
-32.22409997839168
 21
7.06872500546433
 31
0.0
  0
LINE
  5
3DE
330
2
100
AcDbEntity
  8
GAIKEI
  6
Continuous
 62
     1
100
AcDbLine
 10
-32.37409997839165
 20
7.06872500546433
 30
0.0
 11
-32.37409997839165
 21
6.134968657704234
 31
0.0
  0
LINE
  5
3DF
330
2
100
AcDbEntity
  8
GAIKEI
  6
Continuous
 62
     1
100
AcDbLine
 10
-32.57409997839159
 20
6.134968657704234
 30
0.0
 11
-32.57409997839159
 21
7.06872500546433
 31
0.0
  0
LINE
  5
3E0
330
2
100
AcDbEntity
  8
GAIKEI
  6
Continuous
 62
     1
100
AcDbLine
 10
-32.72409997839168
 20
7.06872500546433
 30
0.0
 11
-32.72409997839168
 21
6.134968657704234
 31
0.0
  0
LINE
  5
3E1
330
2
100
AcDbEntity
  8
GAIKEI
  6
Continuous
 62
     1
100
AcDbLine
 10
-32.92409997839161
 20
6.134968657704234
 30
0.0
 11
-32.92409997839161
 21
7.06872500546433
 31
0.0
  0
LINE
  5
3E2
330
2
100
AcDbEntity
  8
GAIKEI
  6
Continuous
 62
     1
100
AcDbLine
 10
-33.07409997839159
 20
7.06872500546433
 30
0.0
 11
-33.07409997839159
 21
6.134968657704234
 31
0.0
  0
LINE
  5
3E3
330
2
100
AcDbEntity
  8
GAIKEI
  6
Continuous
 62
     1
100
AcDbLine
 10
-33.27409997839164
 20
6.134968657704234
 30
0.0
 11
-33.27409997839164
 21
7.06872500546433
 31
0.0
  0
LINE
  5
3E4
330
2
100
AcDbEntity
  8
GAIKEI
  6
Continuous
 62
     1
100
AcDbLine
 10
-33.42409997839161
 20
7.06872500546433
 30
0.0
 11
-33.42409997839161
 21
6.134968657704234
 31
0.0
  0
LINE
  5
3E5
330
2
100
AcDbEntity
  8
GAIKEI
  6
Continuous
 62
     1
100
AcDbLine
 10
-33.62409997839165
 20
6.134968569420266
 30
0.0
 11
-33.62409997839165
 21
7.06872500546433
 31
0.0
  0
LINE
  5
3E6
330
2
100
AcDbEntity
  8
GAIKEI
  6
Continuous
 62
     1
100
AcDbLine
 10
-37.45208332459174
 20
6.034968657704268
 30
0.0
 11
-37.45208332459174
 21
6.134968657704234
 31
0.0
  0
LINE
  5
3E7
330
2
100
AcDbEntity
  8
GAIKEI
  6
Continuous
 62
     1
100
AcDbLine
 10
-38.44015801161152
 20
13.9349686577043
 30
0.0
 11
-38.44015801161152
 21
14.03496865770421
 31
0.0
  0
LINE
  5
3E8
330
2
100
AcDbEntity
  8
GAIKEI
  6
Continuous
 62
     1
100
AcDbLine
 10
-38.44015801161152
 20
6.034968657704268
 30
0.0
 11
-38.44015801161152
 21
6.134968657704234
 31
0.0
  0
LINE
  5
3E9
330
2
100
AcDbEntity
  8
GAIKEI
  6
Continuous
 62
     1
100
AcDbLine
 10
-38.49407290254146
 20
13.9349686577043
 30
0.0
 11
-38.49407290254146
 21
14.03496865770421
 31
0.0
  0
LINE
  5
3EA
330
2
100
AcDbEntity
  8
GAIKEI
  6
Continuous
 62
     1
100
AcDbLine
 10
-38.49407290254146
 20
6.034968657704268
 30
0.0
 11
-38.49407290254146
 21
6.134968657704234
 31
0.0
  0
LINE
  5
3EB
330
2
100
AcDbEntity
  8
GAIKEI
  6
Continuous
 62
     1
100
AcDbLine
 10
-43.39696815956165
 20
14.03496865770421
 30
0.0
 11
-43.39696815956165
 21
6.034968657704268
 31
0.0
  0
LINE
  5
3EC
330
2
100
AcDbEntity
  8
GAIKEI
  6
Continuous
 62
     1
100
AcDbLine
 10
-3.425944580221653
 20
7.891377977584284
 30
0.0
 11
-8.076277710500562
 21
7.891377977584284
 31
0.0
  0
LINE
  5
3ED
330
2
100
AcDbEntity
  8
GAIKEI
  6
Continuous
 62
     1
100
AcDbLine
 10
-3.404336497871781
 20
13.9349686577043
 30
0.0
 11
-8.595640985971726
 21
13.9349686577043
 31
0.0
  0
LINE
  5
3EE
330
2
100
AcDbEntity
  8
GAIKEI
  6
Continuous
 62
     1
100
AcDbLine
 10
-3.403441061941748
 20
8.028532966364309
 30
0.0
 11
-8.091116469951771
 21
8.028532966364309
 31
0.0
  0
LINE
  5
3EF
330
2
100
AcDbEntity
  8
GAIKEI
  6
Continuous
 62
     1
100
AcDbLine
 10
-8.062233612951786
 20
7.891377977594174
 30
0.0
 11
-3.409027176821723
 21
7.891377977594174
 31
0.0
  0
LINE
  5
3F0
330
2
100
AcDbEntity
  8
GAIKEI
  6
Continuous
 62
     1
100
AcDbLine
 10
-26.54827872418162
 20
9.294968657704202
 30
0.0
 11
-26.54827872418162
 21
10.77496865770422
 31
0.0
  0
LINE
  5
3F1
330
2
100
AcDbEntity
  8
GAIKEI
  6
Continuous
 62
     1
100
AcDbLine
 10
-20.54827872418162
 20
9.294968657704316
 30
0.0
 11
-26.54827872418162
 21
9.294968657704202
 31
0.0
  0
LINE
  5
3F2
330
2
100
AcDbEntity
  8
GAIKEI
  6
Continuous
 62
     1
100
AcDbLine
 10
-20.54827872418162
 20
10.77496865770422
 30
0.0
 11
-20.54827872418162
 21
9.294968657704316
 31
0.0
  0
LINE
  5
3F3
330
2
100
AcDbEntity
  8
GAIKEI
  6
Continuous
 62
     1
100
AcDbLine
 10
-26.54827872418162
 20
10.77496865770422
 30
0.0
 11
-20.54827872418162
 21
10.77496865770422
 31
0.0
  0
LINE
  5
3F4
330
2
100
AcDbEntity
  8
GAIKEI
  6
Continuous
100
AcDbLine
 10
24.67900297040297
 20
14.02049517005935
 30
0.0
 11
24.593476712403
 21
13.93496891206939
 31
0.0
  0
LINE
  5
3F5
330
2
100
AcDbEntity
  8
GAIKEI
  6
Continuous
100
AcDbLine
 10
25.09347671240301
 20
14.03496891206941
 30
0.0
 11
24.67900297040297
 21
14.02049517005935
 31
0.0
  0
LINE
  5
3F6
330
2
100
AcDbEntity
  8
GAIKEI
  6
Continuous
100
AcDbLine
 10
24.44347671240314
 20
13.40996891206885
 30
0.0
 11
24.44347671240314
 21
13.08499850969963
 31
0.0
  0
LINE
  5
3F7
330
2
100
AcDbEntity
  8
GAIKEI
  6
Continuous
100
AcDbLine
 10
24.49636385812903
 20
13.40996891206885
 30
0.0
 11
24.44347671240314
 21
13.40996891206885
 31
0.0
  0
LINE
  5
3F8
330
2
100
AcDbEntity
  8
GAIKEI
  6
Continuous
100
AcDbLine
 10
24.593476712403
 20
6.134968912069325
 30
0.0
 11
24.67900297040297
 21
6.049442654069366
 31
0.0
  0
LINE
  5
3F9
330
2
100
AcDbEntity
  8
GAIKEI
  6
Continuous
100
AcDbLine
 10
25.09347671240289
 20
6.034968912069075
 30
0.0
 11
24.67900297040297
 21
6.049442654069366
 31
0.0
  0
LINE
  5
3FA
330
2
100
AcDbEntity
  8
GAIKEI
  6
Continuous
100
AcDbLine
 10
25.09347671240301
 20
5.734969209934547
 30
0.0
 11
25.19347671240303
 21
5.634969209934581
 31
0.0
  0
LINE
  5
3FB
330
2
100
AcDbEntity
  8
GAIKEI
  6
S10
 62
     1
100
AcDbLine
 10
25.19347634002282
 20
14.43496883755438
 30
0.0
 11
25.09347671240301
 21
14.43496883364185
 31
0.0
  0
LINE
  5
3FC
330
2
100
AcDbEntity
  8
GAIKEI
  6
Continuous
 62
     1
100
AcDbLine
 10
-28.64827872418164
 20
9.398075353143553
 30
0.0
 11
-26.64827872418164
 21
9.398075353143553
 31
0.0
  0
LINE
  5
3FD
330
2
100
AcDbEntity
  8
GAIKEI
  6
Continuous
 62
     1
100
AcDbLine
 10
-28.64827872418164
 20
9.598075353143485
 30
0.0
 11
-26.64827872418164
 21
9.598075353143485
 31
0.0
  0
LINE
  5
3FE
330
2
100
AcDbEntity
  8
GAIKEI
  6
Continuous
 62
     1
100
AcDbLine
 10
-28.64827872418164
 20
9.798075353143531
 30
0.0
 11
-26.64827872418164
 21
9.798075353143531
 31
0.0
  0
LINE
  5
3FF
330
2
100
AcDbEntity
  8
GAIKEI
  6
Continuous
 62
     1
100
AcDbLine
 10
-28.64827872418164
 20
10.69807535314351
 30
0.0
 11
-26.64827872418164
 21
10.69807535314351
 31
0.0
  0
LINE
  5
400
330
2
100
AcDbEntity
  8
GAIKEI
  6
Continuous
 62
     1
100
AcDbLine
 10
-28.64827872418164
 20
10.49807535314357
 30
0.0
 11
-26.64827872418164
 21
10.49807535314357
 31
0.0
  0
LINE
  5
401
330
2
100
AcDbEntity
  8
GAIKEI
  6
Continuous
 62
     1
100
AcDbLine
 10
-28.64827872418164
 20
10.24807535314357
 30
0.0
 11
-26.64827872418164
 21
10.24807535314357
 31
0.0
  0
LINE
  5
402
330
2
100
AcDbEntity
  8
GAIKEI
  6
Continuous
 62
     1
100
AcDbLine
 10
-28.64827872418164
 20
9.998075353143576
 30
0.0
 11
-26.64827872418164
 21
9.998075353143576
 31
0.0
  0
ARC
  5
403
330
2
100
AcDbEntity
  8
GAIKEI
  6
Continuous
 62
     1
100
AcDbCircle
 10
57.4934769370003
 20
7.354968657704944
 30
0.0
 40
0.6000000000000001
100
AcDbArc
 50
270.0
 51
90.0
  0
ARC
  5
404
330
2
100
AcDbEntity
  8
GAIKEI
  6
S10
 62
     1
100
AcDbCircle
 10
-46.79909997839172
 20
13.83496865770439
 30
0.0
 40
0.3
100
AcDbArc
 50
90.0
 51
270.0
  0
ARC
  5
405
330
2
100
AcDbEntity
  8
GAIKEI
  6
S10
 62
     1
100
AcDbCircle
 10
-46.39909997839175
 20
13.83496865770439
 30
0.0
 40
0.3
100
AcDbArc
 50
270.0
 51
90.0
  0
ARC
  5
406
330
2
100
AcDbEntity
  8
GAIKEI
  6
S10
 62
     1
100
AcDbCircle
 10
-46.79909997839172
 20
6.234968657704371
 30
0.0
 40
0.3
100
AcDbArc
 50
90.0
 51
270.0
  0
ARC
  5
407
330
2
100
AcDbEntity
  8
GAIKEI
  6
S10
 62
     1
100
AcDbCircle
 10
-46.39909997839175
 20
6.234968657704371
 30
0.0
 40
0.3
100
AcDbArc
 50
270.0
 51
90.0
  0
ARC
  5
408
330
2
100
AcDbEntity
  8
GAIKEI
  6
HIDDEN2
 62
     1
100
AcDbCircle
 10
0.1009000216082541
 20
13.83496865770439
 30
0.0
 40
0.3
100
AcDbArc
 50
270.0
 51
90.0
  0
ARC
  5
409
330
2
100
AcDbEntity
  8
GAIKEI
  6
HIDDEN2
 62
     1
100
AcDbCircle
 10
-0.2990999783917232
 20
13.83496865770439
 30
0.0
 40
0.3
100
AcDbArc
 50
90.0
 51
270.0
  0
ARC
  5
40A
330
2
100
AcDbEntity
  8
GAIKEI
  6
HIDDEN2
 62
     1
100
AcDbCircle
 10
0.1009000216082541
 20
6.234968657704371
 30
0.0
 40
0.3
100
AcDbArc
 50
270.0
 51
90.0
  0
ARC
  5
40B
330
2
100
AcDbEntity
  8
GAIKEI
  6
HIDDEN2
 62
     1
100
AcDbCircle
 10
-0.2990999783917232
 20
6.234968657704371
 30
0.0
 40
0.3
100
AcDbArc
 50
90.0
 51
270.0
  0
ARC
  5
40C
330
2
100
AcDbEntity
  8
GAIKEI
  6
Continuous
 62
     1
100
AcDbCircle
 10
30.66347693700038
 20
7.284969209934388
 30
0.0
 40
0.035
100
AcDbArc
 50
90.0
 51
180.0
  0
ARC
  5
40D
330
2
100
AcDbEntity
  8
GAIKEI
  6
Continuous
 62
     1
100
AcDbCircle
 10
30.66347693700038
 20
7.424969209934147
 30
0.0
 40
0.0350000000001
100
AcDbArc
 50
180.0
 51
270.0
  0
ARC
  5
40E
330
2
100
AcDbEntity
  8
GAIKEI
  6
Continuous
 62
     1
100
AcDbCircle
 10
30.52347693700062
 20
7.424969209934147
 30
0.0
 40
0.0349999999998
100
AcDbArc
 50
270.0
 51
0.0
  0
ARC
  5
40F
330
2
100
AcDbEntity
  8
GAIKEI
  6
Continuous
 62
     1
100
AcDbCircle
 10
30.52347693700062
 20
7.284969209934388
 30
0.0
 40
0.0349999999996
100
AcDbArc
 50
0.0
 51
90.0
  0
ARC
  5
410
330
2
100
AcDbEntity
  8
GAIKEI
  6
Continuous
 62
     1
100
AcDbCircle
 10
29.19347693700024
 20
7.354969209934324
 30
0.0
 40
0.6000000000000001
100
AcDbArc
 50
90.0
 51
270.0
  0
ARC
  5
411
330
2
100
AcDbEntity
  8
GAIKEI
  6
Continuous
 62
     1
100
AcDbCircle
 10
29.19347693700024
 20
7.354969209934324
 30
0.0
 40
0.95
100
AcDbArc
 50
90.0
 51
270.0
  0
ARC
  5
412
330
2
100
AcDbEntity
  8
GAIKEI
  6
Continuous
 62
     1
100
AcDbCircle
 10
59.30660997215614
 20
6.134975223730066
 30
0.0
 40
0.8568549215006001
100
AcDbArc
 50
339.2754553012977
 51
13.54353115280392
  0
ARC
  5
413
330
2
100
AcDbEntity
  8
GAIKEI
  6
Continuous
 62
     1
100
AcDbCircle
 10
59.30660997215614
 20
13.43498082462224
 30
0.0
 40
0.8568549215007999
100
AcDbArc
 50
339.2754553013116
 51
20.7245446987039
  0
ARC
  5
414
330
2
100
AcDbEntity
  8
GAIKEI
  6
Continuous
 62
     1
100
AcDbCircle
 10
53.36347693700043
 20
7.284968657704666
 30
0.0
 40
0.0350000000001
100
AcDbArc
 50
90.0
 51
180.0
  0
ARC
  5
415
330
2
100
AcDbEntity
  8
GAIKEI
  6
Continuous
 62
     1
100
AcDbCircle
 10
53.36347693700043
 20
7.424968657704539
 30
0.0
 40
0.035
100
AcDbArc
 50
180.0
 51
270.0
  0
ARC
  5
416
330
2
100
AcDbEntity
  8
GAIKEI
  6
Continuous
 62
     1
100
AcDbCircle
 10
53.22347693700044
 20
7.424968657704539
 30
0.0
 40
0.0349999999998
100
AcDbArc
 50
270.0
 51
0.0
  0
ARC
  5
417
330
2
100
AcDbEntity
  8
GAIKEI
  6
Continuous
 62
     1
100
AcDbCircle
 10
53.22347693700044
 20
7.284968657704666
 30
0.0
 40
0.035
100
AcDbArc
 50
0.0
 51
90.0
  0
ARC
  5
418
330
2
100
AcDbEntity
  8
GAIKEI
  6
Continuous
 62
     1
100
AcDbCircle
 10
57.4934769370003
 20
7.354968657704944
 30
0.0
 40
0.95
100
AcDbArc
 50
270.0
 51
90.0
  0
ARC
  5
419
330
2
100
AcDbEntity
  8
GAIKEI
  6
Continuous
 62
     1
100
AcDbCircle
 10
-15.29909997839161
 20
10.03496865770421
 30
0.0
 40
0.75
100
AcDbArc
 50
74.53399004660041
 51
105.4660099533933
  0
ARC
  5
41A
330
2
100
AcDbEntity
  8
GAIKEI
  6
Continuous
 62
     1
100
AcDbCircle
 10
-15.29909997839161
 20
10.03496865770421
 30
0.0
 40
0.7499999999999001
100
AcDbArc
 50
254.5339900466067
 51
285.4660099533996
  0
ARC
  5
41B
330
2
100
AcDbEntity
  8
GAIKEI
  6
Continuous
 62
     1
100
AcDbCircle
 10
-15.29909997839161
 20
10.03496865770421
 30
0.0
 40
0.7499999999999001
100
AcDbArc
 50
164.5339900466006
 51
195.4660099533926
  0
ARC
  5
41C
330
2
100
AcDbEntity
  8
GAIKEI
  6
Continuous
 62
     1
100
AcDbCircle
 10
-15.29909997839161
 20
10.03496865770421
 30
0.0
 40
0.75
100
AcDbArc
 50
344.5339900466074
 51
15.4660099533994
  0
ARC
  5
41D
330
2
100
AcDbEntity
  8
GAIKEI
  6
Continuous
 62
     1
100
AcDbCircle
 10
-28.79909997839161
 20
10.03496865770421
 30
0.0
 40
10.4
100
AcDbArc
 50
157.975687163
 51
202.024312837
  0
ARC
  5
41E
330
2
100
AcDbEntity
  8
GAIKEI
  6
Continuous
 62
     1
100
AcDbCircle
 10
-28.79909997839161
 20
10.03496865770421
 30
0.0
 40
10.45
100
AcDbArc
 50
158.0865399486964
 51
201.9134600513035
  0
ARC
  5
41F
330
2
100
AcDbEntity
  8
GAIKEI
  6
Continuous
100
AcDbCircle
 10
44.20954155732284
 20
10.03496891206941
 30
0.0
 40
19.9999999999999
100
AcDbArc
 50
168.7552764076007
 51
180.0000002246731
  0
ARC
  5
420
330
2
100
AcDbEntity
  8
GAIKEI
  6
Continuous
100
AcDbCircle
 10
44.20954155732284
 20
10.03496891206941
 30
0.0
 40
19.9999999999999
100
AcDbArc
 50
180.0000002246731
 51
191.2447235923993
  0
CIRCLE
  5
421
330
2
100
AcDbEntity
  8
GAIKEI
  6
Continuous
 62
     1
100
AcDbCircle
 10
30.59347693700033
 20
7.354969209934324
 30
0.0
 40
0.25
  0
CIRCLE
  5
422
330
2
100
AcDbEntity
  8
GAIKEI
  6
Continuous
 62
     1
100
AcDbCircle
 10
53.29347693700026
 20
7.354972203570355
 30
0.0
 40
0.25
  0
CIRCLE
  5
423
330
2
100
AcDbEntity
  8
GAIKEI
  6
S10
 62
     1
100
AcDbCircle
 10
26.69347743096023
 20
12.03496883364187
 30
0.0
 40
0.25
  0
CIRCLE
  5
424
330
2
100
AcDbEntity
  8
GAIKEI
  6
S10
 62
     1
100
AcDbCircle
 10
26.69347743096023
 20
8.034968833641869
 30
0.0
 40
0.25
  0
CIRCLE
  5
425
330
2
100
AcDbEntity
  8
GAIKEI
  6
Continuous
 62
     1
100
AcDbCircle
 10
30.59347693700033
 20
7.354969209934324
 30
0.0
 40
0.4999999999998
  0
CIRCLE
  5
426
330
2
100
AcDbEntity
  8
GAIKEI
  6
Continuous
 62
     1
100
AcDbCircle
 10
27.39347671240296
 20
12.03496920993461
 30
0.0
 40
0.25
  0
CIRCLE
  5
427
330
2
100
AcDbEntity
  8
GAIKEI
  6
Continuous
 62
     1
100
AcDbCircle
 10
27.39347671240296
 20
8.034969209934615
 30
0.0
 40
0.25
  0
CIRCLE
  5
428
330
2
100
AcDbEntity
  8
GAIKEI
  6
Continuous
 62
     1
100
AcDbCircle
 10
53.29347693700026
 20
7.354968657704375
 30
0.0
 40
0.5
  0
CIRCLE
  5
429
330
2
100
AcDbEntity
  8
GAIKEI
  6
Continuous
 62
     1
100
AcDbCircle
 10
-15.29909997839161
 20
10.03496865770421
 30
0.0
 40
1.2921891992601
  0
CIRCLE
  5
42A
330
2
100
AcDbEntity
  8
GAIKEI
  6
Continuous
 62
     1
100
AcDbCircle
 10
-15.29909997839161
 20
10.03496865770421
 30
0.0
 40
0.54093707777
  0
CIRCLE
  5
42B
330
2
100
AcDbEntity
  8
GAIKEI
  6
Continuous
 62
     1
100
AcDbCircle
 10
-28.59826983898768
 20
8.73496865770403
 30
0.0
 40
0.1
  0
SPLINE
  5
42C
330
2
100
AcDbEntity
  8
GAIKEI
  6
Continuous
 62
     1
100
AcDbSpline
210
0.0
220
0.0
230
1.0
 70
     8
 71
     3
 72
    83
 73
    79
 74
    77
 42
0.0000000001
 43
0.0000000001
 44
0.00000000001
 40
0.0
 40
0.0
 40
0.0
 40
0.0
 40
0.1007051391640497
 40
0.1970687725042469
 40
0.2729679685501039
 40
0.3465961554936132
 40
0.4119978370738168
 40
0.4794208448846609
 40
0.5478560061877135
 40
0.6162938722164975
 40
0.6847555506280055
 40
0.7532198810267851
 40
0.8217041163684031
 40
0.8901872391934563
 40
0.9586787868435216
 40
1.027168153959381
 40
1.095668134181627
 40
1.164163359677962
 40
1.232702441719264
 40
1.301242822017853
 40
1.369880959002779
 40
1.438529990609771
 40
1.50728139112236
 40
1.576046385139904
 40
1.64480375055662
 40
1.713554693518046
 40
1.782149447150691
 40
1.850720112695596
 40
1.919127395091705
 40
1.987530391656868
 40
2.055898987745893
 40
2.124288203610237
 40
2.192692544533748
 40
2.261106921923867
 40
2.329436601246298
 40
2.397752742889448
 40
2.465904050391097
 40
2.53404190463458
 40
2.602058240004555
 40
2.670069898680225
 40
2.738082521450159
 40
2.806099230443726
 40
2.874242380657057
 40
2.94239967198943
 40
3.010729306415004
 40
3.079073101089309
 40
3.147505337631142
 40
3.21592718303708
 40
3.284332974058684
 40
3.352718080259636
 40
3.421134184568873
 40
3.489554582922004
 40
3.558132457874414
 40
3.626734218477209
 40
3.695484412753217
 40
3.764240689265168
 40
3.832997139894521
 40
3.901739388697164
 40
3.97037647897499
 40
4.039003059633548
 40
4.10753494936636
 40
4.176066283193189
 40
4.244557282003624
 40
4.313052960044473
 40
4.38153909918286
 40
4.450027204702766
 40
4.518507157876735
 40
4.586988178385149
 40
4.655449928020426
 40
4.723909096799831
 40
4.79234533880098
 40
4.860779102687871
 40
4.928200649112646
 40
4.993601192595709
 40
5.067224344185238
 40
5.143117601500419
 40
5.239468309861385
 40
5.340159384879573
 40
5.340159384879573
 40
5.340159384879573
 40
5.340159384879573
 10
-13.59909997839167
 20
10.03496865770421
 30
0.0
 10
-13.59960842408706
 20
10.00139366526602
 30
0.0
 10
-13.6006033958423
 20
9.935691134078837
 30
0.0
 10
-13.60900557146341
 20
9.845003001144846
 30
0.0
 10
-13.62053929978818
 20
9.763842620365352
 30
0.0
 10
-13.63330737290724
 20
9.693323130806646
 30
0.0
 10
-13.64852084027714
 20
9.626188319258631
 30
0.0
 10
-13.66597691156558
 20
9.561394876942244
 30
0.0
 10
-13.68621485920306
 20
9.496354325216401
 30
0.0
 10
-13.70919565665213
 20
9.431862695562699
 30
0.0
 10
-13.73475200473135
 20
9.368337567154867
 30
0.0
 10
-13.76286947912303
 20
9.30588659943811
 30
0.0
 10
-13.79348234285827
 20
9.244612480668166
 30
0.0
 10
-13.82654418349715
 20
9.184613950386392
 30
0.0
 10
-13.86199115575846
 20
9.125991022191186
 30
0.0
 10
-13.89977033080544
 20
9.068836492928966
 30
0.0
 10
-13.93981628782011
 20
9.013245136677312
 30
0.0
 10
-13.98207854081642
 20
8.959298335832585
 30
0.0
 10
-14.0264918824746
 20
8.907090210437075
 30
0.0
 10
-14.07302095712261
 20
8.856693631949326
 30
0.0
 10
-14.12158091610512
 20
8.808198723360106
 30
0.0
 10
-14.1721318188094
 20
8.761679012369995
 30
0.0
 10
-14.22455246151826
 20
8.717211974471524
 30
0.0
 10
-14.27874733108353
 20
8.674866844403538
 30
0.0
 10
-14.33459584230464
 20
8.63472828822563
 30
0.0
 10
-14.39195961581296
 20
8.596889756102825
 30
0.0
 10
-14.45073843683269
 20
8.561409531572081
 30
0.0
 10
-14.51079073945281
 20
8.528366892495597
 30
0.0
 10
-14.57206891594633
 20
8.497799448771218
 30
0.0
 10
-14.63447895790971
 20
8.469778734444645
 30
0.0
 10
-14.69796943990288
 20
8.444316460529876
 30
0.0
 10
-14.76244894434779
 20
8.421473232391576
 30
0.0
 10
-14.82781098033219
 20
8.401243690595691
 30
0.0
 10
-14.89391101816547
 20
8.383651550693912
 30
0.0
 10
-14.96063087495141
 20
8.368714614908526
 30
0.0
 10
-15.02780542771521
 20
8.356457090646301
 30
0.0
 10
-15.09535096171032
 20
8.346889881636087
 30
0.0
 10
-15.16312427198453
 20
8.340027093333958
 30
0.0
 10
-15.23107224061432
 20
8.335889565266199
 30
0.0
 10
-15.29909051637384
 20
8.33451575446287
 30
0.0
 10
-15.36710893175427
 20
8.335888824367572
 30
0.0
 10
-15.43505915449788
 20
8.340025729369074
 30
0.0
 10
-15.5028363921044
 20
8.346888334375449
 30
0.0
 10
-15.57039016350742
 20
8.356456296473197
 30
0.0
 10
-15.63757574776168
 20
8.368715804761222
 30
0.0
 10
-15.70431028046416
 20
8.383656610450628
 30
0.0
 10
-15.77042597214558
 20
8.401254114012772
 30
0.0
 10
-15.83580400097061
 20
8.421490588172616
 30
0.0
 10
-15.90029854502305
 20
8.444341903890403
 30
0.0
 10
-15.9638021115145
 20
8.46981295448802
 30
0.0
 10
-16.02622357146193
 20
8.497843041689066
 30
0.0
 10
-16.08750976581697
 20
8.528419401110681
 30
0.0
 10
-16.14756775080687
 20
8.561470623136557
 30
0.0
 10
-16.20634781045363
 20
8.596957492170531
 30
0.0
 10
-16.26371017849563
 20
8.63480128363534
 30
0.0
 10
-16.31955286540564
 20
8.67494201298831
 30
0.0
 10
-16.37373973610982
 20
8.717287199195027
 30
0.0
 10
-16.42614985523797
 20
8.76175136105752
 30
0.0
 10
-16.47668986604834
 20
8.808266821376264
 30
0.0
 10
-16.52523966014002
 20
8.856756804567226
 30
0.0
 10
-16.57176001894544
 20
8.907148810991031
 30
0.0
 10
-16.61616666880805
 20
8.959353663737715
 30
0.0
 10
-16.65842345757782
 20
9.01329784826936
 30
0.0
 10
-16.69846504637775
 20
9.068887517594248
 30
0.0
 10
-16.73624019039985
 20
9.126040323886627
 30
0.0
 10
-16.77168350374195
 20
9.18466162871806
 30
0.0
 10
-16.80474184235618
 20
9.244658346398125
 30
0.0
 10
-16.83535149611098
 20
9.305930725803534
 30
0.0
 10
-16.86346600342276
 20
9.368379991312281
 30
0.0
 10
-16.88901973576539
 20
9.431903757530164
 30
0.0
 10
-16.91199819227209
 20
9.49639426200585
 30
0.0
 10
-16.93223408111186
 20
9.56143388734975
 30
0.0
 10
-16.94968829484473
 20
9.626226448502904
 30
0.0
 10
-16.96489975017797
 20
9.693359104020316
 30
0.0
 10
-16.97766578459267
 20
9.763874855196377
 30
0.0
 10
-16.98919696467521
 20
9.845027550977221
 30
0.0
 10
-16.99759698519742
 20
9.935704826247388
 30
0.0
 10
-16.99859167707993
 20
10.00139835594575
 30
0.0
 10
-16.99909997838154
 20
10.03496865770421
 30
0.0
 11
-13.59909997839167
 21
10.03496865770421
 31
0.0
 11
-13.60194952973313
 21
9.934303842047484
 31
0.0
 11
-13.61050471532974
 21
9.838320725667927
 31
0.0
 11
-13.62112740315069
 21
9.763168570250627
 31
0.0
 11
-13.63435303619599
 21
9.690737965233552
 31
0.0
 11
-13.64879195465778
 21
9.626950054253711
 31
0.0
 11
-13.66630161846046
 21
9.561840349479552
 31
0.0
 11
-13.68665451281731
 21
9.496501762152661
 31
0.0
 11
-13.70962152643494
 21
9.432032716928915
 31
0.0
 11
-13.73517750684482
 21
9.368519779064172
 31
0.0
 11
-13.76328202481693
 21
9.306089813450626
 31
0.0
 11
-13.79388998650006
 21
9.244826095216012
 31
0.0
 11
-13.82694015929337
 21
9.184845896898536
 31
0.0
 11
-13.86237974206881
 21
9.126235931259543
 31
0.0
 11
-13.90014600426923
 21
9.06910010320621
 31
0.0
 11
-13.94018493362853
 21
9.013520147950657
 31
0.0
 11
-13.98242638434817
 21
8.959601173953615
 31
0.0
 11
-14.02683890548201
 21
8.907398360489196
 31
0.0
 11
-14.07333260928431
 21
8.857038463366393
 31
0.0
 11
-14.12190165161883
 21
8.808538546093586
 31
0.0
 11
-14.1724125863484
 21
8.762048385701064
 31
0.0
 11
-14.22484006235061
 21
8.717572382817706
 31
0.0
 11
-14.27902500660491
 21
8.675233084070669
 31
0.0
 11
-14.33485803258554
 21
8.635105182195616
 31
0.0
 11
-14.39224826714292
 21
8.597249493910567
 31
0.0
 11
-14.45097418479997
 21
8.561802253943824
 31
0.0
 11
-14.51105271527024
 21
8.528749170126957
 31
0.0
 11
-14.57226893512438
 21
8.498218354356822
 31
0.0
 11
-14.6346704989038
 21
8.470200239199357
 31
0.0
 11
-14.69812775639775
 21
8.44475536933271
 31
0.0
 11
-14.76258883688194
 21
8.421911246470358
 31
0.0
 11
-14.82793397490718
 21
8.401683374767117
 31
0.0
 11
-14.89404651129644
 21
8.38408622824113
 31
0.0
 11
-14.96072542135971
 21
8.36915746308523
 31
0.0
 11
-15.02793201977852
 21
8.356894986256293
 31
0.0
 11
-15.09540990627874
 21
8.347338022949543
 31
0.0
 11
-15.16320149104035
 21
8.340477394959634
 31
0.0
 11
-15.23109246265164
 21
8.336349701798098
 31
0.0
 11
-15.29909019749846
 21
8.334973558085266
 31
0.0
 11
-15.36708891141984
 21
8.336348971144388
 31
0.0
 11
-15.43498030087221
 21
8.340475948312018
 31
0.0
 11
-15.50277721499844
 21
8.347336513591699
 31
0.0
 11
-15.57026108243576
 21
8.356893918964942
 31
0.0
 11
-15.63748095797177
 21
8.369158798648641
 31
0.0
 11
-15.70417352148047
 21
8.384091187711419
 31
0.0
 11
-15.77030301490572
 21
8.401694059563396
 31
0.0
 11
-15.83566431476151
 21
8.421928915874104
 31
0.0
 11
-15.90014015040685
 21
8.444781024379153
 31
0.0
 11
-15.96361151384155
 21
8.470235076588096
 31
0.0
 11
-16.0260234492448
 21
8.498262092984305
 31
0.0
 11
-16.08724944668552
 21
8.528802691344367
 31
0.0
 11
-16.14733198790714
 21
8.561863441083914
 31
0.0
 11
-16.20606129683551
 21
8.597318621672911
 31
0.0
 11
-16.26344805730355
 21
8.63517821670473
 31
0.0
 11
-16.31927718925544
 21
8.675309670519482
 31
0.0
 11
-16.3734523420926
 21
8.717647624157052
 31
0.0
 11
-16.42586984754109
 21
8.762121233106654
 31
0.0
 11
-16.47636913652798
 21
8.808606413257166
 31
0.0
 11
-16.52492737858574
 21
8.857100791293646
 31
0.0
 11
-16.57141289914125
 21
8.907456687562444
 31
0.0
 11
-16.61581813904127
 21
8.959655522659659
 31
0.0
 11
-16.65805485647161
 21
9.013572835452123
 31
0.0
 11
-16.69808920069999
 21
9.06915079144619
 31
0.0
 11
-16.73585166986902
 21
9.126285257194467
 31
0.0
 11
-16.77128750838051
 21
9.184893464356036
 31
0.0
 11
-16.80433423247098
 21
9.24487194394328
 31
0.0
 11
-16.83493888444786
 21
9.306133721972059
 31
0.0
 11
-16.86304051610114
 21
9.368562156691723
 31
0.0
 11
-16.88859378373922
 21
9.432073480902317
 31
0.0
 11
-16.91155854094029
 21
9.496541605940478
 31
0.0
 11
-16.93190939464125
 21
9.561879365263621
 31
0.0
 11
-16.94941716451455
 21
9.626988066036801
 31
0.0
 11
-16.96385445474959
 21
9.690775178673675
 31
0.0
 11
-16.97707778963297
 21
9.763201084705542
 31
0.0
 11
-16.98769834684663
 21
9.83834754350687
 31
0.0
 11
-16.996251226445
 21
9.934317889198837
 31
0.0
 11
-16.99909997838154
 21
10.03496865770421
 31
0.0
  0
SPLINE
  5
42D
330
2
100
AcDbEntity
  8
GAIKEI
  6
Continuous
 62
     1
100
AcDbSpline
210
0.0
220
0.0
230
1.0
 70
     8
 71
     3
 72
    83
 73
    79
 74
    77
 42
0.0000000001
 43
0.0000000001
 44
0.00000000001
 40
0.0
 40
0.0
 40
0.0
 40
0.0
 40
0.1006916171909065
 40
0.1970428337209281
 40
0.2729364013791637
 40
0.34655984157975
 40
0.4119605511997168
 40
0.4793822698518023
 40
0.5478161756842236
 40
0.6162525473292101
 40
0.6847119289775357
 40
0.7531739021209286
 40
0.8216553750096034
 40
0.8901358312197462
 40
0.9586245576684198
 40
1.02711136400455
 40
1.0956072637837
 40
1.164098438500521
 40
1.232628879213168
 40
1.301159708251685
 40
1.36978452365903
 40
1.438419863882123
 40
1.507160762325494
 40
1.575916020614353
 40
1.644671722412466
 40
1.71342128755343
 40
1.782022795033418
 40
1.850600415038539
 40
1.919021060220037
 40
1.987437487995923
 40
2.055823159640453
 40
2.124229467853564
 40
2.192651664129586
 40
2.261084208509012
 40
2.329428188344206
 40
2.397758017145578
 40
2.465915560040876
 40
2.534058978690171
 40
2.602076057642014
 40
2.6700890568396
 40
2.738101136412084
 40
2.806117890439696
 40
2.874256133399277
 40
2.942407815224643
 40
3.010724300372654
 40
3.07905431510516
 40
3.147469115536733
 40
3.215873918467561
 40
3.284263676699097
 40
3.352632855603192
 40
3.421036105753136
 40
3.489443557060853
 40
3.558013872533972
 40
3.626608280630768
 40
3.695358583422474
 40
3.764115380713935
 40
3.832879281013677
 40
3.90162944437755
 40
3.970276796289726
 40
4.038913234079021
 40
4.107452385040111
 40
4.175990368934829
 40
4.244485317410741
 40
4.312985041141475
 40
4.381474622169676
 40
4.449966359529141
 40
4.518449865758209
 40
4.586934468834821
 40
4.655399273592291
 40
4.723861427015848
 40
4.792299846440058
 40
4.860735565486639
 40
4.928159145346644
 40
4.993561394765671
 40
5.06719009135482
 40
5.143089783235845
 40
5.239453830485276
 40
5.340159376275978
 40
5.340159376275978
 40
5.340159376275978
 40
5.340159376275978
 10
-16.99909997838154
 20
10.03496865770421
 30
0.0
 10
-16.99859166263557
 20
10.06853914000206
 30
0.0
 10
-16.99759694254062
 20
10.13423301945192
 30
0.0
 10
-16.98919686113061
 20
10.22491074478674
 30
0.0
 10
-16.97766562307316
 20
10.30606380472511
 30
0.0
 10
-16.96489957276329
 20
10.37657981208363
 30
0.0
 10
-16.94968807551053
 20
10.44371267330578
 30
0.0
 10
-16.93223375031623
 20
10.50850537117713
 30
0.0
 10
-16.91199770229585
 20
10.57354510266645
 30
0.0
 10
-16.88901902250129
 20
10.63803569974209
 30
0.0
 10
-16.86346503497635
 20
10.70155956660528
 30
0.0
 10
-16.83535024479445
 20
10.76400902946699
 30
0.0
 10
-16.80474026042712
 20
10.8252816830971
 30
0.0
 10
-16.77168152333814
 20
10.88527878120874
 30
0.0
 10
-16.73623775738059
 20
10.94390051041586
 30
0.0
 10
-16.69846218699237
 20
11.00105363851378
 30
0.0
 10
-16.65842024542829
 20
11.05664349127533
 30
0.0
 10
-16.61616341154195
 20
11.11058743076108
 30
0.0
 10
-16.5717570195895
 20
11.16279172390966
 30
0.0
 10
-16.52523740119112
 20
11.21318272586856
 30
0.0
 10
-16.47668861677241
 20
11.26167155962341
 30
0.0
 10
-16.42614978195375
 20
11.30818590068742
 30
0.0
 10
-16.37374076810936
 20
11.35264915216009
 30
0.0
 10
-16.31955475719415
 20
11.39499374930307
 30
0.0
 10
-16.26371278566596
 20
11.43513410441011
 30
0.0
 10
-16.20635089862505
 20
11.47297774221559
 30
0.0
 10
-16.14757124667203
 20
11.50846455222517
 30
0.0
 10
-16.08751343157674
 20
11.54151590150627
 30
0.0
 10
-16.02622723136812
 20
11.57209248507794
 30
0.0
 10
-15.96380550366694
 20
11.60012290054777
 30
0.0
 10
-15.90030156808354
 20
11.62559429133767
 30
0.0
 10
-15.83580662093264
 20
11.64844590193325
 30
0.0
 10
-15.77042825228972
 20
11.66868260504236
 30
0.0
 10
-15.70431231370732
 20
11.68628027604384
 30
0.0
 10
-15.63757757416249
 20
11.70122120782213
 30
0.0
 10
-15.57039179427031
 20
11.71348081712369
 30
0.0
 10
-15.50283779377632
 20
11.7230488617275
 30
0.0
 10
-15.43506026429501
 20
11.72991153135712
 30
0.0
 10
-15.36710970495574
 20
11.73404847875548
 30
0.0
 10
-15.29909090048521
 20
11.73542156596863
 30
0.0
 10
-15.23107221923666
 20
11.73404774275181
 30
0.0
 10
-15.16312384288173
 20
11.72991016912533
 30
0.0
 10
-15.09535014382464
 20
11.72304730790671
 30
0.0
 10
-15.02780425064699
 20
11.71348000285658
 30
0.0
 10
-14.9606293622431
 20
11.70122236112774
 30
0.0
 10
-14.89390916044358
 20
11.6862852840664
 30
0.0
 10
-14.82780874885097
 20
11.66869296559633
 30
0.0
 10
-14.76244628406984
 20
11.64846319895892
 30
0.0
 10
-14.69796631630214
 20
11.62561969279716
 30
0.0
 10
-14.63447545769193
 20
11.60015712202218
 30
0.0
 10
-14.57206517110396
 20
11.57213613373909
 30
0.0
 10
-14.51078704955834
 20
11.54156852498877
 30
0.0
 10
-14.45073498685687
 20
11.5085258146785
 30
0.0
 10
-14.39195662793264
 20
11.47304568690876
 30
0.0
 10
-14.33459336447687
 20
11.43520732281863
 30
0.0
 10
-14.27874554948336
 20
11.39506911366811
 30
0.0
 10
-14.22455148849363
 20
11.35272451996732
 30
0.0
 10
-14.17213188263101
 20
11.30825832786084
 30
0.0
 10
-14.12158208558327
 20
11.26173969031859
 30
0.0
 10
-14.07302310687892
 20
11.21324597642075
 30
0.0
 10
-14.02649478585567
 20
11.16285053021769
 30
0.0
 10
-13.98208180877863
 20
11.11064323569809
 30
0.0
 10
-13.93981966569456
 20
11.05669703973535
 30
0.0
 10
-13.89977354882963
 20
11.00110592980942
 30
0.0
 10
-13.86199413325117
 20
10.94395150018101
 30
0.0
 10
-13.82654683873879
 20
10.88532845962439
 30
0.0
 10
-13.79348468980708
 20
10.82532974034203
 30
0.0
 10
-13.76287152414434
 20
10.76405531506114
 30
0.0
 10
-13.73475378249208
 20
10.70160398540628
 30
0.0
 10
-13.70919719891181
 20
10.63807841122144
 30
0.0
 10
-13.68621617879386
 20
10.57358629983542
 30
0.0
 10
-13.66597798247045
 20
10.50854523817261
 30
0.0
 10
-13.64852165786796
 20
10.44375127847576
 30
0.0
 10
-13.63330790641542
 20
10.37661596785383
 30
0.0
 10
-13.62053957370141
 20
10.30609599145387
 30
0.0
 10
-13.60900566512724
 20
10.22493515761124
 30
0.0
 10
-13.60060338120397
 20
10.13424659156811
 30
0.0
 10
-13.59960841909412
 20
10.06854378608457
 30
0.0
 10
-13.59909997839167
 20
10.03496865770421
 30
0.0
 11
-16.99909997838154
 21
10.03496865770421
 31
0.0
 11
-16.9962511783109
 21
10.13561996723706
 31
0.0
 11
-16.98769823317934
 21
10.23159081727181
 31
0.0
 11
-16.97707763127414
 21
10.30673758318403
 31
0.0
 11
-16.96385426409301
 21
10.37916377670103
 31
0.0
 11
-16.9494169326864
 21
10.44295105035849
 31
0.0
 11
-16.93190905315157
 21
10.50805989998889
 31
0.0
 11
-16.9115580399183
 21
10.57339775829371
 31
0.0
 11
-16.88859307664847
 21
10.6378659475497
 31
0.0
 11
-16.86303955161759
 21
10.70137739765255
 31
0.0
 11
-16.83493766486049
 21
10.76380596264789
 31
0.0
 11
-16.80433265723752
 21
10.8250680686956
 31
0.0
 11
-16.77128554457795
 21
10.88504690852778
 31
0.0
 11
-16.73584924058355
 21
10.94365555984973
 31
0.0
 11
-16.69808625510609
 21
11.00079048410759
 31
0.0
 11
-16.65805163378945
 21
11.0563685137829
 31
0.0
 11
-16.61581466177097
 21
11.11028585059398
 31
0.0
 11
-16.57140987193725
 21
11.16248389599889
 31
0.0
 11
-16.52492496893251
 21
11.21283891880046
 31
0.0
 11
-16.47636790788806
 21
11.2613319813189
 31
0.0
 11
-16.42586988627011
 21
11.3078159542581
 31
0.0
 11
-16.37345342480648
 21
11.35228870643777
 31
0.0
 11
-16.319279253633
 21
11.39462597985061
 31
0.0
 11
-16.26345065330236
 21
11.43475718858985
 31
0.0
 11
-16.20606449390084
 21
11.47261655224292
 31
0.0
 11
-16.14733548587526
 21
11.5080717414944
 31
0.0
 11
-16.08725325979139
 21
11.5411325351082
 31
0.0
 11
-16.02602712967018
 21
11.57167342044954
 31
0.0
 11
-15.96361497712803
 21
11.59970074291652
 31
0.0
 11
-15.90014315400594
 21
11.62515516799021
 31
0.0
 11
-15.83566687905943
 21
11.64800758520084
 31
0.0
 11
-15.77030527903503
 21
11.66824265835328
 31
0.0
 11
-15.70417551325818
 21
11.68584570378698
 31
0.0
 11
-15.63748278622984
 21
11.70077820998108
 31
0.0
 11
-15.57026273101917
 21
11.71304318782449
 31
0.0
 11
-15.50277862148186
 21
11.72260067773982
 31
0.0
 11
-15.43498144386387
 21
11.72946130542595
 31
0.0
 11
-15.36708968648827
 21
11.73358832730537
 31
0.0
 11
-15.29909059640647
 21
11.73496375738295
 31
0.0
 11
-15.23109244084094
 21
11.7335876006116
 31
0.0
 11
-15.16320105256648
 21
11.72945986193053
 31
0.0
 11
-15.09540908441727
 21
11.72259916166922
 31
0.0
 11
-15.02793083356027
 21
11.71304210161361
 31
0.0
 11
-14.96072390706808
 21
11.70077950912866
 31
0.0
 11
-14.89404468353211
 21
11.68585060890177
 31
0.0
 11
-14.82793175778886
 21
11.66825328047503
 31
0.0
 11
-14.76258620470389
 21
11.64802518723752
 31
0.0
 11
-14.69812464919755
 21
11.62518078108041
 31
0.0
 11
-14.63466690061773
 21
11.59973556995533
 31
0.0
 11
-14.57226516793821
 21
11.57171721187228
 31
0.0
 11
-14.51104887337169
 21
11.54118616744267
 31
0.0
 11
-14.45097073406396
 21
11.50813309888008
 31
0.0
 11
-14.39224519384413
 21
11.47268590226258
 31
0.0
 11
-14.33485557146468
 21
11.43483044853269
 31
0.0
 11
-14.27902307713384
 21
11.39470278038993
 31
0.0
 11
-14.22483904234957
 21
11.35236409407434
 31
0.0
 11
-14.1724125257856
 21
11.30788887261872
 31
0.0
 11
-14.12190279509013
 21
11.2613998843567
 31
0.0
 11
-14.07333485202366
 21
11.21290127098791
 31
0.0
 11
-14.02684182512325
 21
11.1625424220723
 31
0.0
 11
-13.98242981721455
 21
11.11034061377154
 31
0.0
 11
-13.94018831475444
 21
11.05642203221907
 31
0.0
 11
-13.90014931268808
 21
11.00084244545633
 31
0.0
 11
-13.86238272089349
 21
10.94370657884315
 31
0.0
 11
-13.82694285341233
 21
10.88509656366284
 31
0.0
 11
-13.79389233951769
 21
10.82511611554241
 31
0.0
 11
-13.76328409301232
 21
10.76385212853188
 31
0.0
 11
-13.73517929405329
 21
10.70142176920285
 31
0.0
 11
-13.70962308172875
 21
10.63790841263108
 31
0.0
 11
-13.68665583023585
 21
10.57343886468675
 31
0.0
 11
-13.66630268942856
 21
10.50809976995242
 31
0.0
 11
-13.64879276565693
 21
10.44298954271698
 31
0.0
 11
-13.63435357655692
 21
10.37920111079393
 31
0.0
 11
-13.62112769248858
 21
10.30677003354094
 31
0.0
 11
-13.61050482596408
 21
10.23161740261935
 31
0.0
 11
-13.60194953631401
 21
10.13563387996419
 31
0.0
 11
-13.59909997839167
 21
10.03496865770421
 31
0.0
  0
SPLINE
  5
42E
330
2
100
AcDbEntity
  8
GAIKEI
  6
Continuous
 62
     1
100
AcDbSpline
210
0.0
220
0.0
230
1.0
 70
     8
 71
     3
 72
    17
 73
    13
 74
    11
 42
0.0000000001
 43
0.0000000001
 44
0.00000000001
 40
0.0
 40
0.0
 40
0.0
 40
0.0
 40
0.0427717358242807
 40
0.0837584575637648
 40
0.1161207212020121
 40
0.1475432503121646
 40
0.1749106124982732
 40
0.2023141920584317
 40
0.2329611490501289
 40
0.2644468338971405
 40
0.3035320811277867
 40
0.3442651296821706
 40
0.3442651296821706
 40
0.3442651296821706
 40
0.3442651296821706
 10
-30.47409997839168
 20
6.134968657704348
 30
0.0
 10
-30.47365787275347
 20
6.149219064741288
 30
0.0
 10
-30.47279211209114
 20
6.177125159503873
 30
0.0
 10
-30.47178238838261
 20
6.215819044695649
 30
0.0
 10
-30.47097954969571
 20
6.250733674921463
 30
0.0
 10
-30.47035452376308
 20
6.281111335486173
 30
0.0
 10
-30.4698408660624
 20
6.30983793194261
 30
0.0
 10
-30.46940589357606
 20
6.338307274296511
 30
0.0
 10
-30.46903163947439
 20
6.368150374331492
 30
0.0
 10
-30.46869357623029
 20
6.401887998949518
 30
0.0
 10
-30.46844556021151
 20
6.438988669703149
 30
0.0
 10
-30.46841277287667
 20
6.46559478996545
 30
0.0
 10
-30.46839604077173
 20
6.479172483874208
 30
0.0
 11
-30.47409997839168
 21
6.134968657704348
 31
0.0
 11
-30.47280950209984
 21
6.177720921461514
 31
0.0
 11
-30.47173104681235
 21
6.218693452419984
 31
0.0
 11
-30.47098557968297
 21
6.251047128973823
 31
0.0
 11
-30.47034179276284
 21
6.282463062416582
 31
0.0
 11
-30.46985293875934
 21
6.309826058136877
 31
0.0
 11
-30.46943421241735
 21
6.337226438443735
 31
0.0
 11
-30.46904784269486
 21
6.367870959834817
 31
0.0
 11
-30.46873457479433
 21
6.399355086208402
 31
0.0
 11
-30.4684840174541
 21
6.438439530327514
 31
0.0
 11
-30.46839604077173
 21
6.479172483874208
 31
0.0
  0
ARC
  5
42F
330
2
100
AcDbEntity
  8
GAIKEI
  6
S10
 62
     1
100
AcDbCircle
 10
-47.1490999783914
 20
5.834968657704337
 30
0.0
 40
0.2000000000002
100
AcDbArc
 50
180.0
 51
269.9999999999479
  0
ARC
  5
430
330
2
100
AcDbEntity
  8
GAIKEI
  6
S10
 62
     1
100
AcDbCircle
 10
-47.14909997839163
 20
14.23496865770437
 30
0.0
 40
0.2
100
AcDbArc
 50
90.0
 51
180.0
  0
ARC
  5
431
330
2
100
AcDbEntity
  8
GAIKEI
  6
S10
 62
     1
100
AcDbCircle
 10
0.4509000216085042
 20
14.23496865770437
 30
0.0
 40
0.1999999999998
100
AcDbArc
 50
0.0
 51
90.00000000005213
  0
ARC
  5
432
330
2
100
AcDbEntity
  8
GAIKEI
  6
Continuous
100
AcDbCircle
 10
-38.44002865986636
 20
4.684968657704075
 30
0.0
 40
0.1
100
AcDbArc
 50
270.0
 51
354.5596679690468
  0
ARC
  5
433
330
2
100
AcDbEntity
  8
GAIKEI
  6
Continuous
100
AcDbCircle
 10
-40.25817129691688
 20
4.684968657704075
 30
0.0
 40
0.0999999999998
100
AcDbArc
 50
185.4403320309532
 51
270.0
  0
ARC
  5
434
330
2
100
AcDbEntity
  8
GAIKEI
  6
Continuous
100
AcDbCircle
 10
-8.258171296916998
 20
4.684968657704075
 30
0.0
 40
0.0999999999997
100
AcDbArc
 50
185.4403320309532
 51
270.0
  0
ARC
  5
435
330
2
100
AcDbEntity
  8
GAIKEI
  6
Continuous
100
AcDbCircle
 10
-6.440028659866584
 20
4.684968657704075
 30
0.0
 40
0.1
100
AcDbArc
 50
270.0
 51
354.5596679690598
  0
ARC
  5
436
330
2
100
AcDbEntity
  8
GAIKEI
  6
Phantom
 62
     1
100
AcDbCircle
 10
27.89347671240296
 20
5.83496883364188
 30
0.0
 40
0.2
100
AcDbArc
 50
270.0
 51
0.0
  0
ARC
  5
437
330
2
100
AcDbEntity
  8
GAIKEI
  6
Phantom
 62
     1
100
AcDbCircle
 10
27.89347671240296
 20
14.23496883364191
 30
0.0
 40
0.2
100
AcDbArc
 50
0.0
 51
90.0
  0
ARC
  5
438
330
2
100
AcDbEntity
  8
GAIKEI
  6
Continuous
100
AcDbCircle
 10
28.18440611243466
 20
4.684969209934536
 30
0.0
 40
0.1
100
AcDbArc
 50
185.4403320310579
 51
270.0
  0
ARC
  5
439
330
2
100
AcDbEntity
  8
GAIKEI
  6
Continuous
100
AcDbCircle
 10
30.0025487494853
 20
4.684969209934536
 30
0.0
 40
0.1000000000001
100
AcDbArc
 50
270.0
 51
354.5596679689682
  0
ARC
  5
43A
330
2
100
AcDbEntity
  8
GAIKEI
  6
Continuous
100
AcDbCircle
 10
25.37347671240264
 20
14.03496920993461
 30
0.0
 40
0.0299999999997
100
AcDbArc
 50
90.0
 51
180.0
  0
ARC
  5
43B
330
2
100
AcDbEntity
  8
GAIKEI
  6
Continuous
 62
     1
100
AcDbCircle
 10
60.14847527528218
 20
13.25992249578269
 30
0.0
 40
0.055
100
AcDbArc
 50
253.2754320207233
 51
259.9999999999745
  0
ARC
  5
43C
330
2
100
AcDbEntity
  8
GAIKEI
  6
Continuous
 62
     1
100
AcDbCircle
 10
60.14847527528218
 20
14.15001984323089
 30
0.0
 40
0.0550000000001
100
AcDbArc
 50
9.999999999998539
 51
99.99999999999866
  0
ARC
  5
43D
330
2
100
AcDbEntity
  8
GAIKEI
  6
Continuous
 62
     1
100
AcDbCircle
 10
60.14847527528218
 20
14.15001984323089
 30
0.0
 40
0.0550000000002
100
AcDbArc
 50
99.99999999999866
 51
180.0
  0
ARC
  5
43E
330
2
100
AcDbEntity
  8
GAIKEI
  6
Continuous
 62
     1
100
AcDbCircle
 10
60.14847527528218
 20
13.25992249578269
 30
0.0
 40
0.055
100
AcDbArc
 50
253.2754320207233
 51
349.9999999999882
  0
ARC
  5
43F
330
2
100
AcDbEntity
  8
GAIKEI
  6
Continuous
 62
     1
100
AcDbCircle
 10
60.14847527528218
 20
6.389922326714668
 30
0.0
 40
0.0549999999998
100
AcDbArc
 50
180.0
 51
259.9999999999415
  0
ARC
  5
440
330
2
100
AcDbEntity
  8
GAIKEI
  6
Continuous
 62
     1
100
AcDbCircle
 10
60.14847527528218
 20
6.389922326714668
 30
0.0
 40
0.055
100
AcDbArc
 50
259.9999999999415
 51
349.9999999999882
  0
ARC
  5
441
330
2
100
AcDbEntity
  8
GAIKEI
  6
Continuous
 62
     1
100
AcDbCircle
 10
60.14847527528218
 20
7.280019674162645
 30
0.0
 40
0.0550000000002
100
AcDbArc
 50
99.99999999997836
 51
180.0
  0
ARC
  5
442
330
2
100
AcDbEntity
  8
GAIKEI
  6
Continuous
 62
     1
100
AcDbCircle
 10
60.14847527528218
 20
7.280019674162645
 30
0.0
 40
0.0550000000002
100
AcDbArc
 50
10.00000000001175
 51
99.99999999997836
  0
ARC
  5
443
330
2
100
AcDbEntity
  8
GAIKEI
  6
Continuous
100
AcDbCircle
 10
60.01347693950084
 20
14.35497121063997
 30
0.0
 40
0.0800000000001
100
AcDbArc
 50
0.0000028317338351
 51
90.00000504153232
  0
ARC
  5
444
330
2
100
AcDbEntity
  8
GAIKEI
  6
Continuous
100
AcDbCircle
 10
60.01347693700006
 20
14.35496865770494
 30
0.0
 40
0.0799999999999
100
AcDbArc
 50
0.0
 51
90.0
  0
ARC
  5
445
330
2
100
AcDbEntity
  8
GAIKEI
  6
Continuous
100
AcDbCircle
 10
55.18440539387768
 20
4.784968657704837
 30
0.0
 40
0.1
100
AcDbArc
 50
185.4403320310514
 51
270.0
  0
ARC
  5
446
330
2
100
AcDbEntity
  8
GAIKEI
  6
Continuous
100
AcDbCircle
 10
57.00254803092798
 20
4.784968657704837
 30
0.0
 40
0.1000000000001
100
AcDbArc
 50
270.0
 51
354.5596679689617
  0
ARC
  5
447
330
2
100
AcDbEntity
  8
GAIKEI
  6
Continuous
 62
     1
100
AcDbCircle
 10
59.8834762413295
 20
5.73499505833098
 30
0.0
 40
0.1
100
AcDbArc
 50
270.0
 51
0.0
  0
ARC
  5
448
330
2
100
AcDbEntity
  8
GAIKEI
  6
Continuous
 62
     1
100
AcDbCircle
 10
60.49347693700031
 20
11.55497238248563
 30
0.0
 40
0.1
100
AcDbArc
 50
270.0
 51
0.0
  0
ARC
  5
449
330
2
100
AcDbEntity
  8
GAIKEI
  6
Continuous
 62
     1
100
AcDbCircle
 10
60.49347693700031
 20
12.71497238248548
 30
0.0
 40
0.1
100
AcDbArc
 50
0.0
 51
90.0
  0
ARC
  5
44A
330
2
100
AcDbEntity
  8
GAIKEI
  6
Continuous
 62
     1
100
AcDbCircle
 10
60.4934767477024
 20
10.03497238248576
 30
0.0
 40
0.1
100
AcDbArc
 50
0.0
 51
90.0
  0
ARC
  5
44B
330
2
100
AcDbEntity
  8
GAIKEI
  6
Continuous
 62
     1
100
AcDbCircle
 10
60.4934767477024
 20
7.234972382485693
 30
0.0
 40
0.1
100
AcDbArc
 50
270.0
 51
0.0
  0
ARC
  5
44C
330
2
100
AcDbEntity
  8
GAIKEI
  6
Continuous
 62
     1
100
AcDbCircle
 10
60.26347718218937
 20
10.93497238248574
 30
0.0
 40
0.1
100
AcDbArc
 50
0.0
 51
90.0
  0
ARC
  5
44D
330
2
100
AcDbEntity
  8
GAIKEI
  6
Continuous
 62
     1
100
AcDbCircle
 10
60.26347718218937
 20
6.33497238248583
 30
0.0
 40
0.1
100
AcDbArc
 50
270.0
 51
0.0
  0
ARC
  5
44E
330
2
100
AcDbEntity
  8
GAIKEI
  6
Continuous
100
AcDbCircle
 10
25.46347671240289
 20
5.964969696522473
 30
0.0
 40
0.1
100
AcDbArc
 50
180.0
 51
269.9999999979156
  0
ARC
  5
44F
330
2
100
AcDbEntity
  8
GAIKEI
  6
Continuous
100
AcDbCircle
 10
27.99347671240275
 20
14.38496865770435
 30
0.0
 40
0.1
100
AcDbArc
 50
270.0
 51
0.0
  0
ARC
  5
450
330
2
100
AcDbEntity
  8
GAIKEI
  6
Continuous
100
AcDbCircle
 10
25.46347671240289
 20
13.91496865770443
 30
0.0
 40
0.1
100
AcDbArc
 50
90.0
 51
180.0
  0
ARC
  5
451
330
2
100
AcDbEntity
  8
GAIKEI
  6
S10
 62
     1
100
AcDbCircle
 10
0.4509000216080495
 20
5.834968657704337
 30
0.0
 40
0.2
100
AcDbArc
 50
270.0000000000521
 51
0.0
  0
DIMENSION
  5
452
330
2
100
AcDbEntity
  8
SUNPO
100
AcDbDimension
  2
*D5
 10
8.650900021608322
 20
5.634968657704345
 30
0.0
 11
6.900900021608321
 21
10.03496865770432
 31
0.0
 70
    33
  1
88
 71
     5
 42
8.799999999999954
  3
STANDARD
100
AcDbAlignedDimension
 13
0.6509000216083223
 23
14.4349686577043
 33
0.0
 14
0.6509000216083223
 24
5.634968657704348
 34
0.0
1001
ACAD
1000
DSTYLE
1002
{
1070
    40
1040
1.0
1070
   140
1040
2.5
1070
   147
1040
0.5
1070
   172
1070
     1
1002
}
  0
DIMENSION
  5
45F
330
2
100
AcDbEntity
  8
SUNPO
100
AcDbDimension
  2
*D4
 10
-2.349099978391677
 20
22.4349686577043
 30
0.0
 11
-23.34909997839168
 21
24.18496865770431
 31
0.0
 70
    33
  1
420
 71
     5
 42
42.0
  3
STANDARD
100
AcDbAlignedDimension
 13
-44.34909997839167
 23
14.4349686577043
 33
0.0
 14
-2.349099978391677
 24
14.4349686577043
 34
0.0
1001
ACAD
1000
DSTYLE
1002
{
1070
    40
1040
1.0
1070
   140
1040
2.5
1070
   147
1040
0.5
1070
   172
1070
     1
1002
}
  0
LINE
  5
46C
330
2
100
AcDbEntity
  8
GAIKEI
  6
Continuous
 62
     1
100
AcDbLine
 10
-18.44827872418159
 20
9.998075353143576
 30
0.0
 11
-20.44827872418159
 21
9.998075353143576
 31
0.0
  0
LINE
  5
46D
330
2
100
AcDbEntity
  8
GAIKEI
  6
Continuous
 62
     1
100
AcDbLine
 10
-18.44827872418159
 20
10.24807535314357
 30
0.0
 11
-20.44827872418159
 21
10.24807535314357
 31
0.0
  0
LINE
  5
46E
330
2
100
AcDbEntity
  8
GAIKEI
  6
Continuous
 62
     1
100
AcDbLine
 10
-18.44827872418159
 20
10.49807535314357
 30
0.0
 11
-20.44827872418159
 21
10.49807535314357
 31
0.0
  0
LINE
  5
46F
330
2
100
AcDbEntity
  8
GAIKEI
  6
Continuous
 62
     1
100
AcDbLine
 10
-18.44827872418159
 20
10.69807535314351
 30
0.0
 11
-20.44827872418159
 21
10.69807535314351
 31
0.0
  0
LINE
  5
470
330
2
100
AcDbEntity
  8
GAIKEI
  6
Continuous
 62
     1
100
AcDbLine
 10
-18.44827872418159
 20
9.798075353143531
 30
0.0
 11
-20.44827872418159
 21
9.798075353143531
 31
0.0
  0
LINE
  5
471
330
2
100
AcDbEntity
  8
GAIKEI
  6
Continuous
 62
     1
100
AcDbLine
 10
-18.44827872418159
 20
9.598075353143485
 30
0.0
 11
-20.44827872418159
 21
9.598075353143485
 31
0.0
  0
LINE
  5
472
330
2
100
AcDbEntity
  8
GAIKEI
  6
Continuous
 62
     1
100
AcDbLine
 10
-18.44827872418159
 20
9.398075353143553
 30
0.0
 11
-20.44827872418159
 21
9.398075353143553
 31
0.0
  0
TEXT
  5
473
330
2
100
AcDbEntity
  8
MOJI1
100
AcDbText
 10
-14.32933215854542
 20
-56.61753325324818
 30
0.0
 40
3.0
  1
ユーザー及びホスト認証、スケジュール録画
100
AcDbText
  0
TEXT
  5
474
330
2
100
AcDbEntity
  8
MOJI1
100
AcDbText
 10
-14.32933215854542
 20
-51.61753325324818
 30
0.0
 40
3.0
  1
アラーム入力（１６）、マルチレコーディング
100
AcDbText
  0
TEXT
  5
475
330
2
100
AcDbEntity
  8
MOJI1
100
AcDbText
 10
-14.32933215854542
 20
-46.61753325324818
 30
0.0
 40
3.0
  1
高速シリアルインターフェース(増設ＨＤＤ用)
100
AcDbText
  0
TEXT
  5
476
330
2
100
AcDbEntity
  8
MOJI1
100
AcDbText
 10
-54.32933215854543
 20
-51.61753325324816
 30
0.0
 40
3.0
  1
機　能
100
AcDbText
  0
TEXT
  5
477
330
2
100
AcDbEntity
  8
MOJI1
100
AcDbText
 10
-54.32933215854543
 20
-46.61753325324816
 30
0.0
 40
3.0
  1
増設端子
100
AcDbText
  0
LINE
  5
478
330
2
100
AcDbEntity
  8
WAKU
 62
     1
100
AcDbLine
 10
-56.82933215854541
 20
-52.61753325324815
 30
0.0
 11
68.17066784145459
 21
-52.61753325324821
 31
0.0
  0
LINE
  5
47A
330
2
100
AcDbEntity
  8
WAKU
 62
     1
100
AcDbLine
 10
-56.82933215854541
 20
-47.61753325324815
 30
0.0
 11
68.17066784145459
 21
-47.6175332532482
 31
0.0
  0
LINE
  5
47B
330
2
100
AcDbEntity
  8
WAKU
 62
     4
100
AcDbLine
 10
68.17066784145459
 20
-57.61753325324821
 30
0.0
 11
68.17066784145459
 21
-12.61753325324821
 31
0.0
  0
LINE
  5
47C
330
2
100
AcDbEntity
  8
WAKU
 62
     4
100
AcDbLine
 10
-16.82933215854541
 20
-57.61753325324821
 30
0.0
 11
-16.82933215854541
 21
-12.61753325324821
 31
0.0
  0
TEXT
  5
47D
330
2
100
AcDbEntity
  8
MOJI1
100
AcDbText
 10
-54.32933215854541
 20
-21.61753325324816
 30
0.0
 40
3.0
  1
カメラ接続台数
100
AcDbText
  0
TEXT
  5
47E
330
2
100
AcDbEntity
  8
MOJI1
100
AcDbText
 10
-54.32933215854541
 20
-26.61753325324816
 30
0.0
 40
3.0
  1
カメラの画像圧縮方式
100
AcDbText
  0
TEXT
  5
47F
330
2
100
AcDbEntity
  8
MOJI1
100
AcDbText
 10
-54.32933215854541
 20
-16.61753325324815
 30
0.0
 40
3.0
  1
電　源
100
AcDbText
  0
TEXT
  5
480
330
2
100
AcDbEntity
  8
MOJI1
100
AcDbText
 10
-54.32933215854541
 20
-31.61753325324816
 30
0.0
 40
3.0
  1
内蔵ハードディスク
100
AcDbText
  0
TEXT
  5
481
330
2
100
AcDbEntity
  8
MOJI1
100
AcDbText
 10
-14.32933215854541
 20
-21.61753325324816
 30
0.0
 40
3.0
  1
最大３２台
100
AcDbText
  0
TEXT
  5
482
330
2
100
AcDbEntity
  8
MOJI1
100
AcDbText
 10
-14.32933215854541
 20
-26.61753325324816
 30
0.0
 40
3.0
  1
ＪＰＥＧ、ＭＰＥＧ－４カメラ対応
100
AcDbText
  0
TEXT
  5
483
330
2
100
AcDbEntity
  8
MOJI1
100
AcDbText
 10
-14.32933215854541
 20
-31.61753325324816
 30
0.0
 40
3.0
  1
５００ＧＢ（２５０ＧＢ×２）
100
AcDbText
  0
TEXT
  5
484
330
2
100
AcDbEntity
  8
MOJI1
100
AcDbText
 10
-14.32933215854541
 20
-16.61753325324815
 30
0.0
 40
3.0
  1
ＡＣ１００Ｖ　５０／６０Ｈｚ
100
AcDbText
  0
LINE
  5
485
330
2
100
AcDbEntity
  8
WAKU
 62
     4
100
AcDbLine
 10
-56.82933215854541
 20
-12.61753325324821
 30
0.0
 11
-56.82933215854541
 21
-57.61753325324821
 31
0.0
  0
LINE
  5
486
330
2
100
AcDbEntity
  8
WAKU
 62
     1
100
AcDbLine
 10
-56.82933215854541
 20
-17.61753325324821
 30
0.0
 11
68.17066784145459
 21
-17.61753325324821
 31
0.0
  0
LINE
  5
487
330
2
100
AcDbEntity
  8
WAKU
 62
     1
100
AcDbLine
 10
-56.82933215854541
 20
-22.61753325324821
 30
0.0
 11
68.17066784145459
 21
-22.61753325324821
 31
0.0
  0
LINE
  5
488
330
2
100
AcDbEntity
  8
WAKU
 62
     1
100
AcDbLine
 10
-56.82933215854541
 20
-37.61753325324821
 30
0.0
 11
68.17066784145459
 21
-37.61753325324821
 31
0.0
  0
LINE
  5
489
330
2
100
AcDbEntity
  8
WAKU
 62
     4
100
AcDbLine
 10
68.17066784145459
 20
-12.61753325324821
 30
0.0
 11
-56.82933215854541
 21
-12.61753325324821
 31
0.0
  0
LINE
  5
48A
330
2
100
AcDbEntity
  8
WAKU
 62
     4
100
AcDbLine
 10
-56.82933215854541
 20
-57.61753325324821
 30
0.0
 11
68.17066784145459
 21
-57.61753325324821
 31
0.0
  0
LINE
  5
48B
330
2
100
AcDbEntity
  8
WAKU
 62
     1
100
AcDbLine
 10
-56.82933215854541
 20
-32.61753325324821
 30
0.0
 11
68.17066784145459
 21
-32.61753325324821
 31
0.0
  0
TEXT
  5
48C
330
2
100
AcDbEntity
  8
MOJI1
100
AcDbText
 10
-14.32933215854541
 20
-36.61753325324816
 30
0.0
 40
3.0
  1
ポート×２（カメラ　ＰＣ用）
100
AcDbText
  0
TEXT
  5
48D
330
2
100
AcDbEntity
  8
MOJI1
100
AcDbText
 10
-14.32933215854541
 20
-41.61753325324816
 30
0.0
 40
3.0
  1
１０ＢＡＳＥ－Ｔ／１００ＢＡＳＥ－Ｔｘ （ＲＪ－４５）
 41
0.85
100
AcDbText
  0
LINE
  5
48E
330
2
100
AcDbEntity
  8
WAKU
 62
     1
100
AcDbLine
 10
-56.82933215854541
 20
-27.61753325324816
 30
0.0
 11
68.17066784145459
 21
-27.61753325324821
 31
0.0
  0
LINE
  5
48F
330
2
100
AcDbEntity
  8
WAKU
 62
     1
100
AcDbLine
 10
-56.82933215854541
 20
-42.61753325324815
 30
0.0
 11
68.17066784145459
 21
-42.6175332532482
 31
0.0
  0
TEXT
  5
490
330
2
100
AcDbEntity
  8
MOJI1
100
AcDbText
 10
-54.32933215854541
 20
-36.61753325324816
 30
0.0
 40
3.0
  1
ネットワーク
100
AcDbText
  0
ENDSEC
  0
SECTION
  2
OBJECTS
  0
DICTIONARY
  5
9
330
0
100
AcDbDictionary
281
     1
  3
ACAD_COLOR
350
2A
  3
ACAD_GROUP
350
26
  3
ACAD_LAYOUT
350
D
  3
ACAD_MATERIAL
350
29
  3
ACAD_MLINESTYLE
350
27
  3
ACAD_PLOTSETTINGS
350
28
  3
ACAD_PLOTSTYLENAME
350
8
  3
ACDBHEADERROUNDTRIPXREC
350
4CD
  3
AcDbVariableDictionary
350
4C8
  0
DICTIONARY
  5
15
330
14
100
AcDbDictionary
280
     1
281
     1
  3
ACAD_LAYERFILTERS
360
16
  3
ACAD_LAYERSTATES
360
17
  0
DICTIONARY
  5
3
330
2
100
AcDbDictionary
280
     1
281
     1
  3
ACAD_LAYOUTSELFREF
360
4
  0
DICTIONARY
  5
F
330
E
100
AcDbDictionary
280
     1
281
     1
  3
ACAD_LAYOUTSELFREF
360
10
  0
DICTIONARY
  5
2A
102
{ACAD_REACTORS
330
9
102
}
330
9
100
AcDbDictionary
281
     1
  0
DICTIONARY
  5
26
102
{ACAD_REACTORS
330
9
102
}
330
9
100
AcDbDictionary
281
     1
  0
DICTIONARY
  5
D
102
{ACAD_REACTORS
330
9
102
}
330
9
100
AcDbDictionary
281
     1
  3
Model
350
C
  3
ﾚｲｱｳﾄ1
350
13
  0
DICTIONARY
  5
29
102
{ACAD_REACTORS
330
9
102
}
330
9
100
AcDbDictionary
281
     1
  0
DICTIONARY
  5
27
102
{ACAD_REACTORS
330
9
102
}
330
9
100
AcDbDictionary
281
     1
  3
STANDARD
350
32
  0
DICTIONARY
  5
28
102
{ACAD_REACTORS
330
9
102
}
330
9
100
AcDbDictionary
281
     1
  0
ACDBDICTIONARYWDFLT
  5
8
102
{ACAD_REACTORS
330
9
102
}
330
9
100
AcDbDictionary
281
     1
  3
Normal
350
7
100
AcDbDictionaryWithDefault
340
7
  0
DICTIONARY
  5
4CD
102
{ACAD_REACTORS
330
9
102
}
330
9
100
AcDbDictionary
281
     1
  3
COLORDICT
350
4CF
  3
MATERIALDICT
350
4CE
  0
DICTIONARY
  5
4C8
102
{ACAD_REACTORS
330
9
102
}
330
9
100
AcDbDictionary
281
     1
  3
DIMASSOC
350
4CA
  3
HIDETEXT
350
4C9
  3
PROJECTNAME
350
4CB
  0
DICTIONARY
  5
16
102
{ACAD_REACTORS
330
15
102
}
330
15
100
AcDbDictionary
280
     1
281
     1
  0
DICTIONARY
  5
17
102
{ACAD_REACTORS
330
15
102
}
330
15
100
AcDbDictionary
281
     1
  0
XRECORD
  5
4
102
{ACAD_REACTORS
330
3
102
}
330
3
100
AcDbXrecord
280
     1
340
2
  0
XRECORD
  5
10
102
{ACAD_REACTORS
330
F
102
}
330
F
100
AcDbXrecord
280
     1
340
E
  0
LAYOUT
  5
C
102
{ACAD_XDICTIONARY
360
4D0
102
}
102
{ACAD_REACTORS
330
D
102
}
330
D
100
AcDbPlotSettings
  1

  2
FX78BC34-A4縦.pc3
  4
A4
  6

 40
4.900083065032958
 41
4.900057315826416
 42
4.90008544921875
 43
4.90008544921875
 44
210.0156707763672
 45
297.0106506347656
 46
5.769999999999999
 47
0.0
 48
0.0
 49
0.0
140
0.0
141
0.0
142
1.0
143
1.372949704875683
 70
 11956
 72
     1
 73
     0
 74
     1
  7
tmsacad.ctb
 75
     0
147
0.7283588003615522
148
0.5503903123740202
149
0.1116542191393819
100
AcDbLayout
  1
Model
 70
     1
 71
     0
 10
0.0
 20
0.0
 11
12.0
 21
9.0
 12
0.0
 22
0.0
 32
0.0
 14
0.0
 24
0.0
 34
0.0
 15
0.0
 25
0.0
 35
0.0
146
0.0
 13
0.0
 23
0.0
 33
0.0
 16
1.0
 26
0.0
 36
0.0
 17
0.0
 27
1.0
 37
0.0
 76
     0
330
2
  0
LAYOUT
  5
13
102
{ACAD_XDICTIONARY
360
4D2
102
}
102
{ACAD_REACTORS
330
D
102
}
330
D
100
AcDbPlotSettings
  1

  2
C:\Program Files\ACAD2000\plotters\DWF ePlot.pc3
  4

  6

 40
0.0
 41
0.0
 42
0.0
 43
0.0
 44
0.0
 45
0.0
 46
0.0
 47
0.0
 48
0.0
 49
0.0
140
0.0
141
0.0
142
1.0
143
1.0
 70
   688
 72
     0
 73
     0
 74
     5
  7
tmsacad.ctb
 75
    16
147
1.0
148
0.0
149
0.0
100
AcDbLayout
  1
ﾚｲｱｳﾄ1
 70
     1
 71
     1
 10
0.0
 20
0.0
 11
12.0
 21
9.0
 12
0.0
 22
0.0
 32
0.0
 14
1.000000000000000E+20
 24
1.000000000000000E+20
 34
1.000000000000000E+20
 15
-1.000000000000000E+20
 25
-1.000000000000000E+20
 35
-1.000000000000000E+20
146
0.0
 13
0.0
 23
0.0
 33
0.0
 16
1.0
 26
0.0
 36
0.0
 17
0.0
 27
1.0
 37
0.0
 76
     0
330
E
  0
MLINESTYLE
  5
32
102
{ACAD_REACTORS
330
27
102
}
330
27
100
AcDbMlineStyle
  2
STANDARD
 70
     0
  3

 62
   256
 51
90.0
 52
90.0
 71
     2
 49
0.5
 62
   256
  6
BYLAYER
 49
-0.5
 62
   256
  6
BYLAYER
  0
ACDBPLACEHOLDER
  5
7
102
{ACAD_REACTORS
330
8
102
}
330
8
  0
XRECORD
  5
4CF
102
{ACAD_REACTORS
330
4CD
102
}
330
4CD
100
AcDbXrecord
280
     1
340
2A
  0
XRECORD
  5
4CE
102
{ACAD_REACTORS
330
4CD
102
}
330
4CD
100
AcDbXrecord
280
     1
340
29
  0
DICTIONARYVAR
  5
4CA
102
{ACAD_REACTORS
330
4C8
102
}
330
4C8
100
DictionaryVariables
280
     0
  1
1
  0
DICTIONARYVAR
  5
4C9
102
{ACAD_REACTORS
330
4C8
102
}
330
4C8
100
DictionaryVariables
280
     0
  1
1
  0
DICTIONARYVAR
  5
4CB
102
{ACAD_REACTORS
330
4C8
102
}
330
4C8
100
DictionaryVariables
280
     0
  1

  0
DICTIONARY
  5
4D0
330
C
100
AcDbDictionary
280
     1
281
     1
  3
ACAD_XREC_ROUNDTRIP
360
4D1
  0
DICTIONARY
  5
4D2
330
13
100
AcDbDictionary
280
     1
281
     1
  3
ACAD_XREC_ROUNDTRIP
360
4D3
  0
XRECORD
  5
4D1
102
{ACAD_REACTORS
330
4D0
102
}
330
4D0
100
AcDbXrecord
280
     1
102
SHADEPLOT
 70
     0
102
SHADEPLOTRESLEVEL
 70
     2
102
SHADEPLOTCUSTOMDPI
 70
   300
  0
XRECORD
  5
4D3
102
{ACAD_REACTORS
330
4D2
102
}
330
4D2
100
AcDbXrecord
280
     1
102
SHADEPLOT
 70
     0
102
SHADEPLOTRESLEVEL
 70
     2
102
SHADEPLOTCUSTOMDPI
 70
   300
  0
ENDSEC
  0
EOF
