  0
SECTION
  2
HEADER
  9
$ACADVER
  1
AC1015
  9
$ACADMAINTVER
 70
    20
  9
$DWGCODEPAGE
  3
ANSI_932
  9
$INSBASE
 10
0.0
 20
120.4992141396419
 30
0.0
  9
$EXTMIN
 10
-58.55583179854647
 20
-58.74623137351045
 30
-0.0015258207003583
  9
$EXTMAX
 10
66.60873665411509
 20
54.3848505421156
 30
0.0000000349246037
  9
$LIMMIN
 10
-1101.784450318844
 20
-1579.160531687244
  9
$LIMMAX
 10
-508.2420711400536
 20
-1161.440814074914
  9
$ORTHOMODE
 70
     0
  9
$REGENMODE
 70
     1
  9
$FILLMODE
 70
     1
  9
$QTEXTMODE
 70
     0
  9
$MIRRTEXT
 70
     1
  9
$LTSCALE
 40
1.0
  9
$ATTMODE
 70
     1
  9
$TEXTSIZE
 40
3.0
  9
$TRACEWID
 40
0.5
  9
$TEXTSTYLE
  7
STANDARD
  9
$CLAYER
  8
MOJI1
  9
$CELTYPE
  6
BYLAYER
  9
$CECOLOR
 62
   256
  9
$CELTSCALE
 40
1.0
  9
$DISPSILH
 70
     0
  9
$DIMSCALE
 40
1.0
  9
$DIMASZ
 40
2.0
  9
$DIMEXO
 40
2.0
  9
$DIMDLI
 40
8.0
  9
$DIMRND
 40
0.0
  9
$DIMDLE
 40
0.0
  9
$DIMEXE
 40
2.0
  9
$DIMTP
 40
0.0
  9
$DIMTM
 40
0.0
  9
$DIMTXT
 40
2.5
  9
$DIMCEN
 40
0.0
  9
$DIMTSZ
 40
0.0
  9
$DIMTOL
 70
     0
  9
$DIMLIM
 70
     0
  9
$DIMTIH
 70
     0
  9
$DIMTOH
 70
     0
  9
$DIMSE1
 70
     0
  9
$DIMSE2
 70
     0
  9
$DIMTAD
 70
     3
  9
$DIMZIN
 70
     0
  9
$DIMBLK
  1

  9
$DIMASO
 70
     1
  9
$DIMSHO
 70
     1
  9
$DIMPOST
  1

  9
$DIMAPOST
  1

  9
$DIMALT
 70
     0
  9
$DIMALTD
 70
     2
  9
$DIMALTF
 40
25.4
  9
$DIMLFAC
 40
1.0
  9
$DIMTOFL
 70
     1
  9
$DIMTVP
 40
0.0
  9
$DIMTIX
 70
     0
  9
$DIMSOXD
 70
     0
  9
$DIMSAH
 70
     1
  9
$DIMBLK1
  1
OPEN30
  9
$DIMBLK2
  1
OPEN30
  9
$DIMSTYLE
  2
STANDARD
  9
$DIMCLRD
 70
     0
  9
$DIMCLRE
 70
     0
  9
$DIMCLRT
 70
     0
  9
$DIMTFAC
 40
1.0
  9
$DIMGAP
 40
0.5
  9
$DIMJUST
 70
     0
  9
$DIMSD1
 70
     0
  9
$DIMSD2
 70
     0
  9
$DIMTOLJ
 70
     1
  9
$DIMTZIN
 70
     0
  9
$DIMALTZ
 70
     0
  9
$DIMALTTZ
 70
     0
  9
$DIMUPT
 70
     0
  9
$DIMDEC
 70
     4
  9
$DIMTDEC
 70
     4
  9
$DIMALTU
 70
     2
  9
$DIMALTTD
 70
     2
  9
$DIMTXSTY
  7
STANDARD
  9
$DIMAUNIT
 70
     0
  9
$DIMADEC
 70
     0
  9
$DIMALTRND
 40
0.0
  9
$DIMAZIN
 70
     0
  9
$DIMDSEP
 70
    46
  9
$DIMATFIT
 70
     3
  9
$DIMFRAC
 70
     0
  9
$DIMLDRBLK
  1
OPEN30
  9
$DIMLUNIT
 70
     2
  9
$DIMLWD
 70
    -2
  9
$DIMLWE
 70
    -2
  9
$DIMTMOVE
 70
     0
  9
$LUNITS
 70
     2
  9
$LUPREC
 70
     4
  9
$SKETCHINC
 40
0.1
  9
$FILLETRAD
 40
0.0
  9
$AUNITS
 70
     0
  9
$AUPREC
 70
     0
  9
$MENU
  1
ACAD
  9
$ELEVATION
 40
0.0
  9
$PELEVATION
 40
0.0
  9
$THICKNESS
 40
0.0
  9
$LIMCHECK
 70
     0
  9
$CHAMFERA
 40
0.0
  9
$CHAMFERB
 40
0.0
  9
$CHAMFERC
 40
0.0
  9
$CHAMFERD
 40
0.0
  9
$SKPOLY
 70
     0
  9
$TDCREATE
 40
2451815.565532581
  9
$TDUCREATE
 40
2451815.190532581
  9
$TDUPDATE
 40
2454256.725303090
  9
$TDUUPDATE
 40
2454256.350303090
  9
$TDINDWG
 40
0.7611564468
  9
$TDUSRTIMER
 40
0.7611564468
  9
$USRTIMER
 70
     1
  9
$ANGBASE
 50
0.0
  9
$ANGDIR
 70
     0
  9
$PDMODE
 70
     0
  9
$PDSIZE
 40
0.0
  9
$PLINEWID
 40
0.0
  9
$SPLFRAME
 70
     0
  9
$SPLINETYPE
 70
     6
  9
$SPLINESEGS
 70
     8
  9
$HANDSEED
  5
4D4
  9
$SURFTAB1
 70
     6
  9
$SURFTAB2
 70
     6
  9
$SURFTYPE
 70
     6
  9
$SURFU
 70
     6
  9
$SURFV
 70
     6
  9
$UCSBASE
  2

  9
$UCSNAME
  2

  9
$UCSORG
 10
0.0
 20
0.0
 30
0.0
  9
$UCSXDIR
 10
1.0
 20
0.0
 30
0.0
  9
$UCSYDIR
 10
0.0
 20
1.0
 30
0.0
  9
$UCSORTHOREF
  2

  9
$UCSORTHOVIEW
 70
     0
  9
$UCSORGTOP
 10
0.0
 20
0.0
 30
0.0
  9
$UCSORGBOTTOM
 10
0.0
 20
0.0
 30
0.0
  9
$UCSORGLEFT
 10
0.0
 20
0.0
 30
0.0
  9
$UCSORGRIGHT
 10
0.0
 20
0.0
 30
0.0
  9
$UCSORGFRONT
 10
0.0
 20
0.0
 30
0.0
  9
$UCSORGBACK
 10
0.0
 20
0.0
 30
0.0
  9
$PUCSBASE
  2

  9
$PUCSNAME
  2

  9
$PUCSORG
 10
0.0
 20
0.0
 30
0.0
  9
$PUCSXDIR
 10
1.0
 20
0.0
 30
0.0
  9
$PUCSYDIR
 10
0.0
 20
1.0
 30
0.0
  9
$PUCSORTHOREF
  2

  9
$PUCSORTHOVIEW
 70
     0
  9
$PUCSORGTOP
 10
0.0
 20
0.0
 30
0.0
  9
$PUCSORGBOTTOM
 10
0.0
 20
0.0
 30
0.0
  9
$PUCSORGLEFT
 10
0.0
 20
0.0
 30
0.0
  9
$PUCSORGRIGHT
 10
0.0
 20
0.0
 30
0.0
  9
$PUCSORGFRONT
 10
0.0
 20
0.0
 30
0.0
  9
$PUCSORGBACK
 10
0.0
 20
0.0
 30
0.0
  9
$USERI1
 70
     0
  9
$USERI2
 70
     0
  9
$USERI3
 70
     0
  9
$USERI4
 70
     0
  9
$USERI5
 70
     0
  9
$USERR1
 40
0.0
  9
$USERR2
 40
0.0
  9
$USERR3
 40
0.0
  9
$USERR4
 40
0.0
  9
$USERR5
 40
0.0
  9
$WORLDVIEW
 70
     1
  9
$SHADEDGE
 70
     3
  9
$SHADEDIF
 70
    70
  9
$TILEMODE
 70
     1
  9
$MAXACTVP
 70
    48
  9
$PINSBASE
 10
0.0
 20
0.0
 30
0.0
  9
$PLIMCHECK
 70
     0
  9
$PEXTMIN
 10
1.000000000000000E+20
 20
1.000000000000000E+20
 30
1.000000000000000E+20
  9
$PEXTMAX
 10
-1.000000000000000E+20
 20
-1.000000000000000E+20
 30
-1.000000000000000E+20
  9
$PLIMMIN
 10
0.0
 20
0.0
  9
$PLIMMAX
 10
12.0
 20
9.0
  9
$UNITMODE
 70
     0
  9
$VISRETAIN
 70
     1
  9
$PLINEGEN
 70
     0
  9
$PSLTSCALE
 70
     1
  9
$TREEDEPTH
 70
  3020
  9
$CMLSTYLE
  2
STANDARD
  9
$CMLJUST
 70
     0
  9
$CMLSCALE
 40
1.0
  9
$PROXYGRAPHICS
 70
     1
  9
$MEASUREMENT
 70
     0
  9
$CELWEIGHT
370
    -1
  9
$ENDCAPS
280
     0
  9
$JOINSTYLE
280
     0
  9
$LWDISPLAY
290
     0
  9
$INSUNITS
 70
     0
  9
$HYPERLINKBASE
  1

  9
$STYLESHEET
  1

  9
$XEDIT
290
     1
  9
$CEPSNTYPE
380
     0
  9
$PSTYLEMODE
290
     1
  9
$FINGERPRINTGUID
  2
{1754B7AB-9B3C-11D4-AD9E-00104B1004F2}
  9
$VERSIONGUID
  2
{CF4BBA28-731F-41E5-A5FA-5D00765099B7}
  9
$EXTNAMES
290
     1
  9
$PSVPSCALE
 40
0.0
  9
$OLESTARTUP
290
     0
  0
ENDSEC
  0
SECTION
  2
CLASSES
  0
CLASS
  1
ACDBDICTIONARYWDFLT
  2
AcDbDictionaryWithDefault
  3
ObjectDBX Classes
 90
        0
280
     0
281
     0
  0
CLASS
  1
ACDBPLACEHOLDER
  2
AcDbPlaceHolder
  3
ObjectDBX Classes
 90
        0
280
     0
281
     0
  0
CLASS
  1
LAYOUT
  2
AcDbLayout
  3
ObjectDBX Classes
 90
        0
280
     0
281
     0
  0
CLASS
  1
DICTIONARYVAR
  2
AcDbDictionaryVar
  3
ObjectDBX Classes
 90
        0
280
     0
281
     0
  0
ENDSEC
  0
SECTION
  2
TABLES
  0
TABLE
  2
VPORT
  5
20
330
0
100
AcDbSymbolTable
 70
     3
  0
VPORT
  5
4CC
330
20
100
AcDbSymbolTableRecord
100
AcDbViewportTableRecord
  2
*Active
 70
     0
 10
0.0
 20
0.0
 11
1.0
 21
1.0
 12
4.026452427784295
 22
-2.180690415697426
 13
0.0
 23
0.0
 14
1.0
 24
1.0
 15
0.0
 25
0.0
 16
0.0
 26
0.0
 36
1.0
 17
0.0
 27
0.0
 37
0.0
 40
114.0035581257722
 41
1.407979407979407
 42
50.0
 43
0.0
 44
0.0
 50
0.0
 51
0.0
 71
     0
 72
 10000
 73
     1
 74
     0
 75
     0
 76
     1
 77
     0
 78
     0
281
     0
 65
     1
110
0.0
120
0.0
130
0.0
111
1.0
121
0.0
131
0.0
112
0.0
122
1.0
132
0.0
 79
     0
146
0.0
  0
ENDTAB
  0
TABLE
  2
LTYPE
  5
1B
330
0
100
AcDbSymbolTable
 70
     4
  0
LTYPE
  5
1C
330
1B
100
AcDbSymbolTableRecord
100
AcDbLinetypeTableRecord
  2
BYBLOCK
 70
     0
  3

 72
    65
 73
     0
 40
0.0
  0
LTYPE
  5
1D
330
1B
100
AcDbSymbolTableRecord
100
AcDbLinetypeTableRecord
  2
BYLAYER
 70
     0
  3

 72
    65
 73
     0
 40
0.0
  0
LTYPE
  5
A
330
1B
100
AcDbSymbolTableRecord
100
AcDbLinetypeTableRecord
  2
CONTINUOUS
 70
     0
  3
Solid line
 72
    65
 73
     0
 40
0.0
  0
LTYPE
  5
77
330
1B
100
AcDbSymbolTableRecord
100
AcDbLinetypeTableRecord
  2
Phantom
 70
     0
  3
Phantom
 72
    65
 73
     6
 40
45.0
 49
40.0
 74
     0
 49
-1.0
 74
     0
 49
1.0
 74
     0
 49
-1.0
 74
     0
 49
1.0
 74
     0
 49
-1.0
 74
     0
  0
LTYPE
  5
5C
330
1B
100
AcDbSymbolTableRecord
100
AcDbLinetypeTableRecord
  2
S10
 70
     0
  3
- - - - - - - - - 1,-1,1,-1
 72
    65
 73
     4
 40
4.0
 49
1.0
 74
     0
 49
-1.0
 74
     0
 49
1.0
 74
     0
 49
-1.0
 74
     0
  0
LTYPE
  5
A4
330
1B
100
AcDbSymbolTableRecord
100
AcDbLinetypeTableRecord
  2
HIDDEN2
 70
     0
  3
Hidden (.5x) _ _ _ _ _ _ _ _ _ _ _ _ _ _ _ _ _
 72
    65
 73
     2
 40
1.399999999999999
 49
0.7
 74
     0
 49
-0.7
 74
     0
  0
ENDTAB
  0
TABLE
  2
LAYER
  5
14
102
{ACAD_XDICTIONARY
360
15
102
}
330
0
100
AcDbSymbolTable
 70
     7
  0
LAYER
  5
6
330
14
100
AcDbSymbolTableRecord
100
AcDbLayerTableRecord
  2
0
 70
     0
 62
     7
  6
CONTINUOUS
370
    -3
390
7
  0
LAYER
  5
4A
330
14
100
AcDbSymbolTableRecord
100
AcDbLayerTableRecord
  2
DEFPOINTS
 70
     0
 62
     7
  6
CONTINUOUS
290
     0
370
    -3
390
7
  0
LAYER
  5
475
330
14
100
AcDbSymbolTableRecord
100
AcDbLayerTableRecord
  2
WAKU
 70
     0
 62
     4
  6
CONTINUOUS
370
    -3
390
7
  0
LAYER
  5
2B
330
14
100
AcDbSymbolTableRecord
100
AcDbLayerTableRecord
  2
MOJI1
 70
     0
 62
     2
  6
CONTINUOUS
370
    -3
390
7
  0
LAYER
  5
38
330
14
100
AcDbSymbolTableRecord
100
AcDbLayerTableRecord
  2
GAIKEI
 70
     0
 62
     7
  6
CONTINUOUS
370
    -3
390
7
  0
LAYER
  5
36
330
14
100
AcDbSymbolTableRecord
100
AcDbLayerTableRecord
  2
TOUROKU
 70
     0
 62
     1
  6
CONTINUOUS
370
    -3
390
7
  0
LAYER
  5
40
330
14
100
AcDbSymbolTableRecord
100
AcDbLayerTableRecord
  2
SUNPO
 70
     0
 62
     3
  6
CONTINUOUS
370
    -3
390
7
  0
ENDTAB
  0
TABLE
  2
STYLE
  5
18
330
0
100
AcDbSymbolTable
 70
     1
  0
STYLE
  5
19
330
18
100
AcDbSymbolTableRecord
100
AcDbTextStyleTableRecord
  2
STANDARD
 70
     0
 40
0.0
 41
1.0
 50
0.0
 71
     0
 42
3.0
  3
MONOTXT.shx
  4
BIGFONT.shx
  0
ENDTAB
  0
TABLE
  2
VIEW
  5
1E
330
0
100
AcDbSymbolTable
 70
     0
  0
ENDTAB
  0
TABLE
  2
UCS
  5
1F
330
0
100
AcDbSymbolTable
 70
     0
  0
ENDTAB
  0
TABLE
  2
APPID
  5
22
330
0
100
AcDbSymbolTable
 70
     1
  0
APPID
  5
23
330
22
100
AcDbSymbolTableRecord
100
AcDbRegAppTableRecord
  2
ACAD
 70
     0
  0
ENDTAB
  0
TABLE
  2
DIMSTYLE
  5
24
330
0
100
AcDbSymbolTable
 70
     1
100
AcDbDimStyleTable
 71
     0
  0
DIMSTYLE
105
33
102
{ACAD_REACTORS
330
3ED
330
3F
330
4E
102
}
330
24
100
AcDbSymbolTableRecord
100
AcDbDimStyleTableRecord
  2
STANDARD
 70
     0
 40
0.0
 41
2.0
 42
2.0
 43
8.0
 44
2.0
 73
     0
 74
     0
 77
     3
140
3.0
141
0.0
173
     1
279
     2
288
     1
340
19
341
2C
343
2C
344
2C
  0
ENDTAB
  0
TABLE
  2
BLOCK_RECORD
  5
1
330
0
100
AcDbSymbolTable
 70
     7
  0
BLOCK_RECORD
  5
2
102
{ACAD_XDICTIONARY
360
3
102
}
330
1
100
AcDbSymbolTableRecord
100
AcDbBlockTableRecord
  2
*MODEL_SPACE
340
C
  0
BLOCK_RECORD
  5
E
102
{ACAD_XDICTIONARY
360
F
102
}
330
1
100
AcDbSymbolTableRecord
100
AcDbBlockTableRecord
  2
*PAPER_SPACE
340
13
  0
BLOCK_RECORD
  5
2C
330
1
100
AcDbSymbolTableRecord
100
AcDbBlockTableRecord
  2
_OPEN30
340
0
102
{BLKREFS
331
3F3
331
3F4
331
46
331
47
331
54
331
55
331
4A8
331
4A9
331
4B4
331
4B5
331
4C0
331
4C1
102
}
  0
BLOCK_RECORD
  5
3EE
330
1
100
AcDbSymbolTableRecord
100
AcDbBlockTableRecord
  2
*D1
340
0
  0
BLOCK_RECORD
  5
41
330
1
100
AcDbSymbolTableRecord
100
AcDbBlockTableRecord
  2
*D2
340
0
  0
BLOCK_RECORD
  5
4F
330
1
100
AcDbSymbolTableRecord
100
AcDbBlockTableRecord
  2
*D3
340
0
  0
BLOCK_RECORD
  5
4A4
330
1
100
AcDbSymbolTableRecord
100
AcDbBlockTableRecord
  2
*D4
340
0
  0
BLOCK_RECORD
  5
4B0
330
1
100
AcDbSymbolTableRecord
100
AcDbBlockTableRecord
  2
*D5
340
0
  0
BLOCK_RECORD
  5
4BC
330
1
100
AcDbSymbolTableRecord
100
AcDbBlockTableRecord
  2
*D6
340
0
  0
ENDTAB
  0
ENDSEC
  0
SECTION
  2
BLOCKS
  0
BLOCK
  5
5
330
2
100
AcDbEntity
  8
0
100
AcDbBlockBegin
  2
*MODEL_SPACE
 70
     0
 10
0.0
 20
0.0
 30
0.0
  3
*MODEL_SPACE
  1

  0
ENDBLK
  5
B
330
2
100
AcDbEntity
  8
0
100
AcDbBlockEnd
  0
BLOCK
  5
11
330
E
100
AcDbEntity
 67
     1
  8
0
100
AcDbBlockBegin
  2
*PAPER_SPACE
 70
     0
 10
0.0
 20
0.0
 30
0.0
  3
*PAPER_SPACE
  1

  0
ENDBLK
  5
12
330
E
100
AcDbEntity
 67
     1
  8
0
100
AcDbBlockEnd
  0
BLOCK
  5
2D
330
2C
100
AcDbEntity
  8
0
100
AcDbBlockBegin
  2
_OPEN30
 70
     0
 10
0.0
 20
0.0
 30
0.0
  3
_OPEN30
  1

  0
LINE
  5
2E
330
2C
100
AcDbEntity
  8
0
  6
ByBlock
 62
     0
100
AcDbLine
 10
-1.0
 20
0.26794919
 30
0.0
 11
0.0
 21
0.0
 31
0.0
  0
LINE
  5
2F
330
2C
100
AcDbEntity
  8
0
  6
ByBlock
 62
     0
100
AcDbLine
 10
0.0
 20
0.0
 30
0.0
 11
-1.0
 21
-0.26794919
 31
0.0
  0
LINE
  5
30
330
2C
100
AcDbEntity
  8
0
  6
ByBlock
 62
     0
100
AcDbLine
 10
0.0
 20
0.0
 30
0.0
 11
-1.0
 21
0.0
 31
0.0
  0
ENDBLK
  5
31
330
2C
100
AcDbEntity
  8
0
100
AcDbBlockEnd
  0
BLOCK
  5
3EF
330
3EE
100
AcDbEntity
  8
0
100
AcDbBlockBegin
  2
*D1
 70
     1
 10
0.0
 20
0.0
 30
0.0
  3
*D1
  1

  0
LINE
  5
3F0
330
3EE
100
AcDbEntity
  8
SUNPO
 62
     0
370
    -2
100
AcDbLine
 10
83.92280887094818
 20
79.53849866881853
 30
0.0
 11
83.92280887094818
 21
87.53849866881854
 31
0.0
  0
LINE
  5
3F1
330
3EE
100
AcDbEntity
  8
SUNPO
 62
     0
370
    -2
100
AcDbLine
 10
118.9228088709482
 20
79.53849866881853
 30
0.0
 11
118.9228088709482
 21
87.53849866881854
 31
0.0
  0
LINE
  5
3F2
330
3EE
100
AcDbEntity
  8
SUNPO
 62
     0
370
    -2
100
AcDbLine
 10
85.92280887094819
 20
85.53849866881853
 30
0.0
 11
116.9228088709482
 21
85.53849866881853
 31
0.0
  0
INSERT
  5
3F3
330
3EE
100
AcDbEntity
  8
SUNPO
 62
     0
370
    -2
100
AcDbBlockReference
  2
_OPEN30
 10
83.92280887094818
 20
85.53849866881853
 30
0.0
 41
2.0
 42
2.0
 43
2.0
 50
180.0
  0
INSERT
  5
3F4
330
3EE
100
AcDbEntity
  8
SUNPO
 62
     0
370
    -2
100
AcDbBlockReference
  2
_OPEN30
 10
118.9228088709482
 20
85.53849866881853
 30
0.0
 41
2.0
 42
2.0
 43
2.0
  0
MTEXT
  5
3F5
330
3EE
100
AcDbEntity
  8
SUNPO
 62
     0
100
AcDbMText
 10
101.4228088709482
 20
87.28849866881853
 30
0.0
 40
2.5
 41
0.0
 71
     5
 72
     1
  1
\A1;350
 73
     1
 44
1.0
1001
ACAD
1000
MTEXTBEGIN
1070
    73
1070
     1
1070
    44
1040
1.0
1070
    74
1070
     0
1000
MTEXTEND
  0
POINT
  5
3F6
330
3EE
100
AcDbEntity
  8
DEFPOINTS
 62
     0
100
AcDbPoint
 10
83.92280887094818
 20
77.53849866881854
 30
0.0
  0
POINT
  5
3F7
330
3EE
100
AcDbEntity
  8
DEFPOINTS
 62
     0
100
AcDbPoint
 10
118.9228088709482
 20
77.53849866881854
 30
0.0
  0
POINT
  5
3F8
330
3EE
100
AcDbEntity
  8
DEFPOINTS
 62
     0
100
AcDbPoint
 10
118.9228088709482
 20
85.53849866881853
 30
0.0
  0
ENDBLK
  5
3F9
330
3EE
100
AcDbEntity
  8
0
100
AcDbBlockEnd
  0
BLOCK
  5
42
330
41
100
AcDbEntity
  8
0
100
AcDbBlockBegin
  2
*D2
 70
     1
 10
0.0
 20
0.0
 30
0.0
  3
*D2
  1

  0
LINE
  5
43
330
41
100
AcDbEntity
  8
SUNPO
 62
     0
370
    -2
100
AcDbLine
 10
14.4802321801535
 20
79.55171605059433
 30
0.0
 11
14.4802321801535
 21
87.55171605059434
 31
0.0
  0
LINE
  5
44
330
41
100
AcDbEntity
  8
SUNPO
 62
     0
370
    -2
100
AcDbLine
 10
56.4802321801535
 20
79.55171605059433
 30
0.0
 11
56.4802321801535
 21
87.55171605059434
 31
0.0
  0
LINE
  5
45
330
41
100
AcDbEntity
  8
SUNPO
 62
     0
370
    -2
100
AcDbLine
 10
16.48023218015351
 20
85.55171605059433
 30
0.0
 11
54.4802321801535
 21
85.55171605059433
 31
0.0
  0
INSERT
  5
46
330
41
100
AcDbEntity
  8
SUNPO
 62
     0
370
    -2
100
AcDbBlockReference
  2
_OPEN30
 10
14.4802321801535
 20
85.55171605059433
 30
0.0
 41
2.0
 42
2.0
 43
2.0
 50
180.0
  0
INSERT
  5
47
330
41
100
AcDbEntity
  8
SUNPO
 62
     0
370
    -2
100
AcDbBlockReference
  2
_OPEN30
 10
56.4802321801535
 20
85.55171605059433
 30
0.0
 41
2.0
 42
2.0
 43
2.0
  0
MTEXT
  5
48
330
41
100
AcDbEntity
  8
SUNPO
 62
     0
100
AcDbMText
 10
35.48023218015351
 20
87.30171605059434
 30
0.0
 40
2.5
 41
0.0
 71
     5
 72
     1
  1
\A1;420
 73
     1
 44
1.0
1001
ACAD
1000
MTEXTBEGIN
1070
    73
1070
     1
1070
    44
1040
1.0
1070
    74
1070
     0
1000
MTEXTEND
  0
POINT
  5
49
330
41
100
AcDbEntity
  8
DEFPOINTS
 62
     0
100
AcDbPoint
 10
14.4802321801535
 20
77.55171605059434
 30
0.0
  0
POINT
  5
4B
330
41
100
AcDbEntity
  8
DEFPOINTS
 62
     0
100
AcDbPoint
 10
56.4802321801535
 20
77.55171605059434
 30
0.0
  0
POINT
  5
4C
330
41
100
AcDbEntity
  8
DEFPOINTS
 62
     0
100
AcDbPoint
 10
56.4802321801535
 20
85.55171605059433
 30
0.0
  0
ENDBLK
  5
4D
330
41
100
AcDbEntity
  8
0
100
AcDbBlockEnd
  0
BLOCK
  5
50
330
4F
100
AcDbEntity
  8
0
100
AcDbBlockBegin
  2
*D3
 70
     1
 10
0.0
 20
0.0
 30
0.0
  3
*D3
  1

  0
LINE
  5
51
330
4F
100
AcDbEntity
  8
SUNPO
 62
     0
370
    -2
100
AcDbLine
 10
61.4802321801535
 20
77.55171605059434
 30
0.0
 11
69.4802321801535
 21
77.55171605059434
 31
0.0
  0
LINE
  5
52
330
4F
100
AcDbEntity
  8
SUNPO
 62
     0
370
    -2
100
AcDbLine
 10
61.4802321801535
 20
68.75171605059438
 30
0.0
 11
69.4802321801535
 21
68.75171605059438
 31
0.0
  0
LINE
  5
53
330
4F
100
AcDbEntity
  8
SUNPO
 62
     0
370
    -2
100
AcDbLine
 10
67.48023218015351
 20
75.55171605059434
 30
0.0
 11
67.48023218015351
 21
70.75171605059438
 31
0.0
  0
INSERT
  5
54
330
4F
100
AcDbEntity
  8
SUNPO
 62
     0
370
    -2
100
AcDbBlockReference
  2
_OPEN30
 10
67.48023218015351
 20
77.55171605059434
 30
0.0
 41
2.0
 42
2.0
 43
2.0
 50
90.0
  0
INSERT
  5
55
330
4F
100
AcDbEntity
  8
SUNPO
 62
     0
370
    -2
100
AcDbBlockReference
  2
_OPEN30
 10
67.48023218015351
 20
68.75171605059438
 30
0.0
 41
2.0
 42
2.0
 43
2.0
 50
270.0
  0
MTEXT
  5
56
330
4F
100
AcDbEntity
  8
SUNPO
 62
     0
100
AcDbMText
 10
65.73023218015349
 20
73.15171605059437
 30
0.0
 40
2.5
 41
0.0
 71
     5
 72
     1
  1
\A1;88
 11
0.0000000000000001
 21
1.0
 31
0.0
 73
     1
 44
1.0
1001
ACAD
1000
MTEXTBEGIN
1070
    73
1070
     1
1070
    44
1040
1.0
1070
    74
1070
     0
1000
MTEXTEND
  0
POINT
  5
57
330
4F
100
AcDbEntity
  8
DEFPOINTS
 62
     0
100
AcDbPoint
 10
59.4802321801535
 20
77.55171605059434
 30
0.0
  0
POINT
  5
58
330
4F
100
AcDbEntity
  8
DEFPOINTS
 62
     0
100
AcDbPoint
 10
59.4802321801535
 20
68.75171605059438
 30
0.0
  0
POINT
  5
59
330
4F
100
AcDbEntity
  8
DEFPOINTS
 62
     0
100
AcDbPoint
 10
67.48023218015351
 20
68.75171605059438
 30
0.0
  0
ENDBLK
  5
5A
330
4F
100
AcDbEntity
  8
0
100
AcDbBlockEnd
  0
BLOCK
  5
4AE
330
4A4
100
AcDbEntity
  8
0
100
AcDbBlockBegin
  2
*D4
 70
     1
 10
0.0
 20
0.0
 30
0.0
  3
*D4
  1

  0
LINE
  5
4A5
330
4A4
100
AcDbEntity
  8
SUNPO
 62
     0
370
    -2
100
AcDbLine
 10
23.44786321797199
 20
15.37207387654405
 30
0.0
 11
23.44786321797199
 21
23.37207387654405
 31
0.0
  0
LINE
  5
4A6
330
4A4
100
AcDbEntity
  8
SUNPO
 62
     0
370
    -2
100
AcDbLine
 10
58.44786321797198
 20
15.37207387654405
 30
0.0
 11
58.44786321797198
 21
23.37207387654405
 31
0.0
  0
LINE
  5
4A7
330
4A4
100
AcDbEntity
  8
SUNPO
 62
     0
370
    -2
100
AcDbLine
 10
25.44786321797199
 20
21.37207387654405
 30
0.0
 11
56.44786321797198
 21
21.37207387654405
 31
0.0
  0
INSERT
  5
4A8
330
4A4
100
AcDbEntity
  8
SUNPO
 62
     0
370
    -2
100
AcDbBlockReference
  2
_OPEN30
 10
23.44786321797199
 20
21.37207387654405
 30
0.0
 41
2.0
 42
2.0
 43
2.0
 50
180.0
  0
INSERT
  5
4A9
330
4A4
100
AcDbEntity
  8
SUNPO
 62
     0
370
    -2
100
AcDbBlockReference
  2
_OPEN30
 10
58.44786321797198
 20
21.37207387654405
 30
0.0
 41
2.0
 42
2.0
 43
2.0
  0
MTEXT
  5
4AA
330
4A4
100
AcDbEntity
  8
SUNPO
 62
     0
100
AcDbMText
 10
40.94786321797198
 20
23.12207387654405
 30
0.0
 40
2.5
 41
0.0
 71
     5
 72
     1
  1
\A1;350
 73
     1
 44
1.0
1001
ACAD
1000
MTEXTBEGIN
1070
    73
1070
     1
1070
    44
1040
1.0
1070
    74
1070
     0
1000
MTEXTEND
  0
POINT
  5
4AB
330
4A4
100
AcDbEntity
  8
DEFPOINTS
 62
     0
100
AcDbPoint
 10
23.44786321797199
 20
13.37207387654405
 30
0.0
  0
POINT
  5
4AC
330
4A4
100
AcDbEntity
  8
DEFPOINTS
 62
     0
100
AcDbPoint
 10
58.44786321797198
 20
13.37207387654405
 30
0.0
  0
POINT
  5
4AD
330
4A4
100
AcDbEntity
  8
DEFPOINTS
 62
     0
100
AcDbPoint
 10
58.44786321797198
 20
21.37207387654405
 30
0.0
  0
ENDBLK
  5
4AF
330
4A4
100
AcDbEntity
  8
0
100
AcDbBlockEnd
  0
BLOCK
  5
4BA
330
4B0
100
AcDbEntity
  8
0
100
AcDbBlockBegin
  2
*D5
 70
     1
 10
0.0
 20
0.0
 30
0.0
  3
*D5
  1

  0
LINE
  5
4B1
330
4B0
100
AcDbEntity
  8
SUNPO
 62
     0
370
    -2
100
AcDbLine
 10
1.005286527177304
 20
13.38529125831985
 30
0.0
 11
9.005286527177306
 21
13.38529125831985
 31
0.0
  0
LINE
  5
4B2
330
4B0
100
AcDbEntity
  8
SUNPO
 62
     0
370
    -2
100
AcDbLine
 10
1.005286527177304
 20
4.585291258319898
 30
0.0
 11
9.005286527177304
 21
4.585291258319895
 31
0.0
  0
LINE
  5
4B3
330
4B0
100
AcDbEntity
  8
SUNPO
 62
     0
370
    -2
100
AcDbLine
 10
7.005286527177306
 20
11.38529125831985
 30
0.0
 11
7.005286527177305
 21
6.585291258319895
 31
0.0
  0
INSERT
  5
4B4
330
4B0
100
AcDbEntity
  8
SUNPO
 62
     0
370
    -2
100
AcDbBlockReference
  2
_OPEN30
 10
7.005286527177306
 20
13.38529125831985
 30
0.0
 41
2.0
 42
2.0
 43
2.0
 50
90.0
  0
INSERT
  5
4B5
330
4B0
100
AcDbEntity
  8
SUNPO
 62
     0
370
    -2
100
AcDbBlockReference
  2
_OPEN30
 10
7.005286527177304
 20
4.585291258319895
 30
0.0
 41
2.0
 42
2.0
 43
2.0
 50
270.0
  0
MTEXT
  5
4B6
330
4B0
100
AcDbEntity
  8
SUNPO
 62
     0
100
AcDbMText
 10
5.255286527177304
 20
8.985291258319875
 30
0.0
 40
2.5
 41
0.0
 71
     5
 72
     1
  1
\A1;88
 11
0.0000000000000001
 21
1.0
 31
0.0
 73
     1
 44
1.0
1001
ACAD
1000
MTEXTBEGIN
1070
    73
1070
     1
1070
    44
1040
1.0
1070
    74
1070
     0
1000
MTEXTEND
  0
POINT
  5
4B7
330
4B0
100
AcDbEntity
  8
DEFPOINTS
 62
     0
100
AcDbPoint
 10
-0.9947134728226956
 20
13.38529125831985
 30
0.0
  0
POINT
  5
4B8
330
4B0
100
AcDbEntity
  8
DEFPOINTS
 62
     0
100
AcDbPoint
 10
-0.9947134728226956
 20
4.585291258319898
 30
0.0
  0
POINT
  5
4B9
330
4B0
100
AcDbEntity
  8
DEFPOINTS
 62
     0
100
AcDbPoint
 10
7.005286527177304
 20
4.585291258319895
 30
0.0
  0
ENDBLK
  5
4BB
330
4B0
100
AcDbEntity
  8
0
100
AcDbBlockEnd
  0
BLOCK
  5
4C6
330
4BC
100
AcDbEntity
  8
0
100
AcDbBlockBegin
  2
*D6
 70
     1
 10
0.0
 20
0.0
 30
0.0
  3
*D6
  1

  0
LINE
  5
4BD
330
4BC
100
AcDbEntity
  8
SUNPO
 62
     0
370
    -2
100
AcDbLine
 10
-45.99471347282269
 20
15.38529125831985
 30
0.0
 11
-45.99471347282269
 21
23.38529125831986
 31
0.0
  0
LINE
  5
4BE
330
4BC
100
AcDbEntity
  8
SUNPO
 62
     0
370
    -2
100
AcDbLine
 10
-3.994713472822695
 20
15.38529125831985
 30
0.0
 11
-3.994713472822695
 21
23.38529125831986
 31
0.0
  0
LINE
  5
4BF
330
4BC
100
AcDbEntity
  8
SUNPO
 62
     0
370
    -2
100
AcDbLine
 10
-43.99471347282269
 20
21.38529125831985
 30
0.0
 11
-5.994713472822695
 21
21.38529125831985
 31
0.0
  0
INSERT
  5
4C0
330
4BC
100
AcDbEntity
  8
SUNPO
 62
     0
370
    -2
100
AcDbBlockReference
  2
_OPEN30
 10
-45.99471347282269
 20
21.38529125831985
 30
0.0
 41
2.0
 42
2.0
 43
2.0
 50
180.0
  0
INSERT
  5
4C1
330
4BC
100
AcDbEntity
  8
SUNPO
 62
     0
370
    -2
100
AcDbBlockReference
  2
_OPEN30
 10
-3.994713472822695
 20
21.38529125831985
 30
0.0
 41
2.0
 42
2.0
 43
2.0
  0
MTEXT
  5
4C2
330
4BC
100
AcDbEntity
  8
SUNPO
 62
     0
100
AcDbMText
 10
-24.9947134728227
 20
23.13529125831985
 30
0.0
 40
2.5
 41
0.0
 71
     5
 72
     1
  1
\A1;420
 73
     1
 44
1.0
1001
ACAD
1000
MTEXTBEGIN
1070
    73
1070
     1
1070
    44
1040
1.0
1070
    74
1070
     0
1000
MTEXTEND
  0
POINT
  5
4C3
330
4BC
100
AcDbEntity
  8
DEFPOINTS
 62
     0
100
AcDbPoint
 10
-45.99471347282269
 20
13.38529125831985
 30
0.0
  0
POINT
  5
4C4
330
4BC
100
AcDbEntity
  8
DEFPOINTS
 62
     0
100
AcDbPoint
 10
-3.994713472822695
 20
13.38529125831985
 30
0.0
  0
POINT
  5
4C5
330
4BC
100
AcDbEntity
  8
DEFPOINTS
 62
     0
100
AcDbPoint
 10
-3.994713472822695
 20
21.38529125831985
 30
0.0
  0
ENDBLK
  5
4C7
330
4BC
100
AcDbEntity
  8
0
100
AcDbBlockEnd
  0
ENDSEC
  0
SECTION
  2
ENTITIES
  0
TEXT
  5
34
330
2
100
AcDbEntity
  8
MOJI1
100
AcDbText
 10
-31.47494565297643
 20
50.33278934736734
 30
0.0
 40
4.0
  1
ネットワークディスクレコーダー
100
AcDbText
  0
TEXT
  5
35
330
2
100
AcDbEntity
  8
TOUROKU
100
AcDbText
 10
45.72500437995081
 20
44.33278934736733
 30
0.0
 40
2.0
  1
ＤＧＮＤ３００Ａ４
 72
     2
 11
66.52500437995081
 21
44.33278934736733
 31
0.0
100
AcDbText
  0
LINE
  5
37
330
2
100
AcDbEntity
  8
GAIKEI
  6
Continuous
 62
     1
100
AcDbLine
 10
-20.09389221861261
 20
8.348397953759103
 30
0.0
 11
-22.09389221861261
 21
8.348397953759103
 31
0.0
  0
LINE
  5
39
330
2
100
AcDbEntity
  8
GAIKEI
  6
Continuous
 62
     1
100
AcDbLine
 10
-20.09389221861261
 20
8.548397953759035
 30
0.0
 11
-22.09389221861261
 21
8.548397953759035
 31
0.0
  0
LINE
  5
3A
330
2
100
AcDbEntity
  8
GAIKEI
  6
Continuous
 62
     1
100
AcDbLine
 10
-20.09389221861261
 20
8.748397953759081
 30
0.0
 11
-22.09389221861261
 21
8.748397953759081
 31
0.0
  0
LINE
  5
3B
330
2
100
AcDbEntity
  8
GAIKEI
  6
Continuous
 62
     1
100
AcDbLine
 10
-20.09389221861261
 20
9.648397953759058
 30
0.0
 11
-22.09389221861261
 21
9.648397953759058
 31
0.0
  0
LINE
  5
3C
330
2
100
AcDbEntity
  8
GAIKEI
  6
Continuous
 62
     1
100
AcDbLine
 10
-20.09389221861261
 20
9.448397953759126
 30
0.0
 11
-22.09389221861261
 21
9.448397953759126
 31
0.0
  0
LINE
  5
3D
330
2
100
AcDbEntity
  8
GAIKEI
  6
Continuous
 62
     1
100
AcDbLine
 10
-20.09389221861261
 20
9.198397953759126
 30
0.0
 11
-22.09389221861261
 21
9.198397953759126
 31
0.0
  0
LINE
  5
3E
330
2
100
AcDbEntity
  8
GAIKEI
  6
Continuous
 62
     1
100
AcDbLine
 10
-20.09389221861261
 20
8.948397953759126
 30
0.0
 11
-22.09389221861261
 21
8.948397953759126
 31
0.0
  0
DIMENSION
  5
3F
330
2
100
AcDbEntity
  8
SUNPO
100
AcDbDimension
  2
*D6
 10
-3.994713472822695
 20
21.38529125831985
 30
0.0
 11
-24.9947134728227
 21
23.13529125831985
 31
0.0
 70
    33
  1
420
 71
     5
 42
42.0
  3
STANDARD
100
AcDbAlignedDimension
 13
-45.99471347282269
 23
13.38529125831985
 33
0.0
 14
-3.994713472822695
 24
13.38529125831985
 34
0.0
1001
ACAD
1000
DSTYLE
1002
{
1070
    40
1040
1.0
1070
   140
1040
2.5
1070
   147
1040
0.5
1070
   172
1070
     1
1002
}
  0
DIMENSION
  5
4E
330
2
100
AcDbEntity
  8
SUNPO
100
AcDbDimension
  2
*D5
 10
7.005286527177304
 20
4.585291258319895
 30
0.0
 11
5.255286527177304
 21
8.985291258319875
 31
0.0
 70
    33
  1
88
 71
     5
 42
8.799999999999954
  3
STANDARD
100
AcDbAlignedDimension
 13
-0.9947134728226956
 23
13.38529125831985
 33
0.0
 14
-0.9947134728226956
 24
4.585291258319898
 34
0.0
1001
ACAD
1000
DSTYLE
1002
{
1070
    40
1040
1.0
1070
   140
1040
2.5
1070
   147
1040
0.5
1070
   172
1070
     1
1002
}
  0
ARC
  5
5B
330
2
100
AcDbEntity
  8
GAIKEI
  6
S10
 62
     1
100
AcDbCircle
 10
-1.194713472822968
 20
4.785291258319887
 30
0.0
 40
0.2
100
AcDbArc
 50
270.0000000000521
 51
0.0
  0
ARC
  5
5D
330
2
100
AcDbEntity
  8
GAIKEI
  6
Continuous
100
AcDbCircle
 10
23.81786321797187
 20
12.86529125831998
 30
0.0
 40
0.1
100
AcDbArc
 50
90.0
 51
180.0
  0
ARC
  5
5E
330
2
100
AcDbEntity
  8
GAIKEI
  6
Continuous
100
AcDbCircle
 10
26.34786321797174
 20
13.3352912583199
 30
0.0
 40
0.1
100
AcDbArc
 50
270.0
 51
0.0
  0
ARC
  5
5F
330
2
100
AcDbEntity
  8
GAIKEI
  6
Continuous
100
AcDbCircle
 10
23.81786321797187
 20
4.915292297138023
 30
0.0
 40
0.1
100
AcDbArc
 50
180.0
 51
269.9999999979156
  0
ARC
  5
60
330
2
100
AcDbEntity
  8
GAIKEI
  6
Continuous
 62
     1
100
AcDbCircle
 10
58.61786368775836
 20
5.28529498310138
 30
0.0
 40
0.1
100
AcDbArc
 50
270.0
 51
0.0
  0
ARC
  5
61
330
2
100
AcDbEntity
  8
GAIKEI
  6
Continuous
 62
     1
100
AcDbCircle
 10
58.61786368775836
 20
9.885294983101289
 30
0.0
 40
0.1
100
AcDbArc
 50
0.0
 51
90.0
  0
ARC
  5
62
330
2
100
AcDbEntity
  8
GAIKEI
  6
Continuous
 62
     1
100
AcDbCircle
 10
58.84786325327138
 20
6.185294983101243
 30
0.0
 40
0.1
100
AcDbArc
 50
270.0
 51
0.0
  0
ARC
  5
63
330
2
100
AcDbEntity
  8
GAIKEI
  6
Continuous
 62
     1
100
AcDbCircle
 10
58.84786325327138
 20
8.985294983101312
 30
0.0
 40
0.1
100
AcDbArc
 50
0.0
 51
90.0
  0
ARC
  5
64
330
2
100
AcDbEntity
  8
GAIKEI
  6
Continuous
 62
     1
100
AcDbCircle
 10
58.84786344256929
 20
11.66529498310103
 30
0.0
 40
0.1
100
AcDbArc
 50
0.0
 51
90.0
  0
ARC
  5
65
330
2
100
AcDbEntity
  8
GAIKEI
  6
Continuous
 62
     1
100
AcDbCircle
 10
58.84786344256929
 20
10.50529498310118
 30
0.0
 40
0.1
100
AcDbArc
 50
270.0
 51
0.0
  0
ARC
  5
66
330
2
100
AcDbEntity
  8
GAIKEI
  6
Continuous
 62
     1
100
AcDbCircle
 10
58.23786274689848
 20
4.68531765894653
 30
0.0
 40
0.1
100
AcDbArc
 50
270.0
 51
0.0
  0
ARC
  5
67
330
2
100
AcDbEntity
  8
GAIKEI
  6
Continuous
100
AcDbCircle
 10
55.35693453649696
 20
3.735291258320387
 30
0.0
 40
0.1000000000001
100
AcDbArc
 50
270.0
 51
354.5596679689617
  0
ARC
  5
68
330
2
100
AcDbEntity
  8
GAIKEI
  6
Continuous
100
AcDbCircle
 10
53.53879189944667
 20
3.735291258320387
 30
0.0
 40
0.1
100
AcDbArc
 50
185.4403320310514
 51
270.0
  0
ARC
  5
69
330
2
100
AcDbEntity
  8
GAIKEI
  6
Continuous
100
AcDbCircle
 10
58.36786344256904
 20
13.30529125832049
 30
0.0
 40
0.0799999999999
100
AcDbArc
 50
0.0
 51
90.0
  0
ARC
  5
6A
330
2
100
AcDbEntity
  8
GAIKEI
  6
Continuous
100
AcDbCircle
 10
58.36786344506982
 20
13.30529381125552
 30
0.0
 40
0.0800000000001
100
AcDbArc
 50
0.0000028317338351
 51
90.00000504153232
  0
ARC
  5
6B
330
2
100
AcDbEntity
  8
GAIKEI
  6
Continuous
 62
     1
100
AcDbCircle
 10
58.50286178085116
 20
6.230342274778195
 30
0.0
 40
0.0550000000002
100
AcDbArc
 50
10.00000000001175
 51
99.99999999997836
  0
ARC
  5
6C
330
2
100
AcDbEntity
  8
GAIKEI
  6
Continuous
 62
     1
100
AcDbCircle
 10
58.50286178085116
 20
6.230342274778195
 30
0.0
 40
0.0550000000002
100
AcDbArc
 50
99.99999999997836
 51
180.0
  0
ARC
  5
6D
330
2
100
AcDbEntity
  8
GAIKEI
  6
Continuous
 62
     1
100
AcDbCircle
 10
58.50286178085116
 20
5.340244927330218
 30
0.0
 40
0.055
100
AcDbArc
 50
259.9999999999415
 51
349.9999999999882
  0
ARC
  5
6E
330
2
100
AcDbEntity
  8
GAIKEI
  6
Continuous
 62
     1
100
AcDbCircle
 10
58.50286178085116
 20
5.340244927330218
 30
0.0
 40
0.0549999999998
100
AcDbArc
 50
180.0
 51
259.9999999999415
  0
ARC
  5
6F
330
2
100
AcDbEntity
  8
GAIKEI
  6
Continuous
 62
     1
100
AcDbCircle
 10
58.50286178085116
 20
12.21024509639824
 30
0.0
 40
0.055
100
AcDbArc
 50
253.2754320207233
 51
349.9999999999882
  0
ARC
  5
70
330
2
100
AcDbEntity
  8
GAIKEI
  6
Continuous
 62
     1
100
AcDbCircle
 10
58.50286178085116
 20
13.10034244384644
 30
0.0
 40
0.0550000000002
100
AcDbArc
 50
99.99999999999866
 51
180.0
  0
ARC
  5
71
330
2
100
AcDbEntity
  8
GAIKEI
  6
Continuous
 62
     1
100
AcDbCircle
 10
58.50286178085116
 20
13.10034244384644
 30
0.0
 40
0.0550000000001
100
AcDbArc
 50
9.999999999998539
 51
99.99999999999866
  0
ARC
  5
72
330
2
100
AcDbEntity
  8
GAIKEI
  6
Continuous
 62
     1
100
AcDbCircle
 10
58.50286178085116
 20
12.21024509639824
 30
0.0
 40
0.055
100
AcDbArc
 50
253.2754320207233
 51
259.9999999999745
  0
ARC
  5
73
330
2
100
AcDbEntity
  8
GAIKEI
  6
Continuous
100
AcDbCircle
 10
23.72786321797162
 20
12.98529181055016
 30
0.0
 40
0.0299999999997
100
AcDbArc
 50
90.0
 51
180.0
  0
ARC
  5
74
330
2
100
AcDbEntity
  8
GAIKEI
  6
Continuous
100
AcDbCircle
 10
28.35693525505428
 20
3.635291810550086
 30
0.0
 40
0.1000000000001
100
AcDbArc
 50
270.0
 51
354.5596679689682
  0
ARC
  5
75
330
2
100
AcDbEntity
  8
GAIKEI
  6
Continuous
100
AcDbCircle
 10
26.53879261800364
 20
3.635291810550086
 30
0.0
 40
0.1
100
AcDbArc
 50
185.4403320310579
 51
270.0
  0
ARC
  5
76
330
2
100
AcDbEntity
  8
GAIKEI
  6
Phantom
 62
     1
100
AcDbCircle
 10
26.24786321797194
 20
13.18529143425746
 30
0.0
 40
0.2
100
AcDbArc
 50
0.0
 51
90.0
  0
ARC
  5
78
330
2
100
AcDbEntity
  8
GAIKEI
  6
Phantom
 62
     1
100
AcDbCircle
 10
26.24786321797194
 20
4.78529143425743
 30
0.0
 40
0.2
100
AcDbArc
 50
270.0
 51
0.0
  0
ARC
  5
79
330
2
100
AcDbEntity
  8
GAIKEI
  6
Continuous
100
AcDbCircle
 10
-8.085642154297602
 20
3.635291258319625
 30
0.0
 40
0.1
100
AcDbArc
 50
270.0
 51
354.5596679690598
  0
ARC
  5
7A
330
2
100
AcDbEntity
  8
GAIKEI
  6
Continuous
100
AcDbCircle
 10
-9.903784791348016
 20
3.635291258319625
 30
0.0
 40
0.0999999999997
100
AcDbArc
 50
185.4403320309532
 51
270.0
  0
ARC
  5
7B
330
2
100
AcDbEntity
  8
GAIKEI
  6
Continuous
100
AcDbCircle
 10
-41.9037847913479
 20
3.635291258319625
 30
0.0
 40
0.0999999999998
100
AcDbArc
 50
185.4403320309532
 51
270.0
  0
ARC
  5
7C
330
2
100
AcDbEntity
  8
GAIKEI
  6
Continuous
100
AcDbCircle
 10
-40.08564215429737
 20
3.635291258319625
 30
0.0
 40
0.1
100
AcDbArc
 50
270.0
 51
354.5596679690468
  0
ARC
  5
7D
330
2
100
AcDbEntity
  8
GAIKEI
  6
S10
 62
     1
100
AcDbCircle
 10
-1.194713472822513
 20
13.18529125831992
 30
0.0
 40
0.1999999999998
100
AcDbArc
 50
0.0
 51
90.00000000005213
  0
ARC
  5
7E
330
2
100
AcDbEntity
  8
GAIKEI
  6
S10
 62
     1
100
AcDbCircle
 10
-48.79471347282265
 20
13.18529125831992
 30
0.0
 40
0.2
100
AcDbArc
 50
90.0
 51
180.0
  0
ARC
  5
7F
330
2
100
AcDbEntity
  8
GAIKEI
  6
S10
 62
     1
100
AcDbCircle
 10
-48.79471347282242
 20
4.785291258319887
 30
0.0
 40
0.2000000000002
100
AcDbArc
 50
180.0
 51
269.9999999999479
  0
SPLINE
  5
80
330
2
100
AcDbEntity
  8
GAIKEI
  6
Continuous
 62
     1
100
AcDbSpline
210
0.0
220
0.0
230
1.0
 70
     8
 71
     3
 72
    17
 73
    13
 74
    11
 42
0.0000000001
 43
0.0000000001
 44
0.00000000001
 40
0.0
 40
0.0
 40
0.0
 40
0.0
 40
0.0427717358242807
 40
0.0837584575637648
 40
0.1161207212020121
 40
0.1475432503121646
 40
0.1749106124982732
 40
0.2023141920584317
 40
0.2329611490501289
 40
0.2644468338971405
 40
0.3035320811277867
 40
0.3442651296821706
 40
0.3442651296821706
 40
0.3442651296821706
 40
0.3442651296821706
 10
-32.1197134728227
 20
5.085291258319898
 30
0.0
 10
-32.11927136718449
 20
5.099541665356852
 30
0.0
 10
-32.11840560652215
 20
5.127447760119423
 30
0.0
 10
-32.11739588281363
 20
5.166141645311199
 30
0.0
 10
-32.11659304412673
 20
5.201056275537055
 30
0.0
 10
-32.1159680181941
 20
5.23143393610168
 30
0.0
 10
-32.11545436049342
 20
5.260160532558202
 30
0.0
 10
-32.11501938800708
 20
5.288629874912032
 30
0.0
 10
-32.11464513390541
 20
5.318472974947027
 30
0.0
 10
-32.11430707066131
 20
5.352210599565054
 30
0.0
 10
-32.11405905464252
 20
5.389311270318742
 30
0.0
 10
-32.1140262673077
 20
5.415917390581
 30
0.0
 10
-32.11400953520274
 20
5.429495084489758
 30
0.0
 11
-32.1197134728227
 21
5.085291258319898
 31
0.0
 11
-32.11842299653085
 21
5.128043522077064
 31
0.0
 11
-32.11734454124337
 21
5.169016053035534
 31
0.0
 11
-32.11659907411399
 21
5.201369729589373
 31
0.0
 11
-32.11595528719386
 21
5.232785663032132
 31
0.0
 11
-32.11546643319036
 21
5.260148658752427
 31
0.0
 11
-32.11504770684837
 21
5.287549039059285
 31
0.0
 11
-32.11466133712588
 21
5.318193560450367
 31
0.0
 11
-32.11434806922535
 21
5.349677686823952
 31
0.0
 11
-32.11409751188512
 21
5.388762130943064
 31
0.0
 11
-32.11400953520274
 21
5.429495084489758
 31
0.0
  0
SPLINE
  5
81
330
2
100
AcDbEntity
  8
GAIKEI
  6
Continuous
 62
     1
100
AcDbSpline
210
0.0
220
0.0
230
1.0
 70
     8
 71
     3
 72
    83
 73
    79
 74
    77
 42
0.0000000001
 43
0.0000000001
 44
0.00000000001
 40
0.0
 40
0.0
 40
0.0
 40
0.0
 40
0.1006916171909065
 40
0.1970428337209281
 40
0.2729364013791637
 40
0.34655984157975
 40
0.4119605511997168
 40
0.4793822698518023
 40
0.5478161756842236
 40
0.6162525473292101
 40
0.6847119289775357
 40
0.7531739021209286
 40
0.8216553750096034
 40
0.8901358312197462
 40
0.9586245576684198
 40
1.02711136400455
 40
1.0956072637837
 40
1.164098438500521
 40
1.232628879213168
 40
1.301159708251685
 40
1.36978452365903
 40
1.438419863882123
 40
1.507160762325494
 40
1.575916020614353
 40
1.644671722412466
 40
1.71342128755343
 40
1.782022795033418
 40
1.850600415038539
 40
1.919021060220037
 40
1.987437487995923
 40
2.055823159640453
 40
2.124229467853564
 40
2.192651664129586
 40
2.261084208509012
 40
2.329428188344206
 40
2.397758017145578
 40
2.465915560040876
 40
2.534058978690171
 40
2.602076057642014
 40
2.6700890568396
 40
2.738101136412084
 40
2.806117890439696
 40
2.874256133399277
 40
2.942407815224643
 40
3.010724300372654
 40
3.07905431510516
 40
3.147469115536733
 40
3.215873918467561
 40
3.284263676699097
 40
3.352632855603192
 40
3.421036105753136
 40
3.489443557060853
 40
3.558013872533972
 40
3.626608280630768
 40
3.695358583422474
 40
3.764115380713935
 40
3.832879281013677
 40
3.90162944437755
 40
3.970276796289726
 40
4.038913234079021
 40
4.107452385040111
 40
4.175990368934829
 40
4.244485317410741
 40
4.312985041141475
 40
4.381474622169676
 40
4.449966359529141
 40
4.518449865758209
 40
4.586934468834821
 40
4.655399273592291
 40
4.723861427015848
 40
4.792299846440058
 40
4.860735565486639
 40
4.928159145346644
 40
4.993561394765671
 40
5.06719009135482
 40
5.143089783235845
 40
5.239453830485276
 40
5.340159376275978
 40
5.340159376275978
 40
5.340159376275978
 40
5.340159376275978
 10
-18.64471347281255
 20
8.985291258319762
 30
0.0
 10
-18.64420515706658
 20
9.018861740617623
 30
0.0
 10
-18.64321043697164
 20
9.08455562006749
 30
0.0
 10
-18.63481035556162
 20
9.17523334540229
 30
0.0
 10
-18.62327911750418
 20
9.256386405340649
 30
0.0
 10
-18.61051306719431
 20
9.32690241269924
 30
0.0
 10
-18.59530156994155
 20
9.394035273921332
 30
0.0
 10
-18.57784724474725
 20
9.458827971792729
 30
0.0
 10
-18.55761119672687
 20
9.523867703281993
 30
0.0
 10
-18.5346325169323
 20
9.58835830035764
 30
0.0
 10
-18.50907852940737
 20
9.651882167220833
 30
0.0
 10
-18.48096373922546
 20
9.714331630082597
 30
0.0
 10
-18.45035375485814
 20
9.775604283712581
 30
0.0
 10
-18.41729501776916
 20
9.835601381824346
 30
0.0
 10
-18.38185125181161
 20
9.894223111031436
 30
0.0
 10
-18.34407568142339
 20
9.951376239129302
 30
0.0
 10
-18.30403373985931
 20
10.00696609189087
 30
0.0
 10
-18.26177690597296
 20
10.06091003137666
 30
0.0
 10
-18.21737051402052
 20
10.11311432452518
 30
0.0
 10
-18.17085089562214
 20
10.16350532648408
 30
0.0
 10
-18.12230211120342
 20
10.21199416023897
 30
0.0
 10
-18.07176327638477
 20
10.25850850130301
 30
0.0
 10
-18.01935426254038
 20
10.3029717527756
 30
0.0
 10
-17.96516825162517
 20
10.34531634991867
 30
0.0
 10
-17.90932628009698
 20
10.38545670502563
 30
0.0
 10
-17.85196439305606
 20
10.42330034283114
 30
0.0
 10
-17.79318474110304
 20
10.45878715284078
 30
0.0
 10
-17.73312692600775
 20
10.49183850212176
 30
0.0
 10
-17.67184072579914
 20
10.52241508569354
 30
0.0
 10
-17.60941899809796
 20
10.55044550116329
 30
0.0
 10
-17.54591506251456
 20
10.57591689195322
 30
0.0
 10
-17.48142011536366
 20
10.59876850254878
 30
0.0
 10
-17.41604174672074
 20
10.61900520565787
 30
0.0
 10
-17.34992580813834
 20
10.63660287665939
 30
0.0
 10
-17.28319106859351
 20
10.65154380843768
 30
0.0
 10
-17.21600528870133
 20
10.66380341773927
 30
0.0
 10
-17.14845128820734
 20
10.67337146234303
 30
0.0
 10
-17.08067375872603
 20
10.68023413197269
 30
0.0
 10
-17.01272319938676
 20
10.68437107937106
 30
0.0
 10
-16.94470439491623
 20
10.68574416658417
 30
0.0
 10
-16.87668571366768
 20
10.68437034336736
 30
0.0
 10
-16.80873733731275
 20
10.68023276974088
 30
0.0
 10
-16.74096363825565
 20
10.67336990852229
 30
0.0
 10
-16.67341774507801
 20
10.66380260347209
 30
0.0
 10
-16.60624285667411
 20
10.65154496174334
 30
0.0
 10
-16.5395226548746
 20
10.63660788468191
 30
0.0
 10
-16.47342224328198
 20
10.61901556621194
 30
0.0
 10
-16.40805977850086
 20
10.59878579957444
 30
0.0
 10
-16.34357981073316
 20
10.57594229341271
 30
0.0
 10
-16.28008895212295
 20
10.55047972263773
 30
0.0
 10
-16.21767866553498
 20
10.52245873435467
 30
0.0
 10
-16.15640054398936
 20
10.49189112560427
 30
0.0
 10
-16.09634848128789
 20
10.4588484152941
 30
0.0
 10
-16.03757012236366
 20
10.42336828752427
 30
0.0
 10
-15.98020685890789
 20
10.38552992343418
 30
0.0
 10
-15.92435904391438
 20
10.34539171428366
 30
0.0
 10
-15.87016498292465
 20
10.30304712058287
 30
0.0
 10
-15.81774537706203
 20
10.25858092847636
 30
0.0
 10
-15.76719558001429
 20
10.21206229093417
 30
0.0
 10
-15.71863660130994
 20
10.16356857703627
 30
0.0
 10
-15.67210828028668
 20
10.11317313083326
 30
0.0
 10
-15.62769530320965
 20
10.06096583631363
 30
0.0
 10
-15.58543316012558
 20
10.0070196403509
 30
0.0
 10
-15.54538704326065
 20
9.951428530424976
 30
0.0
 10
-15.50760762768219
 20
9.894274100796607
 30
0.0
 10
-15.47216033316981
 20
9.835651060239882
 30
0.0
 10
-15.4390981842381
 20
9.775652340957606
 30
0.0
 10
-15.40848501857535
 20
9.714377915676692
 30
0.0
 10
-15.38036727692309
 20
9.651926586021843
 30
0.0
 10
-15.35481069334283
 20
9.588401011836992
 30
0.0
 10
-15.33182967322488
 20
9.523908900450962
 30
0.0
 10
-15.31159147690147
 20
9.458867838788194
 30
0.0
 10
-15.29413515229897
 20
9.39407387909128
 30
0.0
 10
-15.27892140084643
 20
9.326938568469387
 30
0.0
 10
-15.26615306813242
 20
9.256418592069408
 30
0.0
 10
-15.25461915955826
 20
9.175257758226763
 30
0.0
 10
-15.24621687563499
 20
9.08456919218365
 30
0.0
 10
-15.24522191352514
 20
9.018866386700139
 30
0.0
 10
-15.24471347282269
 20
8.985291258319762
 30
0.0
 11
-18.64471347281255
 21
8.985291258319762
 31
0.0
 11
-18.64186467274192
 21
9.085942567852612
 31
0.0
 11
-18.63331172761036
 21
9.181913417887358
 31
0.0
 11
-18.62269112570516
 21
9.25706018379958
 31
0.0
 11
-18.60946775852403
 21
9.329486377316584
 31
0.0
 11
-18.59503042711742
 21
9.393273650974037
 31
0.0
 11
-18.57752254758259
 21
9.458382500604443
 31
0.0
 11
-18.55717153434932
 21
9.523720358909258
 31
0.0
 11
-18.53420657107949
 21
9.588188548165248
 31
0.0
 11
-18.50865304604861
 21
9.651699998268099
 31
0.0
 11
-18.48055115929151
 21
9.714128563263443
 31
0.0
 11
-18.44994615166854
 21
9.77539066931115
 31
0.0
 11
-18.41689903900897
 21
9.835369509143333
 31
0.0
 11
-18.38146273501456
 21
9.89397816046528
 31
0.0
 11
-18.34369974953711
 21
9.951113084723147
 31
0.0
 11
-18.30366512822047
 21
10.00669111439845
 31
0.0
 11
-18.26142815620199
 21
10.06060845120953
 31
0.0
 11
-18.21702336636827
 21
10.11280649661444
 31
0.0
 11
-18.17053846336353
 21
10.16316151941601
 31
0.0
 11
-18.12198140231908
 21
10.21165458193445
 31
0.0
 11
-18.07148338070112
 21
10.25813855487365
 31
0.0
 11
-18.0190669192375
 21
10.30261130705332
 31
0.0
 11
-17.96489274806402
 21
10.34494858046616
 31
0.0
 11
-17.90906414773337
 21
10.3850797892054
 31
0.0
 11
-17.85167798833185
 21
10.42293915285847
 31
0.0
 11
-17.79294898030627
 21
10.45839434210995
 31
0.0
 11
-17.73286675422241
 21
10.49145513572375
 31
0.0
 11
-17.6716406241012
 21
10.52199602106509
 31
0.0
 11
-17.60922847155905
 21
10.55002334353207
 31
0.0
 11
-17.54575664843696
 21
10.57547776860576
 31
0.0
 11
-17.48128037349045
 21
10.59833018581639
 31
0.0
 11
-17.41591877346604
 21
10.61856525896883
 31
0.0
 11
-17.34978900768919
 21
10.63616830440253
 31
0.0
 11
-17.28309628066085
 21
10.65110081059663
 31
0.0
 11
-17.21587622545019
 21
10.66336578844004
 31
0.0
 11
-17.14839211591288
 21
10.67292327835537
 31
0.0
 11
-17.08059493829489
 21
10.6797839060415
 31
0.0
 11
-17.01270318091929
 21
10.68391092792092
 31
0.0
 11
-16.94470409083749
 21
10.6852863579985
 31
0.0
 11
-16.87670593527196
 21
10.68391020122715
 31
0.0
 11
-16.80881454699749
 21
10.67978246254608
 31
0.0
 11
-16.74102257884829
 21
10.67292176228477
 31
0.0
 11
-16.67354432799129
 21
10.66336470222916
 31
0.0
 11
-16.6063374014991
 21
10.65110210974421
 31
0.0
 11
-16.53965817796313
 21
10.63617320951732
 31
0.0
 11
-16.47354525221988
 21
10.61857588109058
 31
0.0
 11
-16.40819969913491
 21
10.59834778785307
 31
0.0
 11
-16.34373814362857
 21
10.57550338169596
 31
0.0
 11
-16.28028039504875
 21
10.55005817057088
 31
0.0
 11
-16.21787866236923
 21
10.52203981248783
 31
0.0
 11
-16.15666236780271
 21
10.49150876805822
 31
0.0
 11
-16.09658422849497
 21
10.45845569949563
 31
0.0
 11
-16.03785868827515
 21
10.42300850287813
 31
0.0
 11
-15.9804690658957
 21
10.38515304914824
 31
0.0
 11
-15.92463657156486
 21
10.34502538100548
 31
0.0
 11
-15.87045253678059
 21
10.30268669468989
 31
0.0
 11
-15.81802602021662
 21
10.25821147323427
 31
0.0
 11
-15.76751628952115
 21
10.21172248497225
 31
0.0
 11
-15.71894834645468
 21
10.16322387160346
 31
0.0
 11
-15.67245531955427
 21
10.11286502268785
 31
0.0
 11
-15.62804331164557
 21
10.06066321438709
 31
0.0
 11
-15.58580180918545
 21
10.00674463283462
 31
0.0
 11
-15.5457628071191
 21
9.951165046071878
 31
0.0
 11
-15.50799621532451
 21
9.894029179458698
 31
0.0
 11
-15.47255634784335
 21
9.835419164278391
 31
0.0
 11
-15.43950583394871
 21
9.775438716157964
 31
0.0
 11
-15.40889758744333
 21
9.71417472914743
 31
0.0
 11
-15.38079278848431
 21
9.651744369818402
 31
0.0
 11
-15.35523657615977
 21
9.588231013246627
 31
0.0
 11
-15.33226932466687
 21
9.5237614653023
 31
0.0
 11
-15.31191618385958
 21
9.458422370567973
 31
0.0
 11
-15.29440626008795
 21
9.393312143332536
 31
0.0
 11
-15.27996707098793
 21
9.329523711409478
 31
0.0
 11
-15.2667411869196
 21
9.257092634156492
 31
0.0
 11
-15.2561183203951
 21
9.181940003234899
 31
0.0
 11
-15.24756303074503
 21
9.085956480579739
 31
0.0
 11
-15.24471347282269
 21
8.985291258319762
 31
0.0
  0
SPLINE
  5
82
330
2
100
AcDbEntity
  8
GAIKEI
  6
Continuous
 62
     1
100
AcDbSpline
210
0.0
220
0.0
230
1.0
 70
     8
 71
     3
 72
    83
 73
    79
 74
    77
 42
0.0000000001
 43
0.0000000001
 44
0.00000000001
 40
0.0
 40
0.0
 40
0.0
 40
0.0
 40
0.1007051391640497
 40
0.1970687725042469
 40
0.2729679685501039
 40
0.3465961554936132
 40
0.4119978370738168
 40
0.4794208448846609
 40
0.5478560061877135
 40
0.6162938722164975
 40
0.6847555506280055
 40
0.7532198810267851
 40
0.8217041163684031
 40
0.8901872391934563
 40
0.9586787868435216
 40
1.027168153959381
 40
1.095668134181627
 40
1.164163359677962
 40
1.232702441719264
 40
1.301242822017853
 40
1.369880959002779
 40
1.438529990609771
 40
1.50728139112236
 40
1.576046385139904
 40
1.64480375055662
 40
1.713554693518046
 40
1.782149447150691
 40
1.850720112695596
 40
1.919127395091705
 40
1.987530391656868
 40
2.055898987745893
 40
2.124288203610237
 40
2.192692544533748
 40
2.261106921923867
 40
2.329436601246298
 40
2.397752742889448
 40
2.465904050391097
 40
2.53404190463458
 40
2.602058240004555
 40
2.670069898680225
 40
2.738082521450159
 40
2.806099230443726
 40
2.874242380657057
 40
2.94239967198943
 40
3.010729306415004
 40
3.079073101089309
 40
3.147505337631142
 40
3.21592718303708
 40
3.284332974058684
 40
3.352718080259636
 40
3.421134184568873
 40
3.489554582922004
 40
3.558132457874414
 40
3.626734218477209
 40
3.695484412753217
 40
3.764240689265168
 40
3.832997139894521
 40
3.901739388697164
 40
3.97037647897499
 40
4.039003059633548
 40
4.10753494936636
 40
4.176066283193189
 40
4.244557282003624
 40
4.313052960044473
 40
4.38153909918286
 40
4.450027204702766
 40
4.518507157876735
 40
4.586988178385149
 40
4.655449928020426
 40
4.723909096799831
 40
4.79234533880098
 40
4.860779102687871
 40
4.928200649112646
 40
4.993601192595709
 40
5.067224344185238
 40
5.143117601500419
 40
5.239468309861385
 40
5.340159384879573
 40
5.340159384879573
 40
5.340159384879573
 40
5.340159384879573
 10
-15.24471347282269
 20
8.985291258319762
 30
0.0
 10
-15.24522191851808
 20
8.951716265881557
 30
0.0
 10
-15.24621689027332
 20
8.886013734694387
 30
0.0
 10
-15.25461906589443
 20
8.795325601760396
 30
0.0
 10
-15.26615279421919
 20
8.714165220980873
 30
0.0
 10
-15.27892086733826
 20
8.643645731422182
 30
0.0
 10
-15.29413433470816
 20
8.576510919874152
 30
0.0
 10
-15.3115904059966
 20
8.511717477557809
 30
0.0
 10
-15.33182835363408
 20
8.446676925831923
 30
0.0
 10
-15.35480915108315
 20
8.382185296178292
 30
0.0
 10
-15.38036549916236
 20
8.31866016777036
 30
0.0
 10
-15.40848297355405
 20
8.25620920005366
 30
0.0
 10
-15.43909583728928
 20
8.19493508128373
 30
0.0
 10
-15.47215767792817
 20
8.134936551001914
 30
0.0
 10
-15.50760465018948
 20
8.076313622806694
 30
0.0
 10
-15.54538382523645
 20
8.019159093544573
 30
0.0
 10
-15.58542978225112
 20
7.963567737292848
 30
0.0
 10
-15.62769203524743
 20
7.909620936448149
 30
0.0
 10
-15.67210537690562
 20
7.857412811052654
 30
0.0
 10
-15.71863445155362
 20
7.807016232564876
 30
0.0
 10
-15.76719441053613
 20
7.758521323975656
 30
0.0
 10
-15.81774531324042
 20
7.712001612985545
 30
0.0
 10
-15.87016595594927
 20
7.667534575087103
 30
0.0
 10
-15.92436082551455
 20
7.62518944501906
 30
0.0
 10
-15.98020933673566
 20
7.58505088884118
 30
0.0
 10
-16.03757311024398
 20
7.547212356718389
 30
0.0
 10
-16.0963519312637
 20
7.511732132187603
 30
0.0
 10
-16.15640423388383
 20
7.478689493111176
 30
0.0
 10
-16.21768241037735
 20
7.448122049386796
 30
0.0
 10
-16.28009245234073
 20
7.420101335060152
 30
0.0
 10
-16.3435829343339
 20
7.394639061145454
 30
0.0
 10
-16.40806243877881
 20
7.371795833007126
 30
0.0
 10
-16.4734244747632
 20
7.35156629121127
 30
0.0
 10
-16.53952451259648
 20
7.333974151309448
 30
0.0
 10
-16.60624436938243
 20
7.31903721552409
 30
0.0
 10
-16.67341892214622
 20
7.306779691261837
 30
0.0
 10
-16.74096445614134
 20
7.29721248225168
 30
0.0
 10
-16.80873776641554
 20
7.290349693949465
 30
0.0
 10
-16.87668573504534
 20
7.286212165881778
 30
0.0
 10
-16.94470401080486
 20
7.284838355078406
 30
0.0
 10
-17.01272242618529
 20
7.286211424983164
 30
0.0
 10
-17.08067264892889
 20
7.290348329984624
 30
0.0
 10
-17.14844988653541
 20
7.297210934990985
 30
0.0
 10
-17.21600365793843
 20
7.306778897088761
 30
0.0
 10
-17.2831892421927
 20
7.319038405376772
 30
0.0
 10
-17.34992377489518
 20
7.333979211066136
 30
0.0
 10
-17.4160394665766
 20
7.351576714628365
 30
0.0
 10
-17.48141749540163
 20
7.371813188788124
 30
0.0
 10
-17.54591203945406
 20
7.394664504505982
 30
0.0
 10
-17.60941560594552
 20
7.420135555103541
 30
0.0
 10
-17.67183706589294
 20
7.448165642304616
 30
0.0
 10
-17.73312326024799
 20
7.478742001726217
 30
0.0
 10
-17.79318124523789
 20
7.511793223752079
 30
0.0
 10
-17.85196130488464
 20
7.54728009278611
 30
0.0
 10
-17.90932367292664
 20
7.58512388425089
 30
0.0
 10
-17.96516635983666
 20
7.625264613603874
 30
0.0
 10
-18.01935323054084
 20
7.667609799810549
 30
0.0
 10
-18.07176334966899
 20
7.712073961673084
 30
0.0
 10
-18.12230336047936
 20
7.758589421991786
 30
0.0
 10
-18.17085315457104
 20
7.807079405182818
 30
0.0
 10
-18.21737351337646
 20
7.857471411606553
 30
0.0
 10
-18.26178016323907
 20
7.909676264353294
 30
0.0
 10
-18.30403695200883
 20
7.963620448884867
 30
0.0
 10
-18.34407854080876
 20
8.019210118209826
 30
0.0
 10
-18.38185368483087
 20
8.076362924502134
 30
0.0
 10
-18.41729699817297
 20
8.13498422933361
 30
0.0
 10
-18.4503553367872
 20
8.194980947013675
 30
0.0
 10
-18.480964990542
 20
8.256253326419056
 30
0.0
 10
-18.50907949785378
 20
8.318702591927873
 30
0.0
 10
-18.5346332301964
 20
8.382226358145715
 30
0.0
 10
-18.55761168670311
 20
8.446716862621428
 30
0.0
 10
-18.57784757554287
 20
8.5117564879653
 30
0.0
 10
-18.59530178927575
 20
8.576549049118483
 30
0.0
 10
-18.61051324460899
 20
8.643681704635852
 30
0.0
 10
-18.62327927902369
 20
8.714197455811941
 30
0.0
 10
-18.63481045910623
 20
8.795350151592742
 30
0.0
 10
-18.64321047962844
 20
8.886027426862938
 30
0.0
 10
-18.64420517151095
 20
8.951720956561288
 30
0.0
 10
-18.64471347281255
 20
8.985291258319762
 30
0.0
 11
-15.24471347282269
 21
8.985291258319762
 31
0.0
 11
-15.24756302416415
 21
8.884626442663034
 31
0.0
 11
-15.25611820976076
 21
8.788643326283477
 31
0.0
 11
-15.26674089758171
 21
8.713491170866177
 31
0.0
 11
-15.279966530627
 21
8.641060565849102
 31
0.0
 11
-15.2944054490888
 21
8.577272654869261
 31
0.0
 11
-15.31191511289148
 21
8.512162950095103
 31
0.0
 11
-15.33226800724833
 21
8.446824362768211
 31
0.0
 11
-15.35523502086596
 21
8.382355317544465
 31
0.0
 11
-15.38079100127584
 21
8.318842379679722
 31
0.0
 11
-15.40889551924795
 21
8.256412414066176
 31
0.0
 11
-15.43950348093108
 21
8.195148695831562
 31
0.0
 11
-15.47255365372439
 21
8.135168497514086
 31
0.0
 11
-15.50799323649983
 21
8.076558531875093
 31
0.0
 11
-15.54575949870025
 21
8.01942270382176
 31
0.0
 11
-15.58579842805954
 21
7.963842748566207
 31
0.0
 11
-15.62803987877919
 21
7.909923774569165
 31
0.0
 11
-15.67245239991303
 21
7.857720961104746
 31
0.0
 11
-15.71894610371532
 21
7.807361063981943
 31
0.0
 11
-15.76751514604984
 21
7.758861146709136
 31
0.0
 11
-15.81802608077942
 21
7.712370986316614
 31
0.0
 11
-15.87045355678163
 21
7.667894983433257
 31
0.0
 11
-15.92463850103593
 21
7.625555684686219
 31
0.0
 11
-15.98047152701656
 21
7.585427782811166
 31
0.0
 11
-16.03786176157393
 21
7.547572094526117
 31
0.0
 11
-16.09658767923099
 21
7.512124854559374
 31
0.0
 11
-16.15666620970126
 21
7.479071770742507
 31
0.0
 11
-16.2178824295554
 21
7.448540954972372
 31
0.0
 11
-16.28028399333482
 21
7.420522839814907
 31
0.0
 11
-16.34374125082877
 21
7.39507796994826
 31
0.0
 11
-16.40820233131296
 21
7.372233847085908
 31
0.0
 11
-16.4735474693382
 21
7.352005975382667
 31
0.0
 11
-16.53966000572745
 21
7.33440882885668
 31
0.0
 11
-16.60633891579073
 21
7.31948006370078
 31
0.0
 11
-16.67354551420953
 21
7.307217586871843
 31
0.0
 11
-16.74102340070976
 21
7.297660623565093
 31
0.0
 11
-16.80881498547137
 21
7.290799995575184
 31
0.0
 11
-16.87670595708266
 21
7.286672302413649
 31
0.0
 11
-16.94470369192947
 21
7.285296158700816
 31
0.0
 11
-17.01270240585086
 21
7.286671571759939
 31
0.0
 11
-17.08059379530323
 21
7.290798548927568
 31
0.0
 11
-17.14839070942946
 21
7.297659114207249
 31
0.0
 11
-17.21587457686678
 21
7.307216519580492
 31
0.0
 11
-17.28309445240279
 21
7.319481399264191
 31
0.0
 11
-17.34978701591149
 21
7.334413788326969
 31
0.0
 11
-17.41591650933674
 21
7.352016660178946
 31
0.0
 11
-17.48127780919253
 21
7.372251516489654
 31
0.0
 11
-17.54575364483787
 21
7.395103624994703
 31
0.0
 11
-17.60922500827257
 21
7.420557677203646
 31
0.0
 11
-17.67163694367582
 21
7.448584693599855
 31
0.0
 11
-17.73286294111654
 21
7.479125291959917
 31
0.0
 11
-17.79294548233815
 21
7.512186041699465
 31
0.0
 11
-17.85167479126653
 21
7.547641222288461
 31
0.0
 11
-17.90906155173457
 21
7.58550081732028
 31
0.0
 11
-17.96489068368646
 21
7.625632271135032
 31
0.0
 11
-18.01906583652362
 21
7.667970224772602
 31
0.0
 11
-18.07148334197211
 21
7.712443833722204
 31
0.0
 11
-18.12198263095899
 21
7.758929013872716
 31
0.0
 11
-18.17054087301676
 21
7.807423391909196
 31
0.0
 11
-18.21702639357227
 21
7.857779288177994
 31
0.0
 11
-18.26143163347228
 21
7.909978123275209
 31
0.0
 11
-18.30366835090262
 21
7.963895436067673
 31
0.0
 11
-18.34370269513101
 21
8.01947339206174
 31
0.0
 11
-18.38146516430004
 21
8.076607857810017
 31
0.0
 11
-18.41690100281153
 21
8.135216064971587
 31
0.0
 11
-18.44994772690199
 21
8.19519454455883
 31
0.0
 11
-18.48055237887888
 21
8.256456322587609
 31
0.0
 11
-18.50865401053215
 21
8.318884757307273
 31
0.0
 11
-18.53420727817024
 21
8.382396081517867
 31
0.0
 11
-18.55717203537131
 21
8.446864206556028
 31
0.0
 11
-18.57752288907227
 21
8.512201965879171
 31
0.0
 11
-18.59503065894557
 21
8.577310666652351
 31
0.0
 11
-18.60946794918061
 21
8.641097779289225
 31
0.0
 11
-18.62269128406399
 21
8.713523685321092
 31
0.0
 11
-18.63331184127764
 21
8.78867014412242
 31
0.0
 11
-18.64186472087601
 21
8.884640489814387
 31
0.0
 11
-18.64471347281255
 21
8.985291258319762
 31
0.0
  0
CIRCLE
  5
83
330
2
100
AcDbEntity
  8
GAIKEI
  6
Continuous
 62
     1
100
AcDbCircle
 10
-30.2438833334187
 20
7.68529125831958
 30
0.0
 40
0.1
  0
CIRCLE
  5
84
330
2
100
AcDbEntity
  8
GAIKEI
  6
Continuous
 62
     1
100
AcDbCircle
 10
-16.94471347282263
 20
8.985291258319762
 30
0.0
 40
0.54093707777
  0
CIRCLE
  5
85
330
2
100
AcDbEntity
  8
GAIKEI
  6
Continuous
 62
     1
100
AcDbCircle
 10
-16.94471347282263
 20
8.985291258319762
 30
0.0
 40
1.2921891992601
  0
CIRCLE
  5
86
330
2
100
AcDbEntity
  8
GAIKEI
  6
Continuous
 62
     1
100
AcDbCircle
 10
51.64786344256924
 20
6.305291258319925
 30
0.0
 40
0.5
  0
CIRCLE
  5
87
330
2
100
AcDbEntity
  8
GAIKEI
  6
Continuous
 62
     1
100
AcDbCircle
 10
25.74786321797194
 20
6.985291810550165
 30
0.0
 40
0.25
  0
CIRCLE
  5
88
330
2
100
AcDbEntity
  8
GAIKEI
  6
Continuous
 62
     1
100
AcDbCircle
 10
25.74786321797194
 20
10.98529181055016
 30
0.0
 40
0.25
  0
CIRCLE
  5
89
330
2
100
AcDbEntity
  8
GAIKEI
  6
Continuous
 62
     1
100
AcDbCircle
 10
28.94786344256932
 20
6.305291810549874
 30
0.0
 40
0.4999999999998
  0
CIRCLE
  5
8A
330
2
100
AcDbEntity
  8
GAIKEI
  6
S10
 62
     1
100
AcDbCircle
 10
25.04786393652921
 20
6.985291434257419
 30
0.0
 40
0.25
  0
CIRCLE
  5
8B
330
2
100
AcDbEntity
  8
GAIKEI
  6
S10
 62
     1
100
AcDbCircle
 10
25.04786393652921
 20
10.98529143425742
 30
0.0
 40
0.25
  0
CIRCLE
  5
8C
330
2
100
AcDbEntity
  8
GAIKEI
  6
Continuous
 62
     1
100
AcDbCircle
 10
51.64786344256924
 20
6.305294804185905
 30
0.0
 40
0.25
  0
CIRCLE
  5
8D
330
2
100
AcDbEntity
  8
GAIKEI
  6
Continuous
 62
     1
100
AcDbCircle
 10
28.94786344256932
 20
6.305291810549874
 30
0.0
 40
0.25
  0
ARC
  5
8E
330
2
100
AcDbEntity
  8
GAIKEI
  6
Continuous
100
AcDbCircle
 10
42.56392806289182
 20
8.985291512684966
 30
0.0
 40
19.9999999999999
100
AcDbArc
 50
180.0000002246731
 51
191.2447235923993
  0
ARC
  5
8F
330
2
100
AcDbEntity
  8
GAIKEI
  6
Continuous
100
AcDbCircle
 10
42.56392806289182
 20
8.985291512684966
 30
0.0
 40
19.9999999999999
100
AcDbArc
 50
168.7552764076007
 51
180.0000002246731
  0
ARC
  5
90
330
2
100
AcDbEntity
  8
GAIKEI
  6
Continuous
 62
     1
100
AcDbCircle
 10
-30.44471347282263
 20
8.985291258319762
 30
0.0
 40
10.45
100
AcDbArc
 50
158.0865399486964
 51
201.9134600513035
  0
ARC
  5
91
330
2
100
AcDbEntity
  8
GAIKEI
  6
Continuous
 62
     1
100
AcDbCircle
 10
-30.44471347282263
 20
8.985291258319762
 30
0.0
 40
10.4
100
AcDbArc
 50
157.975687163
 51
202.024312837
  0
ARC
  5
92
330
2
100
AcDbEntity
  8
GAIKEI
  6
Continuous
 62
     1
100
AcDbCircle
 10
-16.94471347282263
 20
8.985291258319762
 30
0.0
 40
0.75
100
AcDbArc
 50
344.5339900466074
 51
15.4660099533994
  0
ARC
  5
93
330
2
100
AcDbEntity
  8
GAIKEI
  6
Continuous
 62
     1
100
AcDbCircle
 10
-16.94471347282263
 20
8.985291258319762
 30
0.0
 40
0.7499999999999001
100
AcDbArc
 50
164.5339900466006
 51
195.4660099533926
  0
ARC
  5
94
330
2
100
AcDbEntity
  8
GAIKEI
  6
Continuous
 62
     1
100
AcDbCircle
 10
-16.94471347282263
 20
8.985291258319762
 30
0.0
 40
0.7499999999999001
100
AcDbArc
 50
254.5339900466067
 51
285.4660099533996
  0
ARC
  5
95
330
2
100
AcDbEntity
  8
GAIKEI
  6
Continuous
 62
     1
100
AcDbCircle
 10
-16.94471347282263
 20
8.985291258319762
 30
0.0
 40
0.75
100
AcDbArc
 50
74.53399004660041
 51
105.4660099533933
  0
ARC
  5
96
330
2
100
AcDbEntity
  8
GAIKEI
  6
Continuous
 62
     1
100
AcDbCircle
 10
55.84786344256929
 20
6.305291258320494
 30
0.0
 40
0.95
100
AcDbArc
 50
270.0
 51
90.0
  0
ARC
  5
97
330
2
100
AcDbEntity
  8
GAIKEI
  6
Continuous
 62
     1
100
AcDbCircle
 10
51.57786344256942
 20
6.235291258320216
 30
0.0
 40
0.035
100
AcDbArc
 50
0.0
 51
90.0
  0
ARC
  5
98
330
2
100
AcDbEntity
  8
GAIKEI
  6
Continuous
 62
     1
100
AcDbCircle
 10
51.57786344256942
 20
6.375291258320089
 30
0.0
 40
0.0349999999998
100
AcDbArc
 50
270.0
 51
0.0
  0
ARC
  5
99
330
2
100
AcDbEntity
  8
GAIKEI
  6
Continuous
 62
     1
100
AcDbCircle
 10
51.71786344256941
 20
6.375291258320089
 30
0.0
 40
0.035
100
AcDbArc
 50
180.0
 51
270.0
  0
ARC
  5
9A
330
2
100
AcDbEntity
  8
GAIKEI
  6
Continuous
 62
     1
100
AcDbCircle
 10
51.71786344256941
 20
6.235291258320216
 30
0.0
 40
0.0350000000001
100
AcDbArc
 50
90.0
 51
180.0
  0
ARC
  5
9B
330
2
100
AcDbEntity
  8
GAIKEI
  6
Continuous
 62
     1
100
AcDbCircle
 10
57.66099647772512
 20
12.38530342523779
 30
0.0
 40
0.8568549215007999
100
AcDbArc
 50
339.2754553013116
 51
20.7245446987039
  0
ARC
  5
9C
330
2
100
AcDbEntity
  8
GAIKEI
  6
Continuous
 62
     1
100
AcDbCircle
 10
57.66099647772512
 20
5.085297824345616
 30
0.0
 40
0.8568549215006001
100
AcDbArc
 50
339.2754553012977
 51
13.54353115280392
  0
ARC
  5
9D
330
2
100
AcDbEntity
  8
GAIKEI
  6
Continuous
 62
     1
100
AcDbCircle
 10
27.54786344256923
 20
6.305291810549874
 30
0.0
 40
0.95
100
AcDbArc
 50
90.0
 51
270.0
  0
ARC
  5
9E
330
2
100
AcDbEntity
  8
GAIKEI
  6
Continuous
 62
     1
100
AcDbCircle
 10
27.54786344256923
 20
6.305291810549874
 30
0.0
 40
0.6000000000000001
100
AcDbArc
 50
90.0
 51
270.0
  0
ARC
  5
9F
330
2
100
AcDbEntity
  8
GAIKEI
  6
Continuous
 62
     1
100
AcDbCircle
 10
28.87786344256961
 20
6.235291810549938
 30
0.0
 40
0.0349999999996
100
AcDbArc
 50
0.0
 51
90.0
  0
ARC
  5
A0
330
2
100
AcDbEntity
  8
GAIKEI
  6
Continuous
 62
     1
100
AcDbCircle
 10
28.87786344256961
 20
6.375291810549697
 30
0.0
 40
0.0349999999998
100
AcDbArc
 50
270.0
 51
0.0
  0
ARC
  5
A1
330
2
100
AcDbEntity
  8
GAIKEI
  6
Continuous
 62
     1
100
AcDbCircle
 10
29.01786344256937
 20
6.375291810549697
 30
0.0
 40
0.0350000000001
100
AcDbArc
 50
180.0
 51
270.0
  0
ARC
  5
A2
330
2
100
AcDbEntity
  8
GAIKEI
  6
Continuous
 62
     1
100
AcDbCircle
 10
29.01786344256937
 20
6.235291810549938
 30
0.0
 40
0.035
100
AcDbArc
 50
90.0
 51
180.0
  0
ARC
  5
A3
330
2
100
AcDbEntity
  8
GAIKEI
  6
HIDDEN2
 62
     1
100
AcDbCircle
 10
-1.944713472822741
 20
5.185291258319921
 30
0.0
 40
0.3
100
AcDbArc
 50
90.0
 51
270.0
  0
ARC
  5
A5
330
2
100
AcDbEntity
  8
GAIKEI
  6
HIDDEN2
 62
     1
100
AcDbCircle
 10
-1.544713472822763
 20
5.185291258319921
 30
0.0
 40
0.3
100
AcDbArc
 50
270.0
 51
90.0
  0
ARC
  5
A6
330
2
100
AcDbEntity
  8
GAIKEI
  6
HIDDEN2
 62
     1
100
AcDbCircle
 10
-1.944713472822741
 20
12.78529125831994
 30
0.0
 40
0.3
100
AcDbArc
 50
90.0
 51
270.0
  0
ARC
  5
A7
330
2
100
AcDbEntity
  8
GAIKEI
  6
HIDDEN2
 62
     1
100
AcDbCircle
 10
-1.544713472822763
 20
12.78529125831994
 30
0.0
 40
0.3
100
AcDbArc
 50
270.0
 51
90.0
  0
ARC
  5
A8
330
2
100
AcDbEntity
  8
GAIKEI
  6
S10
 62
     1
100
AcDbCircle
 10
-48.04471347282277
 20
5.185291258319921
 30
0.0
 40
0.3
100
AcDbArc
 50
270.0
 51
90.0
  0
ARC
  5
A9
330
2
100
AcDbEntity
  8
GAIKEI
  6
S10
 62
     1
100
AcDbCircle
 10
-48.44471347282274
 20
5.185291258319921
 30
0.0
 40
0.3
100
AcDbArc
 50
90.0
 51
270.0
  0
ARC
  5
AA
330
2
100
AcDbEntity
  8
GAIKEI
  6
S10
 62
     1
100
AcDbCircle
 10
-48.04471347282277
 20
12.78529125831994
 30
0.0
 40
0.3
100
AcDbArc
 50
270.0
 51
90.0
  0
ARC
  5
AB
330
2
100
AcDbEntity
  8
GAIKEI
  6
S10
 62
     1
100
AcDbCircle
 10
-48.44471347282274
 20
12.78529125831994
 30
0.0
 40
0.3
100
AcDbArc
 50
90.0
 51
270.0
  0
ARC
  5
AC
330
2
100
AcDbEntity
  8
GAIKEI
  6
Continuous
 62
     1
100
AcDbCircle
 10
55.84786344256929
 20
6.305291258320494
 30
0.0
 40
0.6000000000000001
100
AcDbArc
 50
270.0
 51
90.0
  0
LINE
  5
AD
330
2
100
AcDbEntity
  8
GAIKEI
  6
Continuous
 62
     1
100
AcDbLine
 10
-30.29389221861265
 20
8.948397953759126
 30
0.0
 11
-28.29389221861266
 21
8.948397953759126
 31
0.0
  0
LINE
  5
AE
330
2
100
AcDbEntity
  8
GAIKEI
  6
Continuous
 62
     1
100
AcDbLine
 10
-30.29389221861265
 20
9.198397953759126
 30
0.0
 11
-28.29389221861266
 21
9.198397953759126
 31
0.0
  0
LINE
  5
AF
330
2
100
AcDbEntity
  8
GAIKEI
  6
Continuous
 62
     1
100
AcDbLine
 10
-30.29389221861265
 20
9.448397953759126
 30
0.0
 11
-28.29389221861266
 21
9.448397953759126
 31
0.0
  0
LINE
  5
B0
330
2
100
AcDbEntity
  8
GAIKEI
  6
Continuous
 62
     1
100
AcDbLine
 10
-30.29389221861265
 20
9.648397953759058
 30
0.0
 11
-28.29389221861266
 21
9.648397953759058
 31
0.0
  0
LINE
  5
B1
330
2
100
AcDbEntity
  8
GAIKEI
  6
Continuous
 62
     1
100
AcDbLine
 10
-30.29389221861265
 20
8.748397953759081
 30
0.0
 11
-28.29389221861266
 21
8.748397953759081
 31
0.0
  0
LINE
  5
B2
330
2
100
AcDbEntity
  8
GAIKEI
  6
Continuous
 62
     1
100
AcDbLine
 10
-30.29389221861265
 20
8.548397953759035
 30
0.0
 11
-28.29389221861266
 21
8.548397953759035
 31
0.0
  0
LINE
  5
B3
330
2
100
AcDbEntity
  8
GAIKEI
  6
Continuous
 62
     1
100
AcDbLine
 10
-30.29389221861265
 20
8.348397953759103
 30
0.0
 11
-28.29389221861266
 21
8.348397953759103
 31
0.0
  0
LINE
  5
B4
330
2
100
AcDbEntity
  8
GAIKEI
  6
S10
 62
     1
100
AcDbLine
 10
23.5478628455918
 20
13.38529143816993
 30
0.0
 11
23.44786321797199
 21
13.3852914342574
 31
0.0
  0
LINE
  5
B5
330
2
100
AcDbEntity
  8
GAIKEI
  6
Continuous
100
AcDbLine
 10
23.44786321797199
 20
4.685291810550097
 30
0.0
 11
23.54786321797201
 21
4.585291810550131
 31
0.0
  0
LINE
  5
B6
330
2
100
AcDbEntity
  8
GAIKEI
  6
Continuous
100
AcDbLine
 10
23.44786321797187
 20
4.985291512684625
 30
0.0
 11
23.03338947597195
 21
4.999765254684916
 31
0.0
  0
LINE
  5
B7
330
2
100
AcDbEntity
  8
GAIKEI
  6
Continuous
100
AcDbLine
 10
22.94786321797198
 20
5.085291512684875
 30
0.0
 11
23.03338947597195
 21
4.999765254684916
 31
0.0
  0
LINE
  5
B8
330
2
100
AcDbEntity
  8
GAIKEI
  6
Continuous
100
AcDbLine
 10
22.85075036369801
 20
12.3602915126844
 30
0.0
 11
22.79786321797212
 21
12.3602915126844
 31
0.0
  0
LINE
  5
B9
330
2
100
AcDbEntity
  8
GAIKEI
  6
Continuous
100
AcDbLine
 10
22.79786321797212
 20
12.3602915126844
 30
0.0
 11
22.79786321797212
 21
12.03532111031518
 31
0.0
  0
LINE
  5
BA
330
2
100
AcDbEntity
  8
GAIKEI
  6
Continuous
100
AcDbLine
 10
23.44786321797199
 20
12.98529151268496
 30
0.0
 11
23.03338947597195
 21
12.9708177706749
 31
0.0
  0
LINE
  5
BB
330
2
100
AcDbEntity
  8
GAIKEI
  6
Continuous
100
AcDbLine
 10
23.03338947597195
 20
12.9708177706749
 30
0.0
 11
22.94786321797198
 21
12.88529151268494
 31
0.0
  0
LINE
  5
BC
330
2
100
AcDbEntity
  8
GAIKEI
  6
Continuous
 62
     1
100
AcDbLine
 10
-28.19389221861263
 20
9.725291258319771
 30
0.0
 11
-22.19389221861263
 21
9.725291258319771
 31
0.0
  0
LINE
  5
BD
330
2
100
AcDbEntity
  8
GAIKEI
  6
Continuous
 62
     1
100
AcDbLine
 10
-22.19389221861263
 20
9.725291258319771
 30
0.0
 11
-22.19389221861263
 21
8.245291258319866
 31
0.0
  0
LINE
  5
BE
330
2
100
AcDbEntity
  8
GAIKEI
  6
Continuous
 62
     1
100
AcDbLine
 10
-22.19389221861263
 20
8.245291258319866
 30
0.0
 11
-28.19389221861263
 21
8.245291258319753
 31
0.0
  0
LINE
  5
BF
330
2
100
AcDbEntity
  8
GAIKEI
  6
Continuous
 62
     1
100
AcDbLine
 10
-28.19389221861263
 20
8.245291258319753
 30
0.0
 11
-28.19389221861263
 21
9.725291258319771
 31
0.0
  0
LINE
  5
C0
330
2
100
AcDbEntity
  8
GAIKEI
  6
Continuous
 62
     1
100
AcDbLine
 10
-9.707847107382804
 20
6.841700578209724
 30
0.0
 11
-5.054640671252741
 21
6.841700578209724
 31
0.0
  0
LINE
  5
C1
330
2
100
AcDbEntity
  8
GAIKEI
  6
Continuous
 62
     1
100
AcDbLine
 10
-5.049054556372766
 20
6.978855566979859
 30
0.0
 11
-9.736729964382789
 21
6.978855566979859
 31
0.0
  0
LINE
  5
C2
330
2
100
AcDbEntity
  8
GAIKEI
  6
Continuous
 62
     1
100
AcDbLine
 10
-5.049949992302799
 20
12.88529125831985
 30
0.0
 11
-10.24125448040274
 21
12.88529125831985
 31
0.0
  0
LINE
  5
C3
330
2
100
AcDbEntity
  8
GAIKEI
  6
Continuous
 62
     1
100
AcDbLine
 10
-5.071558074652671
 20
6.841700578199834
 30
0.0
 11
-9.72189120493158
 21
6.841700578199834
 31
0.0
  0
LINE
  5
C4
330
2
100
AcDbEntity
  8
GAIKEI
  6
Continuous
 62
     1
100
AcDbLine
 10
-45.04258165399266
 20
12.98529125831976
 30
0.0
 11
-45.04258165399266
 21
4.985291258319819
 31
0.0
  0
LINE
  5
C5
330
2
100
AcDbEntity
  8
GAIKEI
  6
Continuous
 62
     1
100
AcDbLine
 10
-40.13968639697248
 20
4.985291258319819
 30
0.0
 11
-40.13968639697248
 21
5.085291258319784
 31
0.0
  0
LINE
  5
C6
330
2
100
AcDbEntity
  8
GAIKEI
  6
Continuous
 62
     1
100
AcDbLine
 10
-40.13968639697248
 20
12.88529125831985
 30
0.0
 11
-40.13968639697248
 21
12.98529125831976
 31
0.0
  0
LINE
  5
C7
330
2
100
AcDbEntity
  8
GAIKEI
  6
Continuous
 62
     1
100
AcDbLine
 10
-40.08577150604253
 20
4.985291258319819
 30
0.0
 11
-40.08577150604253
 21
5.085291258319784
 31
0.0
  0
LINE
  5
C8
330
2
100
AcDbEntity
  8
GAIKEI
  6
Continuous
 62
     1
100
AcDbLine
 10
-40.08577150604253
 20
12.88529125831985
 30
0.0
 11
-40.08577150604253
 21
12.98529125831976
 31
0.0
  0
LINE
  5
C9
330
2
100
AcDbEntity
  8
GAIKEI
  6
Continuous
 62
     1
100
AcDbLine
 10
-39.09769681902276
 20
4.985291258319819
 30
0.0
 11
-39.09769681902276
 21
5.085291258319784
 31
0.0
  0
LINE
  5
CA
330
2
100
AcDbEntity
  8
GAIKEI
  6
Continuous
 62
     1
100
AcDbLine
 10
-35.26971347282267
 20
5.085291170035816
 30
0.0
 11
-35.26971347282267
 21
6.01904760607988
 31
0.0
  0
LINE
  5
CB
330
2
100
AcDbEntity
  8
GAIKEI
  6
Continuous
 62
     1
100
AcDbLine
 10
-35.06971347282263
 20
6.01904760607988
 30
0.0
 11
-35.06971347282263
 21
5.085291258319784
 31
0.0
  0
LINE
  5
CC
330
2
100
AcDbEntity
  8
GAIKEI
  6
Continuous
 62
     1
100
AcDbLine
 10
-34.91971347282265
 20
5.085291258319784
 30
0.0
 11
-34.91971347282265
 21
6.01904760607988
 31
0.0
  0
LINE
  5
CD
330
2
100
AcDbEntity
  8
GAIKEI
  6
Continuous
 62
     1
100
AcDbLine
 10
-34.71971347282261
 20
6.01904760607988
 30
0.0
 11
-34.71971347282261
 21
5.085291258319784
 31
0.0
  0
LINE
  5
CE
330
2
100
AcDbEntity
  8
GAIKEI
  6
Continuous
 62
     1
100
AcDbLine
 10
-34.56971347282263
 20
5.085291258319784
 30
0.0
 11
-34.56971347282263
 21
6.01904760607988
 31
0.0
  0
LINE
  5
CF
330
2
100
AcDbEntity
  8
GAIKEI
  6
Continuous
 62
     1
100
AcDbLine
 10
-34.3697134728227
 20
6.01904760607988
 30
0.0
 11
-34.3697134728227
 21
5.085291258319784
 31
0.0
  0
LINE
  5
D0
330
2
100
AcDbEntity
  8
GAIKEI
  6
Continuous
 62
     1
100
AcDbLine
 10
-34.21971347282261
 20
5.085291258319784
 30
0.0
 11
-34.21971347282261
 21
6.01904760607988
 31
0.0
  0
LINE
  5
D1
330
2
100
AcDbEntity
  8
GAIKEI
  6
Continuous
 62
     1
100
AcDbLine
 10
-34.01971347282267
 20
6.01904760607988
 30
0.0
 11
-34.01971347282267
 21
5.085291258319784
 31
0.0
  0
LINE
  5
D2
330
2
100
AcDbEntity
  8
GAIKEI
  6
Continuous
 62
     1
100
AcDbLine
 10
-33.8697134728227
 20
5.085291258319784
 30
0.0
 11
-33.8697134728227
 21
6.01904760607988
 31
0.0
  0
LINE
  5
D3
330
2
100
AcDbEntity
  8
GAIKEI
  6
Continuous
 62
     1
100
AcDbLine
 10
-33.66971347282265
 20
6.01904760607988
 30
0.0
 11
-33.66971347282265
 21
5.085291258319784
 31
0.0
  0
LINE
  5
D4
330
2
100
AcDbEntity
  8
GAIKEI
  6
Continuous
 62
     1
100
AcDbLine
 10
-33.51971347282268
 20
5.085291258319784
 30
0.0
 11
-33.51971347282268
 21
6.01904760607988
 31
0.0
  0
LINE
  5
D5
330
2
100
AcDbEntity
  8
GAIKEI
  6
Continuous
 62
     1
100
AcDbLine
 10
-33.31971347282263
 20
6.01904760607988
 30
0.0
 11
-33.31971347282263
 21
5.085291258319784
 31
0.0
  0
LINE
  5
D6
330
2
100
AcDbEntity
  8
GAIKEI
  6
Continuous
 62
     1
100
AcDbLine
 10
-33.16971347282265
 20
5.085291258319784
 30
0.0
 11
-33.16971347282265
 21
6.01904760607988
 31
0.0
  0
LINE
  5
D7
330
2
100
AcDbEntity
  8
GAIKEI
  6
Continuous
 62
     1
100
AcDbLine
 10
-32.96971347282261
 20
6.01904760607988
 30
0.0
 11
-32.96971347282261
 21
5.085291258319784
 31
0.0
  0
LINE
  5
D8
330
2
100
AcDbEntity
  8
GAIKEI
  6
Continuous
 62
     1
100
AcDbLine
 10
-32.81971347282263
 20
5.085291258319784
 30
0.0
 11
-32.81971347282263
 21
6.01904760607988
 31
0.0
  0
LINE
  5
D9
330
2
100
AcDbEntity
  8
GAIKEI
  6
Continuous
 62
     1
100
AcDbLine
 10
-32.6197134728227
 20
6.01904760607988
 30
0.0
 11
-32.6197134728227
 21
5.085291258319784
 31
0.0
  0
LINE
  5
DA
330
2
100
AcDbEntity
  8
GAIKEI
  6
Continuous
 62
     1
100
AcDbLine
 10
-32.46971347282261
 20
5.085291258319784
 30
0.0
 11
-32.46971347282261
 21
6.01904760607988
 31
0.0
  0
LINE
  5
DB
330
2
100
AcDbEntity
  8
GAIKEI
  6
Continuous
 62
     1
100
AcDbLine
 10
-32.26971347282268
 20
6.01904760607988
 30
0.0
 11
-32.26971347282268
 21
5.085291258319784
 31
0.0
  0
LINE
  5
DC
330
2
100
AcDbEntity
  8
GAIKEI
  6
Continuous
 62
     1
100
AcDbLine
 10
-32.1197134728227
 20
5.085291258319784
 30
0.0
 11
-32.1197134728227
 21
6.01904760607988
 31
0.0
  0
LINE
  5
DD
330
2
100
AcDbEntity
  8
GAIKEI
  6
Continuous
 62
     1
100
AcDbLine
 10
-31.91971347282265
 20
6.01904760607988
 30
0.0
 11
-31.91971347282265
 21
5.085291258319784
 31
0.0
  0
LINE
  5
DE
330
2
100
AcDbEntity
  8
GAIKEI
  6
Continuous
 62
     1
100
AcDbLine
 10
-31.76971347282267
 20
5.085291258319784
 30
0.0
 11
-31.76971347282267
 21
6.01904760607988
 31
0.0
  0
LINE
  5
DF
330
2
100
AcDbEntity
  8
GAIKEI
  6
Continuous
 62
     1
100
AcDbLine
 10
-31.56971347282263
 20
6.01904760607988
 30
0.0
 11
-31.56971347282263
 21
5.085291258319784
 31
0.0
  0
LINE
  5
E0
330
2
100
AcDbEntity
  8
GAIKEI
  6
Continuous
 62
     1
100
AcDbLine
 10
-31.41971347282265
 20
5.085291258319784
 30
0.0
 11
-31.41971347282265
 21
6.01904760607988
 31
0.0
  0
LINE
  5
E1
330
2
100
AcDbEntity
  8
GAIKEI
  6
Continuous
 62
     1
100
AcDbLine
 10
-31.21971347282261
 20
6.01904760607988
 30
0.0
 11
-31.21971347282261
 21
5.085291258319784
 31
0.0
  0
LINE
  5
E2
330
2
100
AcDbEntity
  8
GAIKEI
  6
Continuous
 62
     1
100
AcDbLine
 10
-31.06971347282263
 20
5.085291258319784
 30
0.0
 11
-31.06971347282263
 21
6.01904760607988
 31
0.0
  0
LINE
  5
E3
330
2
100
AcDbEntity
  8
GAIKEI
  6
Continuous
 62
     1
100
AcDbLine
 10
-30.8697134728227
 20
6.01904760607988
 30
0.0
 11
-30.8697134728227
 21
5.085291258319784
 31
0.0
  0
LINE
  5
E4
330
2
100
AcDbEntity
  8
GAIKEI
  6
Continuous
 62
     1
100
AcDbLine
 10
-30.71971347282261
 20
5.085291258319784
 30
0.0
 11
-30.71971347282261
 21
6.01904760607988
 31
0.0
  0
LINE
  5
E5
330
2
100
AcDbEntity
  8
GAIKEI
  6
Continuous
 62
     1
100
AcDbLine
 10
-30.51971347282267
 20
6.01904760607988
 30
0.0
 11
-30.51971347282267
 21
5.085291258319784
 31
0.0
  0
LINE
  5
E6
330
2
100
AcDbEntity
  8
GAIKEI
  6
Continuous
 62
     1
100
AcDbLine
 10
-30.3697134728227
 20
5.085291258319784
 30
0.0
 11
-30.3697134728227
 21
6.01904760607988
 31
0.0
  0
LINE
  5
E7
330
2
100
AcDbEntity
  8
GAIKEI
  6
Continuous
 62
     1
100
AcDbLine
 10
-30.16971347282265
 20
6.01904760607988
 30
0.0
 11
-30.16971347282265
 21
5.085291258319784
 31
0.0
  0
LINE
  5
E8
330
2
100
AcDbEntity
  8
GAIKEI
  6
Continuous
 62
     1
100
AcDbLine
 10
-30.01971347282267
 20
5.085291258319784
 30
0.0
 11
-30.01971347282267
 21
6.01904760607988
 31
0.0
  0
LINE
  5
E9
330
2
100
AcDbEntity
  8
GAIKEI
  6
Continuous
 62
     1
100
AcDbLine
 10
-29.81971347282263
 20
6.01904760607988
 30
0.0
 11
-29.81971347282263
 21
5.085291258319784
 31
0.0
  0
LINE
  5
EA
330
2
100
AcDbEntity
  8
GAIKEI
  6
Continuous
 62
     1
100
AcDbLine
 10
-29.66971347282265
 20
5.085291258319784
 30
0.0
 11
-29.66971347282265
 21
6.01904760607988
 31
0.0
  0
LINE
  5
EB
330
2
100
AcDbEntity
  8
GAIKEI
  6
Continuous
 62
     1
100
AcDbLine
 10
-29.46971347282261
 20
6.01904760607988
 30
0.0
 11
-29.46971347282261
 21
5.085291258319784
 31
0.0
  0
LINE
  5
EC
330
2
100
AcDbEntity
  8
GAIKEI
  6
Continuous
 62
     1
100
AcDbLine
 10
-29.31971347282263
 20
5.085291258319784
 30
0.0
 11
-29.31971347282263
 21
6.01904760607988
 31
0.0
  0
LINE
  5
ED
330
2
100
AcDbEntity
  8
GAIKEI
  6
Continuous
 62
     1
100
AcDbLine
 10
-29.1197134728227
 20
6.01904760607988
 30
0.0
 11
-29.1197134728227
 21
5.085291258319784
 31
0.0
  0
LINE
  5
EE
330
2
100
AcDbEntity
  8
GAIKEI
  6
Continuous
 62
     1
100
AcDbLine
 10
-28.9697134728226
 20
5.085291258319784
 30
0.0
 11
-28.9697134728226
 21
6.01904760607988
 31
0.0
  0
LINE
  5
EF
330
2
100
AcDbEntity
  8
GAIKEI
  6
Continuous
 62
     1
100
AcDbLine
 10
-5.04471347282265
 20
4.985291258319819
 30
0.0
 11
-10.24365543959266
 21
4.985291258319819
 31
0.0
  0
LINE
  5
F0
330
2
100
AcDbEntity
  8
GAIKEI
  6
Continuous
 62
     1
100
AcDbLine
 10
-10.29365543959261
 20
4.985291258319819
 30
0.0
 11
-40.08577150604253
 21
4.985291258319819
 31
0.0
  0
LINE
  5
F1
330
2
100
AcDbEntity
  8
GAIKEI
  6
Continuous
 62
     1
100
AcDbLine
 10
-40.13968639697248
 20
4.985291258319819
 30
0.0
 11
-45.04258165399266
 21
4.985291258319819
 31
0.0
  0
LINE
  5
F2
330
2
100
AcDbEntity
  8
GAIKEI
  6
Continuous
 62
     1
100
AcDbLine
 10
-40.08577150604253
 20
5.03529125831983
 30
0.0
 11
-40.13968639697248
 21
5.03529125831983
 31
0.0
  0
LINE
  5
F3
330
2
100
AcDbEntity
  8
GAIKEI
  6
Continuous
 62
     1
100
AcDbLine
 10
-5.062173857562697
 20
5.085291258319784
 30
0.0
 11
-10.24365543959266
 21
5.085291258319784
 31
0.0
  0
LINE
  5
F4
330
2
100
AcDbEntity
  8
GAIKEI
  6
Continuous
 62
     1
100
AcDbLine
 10
-10.31985932923271
 20
5.085291258319784
 30
0.0
 11
-11.2917301266126
 21
5.085291258319784
 31
0.0
  0
LINE
  5
F5
330
2
100
AcDbEntity
  8
GAIKEI
  6
Continuous
 62
     1
100
AcDbLine
 10
-39.09769681902276
 20
5.085291258319784
 30
0.0
 11
-40.08577150604253
 21
5.085291258319784
 31
0.0
  0
LINE
  5
F6
330
2
100
AcDbEntity
  8
GAIKEI
  6
Continuous
 62
     1
100
AcDbLine
 10
-40.13968639697248
 20
5.085291258319784
 30
0.0
 11
-45.04258165399266
 21
5.085291258319784
 31
0.0
  0
LINE
  5
F7
330
2
100
AcDbEntity
  8
GAIKEI
  6
Continuous
 62
     1
100
AcDbLine
 10
-34.91971347282265
 20
5.085291258319784
 30
0.0
 11
-34.71971347282261
 21
5.085291258319784
 31
0.0
  0
LINE
  5
F8
330
2
100
AcDbEntity
  8
GAIKEI
  6
Continuous
 62
     1
100
AcDbLine
 10
-34.56971347282263
 20
5.085291258319784
 30
0.0
 11
-34.3697134728227
 21
5.085291258319784
 31
0.0
  0
LINE
  5
F9
330
2
100
AcDbEntity
  8
GAIKEI
  6
Continuous
 62
     1
100
AcDbLine
 10
-34.21971347282261
 20
5.085291258319784
 30
0.0
 11
-34.01971347282267
 21
5.085291258319784
 31
0.0
  0
LINE
  5
FA
330
2
100
AcDbEntity
  8
GAIKEI
  6
Continuous
 62
     1
100
AcDbLine
 10
-33.8697134728227
 20
5.085291258319784
 30
0.0
 11
-33.66971347282265
 21
5.085291258319784
 31
0.0
  0
LINE
  5
FB
330
2
100
AcDbEntity
  8
GAIKEI
  6
Continuous
 62
     1
100
AcDbLine
 10
-33.51971347282268
 20
5.085291258319784
 30
0.0
 11
-33.31971347282263
 21
5.085291258319784
 31
0.0
  0
LINE
  5
FC
330
2
100
AcDbEntity
  8
GAIKEI
  6
Continuous
 62
     1
100
AcDbLine
 10
-33.16971347282265
 20
5.085291258319784
 30
0.0
 11
-32.96971347282261
 21
5.085291258319784
 31
0.0
  0
LINE
  5
FD
330
2
100
AcDbEntity
  8
GAIKEI
  6
Continuous
 62
     1
100
AcDbLine
 10
-32.81971347282263
 20
5.085291258319784
 30
0.0
 11
-32.6197134728227
 21
5.085291258319784
 31
0.0
  0
LINE
  5
FE
330
2
100
AcDbEntity
  8
GAIKEI
  6
Continuous
 62
     1
100
AcDbLine
 10
-32.46971347282261
 20
5.085291258319784
 30
0.0
 11
-32.26971347282268
 21
5.085291258319784
 31
0.0
  0
LINE
  5
FF
330
2
100
AcDbEntity
  8
GAIKEI
  6
Continuous
 62
     1
100
AcDbLine
 10
-32.1197134728227
 20
5.085291258319784
 30
0.0
 11
-31.91971347282265
 21
5.085291258319784
 31
0.0
  0
LINE
  5
100
330
2
100
AcDbEntity
  8
GAIKEI
  6
Continuous
 62
     1
100
AcDbLine
 10
-31.76971347282267
 20
5.085291258319784
 30
0.0
 11
-31.56971347282263
 21
5.085291258319784
 31
0.0
  0
LINE
  5
101
330
2
100
AcDbEntity
  8
GAIKEI
  6
Continuous
 62
     1
100
AcDbLine
 10
-31.41971347282265
 20
5.085291258319784
 30
0.0
 11
-31.21971347282261
 21
5.085291258319784
 31
0.0
  0
LINE
  5
102
330
2
100
AcDbEntity
  8
GAIKEI
  6
Continuous
 62
     1
100
AcDbLine
 10
-31.06971347282263
 20
5.085291258319784
 30
0.0
 11
-30.8697134728227
 21
5.085291258319784
 31
0.0
  0
LINE
  5
103
330
2
100
AcDbEntity
  8
GAIKEI
  6
Continuous
 62
     1
100
AcDbLine
 10
-30.71971347282261
 20
5.085291258319784
 30
0.0
 11
-30.51971347282267
 21
5.085291258319784
 31
0.0
  0
LINE
  5
104
330
2
100
AcDbEntity
  8
GAIKEI
  6
Continuous
 62
     1
100
AcDbLine
 10
-30.3697134728227
 20
5.085291258319784
 30
0.0
 11
-30.16971347282265
 21
5.085291258319784
 31
0.0
  0
LINE
  5
105
330
2
100
AcDbEntity
  8
GAIKEI
  6
Continuous
 62
     1
100
AcDbLine
 10
-30.01971347282267
 20
5.085291258319784
 30
0.0
 11
-29.81971347282263
 21
5.085291258319784
 31
0.0
  0
LINE
  5
106
330
2
100
AcDbEntity
  8
GAIKEI
  6
Continuous
 62
     1
100
AcDbLine
 10
-29.66971347282265
 20
5.085291258319784
 30
0.0
 11
-29.46971347282261
 21
5.085291258319784
 31
0.0
  0
LINE
  5
107
330
2
100
AcDbEntity
  8
GAIKEI
  6
Continuous
 62
     1
100
AcDbLine
 10
-29.31971347282263
 20
5.085291258319784
 30
0.0
 11
-29.1197134728227
 21
5.085291258319784
 31
0.0
  0
LINE
  5
108
330
2
100
AcDbEntity
  8
GAIKEI
  6
Continuous
 62
     1
100
AcDbLine
 10
-28.9697134728226
 20
5.085291258319784
 30
0.0
 11
-28.76971347282267
 21
5.085291258319784
 31
0.0
  0
LINE
  5
109
330
2
100
AcDbEntity
  8
GAIKEI
  6
Continuous
 62
     1
100
AcDbLine
 10
-28.6197134728227
 20
5.085291258319784
 30
0.0
 11
-28.41971347282265
 21
5.085291258319784
 31
0.0
  0
LINE
  5
10A
330
2
100
AcDbEntity
  8
GAIKEI
  6
Continuous
 62
     1
100
AcDbLine
 10
-28.26971347282267
 20
5.085291258319784
 30
0.0
 11
-28.06971347282263
 21
5.085291258319784
 31
0.0
  0
LINE
  5
10B
330
2
100
AcDbEntity
  8
GAIKEI
  6
Continuous
 62
     1
100
AcDbLine
 10
-27.91971347282265
 20
5.085291258319784
 30
0.0
 11
-27.7197134728226
 21
5.085291258319784
 31
0.0
  0
LINE
  5
10C
330
2
100
AcDbEntity
  8
GAIKEI
  6
Continuous
 62
     1
100
AcDbLine
 10
-27.56971347282263
 20
5.085291258319784
 30
0.0
 11
-27.3697134728227
 21
5.085291258319784
 31
0.0
  0
LINE
  5
10D
330
2
100
AcDbEntity
  8
GAIKEI
  6
Continuous
 62
     1
100
AcDbLine
 10
-27.21971347282261
 20
5.085291258319784
 30
0.0
 11
-27.01971347282267
 21
5.085291258319784
 31
0.0
  0
LINE
  5
10E
330
2
100
AcDbEntity
  8
GAIKEI
  6
Continuous
 62
     1
100
AcDbLine
 10
-26.8697134728227
 20
5.085291258319784
 30
0.0
 11
-26.66971347282265
 21
5.085291258319784
 31
0.0
  0
LINE
  5
10F
330
2
100
AcDbEntity
  8
GAIKEI
  6
Continuous
 62
     1
100
AcDbLine
 10
-26.51971347282267
 20
5.085291258319784
 30
0.0
 11
-26.31971347282263
 21
5.085291258319784
 31
0.0
  0
LINE
  5
110
330
2
100
AcDbEntity
  8
GAIKEI
  6
Continuous
 62
     1
100
AcDbLine
 10
-26.16971347282265
 20
5.085291258319784
 30
0.0
 11
-25.96971347282261
 21
5.085291258319784
 31
0.0
  0
LINE
  5
111
330
2
100
AcDbEntity
  8
GAIKEI
  6
Continuous
 62
     1
100
AcDbLine
 10
-25.81971347282263
 20
5.085291258319784
 30
0.0
 11
-25.6197134728227
 21
5.085291258319784
 31
0.0
  0
LINE
  5
112
330
2
100
AcDbEntity
  8
GAIKEI
  6
Continuous
 62
     1
100
AcDbLine
 10
-25.46971347282261
 20
5.085291258319784
 30
0.0
 11
-25.26971347282267
 21
5.085291258319784
 31
0.0
  0
LINE
  5
113
330
2
100
AcDbEntity
  8
GAIKEI
  6
Continuous
 62
     1
100
AcDbLine
 10
-25.1197134728227
 20
5.085291258319784
 30
0.0
 11
-24.91971347282265
 21
5.085291258319784
 31
0.0
  0
LINE
  5
114
330
2
100
AcDbEntity
  8
GAIKEI
  6
Continuous
 62
     1
100
AcDbLine
 10
-24.76971347282268
 20
5.085291258319784
 30
0.0
 11
-24.56971347282263
 21
5.085291258319784
 31
0.0
  0
LINE
  5
115
330
2
100
AcDbEntity
  8
GAIKEI
  6
Continuous
 62
     1
100
AcDbLine
 10
-24.41971347282265
 20
5.085291258319784
 30
0.0
 11
-24.21971347282261
 21
5.085291258319784
 31
0.0
  0
LINE
  5
116
330
2
100
AcDbEntity
  8
GAIKEI
  6
Continuous
 62
     1
100
AcDbLine
 10
-24.06971347282263
 20
5.085291258319784
 30
0.0
 11
-23.8697134728227
 21
5.085291258319784
 31
0.0
  0
LINE
  5
117
330
2
100
AcDbEntity
  8
GAIKEI
  6
Continuous
 62
     1
100
AcDbLine
 10
-23.71971347282261
 20
5.085291258319784
 30
0.0
 11
-23.51971347282267
 21
5.085291258319784
 31
0.0
  0
LINE
  5
118
330
2
100
AcDbEntity
  8
GAIKEI
  6
Continuous
 62
     1
100
AcDbLine
 10
-23.3697134728227
 20
5.085291258319784
 30
0.0
 11
-23.16971347282265
 21
5.085291258319784
 31
0.0
  0
LINE
  5
119
330
2
100
AcDbEntity
  8
GAIKEI
  6
Continuous
 62
     1
100
AcDbLine
 10
-23.01971347282267
 20
5.085291258319784
 30
0.0
 11
-22.81971347282263
 21
5.085291258319784
 31
0.0
  0
LINE
  5
11A
330
2
100
AcDbEntity
  8
GAIKEI
  6
Continuous
 62
     1
100
AcDbLine
 10
-22.66971347282265
 20
5.085291258319784
 30
0.0
 11
-22.46971347282261
 21
5.085291258319784
 31
0.0
  0
LINE
  5
11B
330
2
100
AcDbEntity
  8
GAIKEI
  6
Continuous
 62
     1
100
AcDbLine
 10
-22.31971347282263
 20
5.085291258319784
 30
0.0
 11
-22.1197134728227
 21
5.085291258319784
 31
0.0
  0
LINE
  5
11C
330
2
100
AcDbEntity
  8
GAIKEI
  6
Continuous
 62
     1
100
AcDbLine
 10
-21.96971347282261
 20
5.085291258319784
 30
0.0
 11
-21.76971347282267
 21
5.085291258319784
 31
0.0
  0
LINE
  5
11D
330
2
100
AcDbEntity
  8
GAIKEI
  6
Continuous
 62
     1
100
AcDbLine
 10
-21.61971347282269
 20
5.085291258319784
 30
0.0
 11
-21.41971347282265
 21
5.085291258319784
 31
0.0
  0
LINE
  5
11E
330
2
100
AcDbEntity
  8
GAIKEI
  6
Continuous
 62
     1
100
AcDbLine
 10
-21.26971347282267
 20
5.085291258319784
 30
0.0
 11
-21.06971347282263
 21
5.085291258319784
 31
0.0
  0
LINE
  5
11F
330
2
100
AcDbEntity
  8
GAIKEI
  6
Continuous
 62
     1
100
AcDbLine
 10
-20.91971347282265
 20
5.085291258319784
 30
0.0
 11
-20.71971347282261
 21
5.085291258319784
 31
0.0
  0
LINE
  5
120
330
2
100
AcDbEntity
  8
GAIKEI
  6
Continuous
 62
     1
100
AcDbLine
 10
-20.56971347282263
 20
5.085291258319784
 30
0.0
 11
-20.36971347282269
 21
5.085291258319784
 31
0.0
  0
LINE
  5
121
330
2
100
AcDbEntity
  8
GAIKEI
  6
Continuous
 62
     1
100
AcDbLine
 10
-20.2197134728226
 20
5.085291258319784
 30
0.0
 11
-20.01971347282267
 21
5.085291258319784
 31
0.0
  0
LINE
  5
122
330
2
100
AcDbEntity
  8
GAIKEI
  6
Continuous
 62
     1
100
AcDbLine
 10
-19.86971347282269
 20
5.085291258319784
 30
0.0
 11
-19.66971347282265
 21
5.085291258319784
 31
0.0
  0
LINE
  5
123
330
2
100
AcDbEntity
  8
GAIKEI
  6
Continuous
 62
     1
100
AcDbLine
 10
-19.51971347282267
 20
5.085291258319784
 30
0.0
 11
-19.31971347282263
 21
5.085291258319784
 31
0.0
  0
LINE
  5
124
330
2
100
AcDbEntity
  8
GAIKEI
  6
Continuous
 62
     1
100
AcDbLine
 10
-19.16971347282265
 20
5.085291258319784
 30
0.0
 11
-18.9697134728226
 21
5.085291258319784
 31
0.0
  0
LINE
  5
125
330
2
100
AcDbEntity
  8
GAIKEI
  6
Continuous
 62
     1
100
AcDbLine
 10
-18.81971347282263
 20
5.085291258319784
 30
0.0
 11
-18.61971347282269
 21
5.085291258319784
 31
0.0
  0
LINE
  5
126
330
2
100
AcDbEntity
  8
GAIKEI
  6
Continuous
 62
     1
100
AcDbLine
 10
-18.4697134728226
 20
5.085291258319784
 30
0.0
 11
-18.26971347282267
 21
5.085291258319784
 31
0.0
  0
LINE
  5
127
330
2
100
AcDbEntity
  8
GAIKEI
  6
Continuous
 62
     1
100
AcDbLine
 10
-18.11971347282269
 20
5.085291258319784
 30
0.0
 11
-17.91971347282265
 21
5.085291258319784
 31
0.0
  0
LINE
  5
128
330
2
100
AcDbEntity
  8
GAIKEI
  6
Continuous
 62
     1
100
AcDbLine
 10
-17.76971347282267
 20
5.085291258319784
 30
0.0
 11
-17.56971347282263
 21
5.085291258319784
 31
0.0
  0
LINE
  5
129
330
2
100
AcDbEntity
  8
GAIKEI
  6
Continuous
 62
     1
100
AcDbLine
 10
-17.41971347282265
 20
5.085291258319784
 30
0.0
 11
-17.2197134728226
 21
5.085291258319784
 31
0.0
  0
LINE
  5
12A
330
2
100
AcDbEntity
  8
GAIKEI
  6
Continuous
 62
     1
100
AcDbLine
 10
-17.06971347282262
 20
5.085291258319784
 30
0.0
 11
-16.86971347282269
 21
5.085291258319784
 31
0.0
  0
LINE
  5
12B
330
2
100
AcDbEntity
  8
GAIKEI
  6
Continuous
 62
     1
100
AcDbLine
 10
-16.7197134728226
 20
5.085291258319784
 30
0.0
 11
-16.51971347282267
 21
5.085291258319784
 31
0.0
  0
LINE
  5
12C
330
2
100
AcDbEntity
  8
GAIKEI
  6
Continuous
 62
     1
100
AcDbLine
 10
-16.36971347282269
 20
5.085291258319784
 30
0.0
 11
-16.16971347282265
 21
5.085291258319784
 31
0.0
  0
LINE
  5
12D
330
2
100
AcDbEntity
  8
GAIKEI
  6
Continuous
 62
     1
100
AcDbLine
 10
-16.01971347282267
 20
5.085291258319784
 30
0.0
 11
-15.81971347282262
 21
5.085291258319784
 31
0.0
  0
LINE
  5
12E
330
2
100
AcDbEntity
  8
GAIKEI
  6
Continuous
 62
     1
100
AcDbLine
 10
-15.66971347282265
 20
5.085291258319784
 30
0.0
 11
-15.4697134728226
 21
5.085291258319784
 31
0.0
  0
LINE
  5
12F
330
2
100
AcDbEntity
  8
GAIKEI
  6
Continuous
 62
     1
100
AcDbLine
 10
-35.26971347282267
 20
5.085291170035816
 30
0.0
 11
-35.06971347282263
 21
5.085291258319784
 31
0.0
  0
LINE
  5
130
330
2
100
AcDbEntity
  8
GAIKEI
  6
Continuous
 62
     1
100
AcDbLine
 10
-40.09569476858257
 20
5.109912563429929
 30
0.0
 11
-40.14889558000265
 21
5.109912563429929
 31
0.0
  0
LINE
  5
131
330
2
100
AcDbEntity
  8
GAIKEI
  6
Continuous
 62
     1
100
AcDbLine
 10
-28.76971347282267
 20
6.01904760607988
 30
0.0
 11
-28.76971347282267
 21
5.085291258319784
 31
0.0
  0
LINE
  5
132
330
2
100
AcDbEntity
  8
GAIKEI
  6
Continuous
 62
     1
100
AcDbLine
 10
-28.6197134728227
 20
5.085291258319784
 30
0.0
 11
-28.6197134728227
 21
6.01904760607988
 31
0.0
  0
LINE
  5
133
330
2
100
AcDbEntity
  8
GAIKEI
  6
Continuous
 62
     1
100
AcDbLine
 10
-28.41971347282265
 20
6.01904760607988
 30
0.0
 11
-28.41971347282265
 21
5.085291258319784
 31
0.0
  0
LINE
  5
134
330
2
100
AcDbEntity
  8
GAIKEI
  6
Continuous
 62
     1
100
AcDbLine
 10
-28.26971347282267
 20
5.085291258319784
 30
0.0
 11
-28.26971347282267
 21
6.01904760607988
 31
0.0
  0
LINE
  5
135
330
2
100
AcDbEntity
  8
GAIKEI
  6
Continuous
 62
     1
100
AcDbLine
 10
-28.06971347282263
 20
6.01904760607988
 30
0.0
 11
-28.06971347282263
 21
5.085291258319784
 31
0.0
  0
LINE
  5
136
330
2
100
AcDbEntity
  8
GAIKEI
  6
Continuous
 62
     1
100
AcDbLine
 10
-27.91971347282265
 20
5.085291258319784
 30
0.0
 11
-27.91971347282265
 21
6.01904760607988
 31
0.0
  0
LINE
  5
137
330
2
100
AcDbEntity
  8
GAIKEI
  6
Continuous
 62
     1
100
AcDbLine
 10
-27.7197134728226
 20
6.01904760607988
 30
0.0
 11
-27.7197134728226
 21
5.085291258319784
 31
0.0
  0
LINE
  5
138
330
2
100
AcDbEntity
  8
GAIKEI
  6
Continuous
 62
     1
100
AcDbLine
 10
-34.91971347282265
 20
6.01904760607988
 30
0.0
 11
-34.71971347282261
 21
6.01904760607988
 31
0.0
  0
LINE
  5
139
330
2
100
AcDbEntity
  8
GAIKEI
  6
Continuous
 62
     1
100
AcDbLine
 10
-34.56971347282263
 20
6.01904760607988
 30
0.0
 11
-34.3697134728227
 21
6.01904760607988
 31
0.0
  0
LINE
  5
13A
330
2
100
AcDbEntity
  8
GAIKEI
  6
Continuous
 62
     1
100
AcDbLine
 10
-34.21971347282261
 20
6.01904760607988
 30
0.0
 11
-34.01971347282267
 21
6.01904760607988
 31
0.0
  0
LINE
  5
13B
330
2
100
AcDbEntity
  8
GAIKEI
  6
Continuous
 62
     1
100
AcDbLine
 10
-33.8697134728227
 20
6.01904760607988
 30
0.0
 11
-33.66971347282265
 21
6.01904760607988
 31
0.0
  0
LINE
  5
13C
330
2
100
AcDbEntity
  8
GAIKEI
  6
Continuous
 62
     1
100
AcDbLine
 10
-33.51971347282268
 20
6.01904760607988
 30
0.0
 11
-33.31971347282263
 21
6.01904760607988
 31
0.0
  0
LINE
  5
13D
330
2
100
AcDbEntity
  8
GAIKEI
  6
Continuous
 62
     1
100
AcDbLine
 10
-33.16971347282265
 20
6.01904760607988
 30
0.0
 11
-32.96971347282261
 21
6.01904760607988
 31
0.0
  0
LINE
  5
13E
330
2
100
AcDbEntity
  8
GAIKEI
  6
Continuous
 62
     1
100
AcDbLine
 10
-32.81971347282263
 20
6.01904760607988
 30
0.0
 11
-32.6197134728227
 21
6.01904760607988
 31
0.0
  0
LINE
  5
13F
330
2
100
AcDbEntity
  8
GAIKEI
  6
Continuous
 62
     1
100
AcDbLine
 10
-32.46971347282261
 20
6.01904760607988
 30
0.0
 11
-32.26971347282268
 21
6.01904760607988
 31
0.0
  0
LINE
  5
140
330
2
100
AcDbEntity
  8
GAIKEI
  6
Continuous
 62
     1
100
AcDbLine
 10
-32.1197134728227
 20
6.01904760607988
 30
0.0
 11
-31.91971347282265
 21
6.01904760607988
 31
0.0
  0
LINE
  5
141
330
2
100
AcDbEntity
  8
GAIKEI
  6
Continuous
 62
     1
100
AcDbLine
 10
-31.76971347282267
 20
6.01904760607988
 30
0.0
 11
-31.56971347282263
 21
6.01904760607988
 31
0.0
  0
LINE
  5
142
330
2
100
AcDbEntity
  8
GAIKEI
  6
Continuous
 62
     1
100
AcDbLine
 10
-31.41971347282265
 20
6.01904760607988
 30
0.0
 11
-31.21971347282261
 21
6.01904760607988
 31
0.0
  0
LINE
  5
143
330
2
100
AcDbEntity
  8
GAIKEI
  6
Continuous
 62
     1
100
AcDbLine
 10
-31.06971347282263
 20
6.01904760607988
 30
0.0
 11
-30.8697134728227
 21
6.01904760607988
 31
0.0
  0
LINE
  5
144
330
2
100
AcDbEntity
  8
GAIKEI
  6
Continuous
 62
     1
100
AcDbLine
 10
-30.71971347282261
 20
6.01904760607988
 30
0.0
 11
-30.51971347282267
 21
6.01904760607988
 31
0.0
  0
LINE
  5
145
330
2
100
AcDbEntity
  8
GAIKEI
  6
Continuous
 62
     1
100
AcDbLine
 10
-30.3697134728227
 20
6.01904760607988
 30
0.0
 11
-30.16971347282265
 21
6.01904760607988
 31
0.0
  0
LINE
  5
146
330
2
100
AcDbEntity
  8
GAIKEI
  6
Continuous
 62
     1
100
AcDbLine
 10
-30.01971347282267
 20
6.01904760607988
 30
0.0
 11
-29.81971347282263
 21
6.01904760607988
 31
0.0
  0
LINE
  5
147
330
2
100
AcDbEntity
  8
GAIKEI
  6
Continuous
 62
     1
100
AcDbLine
 10
-29.66971347282265
 20
6.01904760607988
 30
0.0
 11
-29.46971347282261
 21
6.01904760607988
 31
0.0
  0
LINE
  5
148
330
2
100
AcDbEntity
  8
GAIKEI
  6
Continuous
 62
     1
100
AcDbLine
 10
-29.31971347282263
 20
6.01904760607988
 30
0.0
 11
-29.1197134728227
 21
6.01904760607988
 31
0.0
  0
LINE
  5
149
330
2
100
AcDbEntity
  8
GAIKEI
  6
Continuous
 62
     1
100
AcDbLine
 10
-28.9697134728226
 20
6.01904760607988
 30
0.0
 11
-28.76971347282267
 21
6.01904760607988
 31
0.0
  0
LINE
  5
14A
330
2
100
AcDbEntity
  8
GAIKEI
  6
Continuous
 62
     1
100
AcDbLine
 10
-28.6197134728227
 20
6.01904760607988
 30
0.0
 11
-28.41971347282265
 21
6.01904760607988
 31
0.0
  0
LINE
  5
14B
330
2
100
AcDbEntity
  8
GAIKEI
  6
Continuous
 62
     1
100
AcDbLine
 10
-28.26971347282267
 20
6.01904760607988
 30
0.0
 11
-28.06971347282263
 21
6.01904760607988
 31
0.0
  0
LINE
  5
14C
330
2
100
AcDbEntity
  8
GAIKEI
  6
Continuous
 62
     1
100
AcDbLine
 10
-27.91971347282265
 20
6.01904760607988
 30
0.0
 11
-27.7197134728226
 21
6.01904760607988
 31
0.0
  0
LINE
  5
14D
330
2
100
AcDbEntity
  8
GAIKEI
  6
Continuous
 62
     1
100
AcDbLine
 10
-27.56971347282263
 20
6.01904760607988
 30
0.0
 11
-27.3697134728227
 21
6.01904760607988
 31
0.0
  0
LINE
  5
14E
330
2
100
AcDbEntity
  8
GAIKEI
  6
Continuous
 62
     1
100
AcDbLine
 10
-27.21971347282261
 20
6.01904760607988
 30
0.0
 11
-27.01971347282267
 21
6.01904760607988
 31
0.0
  0
LINE
  5
14F
330
2
100
AcDbEntity
  8
GAIKEI
  6
Continuous
 62
     1
100
AcDbLine
 10
-26.8697134728227
 20
6.01904760607988
 30
0.0
 11
-26.66971347282265
 21
6.01904760607988
 31
0.0
  0
LINE
  5
150
330
2
100
AcDbEntity
  8
GAIKEI
  6
Continuous
 62
     1
100
AcDbLine
 10
-26.51971347282267
 20
6.01904760607988
 30
0.0
 11
-26.31971347282263
 21
6.01904760607988
 31
0.0
  0
LINE
  5
151
330
2
100
AcDbEntity
  8
GAIKEI
  6
Continuous
 62
     1
100
AcDbLine
 10
-26.16971347282265
 20
6.01904760607988
 30
0.0
 11
-25.96971347282261
 21
6.01904760607988
 31
0.0
  0
LINE
  5
152
330
2
100
AcDbEntity
  8
GAIKEI
  6
Continuous
 62
     1
100
AcDbLine
 10
-25.81971347282263
 20
6.01904760607988
 30
0.0
 11
-25.6197134728227
 21
6.01904760607988
 31
0.0
  0
LINE
  5
153
330
2
100
AcDbEntity
  8
GAIKEI
  6
Continuous
 62
     1
100
AcDbLine
 10
-25.46971347282261
 20
6.01904760607988
 30
0.0
 11
-25.26971347282267
 21
6.01904760607988
 31
0.0
  0
LINE
  5
154
330
2
100
AcDbEntity
  8
GAIKEI
  6
Continuous
 62
     1
100
AcDbLine
 10
-25.1197134728227
 20
6.01904760607988
 30
0.0
 11
-24.91971347282265
 21
6.01904760607988
 31
0.0
  0
LINE
  5
155
330
2
100
AcDbEntity
  8
GAIKEI
  6
Continuous
 62
     1
100
AcDbLine
 10
-24.76971347282268
 20
6.01904760607988
 30
0.0
 11
-24.56971347282263
 21
6.01904760607988
 31
0.0
  0
LINE
  5
156
330
2
100
AcDbEntity
  8
GAIKEI
  6
Continuous
 62
     1
100
AcDbLine
 10
-24.41971347282265
 20
6.01904760607988
 30
0.0
 11
-24.21971347282261
 21
6.01904760607988
 31
0.0
  0
LINE
  5
157
330
2
100
AcDbEntity
  8
GAIKEI
  6
Continuous
 62
     1
100
AcDbLine
 10
-24.06971347282263
 20
6.01904760607988
 30
0.0
 11
-23.8697134728227
 21
6.01904760607988
 31
0.0
  0
LINE
  5
158
330
2
100
AcDbEntity
  8
GAIKEI
  6
Continuous
 62
     1
100
AcDbLine
 10
-23.71971347282261
 20
6.01904760607988
 30
0.0
 11
-23.51971347282267
 21
6.01904760607988
 31
0.0
  0
LINE
  5
159
330
2
100
AcDbEntity
  8
GAIKEI
  6
Continuous
 62
     1
100
AcDbLine
 10
-23.3697134728227
 20
6.01904760607988
 30
0.0
 11
-23.16971347282265
 21
6.01904760607988
 31
0.0
  0
LINE
  5
15A
330
2
100
AcDbEntity
  8
GAIKEI
  6
Continuous
 62
     1
100
AcDbLine
 10
-23.01971347282267
 20
6.01904760607988
 30
0.0
 11
-22.81971347282263
 21
6.01904760607988
 31
0.0
  0
LINE
  5
15B
330
2
100
AcDbEntity
  8
GAIKEI
  6
Continuous
 62
     1
100
AcDbLine
 10
-22.66971347282265
 20
6.01904760607988
 30
0.0
 11
-22.46971347282261
 21
6.01904760607988
 31
0.0
  0
LINE
  5
15C
330
2
100
AcDbEntity
  8
GAIKEI
  6
Continuous
 62
     1
100
AcDbLine
 10
-22.31971347282263
 20
6.01904760607988
 30
0.0
 11
-22.1197134728227
 21
6.01904760607988
 31
0.0
  0
LINE
  5
15D
330
2
100
AcDbEntity
  8
GAIKEI
  6
Continuous
 62
     1
100
AcDbLine
 10
-21.96971347282261
 20
6.01904760607988
 30
0.0
 11
-21.76971347282267
 21
6.01904760607988
 31
0.0
  0
LINE
  5
15E
330
2
100
AcDbEntity
  8
GAIKEI
  6
Continuous
 62
     1
100
AcDbLine
 10
-21.61971347282269
 20
6.01904760607988
 30
0.0
 11
-21.41971347282265
 21
6.01904760607988
 31
0.0
  0
LINE
  5
15F
330
2
100
AcDbEntity
  8
GAIKEI
  6
Continuous
 62
     1
100
AcDbLine
 10
-21.26971347282267
 20
6.01904760607988
 30
0.0
 11
-21.06971347282263
 21
6.01904760607988
 31
0.0
  0
LINE
  5
160
330
2
100
AcDbEntity
  8
GAIKEI
  6
Continuous
 62
     1
100
AcDbLine
 10
-20.91971347282265
 20
6.01904760607988
 30
0.0
 11
-20.71971347282261
 21
6.01904760607988
 31
0.0
  0
LINE
  5
161
330
2
100
AcDbEntity
  8
GAIKEI
  6
Continuous
 62
     1
100
AcDbLine
 10
-20.56971347282263
 20
6.01904760607988
 30
0.0
 11
-20.36971347282269
 21
6.01904760607988
 31
0.0
  0
LINE
  5
162
330
2
100
AcDbEntity
  8
GAIKEI
  6
Continuous
 62
     1
100
AcDbLine
 10
-20.2197134728226
 20
6.01904760607988
 30
0.0
 11
-20.01971347282267
 21
6.01904760607988
 31
0.0
  0
LINE
  5
163
330
2
100
AcDbEntity
  8
GAIKEI
  6
Continuous
 62
     1
100
AcDbLine
 10
-19.86971347282269
 20
6.01904760607988
 30
0.0
 11
-19.66971347282265
 21
6.01904760607988
 31
0.0
  0
LINE
  5
164
330
2
100
AcDbEntity
  8
GAIKEI
  6
Continuous
 62
     1
100
AcDbLine
 10
-19.51971347282267
 20
6.01904760607988
 30
0.0
 11
-19.31971347282263
 21
6.01904760607988
 31
0.0
  0
LINE
  5
165
330
2
100
AcDbEntity
  8
GAIKEI
  6
Continuous
 62
     1
100
AcDbLine
 10
-19.16971347282265
 20
6.01904760607988
 30
0.0
 11
-18.9697134728226
 21
6.01904760607988
 31
0.0
  0
LINE
  5
166
330
2
100
AcDbEntity
  8
GAIKEI
  6
Continuous
 62
     1
100
AcDbLine
 10
-18.81971347282263
 20
6.01904760607988
 30
0.0
 11
-18.61971347282269
 21
6.01904760607988
 31
0.0
  0
LINE
  5
167
330
2
100
AcDbEntity
  8
GAIKEI
  6
Continuous
 62
     1
100
AcDbLine
 10
-18.4697134728226
 20
6.01904760607988
 30
0.0
 11
-18.26971347282267
 21
6.01904760607988
 31
0.0
  0
LINE
  5
168
330
2
100
AcDbEntity
  8
GAIKEI
  6
Continuous
 62
     1
100
AcDbLine
 10
-18.11971347282269
 20
6.01904760607988
 30
0.0
 11
-17.91971347282265
 21
6.01904760607988
 31
0.0
  0
LINE
  5
169
330
2
100
AcDbEntity
  8
GAIKEI
  6
Continuous
 62
     1
100
AcDbLine
 10
-17.76971347282267
 20
6.01904760607988
 30
0.0
 11
-17.56971347282263
 21
6.01904760607988
 31
0.0
  0
LINE
  5
16A
330
2
100
AcDbEntity
  8
GAIKEI
  6
Continuous
 62
     1
100
AcDbLine
 10
-17.41971347282265
 20
6.01904760607988
 30
0.0
 11
-17.2197134728226
 21
6.01904760607988
 31
0.0
  0
LINE
  5
16B
330
2
100
AcDbEntity
  8
GAIKEI
  6
Continuous
 62
     1
100
AcDbLine
 10
-17.06971347282262
 20
6.01904760607988
 30
0.0
 11
-16.86971347282269
 21
6.01904760607988
 31
0.0
  0
LINE
  5
16C
330
2
100
AcDbEntity
  8
GAIKEI
  6
Continuous
 62
     1
100
AcDbLine
 10
-16.7197134728226
 20
6.01904760607988
 30
0.0
 11
-16.51971347282267
 21
6.01904760607988
 31
0.0
  0
LINE
  5
16D
330
2
100
AcDbEntity
  8
GAIKEI
  6
Continuous
 62
     1
100
AcDbLine
 10
-16.36971347282269
 20
6.01904760607988
 30
0.0
 11
-16.16971347282265
 21
6.01904760607988
 31
0.0
  0
LINE
  5
16E
330
2
100
AcDbEntity
  8
GAIKEI
  6
Continuous
 62
     1
100
AcDbLine
 10
-16.01971347282267
 20
6.01904760607988
 30
0.0
 11
-15.81971347282262
 21
6.01904760607988
 31
0.0
  0
LINE
  5
16F
330
2
100
AcDbEntity
  8
GAIKEI
  6
Continuous
 62
     1
100
AcDbLine
 10
-15.66971347282265
 20
6.01904760607988
 30
0.0
 11
-15.4697134728226
 21
6.01904760607988
 31
0.0
  0
LINE
  5
170
330
2
100
AcDbEntity
  8
GAIKEI
  6
Continuous
 62
     1
100
AcDbLine
 10
-35.22471347258261
 20
6.085291258319784
 30
0.0
 11
-15.16471347305253
 21
6.085291258319784
 31
0.0
  0
LINE
  5
171
330
2
100
AcDbEntity
  8
GAIKEI
  6
Continuous
 62
     1
100
AcDbLine
 10
-27.56971347282263
 20
5.085291258319784
 30
0.0
 11
-27.56971347282263
 21
6.01904760607988
 31
0.0
  0
LINE
  5
172
330
2
100
AcDbEntity
  8
GAIKEI
  6
Continuous
 62
     1
100
AcDbLine
 10
-27.3697134728227
 20
6.01904760607988
 30
0.0
 11
-27.3697134728227
 21
5.085291258319784
 31
0.0
  0
LINE
  5
173
330
2
100
AcDbEntity
  8
GAIKEI
  6
Continuous
 62
     1
100
AcDbLine
 10
-27.21971347282261
 20
5.085291258319784
 30
0.0
 11
-27.21971347282261
 21
6.01904760607988
 31
0.0
  0
LINE
  5
174
330
2
100
AcDbEntity
  8
GAIKEI
  6
Continuous
 62
     1
100
AcDbLine
 10
-27.01971347282267
 20
6.01904760607988
 30
0.0
 11
-27.01971347282267
 21
5.085291258319784
 31
0.0
  0
LINE
  5
175
330
2
100
AcDbEntity
  8
GAIKEI
  6
Continuous
 62
     1
100
AcDbLine
 10
-26.8697134728227
 20
5.085291258319784
 30
0.0
 11
-26.8697134728227
 21
6.01904760607988
 31
0.0
  0
LINE
  5
176
330
2
100
AcDbEntity
  8
GAIKEI
  6
Continuous
 62
     1
100
AcDbLine
 10
-26.66971347282265
 20
6.01904760607988
 30
0.0
 11
-26.66971347282265
 21
5.085291258319784
 31
0.0
  0
LINE
  5
177
330
2
100
AcDbEntity
  8
GAIKEI
  6
Continuous
 62
     1
100
AcDbLine
 10
-26.51971347282267
 20
5.085291258319784
 30
0.0
 11
-26.51971347282267
 21
6.01904760607988
 31
0.0
  0
LINE
  5
178
330
2
100
AcDbEntity
  8
GAIKEI
  6
Continuous
 62
     1
100
AcDbLine
 10
-26.31971347282263
 20
6.01904760607988
 30
0.0
 11
-26.31971347282263
 21
5.085291258319784
 31
0.0
  0
LINE
  5
179
330
2
100
AcDbEntity
  8
GAIKEI
  6
Continuous
 62
     1
100
AcDbLine
 10
-19.8747134728228
 20
7.240291258319757
 30
0.0
 11
-30.51471347282279
 21
7.240291258319871
 31
0.0
  0
LINE
  5
17A
330
2
100
AcDbEntity
  8
GAIKEI
  6
Continuous
 62
     1
100
AcDbLine
 10
-26.16971347282265
 20
5.085291258319784
 30
0.0
 11
-26.16971347282265
 21
6.01904760607988
 31
0.0
  0
LINE
  5
17B
330
2
100
AcDbEntity
  8
GAIKEI
  6
Continuous
 62
     1
100
AcDbLine
 10
-25.96971347282261
 20
6.01904760607988
 30
0.0
 11
-25.96971347282261
 21
5.085291258319784
 31
0.0
  0
LINE
  5
17C
330
2
100
AcDbEntity
  8
GAIKEI
  6
Continuous
 62
     1
100
AcDbLine
 10
-25.81971347282263
 20
5.085291258319784
 30
0.0
 11
-25.81971347282263
 21
6.01904760607988
 31
0.0
  0
LINE
  5
17D
330
2
100
AcDbEntity
  8
GAIKEI
  6
Continuous
 62
     1
100
AcDbLine
 10
-25.6197134728227
 20
6.01904760607988
 30
0.0
 11
-25.6197134728227
 21
5.085291258319784
 31
0.0
  0
LINE
  5
17E
330
2
100
AcDbEntity
  8
GAIKEI
  6
Continuous
 62
     1
100
AcDbLine
 10
-25.46971347282261
 20
5.085291258319784
 30
0.0
 11
-25.46971347282261
 21
6.01904760607988
 31
0.0
  0
LINE
  5
17F
330
2
100
AcDbEntity
  8
GAIKEI
  6
Continuous
 62
     1
100
AcDbLine
 10
-25.26971347282267
 20
6.01904760607988
 30
0.0
 11
-25.26971347282267
 21
5.085291258319784
 31
0.0
  0
LINE
  5
180
330
2
100
AcDbEntity
  8
GAIKEI
  6
Continuous
 62
     1
100
AcDbLine
 10
-25.1197134728227
 20
5.085291258319784
 30
0.0
 11
-25.1197134728227
 21
6.01904760607988
 31
0.0
  0
LINE
  5
181
330
2
100
AcDbEntity
  8
GAIKEI
  6
Continuous
 62
     1
100
AcDbLine
 10
-24.91971347282265
 20
6.01904760607988
 30
0.0
 11
-24.91971347282265
 21
5.085291258319784
 31
0.0
  0
LINE
  5
182
330
2
100
AcDbEntity
  8
GAIKEI
  6
Continuous
 62
     1
100
AcDbLine
 10
-24.76971347282268
 20
5.085291258319784
 30
0.0
 11
-24.76971347282268
 21
6.01904760607988
 31
0.0
  0
LINE
  5
183
330
2
100
AcDbEntity
  8
GAIKEI
  6
Continuous
 62
     1
100
AcDbLine
 10
-24.56971347282263
 20
6.01904760607988
 30
0.0
 11
-24.56971347282263
 21
5.085291258319784
 31
0.0
  0
LINE
  5
184
330
2
100
AcDbEntity
  8
GAIKEI
  6
Continuous
 62
     1
100
AcDbLine
 10
-24.41971347282265
 20
5.085291258319784
 30
0.0
 11
-24.41971347282265
 21
6.01904760607988
 31
0.0
  0
LINE
  5
185
330
2
100
AcDbEntity
  8
GAIKEI
  6
Continuous
 62
     1
100
AcDbLine
 10
-24.21971347282261
 20
6.01904760607988
 30
0.0
 11
-24.21971347282261
 21
5.085291258319784
 31
0.0
  0
LINE
  5
186
330
2
100
AcDbEntity
  8
GAIKEI
  6
Continuous
 62
     1
100
AcDbLine
 10
-24.06971347282263
 20
5.085291258319784
 30
0.0
 11
-24.06971347282263
 21
6.01904760607988
 31
0.0
  0
LINE
  5
187
330
2
100
AcDbEntity
  8
GAIKEI
  6
Continuous
 62
     1
100
AcDbLine
 10
-23.8697134728227
 20
6.01904760607988
 30
0.0
 11
-23.8697134728227
 21
5.085291258319784
 31
0.0
  0
LINE
  5
188
330
2
100
AcDbEntity
  8
GAIKEI
  6
Continuous
 62
     1
100
AcDbLine
 10
-23.71971347282261
 20
5.085291258319784
 30
0.0
 11
-23.71971347282261
 21
6.01904760607988
 31
0.0
  0
LINE
  5
189
330
2
100
AcDbEntity
  8
GAIKEI
  6
Continuous
 62
     1
100
AcDbLine
 10
-23.51971347282267
 20
6.01904760607988
 30
0.0
 11
-23.51971347282267
 21
5.085291258319784
 31
0.0
  0
LINE
  5
18A
330
2
100
AcDbEntity
  8
GAIKEI
  6
Continuous
 62
     1
100
AcDbLine
 10
-19.87471347282269
 20
10.73029125831988
 30
0.0
 11
-30.51471347282291
 21
10.73029125831988
 31
0.0
  0
LINE
  5
18B
330
2
100
AcDbEntity
  8
GAIKEI
  6
Continuous
 62
     1
100
AcDbLine
 10
-23.3697134728227
 20
5.085291258319784
 30
0.0
 11
-23.3697134728227
 21
6.01904760607988
 31
0.0
  0
LINE
  5
18C
330
2
100
AcDbEntity
  8
GAIKEI
  6
Continuous
 62
     1
100
AcDbLine
 10
-23.16971347282265
 20
6.01904760607988
 30
0.0
 11
-23.16971347282265
 21
5.085291258319784
 31
0.0
  0
LINE
  5
18D
330
2
100
AcDbEntity
  8
GAIKEI
  6
Continuous
 62
     1
100
AcDbLine
 10
-23.01971347282267
 20
5.085291258319784
 30
0.0
 11
-23.01971347282267
 21
6.01904760607988
 31
0.0
  0
LINE
  5
18E
330
2
100
AcDbEntity
  8
GAIKEI
  6
Continuous
 62
     1
100
AcDbLine
 10
-22.81971347282263
 20
6.01904760607988
 30
0.0
 11
-22.81971347282263
 21
5.085291258319784
 31
0.0
  0
LINE
  5
18F
330
2
100
AcDbEntity
  8
GAIKEI
  6
Continuous
 62
     1
100
AcDbLine
 10
-22.66971347282265
 20
5.085291258319784
 30
0.0
 11
-22.66971347282265
 21
6.01904760607988
 31
0.0
  0
LINE
  5
190
330
2
100
AcDbEntity
  8
GAIKEI
  6
Continuous
 62
     1
100
AcDbLine
 10
-22.46971347282261
 20
6.01904760607988
 30
0.0
 11
-22.46971347282261
 21
5.085291258319784
 31
0.0
  0
LINE
  5
191
330
2
100
AcDbEntity
  8
GAIKEI
  6
Continuous
 62
     1
100
AcDbLine
 10
-22.31971347282263
 20
5.085291258319784
 30
0.0
 11
-22.31971347282263
 21
6.01904760607988
 31
0.0
  0
LINE
  5
192
330
2
100
AcDbEntity
  8
GAIKEI
  6
Continuous
 62
     1
100
AcDbLine
 10
-15.16471347282288
 20
11.88529125831985
 30
0.0
 11
-35.22471347282272
 21
11.88529125831985
 31
0.0
  0
LINE
  5
193
330
2
100
AcDbEntity
  8
GAIKEI
  6
Continuous
 62
     1
100
AcDbLine
 10
-22.1197134728227
 20
6.01904760607988
 30
0.0
 11
-22.1197134728227
 21
5.085291258319784
 31
0.0
  0
LINE
  5
194
330
2
100
AcDbEntity
  8
GAIKEI
  6
Continuous
 62
     1
100
AcDbLine
 10
-21.96971347282261
 20
5.085291258319784
 30
0.0
 11
-21.96971347282261
 21
6.01904760607988
 31
0.0
  0
LINE
  5
195
330
2
100
AcDbEntity
  8
GAIKEI
  6
Continuous
 62
     1
100
AcDbLine
 10
-21.76971347282267
 20
6.01904760607988
 30
0.0
 11
-21.76971347282267
 21
5.085291258319784
 31
0.0
  0
LINE
  5
196
330
2
100
AcDbEntity
  8
GAIKEI
  6
Continuous
 62
     1
100
AcDbLine
 10
-21.61971347282269
 20
5.085291258319784
 30
0.0
 11
-21.61971347282269
 21
6.01904760607988
 31
0.0
  0
LINE
  5
197
330
2
100
AcDbEntity
  8
GAIKEI
  6
Continuous
 62
     1
100
AcDbLine
 10
-21.41971347282265
 20
6.01904760607988
 30
0.0
 11
-21.41971347282265
 21
5.085291258319784
 31
0.0
  0
LINE
  5
198
330
2
100
AcDbEntity
  8
GAIKEI
  6
Continuous
 62
     1
100
AcDbLine
 10
-21.26971347282267
 20
5.085291258319784
 30
0.0
 11
-21.26971347282267
 21
6.01904760607988
 31
0.0
  0
LINE
  5
199
330
2
100
AcDbEntity
  8
GAIKEI
  6
Continuous
 62
     1
100
AcDbLine
 10
-21.06971347282263
 20
6.01904760607988
 30
0.0
 11
-21.06971347282263
 21
5.085291258319784
 31
0.0
  0
LINE
  5
19A
330
2
100
AcDbEntity
  8
GAIKEI
  6
Continuous
 62
     1
100
AcDbLine
 10
-20.91971347282265
 20
5.085291258319784
 30
0.0
 11
-20.91971347282265
 21
6.01904760607988
 31
0.0
  0
LINE
  5
19B
330
2
100
AcDbEntity
  8
GAIKEI
  6
Continuous
 62
     1
100
AcDbLine
 10
-40.09569476858257
 20
12.86066995319982
 30
0.0
 11
-40.14889560342271
 21
12.86066995319982
 31
0.0
  0
LINE
  5
19C
330
2
100
AcDbEntity
  8
GAIKEI
  6
Continuous
 62
     1
100
AcDbLine
 10
-39.09769681902276
 20
12.88529125831985
 30
0.0
 11
-40.08577150604253
 21
12.88529125831985
 31
0.0
  0
LINE
  5
19D
330
2
100
AcDbEntity
  8
GAIKEI
  6
Continuous
 62
     1
100
AcDbLine
 10
-40.13968639697248
 20
12.88529125831985
 30
0.0
 11
-45.04258165399266
 21
12.88529125831985
 31
0.0
  0
LINE
  5
19E
330
2
100
AcDbEntity
  8
GAIKEI
  6
Continuous
 62
     1
100
AcDbLine
 10
-11.2917301266126
 20
12.88529125831985
 30
0.0
 11
-10.31985932923271
 21
12.88529125831985
 31
0.0
  0
LINE
  5
19F
330
2
100
AcDbEntity
  8
GAIKEI
  6
Continuous
 62
     1
100
AcDbLine
 10
-40.08577150604253
 20
12.9352912583198
 30
0.0
 11
-40.13968639697248
 21
12.9352912583198
 31
0.0
  0
LINE
  5
1A0
330
2
100
AcDbEntity
  8
GAIKEI
  6
Continuous
 62
     1
100
AcDbLine
 10
-40.13968639697248
 20
12.98529125831976
 30
0.0
 11
-45.04258165399266
 21
12.98529125831976
 31
0.0
  0
LINE
  5
1A1
330
2
100
AcDbEntity
  8
GAIKEI
  6
Continuous
 62
     1
100
AcDbLine
 10
-20.71971347282261
 20
6.01904760607988
 30
0.0
 11
-20.71971347282261
 21
5.085291258319784
 31
0.0
  0
LINE
  5
1A2
330
2
100
AcDbEntity
  8
GAIKEI
  6
Continuous
 62
     1
100
AcDbLine
 10
-20.56971347282263
 20
5.085291258319784
 30
0.0
 11
-20.56971347282263
 21
6.01904760607988
 31
0.0
  0
LINE
  5
1A3
330
2
100
AcDbEntity
  8
GAIKEI
  6
Continuous
 62
     1
100
AcDbLine
 10
-20.36971347282269
 20
6.01904760607988
 30
0.0
 11
-20.36971347282269
 21
5.085291258319784
 31
0.0
  0
LINE
  5
1A4
330
2
100
AcDbEntity
  8
GAIKEI
  6
Continuous
 62
     1
100
AcDbLine
 10
-20.2197134728226
 20
5.085291258319784
 30
0.0
 11
-20.2197134728226
 21
6.01904760607988
 31
0.0
  0
LINE
  5
1A5
330
2
100
AcDbEntity
  8
GAIKEI
  6
Continuous
 62
     1
100
AcDbLine
 10
-20.01971347282267
 20
6.01904760607988
 30
0.0
 11
-20.01971347282267
 21
5.085291258319784
 31
0.0
  0
LINE
  5
1A6
330
2
100
AcDbEntity
  8
GAIKEI
  6
Continuous
 62
     1
100
AcDbLine
 10
-19.86971347282269
 20
5.085291258319784
 30
0.0
 11
-19.86971347282269
 21
6.01904760607988
 31
0.0
  0
LINE
  5
1A7
330
2
100
AcDbEntity
  8
GAIKEI
  6
Continuous
 62
     1
100
AcDbLine
 10
-19.66971347282265
 20
6.01904760607988
 30
0.0
 11
-19.66971347282265
 21
5.085291258319784
 31
0.0
  0
LINE
  5
1A8
330
2
100
AcDbEntity
  8
GAIKEI
  6
Continuous
 62
     1
100
AcDbLine
 10
-19.51971347282267
 20
5.085291258319784
 30
0.0
 11
-19.51971347282267
 21
6.01904760607988
 31
0.0
  0
LINE
  5
1A9
330
2
100
AcDbEntity
  8
GAIKEI
  6
Continuous
 62
     1
100
AcDbLine
 10
-19.31971347282263
 20
6.01904760607988
 30
0.0
 11
-19.31971347282263
 21
5.085291258319784
 31
0.0
  0
LINE
  5
1AA
330
2
100
AcDbEntity
  8
GAIKEI
  6
Continuous
 62
     1
100
AcDbLine
 10
-19.16971347282265
 20
5.085291258319784
 30
0.0
 11
-19.16971347282265
 21
6.01904760607988
 31
0.0
  0
LINE
  5
1AB
330
2
100
AcDbEntity
  8
GAIKEI
  6
Continuous
 62
     1
100
AcDbLine
 10
-18.9697134728226
 20
6.01904760607988
 30
0.0
 11
-18.9697134728226
 21
5.085291258319784
 31
0.0
  0
LINE
  5
1AC
330
2
100
AcDbEntity
  8
GAIKEI
  6
Continuous
 62
     1
100
AcDbLine
 10
-18.81971347282263
 20
5.085291258319784
 30
0.0
 11
-18.81971347282263
 21
6.01904760607988
 31
0.0
  0
LINE
  5
1AD
330
2
100
AcDbEntity
  8
GAIKEI
  6
Continuous
 62
     1
100
AcDbLine
 10
-18.61971347282269
 20
6.01904760607988
 30
0.0
 11
-18.61971347282269
 21
5.085291258319784
 31
0.0
  0
LINE
  5
1AE
330
2
100
AcDbEntity
  8
GAIKEI
  6
Continuous
 62
     1
100
AcDbLine
 10
-18.4697134728226
 20
5.085291258319784
 30
0.0
 11
-18.4697134728226
 21
6.01904760607988
 31
0.0
  0
LINE
  5
1AF
330
2
100
AcDbEntity
  8
GAIKEI
  6
Continuous
 62
     1
100
AcDbLine
 10
-18.26971347282267
 20
6.01904760607988
 30
0.0
 11
-18.26971347282267
 21
5.085291258319784
 31
0.0
  0
LINE
  5
1B0
330
2
100
AcDbEntity
  8
GAIKEI
  6
Continuous
 62
     1
100
AcDbLine
 10
-18.11971347282269
 20
5.085291258319784
 30
0.0
 11
-18.11971347282269
 21
6.01904760607988
 31
0.0
  0
LINE
  5
1B1
330
2
100
AcDbEntity
  8
GAIKEI
  6
Continuous
 62
     1
100
AcDbLine
 10
-17.91971347282265
 20
6.01904760607988
 30
0.0
 11
-17.91971347282265
 21
5.085291258319784
 31
0.0
  0
LINE
  5
1B2
330
2
100
AcDbEntity
  8
GAIKEI
  6
Continuous
 62
     1
100
AcDbLine
 10
-17.76971347282267
 20
5.085291258319784
 30
0.0
 11
-17.76971347282267
 21
6.01904760607988
 31
0.0
  0
LINE
  5
1B3
330
2
100
AcDbEntity
  8
GAIKEI
  6
Continuous
 62
     1
100
AcDbLine
 10
-17.56971347282263
 20
6.01904760607988
 30
0.0
 11
-17.56971347282263
 21
5.085291258319784
 31
0.0
  0
LINE
  5
1B4
330
2
100
AcDbEntity
  8
GAIKEI
  6
Continuous
 62
     1
100
AcDbLine
 10
-17.41971347282265
 20
5.085291258319784
 30
0.0
 11
-17.41971347282265
 21
6.01904760607988
 31
0.0
  0
LINE
  5
1B5
330
2
100
AcDbEntity
  8
GAIKEI
  6
Continuous
 62
     1
100
AcDbLine
 10
-17.2197134728226
 20
6.01904760607988
 30
0.0
 11
-17.2197134728226
 21
5.085291258319784
 31
0.0
  0
LINE
  5
1B6
330
2
100
AcDbEntity
  8
GAIKEI
  6
Continuous
 62
     1
100
AcDbLine
 10
-17.06971347282262
 20
5.085291258319784
 30
0.0
 11
-17.06971347282262
 21
6.01904760607988
 31
0.0
  0
LINE
  5
1B7
330
2
100
AcDbEntity
  8
GAIKEI
  6
Continuous
 62
     1
100
AcDbLine
 10
-16.86971347282269
 20
6.01904760607988
 30
0.0
 11
-16.86971347282269
 21
5.085291258319784
 31
0.0
  0
LINE
  5
1B8
330
2
100
AcDbEntity
  8
GAIKEI
  6
Continuous
 62
     1
100
AcDbLine
 10
-16.7197134728226
 20
5.085291258319784
 30
0.0
 11
-16.7197134728226
 21
6.01904760607988
 31
0.0
  0
LINE
  5
1B9
330
2
100
AcDbEntity
  8
GAIKEI
  6
Continuous
 62
     1
100
AcDbLine
 10
-16.51971347282267
 20
6.01904760607988
 30
0.0
 11
-16.51971347282267
 21
5.085291258319784
 31
0.0
  0
LINE
  5
1BA
330
2
100
AcDbEntity
  8
GAIKEI
  6
Continuous
 62
     1
100
AcDbLine
 10
-16.36971347282269
 20
5.085291258319784
 30
0.0
 11
-16.36971347282269
 21
6.01904760607988
 31
0.0
  0
LINE
  5
1BB
330
2
100
AcDbEntity
  8
GAIKEI
  6
Continuous
 62
     1
100
AcDbLine
 10
-16.16971347282265
 20
6.01904760607988
 30
0.0
 11
-16.16971347282265
 21
5.085291258319784
 31
0.0
  0
LINE
  5
1BC
330
2
100
AcDbEntity
  8
GAIKEI
  6
Continuous
 62
     1
100
AcDbLine
 10
-16.01971347282267
 20
5.085291258319784
 30
0.0
 11
-16.01971347282267
 21
6.01904760607988
 31
0.0
  0
LINE
  5
1BD
330
2
100
AcDbEntity
  8
GAIKEI
  6
Continuous
 62
     1
100
AcDbLine
 10
-15.81971347282262
 20
6.01904760607988
 30
0.0
 11
-15.81971347282262
 21
5.085291258319784
 31
0.0
  0
LINE
  5
1BE
330
2
100
AcDbEntity
  8
GAIKEI
  6
Continuous
 62
     1
100
AcDbLine
 10
-15.66971347282265
 20
5.085291258319784
 30
0.0
 11
-15.66971347282265
 21
6.01904760607988
 31
0.0
  0
LINE
  5
1BF
330
2
100
AcDbEntity
  8
GAIKEI
  6
Continuous
 62
     1
100
AcDbLine
 10
-15.4697134728226
 20
6.01904760607988
 30
0.0
 11
-15.4697134728226
 21
5.085291258319784
 31
0.0
  0
LINE
  5
1C0
330
2
100
AcDbEntity
  8
GAIKEI
  6
Continuous
 62
     1
100
AcDbLine
 10
-15.31971347282263
 20
5.085291258319784
 30
0.0
 11
-15.31971347282263
 21
6.01904760607988
 31
0.0
  0
LINE
  5
1C1
330
2
100
AcDbEntity
  8
GAIKEI
  6
Continuous
 62
     1
100
AcDbLine
 10
-11.2917301266126
 20
5.085291258319784
 30
0.0
 11
-11.2917301266126
 21
4.999765000319825
 31
0.0
  0
LINE
  5
1C2
330
2
100
AcDbEntity
  8
GAIKEI
  6
Continuous
 62
     1
100
AcDbLine
 10
-19.87471347282269
 20
10.73029125831988
 30
0.0
 11
-19.8747134728228
 21
7.240291258319757
 31
0.0
  0
LINE
  5
1C3
330
2
100
AcDbEntity
  8
GAIKEI
  6
Continuous
100
AcDbLine
 10
-3.994713472822695
 20
13.38529125831985
 30
0.0
 11
-3.994713472822695
 21
8.985291258319762
 31
0.0
  0
LINE
  5
1C4
330
2
100
AcDbEntity
  8
GAIKEI
  6
Continuous
100
AcDbLine
 10
-45.99471347282269
 20
8.985291258319762
 30
0.0
 11
-45.99471347282269
 21
13.38529125831985
 31
0.0
  0
LINE
  5
1C5
330
2
100
AcDbEntity
  8
GAIKEI
  6
S10
 62
     1
100
AcDbLine
 10
-48.99471347282269
 20
4.785291258319887
 30
0.0
 11
-48.99471347282247
 21
13.18529125831992
 31
0.0
  0
LINE
  5
1C6
330
2
100
AcDbEntity
  8
GAIKEI
  6
Continuous
100
AcDbLine
 10
-9.903784791348016
 20
3.535291258319603
 30
0.0
 11
-8.085642154297602
 21
3.535291258319603
 31
0.0
  0
LINE
  5
1C7
330
2
100
AcDbEntity
  8
GAIKEI
  6
S10
 62
     1
100
AcDbLine
 10
-0.9947134728226956
 20
13.18529125831992
 30
0.0
 11
-0.9947134728226956
 21
4.785291258319887
 31
0.0
  0
LINE
  5
1C8
330
2
100
AcDbEntity
  8
GAIKEI
  6
HIDDEN2
 62
     1
100
AcDbLine
 10
-1.194713472822741
 20
4.585291258319898
 30
0.0
 11
-3.994713472822695
 21
4.585291258319898
 31
0.0
  0
LINE
  5
1C9
330
2
100
AcDbEntity
  8
GAIKEI
  6
HIDDEN2
 62
     1
100
AcDbLine
 10
-3.994713472822695
 20
13.38529125831985
 30
0.0
 11
-1.194713472822741
 21
13.38529125831985
 31
0.0
  0
LINE
  5
1CA
330
2
100
AcDbEntity
  8
GAIKEI
  6
S10
 62
     1
100
AcDbLine
 10
23.44786321797199
 20
4.585291434257385
 30
0.0
 11
26.24786321797194
 21
4.585291434257385
 31
0.0
  0
LINE
  5
1CB
330
2
100
AcDbEntity
  8
GAIKEI
  6
S10
 62
     1
100
AcDbLine
 10
23.44786321797199
 20
13.3852914342574
 30
0.0
 11
23.44786321797199
 21
4.585291434257385
 31
0.0
  0
LINE
  5
1CC
330
2
100
AcDbEntity
  8
GAIKEI
  6
Continuous
100
AcDbLine
 10
26.09786328024325
 20
13.38529153793968
 30
0.0
 11
23.56030641418715
 21
13.38529143865673
 31
0.0
  0
LINE
  5
1CD
330
2
100
AcDbEntity
  8
GAIKEI
  6
Continuous
 62
     1
100
AcDbLine
 10
58.36786344256916
 20
13.30529125832004
 30
0.0
 11
58.26786321797158
 21
13.30529125832004
 31
0.0
  0
LINE
  5
1CE
330
2
100
AcDbEntity
  8
GAIKEI
  6
Continuous
 62
     1
100
AcDbLine
 10
58.36786344256916
 20
13.20529126193457
 30
0.0
 11
58.36786344256916
 21
13.30529125832004
 31
0.0
  0
LINE
  5
1CF
330
2
100
AcDbEntity
  8
GAIKEI
  6
Continuous
 62
     1
100
AcDbLine
 10
58.44786345728119
 20
13.20529126896974
 30
0.0
 11
58.26786321797158
 21
13.20529125571636
 31
0.0
  0
LINE
  5
1D0
330
2
100
AcDbEntity
  8
GAIKEI
  6
Continuous
 62
     1
100
AcDbLine
 10
58.26786321797158
 20
13.20529125571636
 30
0.0
 11
58.26786321797158
 21
13.38529380503712
 31
0.0
  0
LINE
  5
1D1
330
2
100
AcDbEntity
  8
GAIKEI
  6
Continuous
100
AcDbLine
 10
26.33215188908366
 20
13.30529103032552
 30
0.0
 11
26.44786321797176
 21
13.3052910409134
 31
0.0
  0
LINE
  5
1D2
330
2
100
AcDbEntity
  8
GAIKEI
  6
Continuous
100
AcDbLine
 10
26.1550091732023
 20
13.23529125831987
 30
0.0
 11
26.34786321797174
 21
13.23529125831987
 31
0.0
  0
LINE
  5
1D3
330
2
100
AcDbEntity
  8
GAIKEI
  6
Continuous
100
AcDbLine
 10
26.44786321797176
 20
13.3352912583199
 30
0.0
 11
26.44786321797176
 21
13.38529125831985
 31
0.0
  0
LINE
  5
1D4
330
2
100
AcDbEntity
  8
GAIKEI
  6
Continuous
100
AcDbLine
 10
26.26548539712246
 20
13.23529125831987
 30
0.0
 11
26.33215188908366
 21
13.30529103032552
 31
0.0
  0
LINE
  5
1D5
330
2
100
AcDbEntity
  8
GAIKEI
  6
Continuous
100
AcDbLine
 10
25.89786615239245
 20
12.96529125832001
 30
0.0
 11
26.29786640698558
 21
13.38529125831985
 31
0.0
  0
LINE
  5
1D6
330
2
100
AcDbEntity
  8
GAIKEI
  6
Continuous
100
AcDbLine
 10
25.89786615239245
 20
12.96529125832001
 30
0.0
 11
23.81786321797187
 21
12.96529125832001
 31
0.0
  0
LINE
  5
1D7
330
2
100
AcDbEntity
  8
GAIKEI
  6
Continuous
100
AcDbLine
 10
23.54786321797201
 20
4.585291810550131
 30
0.0
 11
23.69786321797199
 21
4.585291810550131
 31
0.0
  0
LINE
  5
1D8
330
2
100
AcDbEntity
  8
GAIKEI
  6
Continuous
100
AcDbLine
 10
23.81786393652896
 20
4.815292297138
 30
0.0
 11
23.81786393652896
 21
4.685292297138687
 31
0.0
  0
LINE
  5
1D9
330
2
100
AcDbEntity
  8
GAIKEI
  6
Continuous
100
AcDbLine
 10
23.81786393652896
 20
4.7652922971385
 30
0.0
 11
23.81786393652896
 21
4.685290307116417
 31
0.0
  0
LINE
  5
1DA
330
2
100
AcDbEntity
  8
GAIKEI
  6
Continuous
100
AcDbLine
 10
23.81786393652896
 20
4.815292297138
 30
0.0
 11
23.81786321796813
 21
4.815292297138
 31
0.0
  0
LINE
  5
1DB
330
2
100
AcDbEntity
  8
GAIKEI
  6
Continuous
100
AcDbLine
 10
23.81786393652896
 20
4.815292297138
 30
0.0
 11
23.81786321796813
 21
4.815292297138
 31
0.0
  0
LINE
  5
1DC
330
2
100
AcDbEntity
  8
GAIKEI
  6
Continuous
 62
     1
100
AcDbLine
 10
35.44785861797129
 20
7.635292296315469
 30
0.0
 11
35.44785861797129
 21
8.135292296315469
 31
0.0
  0
LINE
  5
1DD
330
2
100
AcDbEntity
  8
GAIKEI
  6
Continuous
 62
     1
100
AcDbLine
 10
35.44785861797129
 20
8.385292296315469
 30
0.0
 11
35.44785861797129
 21
8.885292296315469
 31
0.0
  0
LINE
  5
1DE
330
2
100
AcDbEntity
  8
GAIKEI
  6
Continuous
 62
     1
100
AcDbLine
 10
35.44785861797129
 20
9.135292296315469
 30
0.0
 11
35.44785861797129
 21
9.635292296315469
 31
0.0
  0
LINE
  5
1DF
330
2
100
AcDbEntity
  8
GAIKEI
  6
Continuous
 62
     1
100
AcDbLine
 10
34.94785861797129
 20
7.635292296315469
 30
0.0
 11
34.94785861797129
 21
8.135292296315469
 31
0.0
  0
LINE
  5
1E0
330
2
100
AcDbEntity
  8
GAIKEI
  6
Continuous
 62
     1
100
AcDbLine
 10
34.94785861797129
 20
8.385292296315469
 30
0.0
 11
34.94785861797129
 21
8.885292296315469
 31
0.0
  0
LINE
  5
1E1
330
2
100
AcDbEntity
  8
GAIKEI
  6
Continuous
 62
     1
100
AcDbLine
 10
34.94785861797129
 20
9.135292296315469
 30
0.0
 11
34.94785861797129
 21
9.635292296315469
 31
0.0
  0
LINE
  5
1E2
330
2
100
AcDbEntity
  8
GAIKEI
  6
Continuous
 62
     1
100
AcDbLine
 10
34.44785861797129
 20
7.635292296315469
 30
0.0
 11
34.44785861797129
 21
8.135292296315469
 31
0.0
  0
LINE
  5
1E3
330
2
100
AcDbEntity
  8
GAIKEI
  6
Continuous
 62
     1
100
AcDbLine
 10
34.44785861797129
 20
8.385292296315469
 30
0.0
 11
34.44785861797129
 21
8.885292296315469
 31
0.0
  0
LINE
  5
1E4
330
2
100
AcDbEntity
  8
GAIKEI
  6
Continuous
 62
     1
100
AcDbLine
 10
34.44785861797129
 20
9.135292296315469
 30
0.0
 11
34.44785861797129
 21
9.635292296315469
 31
0.0
  0
LINE
  5
1E5
330
2
100
AcDbEntity
  8
GAIKEI
  6
Continuous
 62
     1
100
AcDbLine
 10
33.94785861797129
 20
7.635292296315469
 30
0.0
 11
33.94785861797129
 21
8.135292296315469
 31
0.0
  0
LINE
  5
1E6
330
2
100
AcDbEntity
  8
GAIKEI
  6
Continuous
 62
     1
100
AcDbLine
 10
33.94785861797129
 20
8.385292296315469
 30
0.0
 11
33.94785861797129
 21
8.885292296315469
 31
0.0
  0
LINE
  5
1E7
330
2
100
AcDbEntity
  8
GAIKEI
  6
Continuous
 62
     1
100
AcDbLine
 10
33.94785861797129
 20
9.135292296315469
 30
0.0
 11
33.94785861797129
 21
9.635292296315469
 31
0.0
  0
LINE
  5
1E8
330
2
100
AcDbEntity
  8
GAIKEI
  6
Continuous
 62
     1
100
AcDbLine
 10
33.44786321797142
 20
7.635292296315469
 30
0.0
 11
33.44786321797142
 21
8.135292296315469
 31
0.0
  0
LINE
  5
1E9
330
2
100
AcDbEntity
  8
GAIKEI
  6
Continuous
 62
     1
100
AcDbLine
 10
33.44786321797142
 20
8.385292296315469
 30
0.0
 11
33.44786321797142
 21
8.885292296315469
 31
0.0
  0
LINE
  5
1EA
330
2
100
AcDbEntity
  8
GAIKEI
  6
Continuous
 62
     1
100
AcDbLine
 10
33.44786321797142
 20
9.135292296315469
 30
0.0
 11
33.44786321797142
 21
9.635292296315469
 31
0.0
  0
LINE
  5
1EB
330
2
100
AcDbEntity
  8
GAIKEI
  6
Continuous
 62
     1
100
AcDbLine
 10
32.94786321797142
 20
7.635292296315469
 30
0.0
 11
32.94786321797142
 21
8.135292296315469
 31
0.0
  0
LINE
  5
1EC
330
2
100
AcDbEntity
  8
GAIKEI
  6
Continuous
 62
     1
100
AcDbLine
 10
32.94786321797142
 20
8.385292296315469
 30
0.0
 11
32.94786321797142
 21
8.885292296315469
 31
0.0
  0
LINE
  5
1ED
330
2
100
AcDbEntity
  8
GAIKEI
  6
Continuous
 62
     1
100
AcDbLine
 10
32.94786321797142
 20
9.135292296315469
 30
0.0
 11
32.94786321797142
 21
9.635292296315469
 31
0.0
  0
LINE
  5
1EE
330
2
100
AcDbEntity
  8
GAIKEI
  6
Continuous
 62
     1
100
AcDbLine
 10
32.44786321797142
 20
7.635292296315469
 30
0.0
 11
32.44786321797142
 21
8.135292296315469
 31
0.0
  0
LINE
  5
1EF
330
2
100
AcDbEntity
  8
GAIKEI
  6
Continuous
 62
     1
100
AcDbLine
 10
32.44786321797142
 20
8.385292296315469
 30
0.0
 11
32.44786321797142
 21
8.885292296315469
 31
0.0
  0
LINE
  5
1F0
330
2
100
AcDbEntity
  8
GAIKEI
  6
Continuous
 62
     1
100
AcDbLine
 10
32.44786321797142
 20
9.135292296315469
 30
0.0
 11
32.44786321797142
 21
9.635292296315469
 31
0.0
  0
LINE
  5
1F1
330
2
100
AcDbEntity
  8
GAIKEI
  6
Continuous
 62
     1
100
AcDbLine
 10
31.94786321797142
 20
7.635292296315469
 30
0.0
 11
31.94786321797142
 21
8.135292296315469
 31
0.0
  0
LINE
  5
1F2
330
2
100
AcDbEntity
  8
GAIKEI
  6
Continuous
 62
     1
100
AcDbLine
 10
31.94786321797142
 20
8.385292296315469
 30
0.0
 11
31.94786321797142
 21
8.885292296315469
 31
0.0
  0
LINE
  5
1F3
330
2
100
AcDbEntity
  8
GAIKEI
  6
Continuous
 62
     1
100
AcDbLine
 10
31.94786321797142
 20
9.135292296315469
 30
0.0
 11
31.94786321797142
 21
9.635292296315469
 31
0.0
  0
LINE
  5
1F4
330
2
100
AcDbEntity
  8
GAIKEI
  6
Continuous
 62
     1
100
AcDbLine
 10
31.44786321797142
 20
7.635292296315469
 30
0.0
 11
31.44786321797142
 21
8.135292296315469
 31
0.0
  0
LINE
  5
1F5
330
2
100
AcDbEntity
  8
GAIKEI
  6
Continuous
 62
     1
100
AcDbLine
 10
31.44786321797142
 20
8.385292296315469
 30
0.0
 11
31.44786321797142
 21
8.885292296315469
 31
0.0
  0
LINE
  5
1F6
330
2
100
AcDbEntity
  8
GAIKEI
  6
Continuous
 62
     1
100
AcDbLine
 10
31.44786321797142
 20
9.135292296315469
 30
0.0
 11
31.44786321797142
 21
9.635292296315469
 31
0.0
  0
LINE
  5
1F7
330
2
100
AcDbEntity
  8
GAIKEI
  6
Continuous
 62
     1
100
AcDbLine
 10
35.66785831797143
 20
8.135292296315469
 30
0.0
 11
35.44785861797129
 21
8.135292296315469
 31
0.0
  0
LINE
  5
1F8
330
2
100
AcDbEntity
  8
GAIKEI
  6
Continuous
 62
     1
100
AcDbLine
 10
35.66785831797143
 20
8.885292296315469
 30
0.0
 11
35.44785861797129
 21
8.885292296315469
 31
0.0
  0
LINE
  5
1F9
330
2
100
AcDbEntity
  8
GAIKEI
  6
Continuous
 62
     1
100
AcDbLine
 10
35.66785831797143
 20
9.635292296315469
 30
0.0
 11
35.44785861797129
 21
9.635292296315469
 31
0.0
  0
LINE
  5
1FA
330
2
100
AcDbEntity
  8
GAIKEI
  6
Continuous
 62
     1
100
AcDbLine
 10
35.16785831797142
 20
8.135292296315469
 30
0.0
 11
34.94785861797129
 21
8.135292296315469
 31
0.0
  0
LINE
  5
1FB
330
2
100
AcDbEntity
  8
GAIKEI
  6
Continuous
 62
     1
100
AcDbLine
 10
35.16785831797142
 20
8.885292296315469
 30
0.0
 11
34.94785861797129
 21
8.885292296315469
 31
0.0
  0
LINE
  5
1FC
330
2
100
AcDbEntity
  8
GAIKEI
  6
Continuous
 62
     1
100
AcDbLine
 10
35.16785831797142
 20
9.635292296315469
 30
0.0
 11
34.94785861797129
 21
9.635292296315469
 31
0.0
  0
LINE
  5
1FD
330
2
100
AcDbEntity
  8
GAIKEI
  6
Continuous
 62
     1
100
AcDbLine
 10
34.66785831797142
 20
8.135292296315469
 30
0.0
 11
34.44785861797129
 21
8.135292296315469
 31
0.0
  0
LINE
  5
1FE
330
2
100
AcDbEntity
  8
GAIKEI
  6
Continuous
 62
     1
100
AcDbLine
 10
34.66785831797142
 20
8.885292296315469
 30
0.0
 11
34.44785861797129
 21
8.885292296315469
 31
0.0
  0
LINE
  5
1FF
330
2
100
AcDbEntity
  8
GAIKEI
  6
Continuous
 62
     1
100
AcDbLine
 10
34.66785831797142
 20
9.635292296315469
 30
0.0
 11
34.44785861797129
 21
9.635292296315469
 31
0.0
  0
LINE
  5
200
330
2
100
AcDbEntity
  8
GAIKEI
  6
Continuous
 62
     1
100
AcDbLine
 10
34.16785831797142
 20
8.135292296315469
 30
0.0
 11
33.94785861797129
 21
8.135292296315469
 31
0.0
  0
LINE
  5
201
330
2
100
AcDbEntity
  8
GAIKEI
  6
Continuous
 62
     1
100
AcDbLine
 10
34.16785831797142
 20
8.885292296315469
 30
0.0
 11
33.94785861797129
 21
8.885292296315469
 31
0.0
  0
LINE
  5
202
330
2
100
AcDbEntity
  8
GAIKEI
  6
Continuous
 62
     1
100
AcDbLine
 10
34.16785831797142
 20
9.635292296315469
 30
0.0
 11
33.94785861797129
 21
9.635292296315469
 31
0.0
  0
LINE
  5
203
330
2
100
AcDbEntity
  8
GAIKEI
  6
Continuous
 62
     1
100
AcDbLine
 10
33.66785831797142
 20
8.135292296315469
 30
0.0
 11
33.44786321797142
 21
8.135292296315469
 31
0.0
  0
LINE
  5
204
330
2
100
AcDbEntity
  8
GAIKEI
  6
Continuous
 62
     1
100
AcDbLine
 10
33.66785831797142
 20
8.885292296315469
 30
0.0
 11
33.44786321797142
 21
8.885292296315469
 31
0.0
  0
LINE
  5
205
330
2
100
AcDbEntity
  8
GAIKEI
  6
Continuous
 62
     1
100
AcDbLine
 10
33.66785831797142
 20
9.635292296315469
 30
0.0
 11
33.44786321797142
 21
9.635292296315469
 31
0.0
  0
LINE
  5
206
330
2
100
AcDbEntity
  8
GAIKEI
  6
Continuous
 62
     1
100
AcDbLine
 10
33.16785831797143
 20
8.135292296315469
 30
0.0
 11
32.94786321797142
 21
8.135292296315469
 31
0.0
  0
LINE
  5
207
330
2
100
AcDbEntity
  8
GAIKEI
  6
Continuous
 62
     1
100
AcDbLine
 10
33.16785831797143
 20
8.885292296315469
 30
0.0
 11
32.94786321797142
 21
8.885292296315469
 31
0.0
  0
LINE
  5
208
330
2
100
AcDbEntity
  8
GAIKEI
  6
Continuous
 62
     1
100
AcDbLine
 10
33.16785831797143
 20
9.635292296315469
 30
0.0
 11
32.94786321797142
 21
9.635292296315469
 31
0.0
  0
LINE
  5
209
330
2
100
AcDbEntity
  8
GAIKEI
  6
Continuous
 62
     1
100
AcDbLine
 10
32.66785831797142
 20
8.135292296315469
 30
0.0
 11
32.44786321797142
 21
8.135292296315469
 31
0.0
  0
LINE
  5
20A
330
2
100
AcDbEntity
  8
GAIKEI
  6
Continuous
 62
     1
100
AcDbLine
 10
32.66785831797142
 20
8.885292296315469
 30
0.0
 11
32.44786321797142
 21
8.885292296315469
 31
0.0
  0
LINE
  5
20B
330
2
100
AcDbEntity
  8
GAIKEI
  6
Continuous
 62
     1
100
AcDbLine
 10
32.66785831797142
 20
9.635292296315469
 30
0.0
 11
32.44786321797142
 21
9.635292296315469
 31
0.0
  0
LINE
  5
20C
330
2
100
AcDbEntity
  8
GAIKEI
  6
Continuous
 62
     1
100
AcDbLine
 10
32.16785831797142
 20
8.135292296315469
 30
0.0
 11
31.94786321797142
 21
8.135292296315469
 31
0.0
  0
LINE
  5
20D
330
2
100
AcDbEntity
  8
GAIKEI
  6
Continuous
 62
     1
100
AcDbLine
 10
32.16785831797142
 20
8.885292296315469
 30
0.0
 11
31.94786321797142
 21
8.885292296315469
 31
0.0
  0
LINE
  5
20E
330
2
100
AcDbEntity
  8
GAIKEI
  6
Continuous
 62
     1
100
AcDbLine
 10
32.16785831797142
 20
9.635292296315469
 30
0.0
 11
31.94786321797142
 21
9.635292296315469
 31
0.0
  0
LINE
  5
20F
330
2
100
AcDbEntity
  8
GAIKEI
  6
Continuous
 62
     1
100
AcDbLine
 10
31.66785831797142
 20
8.135292296315469
 30
0.0
 11
31.44786321797142
 21
8.135292296315469
 31
0.0
  0
LINE
  5
210
330
2
100
AcDbEntity
  8
GAIKEI
  6
Continuous
 62
     1
100
AcDbLine
 10
31.66785831797142
 20
8.885292296315469
 30
0.0
 11
31.44786321797142
 21
8.885292296315469
 31
0.0
  0
LINE
  5
211
330
2
100
AcDbEntity
  8
GAIKEI
  6
Continuous
 62
     1
100
AcDbLine
 10
31.66785831797142
 20
9.635292296315469
 30
0.0
 11
31.44786321797142
 21
9.635292296315469
 31
0.0
  0
LINE
  5
212
330
2
100
AcDbEntity
  8
GAIKEI
  6
Continuous
 62
     1
100
AcDbLine
 10
35.66785831797143
 20
7.635292296315469
 30
0.0
 11
35.44785861797129
 21
7.635292296315469
 31
0.0
  0
LINE
  5
213
330
2
100
AcDbEntity
  8
GAIKEI
  6
Continuous
 62
     1
100
AcDbLine
 10
35.66785831797143
 20
8.385292296315469
 30
0.0
 11
35.44785861797129
 21
8.385292296315469
 31
0.0
  0
LINE
  5
214
330
2
100
AcDbEntity
  8
GAIKEI
  6
Continuous
 62
     1
100
AcDbLine
 10
35.66785831797143
 20
9.135292296315469
 30
0.0
 11
35.44785861797129
 21
9.135292296315469
 31
0.0
  0
LINE
  5
215
330
2
100
AcDbEntity
  8
GAIKEI
  6
Continuous
 62
     1
100
AcDbLine
 10
35.16785831797142
 20
7.635292296315469
 30
0.0
 11
34.94785861797129
 21
7.635292296315469
 31
0.0
  0
LINE
  5
216
330
2
100
AcDbEntity
  8
GAIKEI
  6
Continuous
 62
     1
100
AcDbLine
 10
35.16785831797142
 20
8.385292296315469
 30
0.0
 11
34.94785861797129
 21
8.385292296315469
 31
0.0
  0
LINE
  5
217
330
2
100
AcDbEntity
  8
GAIKEI
  6
Continuous
 62
     1
100
AcDbLine
 10
35.16785831797142
 20
9.135292296315469
 30
0.0
 11
34.94785861797129
 21
9.135292296315469
 31
0.0
  0
LINE
  5
218
330
2
100
AcDbEntity
  8
GAIKEI
  6
Continuous
 62
     1
100
AcDbLine
 10
34.66785831797142
 20
7.635292296315469
 30
0.0
 11
34.44785861797129
 21
7.635292296315469
 31
0.0
  0
LINE
  5
219
330
2
100
AcDbEntity
  8
GAIKEI
  6
Continuous
 62
     1
100
AcDbLine
 10
34.66785831797142
 20
8.385292296315469
 30
0.0
 11
34.44785861797129
 21
8.385292296315469
 31
0.0
  0
LINE
  5
21A
330
2
100
AcDbEntity
  8
GAIKEI
  6
Continuous
 62
     1
100
AcDbLine
 10
34.66785831797142
 20
9.135292296315469
 30
0.0
 11
34.44785861797129
 21
9.135292296315469
 31
0.0
  0
LINE
  5
21B
330
2
100
AcDbEntity
  8
GAIKEI
  6
Continuous
 62
     1
100
AcDbLine
 10
34.16785831797142
 20
7.635292296315469
 30
0.0
 11
33.94785861797129
 21
7.635292296315469
 31
0.0
  0
LINE
  5
21C
330
2
100
AcDbEntity
  8
GAIKEI
  6
Continuous
 62
     1
100
AcDbLine
 10
34.16785831797142
 20
8.385292296315469
 30
0.0
 11
33.94785861797129
 21
8.385292296315469
 31
0.0
  0
LINE
  5
21D
330
2
100
AcDbEntity
  8
GAIKEI
  6
Continuous
 62
     1
100
AcDbLine
 10
34.16785831797142
 20
9.135292296315469
 30
0.0
 11
33.94785861797129
 21
9.135292296315469
 31
0.0
  0
LINE
  5
21E
330
2
100
AcDbEntity
  8
GAIKEI
  6
Continuous
 62
     1
100
AcDbLine
 10
33.66785831797142
 20
7.635292296315469
 30
0.0
 11
33.44786321797142
 21
7.635292296315469
 31
0.0
  0
LINE
  5
21F
330
2
100
AcDbEntity
  8
GAIKEI
  6
Continuous
 62
     1
100
AcDbLine
 10
33.66785831797142
 20
8.385292296315469
 30
0.0
 11
33.44786321797142
 21
8.385292296315469
 31
0.0
  0
LINE
  5
220
330
2
100
AcDbEntity
  8
GAIKEI
  6
Continuous
 62
     1
100
AcDbLine
 10
33.66785831797142
 20
9.135292296315469
 30
0.0
 11
33.44786321797142
 21
9.135292296315469
 31
0.0
  0
LINE
  5
221
330
2
100
AcDbEntity
  8
GAIKEI
  6
Continuous
 62
     1
100
AcDbLine
 10
33.16785831797143
 20
7.635292296315469
 30
0.0
 11
32.94786321797142
 21
7.635292296315469
 31
0.0
  0
LINE
  5
222
330
2
100
AcDbEntity
  8
GAIKEI
  6
Continuous
 62
     1
100
AcDbLine
 10
33.16785831797143
 20
8.385292296315469
 30
0.0
 11
32.94786321797142
 21
8.385292296315469
 31
0.0
  0
LINE
  5
223
330
2
100
AcDbEntity
  8
GAIKEI
  6
Continuous
 62
     1
100
AcDbLine
 10
33.16785831797143
 20
9.135292296315469
 30
0.0
 11
32.94786321797142
 21
9.135292296315469
 31
0.0
  0
LINE
  5
224
330
2
100
AcDbEntity
  8
GAIKEI
  6
Continuous
 62
     1
100
AcDbLine
 10
32.66785831797142
 20
7.635292296315469
 30
0.0
 11
32.44786321797142
 21
7.635292296315469
 31
0.0
  0
LINE
  5
225
330
2
100
AcDbEntity
  8
GAIKEI
  6
Continuous
 62
     1
100
AcDbLine
 10
32.66785831797142
 20
8.385292296315469
 30
0.0
 11
32.44786321797142
 21
8.385292296315469
 31
0.0
  0
LINE
  5
226
330
2
100
AcDbEntity
  8
GAIKEI
  6
Continuous
 62
     1
100
AcDbLine
 10
32.66785831797142
 20
9.135292296315469
 30
0.0
 11
32.44786321797142
 21
9.135292296315469
 31
0.0
  0
LINE
  5
227
330
2
100
AcDbEntity
  8
GAIKEI
  6
Continuous
 62
     1
100
AcDbLine
 10
32.16785831797142
 20
7.635292296315469
 30
0.0
 11
31.94786321797142
 21
7.635292296315469
 31
0.0
  0
LINE
  5
228
330
2
100
AcDbEntity
  8
GAIKEI
  6
Continuous
 62
     1
100
AcDbLine
 10
32.16785831797142
 20
8.385292296315469
 30
0.0
 11
31.94786321797142
 21
8.385292296315469
 31
0.0
  0
LINE
  5
229
330
2
100
AcDbEntity
  8
GAIKEI
  6
Continuous
 62
     1
100
AcDbLine
 10
32.16785831797142
 20
9.135292296315469
 30
0.0
 11
31.94786321797142
 21
9.135292296315469
 31
0.0
  0
LINE
  5
22A
330
2
100
AcDbEntity
  8
GAIKEI
  6
Continuous
 62
     1
100
AcDbLine
 10
31.66785831797142
 20
7.635292296315469
 30
0.0
 11
31.44786321797142
 21
7.635292296315469
 31
0.0
  0
LINE
  5
22B
330
2
100
AcDbEntity
  8
GAIKEI
  6
Continuous
 62
     1
100
AcDbLine
 10
31.66785831797142
 20
8.385292296315469
 30
0.0
 11
31.44786321797142
 21
8.385292296315469
 31
0.0
  0
LINE
  5
22C
330
2
100
AcDbEntity
  8
GAIKEI
  6
Continuous
 62
     1
100
AcDbLine
 10
31.66785831797142
 20
9.135292296315469
 30
0.0
 11
31.44786321797142
 21
9.135292296315469
 31
0.0
  0
LINE
  5
22D
330
2
100
AcDbEntity
  8
GAIKEI
  6
Continuous
 62
     1
100
AcDbLine
 10
35.66785831797143
 20
7.635292296315469
 30
0.0
 11
35.66785831797143
 21
8.135292296315469
 31
0.0
  0
LINE
  5
22E
330
2
100
AcDbEntity
  8
GAIKEI
  6
Continuous
 62
     1
100
AcDbLine
 10
35.66785831797143
 20
8.385292296315469
 30
0.0
 11
35.66785831797143
 21
8.885292296315469
 31
0.0
  0
LINE
  5
22F
330
2
100
AcDbEntity
  8
GAIKEI
  6
Continuous
 62
     1
100
AcDbLine
 10
35.66785831797143
 20
9.135292296315469
 30
0.0
 11
35.66785831797143
 21
9.635292296315469
 31
0.0
  0
LINE
  5
230
330
2
100
AcDbEntity
  8
GAIKEI
  6
Continuous
 62
     1
100
AcDbLine
 10
35.16785831797142
 20
7.635292296315469
 30
0.0
 11
35.16785831797142
 21
8.135292296315469
 31
0.0
  0
LINE
  5
231
330
2
100
AcDbEntity
  8
GAIKEI
  6
Continuous
 62
     1
100
AcDbLine
 10
35.16785831797142
 20
8.385292296315469
 30
0.0
 11
35.16785831797142
 21
8.885292296315469
 31
0.0
  0
LINE
  5
232
330
2
100
AcDbEntity
  8
GAIKEI
  6
Continuous
 62
     1
100
AcDbLine
 10
35.16785831797142
 20
9.135292296315469
 30
0.0
 11
35.16785831797142
 21
9.635292296315469
 31
0.0
  0
LINE
  5
233
330
2
100
AcDbEntity
  8
GAIKEI
  6
Continuous
 62
     1
100
AcDbLine
 10
34.66785831797142
 20
7.635292296315469
 30
0.0
 11
34.66785831797142
 21
8.135292296315469
 31
0.0
  0
LINE
  5
234
330
2
100
AcDbEntity
  8
GAIKEI
  6
Continuous
 62
     1
100
AcDbLine
 10
34.66785831797142
 20
8.385292296315469
 30
0.0
 11
34.66785831797142
 21
8.885292296315469
 31
0.0
  0
LINE
  5
235
330
2
100
AcDbEntity
  8
GAIKEI
  6
Continuous
 62
     1
100
AcDbLine
 10
34.66785831797142
 20
9.135292296315469
 30
0.0
 11
34.66785831797142
 21
9.635292296315469
 31
0.0
  0
LINE
  5
236
330
2
100
AcDbEntity
  8
GAIKEI
  6
Continuous
 62
     1
100
AcDbLine
 10
34.16785831797142
 20
7.635292296315469
 30
0.0
 11
34.16785831797142
 21
8.135292296315469
 31
0.0
  0
LINE
  5
237
330
2
100
AcDbEntity
  8
GAIKEI
  6
Continuous
 62
     1
100
AcDbLine
 10
34.16785831797142
 20
8.385292296315469
 30
0.0
 11
34.16785831797142
 21
8.885292296315469
 31
0.0
  0
LINE
  5
238
330
2
100
AcDbEntity
  8
GAIKEI
  6
Continuous
 62
     1
100
AcDbLine
 10
34.16785831797142
 20
9.135292296315469
 30
0.0
 11
34.16785831797142
 21
9.635292296315469
 31
0.0
  0
LINE
  5
239
330
2
100
AcDbEntity
  8
GAIKEI
  6
Continuous
 62
     1
100
AcDbLine
 10
33.66785831797142
 20
7.635292296315469
 30
0.0
 11
33.66785831797142
 21
8.135292296315469
 31
0.0
  0
LINE
  5
23A
330
2
100
AcDbEntity
  8
GAIKEI
  6
Continuous
 62
     1
100
AcDbLine
 10
33.66785831797142
 20
8.385292296315469
 30
0.0
 11
33.66785831797142
 21
8.885292296315469
 31
0.0
  0
LINE
  5
23B
330
2
100
AcDbEntity
  8
GAIKEI
  6
Continuous
 62
     1
100
AcDbLine
 10
33.66785831797142
 20
9.135292296315469
 30
0.0
 11
33.66785831797142
 21
9.635292296315469
 31
0.0
  0
LINE
  5
23C
330
2
100
AcDbEntity
  8
GAIKEI
  6
Continuous
 62
     1
100
AcDbLine
 10
33.16785831797143
 20
7.635292296315469
 30
0.0
 11
33.16785831797143
 21
8.135292296315469
 31
0.0
  0
LINE
  5
23D
330
2
100
AcDbEntity
  8
GAIKEI
  6
Continuous
 62
     1
100
AcDbLine
 10
33.16785831797143
 20
8.385292296315469
 30
0.0
 11
33.16785831797143
 21
8.885292296315469
 31
0.0
  0
LINE
  5
23E
330
2
100
AcDbEntity
  8
GAIKEI
  6
Continuous
 62
     1
100
AcDbLine
 10
33.16785831797143
 20
9.135292296315469
 30
0.0
 11
33.16785831797143
 21
9.635292296315469
 31
0.0
  0
LINE
  5
23F
330
2
100
AcDbEntity
  8
GAIKEI
  6
Continuous
 62
     1
100
AcDbLine
 10
32.66785831797142
 20
7.635292296315469
 30
0.0
 11
32.66785831797142
 21
8.135292296315469
 31
0.0
  0
LINE
  5
240
330
2
100
AcDbEntity
  8
GAIKEI
  6
Continuous
 62
     1
100
AcDbLine
 10
32.66785831797142
 20
8.385292296315469
 30
0.0
 11
32.66785831797142
 21
8.885292296315469
 31
0.0
  0
LINE
  5
241
330
2
100
AcDbEntity
  8
GAIKEI
  6
Continuous
 62
     1
100
AcDbLine
 10
32.66785831797142
 20
9.135292296315469
 30
0.0
 11
32.66785831797142
 21
9.635292296315469
 31
0.0
  0
LINE
  5
242
330
2
100
AcDbEntity
  8
GAIKEI
  6
Continuous
 62
     1
100
AcDbLine
 10
32.16785831797142
 20
7.635292296315469
 30
0.0
 11
32.16785831797142
 21
8.135292296315469
 31
0.0
  0
LINE
  5
243
330
2
100
AcDbEntity
  8
GAIKEI
  6
Continuous
 62
     1
100
AcDbLine
 10
32.16785831797142
 20
8.385292296315469
 30
0.0
 11
32.16785831797142
 21
8.885292296315469
 31
0.0
  0
LINE
  5
244
330
2
100
AcDbEntity
  8
GAIKEI
  6
Continuous
 62
     1
100
AcDbLine
 10
32.16785831797142
 20
9.135292296315469
 30
0.0
 11
32.16785831797142
 21
9.635292296315469
 31
0.0
  0
LINE
  5
245
330
2
100
AcDbEntity
  8
GAIKEI
  6
Continuous
 62
     1
100
AcDbLine
 10
31.66785831797142
 20
7.635292296315469
 30
0.0
 11
31.66785831797142
 21
8.135292296315469
 31
0.0
  0
LINE
  5
246
330
2
100
AcDbEntity
  8
GAIKEI
  6
Continuous
 62
     1
100
AcDbLine
 10
31.66785831797142
 20
8.385292296315469
 30
0.0
 11
31.66785831797142
 21
8.885292296315469
 31
0.0
  0
LINE
  5
247
330
2
100
AcDbEntity
  8
GAIKEI
  6
Continuous
 62
     1
100
AcDbLine
 10
31.66785831797142
 20
9.135292296315469
 30
0.0
 11
31.66785831797142
 21
9.635292296315469
 31
0.0
  0
LINE
  5
248
330
2
100
AcDbEntity
  8
GAIKEI
  6
Continuous
 62
     1
100
AcDbLine
 10
35.44785861797129
 20
10.13529229631547
 30
0.0
 11
35.44785861797129
 21
10.63529229631547
 31
0.0
  0
LINE
  5
249
330
2
100
AcDbEntity
  8
GAIKEI
  6
Continuous
 62
     1
100
AcDbLine
 10
35.44785861797129
 20
10.88529229631547
 30
0.0
 11
35.44785861797129
 21
11.38529229631547
 31
0.0
  0
LINE
  5
24A
330
2
100
AcDbEntity
  8
GAIKEI
  6
Continuous
 62
     1
100
AcDbLine
 10
35.44785861797129
 20
11.63529229631547
 30
0.0
 11
35.44785861797129
 21
12.13529229631547
 31
0.0
  0
LINE
  5
24B
330
2
100
AcDbEntity
  8
GAIKEI
  6
Continuous
 62
     1
100
AcDbLine
 10
34.94785861797129
 20
10.13529229631547
 30
0.0
 11
34.94785861797129
 21
10.63529229631547
 31
0.0
  0
LINE
  5
24C
330
2
100
AcDbEntity
  8
GAIKEI
  6
Continuous
 62
     1
100
AcDbLine
 10
34.94785861797129
 20
10.88529229631547
 30
0.0
 11
34.94785861797129
 21
11.38529229631547
 31
0.0
  0
LINE
  5
24D
330
2
100
AcDbEntity
  8
GAIKEI
  6
Continuous
 62
     1
100
AcDbLine
 10
34.94785861797129
 20
11.63529229631547
 30
0.0
 11
34.94785861797129
 21
12.13529229631547
 31
0.0
  0
LINE
  5
24E
330
2
100
AcDbEntity
  8
GAIKEI
  6
Continuous
 62
     1
100
AcDbLine
 10
34.44785861797129
 20
10.13529229631547
 30
0.0
 11
34.44785861797129
 21
10.63529229631547
 31
0.0
  0
LINE
  5
24F
330
2
100
AcDbEntity
  8
GAIKEI
  6
Continuous
 62
     1
100
AcDbLine
 10
34.44785861797129
 20
10.88529229631547
 30
0.0
 11
34.44785861797129
 21
11.38529229631547
 31
0.0
  0
LINE
  5
250
330
2
100
AcDbEntity
  8
GAIKEI
  6
Continuous
 62
     1
100
AcDbLine
 10
34.44785861797129
 20
11.63529229631547
 30
0.0
 11
34.44785861797129
 21
12.13529229631547
 31
0.0
  0
LINE
  5
251
330
2
100
AcDbEntity
  8
GAIKEI
  6
Continuous
 62
     1
100
AcDbLine
 10
33.94785861797129
 20
10.13529229631547
 30
0.0
 11
33.94785861797129
 21
10.63529229631547
 31
0.0
  0
LINE
  5
252
330
2
100
AcDbEntity
  8
GAIKEI
  6
Continuous
 62
     1
100
AcDbLine
 10
33.94785861797129
 20
10.88529229631547
 30
0.0
 11
33.94785861797129
 21
11.38529229631547
 31
0.0
  0
LINE
  5
253
330
2
100
AcDbEntity
  8
GAIKEI
  6
Continuous
 62
     1
100
AcDbLine
 10
33.94785861797129
 20
11.63529229631547
 30
0.0
 11
33.94785861797129
 21
12.13529229631547
 31
0.0
  0
LINE
  5
254
330
2
100
AcDbEntity
  8
GAIKEI
  6
Continuous
 62
     1
100
AcDbLine
 10
33.44786321797142
 20
10.13529229631547
 30
0.0
 11
33.44786321797142
 21
10.63529229631547
 31
0.0
  0
LINE
  5
255
330
2
100
AcDbEntity
  8
GAIKEI
  6
Continuous
 62
     1
100
AcDbLine
 10
33.44786321797142
 20
10.88529229631547
 30
0.0
 11
33.44786321797142
 21
11.38529229631547
 31
0.0
  0
LINE
  5
256
330
2
100
AcDbEntity
  8
GAIKEI
  6
Continuous
 62
     1
100
AcDbLine
 10
33.44786321797142
 20
11.63529229631547
 30
0.0
 11
33.44786321797142
 21
12.13529229631547
 31
0.0
  0
LINE
  5
257
330
2
100
AcDbEntity
  8
GAIKEI
  6
Continuous
 62
     1
100
AcDbLine
 10
32.94786321797142
 20
10.13529229631547
 30
0.0
 11
32.94786321797142
 21
10.63529229631547
 31
0.0
  0
LINE
  5
258
330
2
100
AcDbEntity
  8
GAIKEI
  6
Continuous
 62
     1
100
AcDbLine
 10
32.94786321797142
 20
10.88529229631547
 30
0.0
 11
32.94786321797142
 21
11.38529229631547
 31
0.0
  0
LINE
  5
259
330
2
100
AcDbEntity
  8
GAIKEI
  6
Continuous
 62
     1
100
AcDbLine
 10
32.94786321797142
 20
11.63529229631547
 30
0.0
 11
32.94786321797142
 21
12.13529229631547
 31
0.0
  0
LINE
  5
25A
330
2
100
AcDbEntity
  8
GAIKEI
  6
Continuous
 62
     1
100
AcDbLine
 10
32.44786321797142
 20
10.13529229631547
 30
0.0
 11
32.44786321797142
 21
10.63529229631547
 31
0.0
  0
LINE
  5
25B
330
2
100
AcDbEntity
  8
GAIKEI
  6
Continuous
 62
     1
100
AcDbLine
 10
32.44786321797142
 20
10.88529229631547
 30
0.0
 11
32.44786321797142
 21
11.38529229631547
 31
0.0
  0
LINE
  5
25C
330
2
100
AcDbEntity
  8
GAIKEI
  6
Continuous
 62
     1
100
AcDbLine
 10
32.44786321797142
 20
11.63529229631547
 30
0.0
 11
32.44786321797142
 21
12.13529229631547
 31
0.0
  0
LINE
  5
25D
330
2
100
AcDbEntity
  8
GAIKEI
  6
Continuous
 62
     1
100
AcDbLine
 10
31.94786321797142
 20
10.13529229631547
 30
0.0
 11
31.94786321797142
 21
10.63529229631547
 31
0.0
  0
LINE
  5
25E
330
2
100
AcDbEntity
  8
GAIKEI
  6
Continuous
 62
     1
100
AcDbLine
 10
31.94786321797142
 20
10.88529229631547
 30
0.0
 11
31.94786321797142
 21
11.38529229631547
 31
0.0
  0
LINE
  5
25F
330
2
100
AcDbEntity
  8
GAIKEI
  6
Continuous
 62
     1
100
AcDbLine
 10
31.94786321797142
 20
11.63529229631547
 30
0.0
 11
31.94786321797142
 21
12.13529229631547
 31
0.0
  0
LINE
  5
260
330
2
100
AcDbEntity
  8
GAIKEI
  6
Continuous
 62
     1
100
AcDbLine
 10
31.44786321797142
 20
10.13529229631547
 30
0.0
 11
31.44786321797142
 21
10.63529229631547
 31
0.0
  0
LINE
  5
261
330
2
100
AcDbEntity
  8
GAIKEI
  6
Continuous
 62
     1
100
AcDbLine
 10
31.44786321797142
 20
10.88529229631547
 30
0.0
 11
31.44786321797142
 21
11.38529229631547
 31
0.0
  0
LINE
  5
262
330
2
100
AcDbEntity
  8
GAIKEI
  6
Continuous
 62
     1
100
AcDbLine
 10
31.44786321797142
 20
11.63529229631547
 30
0.0
 11
31.44786321797142
 21
12.13529229631547
 31
0.0
  0
LINE
  5
263
330
2
100
AcDbEntity
  8
GAIKEI
  6
Continuous
 62
     1
100
AcDbLine
 10
35.66785831797143
 20
10.63529229631547
 30
0.0
 11
35.44785861797129
 21
10.63529229631547
 31
0.0
  0
LINE
  5
264
330
2
100
AcDbEntity
  8
GAIKEI
  6
Continuous
 62
     1
100
AcDbLine
 10
35.66785831797143
 20
11.38529229631547
 30
0.0
 11
35.44785861797129
 21
11.38529229631547
 31
0.0
  0
LINE
  5
265
330
2
100
AcDbEntity
  8
GAIKEI
  6
Continuous
 62
     1
100
AcDbLine
 10
35.66785831797143
 20
12.13529229631547
 30
0.0
 11
35.44785861797129
 21
12.13529229631547
 31
0.0
  0
LINE
  5
266
330
2
100
AcDbEntity
  8
GAIKEI
  6
Continuous
 62
     1
100
AcDbLine
 10
35.16785831797142
 20
10.63529229631547
 30
0.0
 11
34.94785861797129
 21
10.63529229631547
 31
0.0
  0
LINE
  5
267
330
2
100
AcDbEntity
  8
GAIKEI
  6
Continuous
 62
     1
100
AcDbLine
 10
35.16785831797142
 20
11.38529229631547
 30
0.0
 11
34.94785861797129
 21
11.38529229631547
 31
0.0
  0
LINE
  5
268
330
2
100
AcDbEntity
  8
GAIKEI
  6
Continuous
 62
     1
100
AcDbLine
 10
35.16785831797142
 20
12.13529229631547
 30
0.0
 11
34.94785861797129
 21
12.13529229631547
 31
0.0
  0
LINE
  5
269
330
2
100
AcDbEntity
  8
GAIKEI
  6
Continuous
 62
     1
100
AcDbLine
 10
34.66785831797142
 20
10.63529229631547
 30
0.0
 11
34.44785861797129
 21
10.63529229631547
 31
0.0
  0
LINE
  5
26A
330
2
100
AcDbEntity
  8
GAIKEI
  6
Continuous
 62
     1
100
AcDbLine
 10
34.66785831797142
 20
11.38529229631547
 30
0.0
 11
34.44785861797129
 21
11.38529229631547
 31
0.0
  0
LINE
  5
26B
330
2
100
AcDbEntity
  8
GAIKEI
  6
Continuous
 62
     1
100
AcDbLine
 10
34.66785831797142
 20
12.13529229631547
 30
0.0
 11
34.44785861797129
 21
12.13529229631547
 31
0.0
  0
LINE
  5
26C
330
2
100
AcDbEntity
  8
GAIKEI
  6
Continuous
 62
     1
100
AcDbLine
 10
34.16785831797142
 20
10.63529229631547
 30
0.0
 11
33.94785861797129
 21
10.63529229631547
 31
0.0
  0
LINE
  5
26D
330
2
100
AcDbEntity
  8
GAIKEI
  6
Continuous
 62
     1
100
AcDbLine
 10
34.16785831797142
 20
11.38529229631547
 30
0.0
 11
33.94785861797129
 21
11.38529229631547
 31
0.0
  0
LINE
  5
26E
330
2
100
AcDbEntity
  8
GAIKEI
  6
Continuous
 62
     1
100
AcDbLine
 10
34.16785831797142
 20
12.13529229631547
 30
0.0
 11
33.94785861797129
 21
12.13529229631547
 31
0.0
  0
LINE
  5
26F
330
2
100
AcDbEntity
  8
GAIKEI
  6
Continuous
 62
     1
100
AcDbLine
 10
33.66785831797142
 20
10.63529229631547
 30
0.0
 11
33.44786321797142
 21
10.63529229631547
 31
0.0
  0
LINE
  5
270
330
2
100
AcDbEntity
  8
GAIKEI
  6
Continuous
 62
     1
100
AcDbLine
 10
33.66785831797142
 20
11.38529229631547
 30
0.0
 11
33.44786321797142
 21
11.38529229631547
 31
0.0
  0
LINE
  5
271
330
2
100
AcDbEntity
  8
GAIKEI
  6
Continuous
 62
     1
100
AcDbLine
 10
33.66785831797142
 20
12.13529229631547
 30
0.0
 11
33.44786321797142
 21
12.13529229631547
 31
0.0
  0
LINE
  5
272
330
2
100
AcDbEntity
  8
GAIKEI
  6
Continuous
 62
     1
100
AcDbLine
 10
33.16785831797143
 20
10.63529229631547
 30
0.0
 11
32.94786321797142
 21
10.63529229631547
 31
0.0
  0
LINE
  5
273
330
2
100
AcDbEntity
  8
GAIKEI
  6
Continuous
 62
     1
100
AcDbLine
 10
33.16785831797143
 20
11.38529229631547
 30
0.0
 11
32.94786321797142
 21
11.38529229631547
 31
0.0
  0
LINE
  5
274
330
2
100
AcDbEntity
  8
GAIKEI
  6
Continuous
 62
     1
100
AcDbLine
 10
33.16785831797143
 20
12.13529229631547
 30
0.0
 11
32.94786321797142
 21
12.13529229631547
 31
0.0
  0
LINE
  5
275
330
2
100
AcDbEntity
  8
GAIKEI
  6
Continuous
 62
     1
100
AcDbLine
 10
32.66785831797142
 20
10.63529229631547
 30
0.0
 11
32.44786321797142
 21
10.63529229631547
 31
0.0
  0
LINE
  5
276
330
2
100
AcDbEntity
  8
GAIKEI
  6
Continuous
 62
     1
100
AcDbLine
 10
32.66785831797142
 20
11.38529229631547
 30
0.0
 11
32.44786321797142
 21
11.38529229631547
 31
0.0
  0
LINE
  5
277
330
2
100
AcDbEntity
  8
GAIKEI
  6
Continuous
 62
     1
100
AcDbLine
 10
32.66785831797142
 20
12.13529229631547
 30
0.0
 11
32.44786321797142
 21
12.13529229631547
 31
0.0
  0
LINE
  5
278
330
2
100
AcDbEntity
  8
GAIKEI
  6
Continuous
 62
     1
100
AcDbLine
 10
32.16785831797142
 20
10.63529229631547
 30
0.0
 11
31.94786321797142
 21
10.63529229631547
 31
0.0
  0
LINE
  5
279
330
2
100
AcDbEntity
  8
GAIKEI
  6
Continuous
 62
     1
100
AcDbLine
 10
32.16785831797142
 20
11.38529229631547
 30
0.0
 11
31.94786321797142
 21
11.38529229631547
 31
0.0
  0
LINE
  5
27A
330
2
100
AcDbEntity
  8
GAIKEI
  6
Continuous
 62
     1
100
AcDbLine
 10
32.16785831797142
 20
12.13529229631547
 30
0.0
 11
31.94786321797142
 21
12.13529229631547
 31
0.0
  0
LINE
  5
27B
330
2
100
AcDbEntity
  8
GAIKEI
  6
Continuous
 62
     1
100
AcDbLine
 10
31.66785831797142
 20
10.63529229631547
 30
0.0
 11
31.44786321797142
 21
10.63529229631547
 31
0.0
  0
LINE
  5
27C
330
2
100
AcDbEntity
  8
GAIKEI
  6
Continuous
 62
     1
100
AcDbLine
 10
31.66785831797142
 20
11.38529229631547
 30
0.0
 11
31.44786321797142
 21
11.38529229631547
 31
0.0
  0
LINE
  5
27D
330
2
100
AcDbEntity
  8
GAIKEI
  6
Continuous
 62
     1
100
AcDbLine
 10
31.66785831797142
 20
12.13529229631547
 30
0.0
 11
31.44786321797142
 21
12.13529229631547
 31
0.0
  0
LINE
  5
27E
330
2
100
AcDbEntity
  8
GAIKEI
  6
Continuous
 62
     1
100
AcDbLine
 10
35.66785831797143
 20
10.13529229631547
 30
0.0
 11
35.44785861797129
 21
10.13529229631547
 31
0.0
  0
LINE
  5
27F
330
2
100
AcDbEntity
  8
GAIKEI
  6
Continuous
 62
     1
100
AcDbLine
 10
35.66785831797143
 20
10.88529229631547
 30
0.0
 11
35.44785861797129
 21
10.88529229631547
 31
0.0
  0
LINE
  5
280
330
2
100
AcDbEntity
  8
GAIKEI
  6
Continuous
 62
     1
100
AcDbLine
 10
35.66785831797143
 20
11.63529229631547
 30
0.0
 11
35.44785861797129
 21
11.63529229631547
 31
0.0
  0
LINE
  5
281
330
2
100
AcDbEntity
  8
GAIKEI
  6
Continuous
 62
     1
100
AcDbLine
 10
35.16785831797142
 20
10.13529229631547
 30
0.0
 11
34.94785861797129
 21
10.13529229631547
 31
0.0
  0
LINE
  5
282
330
2
100
AcDbEntity
  8
GAIKEI
  6
Continuous
 62
     1
100
AcDbLine
 10
35.16785831797142
 20
10.88529229631547
 30
0.0
 11
34.94785861797129
 21
10.88529229631547
 31
0.0
  0
LINE
  5
283
330
2
100
AcDbEntity
  8
GAIKEI
  6
Continuous
 62
     1
100
AcDbLine
 10
35.16785831797142
 20
11.63529229631547
 30
0.0
 11
34.94785861797129
 21
11.63529229631547
 31
0.0
  0
LINE
  5
284
330
2
100
AcDbEntity
  8
GAIKEI
  6
Continuous
 62
     1
100
AcDbLine
 10
34.66785831797142
 20
10.13529229631547
 30
0.0
 11
34.44785861797129
 21
10.13529229631547
 31
0.0
  0
LINE
  5
285
330
2
100
AcDbEntity
  8
GAIKEI
  6
Continuous
 62
     1
100
AcDbLine
 10
34.66785831797142
 20
10.88529229631547
 30
0.0
 11
34.44785861797129
 21
10.88529229631547
 31
0.0
  0
LINE
  5
286
330
2
100
AcDbEntity
  8
GAIKEI
  6
Continuous
 62
     1
100
AcDbLine
 10
34.66785831797142
 20
11.63529229631547
 30
0.0
 11
34.44785861797129
 21
11.63529229631547
 31
0.0
  0
LINE
  5
287
330
2
100
AcDbEntity
  8
GAIKEI
  6
Continuous
 62
     1
100
AcDbLine
 10
34.16785831797142
 20
10.13529229631547
 30
0.0
 11
33.94785861797129
 21
10.13529229631547
 31
0.0
  0
LINE
  5
288
330
2
100
AcDbEntity
  8
GAIKEI
  6
Continuous
 62
     1
100
AcDbLine
 10
34.16785831797142
 20
10.88529229631547
 30
0.0
 11
33.94785861797129
 21
10.88529229631547
 31
0.0
  0
LINE
  5
289
330
2
100
AcDbEntity
  8
GAIKEI
  6
Continuous
 62
     1
100
AcDbLine
 10
34.16785831797142
 20
11.63529229631547
 30
0.0
 11
33.94785861797129
 21
11.63529229631547
 31
0.0
  0
LINE
  5
28A
330
2
100
AcDbEntity
  8
GAIKEI
  6
Continuous
 62
     1
100
AcDbLine
 10
33.66785831797142
 20
10.13529229631547
 30
0.0
 11
33.44786321797142
 21
10.13529229631547
 31
0.0
  0
LINE
  5
28B
330
2
100
AcDbEntity
  8
GAIKEI
  6
Continuous
 62
     1
100
AcDbLine
 10
33.66785831797142
 20
10.88529229631547
 30
0.0
 11
33.44786321797142
 21
10.88529229631547
 31
0.0
  0
LINE
  5
28C
330
2
100
AcDbEntity
  8
GAIKEI
  6
Continuous
 62
     1
100
AcDbLine
 10
33.66785831797142
 20
11.63529229631547
 30
0.0
 11
33.44786321797142
 21
11.63529229631547
 31
0.0
  0
LINE
  5
28D
330
2
100
AcDbEntity
  8
GAIKEI
  6
Continuous
 62
     1
100
AcDbLine
 10
33.16785831797143
 20
10.13529229631547
 30
0.0
 11
32.94786321797142
 21
10.13529229631547
 31
0.0
  0
LINE
  5
28E
330
2
100
AcDbEntity
  8
GAIKEI
  6
Continuous
 62
     1
100
AcDbLine
 10
33.16785831797143
 20
10.88529229631547
 30
0.0
 11
32.94786321797142
 21
10.88529229631547
 31
0.0
  0
LINE
  5
28F
330
2
100
AcDbEntity
  8
GAIKEI
  6
Continuous
 62
     1
100
AcDbLine
 10
33.16785831797143
 20
11.63529229631547
 30
0.0
 11
32.94786321797142
 21
11.63529229631547
 31
0.0
  0
LINE
  5
290
330
2
100
AcDbEntity
  8
GAIKEI
  6
Continuous
 62
     1
100
AcDbLine
 10
32.66785831797142
 20
10.13529229631547
 30
0.0
 11
32.44786321797142
 21
10.13529229631547
 31
0.0
  0
LINE
  5
291
330
2
100
AcDbEntity
  8
GAIKEI
  6
Continuous
 62
     1
100
AcDbLine
 10
32.66785831797142
 20
10.88529229631547
 30
0.0
 11
32.44786321797142
 21
10.88529229631547
 31
0.0
  0
LINE
  5
292
330
2
100
AcDbEntity
  8
GAIKEI
  6
Continuous
 62
     1
100
AcDbLine
 10
32.66785831797142
 20
11.63529229631547
 30
0.0
 11
32.44786321797142
 21
11.63529229631547
 31
0.0
  0
LINE
  5
293
330
2
100
AcDbEntity
  8
GAIKEI
  6
Continuous
 62
     1
100
AcDbLine
 10
32.16785831797142
 20
10.13529229631547
 30
0.0
 11
31.94786321797142
 21
10.13529229631547
 31
0.0
  0
LINE
  5
294
330
2
100
AcDbEntity
  8
GAIKEI
  6
Continuous
 62
     1
100
AcDbLine
 10
32.16785831797142
 20
10.88529229631547
 30
0.0
 11
31.94786321797142
 21
10.88529229631547
 31
0.0
  0
LINE
  5
295
330
2
100
AcDbEntity
  8
GAIKEI
  6
Continuous
 62
     1
100
AcDbLine
 10
32.16785831797142
 20
11.63529229631547
 30
0.0
 11
31.94786321797142
 21
11.63529229631547
 31
0.0
  0
LINE
  5
296
330
2
100
AcDbEntity
  8
GAIKEI
  6
Continuous
 62
     1
100
AcDbLine
 10
31.66785831797142
 20
10.13529229631547
 30
0.0
 11
31.44786321797142
 21
10.13529229631547
 31
0.0
  0
LINE
  5
297
330
2
100
AcDbEntity
  8
GAIKEI
  6
Continuous
 62
     1
100
AcDbLine
 10
31.66785831797142
 20
10.88529229631547
 30
0.0
 11
31.44786321797142
 21
10.88529229631547
 31
0.0
  0
LINE
  5
298
330
2
100
AcDbEntity
  8
GAIKEI
  6
Continuous
 62
     1
100
AcDbLine
 10
31.66785831797142
 20
11.63529229631547
 30
0.0
 11
31.44786321797142
 21
11.63529229631547
 31
0.0
  0
LINE
  5
299
330
2
100
AcDbEntity
  8
GAIKEI
  6
Continuous
 62
     1
100
AcDbLine
 10
35.66785831797143
 20
10.13529229631547
 30
0.0
 11
35.66785831797143
 21
10.63529229631547
 31
0.0
  0
LINE
  5
29A
330
2
100
AcDbEntity
  8
GAIKEI
  6
Continuous
 62
     1
100
AcDbLine
 10
35.66785831797143
 20
10.88529229631547
 30
0.0
 11
35.66785831797143
 21
11.38529229631547
 31
0.0
  0
LINE
  5
29B
330
2
100
AcDbEntity
  8
GAIKEI
  6
Continuous
 62
     1
100
AcDbLine
 10
35.66785831797143
 20
11.63529229631547
 30
0.0
 11
35.66785831797143
 21
12.13529229631547
 31
0.0
  0
LINE
  5
29C
330
2
100
AcDbEntity
  8
GAIKEI
  6
Continuous
 62
     1
100
AcDbLine
 10
35.16785831797142
 20
10.13529229631547
 30
0.0
 11
35.16785831797142
 21
10.63529229631547
 31
0.0
  0
LINE
  5
29D
330
2
100
AcDbEntity
  8
GAIKEI
  6
Continuous
 62
     1
100
AcDbLine
 10
35.16785831797142
 20
10.88529229631547
 30
0.0
 11
35.16785831797142
 21
11.38529229631547
 31
0.0
  0
LINE
  5
29E
330
2
100
AcDbEntity
  8
GAIKEI
  6
Continuous
 62
     1
100
AcDbLine
 10
35.16785831797142
 20
11.63529229631547
 30
0.0
 11
35.16785831797142
 21
12.13529229631547
 31
0.0
  0
LINE
  5
29F
330
2
100
AcDbEntity
  8
GAIKEI
  6
Continuous
 62
     1
100
AcDbLine
 10
34.66785831797142
 20
10.13529229631547
 30
0.0
 11
34.66785831797142
 21
10.63529229631547
 31
0.0
  0
LINE
  5
2A0
330
2
100
AcDbEntity
  8
GAIKEI
  6
Continuous
 62
     1
100
AcDbLine
 10
34.66785831797142
 20
10.88529229631547
 30
0.0
 11
34.66785831797142
 21
11.38529229631547
 31
0.0
  0
LINE
  5
2A1
330
2
100
AcDbEntity
  8
GAIKEI
  6
Continuous
 62
     1
100
AcDbLine
 10
34.66785831797142
 20
11.63529229631547
 30
0.0
 11
34.66785831797142
 21
12.13529229631547
 31
0.0
  0
LINE
  5
2A2
330
2
100
AcDbEntity
  8
GAIKEI
  6
Continuous
 62
     1
100
AcDbLine
 10
34.16785831797142
 20
10.13529229631547
 30
0.0
 11
34.16785831797142
 21
10.63529229631547
 31
0.0
  0
LINE
  5
2A3
330
2
100
AcDbEntity
  8
GAIKEI
  6
Continuous
 62
     1
100
AcDbLine
 10
34.16785831797142
 20
10.88529229631547
 30
0.0
 11
34.16785831797142
 21
11.38529229631547
 31
0.0
  0
LINE
  5
2A4
330
2
100
AcDbEntity
  8
GAIKEI
  6
Continuous
 62
     1
100
AcDbLine
 10
34.16785831797142
 20
11.63529229631547
 30
0.0
 11
34.16785831797142
 21
12.13529229631547
 31
0.0
  0
LINE
  5
2A5
330
2
100
AcDbEntity
  8
GAIKEI
  6
Continuous
 62
     1
100
AcDbLine
 10
33.66785831797142
 20
10.13529229631547
 30
0.0
 11
33.66785831797142
 21
10.63529229631547
 31
0.0
  0
LINE
  5
2A6
330
2
100
AcDbEntity
  8
GAIKEI
  6
Continuous
 62
     1
100
AcDbLine
 10
33.66785831797142
 20
10.88529229631547
 30
0.0
 11
33.66785831797142
 21
11.38529229631547
 31
0.0
  0
LINE
  5
2A7
330
2
100
AcDbEntity
  8
GAIKEI
  6
Continuous
 62
     1
100
AcDbLine
 10
33.66785831797142
 20
11.63529229631547
 30
0.0
 11
33.66785831797142
 21
12.13529229631547
 31
0.0
  0
LINE
  5
2A8
330
2
100
AcDbEntity
  8
GAIKEI
  6
Continuous
 62
     1
100
AcDbLine
 10
33.16785831797143
 20
10.13529229631547
 30
0.0
 11
33.16785831797143
 21
10.63529229631547
 31
0.0
  0
LINE
  5
2A9
330
2
100
AcDbEntity
  8
GAIKEI
  6
Continuous
 62
     1
100
AcDbLine
 10
33.16785831797143
 20
10.88529229631547
 30
0.0
 11
33.16785831797143
 21
11.38529229631547
 31
0.0
  0
LINE
  5
2AA
330
2
100
AcDbEntity
  8
GAIKEI
  6
Continuous
 62
     1
100
AcDbLine
 10
33.16785831797143
 20
11.63529229631547
 30
0.0
 11
33.16785831797143
 21
12.13529229631547
 31
0.0
  0
LINE
  5
2AB
330
2
100
AcDbEntity
  8
GAIKEI
  6
Continuous
 62
     1
100
AcDbLine
 10
32.66785831797142
 20
10.13529229631547
 30
0.0
 11
32.66785831797142
 21
10.63529229631547
 31
0.0
  0
LINE
  5
2AC
330
2
100
AcDbEntity
  8
GAIKEI
  6
Continuous
 62
     1
100
AcDbLine
 10
32.66785831797142
 20
10.88529229631547
 30
0.0
 11
32.66785831797142
 21
11.38529229631547
 31
0.0
  0
LINE
  5
2AD
330
2
100
AcDbEntity
  8
GAIKEI
  6
Continuous
 62
     1
100
AcDbLine
 10
32.66785831797142
 20
11.63529229631547
 30
0.0
 11
32.66785831797142
 21
12.13529229631547
 31
0.0
  0
LINE
  5
2AE
330
2
100
AcDbEntity
  8
GAIKEI
  6
Continuous
 62
     1
100
AcDbLine
 10
32.16785831797142
 20
10.13529229631547
 30
0.0
 11
32.16785831797142
 21
10.63529229631547
 31
0.0
  0
LINE
  5
2AF
330
2
100
AcDbEntity
  8
GAIKEI
  6
Continuous
 62
     1
100
AcDbLine
 10
32.16785831797142
 20
10.88529229631547
 30
0.0
 11
32.16785831797142
 21
11.38529229631547
 31
0.0
  0
LINE
  5
2B0
330
2
100
AcDbEntity
  8
GAIKEI
  6
Continuous
 62
     1
100
AcDbLine
 10
32.16785831797142
 20
11.63529229631547
 30
0.0
 11
32.16785831797142
 21
12.13529229631547
 31
0.0
  0
LINE
  5
2B1
330
2
100
AcDbEntity
  8
GAIKEI
  6
Continuous
 62
     1
100
AcDbLine
 10
31.66785831797142
 20
10.13529229631547
 30
0.0
 11
31.66785831797142
 21
10.63529229631547
 31
0.0
  0
LINE
  5
2B2
330
2
100
AcDbEntity
  8
GAIKEI
  6
Continuous
 62
     1
100
AcDbLine
 10
31.66785831797142
 20
10.88529229631547
 30
0.0
 11
31.66785831797142
 21
11.38529229631547
 31
0.0
  0
LINE
  5
2B3
330
2
100
AcDbEntity
  8
GAIKEI
  6
Continuous
 62
     1
100
AcDbLine
 10
31.66785831797142
 20
11.63529229631547
 30
0.0
 11
31.66785831797142
 21
12.13529229631547
 31
0.0
  0
LINE
  5
2B4
330
2
100
AcDbEntity
  8
GAIKEI
  6
Continuous
 62
     1
100
AcDbLine
 10
31.16785831797142
 20
11.63529229631547
 30
0.0
 11
31.16785831797142
 21
12.13529229631547
 31
0.0
  0
LINE
  5
2B5
330
2
100
AcDbEntity
  8
GAIKEI
  6
Continuous
 62
     1
100
AcDbLine
 10
31.16785831797142
 20
10.88529229631547
 30
0.0
 11
31.16785831797142
 21
11.38529229631547
 31
0.0
  0
LINE
  5
2B6
330
2
100
AcDbEntity
  8
GAIKEI
  6
Continuous
 62
     1
100
AcDbLine
 10
31.16785831797142
 20
10.13529229631547
 30
0.0
 11
31.16785831797142
 21
10.63529229631547
 31
0.0
  0
LINE
  5
2B7
330
2
100
AcDbEntity
  8
GAIKEI
  6
Continuous
 62
     1
100
AcDbLine
 10
31.16785831797142
 20
11.63529229631547
 30
0.0
 11
30.94786321797142
 21
11.63529229631547
 31
0.0
  0
LINE
  5
2B8
330
2
100
AcDbEntity
  8
GAIKEI
  6
Continuous
 62
     1
100
AcDbLine
 10
31.16785831797142
 20
10.88529229631547
 30
0.0
 11
30.94786321797142
 21
10.88529229631547
 31
0.0
  0
LINE
  5
2B9
330
2
100
AcDbEntity
  8
GAIKEI
  6
Continuous
 62
     1
100
AcDbLine
 10
31.16785831797142
 20
10.13529229631547
 30
0.0
 11
30.94786321797142
 21
10.13529229631547
 31
0.0
  0
LINE
  5
2BA
330
2
100
AcDbEntity
  8
GAIKEI
  6
Continuous
 62
     1
100
AcDbLine
 10
31.16785831797142
 20
12.13529229631547
 30
0.0
 11
30.94786321797142
 21
12.13529229631547
 31
0.0
  0
LINE
  5
2BB
330
2
100
AcDbEntity
  8
GAIKEI
  6
Continuous
 62
     1
100
AcDbLine
 10
31.16785831797142
 20
11.38529229631547
 30
0.0
 11
30.94786321797142
 21
11.38529229631547
 31
0.0
  0
LINE
  5
2BC
330
2
100
AcDbEntity
  8
GAIKEI
  6
Continuous
 62
     1
100
AcDbLine
 10
31.16785831797142
 20
10.63529229631547
 30
0.0
 11
30.94786321797142
 21
10.63529229631547
 31
0.0
  0
LINE
  5
2BD
330
2
100
AcDbEntity
  8
GAIKEI
  6
Continuous
 62
     1
100
AcDbLine
 10
30.94786321797142
 20
11.63529229631547
 30
0.0
 11
30.94786321797142
 21
12.13529229631547
 31
0.0
  0
LINE
  5
2BE
330
2
100
AcDbEntity
  8
GAIKEI
  6
Continuous
 62
     1
100
AcDbLine
 10
30.94786321797142
 20
10.88529229631547
 30
0.0
 11
30.94786321797142
 21
11.38529229631547
 31
0.0
  0
LINE
  5
2BF
330
2
100
AcDbEntity
  8
GAIKEI
  6
Continuous
 62
     1
100
AcDbLine
 10
30.94786321797142
 20
10.13529229631547
 30
0.0
 11
30.94786321797142
 21
10.63529229631547
 31
0.0
  0
LINE
  5
2C0
330
2
100
AcDbEntity
  8
GAIKEI
  6
Continuous
 62
     1
100
AcDbLine
 10
31.16785831797142
 20
9.135292296315469
 30
0.0
 11
31.16785831797142
 21
9.635292296315469
 31
0.0
  0
LINE
  5
2C1
330
2
100
AcDbEntity
  8
GAIKEI
  6
Continuous
 62
     1
100
AcDbLine
 10
31.16785831797142
 20
8.385292296315469
 30
0.0
 11
31.16785831797142
 21
8.885292296315469
 31
0.0
  0
LINE
  5
2C2
330
2
100
AcDbEntity
  8
GAIKEI
  6
Continuous
 62
     1
100
AcDbLine
 10
31.16785831797142
 20
7.635292296315469
 30
0.0
 11
31.16785831797142
 21
8.135292296315469
 31
0.0
  0
LINE
  5
2C3
330
2
100
AcDbEntity
  8
GAIKEI
  6
Continuous
 62
     1
100
AcDbLine
 10
31.16785831797142
 20
9.135292296315469
 30
0.0
 11
30.94786321797142
 21
9.135292296315469
 31
0.0
  0
LINE
  5
2C4
330
2
100
AcDbEntity
  8
GAIKEI
  6
Continuous
 62
     1
100
AcDbLine
 10
31.16785831797142
 20
8.385292296315469
 30
0.0
 11
30.94786321797142
 21
8.385292296315469
 31
0.0
  0
LINE
  5
2C5
330
2
100
AcDbEntity
  8
GAIKEI
  6
Continuous
 62
     1
100
AcDbLine
 10
31.16785831797142
 20
7.635292296315469
 30
0.0
 11
30.94786321797142
 21
7.635292296315469
 31
0.0
  0
LINE
  5
2C6
330
2
100
AcDbEntity
  8
GAIKEI
  6
Continuous
 62
     1
100
AcDbLine
 10
31.16785831797142
 20
9.635292296315469
 30
0.0
 11
30.94786321797142
 21
9.635292296315469
 31
0.0
  0
LINE
  5
2C7
330
2
100
AcDbEntity
  8
GAIKEI
  6
Continuous
 62
     1
100
AcDbLine
 10
31.16785831797142
 20
8.885292296315469
 30
0.0
 11
30.94786321797142
 21
8.885292296315469
 31
0.0
  0
LINE
  5
2C8
330
2
100
AcDbEntity
  8
GAIKEI
  6
Continuous
 62
     1
100
AcDbLine
 10
31.16785831797142
 20
8.135292296315469
 30
0.0
 11
30.94786321797142
 21
8.135292296315469
 31
0.0
  0
LINE
  5
2C9
330
2
100
AcDbEntity
  8
GAIKEI
  6
Continuous
 62
     1
100
AcDbLine
 10
30.94786321797142
 20
9.135292296315469
 30
0.0
 11
30.94786321797142
 21
9.635292296315469
 31
0.0
  0
LINE
  5
2CA
330
2
100
AcDbEntity
  8
GAIKEI
  6
Continuous
 62
     1
100
AcDbLine
 10
30.94786321797142
 20
8.385292296315469
 30
0.0
 11
30.94786321797142
 21
8.885292296315469
 31
0.0
  0
LINE
  5
2CB
330
2
100
AcDbEntity
  8
GAIKEI
  6
Continuous
 62
     1
100
AcDbLine
 10
30.94786321797142
 20
7.635292296315469
 30
0.0
 11
30.94786321797142
 21
8.135292296315469
 31
0.0
  0
LINE
  5
2CC
330
2
100
AcDbEntity
  8
GAIKEI
  6
Continuous
 62
     1
100
AcDbLine
 10
30.44786321797142
 20
7.635292296315469
 30
0.0
 11
30.44786321797142
 21
8.135292296315469
 31
0.0
  0
LINE
  5
2CD
330
2
100
AcDbEntity
  8
GAIKEI
  6
Continuous
 62
     1
100
AcDbLine
 10
30.44786321797142
 20
8.385292296315469
 30
0.0
 11
30.44786321797142
 21
8.885292296315469
 31
0.0
  0
LINE
  5
2CE
330
2
100
AcDbEntity
  8
GAIKEI
  6
Continuous
 62
     1
100
AcDbLine
 10
30.44786321797142
 20
9.135292296315469
 30
0.0
 11
30.44786321797142
 21
9.635292296315469
 31
0.0
  0
LINE
  5
2CF
330
2
100
AcDbEntity
  8
GAIKEI
  6
Continuous
 62
     1
100
AcDbLine
 10
30.66785831797143
 20
8.135292296315469
 30
0.0
 11
30.44786321797142
 21
8.135292296315469
 31
0.0
  0
LINE
  5
2D0
330
2
100
AcDbEntity
  8
GAIKEI
  6
Continuous
 62
     1
100
AcDbLine
 10
30.66785831797143
 20
8.885292296315469
 30
0.0
 11
30.44786321797142
 21
8.885292296315469
 31
0.0
  0
LINE
  5
2D1
330
2
100
AcDbEntity
  8
GAIKEI
  6
Continuous
 62
     1
100
AcDbLine
 10
30.66785831797143
 20
9.635292296315469
 30
0.0
 11
30.44786321797142
 21
9.635292296315469
 31
0.0
  0
LINE
  5
2D2
330
2
100
AcDbEntity
  8
GAIKEI
  6
Continuous
 62
     1
100
AcDbLine
 10
30.66785831797143
 20
7.635292296315469
 30
0.0
 11
30.44786321797142
 21
7.635292296315469
 31
0.0
  0
LINE
  5
2D3
330
2
100
AcDbEntity
  8
GAIKEI
  6
Continuous
 62
     1
100
AcDbLine
 10
30.66785831797143
 20
8.385292296315469
 30
0.0
 11
30.44786321797142
 21
8.385292296315469
 31
0.0
  0
LINE
  5
2D4
330
2
100
AcDbEntity
  8
GAIKEI
  6
Continuous
 62
     1
100
AcDbLine
 10
30.66785831797143
 20
9.135292296315469
 30
0.0
 11
30.44786321797142
 21
9.135292296315469
 31
0.0
  0
LINE
  5
2D5
330
2
100
AcDbEntity
  8
GAIKEI
  6
Continuous
 62
     1
100
AcDbLine
 10
30.66785831797143
 20
7.635292296315469
 30
0.0
 11
30.66785831797143
 21
8.135292296315469
 31
0.0
  0
LINE
  5
2D6
330
2
100
AcDbEntity
  8
GAIKEI
  6
Continuous
 62
     1
100
AcDbLine
 10
30.66785831797143
 20
8.385292296315469
 30
0.0
 11
30.66785831797143
 21
8.885292296315469
 31
0.0
  0
LINE
  5
2D7
330
2
100
AcDbEntity
  8
GAIKEI
  6
Continuous
 62
     1
100
AcDbLine
 10
30.66785831797143
 20
9.135292296315469
 30
0.0
 11
30.66785831797143
 21
9.635292296315469
 31
0.0
  0
LINE
  5
2D8
330
2
100
AcDbEntity
  8
GAIKEI
  6
Continuous
 62
     1
100
AcDbLine
 10
30.44786321797142
 20
10.13529229631547
 30
0.0
 11
30.44786321797142
 21
10.63529229631547
 31
0.0
  0
LINE
  5
2D9
330
2
100
AcDbEntity
  8
GAIKEI
  6
Continuous
 62
     1
100
AcDbLine
 10
30.44786321797142
 20
10.88529229631547
 30
0.0
 11
30.44786321797142
 21
11.38529229631547
 31
0.0
  0
LINE
  5
2DA
330
2
100
AcDbEntity
  8
GAIKEI
  6
Continuous
 62
     1
100
AcDbLine
 10
30.44786321797142
 20
11.63529229631547
 30
0.0
 11
30.44786321797142
 21
12.13529229631547
 31
0.0
  0
LINE
  5
2DB
330
2
100
AcDbEntity
  8
GAIKEI
  6
Continuous
 62
     1
100
AcDbLine
 10
30.66785831797143
 20
10.63529229631547
 30
0.0
 11
30.44786321797142
 21
10.63529229631547
 31
0.0
  0
LINE
  5
2DC
330
2
100
AcDbEntity
  8
GAIKEI
  6
Continuous
 62
     1
100
AcDbLine
 10
30.66785831797143
 20
11.38529229631547
 30
0.0
 11
30.44786321797142
 21
11.38529229631547
 31
0.0
  0
LINE
  5
2DD
330
2
100
AcDbEntity
  8
GAIKEI
  6
Continuous
 62
     1
100
AcDbLine
 10
30.66785831797143
 20
12.13529229631547
 30
0.0
 11
30.44786321797142
 21
12.13529229631547
 31
0.0
  0
LINE
  5
2DE
330
2
100
AcDbEntity
  8
GAIKEI
  6
Continuous
 62
     1
100
AcDbLine
 10
30.66785831797143
 20
10.13529229631547
 30
0.0
 11
30.44786321797142
 21
10.13529229631547
 31
0.0
  0
LINE
  5
2DF
330
2
100
AcDbEntity
  8
GAIKEI
  6
Continuous
 62
     1
100
AcDbLine
 10
30.66785831797143
 20
10.88529229631547
 30
0.0
 11
30.44786321797142
 21
10.88529229631547
 31
0.0
  0
LINE
  5
2E0
330
2
100
AcDbEntity
  8
GAIKEI
  6
Continuous
 62
     1
100
AcDbLine
 10
30.66785831797143
 20
11.63529229631547
 30
0.0
 11
30.44786321797142
 21
11.63529229631547
 31
0.0
  0
LINE
  5
2E1
330
2
100
AcDbEntity
  8
GAIKEI
  6
Continuous
 62
     1
100
AcDbLine
 10
30.66785831797143
 20
10.13529229631547
 30
0.0
 11
30.66785831797143
 21
10.63529229631547
 31
0.0
  0
LINE
  5
2E2
330
2
100
AcDbEntity
  8
GAIKEI
  6
Continuous
 62
     1
100
AcDbLine
 10
30.66785831797143
 20
10.88529229631547
 30
0.0
 11
30.66785831797143
 21
11.38529229631547
 31
0.0
  0
LINE
  5
2E3
330
2
100
AcDbEntity
  8
GAIKEI
  6
Continuous
 62
     1
100
AcDbLine
 10
30.66785831797143
 20
11.63529229631547
 30
0.0
 11
30.66785831797143
 21
12.13529229631547
 31
0.0
  0
LINE
  5
2E4
330
2
100
AcDbEntity
  8
GAIKEI
  6
Continuous
 62
     1
100
AcDbLine
 10
30.16785831797142
 20
11.63529229631547
 30
0.0
 11
30.16785831797142
 21
12.13529229631547
 31
0.0
  0
LINE
  5
2E5
330
2
100
AcDbEntity
  8
GAIKEI
  6
Continuous
 62
     1
100
AcDbLine
 10
30.16785831797142
 20
10.88529229631547
 30
0.0
 11
30.16785831797142
 21
11.38529229631547
 31
0.0
  0
LINE
  5
2E6
330
2
100
AcDbEntity
  8
GAIKEI
  6
Continuous
 62
     1
100
AcDbLine
 10
30.16785831797142
 20
10.13529229631547
 30
0.0
 11
30.16785831797142
 21
10.63529229631547
 31
0.0
  0
LINE
  5
2E7
330
2
100
AcDbEntity
  8
GAIKEI
  6
Continuous
 62
     1
100
AcDbLine
 10
30.16785831797142
 20
11.63529229631547
 30
0.0
 11
29.94786321797142
 21
11.63529229631547
 31
0.0
  0
LINE
  5
2E8
330
2
100
AcDbEntity
  8
GAIKEI
  6
Continuous
 62
     1
100
AcDbLine
 10
30.16785831797142
 20
10.88529229631547
 30
0.0
 11
29.94786321797142
 21
10.88529229631547
 31
0.0
  0
LINE
  5
2E9
330
2
100
AcDbEntity
  8
GAIKEI
  6
Continuous
 62
     1
100
AcDbLine
 10
30.16785831797142
 20
10.13529229631547
 30
0.0
 11
29.94786321797142
 21
10.13529229631547
 31
0.0
  0
LINE
  5
2EA
330
2
100
AcDbEntity
  8
GAIKEI
  6
Continuous
 62
     1
100
AcDbLine
 10
30.16785831797142
 20
12.13529229631547
 30
0.0
 11
29.94786321797142
 21
12.13529229631547
 31
0.0
  0
LINE
  5
2EB
330
2
100
AcDbEntity
  8
GAIKEI
  6
Continuous
 62
     1
100
AcDbLine
 10
30.16785831797142
 20
11.38529229631547
 30
0.0
 11
29.94786321797142
 21
11.38529229631547
 31
0.0
  0
LINE
  5
2EC
330
2
100
AcDbEntity
  8
GAIKEI
  6
Continuous
 62
     1
100
AcDbLine
 10
30.16785831797142
 20
10.63529229631547
 30
0.0
 11
29.94786321797142
 21
10.63529229631547
 31
0.0
  0
LINE
  5
2ED
330
2
100
AcDbEntity
  8
GAIKEI
  6
Continuous
 62
     1
100
AcDbLine
 10
29.94786321797142
 20
11.63529229631547
 30
0.0
 11
29.94786321797142
 21
12.13529229631547
 31
0.0
  0
LINE
  5
2EE
330
2
100
AcDbEntity
  8
GAIKEI
  6
Continuous
 62
     1
100
AcDbLine
 10
29.94786321797142
 20
10.88529229631547
 30
0.0
 11
29.94786321797142
 21
11.38529229631547
 31
0.0
  0
LINE
  5
2EF
330
2
100
AcDbEntity
  8
GAIKEI
  6
Continuous
 62
     1
100
AcDbLine
 10
29.94786321797142
 20
10.13529229631547
 30
0.0
 11
29.94786321797142
 21
10.63529229631547
 31
0.0
  0
LINE
  5
2F0
330
2
100
AcDbEntity
  8
GAIKEI
  6
Continuous
 62
     1
100
AcDbLine
 10
30.16785831797142
 20
9.135292296315469
 30
0.0
 11
30.16785831797142
 21
9.635292296315469
 31
0.0
  0
LINE
  5
2F1
330
2
100
AcDbEntity
  8
GAIKEI
  6
Continuous
 62
     1
100
AcDbLine
 10
30.16785831797142
 20
8.385292296315469
 30
0.0
 11
30.16785831797142
 21
8.885292296315469
 31
0.0
  0
LINE
  5
2F2
330
2
100
AcDbEntity
  8
GAIKEI
  6
Continuous
 62
     1
100
AcDbLine
 10
30.16785831797142
 20
7.635292296315469
 30
0.0
 11
30.16785831797142
 21
8.135292296315469
 31
0.0
  0
LINE
  5
2F3
330
2
100
AcDbEntity
  8
GAIKEI
  6
Continuous
 62
     1
100
AcDbLine
 10
30.16785831797142
 20
9.135292296315469
 30
0.0
 11
29.94786321797142
 21
9.135292296315469
 31
0.0
  0
LINE
  5
2F4
330
2
100
AcDbEntity
  8
GAIKEI
  6
Continuous
 62
     1
100
AcDbLine
 10
30.16785831797142
 20
8.385292296315469
 30
0.0
 11
29.94786321797142
 21
8.385292296315469
 31
0.0
  0
LINE
  5
2F5
330
2
100
AcDbEntity
  8
GAIKEI
  6
Continuous
 62
     1
100
AcDbLine
 10
30.16785831797142
 20
7.635292296315469
 30
0.0
 11
29.94786321797142
 21
7.635292296315469
 31
0.0
  0
LINE
  5
2F6
330
2
100
AcDbEntity
  8
GAIKEI
  6
Continuous
 62
     1
100
AcDbLine
 10
30.16785831797142
 20
9.635292296315469
 30
0.0
 11
29.94786321797142
 21
9.635292296315469
 31
0.0
  0
LINE
  5
2F7
330
2
100
AcDbEntity
  8
GAIKEI
  6
Continuous
 62
     1
100
AcDbLine
 10
30.16785831797142
 20
8.885292296315469
 30
0.0
 11
29.94786321797142
 21
8.885292296315469
 31
0.0
  0
LINE
  5
2F8
330
2
100
AcDbEntity
  8
GAIKEI
  6
Continuous
 62
     1
100
AcDbLine
 10
30.16785831797142
 20
8.135292296315469
 30
0.0
 11
29.94786321797142
 21
8.135292296315469
 31
0.0
  0
LINE
  5
2F9
330
2
100
AcDbEntity
  8
GAIKEI
  6
Continuous
 62
     1
100
AcDbLine
 10
29.94786321797142
 20
9.135292296315469
 30
0.0
 11
29.94786321797142
 21
9.635292296315469
 31
0.0
  0
LINE
  5
2FA
330
2
100
AcDbEntity
  8
GAIKEI
  6
Continuous
 62
     1
100
AcDbLine
 10
29.94786321797142
 20
8.385292296315469
 30
0.0
 11
29.94786321797142
 21
8.885292296315469
 31
0.0
  0
LINE
  5
2FB
330
2
100
AcDbEntity
  8
GAIKEI
  6
Continuous
 62
     1
100
AcDbLine
 10
29.94786321797142
 20
7.635292296315469
 30
0.0
 11
29.94786321797142
 21
8.135292296315469
 31
0.0
  0
LINE
  5
2FC
330
2
100
AcDbEntity
  8
GAIKEI
  6
Continuous
 62
     1
100
AcDbLine
 10
29.44786321797142
 20
7.635292296315469
 30
0.0
 11
29.44786321797142
 21
8.135292296315469
 31
0.0
  0
LINE
  5
2FD
330
2
100
AcDbEntity
  8
GAIKEI
  6
Continuous
 62
     1
100
AcDbLine
 10
29.44786321797142
 20
8.385292296315469
 30
0.0
 11
29.44786321797142
 21
8.885292296315469
 31
0.0
  0
LINE
  5
2FE
330
2
100
AcDbEntity
  8
GAIKEI
  6
Continuous
 62
     1
100
AcDbLine
 10
29.44786321797142
 20
9.135292296315469
 30
0.0
 11
29.44786321797142
 21
9.635292296315469
 31
0.0
  0
LINE
  5
2FF
330
2
100
AcDbEntity
  8
GAIKEI
  6
Continuous
 62
     1
100
AcDbLine
 10
29.66785831797142
 20
8.135292296315469
 30
0.0
 11
29.44786321797142
 21
8.135292296315469
 31
0.0
  0
LINE
  5
300
330
2
100
AcDbEntity
  8
GAIKEI
  6
Continuous
 62
     1
100
AcDbLine
 10
29.66785831797142
 20
8.885292296315469
 30
0.0
 11
29.44786321797142
 21
8.885292296315469
 31
0.0
  0
LINE
  5
301
330
2
100
AcDbEntity
  8
GAIKEI
  6
Continuous
 62
     1
100
AcDbLine
 10
29.66785831797142
 20
9.635292296315469
 30
0.0
 11
29.44786321797142
 21
9.635292296315469
 31
0.0
  0
LINE
  5
302
330
2
100
AcDbEntity
  8
GAIKEI
  6
Continuous
 62
     1
100
AcDbLine
 10
29.66785831797142
 20
7.635292296315469
 30
0.0
 11
29.44786321797142
 21
7.635292296315469
 31
0.0
  0
LINE
  5
303
330
2
100
AcDbEntity
  8
GAIKEI
  6
Continuous
 62
     1
100
AcDbLine
 10
29.66785831797142
 20
8.385292296315469
 30
0.0
 11
29.44786321797142
 21
8.385292296315469
 31
0.0
  0
LINE
  5
304
330
2
100
AcDbEntity
  8
GAIKEI
  6
Continuous
 62
     1
100
AcDbLine
 10
29.66785831797142
 20
9.135292296315469
 30
0.0
 11
29.44786321797142
 21
9.135292296315469
 31
0.0
  0
LINE
  5
305
330
2
100
AcDbEntity
  8
GAIKEI
  6
Continuous
 62
     1
100
AcDbLine
 10
29.66785831797142
 20
7.635292296315469
 30
0.0
 11
29.66785831797142
 21
8.135292296315469
 31
0.0
  0
LINE
  5
306
330
2
100
AcDbEntity
  8
GAIKEI
  6
Continuous
 62
     1
100
AcDbLine
 10
29.66785831797142
 20
8.385292296315469
 30
0.0
 11
29.66785831797142
 21
8.885292296315469
 31
0.0
  0
LINE
  5
307
330
2
100
AcDbEntity
  8
GAIKEI
  6
Continuous
 62
     1
100
AcDbLine
 10
29.66785831797142
 20
9.135292296315469
 30
0.0
 11
29.66785831797142
 21
9.635292296315469
 31
0.0
  0
LINE
  5
308
330
2
100
AcDbEntity
  8
GAIKEI
  6
Continuous
 62
     1
100
AcDbLine
 10
29.44786321797142
 20
10.13529229631547
 30
0.0
 11
29.44786321797142
 21
10.63529229631547
 31
0.0
  0
LINE
  5
309
330
2
100
AcDbEntity
  8
GAIKEI
  6
Continuous
 62
     1
100
AcDbLine
 10
29.44786321797142
 20
10.88529229631547
 30
0.0
 11
29.44786321797142
 21
11.38529229631547
 31
0.0
  0
LINE
  5
30A
330
2
100
AcDbEntity
  8
GAIKEI
  6
Continuous
 62
     1
100
AcDbLine
 10
29.44786321797142
 20
11.63529229631547
 30
0.0
 11
29.44786321797142
 21
12.13529229631547
 31
0.0
  0
LINE
  5
30B
330
2
100
AcDbEntity
  8
GAIKEI
  6
Continuous
 62
     1
100
AcDbLine
 10
29.66785831797142
 20
10.63529229631547
 30
0.0
 11
29.44786321797142
 21
10.63529229631547
 31
0.0
  0
LINE
  5
30C
330
2
100
AcDbEntity
  8
GAIKEI
  6
Continuous
 62
     1
100
AcDbLine
 10
29.66785831797142
 20
11.38529229631547
 30
0.0
 11
29.44786321797142
 21
11.38529229631547
 31
0.0
  0
LINE
  5
30D
330
2
100
AcDbEntity
  8
GAIKEI
  6
Continuous
 62
     1
100
AcDbLine
 10
29.66785831797142
 20
12.13529229631547
 30
0.0
 11
29.44786321797142
 21
12.13529229631547
 31
0.0
  0
LINE
  5
30E
330
2
100
AcDbEntity
  8
GAIKEI
  6
Continuous
 62
     1
100
AcDbLine
 10
29.66785831797142
 20
10.13529229631547
 30
0.0
 11
29.44786321797142
 21
10.13529229631547
 31
0.0
  0
LINE
  5
30F
330
2
100
AcDbEntity
  8
GAIKEI
  6
Continuous
 62
     1
100
AcDbLine
 10
29.66785831797142
 20
10.88529229631547
 30
0.0
 11
29.44786321797142
 21
10.88529229631547
 31
0.0
  0
LINE
  5
310
330
2
100
AcDbEntity
  8
GAIKEI
  6
Continuous
 62
     1
100
AcDbLine
 10
29.66785831797142
 20
11.63529229631547
 30
0.0
 11
29.44786321797142
 21
11.63529229631547
 31
0.0
  0
LINE
  5
311
330
2
100
AcDbEntity
  8
GAIKEI
  6
Continuous
 62
     1
100
AcDbLine
 10
29.66785831797142
 20
10.13529229631547
 30
0.0
 11
29.66785831797142
 21
10.63529229631547
 31
0.0
  0
LINE
  5
312
330
2
100
AcDbEntity
  8
GAIKEI
  6
Continuous
 62
     1
100
AcDbLine
 10
29.66785831797142
 20
10.88529229631547
 30
0.0
 11
29.66785831797142
 21
11.38529229631547
 31
0.0
  0
LINE
  5
313
330
2
100
AcDbEntity
  8
GAIKEI
  6
Continuous
 62
     1
100
AcDbLine
 10
29.66785831797142
 20
11.63529229631547
 30
0.0
 11
29.66785831797142
 21
12.13529229631547
 31
0.0
  0
LINE
  5
314
330
2
100
AcDbEntity
  8
GAIKEI
  6
Continuous
 62
     1
100
AcDbLine
 10
29.16785831797142
 20
11.63529229631547
 30
0.0
 11
29.16785831797142
 21
12.13529229631547
 31
0.0
  0
LINE
  5
315
330
2
100
AcDbEntity
  8
GAIKEI
  6
Continuous
 62
     1
100
AcDbLine
 10
29.16785831797142
 20
10.88529229631547
 30
0.0
 11
29.16785831797142
 21
11.38529229631547
 31
0.0
  0
LINE
  5
316
330
2
100
AcDbEntity
  8
GAIKEI
  6
Continuous
 62
     1
100
AcDbLine
 10
29.16785831797142
 20
10.13529229631547
 30
0.0
 11
29.16785831797142
 21
10.63529229631547
 31
0.0
  0
LINE
  5
317
330
2
100
AcDbEntity
  8
GAIKEI
  6
Continuous
 62
     1
100
AcDbLine
 10
29.16785831797142
 20
11.63529229631547
 30
0.0
 11
28.94786321797142
 21
11.63529229631547
 31
0.0
  0
LINE
  5
318
330
2
100
AcDbEntity
  8
GAIKEI
  6
Continuous
 62
     1
100
AcDbLine
 10
29.16785831797142
 20
10.88529229631547
 30
0.0
 11
28.94786321797142
 21
10.88529229631547
 31
0.0
  0
LINE
  5
319
330
2
100
AcDbEntity
  8
GAIKEI
  6
Continuous
 62
     1
100
AcDbLine
 10
29.16785831797142
 20
10.13529229631547
 30
0.0
 11
28.94786321797142
 21
10.13529229631547
 31
0.0
  0
LINE
  5
31A
330
2
100
AcDbEntity
  8
GAIKEI
  6
Continuous
 62
     1
100
AcDbLine
 10
29.16785831797142
 20
12.13529229631547
 30
0.0
 11
28.94786321797142
 21
12.13529229631547
 31
0.0
  0
LINE
  5
31B
330
2
100
AcDbEntity
  8
GAIKEI
  6
Continuous
 62
     1
100
AcDbLine
 10
29.16785831797142
 20
11.38529229631547
 30
0.0
 11
28.94786321797142
 21
11.38529229631547
 31
0.0
  0
LINE
  5
31C
330
2
100
AcDbEntity
  8
GAIKEI
  6
Continuous
 62
     1
100
AcDbLine
 10
29.16785831797142
 20
10.63529229631547
 30
0.0
 11
28.94786321797142
 21
10.63529229631547
 31
0.0
  0
LINE
  5
31D
330
2
100
AcDbEntity
  8
GAIKEI
  6
Continuous
 62
     1
100
AcDbLine
 10
28.94786321797142
 20
11.63529229631547
 30
0.0
 11
28.94786321797142
 21
12.13529229631547
 31
0.0
  0
LINE
  5
31E
330
2
100
AcDbEntity
  8
GAIKEI
  6
Continuous
 62
     1
100
AcDbLine
 10
28.94786321797142
 20
10.88529229631547
 30
0.0
 11
28.94786321797142
 21
11.38529229631547
 31
0.0
  0
LINE
  5
31F
330
2
100
AcDbEntity
  8
GAIKEI
  6
Continuous
 62
     1
100
AcDbLine
 10
28.94786321797142
 20
10.13529229631547
 30
0.0
 11
28.94786321797142
 21
10.63529229631547
 31
0.0
  0
LINE
  5
320
330
2
100
AcDbEntity
  8
GAIKEI
  6
Continuous
 62
     1
100
AcDbLine
 10
29.16785831797142
 20
9.135292296315469
 30
0.0
 11
29.16785831797142
 21
9.635292296315469
 31
0.0
  0
LINE
  5
321
330
2
100
AcDbEntity
  8
GAIKEI
  6
Continuous
 62
     1
100
AcDbLine
 10
29.16785831797142
 20
8.385292296315469
 30
0.0
 11
29.16785831797142
 21
8.885292296315469
 31
0.0
  0
LINE
  5
322
330
2
100
AcDbEntity
  8
GAIKEI
  6
Continuous
 62
     1
100
AcDbLine
 10
29.16785831797142
 20
7.635292296315469
 30
0.0
 11
29.16785831797142
 21
8.135292296315469
 31
0.0
  0
LINE
  5
323
330
2
100
AcDbEntity
  8
GAIKEI
  6
Continuous
 62
     1
100
AcDbLine
 10
29.16785831797142
 20
9.135292296315469
 30
0.0
 11
28.94786321797142
 21
9.135292296315469
 31
0.0
  0
LINE
  5
324
330
2
100
AcDbEntity
  8
GAIKEI
  6
Continuous
 62
     1
100
AcDbLine
 10
29.16785831797142
 20
8.385292296315469
 30
0.0
 11
28.94786321797142
 21
8.385292296315469
 31
0.0
  0
LINE
  5
325
330
2
100
AcDbEntity
  8
GAIKEI
  6
Continuous
 62
     1
100
AcDbLine
 10
29.16785831797142
 20
7.635292296315469
 30
0.0
 11
28.94786321797142
 21
7.635292296315469
 31
0.0
  0
LINE
  5
326
330
2
100
AcDbEntity
  8
GAIKEI
  6
Continuous
 62
     1
100
AcDbLine
 10
29.16785831797142
 20
9.635292296315469
 30
0.0
 11
28.94786321797142
 21
9.635292296315469
 31
0.0
  0
LINE
  5
327
330
2
100
AcDbEntity
  8
GAIKEI
  6
Continuous
 62
     1
100
AcDbLine
 10
29.16785831797142
 20
8.885292296315469
 30
0.0
 11
28.94786321797142
 21
8.885292296315469
 31
0.0
  0
LINE
  5
328
330
2
100
AcDbEntity
  8
GAIKEI
  6
Continuous
 62
     1
100
AcDbLine
 10
29.16785831797142
 20
8.135292296315469
 30
0.0
 11
28.94786321797142
 21
8.135292296315469
 31
0.0
  0
LINE
  5
329
330
2
100
AcDbEntity
  8
GAIKEI
  6
Continuous
 62
     1
100
AcDbLine
 10
28.94786321797142
 20
9.135292296315469
 30
0.0
 11
28.94786321797142
 21
9.635292296315469
 31
0.0
  0
LINE
  5
32A
330
2
100
AcDbEntity
  8
GAIKEI
  6
Continuous
 62
     1
100
AcDbLine
 10
28.94786321797142
 20
8.385292296315469
 30
0.0
 11
28.94786321797142
 21
8.885292296315469
 31
0.0
  0
LINE
  5
32B
330
2
100
AcDbEntity
  8
GAIKEI
  6
Continuous
 62
     1
100
AcDbLine
 10
28.94786321797142
 20
7.635292296315469
 30
0.0
 11
28.94786321797142
 21
8.135292296315469
 31
0.0
  0
LINE
  5
32C
330
2
100
AcDbEntity
  8
GAIKEI
  6
Continuous
 62
     1
100
AcDbLine
 10
28.44786321797142
 20
7.635292296315469
 30
0.0
 11
28.44786321797142
 21
8.135292296315469
 31
0.0
  0
LINE
  5
32D
330
2
100
AcDbEntity
  8
GAIKEI
  6
Continuous
 62
     1
100
AcDbLine
 10
28.44786321797142
 20
8.385292296315469
 30
0.0
 11
28.44786321797142
 21
8.885292296315469
 31
0.0
  0
LINE
  5
32E
330
2
100
AcDbEntity
  8
GAIKEI
  6
Continuous
 62
     1
100
AcDbLine
 10
28.44786321797142
 20
9.135292296315469
 30
0.0
 11
28.44786321797142
 21
9.635292296315469
 31
0.0
  0
LINE
  5
32F
330
2
100
AcDbEntity
  8
GAIKEI
  6
Continuous
 62
     1
100
AcDbLine
 10
28.66785831797142
 20
8.135292296315469
 30
0.0
 11
28.44786321797142
 21
8.135292296315469
 31
0.0
  0
LINE
  5
330
330
2
100
AcDbEntity
  8
GAIKEI
  6
Continuous
 62
     1
100
AcDbLine
 10
28.66785831797142
 20
8.885292296315469
 30
0.0
 11
28.44786321797142
 21
8.885292296315469
 31
0.0
  0
LINE
  5
331
330
2
100
AcDbEntity
  8
GAIKEI
  6
Continuous
 62
     1
100
AcDbLine
 10
28.66785831797142
 20
9.635292296315469
 30
0.0
 11
28.44786321797142
 21
9.635292296315469
 31
0.0
  0
LINE
  5
332
330
2
100
AcDbEntity
  8
GAIKEI
  6
Continuous
 62
     1
100
AcDbLine
 10
28.66785831797142
 20
7.635292296315469
 30
0.0
 11
28.44786321797142
 21
7.635292296315469
 31
0.0
  0
LINE
  5
333
330
2
100
AcDbEntity
  8
GAIKEI
  6
Continuous
 62
     1
100
AcDbLine
 10
28.66785831797142
 20
8.385292296315469
 30
0.0
 11
28.44786321797142
 21
8.385292296315469
 31
0.0
  0
LINE
  5
334
330
2
100
AcDbEntity
  8
GAIKEI
  6
Continuous
 62
     1
100
AcDbLine
 10
28.66785831797142
 20
9.135292296315469
 30
0.0
 11
28.44786321797142
 21
9.135292296315469
 31
0.0
  0
LINE
  5
335
330
2
100
AcDbEntity
  8
GAIKEI
  6
Continuous
 62
     1
100
AcDbLine
 10
28.66785831797142
 20
7.635292296315469
 30
0.0
 11
28.66785831797142
 21
8.135292296315469
 31
0.0
  0
LINE
  5
336
330
2
100
AcDbEntity
  8
GAIKEI
  6
Continuous
 62
     1
100
AcDbLine
 10
28.66785831797142
 20
8.385292296315469
 30
0.0
 11
28.66785831797142
 21
8.885292296315469
 31
0.0
  0
LINE
  5
337
330
2
100
AcDbEntity
  8
GAIKEI
  6
Continuous
 62
     1
100
AcDbLine
 10
28.66785831797142
 20
9.135292296315469
 30
0.0
 11
28.66785831797142
 21
9.635292296315469
 31
0.0
  0
LINE
  5
338
330
2
100
AcDbEntity
  8
GAIKEI
  6
Continuous
 62
     1
100
AcDbLine
 10
28.44786321797142
 20
10.13529229631547
 30
0.0
 11
28.44786321797142
 21
10.63529229631547
 31
0.0
  0
LINE
  5
339
330
2
100
AcDbEntity
  8
GAIKEI
  6
Continuous
 62
     1
100
AcDbLine
 10
28.44786321797142
 20
10.88529229631547
 30
0.0
 11
28.44786321797142
 21
11.38529229631547
 31
0.0
  0
LINE
  5
33A
330
2
100
AcDbEntity
  8
GAIKEI
  6
Continuous
 62
     1
100
AcDbLine
 10
28.44786321797142
 20
11.63529229631547
 30
0.0
 11
28.44786321797142
 21
12.13529229631547
 31
0.0
  0
LINE
  5
33B
330
2
100
AcDbEntity
  8
GAIKEI
  6
Continuous
 62
     1
100
AcDbLine
 10
28.66785831797142
 20
10.63529229631547
 30
0.0
 11
28.44786321797142
 21
10.63529229631547
 31
0.0
  0
LINE
  5
33C
330
2
100
AcDbEntity
  8
GAIKEI
  6
Continuous
 62
     1
100
AcDbLine
 10
28.66785831797142
 20
11.38529229631547
 30
0.0
 11
28.44786321797142
 21
11.38529229631547
 31
0.0
  0
LINE
  5
33D
330
2
100
AcDbEntity
  8
GAIKEI
  6
Continuous
 62
     1
100
AcDbLine
 10
28.66785831797142
 20
12.13529229631547
 30
0.0
 11
28.44786321797142
 21
12.13529229631547
 31
0.0
  0
LINE
  5
33E
330
2
100
AcDbEntity
  8
GAIKEI
  6
Continuous
 62
     1
100
AcDbLine
 10
28.66785831797142
 20
10.13529229631547
 30
0.0
 11
28.44786321797142
 21
10.13529229631547
 31
0.0
  0
LINE
  5
33F
330
2
100
AcDbEntity
  8
GAIKEI
  6
Continuous
 62
     1
100
AcDbLine
 10
28.66785831797142
 20
10.88529229631547
 30
0.0
 11
28.44786321797142
 21
10.88529229631547
 31
0.0
  0
LINE
  5
340
330
2
100
AcDbEntity
  8
GAIKEI
  6
Continuous
 62
     1
100
AcDbLine
 10
28.66785831797142
 20
11.63529229631547
 30
0.0
 11
28.44786321797142
 21
11.63529229631547
 31
0.0
  0
LINE
  5
341
330
2
100
AcDbEntity
  8
GAIKEI
  6
Continuous
 62
     1
100
AcDbLine
 10
28.66785831797142
 20
10.13529229631547
 30
0.0
 11
28.66785831797142
 21
10.63529229631547
 31
0.0
  0
LINE
  5
342
330
2
100
AcDbEntity
  8
GAIKEI
  6
Continuous
 62
     1
100
AcDbLine
 10
28.66785831797142
 20
10.88529229631547
 30
0.0
 11
28.66785831797142
 21
11.38529229631547
 31
0.0
  0
LINE
  5
343
330
2
100
AcDbEntity
  8
GAIKEI
  6
Continuous
 62
     1
100
AcDbLine
 10
28.66785831797142
 20
11.63529229631547
 30
0.0
 11
28.66785831797142
 21
12.13529229631547
 31
0.0
  0
LINE
  5
344
330
2
100
AcDbEntity
  8
GAIKEI
  6
Continuous
 62
     1
100
AcDbLine
 10
28.16785831797142
 20
11.63529229631547
 30
0.0
 11
28.16785831797142
 21
12.13529229631547
 31
0.0
  0
LINE
  5
345
330
2
100
AcDbEntity
  8
GAIKEI
  6
Continuous
 62
     1
100
AcDbLine
 10
28.16785831797142
 20
10.88529229631547
 30
0.0
 11
28.16785831797142
 21
11.38529229631547
 31
0.0
  0
LINE
  5
346
330
2
100
AcDbEntity
  8
GAIKEI
  6
Continuous
 62
     1
100
AcDbLine
 10
28.16785831797142
 20
10.13529229631547
 30
0.0
 11
28.16785831797142
 21
10.63529229631547
 31
0.0
  0
LINE
  5
347
330
2
100
AcDbEntity
  8
GAIKEI
  6
Continuous
 62
     1
100
AcDbLine
 10
28.16785831797142
 20
11.63529229631547
 30
0.0
 11
27.94786321797142
 21
11.63529229631547
 31
0.0
  0
LINE
  5
348
330
2
100
AcDbEntity
  8
GAIKEI
  6
Continuous
 62
     1
100
AcDbLine
 10
28.16785831797142
 20
10.88529229631547
 30
0.0
 11
27.94786321797142
 21
10.88529229631547
 31
0.0
  0
LINE
  5
349
330
2
100
AcDbEntity
  8
GAIKEI
  6
Continuous
 62
     1
100
AcDbLine
 10
28.16785831797142
 20
10.13529229631547
 30
0.0
 11
27.94786321797142
 21
10.13529229631547
 31
0.0
  0
LINE
  5
34A
330
2
100
AcDbEntity
  8
GAIKEI
  6
Continuous
 62
     1
100
AcDbLine
 10
28.16785831797142
 20
12.13529229631547
 30
0.0
 11
27.94786321797142
 21
12.13529229631547
 31
0.0
  0
LINE
  5
34B
330
2
100
AcDbEntity
  8
GAIKEI
  6
Continuous
 62
     1
100
AcDbLine
 10
28.16785831797142
 20
11.38529229631547
 30
0.0
 11
27.94786321797142
 21
11.38529229631547
 31
0.0
  0
LINE
  5
34C
330
2
100
AcDbEntity
  8
GAIKEI
  6
Continuous
 62
     1
100
AcDbLine
 10
28.16785831797142
 20
10.63529229631547
 30
0.0
 11
27.94786321797142
 21
10.63529229631547
 31
0.0
  0
LINE
  5
34D
330
2
100
AcDbEntity
  8
GAIKEI
  6
Continuous
 62
     1
100
AcDbLine
 10
27.94786321797142
 20
11.63529229631547
 30
0.0
 11
27.94786321797142
 21
12.13529229631547
 31
0.0
  0
LINE
  5
34E
330
2
100
AcDbEntity
  8
GAIKEI
  6
Continuous
 62
     1
100
AcDbLine
 10
27.94786321797142
 20
10.88529229631547
 30
0.0
 11
27.94786321797142
 21
11.38529229631547
 31
0.0
  0
LINE
  5
34F
330
2
100
AcDbEntity
  8
GAIKEI
  6
Continuous
 62
     1
100
AcDbLine
 10
27.94786321797142
 20
10.13529229631547
 30
0.0
 11
27.94786321797142
 21
10.63529229631547
 31
0.0
  0
LINE
  5
350
330
2
100
AcDbEntity
  8
GAIKEI
  6
Continuous
 62
     1
100
AcDbLine
 10
28.16785831797142
 20
9.135292296315469
 30
0.0
 11
28.16785831797142
 21
9.635292296315469
 31
0.0
  0
LINE
  5
351
330
2
100
AcDbEntity
  8
GAIKEI
  6
Continuous
 62
     1
100
AcDbLine
 10
28.16785831797142
 20
8.385292296315469
 30
0.0
 11
28.16785831797142
 21
8.885292296315469
 31
0.0
  0
LINE
  5
352
330
2
100
AcDbEntity
  8
GAIKEI
  6
Continuous
 62
     1
100
AcDbLine
 10
28.16785831797142
 20
7.635292296315469
 30
0.0
 11
28.16785831797142
 21
8.135292296315469
 31
0.0
  0
LINE
  5
353
330
2
100
AcDbEntity
  8
GAIKEI
  6
Continuous
 62
     1
100
AcDbLine
 10
28.16785831797142
 20
9.135292296315469
 30
0.0
 11
27.94786321797142
 21
9.135292296315469
 31
0.0
  0
LINE
  5
354
330
2
100
AcDbEntity
  8
GAIKEI
  6
Continuous
 62
     1
100
AcDbLine
 10
28.16785831797142
 20
8.385292296315469
 30
0.0
 11
27.94786321797142
 21
8.385292296315469
 31
0.0
  0
LINE
  5
355
330
2
100
AcDbEntity
  8
GAIKEI
  6
Continuous
 62
     1
100
AcDbLine
 10
28.16785831797142
 20
7.635292296315469
 30
0.0
 11
27.94786321797142
 21
7.635292296315469
 31
0.0
  0
LINE
  5
356
330
2
100
AcDbEntity
  8
GAIKEI
  6
Continuous
 62
     1
100
AcDbLine
 10
28.16785831797142
 20
9.635292296315469
 30
0.0
 11
27.94786321797142
 21
9.635292296315469
 31
0.0
  0
LINE
  5
357
330
2
100
AcDbEntity
  8
GAIKEI
  6
Continuous
 62
     1
100
AcDbLine
 10
28.16785831797142
 20
8.885292296315469
 30
0.0
 11
27.94786321797142
 21
8.885292296315469
 31
0.0
  0
LINE
  5
358
330
2
100
AcDbEntity
  8
GAIKEI
  6
Continuous
 62
     1
100
AcDbLine
 10
28.16785831797142
 20
8.135292296315469
 30
0.0
 11
27.94786321797142
 21
8.135292296315469
 31
0.0
  0
LINE
  5
359
330
2
100
AcDbEntity
  8
GAIKEI
  6
Continuous
 62
     1
100
AcDbLine
 10
27.94786321797142
 20
9.135292296315469
 30
0.0
 11
27.94786321797142
 21
9.635292296315469
 31
0.0
  0
LINE
  5
35A
330
2
100
AcDbEntity
  8
GAIKEI
  6
Continuous
 62
     1
100
AcDbLine
 10
27.94786321797142
 20
8.385292296315469
 30
0.0
 11
27.94786321797142
 21
8.885292296315469
 31
0.0
  0
LINE
  5
35B
330
2
100
AcDbEntity
  8
GAIKEI
  6
Continuous
 62
     1
100
AcDbLine
 10
27.94786321797142
 20
7.635292296315469
 30
0.0
 11
27.94786321797142
 21
8.135292296315469
 31
0.0
  0
LINE
  5
35C
330
2
100
AcDbEntity
  8
GAIKEI
  6
Continuous
 62
     1
100
AcDbLine
 10
58.44786344256931
 20
11.9852949831012
 30
0.0
 11
58.49786344256926
 21
11.9852949831012
 31
0.0
  0
LINE
  5
35D
330
2
100
AcDbEntity
  8
GAIKEI
  6
Continuous
 62
     1
100
AcDbLine
 10
58.54786344256922
 20
11.93529498310124
 30
0.0
 11
58.49786344256926
 21
11.9852949831012
 31
0.0
  0
LINE
  5
35E
330
2
100
AcDbEntity
  8
GAIKEI
  6
Continuous
 62
     1
100
AcDbLine
 10
58.71786368775838
 20
6.05722335513542
 30
0.0
 11
58.71786368775838
 21
6.085294983101334
 31
0.0
  0
LINE
  5
35F
330
2
100
AcDbEntity
  8
GAIKEI
  6
Continuous
 62
     1
100
AcDbLine
 10
58.71786368775838
 20
5.28529498310138
 30
0.0
 11
58.71786368775838
 21
5.513363846972083
 31
0.0
  0
LINE
  5
360
330
2
100
AcDbEntity
  8
GAIKEI
  6
Continuous
 62
     1
100
AcDbLine
 10
58.61786368775836
 20
9.985294983101312
 30
0.0
 11
58.44786344256931
 21
9.985294983101312
 31
0.0
  0
LINE
  5
361
330
2
100
AcDbEntity
  8
GAIKEI
  6
Continuous
 62
     1
100
AcDbLine
 10
58.51199643350696
 20
5.185294983101243
 30
0.0
 11
58.61786368775836
 21
5.185294983101243
 31
0.0
  0
LINE
  5
362
330
2
100
AcDbEntity
  8
GAIKEI
  6
Continuous
 62
     1
100
AcDbLine
 10
58.71786368775838
 20
9.085294983101334
 30
0.0
 11
58.71786368775838
 21
9.885294983101289
 31
0.0
  0
LINE
  5
363
330
2
100
AcDbEntity
  8
GAIKEI
  6
Continuous
 62
     1
100
AcDbLine
 10
58.94786325327141
 20
6.185294983101243
 30
0.0
 11
58.94786325327141
 21
8.985294983101312
 31
0.0
  0
LINE
  5
364
330
2
100
AcDbEntity
  8
GAIKEI
  6
Continuous
 62
     1
100
AcDbLine
 10
58.84786325327138
 20
9.085294983101334
 30
0.0
 11
58.71786368775838
 21
9.085294983101334
 31
0.0
  0
LINE
  5
365
330
2
100
AcDbEntity
  8
GAIKEI
  6
Continuous
 62
     1
100
AcDbLine
 10
58.84786325327138
 20
6.085294983101334
 30
0.0
 11
58.71786368775838
 21
6.085294983101334
 31
0.0
  0
LINE
  5
366
330
2
100
AcDbEntity
  8
GAIKEI
  6
Continuous
 62
     1
100
AcDbLine
 10
58.49786344256926
 20
10.18529498310101
 30
0.0
 11
58.54786344256922
 21
10.23529498310097
 31
0.0
  0
LINE
  5
367
330
2
100
AcDbEntity
  8
GAIKEI
  6
Continuous
 62
     1
100
AcDbLine
 10
58.49786344256926
 20
10.18529498310101
 30
0.0
 11
58.44786344256931
 21
10.18529498310101
 31
0.0
  0
LINE
  5
368
330
2
100
AcDbEntity
  8
GAIKEI
  6
Continuous
 62
     1
100
AcDbLine
 10
58.84786344256929
 20
11.76529498310117
 30
0.0
 11
58.54786344256922
 21
11.76529498310117
 31
0.0
  0
LINE
  5
369
330
2
100
AcDbEntity
  8
GAIKEI
  6
Continuous
 62
     1
100
AcDbLine
 10
58.84786344256929
 20
10.40529498310104
 30
0.0
 11
58.54786344256922
 21
10.40529498310104
 31
0.0
  0
LINE
  5
36A
330
2
100
AcDbEntity
  8
GAIKEI
  6
Continuous
 62
     1
100
AcDbLine
 10
58.94786344256932
 20
11.66529498310103
 30
0.0
 11
58.94786344256932
 21
10.50529498310118
 31
0.0
  0
LINE
  5
36B
330
2
100
AcDbEntity
  8
GAIKEI
  6
Continuous
 62
     1
100
AcDbLine
 10
58.54786344256922
 20
11.93529498310124
 30
0.0
 11
58.54786344256922
 21
10.23529498310097
 31
0.0
  0
LINE
  5
36C
330
2
100
AcDbEntity
  8
GAIKEI
  6
Continuous
100
AcDbLine
 10
58.23786274689848
 20
4.865157041337795
 30
0.0
 11
58.23786274689848
 21
4.805317658946307
 31
0.0
  0
LINE
  5
36D
330
2
100
AcDbEntity
  8
GAIKEI
  6
Continuous
 62
     1
100
AcDbLine
 10
58.33786274689851
 20
4.865157041337795
 30
0.0
 11
58.33786274689851
 21
4.805317658946307
 31
0.0
  0
LINE
  5
36E
330
2
100
AcDbEntity
  8
GAIKEI
  6
Continuous
100
AcDbLine
 10
58.23786274689848
 20
4.68531765894653
 30
0.0
 11
58.14016020005102
 21
4.68531765894653
 31
0.0
  0
LINE
  5
36F
330
2
100
AcDbEntity
  8
GAIKEI
  6
Continuous
 62
     1
100
AcDbLine
 10
58.38786274689846
 20
4.68531765894653
 30
0.0
 11
58.33786274689851
 21
4.68531765894653
 31
0.0
  0
LINE
  5
370
330
2
100
AcDbEntity
  8
GAIKEI
  6
Continuous
 62
     1
100
AcDbLine
 10
58.38786274689846
 20
4.785291258320398
 30
0.0
 11
58.33786274689851
 21
4.785291258320398
 31
0.0
  0
LINE
  5
371
330
2
100
AcDbEntity
  8
GAIKEI
  6
Continuous
 62
     1
100
AcDbLine
 10
58.38786274689846
 20
4.785291258320398
 30
0.0
 11
58.38786274689846
 21
4.68531765894653
 31
0.0
  0
LINE
  5
372
330
2
100
AcDbEntity
  8
GAIKEI
  6
Continuous
100
AcDbLine
 10
58.23786274689848
 20
4.805317658946307
 30
0.0
 11
58.23786274689848
 21
4.68531765894653
 31
0.0
  0
LINE
  5
373
330
2
100
AcDbEntity
  8
GAIKEI
  6
Continuous
 62
     1
100
AcDbLine
 10
58.33786274689851
 20
4.805317658946307
 30
0.0
 11
58.33786274689851
 21
4.68531765894653
 31
0.0
  0
LINE
  5
374
330
2
100
AcDbEntity
  8
GAIKEI
  6
Continuous
 62
     1
100
AcDbLine
 10
58.23786274689848
 20
4.585317658946507
 30
0.0
 11
56.34786321797196
 21
4.585317658946507
 31
0.0
  0
LINE
  5
375
330
2
100
AcDbEntity
  8
GAIKEI
  6
Continuous
 62
     1
100
AcDbLine
 10
56.34786321797196
 20
4.68531765894653
 30
0.0
 11
56.34786321797196
 21
4.585317658946507
 31
0.0
  0
LINE
  5
376
330
2
100
AcDbEntity
  8
GAIKEI
  6
Continuous
 62
     1
100
AcDbLine
 10
58.33786274689851
 20
4.805317658946307
 30
0.0
 11
58.23786274689848
 21
4.805317658946307
 31
0.0
  0
LINE
  5
377
330
2
100
AcDbEntity
  8
GAIKEI
  6
Continuous
 62
     1
100
AcDbLine
 10
51.68286344256921
 20
6.500291258320089
 30
0.0
 11
51.68286344256921
 21
6.375291258320089
 31
0.0
  0
LINE
  5
378
330
2
100
AcDbEntity
  8
GAIKEI
  6
Continuous
 62
     1
100
AcDbLine
 10
51.84286344256941
 20
6.340291258320121
 30
0.0
 11
51.71786344256941
 21
6.340291258320121
 31
0.0
  0
LINE
  5
379
330
2
100
AcDbEntity
  8
GAIKEI
  6
Continuous
 62
     1
100
AcDbLine
 10
51.61286344256939
 20
6.235291258320216
 30
0.0
 11
51.61286344256939
 21
6.110291258320216
 31
0.0
  0
LINE
  5
37A
330
2
100
AcDbEntity
  8
GAIKEI
  6
Continuous
 62
     1
100
AcDbLine
 10
51.57786344256942
 20
6.340291258320121
 30
0.0
 11
51.45286344256942
 21
6.340291258320121
 31
0.0
  0
LINE
  5
37B
330
2
100
AcDbEntity
  8
GAIKEI
  6
Continuous
 62
     1
100
AcDbLine
 10
51.57786344256942
 20
6.270291258320298
 30
0.0
 11
51.45286344256942
 21
6.270291258320298
 31
0.0
  0
LINE
  5
37C
330
2
100
AcDbEntity
  8
GAIKEI
  6
Continuous
 62
     1
100
AcDbLine
 10
51.68286344256921
 20
6.235291258320216
 30
0.0
 11
51.68286344256921
 21
6.110291258320216
 31
0.0
  0
LINE
  5
37D
330
2
100
AcDbEntity
  8
GAIKEI
  6
Continuous
 62
     1
100
AcDbLine
 10
51.68286344256921
 20
6.500291258320089
 30
0.0
 11
51.61286344256939
 21
6.500291258320089
 31
0.0
  0
LINE
  5
37E
330
2
100
AcDbEntity
  8
GAIKEI
  6
Continuous
 62
     1
100
AcDbLine
 10
51.68286344256921
 20
6.110291258320216
 30
0.0
 11
51.61286344256939
 21
6.110291258320216
 31
0.0
  0
LINE
  5
37F
330
2
100
AcDbEntity
  8
GAIKEI
  6
Continuous
 62
     1
100
AcDbLine
 10
51.45286344256942
 20
6.340291258320121
 30
0.0
 11
51.45286344256942
 21
6.270291258320298
 31
0.0
  0
LINE
  5
380
330
2
100
AcDbEntity
  8
GAIKEI
  6
Continuous
 62
     1
100
AcDbLine
 10
51.84286344256941
 20
6.340291258320121
 30
0.0
 11
51.84286344256941
 21
6.270291258320298
 31
0.0
  0
LINE
  5
381
330
2
100
AcDbEntity
  8
GAIKEI
  6
Continuous
 62
     1
100
AcDbLine
 10
51.61286344256939
 20
6.500291258320089
 30
0.0
 11
51.61286344256939
 21
6.375291258320089
 31
0.0
  0
LINE
  5
382
330
2
100
AcDbEntity
  8
GAIKEI
  6
Continuous
 62
     1
100
AcDbLine
 10
51.84286344256941
 20
6.270291258320298
 30
0.0
 11
51.71786344256941
 21
6.270291258320298
 31
0.0
  0
LINE
  5
383
330
2
100
AcDbEntity
  8
GAIKEI
  6
Continuous
100
AcDbLine
 10
55.35693453649696
 20
3.635291258320421
 30
0.0
 11
53.53879189944667
 21
3.635291258320421
 31
0.0
  0
LINE
  5
384
330
2
100
AcDbEntity
  8
GAIKEI
  6
Continuous
100
AcDbLine
 10
55.54786321797201
 20
4.685291258320432
 30
0.0
 11
55.45648408375632
 21
3.725810349057496
 31
0.0
  0
LINE
  5
385
330
2
100
AcDbEntity
  8
GAIKEI
  6
Continuous
100
AcDbLine
 10
53.43924235218742
 20
3.725810349057496
 30
0.0
 11
53.34786321797196
 21
4.685291258320432
 31
0.0
  0
LINE
  5
386
330
2
100
AcDbEntity
  8
GAIKEI
  6
Continuous
100
AcDbLine
 10
58.11786379526108
 20
4.865157041337795
 30
0.0
 11
58.36786379526109
 21
4.865157041337795
 31
0.0
  0
LINE
  5
387
330
2
100
AcDbEntity
  8
GAIKEI
  6
Continuous
100
AcDbLine
 10
58.44786344256931
 20
13.30529125832049
 30
0.0
 11
58.44786344256931
 21
4.865157041337795
 31
0.0
  0
LINE
  5
388
330
2
100
AcDbEntity
  8
GAIKEI
  6
Continuous
100
AcDbLine
 10
58.44786379631898
 20
4.865157041337795
 30
0.0
 11
58.36786379526109
 21
4.865157041337795
 31
0.0
  0
LINE
  5
389
330
2
100
AcDbEntity
  8
GAIKEI
  6
Continuous
100
AcDbLine
 10
58.44786346008766
 20
13.18529269186649
 30
0.0
 11
58.44786345050602
 21
13.3052938152091
 31
0.0
  0
LINE
  5
38A
330
2
100
AcDbEntity
  8
GAIKEI
  6
Continuous
100
AcDbLine
 10
58.11786379526108
 20
4.865157041337795
 30
0.0
 11
58.11786380099784
 21
4.685292297138801
 31
0.0
  0
LINE
  5
38B
330
2
100
AcDbEntity
  8
GAIKEI
  6
Continuous
100
AcDbLine
 10
58.44786379631898
 20
4.865157041337795
 30
0.0
 11
58.44786346705632
 21
13.11529231471525
 31
0.0
  0
LINE
  5
38C
330
2
100
AcDbEntity
  8
GAIKEI
  6
Continuous
 62
     1
100
AcDbLine
 10
58.57546989016282
 20
5.435293601053786
 30
0.0
 11
58.57546989016282
 21
6.135293601053376
 31
0.0
  0
LINE
  5
38D
330
2
100
AcDbEntity
  8
GAIKEI
  6
Continuous
 62
     1
100
AcDbLine
 10
58.57546989016282
 20
6.135293601053376
 30
0.0
 11
58.75786178085139
 21
6.035293601053695
 31
0.0
  0
LINE
  5
38E
330
2
100
AcDbEntity
  8
GAIKEI
  6
Continuous
 62
     1
100
AcDbLine
 10
58.75786178085139
 20
6.035293601053695
 30
0.0
 11
58.75786178085127
 21
5.785293601053695
 31
0.0
  0
LINE
  5
38F
330
2
100
AcDbEntity
  8
GAIKEI
  6
Continuous
 62
     1
100
AcDbLine
 10
58.75786178085127
 20
5.535293601053695
 30
0.0
 11
58.57546989016282
 21
5.435293601053786
 31
0.0
  0
LINE
  5
390
330
2
100
AcDbEntity
  8
GAIKEI
  6
Continuous
 62
     1
100
AcDbLine
 10
58.57546989016282
 20
5.435293601053786
 30
0.0
 11
58.55702620726686
 21
5.330694277557199
 31
0.0
  0
LINE
  5
391
330
2
100
AcDbEntity
  8
GAIKEI
  6
Continuous
 62
     1
100
AcDbLine
 10
58.75786178085127
 20
5.785293601053695
 30
0.0
 11
58.75786178085127
 21
5.535293601053695
 31
0.0
  0
LINE
  5
392
330
2
100
AcDbEntity
  8
GAIKEI
  6
Continuous
 62
     1
100
AcDbLine
 10
58.55702620726686
 20
6.239892924549963
 30
0.0
 11
58.57546989016282
 21
6.135293601053376
 31
0.0
  0
LINE
  5
393
330
2
100
AcDbEntity
  8
GAIKEI
  6
Continuous
 62
     1
100
AcDbLine
 10
58.46240647772503
 20
12.08208342523812
 30
0.0
 11
58.46240647772503
 21
12.68852342523792
 31
0.0
  0
LINE
  5
394
330
2
100
AcDbEntity
  8
GAIKEI
  6
Continuous
 62
     1
100
AcDbLine
 10
58.44786352430651
 20
12.08081017372353
 30
0.0
 11
58.46240647772503
 21
12.08208342523812
 31
0.0
  0
LINE
  5
395
330
2
100
AcDbEntity
  8
GAIKEI
  6
Continuous
 62
     1
100
AcDbLine
 10
58.44786350000209
 20
12.68979569257692
 30
0.0
 11
58.46240647772503
 21
12.68852342523792
 31
0.0
  0
LINE
  5
396
330
2
100
AcDbEntity
  8
GAIKEI
  6
Continuous
 62
     1
100
AcDbLine
 10
58.46240647772503
 20
4.782077824345492
 30
0.0
 11
58.46240647772503
 21
5.302984110794
 31
0.0
  0
LINE
  5
397
330
2
100
AcDbEntity
  8
GAIKEI
  6
Continuous
 62
     1
100
AcDbLine
 10
58.38786274689846
 20
4.775551438993204
 30
0.0
 11
58.46240647772503
 21
4.782077824345492
 31
0.0
  0
LINE
  5
398
330
2
100
AcDbEntity
  8
GAIKEI
  6
Continuous
 62
     1
100
AcDbLine
 10
58.55702620726686
 20
13.10989309361798
 30
0.0
 11
58.57546989016282
 21
13.00529377012128
 31
0.0
  0
LINE
  5
399
330
2
100
AcDbEntity
  8
GAIKEI
  6
Continuous
 62
     1
100
AcDbLine
 10
58.75786178085127
 20
12.65529377012171
 30
0.0
 11
58.75786178085127
 21
12.40529377012171
 31
0.0
  0
LINE
  5
39A
330
2
100
AcDbEntity
  8
GAIKEI
  6
Continuous
 62
     1
100
AcDbLine
 10
58.57546989016282
 20
12.30529377012169
 30
0.0
 11
58.55702620726686
 21
12.20069444662511
 31
0.0
  0
LINE
  5
39B
330
2
100
AcDbEntity
  8
GAIKEI
  6
Continuous
 62
     1
100
AcDbLine
 10
58.75786178085127
 20
12.40529377012171
 30
0.0
 11
58.57546989016282
 21
12.30529377012169
 31
0.0
  0
LINE
  5
39C
330
2
100
AcDbEntity
  8
GAIKEI
  6
Continuous
 62
     1
100
AcDbLine
 10
58.75786178085139
 20
12.90529377012171
 30
0.0
 11
58.75786178085127
 21
12.65529377012171
 31
0.0
  0
LINE
  5
39D
330
2
100
AcDbEntity
  8
GAIKEI
  6
Continuous
 62
     1
100
AcDbLine
 10
58.57546989016282
 20
13.00529377012128
 30
0.0
 11
58.75786178085139
 21
12.90529377012171
 31
0.0
  0
LINE
  5
39E
330
2
100
AcDbEntity
  8
GAIKEI
  6
Continuous
 62
     1
100
AcDbLine
 10
58.57546989016282
 20
12.30529377012169
 30
0.0
 11
58.57546989016282
 21
13.00529377012128
 31
0.0
  0
LINE
  5
39F
330
2
100
AcDbEntity
  8
GAIKEI
  6
Continuous
 62
     1
100
AcDbLine
 10
28.59786393652917
 20
4.585292849368386
 30
0.0
 11
26.29786393652921
 21
4.585292849368386
 31
0.0
  0
LINE
  5
3A0
330
2
100
AcDbEntity
  8
GAIKEI
  6
Continuous
100
AcDbLine
 10
28.69786393652919
 20
4.685292849368408
 30
0.0
 11
28.59786393652917
 21
4.585292849368386
 31
0.0
  0
LINE
  5
3A1
330
2
100
AcDbEntity
  8
GAIKEI
  6
Continuous
100
AcDbLine
 10
24.74786344256927
 20
13.01529181055002
 30
0.0
 11
23.72786321797162
 21
13.01529181055002
 31
0.0
  0
LINE
  5
3A2
330
2
100
AcDbEntity
  8
GAIKEI
  6
Continuous
100
AcDbLine
 10
23.54786321797201
 20
13.38529181055014
 30
0.0
 11
23.44786321797199
 21
13.28529181055012
 31
0.0
  0
LINE
  5
3A3
330
2
100
AcDbEntity
  8
GAIKEI
  6
Continuous
100
AcDbLine
 10
24.74786321797194
 20
13.38529181055014
 30
0.0
 11
23.54786321797201
 21
13.38529181055014
 31
0.0
  0
LINE
  5
3A4
330
2
100
AcDbEntity
  8
GAIKEI
  6
Continuous
100
AcDbLine
 10
23.69786321797199
 20
12.98529181055016
 30
0.0
 11
23.69786321797199
 21
4.585291810550131
 31
0.0
  0
LINE
  5
3A5
330
2
100
AcDbEntity
  8
GAIKEI
  6
Continuous
100
AcDbLine
 10
24.74786321797194
 20
13.38529181055014
 30
0.0
 11
23.54786321797178
 21
13.38529181055014
 31
0.0
  0
LINE
  5
3A6
330
2
100
AcDbEntity
  8
GAIKEI
  6
Continuous
 62
     1
100
AcDbLine
 10
28.9828634425694
 20
6.500291810549697
 30
0.0
 11
28.9828634425694
 21
6.375291810549697
 31
0.0
  0
LINE
  5
3A7
330
2
100
AcDbEntity
  8
GAIKEI
  6
Continuous
 62
     1
100
AcDbLine
 10
29.14286344256936
 20
6.340291810549615
 30
0.0
 11
29.01786344256937
 21
6.340291810549615
 31
0.0
  0
LINE
  5
3A8
330
2
100
AcDbEntity
  8
GAIKEI
  6
Continuous
 62
     1
100
AcDbLine
 10
28.91286344256935
 20
6.235291810549938
 30
0.0
 11
28.91286344256935
 21
6.110291810549938
 31
0.0
  0
LINE
  5
3A9
330
2
100
AcDbEntity
  8
GAIKEI
  6
Continuous
 62
     1
100
AcDbLine
 10
28.87786344256961
 20
6.340291810549615
 30
0.0
 11
28.75286344256961
 21
6.340291810549615
 31
0.0
  0
LINE
  5
3AA
330
2
100
AcDbEntity
  8
GAIKEI
  6
Continuous
 62
     1
100
AcDbLine
 10
28.87786344256961
 20
6.270291810549565
 30
0.0
 11
28.75286344256961
 21
6.270291810549565
 31
0.0
  0
LINE
  5
3AB
330
2
100
AcDbEntity
  8
GAIKEI
  6
Continuous
 62
     1
100
AcDbLine
 10
28.9828634425694
 20
6.235291810549938
 30
0.0
 11
28.9828634425694
 21
6.110291810549938
 31
0.0
  0
LINE
  5
3AC
330
2
100
AcDbEntity
  8
GAIKEI
  6
Continuous
 62
     1
100
AcDbLine
 10
28.9828634425694
 20
6.500291810549697
 30
0.0
 11
28.91286344256935
 21
6.500291810549697
 31
0.0
  0
LINE
  5
3AD
330
2
100
AcDbEntity
  8
GAIKEI
  6
Continuous
 62
     1
100
AcDbLine
 10
28.9828634425694
 20
6.110291810549938
 30
0.0
 11
28.91286344256935
 21
6.110291810549938
 31
0.0
  0
LINE
  5
3AE
330
2
100
AcDbEntity
  8
GAIKEI
  6
Continuous
 62
     1
100
AcDbLine
 10
28.75286344256961
 20
6.340291810549615
 30
0.0
 11
28.75286344256961
 21
6.270291810549565
 31
0.0
  0
LINE
  5
3AF
330
2
100
AcDbEntity
  8
GAIKEI
  6
Continuous
 62
     1
100
AcDbLine
 10
29.14286344256936
 20
6.340291810549615
 30
0.0
 11
29.14286344256936
 21
6.270291810549565
 31
0.0
  0
LINE
  5
3B0
330
2
100
AcDbEntity
  8
GAIKEI
  6
Continuous
 62
     1
100
AcDbLine
 10
28.91286344256935
 20
6.500291810549697
 30
0.0
 11
28.91286344256935
 21
6.375291810549697
 31
0.0
  0
LINE
  5
3B1
330
2
100
AcDbEntity
  8
GAIKEI
  6
Continuous
 62
     1
100
AcDbLine
 10
29.14286344256936
 20
6.270291810549565
 30
0.0
 11
29.01786344256937
 21
6.270291810549565
 31
0.0
  0
LINE
  5
3B2
330
2
100
AcDbEntity
  8
GAIKEI
  6
Continuous
100
AcDbLine
 10
28.35693525505428
 20
3.53529181055012
 30
0.0
 11
26.53879261800364
 21
3.53529181055012
 31
0.0
  0
LINE
  5
3B3
330
2
100
AcDbEntity
  8
GAIKEI
  6
Continuous
100
AcDbLine
 10
28.54786393652921
 20
4.585291810550131
 30
0.0
 11
28.45648480231364
 21
3.625810901287309
 31
0.0
  0
LINE
  5
3B4
330
2
100
AcDbEntity
  8
GAIKEI
  6
Continuous
100
AcDbLine
 10
26.43924307074474
 20
3.625810901287309
 30
0.0
 11
26.34786393652917
 21
4.585291810550131
 31
0.0
  0
LINE
  5
3B5
330
2
100
AcDbEntity
  8
GAIKEI
  6
Continuous
100
AcDbLine
 10
24.74786344256927
 20
12.96529181055018
 30
0.0
 11
23.81786318904551
 21
12.96529181055018
 31
0.0
  0
LINE
  5
3B6
330
2
100
AcDbEntity
  8
GAIKEI
  6
Continuous
100
AcDbLine
 10
23.71786321797185
 20
4.915292297138023
 30
0.0
 11
23.71786321797185
 21
12.86529125831998
 31
0.0
  0
LINE
  5
3B7
330
2
100
AcDbEntity
  8
GAIKEI
  6
Continuous
100
AcDbLine
 10
25.24786325293906
 20
13.38528950798707
 30
0.0
 11
25.14787031485525
 21
13.38528950798707
 31
0.0
  0
LINE
  5
3B8
330
2
100
AcDbEntity
  8
GAIKEI
  6
Continuous
100
AcDbLine
 10
25.24786325293906
 20
13.38528950798707
 30
0.0
 11
26.03367602620858
 21
13.38528950798707
 31
0.0
  0
LINE
  5
3B9
330
2
100
AcDbEntity
  8
GAIKEI
  6
Continuous
100
AcDbLine
 10
23.44786321797142
 20
12.73428887442026
 30
0.0
 11
23.44786321797199
 21
13.08529181055007
 31
0.0
  0
LINE
  5
3BA
330
2
100
AcDbEntity
  8
GAIKEI
  6
S10
 62
     1
100
AcDbLine
 10
23.67786321797201
 20
13.3852914342574
 30
0.0
 11
23.67786321797201
 21
4.585291434257385
 31
0.0
  0
LINE
  5
3BB
330
2
100
AcDbEntity
  8
GAIKEI
  6
S10
 62
     1
100
AcDbLine
 10
26.44786321797198
 20
4.78529143425743
 30
0.0
 11
26.44786321797198
 21
13.18529143425746
 31
0.0
  0
LINE
  5
3BC
330
2
100
AcDbEntity
  8
GAIKEI
  6
Continuous
100
AcDbLine
 10
23.44786321797199
 20
12.9852914342573
 30
0.0
 11
23.44786321797199
 21
12.64529143425784
 31
0.0
  0
LINE
  5
3BD
330
2
100
AcDbEntity
  8
GAIKEI
  6
Continuous
100
AcDbLine
 10
23.44786321797199
 20
12.64529143425784
 30
0.0
 11
23.44786321797187
 21
4.985291512684625
 31
0.0
  0
LINE
  5
3BE
330
2
100
AcDbEntity
  8
GAIKEI
  6
Continuous
100
AcDbLine
 10
24.74786344256927
 20
13.01529181055002
 30
0.0
 11
25.87786321797103
 21
13.01529181055002
 31
0.0
  0
LINE
  5
3BF
330
2
100
AcDbEntity
  8
GAIKEI
  6
Continuous
100
AcDbLine
 10
26.09786321797151
 20
13.23529181055028
 30
0.0
 11
26.09786328024325
 21
13.38529153793968
 31
0.0
  0
LINE
  5
3C0
330
2
100
AcDbEntity
  8
GAIKEI
  6
Continuous
100
AcDbLine
 10
26.09786321797151
 20
13.23529181055028
 30
0.0
 11
25.87786321797103
 21
13.01529181055002
 31
0.0
  0
LINE
  5
3C1
330
2
100
AcDbEntity
  8
GAIKEI
  6
Continuous
100
AcDbLine
 10
24.74786321797194
 20
13.38529181055014
 30
0.0
 11
25.14787031485525
 21
13.38528950798707
 31
0.0
  0
LINE
  5
3C2
330
2
100
AcDbEntity
  8
GAIKEI
  6
Continuous
100
AcDbLine
 10
25.67786350287907
 20
12.96529181055018
 30
0.0
 11
24.74786344256927
 21
12.96529181055018
 31
0.0
  0
LINE
  5
3C3
330
2
100
AcDbEntity
  8
GAIKEI
  6
Continuous
100
AcDbLine
 10
26.09786321796787
 20
13.38529152563899
 30
0.0
 11
26.09786328024325
 21
13.38529153793968
 31
0.0
  0
LINE
  5
3C4
330
2
100
AcDbEntity
  8
GAIKEI
  6
Continuous
100
AcDbLine
 10
26.29786393652921
 20
4.585292849368386
 30
0.0
 11
26.19786393652919
 21
4.685292849368408
 31
0.0
  0
LINE
  5
3C5
330
2
100
AcDbEntity
  8
GAIKEI
  6
Continuous
100
AcDbLine
 10
-45.99471347282269
 20
4.585291258319898
 30
0.0
 11
-45.99471347282269
 21
13.38529125831985
 31
0.0
  0
LINE
  5
3C6
330
2
100
AcDbEntity
  8
GAIKEI
  6
Continuous
100
AcDbLine
 10
-7.986092607038131
 20
3.625810349056905
 30
0.0
 11
-7.894713472822786
 21
4.585291258319898
 31
0.0
  0
LINE
  5
3C7
330
2
100
AcDbEntity
  8
GAIKEI
  6
Continuous
100
AcDbLine
 10
-10.0947134728226
 20
4.585291258319898
 30
0.0
 11
-10.00333433860714
 21
3.625810349056905
 31
0.0
  0
LINE
  5
3C8
330
2
100
AcDbEntity
  8
GAIKEI
  6
Continuous
100
AcDbLine
 10
-45.99471347282269
 20
13.38529125831985
 30
0.0
 11
-3.994713472822695
 21
13.38529125831985
 31
0.0
  0
LINE
  5
3C9
330
2
100
AcDbEntity
  8
GAIKEI
  6
Continuous
100
AcDbLine
 10
-3.994713472822695
 20
13.38529125831985
 30
0.0
 11
-3.994713472822695
 21
4.585291258319898
 31
0.0
  0
LINE
  5
3CA
330
2
100
AcDbEntity
  8
GAIKEI
  6
Continuous
100
AcDbLine
 10
-3.994713472822695
 20
4.585291258319898
 30
0.0
 11
-45.99471347282269
 21
4.585291258319898
 31
0.0
  0
LINE
  5
3CB
330
2
100
AcDbEntity
  8
GAIKEI
  6
Continuous
100
AcDbLine
 10
-3.994713472822695
 20
13.38529125831985
 30
0.0
 11
-3.994713472822695
 21
4.585291258319898
 31
0.0
  0
LINE
  5
3CC
330
2
100
AcDbEntity
  8
GAIKEI
  6
Continuous
100
AcDbLine
 10
-45.99471347282269
 20
13.38529125831985
 30
0.0
 11
-3.994713472822695
 21
13.38529125831985
 31
0.0
  0
LINE
  5
3CD
330
2
100
AcDbEntity
  8
GAIKEI
  6
Continuous
100
AcDbLine
 10
-41.9037847913479
 20
3.535291258319603
 30
0.0
 11
-40.08564215429737
 21
3.535291258319603
 31
0.0
  0
LINE
  5
3CE
330
2
100
AcDbEntity
  8
GAIKEI
  6
Continuous
100
AcDbLine
 10
-42.0947134728226
 20
4.585291258319898
 30
0.0
 11
-42.00333433860715
 21
3.625810349056905
 31
0.0
  0
LINE
  5
3CF
330
2
100
AcDbEntity
  8
GAIKEI
  6
Continuous
100
AcDbLine
 10
-39.98609260703825
 20
3.625810349056905
 30
0.0
 11
-39.89471347282279
 21
4.585291258319898
 31
0.0
  0
LINE
  5
3D0
330
2
100
AcDbEntity
  8
GAIKEI
  6
S10
 62
     1
100
AcDbLine
 10
-3.764713472822791
 20
4.585291258319898
 30
0.0
 11
-3.764713472822791
 21
13.38529125831985
 31
0.0
  0
LINE
  5
3D1
330
2
100
AcDbEntity
  8
GAIKEI
  6
HIDDEN2
 62
     1
100
AcDbLine
 10
-1.944713472822741
 20
5.485291258319989
 30
0.0
 11
-1.544713472822763
 21
5.485291258319989
 31
0.0
  0
LINE
  5
3D2
330
2
100
AcDbEntity
  8
GAIKEI
  6
HIDDEN2
 62
     1
100
AcDbLine
 10
-1.944713472822741
 20
4.885291258319909
 30
0.0
 11
-1.544713472822763
 21
4.885291258319909
 31
0.0
  0
LINE
  5
3D3
330
2
100
AcDbEntity
  8
GAIKEI
  6
HIDDEN2
 62
     1
100
AcDbLine
 10
-1.544713472822763
 20
12.48529125831987
 30
0.0
 11
-1.944713472822741
 21
12.48529125831987
 31
0.0
  0
LINE
  5
3D4
330
2
100
AcDbEntity
  8
GAIKEI
  6
HIDDEN2
 62
     1
100
AcDbLine
 10
-1.544713472822763
 20
13.0852912583199
 30
0.0
 11
-1.944713472822741
 21
13.0852912583199
 31
0.0
  0
LINE
  5
3D5
330
2
100
AcDbEntity
  8
GAIKEI
  6
S10
 62
     1
100
AcDbLine
 10
-48.44471347282274
 20
5.485291258319989
 30
0.0
 11
-48.04471347282277
 21
5.485291258319989
 31
0.0
  0
LINE
  5
3D6
330
2
100
AcDbEntity
  8
GAIKEI
  6
S10
 62
     1
100
AcDbLine
 10
-48.44471347282274
 20
4.885291258319909
 30
0.0
 11
-48.04471347282277
 21
4.885291258319909
 31
0.0
  0
LINE
  5
3D7
330
2
100
AcDbEntity
  8
GAIKEI
  6
S10
 62
     1
100
AcDbLine
 10
-48.04471347282277
 20
12.48529125831987
 30
0.0
 11
-48.44471347282274
 21
12.48529125831987
 31
0.0
  0
LINE
  5
3D8
330
2
100
AcDbEntity
  8
GAIKEI
  6
S10
 62
     1
100
AcDbLine
 10
-48.04471347282277
 20
13.0852912583199
 30
0.0
 11
-48.44471347282274
 21
13.0852912583199
 31
0.0
  0
LINE
  5
3D9
330
2
100
AcDbEntity
  8
GAIKEI
  6
HIDDEN2
 62
     1
100
AcDbLine
 10
-45.99471347282269
 20
4.585291258319898
 30
0.0
 11
-48.79471347282265
 21
4.585291258319898
 31
0.0
  0
LINE
  5
3DA
330
2
100
AcDbEntity
  8
GAIKEI
  6
S10
 62
     1
100
AcDbLine
 10
-46.22471347282271
 20
13.38529125831985
 30
0.0
 11
-46.22471347282271
 21
4.585291258319898
 31
0.0
  0
LINE
  5
3DB
330
2
100
AcDbEntity
  8
GAIKEI
  6
HIDDEN2
 62
     1
100
AcDbLine
 10
-48.79471347282265
 20
13.38529125831985
 30
0.0
 11
-45.99471347282269
 21
13.38529125831985
 31
0.0
  0
LINE
  5
3DC
330
2
100
AcDbEntity
  8
GAIKEI
  6
Continuous
100
AcDbLine
 10
-3.994713472822695
 20
4.585291258319898
 30
0.0
 11
-45.99471347282269
 21
4.585291258319898
 31
0.0
  0
LINE
  5
3DD
330
2
100
AcDbEntity
  8
GAIKEI
  6
Continuous
100
AcDbLine
 10
-3.994713472822695
 20
8.985291258319762
 30
0.0
 11
-3.994713472822695
 21
4.585291258319898
 31
0.0
  0
LINE
  5
3DE
330
2
100
AcDbEntity
  8
GAIKEI
  6
Continuous
100
AcDbLine
 10
-3.994713472822695
 20
4.585291258319898
 30
0.0
 11
-45.99471347282269
 21
4.585291258319898
 31
0.0
  0
LINE
  5
3DF
330
2
100
AcDbEntity
  8
GAIKEI
  6
Continuous
100
AcDbLine
 10
-45.99471347282269
 20
4.585291258319898
 30
0.0
 11
-45.99471347282269
 21
8.985291258319762
 31
0.0
  0
LINE
  5
3E0
330
2
100
AcDbEntity
  8
GAIKEI
  6
Continuous
100
AcDbLine
 10
-45.99471347282269
 20
13.38529125831985
 30
0.0
 11
-3.994713472822695
 21
13.38529125831985
 31
0.0
  0
LINE
  5
3E1
330
2
100
AcDbEntity
  8
GAIKEI
  6
Continuous
 62
     1
100
AcDbLine
 10
-45.99471347282269
 20
13.28529125831983
 30
0.0
 11
-3.994713472822695
 21
13.28529125831983
 31
0.0
  0
LINE
  5
3E2
330
2
100
AcDbEntity
  8
GAIKEI
  6
Continuous
 62
     1
100
AcDbLine
 10
55.84786344256929
 20
6.905291258320517
 30
0.0
 11
27.54786344256923
 21
6.905291810549897
 31
0.0
  0
LINE
  5
3E3
330
2
100
AcDbEntity
  8
GAIKEI
  6
Continuous
 62
     1
100
AcDbLine
 10
55.84786344256929
 20
5.705291258320471
 30
0.0
 11
27.54786344256923
 21
5.705291810549965
 31
0.0
  0
LINE
  5
3E4
330
2
100
AcDbEntity
  8
GAIKEI
  6
Continuous
 62
     1
100
AcDbLine
 10
55.84786344256929
 20
7.255291258320426
 30
0.0
 11
27.54786344256923
 21
7.25529181054992
 31
0.0
  0
LINE
  5
3E5
330
2
100
AcDbEntity
  8
GAIKEI
  6
Continuous
 62
     1
100
AcDbLine
 10
55.84786344256929
 20
5.355291258320562
 30
0.0
 11
27.54786344256923
 21
5.355291810549829
 31
0.0
  0
LINE
  5
3E6
330
2
100
AcDbEntity
  8
GAIKEI
  6
Continuous
100
AcDbLine
 10
58.36786343803044
 20
13.38529381125556
 30
0.0
 11
26.09786321796787
 21
13.38529152563899
 31
0.0
  0
LINE
  5
3E7
330
2
100
AcDbEntity
  8
GAIKEI
  6
Continuous
100
AcDbLine
 10
23.81786393652896
 20
4.685292849368408
 30
0.0
 11
58.23786274689848
 21
4.68531765894653
 31
0.0
  0
LINE
  5
3E8
330
2
100
AcDbEntity
  8
GAIKEI
  6
Continuous
 62
     1
100
AcDbLine
 10
-5.04471347282265
 20
12.98529125831976
 30
0.0
 11
-40.08577150604253
 21
12.98529125831976
 31
0.0
  0
LINE
  5
3E9
330
2
100
AcDbEntity
  8
GAIKEI
  6
Continuous
 62
     1
100
AcDbLine
 10
-15.11971347282269
 20
5.085291258319784
 30
0.0
 11
-15.31971347282263
 21
5.085291258319784
 31
0.0
  0
LINE
  5
3EA
330
2
100
AcDbEntity
  8
GAIKEI
  6
Continuous
 62
     1
100
AcDbLine
 10
-15.31971347282263
 20
6.01904760607988
 30
0.0
 11
-15.11971347282269
 21
6.019049498849767
 31
0.0
  0
LINE
  5
3EB
330
2
100
AcDbEntity
  8
GAIKEI
  6
Continuous
 62
     1
100
AcDbLine
 10
-15.11971347282269
 20
6.019049498849767
 30
0.0
 11
-15.11971347282269
 21
5.085291258319784
 31
0.0
  0
LINE
  5
3EC
330
2
100
AcDbEntity
  8
GAIKEI
  6
Continuous
 62
     1
100
AcDbLine
 10
-35.06971347282263
 20
6.01904760607988
 30
0.0
 11
-35.26971347282267
 21
6.01904760607988
 31
0.0
  0
DIMENSION
  5
3ED
330
2
100
AcDbEntity
  8
SUNPO
100
AcDbDimension
  2
*D4
 10
58.44786321797198
 20
21.37207387654405
 30
0.0
 11
40.94786321797198
 21
23.12207387654405
 31
0.0
 70
    33
  1
350
 71
     5
 42
35.0
  3
STANDARD
100
AcDbAlignedDimension
 13
23.44786321797199
 23
13.37207387654405
 33
0.0
 14
58.44786321797198
 24
13.37207387654405
 34
0.0
1001
ACAD
1000
DSTYLE
1002
{
1070
    40
1040
1.0
1070
   140
1040
2.5
1070
   147
1040
0.5
1070
   172
1070
     1
1002
}
  0
LINE
  5
3FA
330
2
100
AcDbEntity
  8
GAIKEI
 62
     1
100
AcDbLine
 10
-39.09769681902276
 20
12.88529125831985
 30
0.0
 11
-38.39119396693888
 21
12.98529125831976
 31
0.0
  0
ARC
  5
3FB
330
2
100
AcDbEntity
  8
GAIKEI
 62
     1
100
AcDbCircle
 10
-35.22703332963522
 20
-1.905696207250002
 30
0.0
 40
7.990987802307673
100
AcDbArc
 50
89.98336650945756
 51
118.9717542477351
  0
ELLIPSE
  5
3FC
330
2
100
AcDbEntity
  8
GAIKEI
 62
     1
100
AcDbEllipse
 10
-42.54471347282276
 20
10.0852912583199
 30
0.0
 11
0.4500000094901219
 21
-0.0000000101399564
 31
0.0
210
0.0
220
0.0
230
1.0
 40
0.3333330580148846
 41
0.0
 42
6.283185307179586
  0
ELLIPSE
  5
3FD
330
2
100
AcDbEntity
  8
GAIKEI
 62
     1
100
AcDbEllipse
 10
-42.54471347285289
 20
8.685291257319818
 30
0.0
 11
0.4500000094901219
 21
-0.0000000101399564
 31
0.0
210
0.0
220
0.0
230
1.0
 40
0.3333330580148846
 41
0.0
 42
6.283185307179586
  0
ELLIPSE
  5
3FE
330
2
100
AcDbEntity
  8
GAIKEI
 62
     1
100
AcDbEllipse
 10
-42.54471347615299
 20
6.385291199759763
 30
0.0
 11
0.4500000094901219
 21
-0.0000000101399564
 31
0.0
210
0.0
220
0.0
230
1.0
 40
0.3333330580148846
 41
0.0
 42
6.283185307179586
  0
ELLIPSE
  5
3FF
330
2
100
AcDbEntity
  8
GAIKEI
 62
     1
100
AcDbEllipse
 10
-38.8947134728329
 20
8.685291258319807
 30
0.0
 11
0.4500000094901219
 21
-0.0000000101399564
 31
0.0
210
0.0
220
0.0
230
1.0
 40
0.3333330580148846
 41
0.0
 42
6.283185307179586
  0
ELLIPSE
  5
400
330
2
100
AcDbEntity
  8
GAIKEI
 62
     1
100
AcDbEllipse
 10
-37.29471347283288
 20
8.685291258319807
 30
0.0
 11
0.4500000094901219
 21
-0.0000000101399564
 31
0.0
210
0.0
220
0.0
230
1.0
 40
0.3333330580148846
 41
0.0
 42
6.283185307179586
  0
ELLIPSE
  5
401
330
2
100
AcDbEntity
  8
GAIKEI
 62
     1
100
AcDbEllipse
 10
-35.69471347283297
 20
8.685291250049772
 30
0.0
 11
0.4500000094901219
 21
-0.0000000101399564
 31
0.0
210
0.0
220
0.0
230
1.0
 40
0.3333330580148846
 41
0.0
 42
6.283185307179586
  0
ELLIPSE
  5
402
330
2
100
AcDbEntity
  8
GAIKEI
 62
     1
100
AcDbEllipse
 10
-34.09471347283284
 20
8.685291258319807
 30
0.0
 11
0.4500000094901219
 21
-0.0000000101399564
 31
0.0
210
0.0
220
0.0
230
1.0
 40
0.3333330580148846
 41
0.0
 42
6.283185307179586
  0
ELLIPSE
  5
403
330
2
100
AcDbEntity
  8
GAIKEI
 62
     1
100
AcDbEllipse
 10
-32.49471347283293
 20
8.685291258319807
 30
0.0
 11
0.4500000094901219
 21
-0.0000000101399564
 31
0.0
210
0.0
220
0.0
230
1.0
 40
0.3333330580148846
 41
0.0
 42
6.283185307179586
  0
LINE
  5
404
330
2
100
AcDbEntity
  8
GAIKEI
  6
Phantom
 62
     1
100
AcDbLine
 10
-9.428835749813288
 20
9.846900647650159
 30
0.0
 11
-9.428763248953373
 21
9.846028094290204
 31
0.0
  0
LINE
  5
405
330
2
100
AcDbEntity
  8
GAIKEI
  6
Continuous
 62
     1
100
AcDbLine
 10
-10.30201293118273
 20
12.9352912583198
 30
0.0
 11
-10.24809804025278
 21
12.9352912583198
 31
0.0
  0
LINE
  5
406
330
2
100
AcDbEntity
  8
GAIKEI
  6
Continuous
 62
     1
100
AcDbLine
 10
-10.29208966864269
 20
12.86066995319982
 30
0.0
 11
-10.23888883380255
 21
12.86066995319982
 31
0.0
  0
LINE
  5
407
330
2
100
AcDbEntity
  8
GAIKEI
  6
Continuous
 62
     1
100
AcDbLine
 10
-10.30201293118273
 20
12.88529125831985
 30
0.0
 11
-10.30201293118273
 21
12.98529125831976
 31
0.0
  0
LINE
  5
408
330
2
100
AcDbEntity
  8
GAIKEI
  6
Continuous
 62
     1
100
AcDbLine
 10
-10.30201293118273
 20
4.985291258319819
 30
0.0
 11
-10.30201293118273
 21
5.085291258319784
 31
0.0
  0
LINE
  5
409
330
2
100
AcDbEntity
  8
GAIKEI
  6
Continuous
 62
     1
100
AcDbLine
 10
-10.24809804025278
 20
12.88529125831985
 30
0.0
 11
-10.24809804025278
 21
12.98529125831976
 31
0.0
  0
LINE
  5
40A
330
2
100
AcDbEntity
  8
GAIKEI
  6
Continuous
 62
     1
100
AcDbLine
 10
-10.24809804025278
 20
4.985291258319819
 30
0.0
 11
-10.24809804025278
 21
5.085291258319784
 31
0.0
  0
ARC
  5
40B
330
2
100
AcDbEntity
  8
GAIKEI
  6
Continuous
 62
     1
100
AcDbCircle
 10
-19.94307096440264
 20
8.985291258319762
 30
0.0
 40
10.4
100
AcDbArc
 50
337.9756871630001
 51
22.02431283699997
  0
ARC
  5
40C
330
2
100
AcDbEntity
  8
GAIKEI
  6
Continuous
 62
     1
100
AcDbCircle
 10
-19.94307096440264
 20
8.985291258319762
 30
0.0
 40
10.45
100
AcDbArc
 50
338.0865399486964
 51
21.91346005130354
  0
ARC
  5
40D
330
2
100
AcDbEntity
  8
GAIKEI
 62
     1
100
AcDbCircle
 10
-30.14106323034696
 20
8.985291258319762
 30
0.0
 40
10.41359507297155
100
AcDbArc
 50
350.3534705230486
 51
9.646529476944845
  0
ARC
  5
40E
330
2
100
AcDbEntity
  8
GAIKEI
 62
     1
100
AcDbCircle
 10
-20.24836371529864
 20
8.985291258319762
 30
0.0
 40
10.41359507297155
100
AcDbArc
 50
170.3534705230551
 51
189.6465294769448
  0
LINE
  5
40F
330
2
100
AcDbEntity
  8
GAIKEI
  6
Continuous
 62
     1
100
AcDbLine
 10
-30.51471347282291
 20
10.73029125831988
 30
0.0
 11
-30.51471347282279
 21
7.240291258319757
 31
0.0
  0
LINE
  5
410
330
2
100
AcDbEntity
  8
GAIKEI
 62
     1
100
AcDbLine
 10
-16.74471347282269
 20
8.26244964357977
 30
0.0
 11
-16.94471347282263
 21
7.835291258319898
 31
0.0
  0
LINE
  5
411
330
2
100
AcDbEntity
  8
GAIKEI
 62
     1
100
AcDbLine
 10
-17.14471347282222
 20
8.26244964357977
 30
0.0
 11
-16.94471347282263
 21
7.835291258319898
 31
0.0
  0
LINE
  5
412
330
2
100
AcDbEntity
  8
GAIKEI
 62
     1
100
AcDbLine
 10
-17.66755508756273
 20
8.785291258320171
 30
0.0
 11
-18.09471347282272
 21
8.985291258319762
 31
0.0
  0
LINE
  5
413
330
2
100
AcDbEntity
  8
GAIKEI
 62
     1
100
AcDbLine
 10
-18.09471347282272
 20
8.985291258319762
 30
0.0
 11
-17.66755508756262
 21
9.185291258319807
 31
0.0
  0
LINE
  5
414
330
2
100
AcDbEntity
  8
GAIKEI
 62
     1
100
AcDbLine
 10
-16.94471347282274
 20
10.13529125831974
 30
0.0
 11
-17.14471347282267
 21
9.708132873059753
 31
0.0
  0
LINE
  5
415
330
2
100
AcDbEntity
  8
GAIKEI
 62
     1
100
AcDbLine
 10
-16.94471347282274
 20
10.13529125831985
 30
0.0
 11
-16.74471347282269
 21
9.708132873059867
 31
0.0
  0
LINE
  5
416
330
2
100
AcDbEntity
  8
GAIKEI
 62
     1
100
AcDbLine
 10
-16.22187185808275
 20
9.185291258319807
 30
0.0
 11
-15.79471347282265
 21
8.985291258319875
 31
0.0
  0
LINE
  5
417
330
2
100
AcDbEntity
  8
GAIKEI
 62
     1
100
AcDbLine
 10
-15.79471347282265
 20
8.985291258319875
 30
0.0
 11
-16.22187185808275
 21
8.785291258319944
 31
0.0
  0
CIRCLE
  5
418
330
2
100
AcDbEntity
  8
GAIKEI
 62
     1
100
AcDbCircle
 10
-13.84471347282272
 20
8.985291258319762
 30
0.0
 40
0.6299999999999777
  0
CIRCLE
  5
419
330
2
100
AcDbEntity
  8
GAIKEI
 62
     1
100
AcDbCircle
 10
-12.04471347282276
 20
8.985291258319762
 30
0.0
 40
0.6299999999999777
  0
LINE
  5
41A
330
2
100
AcDbEntity
  8
GAIKEI
  6
Continuous
 62
     1
100
AcDbLine
 10
-5.04471347282265
 20
12.98529125831976
 30
0.0
 11
-5.04471347282265
 21
4.985291258319819
 31
0.0
  0
ARC
  5
41B
330
2
100
AcDbEntity
  8
GAIKEI
 62
     1
100
AcDbCircle
 10
-35.22324436526799
 20
19.8909810873846
 30
0.0
 40
8.005689963861202
100
AcDbArc
 50
241.0554898577689
 51
269.9894857703222
  0
ARC
  5
41C
330
2
100
AcDbEntity
  8
GAIKEI
 62
     1
100
AcDbCircle
 10
-15.16618258037761
 20
19.8909810873846
 30
0.0
 40
8.005689963861202
100
AcDbArc
 50
270.0105142296778
 51
298.944510142231
  0
LINE
  5
41D
330
2
100
AcDbEntity
  8
GAIKEI
 62
     1
100
AcDbLine
 10
-11.29173012662284
 20
12.88529125831985
 30
0.0
 11
-11.99823297870671
 21
12.98529125831976
 31
0.0
  0
ELLIPSE
  5
41E
330
2
100
AcDbEntity
  8
GAIKEI
 62
     1
100
AcDbEllipse
 10
-28.74471347282258
 20
12.98529125831976
 30
0.0
 11
0.0000065575891419
 21
-1.050028311288428
 31
0.0
210
0.0
220
0.0
230
1.0
 40
0.1883119117025167
 41
4.712387804347687
 42
7.85398045793748
  0
ELLIPSE
  5
41F
330
2
100
AcDbEntity
  8
GAIKEI
 62
     1
100
AcDbEllipse
 10
-26.34470691520267
 20
12.98529056526979
 30
0.0
 11
0.0000065575891419
 21
-1.050028311288428
 31
0.0
210
0.0
220
0.0
230
1.0
 40
0.1883119117025167
 41
4.712387804347687
 42
7.85398045793748
  0
ELLIPSE
  5
420
330
2
100
AcDbEntity
  8
GAIKEI
 62
     1
100
AcDbEllipse
 10
-23.94472019792249
 20
12.98529054867981
 30
0.0
 11
0.0000065575891419
 21
-1.050028311288428
 31
0.0
210
0.0
220
0.0
230
1.0
 40
0.1883119117025167
 41
4.712387804347687
 42
7.85398045793748
  0
ELLIPSE
  5
421
330
2
100
AcDbEntity
  8
GAIKEI
 62
     1
100
AcDbEllipse
 10
-21.54472019792252
 20
12.98529054867981
 30
0.0
 11
0.0000065575891419
 21
-1.050028311288428
 31
0.0
210
0.0
220
0.0
230
1.0
 40
0.1883119117025167
 41
4.712387804347687
 42
7.85398045793748
  0
LINE
  5
422
330
2
100
AcDbEntity
  8
GAIKEI
 62
     1
100
AcDbLine
 10
-35.96971347282272
 20
5.085291258319898
 30
0.0
 11
-35.96971347282272
 21
5.983633818409884
 31
0.0
  0
LINE
  5
423
330
2
100
AcDbEntity
  8
GAIKEI
 62
     1
100
AcDbLine
 10
-35.96971347282272
 20
5.983633818409884
 30
0.0
 11
-35.76971347282267
 21
6.000097456239814
 31
0.0
  0
LINE
  5
424
330
2
100
AcDbEntity
  8
GAIKEI
 62
     1
100
AcDbLine
 10
-35.76971347282267
 20
5.085291258319898
 30
0.0
 11
-35.96971347282272
 21
5.085291258309894
 31
0.0
  0
LINE
  5
425
330
2
100
AcDbEntity
  8
GAIKEI
 62
     1
100
AcDbLine
 10
-36.1197134728227
 20
5.085291258319898
 30
0.0
 11
-36.31971347282274
 21
5.085291258309894
 31
0.0
  0
LINE
  5
426
330
2
100
AcDbEntity
  8
GAIKEI
 62
     1
100
AcDbLine
 10
-36.4697134728126
 20
5.085291258309894
 30
0.0
 11
-36.66971347281265
 21
5.085291258299889
 31
0.0
  0
LINE
  5
427
330
2
100
AcDbEntity
  8
GAIKEI
 62
     1
100
AcDbLine
 10
-36.81971347276272
 20
5.085291258259871
 30
0.0
 11
-37.01971347276265
 21
5.085291258249867
 31
0.0
  0
LINE
  5
428
330
2
100
AcDbEntity
  8
GAIKEI
 62
     1
100
AcDbLine
 10
-36.31971347282274
 20
5.085291258319898
 30
0.0
 11
-36.31971347282274
 21
5.942382626169887
 31
0.0
  0
LINE
  5
429
330
2
100
AcDbEntity
  8
GAIKEI
 62
     1
100
AcDbLine
 10
-36.31971347282274
 20
5.942382626169887
 30
0.0
 11
-36.11971347281258
 21
5.967900202289797
 31
0.0
  0
LINE
  5
42A
330
2
100
AcDbEntity
  8
GAIKEI
 62
     1
100
AcDbLine
 10
-36.11971347281258
 20
5.967900202289797
 30
0.0
 11
-36.1197134728227
 21
5.085291258319898
 31
0.0
  0
LINE
  5
42B
330
2
100
AcDbEntity
  8
GAIKEI
 62
     1
100
AcDbLine
 10
-35.76971347282267
 20
6.000097456239814
 30
0.0
 11
-35.76971347282267
 21
5.085291258319898
 31
0.0
  0
LINE
  5
42C
330
2
100
AcDbEntity
  8
GAIKEI
 62
     1
100
AcDbLine
 10
-36.66971347282265
 20
5.085291258319898
 30
0.0
 11
-36.66971347283265
 21
5.885116796769807
 31
0.0
  0
LINE
  5
42D
330
2
100
AcDbEntity
  8
GAIKEI
 62
     1
100
AcDbLine
 10
-36.66971347283265
 20
5.885116796769807
 30
0.0
 11
-36.4697134728126
 21
5.919817207149776
 31
0.0
  0
LINE
  5
42E
330
2
100
AcDbEntity
  8
GAIKEI
 62
     1
100
AcDbLine
 10
-36.4697134728126
 20
5.919817207149776
 30
0.0
 11
-36.46971347282272
 21
5.085291258319898
 31
0.0
  0
LINE
  5
42F
330
2
100
AcDbEntity
  8
GAIKEI
 62
     1
100
AcDbLine
 10
-37.01971347276265
 20
5.085291258249867
 30
0.0
 11
-37.01971347283268
 21
5.811471759589835
 31
0.0
  0
LINE
  5
430
330
2
100
AcDbEntity
  8
GAIKEI
 62
     1
100
AcDbLine
 10
-37.01971347283268
 20
5.811471759589835
 30
0.0
 11
-36.81971347280262
 21
5.855589745509746
 31
0.0
  0
LINE
  5
431
330
2
100
AcDbEntity
  8
GAIKEI
 62
     1
100
AcDbLine
 10
-36.81971347280262
 20
5.855589745509746
 30
0.0
 11
-36.81971347276272
 21
5.085291258259871
 31
0.0
  0
LINE
  5
432
330
2
100
AcDbEntity
  8
GAIKEI
 62
     1
100
AcDbLine
 10
-37.36971347275267
 20
5.085291258239863
 30
0.0
 11
-37.3697134728227
 21
5.688469705639704
 31
0.0
  0
LINE
  5
433
330
2
100
AcDbEntity
  8
GAIKEI
 62
     1
100
AcDbLine
 10
-37.3697134728227
 20
5.688469705639704
 30
0.0
 11
-37.16971347282265
 21
5.742081536259888
 31
0.0
  0
LINE
  5
434
330
2
100
AcDbEntity
  8
GAIKEI
 62
     1
100
AcDbLine
 10
-37.16971347282265
 20
5.742081536259888
 30
0.0
 11
-37.16971347282265
 21
5.085291258319898
 31
0.0
  0
LINE
  5
435
330
2
100
AcDbEntity
  8
GAIKEI
 62
     1
100
AcDbLine
 10
-37.16971347282265
 20
5.085291258319898
 30
0.0
 11
-37.36971347275267
 21
5.085291258239863
 31
0.0
  0
LINE
  5
436
330
2
100
AcDbEntity
  8
GAIKEI
 62
     1
100
AcDbLine
 10
-37.71971347273268
 20
5.085291258239863
 30
0.0
 11
-37.71971347282272
 21
5.580868119269894
 31
0.0
  0
LINE
  5
437
330
2
100
AcDbEntity
  8
GAIKEI
 62
     1
100
AcDbLine
 10
-37.71971347282272
 20
5.580868119269894
 30
0.0
 11
-37.51971347282267
 21
5.644526898879803
 31
0.0
  0
LINE
  5
438
330
2
100
AcDbEntity
  8
GAIKEI
 62
     1
100
AcDbLine
 10
-37.51971347282267
 20
5.644526898879803
 30
0.0
 11
-37.51971347294273
 21
5.085291258409824
 31
0.0
  0
LINE
  5
439
330
2
100
AcDbEntity
  8
GAIKEI
 62
     1
100
AcDbLine
 10
-37.51971347294273
 20
5.085291258409824
 30
0.0
 11
-37.71971347273268
 21
5.085291258239863
 31
0.0
  0
LINE
  5
43A
330
2
100
AcDbEntity
  8
GAIKEI
 62
     1
100
AcDbLine
 10
-38.06971347275271
 20
5.085291258269876
 30
0.0
 11
-38.06971347282274
 21
5.455141880099745
 31
0.0
  0
LINE
  5
43B
330
2
100
AcDbEntity
  8
GAIKEI
 62
     1
100
AcDbLine
 10
-38.06971347282274
 20
5.455141880099745
 30
0.0
 11
-37.8697134728227
 21
5.529251802549879
 31
0.0
  0
LINE
  5
43C
330
2
100
AcDbEntity
  8
GAIKEI
 62
     1
100
AcDbLine
 10
-37.8697134728227
 20
5.529251802549879
 30
0.0
 11
-37.8697134728227
 21
5.085291258319898
 31
0.0
  0
LINE
  5
43D
330
2
100
AcDbEntity
  8
GAIKEI
 62
     1
100
AcDbLine
 10
-38.06971347282274
 20
5.085291258319898
 30
0.0
 11
-37.8697134728227
 21
5.085291258319898
 31
0.0
  0
LINE
  5
43E
330
2
100
AcDbEntity
  8
GAIKEI
 62
     1
100
AcDbLine
 10
-38.41971347287267
 20
5.085291258319898
 30
0.0
 11
-38.41971347282265
 21
5.310344626149685
 31
0.0
  0
LINE
  5
43F
330
2
100
AcDbEntity
  8
GAIKEI
 62
     1
100
AcDbLine
 10
-38.41971347282265
 20
5.310344626149685
 30
0.0
 11
-38.21971347282272
 21
5.395487984359874
 31
0.0
  0
LINE
  5
440
330
2
100
AcDbEntity
  8
GAIKEI
 62
     1
100
AcDbLine
 10
-38.21971347282272
 20
5.395487984359874
 30
0.0
 11
-38.21971347266276
 21
5.085291258329903
 31
0.0
  0
LINE
  5
441
330
2
100
AcDbEntity
  8
GAIKEI
 62
     1
100
AcDbLine
 10
-38.21971347266276
 20
5.085291258329903
 30
0.0
 11
-38.41971347287267
 21
5.085291258319898
 31
0.0
  0
LINE
  5
442
330
2
100
AcDbEntity
  8
GAIKEI
 62
     1
100
AcDbLine
 10
-38.76971347282267
 20
5.085291258319898
 30
0.0
 11
-38.76971347282267
 21
5.145232573899761
 31
0.0
  0
LINE
  5
443
330
2
100
AcDbEntity
  8
GAIKEI
 62
     1
100
AcDbLine
 10
-38.76971347282267
 20
5.145232573899761
 30
0.0
 11
-38.56971347282274
 21
5.242148847939802
 31
0.0
  0
LINE
  5
444
330
2
100
AcDbEntity
  8
GAIKEI
 62
     1
100
AcDbLine
 10
-38.56971347282274
 20
5.242148847939802
 30
0.0
 11
-38.56971347282274
 21
5.085291258319898
 31
0.0
  0
LINE
  5
445
330
2
100
AcDbEntity
  8
GAIKEI
 62
     1
100
AcDbLine
 10
-38.56971347282274
 20
5.085291258319898
 30
0.0
 11
-38.76971347282267
 21
5.085291258319898
 31
0.0
  0
LINE
  5
446
330
2
100
AcDbEntity
  8
GAIKEI
 62
     1
100
AcDbLine
 10
-11.81971347282285
 20
5.085291258319898
 30
0.0
 11
-11.61971347282281
 21
5.085291258319898
 31
0.0
  0
LINE
  5
447
330
2
100
AcDbEntity
  8
GAIKEI
 62
     1
100
AcDbLine
 10
-11.81971347282285
 20
5.242148847939802
 30
0.0
 11
-11.81971347282285
 21
5.085291258319898
 31
0.0
  0
LINE
  5
448
330
2
100
AcDbEntity
  8
GAIKEI
 62
     1
100
AcDbLine
 10
-11.61971347282281
 20
5.145232573899761
 30
0.0
 11
-11.81971347282285
 21
5.242148847939802
 31
0.0
  0
LINE
  5
449
330
2
100
AcDbEntity
  8
GAIKEI
 62
     1
100
AcDbLine
 10
-11.61971347282281
 20
5.085291258319898
 30
0.0
 11
-11.61971347282281
 21
5.145232573899761
 31
0.0
  0
LINE
  5
44A
330
2
100
AcDbEntity
  8
GAIKEI
 62
     1
100
AcDbLine
 10
-12.16971347298283
 20
5.085291258329903
 30
0.0
 11
-11.96971347277281
 21
5.085291258319898
 31
0.0
  0
LINE
  5
44B
330
2
100
AcDbEntity
  8
GAIKEI
 62
     1
100
AcDbLine
 10
-12.16971347282288
 20
5.395487984359874
 30
0.0
 11
-12.16971347298283
 21
5.085291258329903
 31
0.0
  0
LINE
  5
44C
330
2
100
AcDbEntity
  8
GAIKEI
 62
     1
100
AcDbLine
 10
-11.96971347282283
 20
5.310344626149685
 30
0.0
 11
-12.16971347282288
 21
5.395487984359874
 31
0.0
  0
LINE
  5
44D
330
2
100
AcDbEntity
  8
GAIKEI
 62
     1
100
AcDbLine
 10
-11.96971347277281
 20
5.085291258319898
 30
0.0
 11
-11.96971347282283
 21
5.310344626149685
 31
0.0
  0
LINE
  5
44E
330
2
100
AcDbEntity
  8
GAIKEI
 62
     1
100
AcDbLine
 10
-12.31971347282285
 20
5.085291258319898
 30
0.0
 11
-12.51971347282278
 21
5.085291258319898
 31
0.0
  0
LINE
  5
44F
330
2
100
AcDbEntity
  8
GAIKEI
 62
     1
100
AcDbLine
 10
-12.51971347282278
 20
5.529251802549879
 30
0.0
 11
-12.51971347282278
 21
5.085291258319898
 31
0.0
  0
LINE
  5
450
330
2
100
AcDbEntity
  8
GAIKEI
 62
     1
100
AcDbLine
 10
-12.31971347282285
 20
5.455141880099745
 30
0.0
 11
-12.51971347282278
 21
5.529251802549879
 31
0.0
  0
LINE
  5
451
330
2
100
AcDbEntity
  8
GAIKEI
 62
     1
100
AcDbLine
 10
-12.31971347289288
 20
5.085291258269876
 30
0.0
 11
-12.31971347282285
 21
5.455141880099745
 31
0.0
  0
LINE
  5
452
330
2
100
AcDbEntity
  8
GAIKEI
 62
     1
100
AcDbLine
 10
-12.86971347270275
 20
5.085291258409824
 30
0.0
 11
-12.66971347291292
 21
5.085291258239863
 31
0.0
  0
LINE
  5
453
330
2
100
AcDbEntity
  8
GAIKEI
 62
     1
100
AcDbLine
 10
-12.86971347282281
 20
5.644526898879803
 30
0.0
 11
-12.86971347270275
 21
5.085291258409824
 31
0.0
  0
LINE
  5
454
330
2
100
AcDbEntity
  8
GAIKEI
 62
     1
100
AcDbLine
 10
-12.66971347282288
 20
5.580868119269894
 30
0.0
 11
-12.86971347282281
 21
5.644526898879803
 31
0.0
  0
LINE
  5
455
330
2
100
AcDbEntity
  8
GAIKEI
 62
     1
100
AcDbLine
 10
-12.66971347291292
 20
5.085291258239863
 30
0.0
 11
-12.66971347282288
 21
5.580868119269894
 31
0.0
  0
LINE
  5
456
330
2
100
AcDbEntity
  8
GAIKEI
 62
     1
100
AcDbLine
 10
-13.21971347282283
 20
5.085291258319898
 30
0.0
 11
-13.01971347289281
 21
5.085291258239863
 31
0.0
  0
LINE
  5
457
330
2
100
AcDbEntity
  8
GAIKEI
 62
     1
100
AcDbLine
 10
-13.21971347282283
 20
5.742081536259888
 30
0.0
 11
-13.21971347282283
 21
5.085291258319898
 31
0.0
  0
LINE
  5
458
330
2
100
AcDbEntity
  8
GAIKEI
 62
     1
100
AcDbLine
 10
-13.01971347282278
 20
5.688469705639704
 30
0.0
 11
-13.21971347282283
 21
5.742081536259888
 31
0.0
  0
LINE
  5
459
330
2
100
AcDbEntity
  8
GAIKEI
 62
     1
100
AcDbLine
 10
-13.01971347289281
 20
5.085291258239863
 30
0.0
 11
-13.01971347282278
 21
5.688469705639704
 31
0.0
  0
LINE
  5
45A
330
2
100
AcDbEntity
  8
GAIKEI
 62
     1
100
AcDbLine
 10
-13.56971347284298
 20
5.855589745509746
 30
0.0
 11
-13.56971347288288
 21
5.085291258259871
 31
0.0
  0
LINE
  5
45B
330
2
100
AcDbEntity
  8
GAIKEI
 62
     1
100
AcDbLine
 10
-13.3697134728128
 20
5.811471759589835
 30
0.0
 11
-13.56971347284298
 21
5.855589745509746
 31
0.0
  0
LINE
  5
45C
330
2
100
AcDbEntity
  8
GAIKEI
 62
     1
100
AcDbLine
 10
-13.36971347288283
 20
5.085291258249867
 30
0.0
 11
-13.3697134728128
 21
5.811471759589835
 31
0.0
  0
LINE
  5
45D
330
2
100
AcDbEntity
  8
GAIKEI
 62
     1
100
AcDbLine
 10
-13.91971347283288
 20
5.919817207149776
 30
0.0
 11
-13.91971347282288
 21
5.085291258319898
 31
0.0
  0
LINE
  5
45E
330
2
100
AcDbEntity
  8
GAIKEI
 62
     1
100
AcDbLine
 10
-13.71971347281283
 20
5.885116796769807
 30
0.0
 11
-13.91971347283288
 21
5.919817207149776
 31
0.0
  0
LINE
  5
45F
330
2
100
AcDbEntity
  8
GAIKEI
 62
     1
100
AcDbLine
 10
-13.71971347282283
 20
5.085291258319898
 30
0.0
 11
-13.71971347281283
 21
5.885116796769807
 31
0.0
  0
LINE
  5
460
330
2
100
AcDbEntity
  8
GAIKEI
 62
     1
100
AcDbLine
 10
-14.61971347282281
 20
6.000097456239814
 30
0.0
 11
-14.61971347282281
 21
5.085291258319898
 31
0.0
  0
LINE
  5
461
330
2
100
AcDbEntity
  8
GAIKEI
 62
     1
100
AcDbLine
 10
-14.2697134728329
 20
5.967900202289797
 30
0.0
 11
-14.26971347282278
 21
5.085291258319898
 31
0.0
  0
LINE
  5
462
330
2
100
AcDbEntity
  8
GAIKEI
 62
     1
100
AcDbLine
 10
-14.06971347282285
 20
5.942382626169887
 30
0.0
 11
-14.2697134728329
 21
5.967900202289797
 31
0.0
  0
LINE
  5
463
330
2
100
AcDbEntity
  8
GAIKEI
 62
     1
100
AcDbLine
 10
-14.06971347282285
 20
5.085291258319898
 30
0.0
 11
-14.06971347282285
 21
5.942382626169887
 31
0.0
  0
LINE
  5
464
330
2
100
AcDbEntity
  8
GAIKEI
 62
     1
100
AcDbLine
 10
-13.56971347288288
 20
5.085291258259871
 30
0.0
 11
-13.36971347288283
 21
5.085291258249867
 31
0.0
  0
LINE
  5
465
330
2
100
AcDbEntity
  8
GAIKEI
 62
     1
100
AcDbLine
 10
-13.91971347283288
 20
5.085291258309894
 30
0.0
 11
-13.71971347283295
 21
5.085291258299889
 31
0.0
  0
LINE
  5
466
330
2
100
AcDbEntity
  8
GAIKEI
 62
     1
100
AcDbLine
 10
-14.26971347282278
 20
5.085291258319898
 30
0.0
 11
-14.06971347282285
 21
5.085291258309894
 31
0.0
  0
LINE
  5
467
330
2
100
AcDbEntity
  8
GAIKEI
 62
     1
100
AcDbLine
 10
-14.61971347282281
 20
5.085291258319898
 30
0.0
 11
-14.41971347282288
 21
5.085291258309894
 31
0.0
  0
LINE
  5
468
330
2
100
AcDbEntity
  8
GAIKEI
 62
     1
100
AcDbLine
 10
-14.41971347282288
 20
5.983633818409884
 30
0.0
 11
-14.61971347282281
 21
6.000097456239814
 31
0.0
  0
LINE
  5
469
330
2
100
AcDbEntity
  8
GAIKEI
 62
     1
100
AcDbLine
 10
-14.41971347282288
 20
5.085291258319898
 30
0.0
 11
-14.41971347282288
 21
5.983633818409884
 31
0.0
  0
ARC
  5
46A
330
2
100
AcDbEntity
  8
GAIKEI
 62
     1
100
AcDbCircle
 10
-15.16239361601037
 20
-1.905696207250002
 30
0.0
 40
7.990987802307673
100
AcDbArc
 50
61.02824575226486
 51
90.01663349054242
  0
LINE
  5
46B
330
2
100
AcDbEntity
  8
GAIKEI
 62
     1
100
AcDbLine
 10
-35.6197134728227
 20
5.085291258309894
 30
0.0
 11
-35.6197134728227
 21
6.009077569919782
 31
0.0
  0
LINE
  5
46C
330
2
100
AcDbEntity
  8
GAIKEI
 62
     1
100
AcDbLine
 10
-35.6197134728227
 20
6.009077569919782
 30
0.0
 11
-35.41971347282265
 21
6.016584716959755
 31
0.0
  0
LINE
  5
46D
330
2
100
AcDbEntity
  8
GAIKEI
 62
     1
100
AcDbLine
 10
-35.41971347282265
 20
6.016584716959755
 30
0.0
 11
-35.41971347282265
 21
5.085291258319898
 31
0.0
  0
LINE
  5
46E
330
2
100
AcDbEntity
  8
GAIKEI
 62
     1
100
AcDbLine
 10
-35.41971347282265
 20
5.085291258319898
 30
0.0
 11
-35.6197134728227
 21
5.085291258309894
 31
0.0
  0
LINE
  5
46F
330
2
100
AcDbEntity
  8
GAIKEI
 62
     1
100
AcDbLine
 10
-14.96971347282283
 20
5.085291258319898
 30
0.0
 11
-14.76971347282279
 21
5.085291258309894
 31
0.0
  0
LINE
  5
470
330
2
100
AcDbEntity
  8
GAIKEI
 62
     1
100
AcDbLine
 10
-14.96971347282283
 20
6.016584716959755
 30
0.0
 11
-14.96971347282283
 21
5.085291258319898
 31
0.0
  0
LINE
  5
471
330
2
100
AcDbEntity
  8
GAIKEI
 62
     1
100
AcDbLine
 10
-14.7697134728229
 20
6.009077569919782
 30
0.0
 11
-14.96971347282283
 21
6.016584716959755
 31
0.0
  0
LINE
  5
472
330
2
100
AcDbEntity
  8
GAIKEI
 62
     1
100
AcDbLine
 10
-14.76971347282279
 20
5.085291258309894
 30
0.0
 11
-14.7697134728229
 21
6.009077569919782
 31
0.0
  0
TEXT
  5
473
330
2
100
AcDbEntity
  8
MOJI1
100
AcDbText
 10
-55.97494565297643
 20
-37.66721065263261
 30
0.0
 40
3.0
  1
ネットワーク
100
AcDbText
  0
LINE
  5
474
330
2
100
AcDbEntity
  8
WAKU
 62
     1
100
AcDbLine
 10
-58.47494565297643
 20
-43.6672106526326
 30
0.0
 11
66.52505434702357
 21
-43.66721065263265
 31
0.0
  0
LINE
  5
476
330
2
100
AcDbEntity
  8
WAKU
 62
     1
100
AcDbLine
 10
-58.47494565297643
 20
-28.66721065263261
 30
0.0
 11
66.52505434702357
 21
-28.66721065263266
 31
0.0
  0
TEXT
  5
477
330
2
100
AcDbEntity
  8
MOJI1
100
AcDbText
 10
-15.97494565297643
 20
-42.66721065263261
 30
0.0
 40
3.0
  1
１０ＢＡＳＥ－Ｔ／１００ＢＡＳＥ－Ｔｘ （ＲＪ－４５）
 41
0.85
100
AcDbText
  0
TEXT
  5
478
330
2
100
AcDbEntity
  8
MOJI1
100
AcDbText
 10
-15.97494565297643
 20
-37.66721065263261
 30
0.0
 40
3.0
  1
ポート×２（カメラ　ＰＣ用）
100
AcDbText
  0
LINE
  5
479
330
2
100
AcDbEntity
  8
WAKU
 62
     1
100
AcDbLine
 10
-58.47494565297643
 20
-33.66721065263266
 30
0.0
 11
66.52505434702357
 21
-33.66721065263266
 31
0.0
  0
LINE
  5
47A
330
2
100
AcDbEntity
  8
WAKU
 62
     4
100
AcDbLine
 10
-58.47494565297643
 20
-58.66721065263266
 30
0.0
 11
66.52505434702357
 21
-58.66721065263266
 31
0.0
  0
LINE
  5
47B
330
2
100
AcDbEntity
  8
WAKU
 62
     4
100
AcDbLine
 10
66.52505434702357
 20
-13.66721065263266
 30
0.0
 11
-58.47494565297643
 21
-13.66721065263266
 31
0.0
  0
LINE
  5
47C
330
2
100
AcDbEntity
  8
WAKU
 62
     1
100
AcDbLine
 10
-58.47494565297643
 20
-38.66721065263266
 30
0.0
 11
66.52505434702357
 21
-38.66721065263266
 31
0.0
  0
LINE
  5
47D
330
2
100
AcDbEntity
  8
WAKU
 62
     1
100
AcDbLine
 10
-58.47494565297643
 20
-23.66721065263266
 30
0.0
 11
66.52505434702357
 21
-23.66721065263266
 31
0.0
  0
LINE
  5
47E
330
2
100
AcDbEntity
  8
WAKU
 62
     1
100
AcDbLine
 10
-58.47494565297643
 20
-18.66721065263266
 30
0.0
 11
66.52505434702357
 21
-18.66721065263266
 31
0.0
  0
LINE
  5
47F
330
2
100
AcDbEntity
  8
WAKU
 62
     4
100
AcDbLine
 10
-58.47494565297643
 20
-13.66721065263266
 30
0.0
 11
-58.47494565297643
 21
-58.66721065263266
 31
0.0
  0
TEXT
  5
480
330
2
100
AcDbEntity
  8
MOJI1
100
AcDbText
 10
-15.97494565297643
 20
-17.6672106526326
 30
0.0
 40
3.0
  1
ＡＣ１００Ｖ　５０／６０Ｈｚ
100
AcDbText
  0
TEXT
  5
481
330
2
100
AcDbEntity
  8
MOJI1
100
AcDbText
 10
-15.97494565297643
 20
-32.66721065263261
 30
0.0
 40
3.0
  1
１０００ＧＢ（２５０ＧＢ×４）
100
AcDbText
  0
TEXT
  5
482
330
2
100
AcDbEntity
  8
MOJI1
100
AcDbText
 10
-15.97494565297643
 20
-27.66721065263261
 30
0.0
 40
3.0
  1
ＪＰＥＧ、ＭＰＥＧ－４カメラ対応
100
AcDbText
  0
TEXT
  5
483
330
2
100
AcDbEntity
  8
MOJI1
100
AcDbText
 10
-15.97494565297643
 20
-22.66721065263261
 30
0.0
 40
3.0
  1
最大３２台
100
AcDbText
  0
TEXT
  5
484
330
2
100
AcDbEntity
  8
MOJI1
100
AcDbText
 10
-55.97494565297643
 20
-32.66721065263261
 30
0.0
 40
3.0
  1
内蔵ハードディスク
100
AcDbText
  0
TEXT
  5
485
330
2
100
AcDbEntity
  8
MOJI1
100
AcDbText
 10
-55.97494565297643
 20
-17.6672106526326
 30
0.0
 40
3.0
  1
電　源
100
AcDbText
  0
TEXT
  5
486
330
2
100
AcDbEntity
  8
MOJI1
100
AcDbText
 10
-55.97494565297643
 20
-27.66721065263261
 30
0.0
 40
3.0
  1
カメラの画像圧縮方式
100
AcDbText
  0
TEXT
  5
487
330
2
100
AcDbEntity
  8
MOJI1
100
AcDbText
 10
-55.97494565297643
 20
-22.66721065263261
 30
0.0
 40
3.0
  1
カメラ接続台数
100
AcDbText
  0
LINE
  5
488
330
2
100
AcDbEntity
  8
WAKU
 62
     4
100
AcDbLine
 10
-18.47494565297643
 20
-58.66721065263266
 30
0.0
 11
-18.47494565297643
 21
-13.66721065263266
 31
0.0
  0
LINE
  5
489
330
2
100
AcDbEntity
  8
WAKU
 62
     4
100
AcDbLine
 10
66.52505434702357
 20
-58.66721065263266
 30
0.0
 11
66.52505434702357
 21
-13.66721065263266
 31
0.0
  0
LINE
  5
48A
330
2
100
AcDbEntity
  8
WAKU
 62
     1
100
AcDbLine
 10
-58.47494565297643
 20
-48.6672106526326
 30
0.0
 11
66.52505434702357
 21
-48.66721065263266
 31
0.0
  0
LINE
  5
48B
330
2
100
AcDbEntity
  8
WAKU
 62
     1
100
AcDbLine
 10
-58.47494565297643
 20
-53.6672106526326
 30
0.0
 11
66.52505434702357
 21
-53.66721065263266
 31
0.0
  0
TEXT
  5
48C
330
2
100
AcDbEntity
  8
MOJI1
100
AcDbText
 10
-55.97494565297643
 20
-47.66721065263261
 30
0.0
 40
3.0
  1
増設端子
100
AcDbText
  0
TEXT
  5
48D
330
2
100
AcDbEntity
  8
MOJI1
100
AcDbText
 10
-55.97494565297643
 20
-52.66721065263261
 30
0.0
 40
3.0
  1
機　能
100
AcDbText
  0
TEXT
  5
48E
330
2
100
AcDbEntity
  8
MOJI1
100
AcDbText
 10
-15.97494565297644
 20
-47.66721065263263
 30
0.0
 40
3.0
  1
高速シリアルインターフェース(増設ＨＤＤ用)
100
AcDbText
  0
TEXT
  5
48F
330
2
100
AcDbEntity
  8
MOJI1
100
AcDbText
 10
-15.97494565297644
 20
-52.66721065263263
 30
0.0
 40
3.0
  1
アラーム入力（１６）、マルチレコーディング
100
AcDbText
  0
TEXT
  5
490
330
2
100
AcDbEntity
  8
MOJI1
100
AcDbText
 10
-15.97494565297644
 20
-57.66721065263263
 30
0.0
 40
3.0
  1
ユーザー及びホスト認証、スケジュール録画
100
AcDbText
  0
ENDSEC
  0
SECTION
  2
OBJECTS
  0
DICTIONARY
  5
9
330
0
100
AcDbDictionary
281
     1
  3
ACAD_COLOR
350
2A
  3
ACAD_GROUP
350
26
  3
ACAD_LAYOUT
350
D
  3
ACAD_MATERIAL
350
29
  3
ACAD_MLINESTYLE
350
27
  3
ACAD_PLOTSETTINGS
350
28
  3
ACAD_PLOTSTYLENAME
350
8
  3
ACDBHEADERROUNDTRIPXREC
350
4CD
  3
AcDbVariableDictionary
350
4C8
  0
DICTIONARY
  5
15
330
14
100
AcDbDictionary
280
     1
281
     1
  3
ACAD_LAYERFILTERS
360
16
  3
ACAD_LAYERSTATES
360
17
  0
DICTIONARY
  5
3
330
2
100
AcDbDictionary
280
     1
281
     1
  3
ACAD_LAYOUTSELFREF
360
4
  0
DICTIONARY
  5
F
330
E
100
AcDbDictionary
280
     1
281
     1
  3
ACAD_LAYOUTSELFREF
360
10
  0
DICTIONARY
  5
2A
102
{ACAD_REACTORS
330
9
102
}
330
9
100
AcDbDictionary
281
     1
  0
DICTIONARY
  5
26
102
{ACAD_REACTORS
330
9
102
}
330
9
100
AcDbDictionary
281
     1
  0
DICTIONARY
  5
D
102
{ACAD_REACTORS
330
9
102
}
330
9
100
AcDbDictionary
281
     1
  3
Model
350
C
  3
ﾚｲｱｳﾄ1
350
13
  0
DICTIONARY
  5
29
102
{ACAD_REACTORS
330
9
102
}
330
9
100
AcDbDictionary
281
     1
  0
DICTIONARY
  5
27
102
{ACAD_REACTORS
330
9
102
}
330
9
100
AcDbDictionary
281
     1
  3
STANDARD
350
32
  0
DICTIONARY
  5
28
102
{ACAD_REACTORS
330
9
102
}
330
9
100
AcDbDictionary
281
     1
  0
ACDBDICTIONARYWDFLT
  5
8
102
{ACAD_REACTORS
330
9
102
}
330
9
100
AcDbDictionary
281
     1
  3
Normal
350
7
100
AcDbDictionaryWithDefault
340
7
  0
DICTIONARY
  5
4CD
102
{ACAD_REACTORS
330
9
102
}
330
9
100
AcDbDictionary
281
     1
  3
COLORDICT
350
4CF
  3
MATERIALDICT
350
4CE
  0
DICTIONARY
  5
4C8
102
{ACAD_REACTORS
330
9
102
}
330
9
100
AcDbDictionary
281
     1
  3
DIMASSOC
350
4CA
  3
HIDETEXT
350
4C9
  3
PROJECTNAME
350
4CB
  0
DICTIONARY
  5
16
102
{ACAD_REACTORS
330
15
102
}
330
15
100
AcDbDictionary
280
     1
281
     1
  0
DICTIONARY
  5
17
102
{ACAD_REACTORS
330
15
102
}
330
15
100
AcDbDictionary
281
     1
  0
XRECORD
  5
4
102
{ACAD_REACTORS
330
3
102
}
330
3
100
AcDbXrecord
280
     1
340
2
  0
XRECORD
  5
10
102
{ACAD_REACTORS
330
F
102
}
330
F
100
AcDbXrecord
280
     1
340
E
  0
LAYOUT
  5
C
102
{ACAD_XDICTIONARY
360
4D0
102
}
102
{ACAD_REACTORS
330
D
102
}
330
D
100
AcDbPlotSettings
  1

  2
FX78BC34-A4縦.pc3
  4
A4
  6

 40
4.900083065032958
 41
4.900057315826416
 42
4.90008544921875
 43
4.90008544921875
 44
210.0156707763672
 45
297.0106506347656
 46
5.769999999999999
 47
0.0
 48
0.0
 49
0.0
140
0.0
141
0.0
142
1.0
143
1.372949704875683
 70
 11956
 72
     1
 73
     0
 74
     1
  7
tmsacad.ctb
 75
     0
147
0.7283588003615522
148
0.5503903123740202
149
0.1116542191393819
100
AcDbLayout
  1
Model
 70
     1
 71
     0
 10
0.0
 20
0.0
 11
12.0
 21
9.0
 12
0.0
 22
0.0
 32
0.0
 14
0.0
 24
0.0
 34
0.0
 15
0.0
 25
0.0
 35
0.0
146
0.0
 13
0.0
 23
0.0
 33
0.0
 16
1.0
 26
0.0
 36
0.0
 17
0.0
 27
1.0
 37
0.0
 76
     0
330
2
  0
LAYOUT
  5
13
102
{ACAD_XDICTIONARY
360
4D2
102
}
102
{ACAD_REACTORS
330
D
102
}
330
D
100
AcDbPlotSettings
  1

  2
C:\Program Files\ACAD2000\plotters\DWF ePlot.pc3
  4

  6

 40
0.0
 41
0.0
 42
0.0
 43
0.0
 44
0.0
 45
0.0
 46
0.0
 47
0.0
 48
0.0
 49
0.0
140
0.0
141
0.0
142
1.0
143
1.0
 70
   688
 72
     0
 73
     0
 74
     5
  7
tmsacad.ctb
 75
    16
147
1.0
148
0.0
149
0.0
100
AcDbLayout
  1
ﾚｲｱｳﾄ1
 70
     1
 71
     1
 10
0.0
 20
0.0
 11
12.0
 21
9.0
 12
0.0
 22
0.0
 32
0.0
 14
1.000000000000000E+20
 24
1.000000000000000E+20
 34
1.000000000000000E+20
 15
-1.000000000000000E+20
 25
-1.000000000000000E+20
 35
-1.000000000000000E+20
146
0.0
 13
0.0
 23
0.0
 33
0.0
 16
1.0
 26
0.0
 36
0.0
 17
0.0
 27
1.0
 37
0.0
 76
     0
330
E
  0
MLINESTYLE
  5
32
102
{ACAD_REACTORS
330
27
102
}
330
27
100
AcDbMlineStyle
  2
STANDARD
 70
     0
  3

 62
   256
 51
90.0
 52
90.0
 71
     2
 49
0.5
 62
   256
  6
BYLAYER
 49
-0.5
 62
   256
  6
BYLAYER
  0
ACDBPLACEHOLDER
  5
7
102
{ACAD_REACTORS
330
8
102
}
330
8
  0
XRECORD
  5
4CF
102
{ACAD_REACTORS
330
4CD
102
}
330
4CD
100
AcDbXrecord
280
     1
340
2A
  0
XRECORD
  5
4CE
102
{ACAD_REACTORS
330
4CD
102
}
330
4CD
100
AcDbXrecord
280
     1
340
29
  0
DICTIONARYVAR
  5
4CA
102
{ACAD_REACTORS
330
4C8
102
}
330
4C8
100
DictionaryVariables
280
     0
  1
1
  0
DICTIONARYVAR
  5
4C9
102
{ACAD_REACTORS
330
4C8
102
}
330
4C8
100
DictionaryVariables
280
     0
  1
1
  0
DICTIONARYVAR
  5
4CB
102
{ACAD_REACTORS
330
4C8
102
}
330
4C8
100
DictionaryVariables
280
     0
  1

  0
DICTIONARY
  5
4D0
330
C
100
AcDbDictionary
280
     1
281
     1
  3
ACAD_XREC_ROUNDTRIP
360
4D1
  0
DICTIONARY
  5
4D2
330
13
100
AcDbDictionary
280
     1
281
     1
  3
ACAD_XREC_ROUNDTRIP
360
4D3
  0
XRECORD
  5
4D1
102
{ACAD_REACTORS
330
4D0
102
}
330
4D0
100
AcDbXrecord
280
     1
102
SHADEPLOT
 70
     0
102
SHADEPLOTRESLEVEL
 70
     2
102
SHADEPLOTCUSTOMDPI
 70
   300
  0
XRECORD
  5
4D3
102
{ACAD_REACTORS
330
4D2
102
}
330
4D2
100
AcDbXrecord
280
     1
102
SHADEPLOT
 70
     0
102
SHADEPLOTRESLEVEL
 70
     2
102
SHADEPLOTCUSTOMDPI
 70
   300
  0
ENDSEC
  0
EOF
