  0
SECTION
  2
HEADER
  9
$ACADVER
  1
AC1015
  9
$ACADMAINTVER
 70
    20
  9
$DWGCODEPAGE
  3
ANSI_932
  9
$INSBASE
 10
129.0
 20
246.4992141396418
 30
0.0
  9
$EXTMIN
 10
-58.05147490236641
 20
-59.7100744725858
 30
-0.0015258207003583
  9
$EXTMAX
 10
67.02903406759833
 20
53.42100744304025
 30
0.0000000349246037
  9
$LIMMIN
 10
-1101.784450318844
 20
-1579.160531687244
  9
$LIMMAX
 10
-508.2420711400536
 20
-1161.440814074914
  9
$ORTHOMODE
 70
     0
  9
$REGENMODE
 70
     1
  9
$FILLMODE
 70
     1
  9
$QTEXTMODE
 70
     0
  9
$MIRRTEXT
 70
     1
  9
$LTSCALE
 40
1.0
  9
$ATTMODE
 70
     1
  9
$TEXTSIZE
 40
3.0
  9
$TRACEWID
 40
0.5
  9
$TEXTSTYLE
  7
STANDARD
  9
$CLAYER
  8
MOJI1
  9
$CELTYPE
  6
BYLAYER
  9
$CECOLOR
 62
   256
  9
$CELTSCALE
 40
1.0
  9
$DISPSILH
 70
     0
  9
$DIMSCALE
 40
1.0
  9
$DIMASZ
 40
2.0
  9
$DIMEXO
 40
2.0
  9
$DIMDLI
 40
8.0
  9
$DIMRND
 40
0.0
  9
$DIMDLE
 40
0.0
  9
$DIMEXE
 40
2.0
  9
$DIMTP
 40
0.0
  9
$DIMTM
 40
0.0
  9
$DIMTXT
 40
2.5
  9
$DIMCEN
 40
0.0
  9
$DIMTSZ
 40
0.0
  9
$DIMTOL
 70
     0
  9
$DIMLIM
 70
     0
  9
$DIMTIH
 70
     0
  9
$DIMTOH
 70
     0
  9
$DIMSE1
 70
     0
  9
$DIMSE2
 70
     0
  9
$DIMTAD
 70
     3
  9
$DIMZIN
 70
     0
  9
$DIMBLK
  1

  9
$DIMASO
 70
     1
  9
$DIMSHO
 70
     1
  9
$DIMPOST
  1

  9
$DIMAPOST
  1

  9
$DIMALT
 70
     0
  9
$DIMALTD
 70
     2
  9
$DIMALTF
 40
25.4
  9
$DIMLFAC
 40
1.0
  9
$DIMTOFL
 70
     1
  9
$DIMTVP
 40
0.0
  9
$DIMTIX
 70
     0
  9
$DIMSOXD
 70
     0
  9
$DIMSAH
 70
     1
  9
$DIMBLK1
  1
OPEN30
  9
$DIMBLK2
  1
OPEN30
  9
$DIMSTYLE
  2
STANDARD
  9
$DIMCLRD
 70
     0
  9
$DIMCLRE
 70
     0
  9
$DIMCLRT
 70
     0
  9
$DIMTFAC
 40
1.0
  9
$DIMGAP
 40
0.5
  9
$DIMJUST
 70
     0
  9
$DIMSD1
 70
     0
  9
$DIMSD2
 70
     0
  9
$DIMTOLJ
 70
     1
  9
$DIMTZIN
 70
     0
  9
$DIMALTZ
 70
     0
  9
$DIMALTTZ
 70
     0
  9
$DIMUPT
 70
     0
  9
$DIMDEC
 70
     4
  9
$DIMTDEC
 70
     4
  9
$DIMALTU
 70
     2
  9
$DIMALTTD
 70
     2
  9
$DIMTXSTY
  7
STANDARD
  9
$DIMAUNIT
 70
     0
  9
$DIMADEC
 70
     0
  9
$DIMALTRND
 40
0.0
  9
$DIMAZIN
 70
     0
  9
$DIMDSEP
 70
    46
  9
$DIMATFIT
 70
     3
  9
$DIMFRAC
 70
     0
  9
$DIMLDRBLK
  1
OPEN30
  9
$DIMLUNIT
 70
     2
  9
$DIMLWD
 70
    -2
  9
$DIMLWE
 70
    -2
  9
$DIMTMOVE
 70
     0
  9
$LUNITS
 70
     2
  9
$LUPREC
 70
     4
  9
$SKETCHINC
 40
0.1
  9
$FILLETRAD
 40
0.0
  9
$AUNITS
 70
     0
  9
$AUPREC
 70
     0
  9
$MENU
  1
ACAD
  9
$ELEVATION
 40
0.0
  9
$PELEVATION
 40
0.0
  9
$THICKNESS
 40
0.0
  9
$LIMCHECK
 70
     0
  9
$CHAMFERA
 40
0.0
  9
$CHAMFERB
 40
0.0
  9
$CHAMFERC
 40
0.0
  9
$CHAMFERD
 40
0.0
  9
$SKPOLY
 70
     0
  9
$TDCREATE
 40
2451815.565532581
  9
$TDUCREATE
 40
2451815.190532581
  9
$TDUPDATE
 40
2454256.725654653
  9
$TDUUPDATE
 40
2454256.350654653
  9
$TDINDWG
 40
0.7610658333
  9
$TDUSRTIMER
 40
0.7610658333
  9
$USRTIMER
 70
     1
  9
$ANGBASE
 50
0.0
  9
$ANGDIR
 70
     0
  9
$PDMODE
 70
     0
  9
$PDSIZE
 40
0.0
  9
$PLINEWID
 40
0.0
  9
$SPLFRAME
 70
     0
  9
$SPLINETYPE
 70
     6
  9
$SPLINESEGS
 70
     8
  9
$HANDSEED
  5
4D4
  9
$SURFTAB1
 70
     6
  9
$SURFTAB2
 70
     6
  9
$SURFTYPE
 70
     6
  9
$SURFU
 70
     6
  9
$SURFV
 70
     6
  9
$UCSBASE
  2

  9
$UCSNAME
  2

  9
$UCSORG
 10
0.0
 20
0.0
 30
0.0
  9
$UCSXDIR
 10
1.0
 20
0.0
 30
0.0
  9
$UCSYDIR
 10
0.0
 20
1.0
 30
0.0
  9
$UCSORTHOREF
  2

  9
$UCSORTHOVIEW
 70
     0
  9
$UCSORGTOP
 10
0.0
 20
0.0
 30
0.0
  9
$UCSORGBOTTOM
 10
0.0
 20
0.0
 30
0.0
  9
$UCSORGLEFT
 10
0.0
 20
0.0
 30
0.0
  9
$UCSORGRIGHT
 10
0.0
 20
0.0
 30
0.0
  9
$UCSORGFRONT
 10
0.0
 20
0.0
 30
0.0
  9
$UCSORGBACK
 10
0.0
 20
0.0
 30
0.0
  9
$PUCSBASE
  2

  9
$PUCSNAME
  2

  9
$PUCSORG
 10
0.0
 20
0.0
 30
0.0
  9
$PUCSXDIR
 10
1.0
 20
0.0
 30
0.0
  9
$PUCSYDIR
 10
0.0
 20
1.0
 30
0.0
  9
$PUCSORTHOREF
  2

  9
$PUCSORTHOVIEW
 70
     0
  9
$PUCSORGTOP
 10
0.0
 20
0.0
 30
0.0
  9
$PUCSORGBOTTOM
 10
0.0
 20
0.0
 30
0.0
  9
$PUCSORGLEFT
 10
0.0
 20
0.0
 30
0.0
  9
$PUCSORGRIGHT
 10
0.0
 20
0.0
 30
0.0
  9
$PUCSORGFRONT
 10
0.0
 20
0.0
 30
0.0
  9
$PUCSORGBACK
 10
0.0
 20
0.0
 30
0.0
  9
$USERI1
 70
     0
  9
$USERI2
 70
     0
  9
$USERI3
 70
     0
  9
$USERI4
 70
     0
  9
$USERI5
 70
     0
  9
$USERR1
 40
0.0
  9
$USERR2
 40
0.0
  9
$USERR3
 40
0.0
  9
$USERR4
 40
0.0
  9
$USERR5
 40
0.0
  9
$WORLDVIEW
 70
     1
  9
$SHADEDGE
 70
     3
  9
$SHADEDIF
 70
    70
  9
$TILEMODE
 70
     1
  9
$MAXACTVP
 70
    48
  9
$PINSBASE
 10
0.0
 20
0.0
 30
0.0
  9
$PLIMCHECK
 70
     0
  9
$PEXTMIN
 10
1.000000000000000E+20
 20
1.000000000000000E+20
 30
1.000000000000000E+20
  9
$PEXTMAX
 10
-1.000000000000000E+20
 20
-1.000000000000000E+20
 30
-1.000000000000000E+20
  9
$PLIMMIN
 10
0.0
 20
0.0
  9
$PLIMMAX
 10
12.0
 20
9.0
  9
$UNITMODE
 70
     0
  9
$VISRETAIN
 70
     1
  9
$PLINEGEN
 70
     0
  9
$PSLTSCALE
 70
     1
  9
$TREEDEPTH
 70
  3020
  9
$CMLSTYLE
  2
STANDARD
  9
$CMLJUST
 70
     0
  9
$CMLSCALE
 40
1.0
  9
$PROXYGRAPHICS
 70
     1
  9
$MEASUREMENT
 70
     0
  9
$CELWEIGHT
370
    -1
  9
$ENDCAPS
280
     0
  9
$JOINSTYLE
280
     0
  9
$LWDISPLAY
290
     0
  9
$INSUNITS
 70
     0
  9
$HYPERLINKBASE
  1

  9
$STYLESHEET
  1

  9
$XEDIT
290
     1
  9
$CEPSNTYPE
380
     0
  9
$PSTYLEMODE
290
     1
  9
$FINGERPRINTGUID
  2
{1754B7AB-9B3C-11D4-AD9E-00104B1004F2}
  9
$VERSIONGUID
  2
{B87780D6-5FC4-48C5-BE04-CEA530ED90F0}
  9
$EXTNAMES
290
     1
  9
$PSVPSCALE
 40
0.0
  9
$OLESTARTUP
290
     0
  0
ENDSEC
  0
SECTION
  2
CLASSES
  0
CLASS
  1
ACDBDICTIONARYWDFLT
  2
AcDbDictionaryWithDefault
  3
ObjectDBX Classes
 90
        0
280
     0
281
     0
  0
CLASS
  1
ACDBPLACEHOLDER
  2
AcDbPlaceHolder
  3
ObjectDBX Classes
 90
        0
280
     0
281
     0
  0
CLASS
  1
LAYOUT
  2
AcDbLayout
  3
ObjectDBX Classes
 90
        0
280
     0
281
     0
  0
CLASS
  1
DICTIONARYVAR
  2
AcDbDictionaryVar
  3
ObjectDBX Classes
 90
        0
280
     0
281
     0
  0
ENDSEC
  0
SECTION
  2
TABLES
  0
TABLE
  2
VPORT
  5
20
330
0
100
AcDbSymbolTable
 70
     3
  0
VPORT
  5
4CC
330
20
100
AcDbSymbolTableRecord
100
AcDbViewportTableRecord
  2
*Active
 70
     0
 10
0.0
 20
0.0
 11
1.0
 21
1.0
 12
4.488779582615947
 22
-3.144533514772774
 13
0.0
 23
0.0
 14
1.0
 24
1.0
 15
0.0
 25
0.0
 16
0.0
 26
0.0
 36
1.0
 17
0.0
 27
0.0
 37
0.0
 40
114.0035581257722
 41
1.407979407979407
 42
50.0
 43
0.0
 44
0.0
 50
0.0
 51
0.0
 71
     0
 72
 10000
 73
     1
 74
     0
 75
     0
 76
     1
 77
     0
 78
     0
281
     0
 65
     1
110
0.0
120
0.0
130
0.0
111
1.0
121
0.0
131
0.0
112
0.0
122
1.0
132
0.0
 79
     0
146
0.0
  0
ENDTAB
  0
TABLE
  2
LTYPE
  5
1B
330
0
100
AcDbSymbolTable
 70
     4
  0
LTYPE
  5
1C
330
1B
100
AcDbSymbolTableRecord
100
AcDbLinetypeTableRecord
  2
BYBLOCK
 70
     0
  3

 72
    65
 73
     0
 40
0.0
  0
LTYPE
  5
1D
330
1B
100
AcDbSymbolTableRecord
100
AcDbLinetypeTableRecord
  2
BYLAYER
 70
     0
  3

 72
    65
 73
     0
 40
0.0
  0
LTYPE
  5
A
330
1B
100
AcDbSymbolTableRecord
100
AcDbLinetypeTableRecord
  2
CONTINUOUS
 70
     0
  3
Solid line
 72
    65
 73
     0
 40
0.0
  0
LTYPE
  5
77
330
1B
100
AcDbSymbolTableRecord
100
AcDbLinetypeTableRecord
  2
Phantom
 70
     0
  3
Phantom
 72
    65
 73
     6
 40
45.0
 49
40.0
 74
     0
 49
-1.0
 74
     0
 49
1.0
 74
     0
 49
-1.0
 74
     0
 49
1.0
 74
     0
 49
-1.0
 74
     0
  0
LTYPE
  5
5C
330
1B
100
AcDbSymbolTableRecord
100
AcDbLinetypeTableRecord
  2
S10
 70
     0
  3
- - - - - - - - - 1,-1,1,-1
 72
    65
 73
     4
 40
4.0
 49
1.0
 74
     0
 49
-1.0
 74
     0
 49
1.0
 74
     0
 49
-1.0
 74
     0
  0
LTYPE
  5
A4
330
1B
100
AcDbSymbolTableRecord
100
AcDbLinetypeTableRecord
  2
HIDDEN2
 70
     0
  3
Hidden (.5x) _ _ _ _ _ _ _ _ _ _ _ _ _ _ _ _ _
 72
    65
 73
     2
 40
1.399999999999999
 49
0.7
 74
     0
 49
-0.7
 74
     0
  0
ENDTAB
  0
TABLE
  2
LAYER
  5
14
102
{ACAD_XDICTIONARY
360
15
102
}
330
0
100
AcDbSymbolTable
 70
     7
  0
LAYER
  5
6
330
14
100
AcDbSymbolTableRecord
100
AcDbLayerTableRecord
  2
0
 70
     0
 62
     7
  6
CONTINUOUS
370
    -3
390
7
  0
LAYER
  5
4A
330
14
100
AcDbSymbolTableRecord
100
AcDbLayerTableRecord
  2
DEFPOINTS
 70
     0
 62
     7
  6
CONTINUOUS
290
     0
370
    -3
390
7
  0
LAYER
  5
475
330
14
100
AcDbSymbolTableRecord
100
AcDbLayerTableRecord
  2
WAKU
 70
     0
 62
     4
  6
CONTINUOUS
370
    -3
390
7
  0
LAYER
  5
2B
330
14
100
AcDbSymbolTableRecord
100
AcDbLayerTableRecord
  2
MOJI1
 70
     0
 62
     2
  6
CONTINUOUS
370
    -3
390
7
  0
LAYER
  5
38
330
14
100
AcDbSymbolTableRecord
100
AcDbLayerTableRecord
  2
GAIKEI
 70
     0
 62
     7
  6
CONTINUOUS
370
    -3
390
7
  0
LAYER
  5
36
330
14
100
AcDbSymbolTableRecord
100
AcDbLayerTableRecord
  2
TOUROKU
 70
     0
 62
     1
  6
CONTINUOUS
370
    -3
390
7
  0
LAYER
  5
40
330
14
100
AcDbSymbolTableRecord
100
AcDbLayerTableRecord
  2
SUNPO
 70
     0
 62
     3
  6
CONTINUOUS
370
    -3
390
7
  0
ENDTAB
  0
TABLE
  2
STYLE
  5
18
330
0
100
AcDbSymbolTable
 70
     1
  0
STYLE
  5
19
330
18
100
AcDbSymbolTableRecord
100
AcDbTextStyleTableRecord
  2
STANDARD
 70
     0
 40
0.0
 41
1.0
 50
0.0
 71
     0
 42
3.0
  3
MONOTXT.shx
  4
BIGFONT.shx
  0
ENDTAB
  0
TABLE
  2
VIEW
  5
1E
330
0
100
AcDbSymbolTable
 70
     0
  0
ENDTAB
  0
TABLE
  2
UCS
  5
1F
330
0
100
AcDbSymbolTable
 70
     0
  0
ENDTAB
  0
TABLE
  2
APPID
  5
22
330
0
100
AcDbSymbolTable
 70
     1
  0
APPID
  5
23
330
22
100
AcDbSymbolTableRecord
100
AcDbRegAppTableRecord
  2
ACAD
 70
     0
  0
ENDTAB
  0
TABLE
  2
DIMSTYLE
  5
24
330
0
100
AcDbSymbolTable
 70
     1
100
AcDbDimStyleTable
 71
     0
  0
DIMSTYLE
105
33
102
{ACAD_REACTORS
330
3ED
330
3F
330
4E
102
}
330
24
100
AcDbSymbolTableRecord
100
AcDbDimStyleTableRecord
  2
STANDARD
 70
     0
 40
0.0
 41
2.0
 42
2.0
 43
8.0
 44
2.0
 73
     0
 74
     0
 77
     3
140
3.0
141
0.0
173
     1
279
     2
288
     1
340
19
341
2C
343
2C
344
2C
  0
ENDTAB
  0
TABLE
  2
BLOCK_RECORD
  5
1
330
0
100
AcDbSymbolTable
 70
     7
  0
BLOCK_RECORD
  5
2
102
{ACAD_XDICTIONARY
360
3
102
}
330
1
100
AcDbSymbolTableRecord
100
AcDbBlockTableRecord
  2
*MODEL_SPACE
340
C
  0
BLOCK_RECORD
  5
E
102
{ACAD_XDICTIONARY
360
F
102
}
330
1
100
AcDbSymbolTableRecord
100
AcDbBlockTableRecord
  2
*PAPER_SPACE
340
13
  0
BLOCK_RECORD
  5
2C
330
1
100
AcDbSymbolTableRecord
100
AcDbBlockTableRecord
  2
_OPEN30
340
0
102
{BLKREFS
331
46
331
47
331
54
331
55
331
3F3
331
3F4
331
4A8
331
4A9
331
4B4
331
4B5
331
4C0
331
4C1
102
}
  0
BLOCK_RECORD
  5
3EE
330
1
100
AcDbSymbolTableRecord
100
AcDbBlockTableRecord
  2
*D1
340
0
  0
BLOCK_RECORD
  5
41
330
1
100
AcDbSymbolTableRecord
100
AcDbBlockTableRecord
  2
*D2
340
0
  0
BLOCK_RECORD
  5
4F
330
1
100
AcDbSymbolTableRecord
100
AcDbBlockTableRecord
  2
*D3
340
0
  0
BLOCK_RECORD
  5
4A4
330
1
100
AcDbSymbolTableRecord
100
AcDbBlockTableRecord
  2
*D4
340
0
  0
BLOCK_RECORD
  5
4B0
330
1
100
AcDbSymbolTableRecord
100
AcDbBlockTableRecord
  2
*D5
340
0
  0
BLOCK_RECORD
  5
4BC
330
1
100
AcDbSymbolTableRecord
100
AcDbBlockTableRecord
  2
*D6
340
0
  0
ENDTAB
  0
ENDSEC
  0
SECTION
  2
BLOCKS
  0
BLOCK
  5
5
330
2
100
AcDbEntity
  8
0
100
AcDbBlockBegin
  2
*MODEL_SPACE
 70
     0
 10
0.0
 20
0.0
 30
0.0
  3
*MODEL_SPACE
  1

  0
ENDBLK
  5
B
330
2
100
AcDbEntity
  8
0
100
AcDbBlockEnd
  0
BLOCK
  5
11
330
E
100
AcDbEntity
 67
     1
  8
0
100
AcDbBlockBegin
  2
*PAPER_SPACE
 70
     0
 10
0.0
 20
0.0
 30
0.0
  3
*PAPER_SPACE
  1

  0
ENDBLK
  5
12
330
E
100
AcDbEntity
 67
     1
  8
0
100
AcDbBlockEnd
  0
BLOCK
  5
2D
330
2C
100
AcDbEntity
  8
0
100
AcDbBlockBegin
  2
_OPEN30
 70
     0
 10
0.0
 20
0.0
 30
0.0
  3
_OPEN30
  1

  0
LINE
  5
2E
330
2C
100
AcDbEntity
  8
0
  6
ByBlock
 62
     0
100
AcDbLine
 10
-1.0
 20
0.26794919
 30
0.0
 11
0.0
 21
0.0
 31
0.0
  0
LINE
  5
2F
330
2C
100
AcDbEntity
  8
0
  6
ByBlock
 62
     0
100
AcDbLine
 10
0.0
 20
0.0
 30
0.0
 11
-1.0
 21
-0.26794919
 31
0.0
  0
LINE
  5
30
330
2C
100
AcDbEntity
  8
0
  6
ByBlock
 62
     0
100
AcDbLine
 10
0.0
 20
0.0
 30
0.0
 11
-1.0
 21
0.0
 31
0.0
  0
ENDBLK
  5
31
330
2C
100
AcDbEntity
  8
0
100
AcDbBlockEnd
  0
BLOCK
  5
3EF
330
3EE
100
AcDbEntity
  8
0
100
AcDbBlockBegin
  2
*D1
 70
     1
 10
0.0
 20
0.0
 30
0.0
  3
*D1
  1

  0
LINE
  5
3F0
330
3EE
100
AcDbEntity
  8
SUNPO
 62
     0
370
    -2
100
AcDbLine
 10
212.9228088709483
 20
205.5384986688186
 30
0.0
 11
212.9228088709483
 21
213.5384986688186
 31
0.0
  0
LINE
  5
3F1
330
3EE
100
AcDbEntity
  8
SUNPO
 62
     0
370
    -2
100
AcDbLine
 10
247.9228088709483
 20
205.5384986688186
 30
0.0
 11
247.9228088709483
 21
213.5384986688186
 31
0.0
  0
LINE
  5
3F2
330
3EE
100
AcDbEntity
  8
SUNPO
 62
     0
370
    -2
100
AcDbLine
 10
214.9228088709483
 20
211.5384986688186
 30
0.0
 11
245.9228088709483
 21
211.5384986688186
 31
0.0
  0
INSERT
  5
3F3
330
3EE
100
AcDbEntity
  8
SUNPO
 62
     0
370
    -2
100
AcDbBlockReference
  2
_OPEN30
 10
212.9228088709483
 20
211.5384986688186
 30
0.0
 41
2.0
 42
2.0
 43
2.0
 50
180.0
  0
INSERT
  5
3F4
330
3EE
100
AcDbEntity
  8
SUNPO
 62
     0
370
    -2
100
AcDbBlockReference
  2
_OPEN30
 10
247.9228088709483
 20
211.5384986688186
 30
0.0
 41
2.0
 42
2.0
 43
2.0
  0
MTEXT
  5
3F5
330
3EE
100
AcDbEntity
  8
SUNPO
 62
     0
100
AcDbMText
 10
230.4228088709483
 20
213.2884986688186
 30
0.0
 40
2.5
 41
0.0
 71
     5
 72
     1
  1
\A1;350
 73
     1
 44
1.0
1001
ACAD
1000
MTEXTBEGIN
1070
    73
1070
     1
1070
    44
1040
1.0
1070
    74
1070
     0
1000
MTEXTEND
  0
POINT
  5
3F6
330
3EE
100
AcDbEntity
  8
DEFPOINTS
 62
     0
100
AcDbPoint
 10
212.9228088709483
 20
203.5384986688186
 30
0.0
  0
POINT
  5
3F7
330
3EE
100
AcDbEntity
  8
DEFPOINTS
 62
     0
100
AcDbPoint
 10
247.9228088709483
 20
203.5384986688186
 30
0.0
  0
POINT
  5
3F8
330
3EE
100
AcDbEntity
  8
DEFPOINTS
 62
     0
100
AcDbPoint
 10
247.9228088709483
 20
211.5384986688186
 30
0.0
  0
ENDBLK
  5
3F9
330
3EE
100
AcDbEntity
  8
0
100
AcDbBlockEnd
  0
BLOCK
  5
42
330
41
100
AcDbEntity
  8
0
100
AcDbBlockBegin
  2
*D2
 70
     1
 10
0.0
 20
0.0
 30
0.0
  3
*D2
  1

  0
LINE
  5
43
330
41
100
AcDbEntity
  8
SUNPO
 62
     0
370
    -2
100
AcDbLine
 10
143.4802321801536
 20
205.5517160505944
 30
0.0
 11
143.4802321801536
 21
213.5517160505944
 31
0.0
  0
LINE
  5
44
330
41
100
AcDbEntity
  8
SUNPO
 62
     0
370
    -2
100
AcDbLine
 10
185.4802321801536
 20
205.5517160505944
 30
0.0
 11
185.4802321801536
 21
213.5517160505944
 31
0.0
  0
LINE
  5
45
330
41
100
AcDbEntity
  8
SUNPO
 62
     0
370
    -2
100
AcDbLine
 10
145.4802321801536
 20
211.5517160505944
 30
0.0
 11
183.4802321801536
 21
211.5517160505944
 31
0.0
  0
INSERT
  5
46
330
41
100
AcDbEntity
  8
SUNPO
 62
     0
370
    -2
100
AcDbBlockReference
  2
_OPEN30
 10
143.4802321801536
 20
211.5517160505944
 30
0.0
 41
2.0
 42
2.0
 43
2.0
 50
180.0
  0
INSERT
  5
47
330
41
100
AcDbEntity
  8
SUNPO
 62
     0
370
    -2
100
AcDbBlockReference
  2
_OPEN30
 10
185.4802321801536
 20
211.5517160505944
 30
0.0
 41
2.0
 42
2.0
 43
2.0
  0
MTEXT
  5
48
330
41
100
AcDbEntity
  8
SUNPO
 62
     0
100
AcDbMText
 10
164.4802321801536
 20
213.3017160505944
 30
0.0
 40
2.5
 41
0.0
 71
     5
 72
     1
  1
\A1;420
 73
     1
 44
1.0
1001
ACAD
1000
MTEXTBEGIN
1070
    73
1070
     1
1070
    44
1040
1.0
1070
    74
1070
     0
1000
MTEXTEND
  0
POINT
  5
49
330
41
100
AcDbEntity
  8
DEFPOINTS
 62
     0
100
AcDbPoint
 10
143.4802321801536
 20
203.5517160505944
 30
0.0
  0
POINT
  5
4B
330
41
100
AcDbEntity
  8
DEFPOINTS
 62
     0
100
AcDbPoint
 10
185.4802321801536
 20
203.5517160505944
 30
0.0
  0
POINT
  5
4C
330
41
100
AcDbEntity
  8
DEFPOINTS
 62
     0
100
AcDbPoint
 10
185.4802321801536
 20
211.5517160505944
 30
0.0
  0
ENDBLK
  5
4D
330
41
100
AcDbEntity
  8
0
100
AcDbBlockEnd
  0
BLOCK
  5
50
330
4F
100
AcDbEntity
  8
0
100
AcDbBlockBegin
  2
*D3
 70
     1
 10
0.0
 20
0.0
 30
0.0
  3
*D3
  1

  0
LINE
  5
51
330
4F
100
AcDbEntity
  8
SUNPO
 62
     0
370
    -2
100
AcDbLine
 10
190.4802321801536
 20
203.5517160505944
 30
0.0
 11
198.4802321801536
 21
203.5517160505944
 31
0.0
  0
LINE
  5
52
330
4F
100
AcDbEntity
  8
SUNPO
 62
     0
370
    -2
100
AcDbLine
 10
190.4802321801536
 20
194.7517160505944
 30
0.0
 11
198.4802321801536
 21
194.7517160505944
 31
0.0
  0
LINE
  5
53
330
4F
100
AcDbEntity
  8
SUNPO
 62
     0
370
    -2
100
AcDbLine
 10
196.4802321801536
 20
201.5517160505944
 30
0.0
 11
196.4802321801536
 21
196.7517160505944
 31
0.0
  0
INSERT
  5
54
330
4F
100
AcDbEntity
  8
SUNPO
 62
     0
370
    -2
100
AcDbBlockReference
  2
_OPEN30
 10
196.4802321801536
 20
203.5517160505944
 30
0.0
 41
2.0
 42
2.0
 43
2.0
 50
90.0
  0
INSERT
  5
55
330
4F
100
AcDbEntity
  8
SUNPO
 62
     0
370
    -2
100
AcDbBlockReference
  2
_OPEN30
 10
196.4802321801536
 20
194.7517160505944
 30
0.0
 41
2.0
 42
2.0
 43
2.0
 50
270.0
  0
MTEXT
  5
56
330
4F
100
AcDbEntity
  8
SUNPO
 62
     0
100
AcDbMText
 10
194.7302321801536
 20
199.1517160505944
 30
0.0
 40
2.5
 41
0.0
 71
     5
 72
     1
  1
\A1;88
 11
0.0000000000000001
 21
1.0
 31
0.0
 73
     1
 44
1.0
1001
ACAD
1000
MTEXTBEGIN
1070
    73
1070
     1
1070
    44
1040
1.0
1070
    74
1070
     0
1000
MTEXTEND
  0
POINT
  5
57
330
4F
100
AcDbEntity
  8
DEFPOINTS
 62
     0
100
AcDbPoint
 10
188.4802321801536
 20
203.5517160505944
 30
0.0
  0
POINT
  5
58
330
4F
100
AcDbEntity
  8
DEFPOINTS
 62
     0
100
AcDbPoint
 10
188.4802321801536
 20
194.7517160505944
 30
0.0
  0
POINT
  5
59
330
4F
100
AcDbEntity
  8
DEFPOINTS
 62
     0
100
AcDbPoint
 10
196.4802321801536
 20
194.7517160505944
 30
0.0
  0
ENDBLK
  5
5A
330
4F
100
AcDbEntity
  8
0
100
AcDbBlockEnd
  0
BLOCK
  5
4AE
330
4A4
100
AcDbEntity
  8
0
100
AcDbBlockBegin
  2
*D4
 70
     1
 10
0.0
 20
0.0
 30
0.0
  3
*D4
  1

  0
LINE
  5
4A5
330
4A4
100
AcDbEntity
  8
SUNPO
 62
     0
370
    -2
100
AcDbLine
 10
23.88722991639363
 20
14.42432251113763
 30
0.0
 11
23.88722991639363
 21
22.42432251113763
 31
0.0
  0
LINE
  5
4A6
330
4A4
100
AcDbEntity
  8
SUNPO
 62
     0
370
    -2
100
AcDbLine
 10
58.88722991639363
 20
14.42432251113763
 30
0.0
 11
58.88722991639363
 21
22.42432251113763
 31
0.0
  0
LINE
  5
4A7
330
4A4
100
AcDbEntity
  8
SUNPO
 62
     0
370
    -2
100
AcDbLine
 10
25.88722991639364
 20
20.42432251113763
 30
0.0
 11
56.88722991639363
 21
20.42432251113763
 31
0.0
  0
INSERT
  5
4A8
330
4A4
100
AcDbEntity
  8
SUNPO
 62
     0
370
    -2
100
AcDbBlockReference
  2
_OPEN30
 10
23.88722991639363
 20
20.42432251113763
 30
0.0
 41
2.0
 42
2.0
 43
2.0
 50
180.0
  0
INSERT
  5
4A9
330
4A4
100
AcDbEntity
  8
SUNPO
 62
     0
370
    -2
100
AcDbBlockReference
  2
_OPEN30
 10
58.88722991639363
 20
20.42432251113763
 30
0.0
 41
2.0
 42
2.0
 43
2.0
  0
MTEXT
  5
4AA
330
4A4
100
AcDbEntity
  8
SUNPO
 62
     0
100
AcDbMText
 10
41.38722991639363
 20
22.17432251113763
 30
0.0
 40
2.5
 41
0.0
 71
     5
 72
     1
  1
\A1;350
 73
     1
 44
1.0
1001
ACAD
1000
MTEXTBEGIN
1070
    73
1070
     1
1070
    44
1040
1.0
1070
    74
1070
     0
1000
MTEXTEND
  0
POINT
  5
4AB
330
4A4
100
AcDbEntity
  8
DEFPOINTS
 62
     0
100
AcDbPoint
 10
23.88722991639363
 20
12.42432251113763
 30
0.0
  0
POINT
  5
4AC
330
4A4
100
AcDbEntity
  8
DEFPOINTS
 62
     0
100
AcDbPoint
 10
58.88722991639363
 20
12.42432251113763
 30
0.0
  0
POINT
  5
4AD
330
4A4
100
AcDbEntity
  8
DEFPOINTS
 62
     0
100
AcDbPoint
 10
58.88722991639363
 20
20.42432251113763
 30
0.0
  0
ENDBLK
  5
4AF
330
4A4
100
AcDbEntity
  8
0
100
AcDbBlockEnd
  0
BLOCK
  5
4BA
330
4B0
100
AcDbEntity
  8
0
100
AcDbBlockBegin
  2
*D5
 70
     1
 10
0.0
 20
0.0
 30
0.0
  3
*D5
  1

  0
LINE
  5
4B1
330
4B0
100
AcDbEntity
  8
SUNPO
 62
     0
370
    -2
100
AcDbLine
 10
1.444653225598955
 20
12.43753989291343
 30
0.0
 11
9.444653225598957
 21
12.43753989291343
 31
0.0
  0
LINE
  5
4B2
330
4B0
100
AcDbEntity
  8
SUNPO
 62
     0
370
    -2
100
AcDbLine
 10
1.444653225598955
 20
3.637539892913479
 30
0.0
 11
9.444653225598955
 21
3.637539892913477
 31
0.0
  0
LINE
  5
4B3
330
4B0
100
AcDbEntity
  8
SUNPO
 62
     0
370
    -2
100
AcDbLine
 10
7.444653225598957
 20
10.43753989291343
 30
0.0
 11
7.444653225598955
 21
5.637539892913478
 31
0.0
  0
INSERT
  5
4B4
330
4B0
100
AcDbEntity
  8
SUNPO
 62
     0
370
    -2
100
AcDbBlockReference
  2
_OPEN30
 10
7.444653225598957
 20
12.43753989291343
 30
0.0
 41
2.0
 42
2.0
 43
2.0
 50
90.0
  0
INSERT
  5
4B5
330
4B0
100
AcDbEntity
  8
SUNPO
 62
     0
370
    -2
100
AcDbBlockReference
  2
_OPEN30
 10
7.444653225598955
 20
3.637539892913478
 30
0.0
 41
2.0
 42
2.0
 43
2.0
 50
270.0
  0
MTEXT
  5
4B6
330
4B0
100
AcDbEntity
  8
SUNPO
 62
     0
100
AcDbMText
 10
5.694653225598955
 20
8.037539892913457
 30
0.0
 40
2.5
 41
0.0
 71
     5
 72
     1
  1
\A1;88
 11
0.0000000000000001
 21
1.0
 31
0.0
 73
     1
 44
1.0
1001
ACAD
1000
MTEXTBEGIN
1070
    73
1070
     1
1070
    44
1040
1.0
1070
    74
1070
     0
1000
MTEXTEND
  0
POINT
  5
4B7
330
4B0
100
AcDbEntity
  8
DEFPOINTS
 62
     0
100
AcDbPoint
 10
-0.5553467744010448
 20
12.43753989291343
 30
0.0
  0
POINT
  5
4B8
330
4B0
100
AcDbEntity
  8
DEFPOINTS
 62
     0
100
AcDbPoint
 10
-0.5553467744010448
 20
3.63753989291348
 30
0.0
  0
POINT
  5
4B9
330
4B0
100
AcDbEntity
  8
DEFPOINTS
 62
     0
100
AcDbPoint
 10
7.444653225598955
 20
3.637539892913478
 30
0.0
  0
ENDBLK
  5
4BB
330
4B0
100
AcDbEntity
  8
0
100
AcDbBlockEnd
  0
BLOCK
  5
4C6
330
4BC
100
AcDbEntity
  8
0
100
AcDbBlockBegin
  2
*D6
 70
     1
 10
0.0
 20
0.0
 30
0.0
  3
*D6
  1

  0
LINE
  5
4BD
330
4BC
100
AcDbEntity
  8
SUNPO
 62
     0
370
    -2
100
AcDbLine
 10
-45.55534677440104
 20
14.43753989291343
 30
0.0
 11
-45.55534677440104
 21
22.43753989291343
 31
0.0
  0
LINE
  5
4BE
330
4BC
100
AcDbEntity
  8
SUNPO
 62
     0
370
    -2
100
AcDbLine
 10
-3.555346774401044
 20
14.43753989291343
 30
0.0
 11
-3.555346774401044
 21
22.43753989291343
 31
0.0
  0
LINE
  5
4BF
330
4BC
100
AcDbEntity
  8
SUNPO
 62
     0
370
    -2
100
AcDbLine
 10
-43.55534677440104
 20
20.43753989291344
 30
0.0
 11
-5.555346774401044
 21
20.43753989291344
 31
0.0
  0
INSERT
  5
4C0
330
4BC
100
AcDbEntity
  8
SUNPO
 62
     0
370
    -2
100
AcDbBlockReference
  2
_OPEN30
 10
-45.55534677440104
 20
20.43753989291344
 30
0.0
 41
2.0
 42
2.0
 43
2.0
 50
180.0
  0
INSERT
  5
4C1
330
4BC
100
AcDbEntity
  8
SUNPO
 62
     0
370
    -2
100
AcDbBlockReference
  2
_OPEN30
 10
-3.555346774401044
 20
20.43753989291344
 30
0.0
 41
2.0
 42
2.0
 43
2.0
  0
MTEXT
  5
4C2
330
4BC
100
AcDbEntity
  8
SUNPO
 62
     0
100
AcDbMText
 10
-24.55534677440105
 20
22.18753989291343
 30
0.0
 40
2.5
 41
0.0
 71
     5
 72
     1
  1
\A1;420
 73
     1
 44
1.0
1001
ACAD
1000
MTEXTBEGIN
1070
    73
1070
     1
1070
    44
1040
1.0
1070
    74
1070
     0
1000
MTEXTEND
  0
POINT
  5
4C3
330
4BC
100
AcDbEntity
  8
DEFPOINTS
 62
     0
100
AcDbPoint
 10
-45.55534677440104
 20
12.43753989291343
 30
0.0
  0
POINT
  5
4C4
330
4BC
100
AcDbEntity
  8
DEFPOINTS
 62
     0
100
AcDbPoint
 10
-3.555346774401044
 20
12.43753989291343
 30
0.0
  0
POINT
  5
4C5
330
4BC
100
AcDbEntity
  8
DEFPOINTS
 62
     0
100
AcDbPoint
 10
-3.555346774401044
 20
20.43753989291344
 30
0.0
  0
ENDBLK
  5
4C7
330
4BC
100
AcDbEntity
  8
0
100
AcDbBlockEnd
  0
ENDSEC
  0
SECTION
  2
ENTITIES
  0
TEXT
  5
34
330
2
100
AcDbEntity
  8
MOJI1
100
AcDbText
 10
-31.03557895455478
 20
49.38503798196092
 30
0.0
 40
4.0
  1
ネットワークディスクレコーダー
100
AcDbText
  0
TEXT
  5
35
330
2
100
AcDbEntity
  8
TOUROKU
100
AcDbText
 10
43.76437107837246
 20
43.38503798196092
 30
0.0
 40
2.0
  1
ＤＧＮＤ３００ＡＲ４
 72
     2
 11
66.96437107837247
 21
43.38503798196092
 31
0.0
100
AcDbText
  0
LINE
  5
37
330
2
100
AcDbEntity
  8
GAIKEI
  6
Continuous
 62
     1
100
AcDbLine
 10
-19.65452552019096
 20
7.400646588352685
 30
0.0
 11
-21.65452552019096
 21
7.400646588352685
 31
0.0
  0
LINE
  5
39
330
2
100
AcDbEntity
  8
GAIKEI
  6
Continuous
 62
     1
100
AcDbLine
 10
-19.65452552019096
 20
7.600646588352617
 30
0.0
 11
-21.65452552019096
 21
7.600646588352617
 31
0.0
  0
LINE
  5
3A
330
2
100
AcDbEntity
  8
GAIKEI
  6
Continuous
 62
     1
100
AcDbLine
 10
-19.65452552019096
 20
7.800646588352663
 30
0.0
 11
-21.65452552019096
 21
7.800646588352663
 31
0.0
  0
LINE
  5
3B
330
2
100
AcDbEntity
  8
GAIKEI
  6
Continuous
 62
     1
100
AcDbLine
 10
-19.65452552019096
 20
8.70064658835264
 30
0.0
 11
-21.65452552019096
 21
8.70064658835264
 31
0.0
  0
LINE
  5
3C
330
2
100
AcDbEntity
  8
GAIKEI
  6
Continuous
 62
     1
100
AcDbLine
 10
-19.65452552019096
 20
8.500646588352708
 30
0.0
 11
-21.65452552019096
 21
8.500646588352708
 31
0.0
  0
LINE
  5
3D
330
2
100
AcDbEntity
  8
GAIKEI
  6
Continuous
 62
     1
100
AcDbLine
 10
-19.65452552019096
 20
8.250646588352708
 30
0.0
 11
-21.65452552019096
 21
8.250646588352708
 31
0.0
  0
LINE
  5
3E
330
2
100
AcDbEntity
  8
GAIKEI
  6
Continuous
 62
     1
100
AcDbLine
 10
-19.65452552019096
 20
8.000646588352708
 30
0.0
 11
-21.65452552019096
 21
8.000646588352708
 31
0.0
  0
DIMENSION
  5
3F
330
2
100
AcDbEntity
  8
SUNPO
100
AcDbDimension
  2
*D6
 10
-3.555346774401044
 20
20.43753989291344
 30
0.0
 11
-24.55534677440105
 21
22.18753989291343
 31
0.0
 70
    33
  1
420
 71
     5
 42
42.0
  3
STANDARD
100
AcDbAlignedDimension
 13
-45.55534677440104
 23
12.43753989291343
 33
0.0
 14
-3.555346774401044
 24
12.43753989291343
 34
0.0
1001
ACAD
1000
DSTYLE
1002
{
1070
    40
1040
1.0
1070
   140
1040
2.5
1070
   147
1040
0.5
1070
   172
1070
     1
1002
}
  0
DIMENSION
  5
4E
330
2
100
AcDbEntity
  8
SUNPO
100
AcDbDimension
  2
*D5
 10
7.444653225598955
 20
3.637539892913478
 30
0.0
 11
5.694653225598955
 21
8.037539892913457
 31
0.0
 70
    33
  1
88
 71
     5
 42
8.799999999999954
  3
STANDARD
100
AcDbAlignedDimension
 13
-0.5553467744010448
 23
12.43753989291343
 33
0.0
 14
-0.5553467744010448
 24
3.63753989291348
 34
0.0
1001
ACAD
1000
DSTYLE
1002
{
1070
    40
1040
1.0
1070
   140
1040
2.5
1070
   147
1040
0.5
1070
   172
1070
     1
1002
}
  0
ARC
  5
5B
330
2
100
AcDbEntity
  8
GAIKEI
  6
S10
 62
     1
100
AcDbCircle
 10
-0.7553467744013176
 20
3.837539892913468
 30
0.0
 40
0.2
100
AcDbArc
 50
270.0000000000521
 51
0.0
  0
ARC
  5
5D
330
2
100
AcDbEntity
  8
GAIKEI
  6
Continuous
100
AcDbCircle
 10
24.25722991639353
 20
11.91753989291356
 30
0.0
 40
0.1
100
AcDbArc
 50
90.0
 51
180.0
  0
ARC
  5
5E
330
2
100
AcDbEntity
  8
GAIKEI
  6
Continuous
100
AcDbCircle
 10
26.78722991639339
 20
12.38753989291348
 30
0.0
 40
0.1
100
AcDbArc
 50
270.0
 51
0.0
  0
ARC
  5
5F
330
2
100
AcDbEntity
  8
GAIKEI
  6
Continuous
100
AcDbCircle
 10
24.25722991639353
 20
3.967540931731605
 30
0.0
 40
0.1
100
AcDbArc
 50
180.0
 51
269.9999999979156
  0
ARC
  5
60
330
2
100
AcDbEntity
  8
GAIKEI
  6
Continuous
 62
     1
100
AcDbCircle
 10
59.05723038618001
 20
4.337543617694961
 30
0.0
 40
0.1
100
AcDbArc
 50
270.0
 51
0.0
  0
ARC
  5
61
330
2
100
AcDbEntity
  8
GAIKEI
  6
Continuous
 62
     1
100
AcDbCircle
 10
59.05723038618001
 20
8.937543617694871
 30
0.0
 40
0.1
100
AcDbArc
 50
0.0
 51
90.0
  0
ARC
  5
62
330
2
100
AcDbEntity
  8
GAIKEI
  6
Continuous
 62
     1
100
AcDbCircle
 10
59.28722995169303
 20
5.237543617694825
 30
0.0
 40
0.1
100
AcDbArc
 50
270.0
 51
0.0
  0
ARC
  5
63
330
2
100
AcDbEntity
  8
GAIKEI
  6
Continuous
 62
     1
100
AcDbCircle
 10
59.28722995169303
 20
8.037543617694893
 30
0.0
 40
0.1
100
AcDbArc
 50
0.0
 51
90.0
  0
ARC
  5
64
330
2
100
AcDbEntity
  8
GAIKEI
  6
Continuous
 62
     1
100
AcDbCircle
 10
59.28723014099094
 20
10.71754361769461
 30
0.0
 40
0.1
100
AcDbArc
 50
0.0
 51
90.0
  0
ARC
  5
65
330
2
100
AcDbEntity
  8
GAIKEI
  6
Continuous
 62
     1
100
AcDbCircle
 10
59.28723014099094
 20
9.557543617694761
 30
0.0
 40
0.1
100
AcDbArc
 50
270.0
 51
0.0
  0
ARC
  5
66
330
2
100
AcDbEntity
  8
GAIKEI
  6
Continuous
 62
     1
100
AcDbCircle
 10
58.67722944532014
 20
3.737566293540112
 30
0.0
 40
0.1
100
AcDbArc
 50
270.0
 51
0.0
  0
ARC
  5
67
330
2
100
AcDbEntity
  8
GAIKEI
  6
Continuous
100
AcDbCircle
 10
55.79630123491861
 20
2.787539892913969
 30
0.0
 40
0.1000000000001
100
AcDbArc
 50
270.0
 51
354.5596679689617
  0
ARC
  5
68
330
2
100
AcDbEntity
  8
GAIKEI
  6
Continuous
100
AcDbCircle
 10
53.97815859786831
 20
2.787539892913969
 30
0.0
 40
0.1
100
AcDbArc
 50
185.4403320310514
 51
270.0
  0
ARC
  5
69
330
2
100
AcDbEntity
  8
GAIKEI
  6
Continuous
100
AcDbCircle
 10
58.8072301409907
 20
12.35753989291408
 30
0.0
 40
0.0799999999999
100
AcDbArc
 50
0.0
 51
90.0
  0
ARC
  5
6A
330
2
100
AcDbEntity
  8
GAIKEI
  6
Continuous
100
AcDbCircle
 10
58.80723014349147
 20
12.3575424458491
 30
0.0
 40
0.0800000000001
100
AcDbArc
 50
0.0000028317338351
 51
90.00000504153232
  0
ARC
  5
6B
330
2
100
AcDbEntity
  8
GAIKEI
  6
Continuous
 62
     1
100
AcDbCircle
 10
58.94222847927281
 20
5.282590909371776
 30
0.0
 40
0.0550000000002
100
AcDbArc
 50
10.00000000001175
 51
99.99999999997836
  0
ARC
  5
6C
330
2
100
AcDbEntity
  8
GAIKEI
  6
Continuous
 62
     1
100
AcDbCircle
 10
58.94222847927281
 20
5.282590909371776
 30
0.0
 40
0.0550000000002
100
AcDbArc
 50
99.99999999997836
 51
180.0
  0
ARC
  5
6D
330
2
100
AcDbEntity
  8
GAIKEI
  6
Continuous
 62
     1
100
AcDbCircle
 10
58.94222847927281
 20
4.392493561923799
 30
0.0
 40
0.055
100
AcDbArc
 50
259.9999999999415
 51
349.9999999999882
  0
ARC
  5
6E
330
2
100
AcDbEntity
  8
GAIKEI
  6
Continuous
 62
     1
100
AcDbCircle
 10
58.94222847927281
 20
4.392493561923799
 30
0.0
 40
0.0549999999998
100
AcDbArc
 50
180.0
 51
259.9999999999415
  0
ARC
  5
6F
330
2
100
AcDbEntity
  8
GAIKEI
  6
Continuous
 62
     1
100
AcDbCircle
 10
58.94222847927281
 20
11.26249373099182
 30
0.0
 40
0.055
100
AcDbArc
 50
253.2754320207233
 51
349.9999999999882
  0
ARC
  5
70
330
2
100
AcDbEntity
  8
GAIKEI
  6
Continuous
 62
     1
100
AcDbCircle
 10
58.94222847927281
 20
12.15259107844002
 30
0.0
 40
0.0550000000002
100
AcDbArc
 50
99.99999999999866
 51
180.0
  0
ARC
  5
71
330
2
100
AcDbEntity
  8
GAIKEI
  6
Continuous
 62
     1
100
AcDbCircle
 10
58.94222847927281
 20
12.15259107844002
 30
0.0
 40
0.0550000000001
100
AcDbArc
 50
9.999999999998539
 51
99.99999999999866
  0
ARC
  5
72
330
2
100
AcDbEntity
  8
GAIKEI
  6
Continuous
 62
     1
100
AcDbCircle
 10
58.94222847927281
 20
11.26249373099182
 30
0.0
 40
0.055
100
AcDbArc
 50
253.2754320207233
 51
259.9999999999745
  0
ARC
  5
73
330
2
100
AcDbEntity
  8
GAIKEI
  6
Continuous
100
AcDbCircle
 10
24.16722991639327
 20
12.03754044514375
 30
0.0
 40
0.0299999999997
100
AcDbArc
 50
90.0
 51
180.0
  0
ARC
  5
74
330
2
100
AcDbEntity
  8
GAIKEI
  6
Continuous
100
AcDbCircle
 10
28.79630195347593
 20
2.687540445143667
 30
0.0
 40
0.1000000000001
100
AcDbArc
 50
270.0
 51
354.5596679689682
  0
ARC
  5
75
330
2
100
AcDbEntity
  8
GAIKEI
  6
Continuous
100
AcDbCircle
 10
26.97815931642529
 20
2.687540445143667
 30
0.0
 40
0.1
100
AcDbArc
 50
185.4403320310579
 51
270.0
  0
ARC
  5
76
330
2
100
AcDbEntity
  8
GAIKEI
  6
Phantom
 62
     1
100
AcDbCircle
 10
26.68722991639359
 20
12.23754006885104
 30
0.0
 40
0.2
100
AcDbArc
 50
0.0
 51
90.0
  0
ARC
  5
78
330
2
100
AcDbEntity
  8
GAIKEI
  6
Phantom
 62
     1
100
AcDbCircle
 10
26.68722991639359
 20
3.837540068851012
 30
0.0
 40
0.2
100
AcDbArc
 50
270.0
 51
0.0
  0
ARC
  5
79
330
2
100
AcDbEntity
  8
GAIKEI
  6
Continuous
100
AcDbCircle
 10
-7.646275455875951
 20
2.687539892913207
 30
0.0
 40
0.1
100
AcDbArc
 50
270.0
 51
354.5596679690598
  0
ARC
  5
7A
330
2
100
AcDbEntity
  8
GAIKEI
  6
Continuous
100
AcDbCircle
 10
-9.464418092926365
 20
2.687539892913207
 30
0.0
 40
0.0999999999997
100
AcDbArc
 50
185.4403320309532
 51
270.0
  0
ARC
  5
7B
330
2
100
AcDbEntity
  8
GAIKEI
  6
Continuous
100
AcDbCircle
 10
-41.46441809292625
 20
2.687539892913207
 30
0.0
 40
0.0999999999998
100
AcDbArc
 50
185.4403320309532
 51
270.0
  0
ARC
  5
7C
330
2
100
AcDbEntity
  8
GAIKEI
  6
Continuous
100
AcDbCircle
 10
-39.64627545587573
 20
2.687539892913207
 30
0.0
 40
0.1
100
AcDbArc
 50
270.0
 51
354.5596679690468
  0
ARC
  5
7D
330
2
100
AcDbEntity
  8
GAIKEI
  6
S10
 62
     1
100
AcDbCircle
 10
-0.7553467744008629
 20
12.2375398929135
 30
0.0
 40
0.1999999999998
100
AcDbArc
 50
0.0
 51
90.00000000005213
  0
ARC
  5
7E
330
2
100
AcDbEntity
  8
GAIKEI
  6
S10
 62
     1
100
AcDbCircle
 10
-48.355346774401
 20
12.2375398929135
 30
0.0
 40
0.2
100
AcDbArc
 50
90.0
 51
180.0
  0
ARC
  5
7F
330
2
100
AcDbEntity
  8
GAIKEI
  6
S10
 62
     1
100
AcDbCircle
 10
-48.35534677440077
 20
3.837539892913468
 30
0.0
 40
0.2000000000002
100
AcDbArc
 50
180.0
 51
269.9999999999479
  0
SPLINE
  5
80
330
2
100
AcDbEntity
  8
GAIKEI
  6
Continuous
 62
     1
100
AcDbSpline
210
0.0
220
0.0
230
1.0
 70
     8
 71
     3
 72
    17
 73
    13
 74
    11
 42
0.0000000001
 43
0.0000000001
 44
0.00000000001
 40
0.0
 40
0.0
 40
0.0
 40
0.0
 40
0.0427717358242807
 40
0.0837584575637648
 40
0.1161207212020121
 40
0.1475432503121646
 40
0.1749106124982732
 40
0.2023141920584317
 40
0.2329611490501289
 40
0.2644468338971405
 40
0.3035320811277867
 40
0.3442651296821706
 40
0.3442651296821706
 40
0.3442651296821706
 40
0.3442651296821706
 10
-31.68034677440104
 20
4.13753989291348
 30
0.0
 10
-31.67990466876285
 20
4.15179029995042
 30
0.0
 10
-31.6790389081005
 20
4.179696394713005
 30
0.0
 10
-31.67802918439199
 20
4.218390279904753
 30
0.0
 10
-31.67722634570509
 20
4.253304910130623
 30
0.0
 10
-31.67660131977243
 20
4.283682570695276
 30
0.0
 10
-31.67608766207178
 20
4.31240916715177
 30
0.0
 10
-31.67565268958544
 20
4.340878509505614
 30
0.0
 10
-31.67527843548376
 20
4.370721609540595
 30
0.0
 10
-31.67494037223963
 20
4.404459234158622
 30
0.0
 10
-31.67469235622088
 20
4.44155990491231
 30
0.0
 10
-31.67465956888603
 20
4.468166025174582
 30
0.0
 10
-31.67464283678109
 20
4.48174371908334
 30
0.0
 11
-31.68034677440104
 21
4.13753989291348
 31
0.0
 11
-31.6790562981092
 21
4.180292156670645
 31
0.0
 11
-31.67797784282172
 21
4.221264687629115
 31
0.0
 11
-31.67723237569234
 21
4.253618364182955
 31
0.0
 11
-31.67658858877221
 21
4.285034297625713
 31
0.0
 11
-31.67609973476871
 21
4.312397293346009
 31
0.0
 11
-31.67568100842672
 21
4.339797673652867
 31
0.0
 11
-31.67529463870423
 21
4.370442195043949
 31
0.0
 11
-31.67498137080369
 21
4.401926321417533
 31
0.0
 11
-31.67473081346347
 21
4.441010765536645
 31
0.0
 11
-31.67464283678109
 21
4.48174371908334
 31
0.0
  0
SPLINE
  5
81
330
2
100
AcDbEntity
  8
GAIKEI
  6
Continuous
 62
     1
100
AcDbSpline
210
0.0
220
0.0
230
1.0
 70
     8
 71
     3
 72
    83
 73
    79
 74
    77
 42
0.0000000001
 43
0.0000000001
 44
0.00000000001
 40
0.0
 40
0.0
 40
0.0
 40
0.0
 40
0.1006916171909065
 40
0.1970428337209281
 40
0.2729364013791637
 40
0.34655984157975
 40
0.4119605511997168
 40
0.4793822698518023
 40
0.5478161756842236
 40
0.6162525473292101
 40
0.6847119289775357
 40
0.7531739021209286
 40
0.8216553750096034
 40
0.8901358312197462
 40
0.9586245576684198
 40
1.02711136400455
 40
1.0956072637837
 40
1.164098438500521
 40
1.232628879213168
 40
1.301159708251685
 40
1.36978452365903
 40
1.438419863882123
 40
1.507160762325494
 40
1.575916020614353
 40
1.644671722412466
 40
1.71342128755343
 40
1.782022795033418
 40
1.850600415038539
 40
1.919021060220037
 40
1.987437487995923
 40
2.055823159640453
 40
2.124229467853564
 40
2.192651664129586
 40
2.261084208509012
 40
2.329428188344206
 40
2.397758017145578
 40
2.465915560040876
 40
2.534058978690171
 40
2.602076057642014
 40
2.6700890568396
 40
2.738101136412084
 40
2.806117890439696
 40
2.874256133399277
 40
2.942407815224643
 40
3.010724300372654
 40
3.07905431510516
 40
3.147469115536733
 40
3.215873918467561
 40
3.284263676699097
 40
3.352632855603192
 40
3.421036105753136
 40
3.489443557060853
 40
3.558013872533972
 40
3.626608280630768
 40
3.695358583422474
 40
3.764115380713935
 40
3.832879281013677
 40
3.90162944437755
 40
3.970276796289726
 40
4.038913234079021
 40
4.107452385040111
 40
4.175990368934829
 40
4.244485317410741
 40
4.312985041141475
 40
4.381474622169676
 40
4.449966359529141
 40
4.518449865758209
 40
4.586934468834821
 40
4.655399273592291
 40
4.723861427015848
 40
4.792299846440058
 40
4.860735565486639
 40
4.928159145346644
 40
4.993561394765671
 40
5.06719009135482
 40
5.143089783235845
 40
5.239453830485276
 40
5.340159376275978
 40
5.340159376275978
 40
5.340159376275978
 40
5.340159376275978
 10
-18.2053467743909
 20
8.037539892913343
 30
0.0
 10
-18.20483845864493
 20
8.071110375211219
 30
0.0
 10
-18.20384373854998
 20
8.136804254661086
 30
0.0
 10
-18.19544365714
 20
8.227481979995843
 30
0.0
 10
-18.1839124190825
 20
8.308635039934245
 30
0.0
 10
-18.17114636877269
 20
8.379151047292822
 30
0.0
 10
-18.15593487151983
 20
8.446283908514942
 30
0.0
 10
-18.13848054632564
 20
8.511076606386268
 30
0.0
 10
-18.11824449830521
 20
8.576116337875589
 30
0.0
 10
-18.09526581851065
 20
8.64060693495125
 30
0.0
 10
-18.06971183098565
 20
8.704130801814415
 30
0.0
 10
-18.04159704080388
 20
8.766580264676179
 30
0.0
 10
-18.01098705643648
 20
8.827852918306149
 30
0.0
 10
-17.97792831934754
 20
8.887850016417928
 30
0.0
 10
-17.94248455338993
 20
8.946471745625018
 30
0.0
 10
-17.90470898300174
 20
9.003624873722912
 30
0.0
 10
-17.86466704143765
 20
9.059214726484412
 30
0.0
 10
-17.82241020755131
 20
9.113158665970217
 30
0.0
 10
-17.77800381559888
 20
9.165362959118795
 30
0.0
 10
-17.73148419720047
 20
9.215753961077695
 30
0.0
 10
-17.68293541278177
 20
9.26424279483254
 30
0.0
 10
-17.63239657796311
 20
9.310757135896551
 30
0.0
 10
-17.57998756411871
 20
9.355220387369257
 30
0.0
 10
-17.52580155320356
 20
9.3975649845122
 30
0.0
 10
-17.46995958167531
 20
9.437705339619242
 30
0.0
 10
-17.41259769463443
 20
9.475548977424722
 30
0.0
 10
-17.35381804268141
 20
9.511035787434337
 30
0.0
 10
-17.29376022758606
 20
9.544087136715404
 30
0.0
 10
-17.23247402737746
 20
9.574663720287105
 30
0.0
 10
-17.17005229967637
 20
9.602694135756905
 30
0.0
 10
-17.10654836409287
 20
9.628165526546808
 30
0.0
 10
-17.042053416942
 20
9.651017137142389
 30
0.0
 10
-16.97667504829908
 20
9.671253840251438
 30
0.0
 10
-16.91055910971667
 20
9.688851511253005
 30
0.0
 10
-16.84382437017183
 20
9.703792443031233
 30
0.0
 10
-16.77663859027973
 20
9.716052052332827
 30
0.0
 10
-16.70908458978567
 20
9.725620096936609
 30
0.0
 10
-16.64130706030437
 20
9.732482766566249
 30
0.0
 10
-16.57335650096513
 20
9.736619713964643
 30
0.0
 10
-16.50533769649451
 20
9.737992801177767
 30
0.0
 10
-16.43731901524606
 20
9.736618977960915
 30
0.0
 10
-16.3693706388911
 20
9.732481404334464
 30
0.0
 10
-16.30159693983407
 20
9.725618543115871
 30
0.0
 10
-16.2340510466563
 20
9.716051238065716
 30
0.0
 10
-16.16687615825248
 20
9.703793596336907
 30
0.0
 10
-16.10015595645293
 20
9.688856519275532
 30
0.0
 10
-16.03405554486036
 20
9.671264200805467
 30
0.0
 10
-15.96869308007919
 20
9.651034434168025
 30
0.0
 10
-15.90421311231154
 20
9.62819092800629
 30
0.0
 10
-15.84072225370133
 20
9.602728357231342
 30
0.0
 10
-15.77831196711332
 20
9.574707368948224
 30
0.0
 10
-15.7170338455677
 20
9.54413976019785
 30
0.0
 10
-15.65698178286627
 20
9.511097049887666
 30
0.0
 10
-15.59820342394198
 20
9.475616922117865
 30
0.0
 10
-15.54084016048625
 20
9.437778558027758
 30
0.0
 10
-15.48499234549271
 20
9.397640348877246
 30
0.0
 10
-15.430798284503
 20
9.355295755176427
 30
0.0
 10
-15.37837867864036
 20
9.310829563070001
 30
0.0
 10
-15.32782888159264
 20
9.264310925527752
 30
0.0
 10
-15.27926990288827
 20
9.215817211629826
 30
0.0
 10
-15.23274158186507
 20
9.165421765426856
 30
0.0
 10
-15.18832860478801
 20
9.113214470907195
 30
0.0
 10
-15.14606646170387
 20
9.059268274944514
 30
0.0
 10
-15.10602034483901
 20
9.003677165018558
 30
0.0
 10
-15.06824092926055
 20
8.946522735390175
 30
0.0
 10
-15.03279363474814
 20
8.887899694833464
 30
0.0
 10
-14.99973148581642
 20
8.827900975551187
 30
0.0
 10
-14.96911832015368
 20
8.766626550270302
 30
0.0
 10
-14.94100057850144
 20
8.704175220615411
 30
0.0
 10
-14.91544399492119
 20
8.640649646430603
 30
0.0
 10
-14.89246297480323
 20
8.576157535044529
 30
0.0
 10
-14.87222477847979
 20
8.511116473381775
 30
0.0
 10
-14.85476845387734
 20
8.446322513684833
 30
0.0
 10
-14.83955470242475
 20
8.379187203062997
 30
0.0
 10
-14.82678636971079
 20
8.308667226662947
 30
0.0
 10
-14.81525246113662
 20
8.227506392820401
 30
0.0
 10
-14.80685017721333
 20
8.136817826777217
 30
0.0
 10
-14.80585521510349
 20
8.071115021293707
 30
0.0
 10
-14.80534677440104
 20
8.037539892913343
 30
0.0
 11
-18.2053467743909
 21
8.037539892913343
 31
0.0
 11
-18.20249797432026
 21
8.138191202446193
 31
0.0
 11
-18.19394502918871
 21
8.23416205248094
 31
0.0
 11
-18.18332442728351
 21
8.309308818393162
 31
0.0
 11
-18.17010106010238
 21
8.381735011910166
 31
0.0
 11
-18.15566372869577
 21
8.445522285567619
 31
0.0
 11
-18.13815584916094
 21
8.510631135198025
 31
0.0
 11
-18.11780483592767
 21
8.57596899350284
 31
0.0
 11
-18.09483987265784
 21
8.64043718275883
 31
0.0
 11
-18.06928634762696
 21
8.703948632861681
 31
0.0
 11
-18.04118446086986
 21
8.766377197857025
 31
0.0
 11
-18.01057945324689
 21
8.827639303904732
 31
0.0
 11
-17.97753234058731
 21
8.887618143736915
 31
0.0
 11
-17.94209603659291
 21
8.946226795058862
 31
0.0
 11
-17.90433305111546
 21
9.003361719316728
 31
0.0
 11
-17.86429842979882
 21
9.058939748992031
 31
0.0
 11
-17.82206145778033
 21
9.112857085803113
 31
0.0
 11
-17.77765666794661
 21
9.165055131208021
 31
0.0
 11
-17.73117176494188
 21
9.215410154009589
 31
0.0
 11
-17.68261470389743
 21
9.263903216528035
 31
0.0
 11
-17.63211668227947
 21
9.310387189467235
 31
0.0
 11
-17.57970022081585
 21
9.354859941646907
 31
0.0
 11
-17.52552604964236
 21
9.397197215059748
 31
0.0
 11
-17.46969744931172
 21
9.437328423798987
 31
0.0
 11
-17.4123112899102
 21
9.475187787452057
 31
0.0
 11
-17.35358228188462
 21
9.510642976703536
 31
0.0
 11
-17.29350005580076
 21
9.543703770317335
 31
0.0
 11
-17.23227392567955
 21
9.574244655658674
 31
0.0
 11
-17.1698617731374
 21
9.602271978125656
 31
0.0
 11
-17.10638995001531
 21
9.627726403199346
 31
0.0
 11
-17.0419136750688
 21
9.650578820409975
 31
0.0
 11
-16.97655207504439
 21
9.67081389356241
 31
0.0
 11
-16.91042230926754
 21
9.688416938996113
 31
0.0
 11
-16.8437295822392
 21
9.703349445190212
 31
0.0
 11
-16.77650952702854
 21
9.715614423033628
 31
0.0
 11
-16.70902541749123
 21
9.725171912948951
 31
0.0
 11
-16.64122823987324
 21
9.732032540635088
 31
0.0
 11
-16.57333648249764
 21
9.736159562514501
 31
0.0
 11
-16.50533739241584
 21
9.737534992592088
 31
0.0
 11
-16.4373392368503
 21
9.736158835820731
 31
0.0
 11
-16.36944784857584
 21
9.732031097139667
 31
0.0
 11
-16.30165588042664
 21
9.725170396878354
 31
0.0
 11
-16.23417762956964
 21
9.715613336822741
 31
0.0
 11
-16.16697070307745
 21
9.703350744337797
 31
0.0
 11
-16.10029147954148
 21
9.688421844110905
 31
0.0
 11
-16.03417855379823
 21
9.670824515684159
 31
0.0
 11
-15.96883300071326
 21
9.650596422446653
 31
0.0
 11
-15.90437144520692
 21
9.627752016289548
 31
0.0
 11
-15.8409136966271
 21
9.60230680516446
 31
0.0
 11
-15.77851196394758
 21
9.574288447081414
 31
0.0
 11
-15.71729566938106
 21
9.543757402651806
 31
0.0
 11
-15.65721753007332
 21
9.510704334089211
 31
0.0
 11
-15.5984919898535
 21
9.475257137471714
 31
0.0
 11
-15.54110236747405
 21
9.437401683741825
 31
0.0
 11
-15.48526987314321
 21
9.397274015599066
 31
0.0
 11
-15.43108583835894
 21
9.354935329283478
 31
0.0
 11
-15.37865932179497
 21
9.31046010782785
 31
0.0
 11
-15.3281495910995
 21
9.263971119565837
 31
0.0
 11
-15.27958164803303
 21
9.215472506197045
 31
0.0
 11
-15.23308862113262
 21
9.165113657281438
 31
0.0
 11
-15.18867661322392
 21
9.112911848980672
 31
0.0
 11
-15.1464351107638
 21
9.058993267428206
 31
0.0
 11
-15.10639610869745
 21
9.00341368066546
 31
0.0
 11
-15.06862951690286
 21
8.94627781405228
 31
0.0
 11
-15.0331896494217
 21
8.887667798871973
 31
0.0
 11
-15.00013913552706
 21
8.827687350751546
 31
0.0
 11
-14.96953088902168
 21
8.766423363741012
 31
0.0
 11
-14.94142609006266
 21
8.703993004411984
 31
0.0
 11
-14.91586987773812
 21
8.640479647840209
 31
0.0
 11
-14.89290262624521
 21
8.576010099895881
 31
0.0
 11
-14.87254948543793
 21
8.510671005161555
 31
0.0
 11
-14.8550395616663
 21
8.445560777926118
 31
0.0
 11
-14.84060037256628
 21
8.38177234600306
 31
0.0
 11
-14.82737448849795
 21
8.309341268750074
 31
0.0
 11
-14.81675162197345
 21
8.234188637828481
 31
0.0
 11
-14.80819633232338
 21
8.13820511517332
 31
0.0
 11
-14.80534677440104
 21
8.037539892913343
 31
0.0
  0
SPLINE
  5
82
330
2
100
AcDbEntity
  8
GAIKEI
  6
Continuous
 62
     1
100
AcDbSpline
210
0.0
220
0.0
230
1.0
 70
     8
 71
     3
 72
    83
 73
    79
 74
    77
 42
0.0000000001
 43
0.0000000001
 44
0.00000000001
 40
0.0
 40
0.0
 40
0.0
 40
0.0
 40
0.1007051391640497
 40
0.1970687725042469
 40
0.2729679685501039
 40
0.3465961554936132
 40
0.4119978370738168
 40
0.4794208448846609
 40
0.5478560061877135
 40
0.6162938722164975
 40
0.6847555506280055
 40
0.7532198810267851
 40
0.8217041163684031
 40
0.8901872391934563
 40
0.9586787868435216
 40
1.027168153959381
 40
1.095668134181627
 40
1.164163359677962
 40
1.232702441719264
 40
1.301242822017853
 40
1.369880959002779
 40
1.438529990609771
 40
1.50728139112236
 40
1.576046385139904
 40
1.64480375055662
 40
1.713554693518046
 40
1.782149447150691
 40
1.850720112695596
 40
1.919127395091705
 40
1.987530391656868
 40
2.055898987745893
 40
2.124288203610237
 40
2.192692544533748
 40
2.261106921923867
 40
2.329436601246298
 40
2.397752742889448
 40
2.465904050391097
 40
2.53404190463458
 40
2.602058240004555
 40
2.670069898680225
 40
2.738082521450159
 40
2.806099230443726
 40
2.874242380657057
 40
2.94239967198943
 40
3.010729306415004
 40
3.079073101089309
 40
3.147505337631142
 40
3.21592718303708
 40
3.284332974058684
 40
3.352718080259636
 40
3.421134184568873
 40
3.489554582922004
 40
3.558132457874414
 40
3.626734218477209
 40
3.695484412753217
 40
3.764240689265168
 40
3.832997139894521
 40
3.901739388697164
 40
3.97037647897499
 40
4.039003059633548
 40
4.10753494936636
 40
4.176066283193189
 40
4.244557282003624
 40
4.313052960044473
 40
4.38153909918286
 40
4.450027204702766
 40
4.518507157876735
 40
4.586988178385149
 40
4.655449928020426
 40
4.723909096799831
 40
4.79234533880098
 40
4.860779102687871
 40
4.928200649112646
 40
4.993601192595709
 40
5.067224344185238
 40
5.143117601500419
 40
5.239468309861385
 40
5.340159384879573
 40
5.340159384879573
 40
5.340159384879573
 40
5.340159384879573
 10
-14.80534677440104
 20
8.037539892913343
 30
0.0
 10
-14.80585522009645
 20
8.003964900475125
 30
0.0
 10
-14.80685019185168
 20
7.93826236928794
 30
0.0
 10
-14.81525236747276
 20
7.847574236353977
 30
0.0
 10
-14.82678609579753
 20
7.766413855574484
 30
0.0
 10
-14.8395541689166
 20
7.695894366015778
 30
0.0
 10
-14.85476763628651
 20
7.628759554467762
 30
0.0
 10
-14.87222370757496
 20
7.563966112151376
 30
0.0
 10
-14.8924616552124
 20
7.498925560425504
 30
0.0
 10
-14.91544245266152
 20
7.434433930771831
 30
0.0
 10
-14.94099880074069
 20
7.370908802363999
 30
0.0
 10
-14.96911627513239
 20
7.308457834647242
 30
0.0
 10
-14.99972913886768
 20
7.247183715877298
 30
0.0
 10
-15.0327909795065
 20
7.187185185595552
 30
0.0
 10
-15.06823795176783
 20
7.128562257400233
 30
0.0
 10
-15.10601712681483
 20
7.071407728138183
 30
0.0
 10
-15.14606308382946
 20
7.015816371886387
 30
0.0
 10
-15.18832533682578
 20
6.961869571041745
 30
0.0
 10
-15.23273867848402
 20
6.909661445646207
 30
0.0
 10
-15.2792677531319
 20
6.859264867158486
 30
0.0
 10
-15.32782771211453
 20
6.81076995856921
 30
0.0
 10
-15.37837861481873
 20
6.764250247579127
 30
0.0
 10
-15.43079925752766
 20
6.719783209680656
 30
0.0
 10
-15.48499412709287
 20
6.67743807961267
 30
0.0
 10
-15.54084263831402
 20
6.637299523434791
 30
0.0
 10
-15.59820641182233
 20
6.599460991311929
 30
0.0
 10
-15.65698523284206
 20
6.563980766781241
 30
0.0
 10
-15.71703753546214
 20
6.530938127704757
 30
0.0
 10
-15.77831571195577
 20
6.500370683980349
 30
0.0
 10
-15.84072575391903
 20
6.47234996965372
 30
0.0
 10
-15.90421623591231
 20
6.446887695739007
 30
0.0
 10
-15.96869574035713
 20
6.42404446760068
 30
0.0
 10
-16.03405777634162
 20
6.403814925804852
 30
0.0
 10
-16.10015781417479
 20
6.386222785903015
 30
0.0
 10
-16.16687767096084
 20
6.371285850117658
 30
0.0
 10
-16.23405222372454
 20
6.359028325855433
 30
0.0
 10
-16.30159775771972
 20
6.349461116845219
 30
0.0
 10
-16.36937106799388
 20
6.34259832854309
 30
0.0
 10
-16.4373190366237
 20
6.33846080047536
 30
0.0
 10
-16.5053373123832
 20
6.337086989671945
 30
0.0
 10
-16.57335572776364
 20
6.338460059576732
 30
0.0
 10
-16.64130595050727
 20
6.342596964578206
 30
0.0
 10
-16.70908318811374
 20
6.349459569584581
 30
0.0
 10
-16.77663695951679
 20
6.359027531682357
 30
0.0
 10
-16.84382254377107
 20
6.371287039970354
 30
0.0
 10
-16.91055707647348
 20
6.386227845659703
 30
0.0
 10
-16.97667276815497
 20
6.403825349221932
 30
0.0
 10
-17.04205079697999
 20
6.424061823381691
 30
0.0
 10
-17.10654534103241
 20
6.446913139099564
 30
0.0
 10
-17.17004890752386
 20
6.472384189697152
 30
0.0
 10
-17.23247036747133
 20
6.500414276898197
 30
0.0
 10
-17.29375656182628
 20
6.530990636319813
 30
0.0
 10
-17.35381454681624
 20
6.564041858345689
 30
0.0
 10
-17.41259460646302
 20
6.599528727379691
 30
0.0
 10
-17.46995697450501
 20
6.637372518844472
 30
0.0
 10
-17.52579966141499
 20
6.67751324819747
 30
0.0
 10
-17.57998653211916
 20
6.719858434404159
 30
0.0
 10
-17.63239665124735
 20
6.764322596266651
 30
0.0
 10
-17.68293666205773
 20
6.810838056585339
 30
0.0
 10
-17.73148645614941
 20
6.859328039776386
 30
0.0
 10
-17.77800681495483
 20
6.909720046200135
 30
0.0
 10
-17.82241346481746
 20
6.961924898946875
 30
0.0
 10
-17.86467025358717
 20
7.015869083478435
 30
0.0
 10
-17.90471184238711
 20
7.071458752803437
 30
0.0
 10
-17.94248698640922
 20
7.128611559095702
 30
0.0
 10
-17.97793029975133
 20
7.187232863927221
 30
0.0
 10
-18.01098863836554
 20
7.2472295816072
 30
0.0
 10
-18.04159829212037
 20
7.308501961012666
 30
0.0
 10
-18.06971279943212
 20
7.370951226521441
 30
0.0
 10
-18.0952665317748
 20
7.434474992739239
 30
0.0
 10
-18.11824498828144
 20
7.49896549721501
 30
0.0
 10
-18.13848087712122
 20
7.564005122558882
 30
0.0
 10
-18.15593509085414
 20
7.628797683712065
 30
0.0
 10
-18.17114654618731
 20
7.695930339229477
 30
0.0
 10
-18.18391258060208
 20
7.766446090405509
 30
0.0
 10
-18.19544376068452
 20
7.847598786186381
 30
0.0
 10
-18.20384378120684
 20
7.938276061456463
 30
0.0
 10
-18.20483847308929
 20
8.003969591154856
 30
0.0
 10
-18.2053467743909
 20
8.037539892913343
 30
0.0
 11
-14.80534677440104
 21
8.037539892913343
 31
0.0
 11
-14.8081963257425
 21
7.936875077256615
 31
0.0
 11
-14.8167515113391
 21
7.840891960877058
 31
0.0
 11
-14.82737419916006
 21
7.765739805459759
 31
0.0
 11
-14.84059983220535
 21
7.693309200442683
 31
0.0
 11
-14.85503875066715
 21
7.629521289462843
 31
0.0
 11
-14.87254841446983
 21
7.564411584688684
 31
0.0
 11
-14.89290130882668
 21
7.499072997361793
 31
0.0
 11
-14.91586832244431
 21
7.434603952138047
 31
0.0
 11
-14.94142430285419
 21
7.371091014273304
 31
0.0
 11
-14.9695288208263
 21
7.308661048659757
 31
0.0
 11
-15.00013678250943
 21
7.247397330425144
 31
0.0
 11
-15.03318695530274
 21
7.187417132107668
 31
0.0
 11
-15.06862653807818
 21
7.128807166468675
 31
0.0
 11
-15.1063928002786
 21
7.071671338415342
 31
0.0
 11
-15.14643172963789
 21
7.016091383159789
 31
0.0
 11
-15.18867318035754
 21
6.962172409162747
 31
0.0
 11
-15.23308570149137
 21
6.909969595698328
 31
0.0
 11
-15.27957940529367
 21
6.859609698575525
 31
0.0
 11
-15.32814844762819
 21
6.811109781302718
 31
0.0
 11
-15.37865938235777
 21
6.764619620910195
 31
0.0
 11
-15.43108685835997
 21
6.720143618026838
 31
0.0
 11
-15.48527180261428
 21
6.6778043192798
 31
0.0
 11
-15.54110482859491
 21
6.637676417404748
 31
0.0
 11
-15.59849506315228
 21
6.599820729119699
 31
0.0
 11
-15.65722098080934
 21
6.564373489152956
 31
0.0
 11
-15.7172995112796
 21
6.531320405336089
 31
0.0
 11
-15.77851573113375
 21
6.500789589565954
 31
0.0
 11
-15.84091729491317
 21
6.472771474408489
 31
0.0
 11
-15.90437455240712
 21
6.447326604541842
 31
0.0
 11
-15.96883563289131
 21
6.42448248167949
 31
0.0
 11
-16.03418077091655
 21
6.404254609976248
 31
0.0
 11
-16.1002933073058
 21
6.386657463450262
 31
0.0
 11
-16.16697221736908
 21
6.371728698294361
 31
0.0
 11
-16.23417881578788
 21
6.359466221465424
 31
0.0
 11
-16.30165670228811
 21
6.349909258158675
 31
0.0
 11
-16.36944828704972
 21
6.343048630168766
 31
0.0
 11
-16.43733925866101
 21
6.33892093700723
 31
0.0
 11
-16.50533699350782
 21
6.337544793294398
 31
0.0
 11
-16.57333570742921
 21
6.33892020635352
 31
0.0
 11
-16.64122709688158
 21
6.34304718352115
 31
0.0
 11
-16.70902401100781
 21
6.349907748800831
 31
0.0
 11
-16.77650787844513
 21
6.359465154174074
 31
0.0
 11
-16.84372775398114
 21
6.371730033857772
 31
0.0
 11
-16.91042031748984
 21
6.386662422920551
 31
0.0
 11
-16.97654981091509
 21
6.404265294772528
 31
0.0
 11
-17.04191111077088
 21
6.424500151083236
 31
0.0
 11
-17.10638694641622
 21
6.447352259588285
 31
0.0
 11
-17.16985830985092
 21
6.472806311797228
 31
0.0
 11
-17.23227024525417
 21
6.500833328193436
 31
0.0
 11
-17.29349624269488
 21
6.531373926553499
 31
0.0
 11
-17.3535787839165
 21
6.564434676293046
 31
0.0
 11
-17.41230809284488
 21
6.599889856882043
 31
0.0
 11
-17.46969485331291
 21
6.637749451913862
 31
0.0
 11
-17.52552398526481
 21
6.677880905728613
 31
0.0
 11
-17.57969913810197
 21
6.720218859366184
 31
0.0
 11
-17.63211664355046
 21
6.764692468315786
 31
0.0
 11
-17.68261593253734
 21
6.811177648466298
 31
0.0
 11
-17.73117417459511
 21
6.859672026502778
 31
0.0
 11
-17.77765969515062
 21
6.910027922771575
 31
0.0
 11
-17.82206493505063
 21
6.962226757868791
 31
0.0
 11
-17.86430165248097
 21
7.016144070661255
 31
0.0
 11
-17.90433599670936
 21
7.071722026655322
 31
0.0
 11
-17.94209846587839
 21
7.128856492403599
 31
0.0
 11
-17.97753430438987
 21
7.187464699565168
 31
0.0
 11
-18.01058102848034
 21
7.247443179152412
 31
0.0
 11
-18.04118568045723
 21
7.308704957181191
 31
0.0
 11
-18.0692873121105
 21
7.371133391900855
 31
0.0
 11
-18.09484057974859
 21
7.434644716111449
 31
0.0
 11
-18.11780533694966
 21
7.49911284114961
 31
0.0
 11
-18.13815619065062
 21
7.564450600472753
 31
0.0
 11
-18.15566396052392
 21
7.629559301245933
 31
0.0
 11
-18.17010125075896
 21
7.693346413882807
 31
0.0
 11
-18.18332458564234
 21
7.765772319914674
 31
0.0
 11
-18.19394514285599
 21
7.840918778716002
 31
0.0
 11
-18.20249802245436
 21
7.936889124407969
 31
0.0
 11
-18.2053467743909
 21
8.037539892913343
 31
0.0
  0
CIRCLE
  5
83
330
2
100
AcDbEntity
  8
GAIKEI
  6
Continuous
 62
     1
100
AcDbCircle
 10
-29.80451663499705
 20
6.737539892913162
 30
0.0
 40
0.1
  0
CIRCLE
  5
84
330
2
100
AcDbEntity
  8
GAIKEI
  6
Continuous
 62
     1
100
AcDbCircle
 10
-16.50534677440098
 20
8.037539892913343
 30
0.0
 40
0.54093707777
  0
CIRCLE
  5
85
330
2
100
AcDbEntity
  8
GAIKEI
  6
Continuous
 62
     1
100
AcDbCircle
 10
-16.50534677440098
 20
8.037539892913343
 30
0.0
 40
1.2921891992601
  0
CIRCLE
  5
86
330
2
100
AcDbEntity
  8
GAIKEI
  6
Continuous
 62
     1
100
AcDbCircle
 10
52.08723014099089
 20
5.357539892913507
 30
0.0
 40
0.5
  0
CIRCLE
  5
87
330
2
100
AcDbEntity
  8
GAIKEI
  6
Continuous
 62
     1
100
AcDbCircle
 10
26.18722991639359
 20
6.037540445143747
 30
0.0
 40
0.25
  0
CIRCLE
  5
88
330
2
100
AcDbEntity
  8
GAIKEI
  6
Continuous
 62
     1
100
AcDbCircle
 10
26.18722991639359
 20
10.03754044514375
 30
0.0
 40
0.25
  0
CIRCLE
  5
89
330
2
100
AcDbEntity
  8
GAIKEI
  6
Continuous
 62
     1
100
AcDbCircle
 10
29.38723014099096
 20
5.357540445143456
 30
0.0
 40
0.4999999999998
  0
CIRCLE
  5
8A
330
2
100
AcDbEntity
  8
GAIKEI
  6
S10
 62
     1
100
AcDbCircle
 10
25.48723063495086
 20
6.037540068851001
 30
0.0
 40
0.25
  0
CIRCLE
  5
8B
330
2
100
AcDbEntity
  8
GAIKEI
  6
S10
 62
     1
100
AcDbCircle
 10
25.48723063495086
 20
10.037540068851
 30
0.0
 40
0.25
  0
CIRCLE
  5
8C
330
2
100
AcDbEntity
  8
GAIKEI
  6
Continuous
 62
     1
100
AcDbCircle
 10
52.08723014099089
 20
5.357543438779487
 30
0.0
 40
0.25
  0
CIRCLE
  5
8D
330
2
100
AcDbEntity
  8
GAIKEI
  6
Continuous
 62
     1
100
AcDbCircle
 10
29.38723014099096
 20
5.357540445143456
 30
0.0
 40
0.25
  0
ARC
  5
8E
330
2
100
AcDbEntity
  8
GAIKEI
  6
Continuous
100
AcDbCircle
 10
43.00329476131347
 20
8.037540147278548
 30
0.0
 40
19.9999999999999
100
AcDbArc
 50
180.0000002246731
 51
191.2447235923993
  0
ARC
  5
8F
330
2
100
AcDbEntity
  8
GAIKEI
  6
Continuous
100
AcDbCircle
 10
43.00329476131347
 20
8.037540147278548
 30
0.0
 40
19.9999999999999
100
AcDbArc
 50
168.7552764076007
 51
180.0000002246731
  0
ARC
  5
90
330
2
100
AcDbEntity
  8
GAIKEI
  6
Continuous
 62
     1
100
AcDbCircle
 10
-30.00534677440098
 20
8.037539892913343
 30
0.0
 40
10.45
100
AcDbArc
 50
158.0865399486964
 51
201.9134600513035
  0
ARC
  5
91
330
2
100
AcDbEntity
  8
GAIKEI
  6
Continuous
 62
     1
100
AcDbCircle
 10
-30.00534677440098
 20
8.037539892913343
 30
0.0
 40
10.4
100
AcDbArc
 50
157.975687163
 51
202.024312837
  0
ARC
  5
92
330
2
100
AcDbEntity
  8
GAIKEI
  6
Continuous
 62
     1
100
AcDbCircle
 10
-16.50534677440098
 20
8.037539892913343
 30
0.0
 40
0.75
100
AcDbArc
 50
344.5339900466074
 51
15.4660099533994
  0
ARC
  5
93
330
2
100
AcDbEntity
  8
GAIKEI
  6
Continuous
 62
     1
100
AcDbCircle
 10
-16.50534677440098
 20
8.037539892913343
 30
0.0
 40
0.7499999999999001
100
AcDbArc
 50
164.5339900466006
 51
195.4660099533926
  0
ARC
  5
94
330
2
100
AcDbEntity
  8
GAIKEI
  6
Continuous
 62
     1
100
AcDbCircle
 10
-16.50534677440098
 20
8.037539892913343
 30
0.0
 40
0.7499999999999001
100
AcDbArc
 50
254.5339900466067
 51
285.4660099533996
  0
ARC
  5
95
330
2
100
AcDbEntity
  8
GAIKEI
  6
Continuous
 62
     1
100
AcDbCircle
 10
-16.50534677440098
 20
8.037539892913343
 30
0.0
 40
0.75
100
AcDbArc
 50
74.53399004660041
 51
105.4660099533933
  0
ARC
  5
96
330
2
100
AcDbEntity
  8
GAIKEI
  6
Continuous
 62
     1
100
AcDbCircle
 10
56.28723014099094
 20
5.357539892914076
 30
0.0
 40
0.95
100
AcDbArc
 50
270.0
 51
90.0
  0
ARC
  5
97
330
2
100
AcDbEntity
  8
GAIKEI
  6
Continuous
 62
     1
100
AcDbCircle
 10
52.01723014099107
 20
5.287539892913798
 30
0.0
 40
0.035
100
AcDbArc
 50
0.0
 51
90.0
  0
ARC
  5
98
330
2
100
AcDbEntity
  8
GAIKEI
  6
Continuous
 62
     1
100
AcDbCircle
 10
52.01723014099107
 20
5.427539892913671
 30
0.0
 40
0.0349999999998
100
AcDbArc
 50
270.0
 51
0.0
  0
ARC
  5
99
330
2
100
AcDbEntity
  8
GAIKEI
  6
Continuous
 62
     1
100
AcDbCircle
 10
52.15723014099106
 20
5.427539892913671
 30
0.0
 40
0.035
100
AcDbArc
 50
180.0
 51
270.0
  0
ARC
  5
9A
330
2
100
AcDbEntity
  8
GAIKEI
  6
Continuous
 62
     1
100
AcDbCircle
 10
52.15723014099106
 20
5.287539892913798
 30
0.0
 40
0.0350000000001
100
AcDbArc
 50
90.0
 51
180.0
  0
ARC
  5
9B
330
2
100
AcDbEntity
  8
GAIKEI
  6
Continuous
 62
     1
100
AcDbCircle
 10
58.10036317614677
 20
11.43755205983137
 30
0.0
 40
0.8568549215007999
100
AcDbArc
 50
339.2754553013116
 51
20.7245446987039
  0
ARC
  5
9C
330
2
100
AcDbEntity
  8
GAIKEI
  6
Continuous
 62
     1
100
AcDbCircle
 10
58.10036317614677
 20
4.137546458939198
 30
0.0
 40
0.8568549215006001
100
AcDbArc
 50
339.2754553012977
 51
13.54353115280392
  0
ARC
  5
9D
330
2
100
AcDbEntity
  8
GAIKEI
  6
Continuous
 62
     1
100
AcDbCircle
 10
27.98723014099087
 20
5.357540445143456
 30
0.0
 40
0.95
100
AcDbArc
 50
90.0
 51
270.0
  0
ARC
  5
9E
330
2
100
AcDbEntity
  8
GAIKEI
  6
Continuous
 62
     1
100
AcDbCircle
 10
27.98723014099087
 20
5.357540445143456
 30
0.0
 40
0.6000000000000001
100
AcDbArc
 50
90.0
 51
270.0
  0
ARC
  5
9F
330
2
100
AcDbEntity
  8
GAIKEI
  6
Continuous
 62
     1
100
AcDbCircle
 10
29.31723014099126
 20
5.28754044514352
 30
0.0
 40
0.0349999999996
100
AcDbArc
 50
0.0
 51
90.0
  0
ARC
  5
A0
330
2
100
AcDbEntity
  8
GAIKEI
  6
Continuous
 62
     1
100
AcDbCircle
 10
29.31723014099126
 20
5.427540445143279
 30
0.0
 40
0.0349999999998
100
AcDbArc
 50
270.0
 51
0.0
  0
ARC
  5
A1
330
2
100
AcDbEntity
  8
GAIKEI
  6
Continuous
 62
     1
100
AcDbCircle
 10
29.45723014099101
 20
5.427540445143279
 30
0.0
 40
0.0350000000001
100
AcDbArc
 50
180.0
 51
270.0
  0
ARC
  5
A2
330
2
100
AcDbEntity
  8
GAIKEI
  6
Continuous
 62
     1
100
AcDbCircle
 10
29.45723014099101
 20
5.28754044514352
 30
0.0
 40
0.035
100
AcDbArc
 50
90.0
 51
180.0
  0
ARC
  5
A3
330
2
100
AcDbEntity
  8
GAIKEI
  6
HIDDEN2
 62
     1
100
AcDbCircle
 10
-1.50534677440109
 20
4.237539892913503
 30
0.0
 40
0.3
100
AcDbArc
 50
90.0
 51
270.0
  0
ARC
  5
A5
330
2
100
AcDbEntity
  8
GAIKEI
  6
HIDDEN2
 62
     1
100
AcDbCircle
 10
-1.105346774401112
 20
4.237539892913503
 30
0.0
 40
0.3
100
AcDbArc
 50
270.0
 51
90.0
  0
ARC
  5
A6
330
2
100
AcDbEntity
  8
GAIKEI
  6
HIDDEN2
 62
     1
100
AcDbCircle
 10
-1.50534677440109
 20
11.83753989291352
 30
0.0
 40
0.3
100
AcDbArc
 50
90.0
 51
270.0
  0
ARC
  5
A7
330
2
100
AcDbEntity
  8
GAIKEI
  6
HIDDEN2
 62
     1
100
AcDbCircle
 10
-1.105346774401112
 20
11.83753989291352
 30
0.0
 40
0.3
100
AcDbArc
 50
270.0
 51
90.0
  0
ARC
  5
A8
330
2
100
AcDbEntity
  8
GAIKEI
  6
S10
 62
     1
100
AcDbCircle
 10
-47.60534677440111
 20
4.237539892913503
 30
0.0
 40
0.3
100
AcDbArc
 50
270.0
 51
90.0
  0
ARC
  5
A9
330
2
100
AcDbEntity
  8
GAIKEI
  6
S10
 62
     1
100
AcDbCircle
 10
-48.00534677440109
 20
4.237539892913503
 30
0.0
 40
0.3
100
AcDbArc
 50
90.0
 51
270.0
  0
ARC
  5
AA
330
2
100
AcDbEntity
  8
GAIKEI
  6
S10
 62
     1
100
AcDbCircle
 10
-47.60534677440111
 20
11.83753989291352
 30
0.0
 40
0.3
100
AcDbArc
 50
270.0
 51
90.0
  0
ARC
  5
AB
330
2
100
AcDbEntity
  8
GAIKEI
  6
S10
 62
     1
100
AcDbCircle
 10
-48.00534677440109
 20
11.83753989291352
 30
0.0
 40
0.3
100
AcDbArc
 50
90.0
 51
270.0
  0
ARC
  5
AC
330
2
100
AcDbEntity
  8
GAIKEI
  6
Continuous
 62
     1
100
AcDbCircle
 10
56.28723014099094
 20
5.357539892914076
 30
0.0
 40
0.6000000000000001
100
AcDbArc
 50
270.0
 51
90.0
  0
LINE
  5
AD
330
2
100
AcDbEntity
  8
GAIKEI
  6
Continuous
 62
     1
100
AcDbLine
 10
-29.85452552019101
 20
8.000646588352708
 30
0.0
 11
-27.854525520191
 21
8.000646588352708
 31
0.0
  0
LINE
  5
AE
330
2
100
AcDbEntity
  8
GAIKEI
  6
Continuous
 62
     1
100
AcDbLine
 10
-29.85452552019101
 20
8.250646588352708
 30
0.0
 11
-27.854525520191
 21
8.250646588352708
 31
0.0
  0
LINE
  5
AF
330
2
100
AcDbEntity
  8
GAIKEI
  6
Continuous
 62
     1
100
AcDbLine
 10
-29.85452552019101
 20
8.500646588352708
 30
0.0
 11
-27.854525520191
 21
8.500646588352708
 31
0.0
  0
LINE
  5
B0
330
2
100
AcDbEntity
  8
GAIKEI
  6
Continuous
 62
     1
100
AcDbLine
 10
-29.85452552019101
 20
8.70064658835264
 30
0.0
 11
-27.854525520191
 21
8.70064658835264
 31
0.0
  0
LINE
  5
B1
330
2
100
AcDbEntity
  8
GAIKEI
  6
Continuous
 62
     1
100
AcDbLine
 10
-29.85452552019101
 20
7.800646588352663
 30
0.0
 11
-27.854525520191
 21
7.800646588352663
 31
0.0
  0
LINE
  5
B2
330
2
100
AcDbEntity
  8
GAIKEI
  6
Continuous
 62
     1
100
AcDbLine
 10
-29.85452552019101
 20
7.600646588352617
 30
0.0
 11
-27.854525520191
 21
7.600646588352617
 31
0.0
  0
LINE
  5
B3
330
2
100
AcDbEntity
  8
GAIKEI
  6
Continuous
 62
     1
100
AcDbLine
 10
-29.85452552019101
 20
7.400646588352685
 30
0.0
 11
-27.854525520191
 21
7.400646588352685
 31
0.0
  0
LINE
  5
B4
330
2
100
AcDbEntity
  8
GAIKEI
  6
S10
 62
     1
100
AcDbLine
 10
23.98722954401344
 20
12.43754007276351
 30
0.0
 11
23.88722991639363
 21
12.43754006885098
 31
0.0
  0
LINE
  5
B5
330
2
100
AcDbEntity
  8
GAIKEI
  6
Continuous
100
AcDbLine
 10
23.88722991639363
 20
3.737540445143679
 30
0.0
 11
23.98722991639366
 21
3.637540445143713
 31
0.0
  0
LINE
  5
B6
330
2
100
AcDbEntity
  8
GAIKEI
  6
Continuous
100
AcDbLine
 10
23.88722991639352
 20
4.037540147278207
 30
0.0
 11
23.47275617439359
 21
4.052013889278498
 31
0.0
  0
LINE
  5
B7
330
2
100
AcDbEntity
  8
GAIKEI
  6
Continuous
100
AcDbLine
 10
23.38722991639364
 20
4.137540147278457
 30
0.0
 11
23.47275617439359
 21
4.052013889278498
 31
0.0
  0
LINE
  5
B8
330
2
100
AcDbEntity
  8
GAIKEI
  6
Continuous
100
AcDbLine
 10
23.29011706211966
 20
11.41254014727798
 30
0.0
 11
23.23722991639377
 21
11.41254014727798
 31
0.0
  0
LINE
  5
B9
330
2
100
AcDbEntity
  8
GAIKEI
  6
Continuous
100
AcDbLine
 10
23.23722991639377
 20
11.41254014727798
 30
0.0
 11
23.23722991639377
 21
11.08756974490876
 31
0.0
  0
LINE
  5
BA
330
2
100
AcDbEntity
  8
GAIKEI
  6
Continuous
100
AcDbLine
 10
23.88722991639363
 20
12.03754014727855
 30
0.0
 11
23.47275617439359
 21
12.02306640526848
 31
0.0
  0
LINE
  5
BB
330
2
100
AcDbEntity
  8
GAIKEI
  6
Continuous
100
AcDbLine
 10
23.47275617439359
 20
12.02306640526848
 30
0.0
 11
23.38722991639364
 21
11.93754014727852
 31
0.0
  0
LINE
  5
BC
330
2
100
AcDbEntity
  8
GAIKEI
  6
Continuous
 62
     1
100
AcDbLine
 10
-27.75452552019098
 20
8.777539892913353
 30
0.0
 11
-21.75452552019098
 21
8.777539892913353
 31
0.0
  0
LINE
  5
BD
330
2
100
AcDbEntity
  8
GAIKEI
  6
Continuous
 62
     1
100
AcDbLine
 10
-21.75452552019098
 20
8.777539892913353
 30
0.0
 11
-21.75452552019098
 21
7.297539892913448
 31
0.0
  0
LINE
  5
BE
330
2
100
AcDbEntity
  8
GAIKEI
  6
Continuous
 62
     1
100
AcDbLine
 10
-21.75452552019098
 20
7.297539892913448
 30
0.0
 11
-27.75452552019098
 21
7.297539892913334
 31
0.0
  0
LINE
  5
BF
330
2
100
AcDbEntity
  8
GAIKEI
  6
Continuous
 62
     1
100
AcDbLine
 10
-27.75452552019098
 20
7.297539892913334
 30
0.0
 11
-27.75452552019098
 21
8.777539892913353
 31
0.0
  0
LINE
  5
C0
330
2
100
AcDbEntity
  8
GAIKEI
  6
Continuous
 62
     1
100
AcDbLine
 10
-9.268480408961153
 20
5.893949212803306
 30
0.0
 11
-4.61527397283109
 21
5.893949212803306
 31
0.0
  0
LINE
  5
C1
330
2
100
AcDbEntity
  8
GAIKEI
  6
Continuous
 62
     1
100
AcDbLine
 10
-4.609687857951115
 20
6.031104201573441
 30
0.0
 11
-9.297363265961138
 21
6.031104201573441
 31
0.0
  0
LINE
  5
C2
330
2
100
AcDbEntity
  8
GAIKEI
  6
Continuous
 62
     1
100
AcDbLine
 10
-4.610583293881148
 20
11.93753989291343
 30
0.0
 11
-9.801887781981093
 21
11.93753989291343
 31
0.0
  0
LINE
  5
C3
330
2
100
AcDbEntity
  8
GAIKEI
  6
Continuous
 62
     1
100
AcDbLine
 10
-4.63219137623102
 20
5.893949212793415
 30
0.0
 11
-9.282524506509929
 21
5.893949212793415
 31
0.0
  0
LINE
  5
C4
330
2
100
AcDbEntity
  8
GAIKEI
  6
Continuous
 62
     1
100
AcDbLine
 10
-44.60321495557102
 20
12.03753989291334
 30
0.0
 11
-44.60321495557102
 21
4.0375398929134
 31
0.0
  0
LINE
  5
C5
330
2
100
AcDbEntity
  8
GAIKEI
  6
Continuous
 62
     1
100
AcDbLine
 10
-39.70031969855083
 20
4.0375398929134
 30
0.0
 11
-39.70031969855083
 21
4.137539892913366
 31
0.0
  0
LINE
  5
C6
330
2
100
AcDbEntity
  8
GAIKEI
  6
Continuous
 62
     1
100
AcDbLine
 10
-39.70031969855083
 20
11.93753989291343
 30
0.0
 11
-39.70031969855083
 21
12.03753989291334
 31
0.0
  0
LINE
  5
C7
330
2
100
AcDbEntity
  8
GAIKEI
  6
Continuous
 62
     1
100
AcDbLine
 10
-39.64640480762088
 20
4.0375398929134
 30
0.0
 11
-39.64640480762088
 21
4.137539892913366
 31
0.0
  0
LINE
  5
C8
330
2
100
AcDbEntity
  8
GAIKEI
  6
Continuous
 62
     1
100
AcDbLine
 10
-39.64640480762088
 20
11.93753989291343
 30
0.0
 11
-39.64640480762088
 21
12.03753989291334
 31
0.0
  0
LINE
  5
C9
330
2
100
AcDbEntity
  8
GAIKEI
  6
Continuous
 62
     1
100
AcDbLine
 10
-38.65833012060111
 20
4.0375398929134
 30
0.0
 11
-38.65833012060111
 21
4.137539892913366
 31
0.0
  0
LINE
  5
CA
330
2
100
AcDbEntity
  8
GAIKEI
  6
Continuous
 62
     1
100
AcDbLine
 10
-34.83034677440102
 20
4.137539804629398
 30
0.0
 11
-34.83034677440102
 21
5.071296240673461
 31
0.0
  0
LINE
  5
CB
330
2
100
AcDbEntity
  8
GAIKEI
  6
Continuous
 62
     1
100
AcDbLine
 10
-34.63034677440098
 20
5.071296240673461
 30
0.0
 11
-34.63034677440098
 21
4.137539892913366
 31
0.0
  0
LINE
  5
CC
330
2
100
AcDbEntity
  8
GAIKEI
  6
Continuous
 62
     1
100
AcDbLine
 10
-34.480346774401
 20
4.137539892913366
 30
0.0
 11
-34.480346774401
 21
5.071296240673461
 31
0.0
  0
LINE
  5
CD
330
2
100
AcDbEntity
  8
GAIKEI
  6
Continuous
 62
     1
100
AcDbLine
 10
-34.28034677440095
 20
5.071296240673461
 30
0.0
 11
-34.28034677440095
 21
4.137539892913366
 31
0.0
  0
LINE
  5
CE
330
2
100
AcDbEntity
  8
GAIKEI
  6
Continuous
 62
     1
100
AcDbLine
 10
-34.13034677440098
 20
4.137539892913366
 30
0.0
 11
-34.13034677440098
 21
5.071296240673461
 31
0.0
  0
LINE
  5
CF
330
2
100
AcDbEntity
  8
GAIKEI
  6
Continuous
 62
     1
100
AcDbLine
 10
-33.93034677440105
 20
5.071296240673461
 30
0.0
 11
-33.93034677440105
 21
4.137539892913366
 31
0.0
  0
LINE
  5
D0
330
2
100
AcDbEntity
  8
GAIKEI
  6
Continuous
 62
     1
100
AcDbLine
 10
-33.78034677440096
 20
4.137539892913366
 30
0.0
 11
-33.78034677440096
 21
5.071296240673461
 31
0.0
  0
LINE
  5
D1
330
2
100
AcDbEntity
  8
GAIKEI
  6
Continuous
 62
     1
100
AcDbLine
 10
-33.58034677440102
 20
5.071296240673461
 30
0.0
 11
-33.58034677440102
 21
4.137539892913366
 31
0.0
  0
LINE
  5
D2
330
2
100
AcDbEntity
  8
GAIKEI
  6
Continuous
 62
     1
100
AcDbLine
 10
-33.43034677440105
 20
4.137539892913366
 30
0.0
 11
-33.43034677440105
 21
5.071296240673461
 31
0.0
  0
LINE
  5
D3
330
2
100
AcDbEntity
  8
GAIKEI
  6
Continuous
 62
     1
100
AcDbLine
 10
-33.230346774401
 20
5.071296240673461
 30
0.0
 11
-33.230346774401
 21
4.137539892913366
 31
0.0
  0
LINE
  5
D4
330
2
100
AcDbEntity
  8
GAIKEI
  6
Continuous
 62
     1
100
AcDbLine
 10
-33.08034677440102
 20
4.137539892913366
 30
0.0
 11
-33.08034677440102
 21
5.071296240673461
 31
0.0
  0
LINE
  5
D5
330
2
100
AcDbEntity
  8
GAIKEI
  6
Continuous
 62
     1
100
AcDbLine
 10
-32.88034677440098
 20
5.071296240673461
 30
0.0
 11
-32.88034677440098
 21
4.137539892913366
 31
0.0
  0
LINE
  5
D6
330
2
100
AcDbEntity
  8
GAIKEI
  6
Continuous
 62
     1
100
AcDbLine
 10
-32.730346774401
 20
4.137539892913366
 30
0.0
 11
-32.730346774401
 21
5.071296240673461
 31
0.0
  0
LINE
  5
D7
330
2
100
AcDbEntity
  8
GAIKEI
  6
Continuous
 62
     1
100
AcDbLine
 10
-32.53034677440096
 20
5.071296240673461
 30
0.0
 11
-32.53034677440096
 21
4.137539892913366
 31
0.0
  0
LINE
  5
D8
330
2
100
AcDbEntity
  8
GAIKEI
  6
Continuous
 62
     1
100
AcDbLine
 10
-32.38034677440098
 20
4.137539892913366
 30
0.0
 11
-32.38034677440098
 21
5.071296240673461
 31
0.0
  0
LINE
  5
D9
330
2
100
AcDbEntity
  8
GAIKEI
  6
Continuous
 62
     1
100
AcDbLine
 10
-32.18034677440105
 20
5.071296240673461
 30
0.0
 11
-32.18034677440105
 21
4.137539892913366
 31
0.0
  0
LINE
  5
DA
330
2
100
AcDbEntity
  8
GAIKEI
  6
Continuous
 62
     1
100
AcDbLine
 10
-32.03034677440096
 20
4.137539892913366
 30
0.0
 11
-32.03034677440096
 21
5.071296240673461
 31
0.0
  0
LINE
  5
DB
330
2
100
AcDbEntity
  8
GAIKEI
  6
Continuous
 62
     1
100
AcDbLine
 10
-31.83034677440102
 20
5.071296240673461
 30
0.0
 11
-31.83034677440102
 21
4.137539892913366
 31
0.0
  0
LINE
  5
DC
330
2
100
AcDbEntity
  8
GAIKEI
  6
Continuous
 62
     1
100
AcDbLine
 10
-31.68034677440104
 20
4.137539892913366
 30
0.0
 11
-31.68034677440104
 21
5.071296240673461
 31
0.0
  0
LINE
  5
DD
330
2
100
AcDbEntity
  8
GAIKEI
  6
Continuous
 62
     1
100
AcDbLine
 10
-31.480346774401
 20
5.071296240673461
 30
0.0
 11
-31.480346774401
 21
4.137539892913366
 31
0.0
  0
LINE
  5
DE
330
2
100
AcDbEntity
  8
GAIKEI
  6
Continuous
 62
     1
100
AcDbLine
 10
-31.33034677440102
 20
4.137539892913366
 30
0.0
 11
-31.33034677440102
 21
5.071296240673461
 31
0.0
  0
LINE
  5
DF
330
2
100
AcDbEntity
  8
GAIKEI
  6
Continuous
 62
     1
100
AcDbLine
 10
-31.13034677440098
 20
5.071296240673461
 30
0.0
 11
-31.13034677440098
 21
4.137539892913366
 31
0.0
  0
LINE
  5
E0
330
2
100
AcDbEntity
  8
GAIKEI
  6
Continuous
 62
     1
100
AcDbLine
 10
-30.980346774401
 20
4.137539892913366
 30
0.0
 11
-30.980346774401
 21
5.071296240673461
 31
0.0
  0
LINE
  5
E1
330
2
100
AcDbEntity
  8
GAIKEI
  6
Continuous
 62
     1
100
AcDbLine
 10
-30.78034677440096
 20
5.071296240673461
 30
0.0
 11
-30.78034677440096
 21
4.137539892913366
 31
0.0
  0
LINE
  5
E2
330
2
100
AcDbEntity
  8
GAIKEI
  6
Continuous
 62
     1
100
AcDbLine
 10
-30.63034677440098
 20
4.137539892913366
 30
0.0
 11
-30.63034677440098
 21
5.071296240673461
 31
0.0
  0
LINE
  5
E3
330
2
100
AcDbEntity
  8
GAIKEI
  6
Continuous
 62
     1
100
AcDbLine
 10
-30.43034677440104
 20
5.071296240673461
 30
0.0
 11
-30.43034677440104
 21
4.137539892913366
 31
0.0
  0
LINE
  5
E4
330
2
100
AcDbEntity
  8
GAIKEI
  6
Continuous
 62
     1
100
AcDbLine
 10
-30.28034677440095
 20
4.137539892913366
 30
0.0
 11
-30.28034677440095
 21
5.071296240673461
 31
0.0
  0
LINE
  5
E5
330
2
100
AcDbEntity
  8
GAIKEI
  6
Continuous
 62
     1
100
AcDbLine
 10
-30.08034677440102
 20
5.071296240673461
 30
0.0
 11
-30.08034677440102
 21
4.137539892913366
 31
0.0
  0
LINE
  5
E6
330
2
100
AcDbEntity
  8
GAIKEI
  6
Continuous
 62
     1
100
AcDbLine
 10
-29.93034677440105
 20
4.137539892913366
 30
0.0
 11
-29.93034677440105
 21
5.071296240673461
 31
0.0
  0
LINE
  5
E7
330
2
100
AcDbEntity
  8
GAIKEI
  6
Continuous
 62
     1
100
AcDbLine
 10
-29.730346774401
 20
5.071296240673461
 30
0.0
 11
-29.730346774401
 21
4.137539892913366
 31
0.0
  0
LINE
  5
E8
330
2
100
AcDbEntity
  8
GAIKEI
  6
Continuous
 62
     1
100
AcDbLine
 10
-29.58034677440102
 20
4.137539892913366
 30
0.0
 11
-29.58034677440102
 21
5.071296240673461
 31
0.0
  0
LINE
  5
E9
330
2
100
AcDbEntity
  8
GAIKEI
  6
Continuous
 62
     1
100
AcDbLine
 10
-29.38034677440098
 20
5.071296240673461
 30
0.0
 11
-29.38034677440098
 21
4.137539892913366
 31
0.0
  0
LINE
  5
EA
330
2
100
AcDbEntity
  8
GAIKEI
  6
Continuous
 62
     1
100
AcDbLine
 10
-29.230346774401
 20
4.137539892913366
 30
0.0
 11
-29.230346774401
 21
5.071296240673461
 31
0.0
  0
LINE
  5
EB
330
2
100
AcDbEntity
  8
GAIKEI
  6
Continuous
 62
     1
100
AcDbLine
 10
-29.03034677440095
 20
5.071296240673461
 30
0.0
 11
-29.03034677440095
 21
4.137539892913366
 31
0.0
  0
LINE
  5
EC
330
2
100
AcDbEntity
  8
GAIKEI
  6
Continuous
 62
     1
100
AcDbLine
 10
-28.88034677440098
 20
4.137539892913366
 30
0.0
 11
-28.88034677440098
 21
5.071296240673461
 31
0.0
  0
LINE
  5
ED
330
2
100
AcDbEntity
  8
GAIKEI
  6
Continuous
 62
     1
100
AcDbLine
 10
-28.68034677440105
 20
5.071296240673461
 30
0.0
 11
-28.68034677440105
 21
4.137539892913366
 31
0.0
  0
LINE
  5
EE
330
2
100
AcDbEntity
  8
GAIKEI
  6
Continuous
 62
     1
100
AcDbLine
 10
-28.53034677440096
 20
4.137539892913366
 30
0.0
 11
-28.53034677440096
 21
5.071296240673461
 31
0.0
  0
LINE
  5
EF
330
2
100
AcDbEntity
  8
GAIKEI
  6
Continuous
 62
     1
100
AcDbLine
 10
-4.605346774400999
 20
4.0375398929134
 30
0.0
 11
-9.804288741171006
 21
4.0375398929134
 31
0.0
  0
LINE
  5
F0
330
2
100
AcDbEntity
  8
GAIKEI
  6
Continuous
 62
     1
100
AcDbLine
 10
-9.854288741170961
 20
4.0375398929134
 30
0.0
 11
-39.64640480762088
 21
4.0375398929134
 31
0.0
  0
LINE
  5
F1
330
2
100
AcDbEntity
  8
GAIKEI
  6
Continuous
 62
     1
100
AcDbLine
 10
-39.70031969855083
 20
4.0375398929134
 30
0.0
 11
-44.60321495557102
 21
4.0375398929134
 31
0.0
  0
LINE
  5
F2
330
2
100
AcDbEntity
  8
GAIKEI
  6
Continuous
 62
     1
100
AcDbLine
 10
-39.64640480762088
 20
4.087539892913412
 30
0.0
 11
-39.70031969855083
 21
4.087539892913412
 31
0.0
  0
LINE
  5
F3
330
2
100
AcDbEntity
  8
GAIKEI
  6
Continuous
 62
     1
100
AcDbLine
 10
-4.622807159141046
 20
4.137539892913366
 30
0.0
 11
-9.804288741171006
 21
4.137539892913366
 31
0.0
  0
LINE
  5
F4
330
2
100
AcDbEntity
  8
GAIKEI
  6
Continuous
 62
     1
100
AcDbLine
 10
-9.880492630811062
 20
4.137539892913366
 30
0.0
 11
-10.85236342819095
 21
4.137539892913366
 31
0.0
  0
LINE
  5
F5
330
2
100
AcDbEntity
  8
GAIKEI
  6
Continuous
 62
     1
100
AcDbLine
 10
-38.65833012060111
 20
4.137539892913366
 30
0.0
 11
-39.64640480762088
 21
4.137539892913366
 31
0.0
  0
LINE
  5
F6
330
2
100
AcDbEntity
  8
GAIKEI
  6
Continuous
 62
     1
100
AcDbLine
 10
-39.70031969855083
 20
4.137539892913366
 30
0.0
 11
-44.60321495557102
 21
4.137539892913366
 31
0.0
  0
LINE
  5
F7
330
2
100
AcDbEntity
  8
GAIKEI
  6
Continuous
 62
     1
100
AcDbLine
 10
-34.480346774401
 20
4.137539892913366
 30
0.0
 11
-34.28034677440095
 21
4.137539892913366
 31
0.0
  0
LINE
  5
F8
330
2
100
AcDbEntity
  8
GAIKEI
  6
Continuous
 62
     1
100
AcDbLine
 10
-34.13034677440098
 20
4.137539892913366
 30
0.0
 11
-33.93034677440105
 21
4.137539892913366
 31
0.0
  0
LINE
  5
F9
330
2
100
AcDbEntity
  8
GAIKEI
  6
Continuous
 62
     1
100
AcDbLine
 10
-33.78034677440096
 20
4.137539892913366
 30
0.0
 11
-33.58034677440102
 21
4.137539892913366
 31
0.0
  0
LINE
  5
FA
330
2
100
AcDbEntity
  8
GAIKEI
  6
Continuous
 62
     1
100
AcDbLine
 10
-33.43034677440105
 20
4.137539892913366
 30
0.0
 11
-33.230346774401
 21
4.137539892913366
 31
0.0
  0
LINE
  5
FB
330
2
100
AcDbEntity
  8
GAIKEI
  6
Continuous
 62
     1
100
AcDbLine
 10
-33.08034677440102
 20
4.137539892913366
 30
0.0
 11
-32.88034677440098
 21
4.137539892913366
 31
0.0
  0
LINE
  5
FC
330
2
100
AcDbEntity
  8
GAIKEI
  6
Continuous
 62
     1
100
AcDbLine
 10
-32.730346774401
 20
4.137539892913366
 30
0.0
 11
-32.53034677440096
 21
4.137539892913366
 31
0.0
  0
LINE
  5
FD
330
2
100
AcDbEntity
  8
GAIKEI
  6
Continuous
 62
     1
100
AcDbLine
 10
-32.38034677440098
 20
4.137539892913366
 30
0.0
 11
-32.18034677440105
 21
4.137539892913366
 31
0.0
  0
LINE
  5
FE
330
2
100
AcDbEntity
  8
GAIKEI
  6
Continuous
 62
     1
100
AcDbLine
 10
-32.03034677440096
 20
4.137539892913366
 30
0.0
 11
-31.83034677440102
 21
4.137539892913366
 31
0.0
  0
LINE
  5
FF
330
2
100
AcDbEntity
  8
GAIKEI
  6
Continuous
 62
     1
100
AcDbLine
 10
-31.68034677440104
 20
4.137539892913366
 30
0.0
 11
-31.480346774401
 21
4.137539892913366
 31
0.0
  0
LINE
  5
100
330
2
100
AcDbEntity
  8
GAIKEI
  6
Continuous
 62
     1
100
AcDbLine
 10
-31.33034677440102
 20
4.137539892913366
 30
0.0
 11
-31.13034677440098
 21
4.137539892913366
 31
0.0
  0
LINE
  5
101
330
2
100
AcDbEntity
  8
GAIKEI
  6
Continuous
 62
     1
100
AcDbLine
 10
-30.980346774401
 20
4.137539892913366
 30
0.0
 11
-30.78034677440096
 21
4.137539892913366
 31
0.0
  0
LINE
  5
102
330
2
100
AcDbEntity
  8
GAIKEI
  6
Continuous
 62
     1
100
AcDbLine
 10
-30.63034677440098
 20
4.137539892913366
 30
0.0
 11
-30.43034677440104
 21
4.137539892913366
 31
0.0
  0
LINE
  5
103
330
2
100
AcDbEntity
  8
GAIKEI
  6
Continuous
 62
     1
100
AcDbLine
 10
-30.28034677440095
 20
4.137539892913366
 30
0.0
 11
-30.08034677440102
 21
4.137539892913366
 31
0.0
  0
LINE
  5
104
330
2
100
AcDbEntity
  8
GAIKEI
  6
Continuous
 62
     1
100
AcDbLine
 10
-29.93034677440105
 20
4.137539892913366
 30
0.0
 11
-29.730346774401
 21
4.137539892913366
 31
0.0
  0
LINE
  5
105
330
2
100
AcDbEntity
  8
GAIKEI
  6
Continuous
 62
     1
100
AcDbLine
 10
-29.58034677440102
 20
4.137539892913366
 30
0.0
 11
-29.38034677440098
 21
4.137539892913366
 31
0.0
  0
LINE
  5
106
330
2
100
AcDbEntity
  8
GAIKEI
  6
Continuous
 62
     1
100
AcDbLine
 10
-29.230346774401
 20
4.137539892913366
 30
0.0
 11
-29.03034677440095
 21
4.137539892913366
 31
0.0
  0
LINE
  5
107
330
2
100
AcDbEntity
  8
GAIKEI
  6
Continuous
 62
     1
100
AcDbLine
 10
-28.88034677440098
 20
4.137539892913366
 30
0.0
 11
-28.68034677440105
 21
4.137539892913366
 31
0.0
  0
LINE
  5
108
330
2
100
AcDbEntity
  8
GAIKEI
  6
Continuous
 62
     1
100
AcDbLine
 10
-28.53034677440096
 20
4.137539892913366
 30
0.0
 11
-28.33034677440102
 21
4.137539892913366
 31
0.0
  0
LINE
  5
109
330
2
100
AcDbEntity
  8
GAIKEI
  6
Continuous
 62
     1
100
AcDbLine
 10
-28.18034677440105
 20
4.137539892913366
 30
0.0
 11
-27.980346774401
 21
4.137539892913366
 31
0.0
  0
LINE
  5
10A
330
2
100
AcDbEntity
  8
GAIKEI
  6
Continuous
 62
     1
100
AcDbLine
 10
-27.83034677440102
 20
4.137539892913366
 30
0.0
 11
-27.63034677440098
 21
4.137539892913366
 31
0.0
  0
LINE
  5
10B
330
2
100
AcDbEntity
  8
GAIKEI
  6
Continuous
 62
     1
100
AcDbLine
 10
-27.480346774401
 20
4.137539892913366
 30
0.0
 11
-27.28034677440096
 21
4.137539892913366
 31
0.0
  0
LINE
  5
10C
330
2
100
AcDbEntity
  8
GAIKEI
  6
Continuous
 62
     1
100
AcDbLine
 10
-27.13034677440098
 20
4.137539892913366
 30
0.0
 11
-26.93034677440105
 21
4.137539892913366
 31
0.0
  0
LINE
  5
10D
330
2
100
AcDbEntity
  8
GAIKEI
  6
Continuous
 62
     1
100
AcDbLine
 10
-26.78034677440095
 20
4.137539892913366
 30
0.0
 11
-26.58034677440102
 21
4.137539892913366
 31
0.0
  0
LINE
  5
10E
330
2
100
AcDbEntity
  8
GAIKEI
  6
Continuous
 62
     1
100
AcDbLine
 10
-26.43034677440105
 20
4.137539892913366
 30
0.0
 11
-26.230346774401
 21
4.137539892913366
 31
0.0
  0
LINE
  5
10F
330
2
100
AcDbEntity
  8
GAIKEI
  6
Continuous
 62
     1
100
AcDbLine
 10
-26.08034677440102
 20
4.137539892913366
 30
0.0
 11
-25.88034677440098
 21
4.137539892913366
 31
0.0
  0
LINE
  5
110
330
2
100
AcDbEntity
  8
GAIKEI
  6
Continuous
 62
     1
100
AcDbLine
 10
-25.730346774401
 20
4.137539892913366
 30
0.0
 11
-25.53034677440095
 21
4.137539892913366
 31
0.0
  0
LINE
  5
111
330
2
100
AcDbEntity
  8
GAIKEI
  6
Continuous
 62
     1
100
AcDbLine
 10
-25.38034677440098
 20
4.137539892913366
 30
0.0
 11
-25.18034677440105
 21
4.137539892913366
 31
0.0
  0
LINE
  5
112
330
2
100
AcDbEntity
  8
GAIKEI
  6
Continuous
 62
     1
100
AcDbLine
 10
-25.03034677440096
 20
4.137539892913366
 30
0.0
 11
-24.83034677440102
 21
4.137539892913366
 31
0.0
  0
LINE
  5
113
330
2
100
AcDbEntity
  8
GAIKEI
  6
Continuous
 62
     1
100
AcDbLine
 10
-24.68034677440105
 20
4.137539892913366
 30
0.0
 11
-24.480346774401
 21
4.137539892913366
 31
0.0
  0
LINE
  5
114
330
2
100
AcDbEntity
  8
GAIKEI
  6
Continuous
 62
     1
100
AcDbLine
 10
-24.33034677440102
 20
4.137539892913366
 30
0.0
 11
-24.13034677440098
 21
4.137539892913366
 31
0.0
  0
LINE
  5
115
330
2
100
AcDbEntity
  8
GAIKEI
  6
Continuous
 62
     1
100
AcDbLine
 10
-23.980346774401
 20
4.137539892913366
 30
0.0
 11
-23.78034677440096
 21
4.137539892913366
 31
0.0
  0
LINE
  5
116
330
2
100
AcDbEntity
  8
GAIKEI
  6
Continuous
 62
     1
100
AcDbLine
 10
-23.63034677440098
 20
4.137539892913366
 30
0.0
 11
-23.43034677440105
 21
4.137539892913366
 31
0.0
  0
LINE
  5
117
330
2
100
AcDbEntity
  8
GAIKEI
  6
Continuous
 62
     1
100
AcDbLine
 10
-23.28034677440095
 20
4.137539892913366
 30
0.0
 11
-23.08034677440102
 21
4.137539892913366
 31
0.0
  0
LINE
  5
118
330
2
100
AcDbEntity
  8
GAIKEI
  6
Continuous
 62
     1
100
AcDbLine
 10
-22.93034677440104
 20
4.137539892913366
 30
0.0
 11
-22.730346774401
 21
4.137539892913366
 31
0.0
  0
LINE
  5
119
330
2
100
AcDbEntity
  8
GAIKEI
  6
Continuous
 62
     1
100
AcDbLine
 10
-22.58034677440102
 20
4.137539892913366
 30
0.0
 11
-22.38034677440098
 21
4.137539892913366
 31
0.0
  0
LINE
  5
11A
330
2
100
AcDbEntity
  8
GAIKEI
  6
Continuous
 62
     1
100
AcDbLine
 10
-22.230346774401
 20
4.137539892913366
 30
0.0
 11
-22.03034677440095
 21
4.137539892913366
 31
0.0
  0
LINE
  5
11B
330
2
100
AcDbEntity
  8
GAIKEI
  6
Continuous
 62
     1
100
AcDbLine
 10
-21.88034677440098
 20
4.137539892913366
 30
0.0
 11
-21.68034677440104
 21
4.137539892913366
 31
0.0
  0
LINE
  5
11C
330
2
100
AcDbEntity
  8
GAIKEI
  6
Continuous
 62
     1
100
AcDbLine
 10
-21.53034677440095
 20
4.137539892913366
 30
0.0
 11
-21.33034677440102
 21
4.137539892913366
 31
0.0
  0
LINE
  5
11D
330
2
100
AcDbEntity
  8
GAIKEI
  6
Continuous
 62
     1
100
AcDbLine
 10
-21.18034677440105
 20
4.137539892913366
 30
0.0
 11
-20.980346774401
 21
4.137539892913366
 31
0.0
  0
LINE
  5
11E
330
2
100
AcDbEntity
  8
GAIKEI
  6
Continuous
 62
     1
100
AcDbLine
 10
-20.83034677440102
 20
4.137539892913366
 30
0.0
 11
-20.63034677440098
 21
4.137539892913366
 31
0.0
  0
LINE
  5
11F
330
2
100
AcDbEntity
  8
GAIKEI
  6
Continuous
 62
     1
100
AcDbLine
 10
-20.480346774401
 20
4.137539892913366
 30
0.0
 11
-20.28034677440095
 21
4.137539892913366
 31
0.0
  0
LINE
  5
120
330
2
100
AcDbEntity
  8
GAIKEI
  6
Continuous
 62
     1
100
AcDbLine
 10
-20.13034677440098
 20
4.137539892913366
 30
0.0
 11
-19.93034677440104
 21
4.137539892913366
 31
0.0
  0
LINE
  5
121
330
2
100
AcDbEntity
  8
GAIKEI
  6
Continuous
 62
     1
100
AcDbLine
 10
-19.78034677440095
 20
4.137539892913366
 30
0.0
 11
-19.58034677440102
 21
4.137539892913366
 31
0.0
  0
LINE
  5
122
330
2
100
AcDbEntity
  8
GAIKEI
  6
Continuous
 62
     1
100
AcDbLine
 10
-19.43034677440104
 20
4.137539892913366
 30
0.0
 11
-19.230346774401
 21
4.137539892913366
 31
0.0
  0
LINE
  5
123
330
2
100
AcDbEntity
  8
GAIKEI
  6
Continuous
 62
     1
100
AcDbLine
 10
-19.08034677440102
 20
4.137539892913366
 30
0.0
 11
-18.88034677440098
 21
4.137539892913366
 31
0.0
  0
LINE
  5
124
330
2
100
AcDbEntity
  8
GAIKEI
  6
Continuous
 62
     1
100
AcDbLine
 10
-18.730346774401
 20
4.137539892913366
 30
0.0
 11
-18.53034677440095
 21
4.137539892913366
 31
0.0
  0
LINE
  5
125
330
2
100
AcDbEntity
  8
GAIKEI
  6
Continuous
 62
     1
100
AcDbLine
 10
-18.38034677440098
 20
4.137539892913366
 30
0.0
 11
-18.18034677440104
 21
4.137539892913366
 31
0.0
  0
LINE
  5
126
330
2
100
AcDbEntity
  8
GAIKEI
  6
Continuous
 62
     1
100
AcDbLine
 10
-18.03034677440095
 20
4.137539892913366
 30
0.0
 11
-17.83034677440102
 21
4.137539892913366
 31
0.0
  0
LINE
  5
127
330
2
100
AcDbEntity
  8
GAIKEI
  6
Continuous
 62
     1
100
AcDbLine
 10
-17.68034677440104
 20
4.137539892913366
 30
0.0
 11
-17.480346774401
 21
4.137539892913366
 31
0.0
  0
LINE
  5
128
330
2
100
AcDbEntity
  8
GAIKEI
  6
Continuous
 62
     1
100
AcDbLine
 10
-17.33034677440102
 20
4.137539892913366
 30
0.0
 11
-17.13034677440098
 21
4.137539892913366
 31
0.0
  0
LINE
  5
129
330
2
100
AcDbEntity
  8
GAIKEI
  6
Continuous
 62
     1
100
AcDbLine
 10
-16.980346774401
 20
4.137539892913366
 30
0.0
 11
-16.78034677440095
 21
4.137539892913366
 31
0.0
  0
LINE
  5
12A
330
2
100
AcDbEntity
  8
GAIKEI
  6
Continuous
 62
     1
100
AcDbLine
 10
-16.63034677440097
 20
4.137539892913366
 30
0.0
 11
-16.43034677440104
 21
4.137539892913366
 31
0.0
  0
LINE
  5
12B
330
2
100
AcDbEntity
  8
GAIKEI
  6
Continuous
 62
     1
100
AcDbLine
 10
-16.28034677440095
 20
4.137539892913366
 30
0.0
 11
-16.08034677440102
 21
4.137539892913366
 31
0.0
  0
LINE
  5
12C
330
2
100
AcDbEntity
  8
GAIKEI
  6
Continuous
 62
     1
100
AcDbLine
 10
-15.93034677440104
 20
4.137539892913366
 30
0.0
 11
-15.730346774401
 21
4.137539892913366
 31
0.0
  0
LINE
  5
12D
330
2
100
AcDbEntity
  8
GAIKEI
  6
Continuous
 62
     1
100
AcDbLine
 10
-15.58034677440102
 20
4.137539892913366
 30
0.0
 11
-15.38034677440097
 21
4.137539892913366
 31
0.0
  0
LINE
  5
12E
330
2
100
AcDbEntity
  8
GAIKEI
  6
Continuous
 62
     1
100
AcDbLine
 10
-15.230346774401
 20
4.137539892913366
 30
0.0
 11
-15.03034677440095
 21
4.137539892913366
 31
0.0
  0
LINE
  5
12F
330
2
100
AcDbEntity
  8
GAIKEI
  6
Continuous
 62
     1
100
AcDbLine
 10
-34.83034677440102
 20
4.137539804629398
 30
0.0
 11
-34.63034677440098
 21
4.137539892913366
 31
0.0
  0
LINE
  5
130
330
2
100
AcDbEntity
  8
GAIKEI
  6
Continuous
 62
     1
100
AcDbLine
 10
-39.65632807016092
 20
4.162161198023511
 30
0.0
 11
-39.70952888158101
 21
4.162161198023511
 31
0.0
  0
LINE
  5
131
330
2
100
AcDbEntity
  8
GAIKEI
  6
Continuous
 62
     1
100
AcDbLine
 10
-28.33034677440102
 20
5.071296240673461
 30
0.0
 11
-28.33034677440102
 21
4.137539892913366
 31
0.0
  0
LINE
  5
132
330
2
100
AcDbEntity
  8
GAIKEI
  6
Continuous
 62
     1
100
AcDbLine
 10
-28.18034677440105
 20
4.137539892913366
 30
0.0
 11
-28.18034677440105
 21
5.071296240673461
 31
0.0
  0
LINE
  5
133
330
2
100
AcDbEntity
  8
GAIKEI
  6
Continuous
 62
     1
100
AcDbLine
 10
-27.980346774401
 20
5.071296240673461
 30
0.0
 11
-27.980346774401
 21
4.137539892913366
 31
0.0
  0
LINE
  5
134
330
2
100
AcDbEntity
  8
GAIKEI
  6
Continuous
 62
     1
100
AcDbLine
 10
-27.83034677440102
 20
4.137539892913366
 30
0.0
 11
-27.83034677440102
 21
5.071296240673461
 31
0.0
  0
LINE
  5
135
330
2
100
AcDbEntity
  8
GAIKEI
  6
Continuous
 62
     1
100
AcDbLine
 10
-27.63034677440098
 20
5.071296240673461
 30
0.0
 11
-27.63034677440098
 21
4.137539892913366
 31
0.0
  0
LINE
  5
136
330
2
100
AcDbEntity
  8
GAIKEI
  6
Continuous
 62
     1
100
AcDbLine
 10
-27.480346774401
 20
4.137539892913366
 30
0.0
 11
-27.480346774401
 21
5.071296240673461
 31
0.0
  0
LINE
  5
137
330
2
100
AcDbEntity
  8
GAIKEI
  6
Continuous
 62
     1
100
AcDbLine
 10
-27.28034677440096
 20
5.071296240673461
 30
0.0
 11
-27.28034677440096
 21
4.137539892913366
 31
0.0
  0
LINE
  5
138
330
2
100
AcDbEntity
  8
GAIKEI
  6
Continuous
 62
     1
100
AcDbLine
 10
-34.480346774401
 20
5.071296240673461
 30
0.0
 11
-34.28034677440095
 21
5.071296240673461
 31
0.0
  0
LINE
  5
139
330
2
100
AcDbEntity
  8
GAIKEI
  6
Continuous
 62
     1
100
AcDbLine
 10
-34.13034677440098
 20
5.071296240673461
 30
0.0
 11
-33.93034677440105
 21
5.071296240673461
 31
0.0
  0
LINE
  5
13A
330
2
100
AcDbEntity
  8
GAIKEI
  6
Continuous
 62
     1
100
AcDbLine
 10
-33.78034677440096
 20
5.071296240673461
 30
0.0
 11
-33.58034677440102
 21
5.071296240673461
 31
0.0
  0
LINE
  5
13B
330
2
100
AcDbEntity
  8
GAIKEI
  6
Continuous
 62
     1
100
AcDbLine
 10
-33.43034677440105
 20
5.071296240673461
 30
0.0
 11
-33.230346774401
 21
5.071296240673461
 31
0.0
  0
LINE
  5
13C
330
2
100
AcDbEntity
  8
GAIKEI
  6
Continuous
 62
     1
100
AcDbLine
 10
-33.08034677440102
 20
5.071296240673461
 30
0.0
 11
-32.88034677440098
 21
5.071296240673461
 31
0.0
  0
LINE
  5
13D
330
2
100
AcDbEntity
  8
GAIKEI
  6
Continuous
 62
     1
100
AcDbLine
 10
-32.730346774401
 20
5.071296240673461
 30
0.0
 11
-32.53034677440096
 21
5.071296240673461
 31
0.0
  0
LINE
  5
13E
330
2
100
AcDbEntity
  8
GAIKEI
  6
Continuous
 62
     1
100
AcDbLine
 10
-32.38034677440098
 20
5.071296240673461
 30
0.0
 11
-32.18034677440105
 21
5.071296240673461
 31
0.0
  0
LINE
  5
13F
330
2
100
AcDbEntity
  8
GAIKEI
  6
Continuous
 62
     1
100
AcDbLine
 10
-32.03034677440096
 20
5.071296240673461
 30
0.0
 11
-31.83034677440102
 21
5.071296240673461
 31
0.0
  0
LINE
  5
140
330
2
100
AcDbEntity
  8
GAIKEI
  6
Continuous
 62
     1
100
AcDbLine
 10
-31.68034677440104
 20
5.071296240673461
 30
0.0
 11
-31.480346774401
 21
5.071296240673461
 31
0.0
  0
LINE
  5
141
330
2
100
AcDbEntity
  8
GAIKEI
  6
Continuous
 62
     1
100
AcDbLine
 10
-31.33034677440102
 20
5.071296240673461
 30
0.0
 11
-31.13034677440098
 21
5.071296240673461
 31
0.0
  0
LINE
  5
142
330
2
100
AcDbEntity
  8
GAIKEI
  6
Continuous
 62
     1
100
AcDbLine
 10
-30.980346774401
 20
5.071296240673461
 30
0.0
 11
-30.78034677440096
 21
5.071296240673461
 31
0.0
  0
LINE
  5
143
330
2
100
AcDbEntity
  8
GAIKEI
  6
Continuous
 62
     1
100
AcDbLine
 10
-30.63034677440098
 20
5.071296240673461
 30
0.0
 11
-30.43034677440104
 21
5.071296240673461
 31
0.0
  0
LINE
  5
144
330
2
100
AcDbEntity
  8
GAIKEI
  6
Continuous
 62
     1
100
AcDbLine
 10
-30.28034677440095
 20
5.071296240673461
 30
0.0
 11
-30.08034677440102
 21
5.071296240673461
 31
0.0
  0
LINE
  5
145
330
2
100
AcDbEntity
  8
GAIKEI
  6
Continuous
 62
     1
100
AcDbLine
 10
-29.93034677440105
 20
5.071296240673461
 30
0.0
 11
-29.730346774401
 21
5.071296240673461
 31
0.0
  0
LINE
  5
146
330
2
100
AcDbEntity
  8
GAIKEI
  6
Continuous
 62
     1
100
AcDbLine
 10
-29.58034677440102
 20
5.071296240673461
 30
0.0
 11
-29.38034677440098
 21
5.071296240673461
 31
0.0
  0
LINE
  5
147
330
2
100
AcDbEntity
  8
GAIKEI
  6
Continuous
 62
     1
100
AcDbLine
 10
-29.230346774401
 20
5.071296240673461
 30
0.0
 11
-29.03034677440095
 21
5.071296240673461
 31
0.0
  0
LINE
  5
148
330
2
100
AcDbEntity
  8
GAIKEI
  6
Continuous
 62
     1
100
AcDbLine
 10
-28.88034677440098
 20
5.071296240673461
 30
0.0
 11
-28.68034677440105
 21
5.071296240673461
 31
0.0
  0
LINE
  5
149
330
2
100
AcDbEntity
  8
GAIKEI
  6
Continuous
 62
     1
100
AcDbLine
 10
-28.53034677440096
 20
5.071296240673461
 30
0.0
 11
-28.33034677440102
 21
5.071296240673461
 31
0.0
  0
LINE
  5
14A
330
2
100
AcDbEntity
  8
GAIKEI
  6
Continuous
 62
     1
100
AcDbLine
 10
-28.18034677440105
 20
5.071296240673461
 30
0.0
 11
-27.980346774401
 21
5.071296240673461
 31
0.0
  0
LINE
  5
14B
330
2
100
AcDbEntity
  8
GAIKEI
  6
Continuous
 62
     1
100
AcDbLine
 10
-27.83034677440102
 20
5.071296240673461
 30
0.0
 11
-27.63034677440098
 21
5.071296240673461
 31
0.0
  0
LINE
  5
14C
330
2
100
AcDbEntity
  8
GAIKEI
  6
Continuous
 62
     1
100
AcDbLine
 10
-27.480346774401
 20
5.071296240673461
 30
0.0
 11
-27.28034677440096
 21
5.071296240673461
 31
0.0
  0
LINE
  5
14D
330
2
100
AcDbEntity
  8
GAIKEI
  6
Continuous
 62
     1
100
AcDbLine
 10
-27.13034677440098
 20
5.071296240673461
 30
0.0
 11
-26.93034677440105
 21
5.071296240673461
 31
0.0
  0
LINE
  5
14E
330
2
100
AcDbEntity
  8
GAIKEI
  6
Continuous
 62
     1
100
AcDbLine
 10
-26.78034677440095
 20
5.071296240673461
 30
0.0
 11
-26.58034677440102
 21
5.071296240673461
 31
0.0
  0
LINE
  5
14F
330
2
100
AcDbEntity
  8
GAIKEI
  6
Continuous
 62
     1
100
AcDbLine
 10
-26.43034677440105
 20
5.071296240673461
 30
0.0
 11
-26.230346774401
 21
5.071296240673461
 31
0.0
  0
LINE
  5
150
330
2
100
AcDbEntity
  8
GAIKEI
  6
Continuous
 62
     1
100
AcDbLine
 10
-26.08034677440102
 20
5.071296240673461
 30
0.0
 11
-25.88034677440098
 21
5.071296240673461
 31
0.0
  0
LINE
  5
151
330
2
100
AcDbEntity
  8
GAIKEI
  6
Continuous
 62
     1
100
AcDbLine
 10
-25.730346774401
 20
5.071296240673461
 30
0.0
 11
-25.53034677440095
 21
5.071296240673461
 31
0.0
  0
LINE
  5
152
330
2
100
AcDbEntity
  8
GAIKEI
  6
Continuous
 62
     1
100
AcDbLine
 10
-25.38034677440098
 20
5.071296240673461
 30
0.0
 11
-25.18034677440105
 21
5.071296240673461
 31
0.0
  0
LINE
  5
153
330
2
100
AcDbEntity
  8
GAIKEI
  6
Continuous
 62
     1
100
AcDbLine
 10
-25.03034677440096
 20
5.071296240673461
 30
0.0
 11
-24.83034677440102
 21
5.071296240673461
 31
0.0
  0
LINE
  5
154
330
2
100
AcDbEntity
  8
GAIKEI
  6
Continuous
 62
     1
100
AcDbLine
 10
-24.68034677440105
 20
5.071296240673461
 30
0.0
 11
-24.480346774401
 21
5.071296240673461
 31
0.0
  0
LINE
  5
155
330
2
100
AcDbEntity
  8
GAIKEI
  6
Continuous
 62
     1
100
AcDbLine
 10
-24.33034677440102
 20
5.071296240673461
 30
0.0
 11
-24.13034677440098
 21
5.071296240673461
 31
0.0
  0
LINE
  5
156
330
2
100
AcDbEntity
  8
GAIKEI
  6
Continuous
 62
     1
100
AcDbLine
 10
-23.980346774401
 20
5.071296240673461
 30
0.0
 11
-23.78034677440096
 21
5.071296240673461
 31
0.0
  0
LINE
  5
157
330
2
100
AcDbEntity
  8
GAIKEI
  6
Continuous
 62
     1
100
AcDbLine
 10
-23.63034677440098
 20
5.071296240673461
 30
0.0
 11
-23.43034677440105
 21
5.071296240673461
 31
0.0
  0
LINE
  5
158
330
2
100
AcDbEntity
  8
GAIKEI
  6
Continuous
 62
     1
100
AcDbLine
 10
-23.28034677440095
 20
5.071296240673461
 30
0.0
 11
-23.08034677440102
 21
5.071296240673461
 31
0.0
  0
LINE
  5
159
330
2
100
AcDbEntity
  8
GAIKEI
  6
Continuous
 62
     1
100
AcDbLine
 10
-22.93034677440104
 20
5.071296240673461
 30
0.0
 11
-22.730346774401
 21
5.071296240673461
 31
0.0
  0
LINE
  5
15A
330
2
100
AcDbEntity
  8
GAIKEI
  6
Continuous
 62
     1
100
AcDbLine
 10
-22.58034677440102
 20
5.071296240673461
 30
0.0
 11
-22.38034677440098
 21
5.071296240673461
 31
0.0
  0
LINE
  5
15B
330
2
100
AcDbEntity
  8
GAIKEI
  6
Continuous
 62
     1
100
AcDbLine
 10
-22.230346774401
 20
5.071296240673461
 30
0.0
 11
-22.03034677440095
 21
5.071296240673461
 31
0.0
  0
LINE
  5
15C
330
2
100
AcDbEntity
  8
GAIKEI
  6
Continuous
 62
     1
100
AcDbLine
 10
-21.88034677440098
 20
5.071296240673461
 30
0.0
 11
-21.68034677440104
 21
5.071296240673461
 31
0.0
  0
LINE
  5
15D
330
2
100
AcDbEntity
  8
GAIKEI
  6
Continuous
 62
     1
100
AcDbLine
 10
-21.53034677440095
 20
5.071296240673461
 30
0.0
 11
-21.33034677440102
 21
5.071296240673461
 31
0.0
  0
LINE
  5
15E
330
2
100
AcDbEntity
  8
GAIKEI
  6
Continuous
 62
     1
100
AcDbLine
 10
-21.18034677440105
 20
5.071296240673461
 30
0.0
 11
-20.980346774401
 21
5.071296240673461
 31
0.0
  0
LINE
  5
15F
330
2
100
AcDbEntity
  8
GAIKEI
  6
Continuous
 62
     1
100
AcDbLine
 10
-20.83034677440102
 20
5.071296240673461
 30
0.0
 11
-20.63034677440098
 21
5.071296240673461
 31
0.0
  0
LINE
  5
160
330
2
100
AcDbEntity
  8
GAIKEI
  6
Continuous
 62
     1
100
AcDbLine
 10
-20.480346774401
 20
5.071296240673461
 30
0.0
 11
-20.28034677440095
 21
5.071296240673461
 31
0.0
  0
LINE
  5
161
330
2
100
AcDbEntity
  8
GAIKEI
  6
Continuous
 62
     1
100
AcDbLine
 10
-20.13034677440098
 20
5.071296240673461
 30
0.0
 11
-19.93034677440104
 21
5.071296240673461
 31
0.0
  0
LINE
  5
162
330
2
100
AcDbEntity
  8
GAIKEI
  6
Continuous
 62
     1
100
AcDbLine
 10
-19.78034677440095
 20
5.071296240673461
 30
0.0
 11
-19.58034677440102
 21
5.071296240673461
 31
0.0
  0
LINE
  5
163
330
2
100
AcDbEntity
  8
GAIKEI
  6
Continuous
 62
     1
100
AcDbLine
 10
-19.43034677440104
 20
5.071296240673461
 30
0.0
 11
-19.230346774401
 21
5.071296240673461
 31
0.0
  0
LINE
  5
164
330
2
100
AcDbEntity
  8
GAIKEI
  6
Continuous
 62
     1
100
AcDbLine
 10
-19.08034677440102
 20
5.071296240673461
 30
0.0
 11
-18.88034677440098
 21
5.071296240673461
 31
0.0
  0
LINE
  5
165
330
2
100
AcDbEntity
  8
GAIKEI
  6
Continuous
 62
     1
100
AcDbLine
 10
-18.730346774401
 20
5.071296240673461
 30
0.0
 11
-18.53034677440095
 21
5.071296240673461
 31
0.0
  0
LINE
  5
166
330
2
100
AcDbEntity
  8
GAIKEI
  6
Continuous
 62
     1
100
AcDbLine
 10
-18.38034677440098
 20
5.071296240673461
 30
0.0
 11
-18.18034677440104
 21
5.071296240673461
 31
0.0
  0
LINE
  5
167
330
2
100
AcDbEntity
  8
GAIKEI
  6
Continuous
 62
     1
100
AcDbLine
 10
-18.03034677440095
 20
5.071296240673461
 30
0.0
 11
-17.83034677440102
 21
5.071296240673461
 31
0.0
  0
LINE
  5
168
330
2
100
AcDbEntity
  8
GAIKEI
  6
Continuous
 62
     1
100
AcDbLine
 10
-17.68034677440104
 20
5.071296240673461
 30
0.0
 11
-17.480346774401
 21
5.071296240673461
 31
0.0
  0
LINE
  5
169
330
2
100
AcDbEntity
  8
GAIKEI
  6
Continuous
 62
     1
100
AcDbLine
 10
-17.33034677440102
 20
5.071296240673461
 30
0.0
 11
-17.13034677440098
 21
5.071296240673461
 31
0.0
  0
LINE
  5
16A
330
2
100
AcDbEntity
  8
GAIKEI
  6
Continuous
 62
     1
100
AcDbLine
 10
-16.980346774401
 20
5.071296240673461
 30
0.0
 11
-16.78034677440095
 21
5.071296240673461
 31
0.0
  0
LINE
  5
16B
330
2
100
AcDbEntity
  8
GAIKEI
  6
Continuous
 62
     1
100
AcDbLine
 10
-16.63034677440097
 20
5.071296240673461
 30
0.0
 11
-16.43034677440104
 21
5.071296240673461
 31
0.0
  0
LINE
  5
16C
330
2
100
AcDbEntity
  8
GAIKEI
  6
Continuous
 62
     1
100
AcDbLine
 10
-16.28034677440095
 20
5.071296240673461
 30
0.0
 11
-16.08034677440102
 21
5.071296240673461
 31
0.0
  0
LINE
  5
16D
330
2
100
AcDbEntity
  8
GAIKEI
  6
Continuous
 62
     1
100
AcDbLine
 10
-15.93034677440104
 20
5.071296240673461
 30
0.0
 11
-15.730346774401
 21
5.071296240673461
 31
0.0
  0
LINE
  5
16E
330
2
100
AcDbEntity
  8
GAIKEI
  6
Continuous
 62
     1
100
AcDbLine
 10
-15.58034677440102
 20
5.071296240673461
 30
0.0
 11
-15.38034677440097
 21
5.071296240673461
 31
0.0
  0
LINE
  5
16F
330
2
100
AcDbEntity
  8
GAIKEI
  6
Continuous
 62
     1
100
AcDbLine
 10
-15.230346774401
 20
5.071296240673461
 30
0.0
 11
-15.03034677440095
 21
5.071296240673461
 31
0.0
  0
LINE
  5
170
330
2
100
AcDbEntity
  8
GAIKEI
  6
Continuous
 62
     1
100
AcDbLine
 10
-34.78534677416096
 20
5.137539892913366
 30
0.0
 11
-14.72534677463088
 21
5.137539892913366
 31
0.0
  0
LINE
  5
171
330
2
100
AcDbEntity
  8
GAIKEI
  6
Continuous
 62
     1
100
AcDbLine
 10
-27.13034677440098
 20
4.137539892913366
 30
0.0
 11
-27.13034677440098
 21
5.071296240673461
 31
0.0
  0
LINE
  5
172
330
2
100
AcDbEntity
  8
GAIKEI
  6
Continuous
 62
     1
100
AcDbLine
 10
-26.93034677440105
 20
5.071296240673461
 30
0.0
 11
-26.93034677440105
 21
4.137539892913366
 31
0.0
  0
LINE
  5
173
330
2
100
AcDbEntity
  8
GAIKEI
  6
Continuous
 62
     1
100
AcDbLine
 10
-26.78034677440095
 20
4.137539892913366
 30
0.0
 11
-26.78034677440095
 21
5.071296240673461
 31
0.0
  0
LINE
  5
174
330
2
100
AcDbEntity
  8
GAIKEI
  6
Continuous
 62
     1
100
AcDbLine
 10
-26.58034677440102
 20
5.071296240673461
 30
0.0
 11
-26.58034677440102
 21
4.137539892913366
 31
0.0
  0
LINE
  5
175
330
2
100
AcDbEntity
  8
GAIKEI
  6
Continuous
 62
     1
100
AcDbLine
 10
-26.43034677440105
 20
4.137539892913366
 30
0.0
 11
-26.43034677440105
 21
5.071296240673461
 31
0.0
  0
LINE
  5
176
330
2
100
AcDbEntity
  8
GAIKEI
  6
Continuous
 62
     1
100
AcDbLine
 10
-26.230346774401
 20
5.071296240673461
 30
0.0
 11
-26.230346774401
 21
4.137539892913366
 31
0.0
  0
LINE
  5
177
330
2
100
AcDbEntity
  8
GAIKEI
  6
Continuous
 62
     1
100
AcDbLine
 10
-26.08034677440102
 20
4.137539892913366
 30
0.0
 11
-26.08034677440102
 21
5.071296240673461
 31
0.0
  0
LINE
  5
178
330
2
100
AcDbEntity
  8
GAIKEI
  6
Continuous
 62
     1
100
AcDbLine
 10
-25.88034677440098
 20
5.071296240673461
 30
0.0
 11
-25.88034677440098
 21
4.137539892913366
 31
0.0
  0
LINE
  5
179
330
2
100
AcDbEntity
  8
GAIKEI
  6
Continuous
 62
     1
100
AcDbLine
 10
-19.43534677440115
 20
6.292539892913339
 30
0.0
 11
-30.07534677440114
 21
6.292539892913453
 31
0.0
  0
LINE
  5
17A
330
2
100
AcDbEntity
  8
GAIKEI
  6
Continuous
 62
     1
100
AcDbLine
 10
-25.730346774401
 20
4.137539892913366
 30
0.0
 11
-25.730346774401
 21
5.071296240673461
 31
0.0
  0
LINE
  5
17B
330
2
100
AcDbEntity
  8
GAIKEI
  6
Continuous
 62
     1
100
AcDbLine
 10
-25.53034677440095
 20
5.071296240673461
 30
0.0
 11
-25.53034677440095
 21
4.137539892913366
 31
0.0
  0
LINE
  5
17C
330
2
100
AcDbEntity
  8
GAIKEI
  6
Continuous
 62
     1
100
AcDbLine
 10
-25.38034677440098
 20
4.137539892913366
 30
0.0
 11
-25.38034677440098
 21
5.071296240673461
 31
0.0
  0
LINE
  5
17D
330
2
100
AcDbEntity
  8
GAIKEI
  6
Continuous
 62
     1
100
AcDbLine
 10
-25.18034677440105
 20
5.071296240673461
 30
0.0
 11
-25.18034677440105
 21
4.137539892913366
 31
0.0
  0
LINE
  5
17E
330
2
100
AcDbEntity
  8
GAIKEI
  6
Continuous
 62
     1
100
AcDbLine
 10
-25.03034677440096
 20
4.137539892913366
 30
0.0
 11
-25.03034677440096
 21
5.071296240673461
 31
0.0
  0
LINE
  5
17F
330
2
100
AcDbEntity
  8
GAIKEI
  6
Continuous
 62
     1
100
AcDbLine
 10
-24.83034677440102
 20
5.071296240673461
 30
0.0
 11
-24.83034677440102
 21
4.137539892913366
 31
0.0
  0
LINE
  5
180
330
2
100
AcDbEntity
  8
GAIKEI
  6
Continuous
 62
     1
100
AcDbLine
 10
-24.68034677440105
 20
4.137539892913366
 30
0.0
 11
-24.68034677440105
 21
5.071296240673461
 31
0.0
  0
LINE
  5
181
330
2
100
AcDbEntity
  8
GAIKEI
  6
Continuous
 62
     1
100
AcDbLine
 10
-24.480346774401
 20
5.071296240673461
 30
0.0
 11
-24.480346774401
 21
4.137539892913366
 31
0.0
  0
LINE
  5
182
330
2
100
AcDbEntity
  8
GAIKEI
  6
Continuous
 62
     1
100
AcDbLine
 10
-24.33034677440102
 20
4.137539892913366
 30
0.0
 11
-24.33034677440102
 21
5.071296240673461
 31
0.0
  0
LINE
  5
183
330
2
100
AcDbEntity
  8
GAIKEI
  6
Continuous
 62
     1
100
AcDbLine
 10
-24.13034677440098
 20
5.071296240673461
 30
0.0
 11
-24.13034677440098
 21
4.137539892913366
 31
0.0
  0
LINE
  5
184
330
2
100
AcDbEntity
  8
GAIKEI
  6
Continuous
 62
     1
100
AcDbLine
 10
-23.980346774401
 20
4.137539892913366
 30
0.0
 11
-23.980346774401
 21
5.071296240673461
 31
0.0
  0
LINE
  5
185
330
2
100
AcDbEntity
  8
GAIKEI
  6
Continuous
 62
     1
100
AcDbLine
 10
-23.78034677440096
 20
5.071296240673461
 30
0.0
 11
-23.78034677440096
 21
4.137539892913366
 31
0.0
  0
LINE
  5
186
330
2
100
AcDbEntity
  8
GAIKEI
  6
Continuous
 62
     1
100
AcDbLine
 10
-23.63034677440098
 20
4.137539892913366
 30
0.0
 11
-23.63034677440098
 21
5.071296240673461
 31
0.0
  0
LINE
  5
187
330
2
100
AcDbEntity
  8
GAIKEI
  6
Continuous
 62
     1
100
AcDbLine
 10
-23.43034677440105
 20
5.071296240673461
 30
0.0
 11
-23.43034677440105
 21
4.137539892913366
 31
0.0
  0
LINE
  5
188
330
2
100
AcDbEntity
  8
GAIKEI
  6
Continuous
 62
     1
100
AcDbLine
 10
-23.28034677440095
 20
4.137539892913366
 30
0.0
 11
-23.28034677440095
 21
5.071296240673461
 31
0.0
  0
LINE
  5
189
330
2
100
AcDbEntity
  8
GAIKEI
  6
Continuous
 62
     1
100
AcDbLine
 10
-23.08034677440102
 20
5.071296240673461
 30
0.0
 11
-23.08034677440102
 21
4.137539892913366
 31
0.0
  0
LINE
  5
18A
330
2
100
AcDbEntity
  8
GAIKEI
  6
Continuous
 62
     1
100
AcDbLine
 10
-19.43534677440104
 20
9.782539892913462
 30
0.0
 11
-30.07534677440125
 21
9.782539892913462
 31
0.0
  0
LINE
  5
18B
330
2
100
AcDbEntity
  8
GAIKEI
  6
Continuous
 62
     1
100
AcDbLine
 10
-22.93034677440104
 20
4.137539892913366
 30
0.0
 11
-22.93034677440104
 21
5.071296240673461
 31
0.0
  0
LINE
  5
18C
330
2
100
AcDbEntity
  8
GAIKEI
  6
Continuous
 62
     1
100
AcDbLine
 10
-22.730346774401
 20
5.071296240673461
 30
0.0
 11
-22.730346774401
 21
4.137539892913366
 31
0.0
  0
LINE
  5
18D
330
2
100
AcDbEntity
  8
GAIKEI
  6
Continuous
 62
     1
100
AcDbLine
 10
-22.58034677440102
 20
4.137539892913366
 30
0.0
 11
-22.58034677440102
 21
5.071296240673461
 31
0.0
  0
LINE
  5
18E
330
2
100
AcDbEntity
  8
GAIKEI
  6
Continuous
 62
     1
100
AcDbLine
 10
-22.38034677440098
 20
5.071296240673461
 30
0.0
 11
-22.38034677440098
 21
4.137539892913366
 31
0.0
  0
LINE
  5
18F
330
2
100
AcDbEntity
  8
GAIKEI
  6
Continuous
 62
     1
100
AcDbLine
 10
-22.230346774401
 20
4.137539892913366
 30
0.0
 11
-22.230346774401
 21
5.071296240673461
 31
0.0
  0
LINE
  5
190
330
2
100
AcDbEntity
  8
GAIKEI
  6
Continuous
 62
     1
100
AcDbLine
 10
-22.03034677440095
 20
5.071296240673461
 30
0.0
 11
-22.03034677440095
 21
4.137539892913366
 31
0.0
  0
LINE
  5
191
330
2
100
AcDbEntity
  8
GAIKEI
  6
Continuous
 62
     1
100
AcDbLine
 10
-21.88034677440098
 20
4.137539892913366
 30
0.0
 11
-21.88034677440098
 21
5.071296240673461
 31
0.0
  0
LINE
  5
192
330
2
100
AcDbEntity
  8
GAIKEI
  6
Continuous
 62
     1
100
AcDbLine
 10
-14.72534677440123
 20
10.93753989291343
 30
0.0
 11
-34.78534677440106
 21
10.93753989291343
 31
0.0
  0
LINE
  5
193
330
2
100
AcDbEntity
  8
GAIKEI
  6
Continuous
 62
     1
100
AcDbLine
 10
-21.68034677440104
 20
5.071296240673461
 30
0.0
 11
-21.68034677440104
 21
4.137539892913366
 31
0.0
  0
LINE
  5
194
330
2
100
AcDbEntity
  8
GAIKEI
  6
Continuous
 62
     1
100
AcDbLine
 10
-21.53034677440095
 20
4.137539892913366
 30
0.0
 11
-21.53034677440095
 21
5.071296240673461
 31
0.0
  0
LINE
  5
195
330
2
100
AcDbEntity
  8
GAIKEI
  6
Continuous
 62
     1
100
AcDbLine
 10
-21.33034677440102
 20
5.071296240673461
 30
0.0
 11
-21.33034677440102
 21
4.137539892913366
 31
0.0
  0
LINE
  5
196
330
2
100
AcDbEntity
  8
GAIKEI
  6
Continuous
 62
     1
100
AcDbLine
 10
-21.18034677440105
 20
4.137539892913366
 30
0.0
 11
-21.18034677440105
 21
5.071296240673461
 31
0.0
  0
LINE
  5
197
330
2
100
AcDbEntity
  8
GAIKEI
  6
Continuous
 62
     1
100
AcDbLine
 10
-20.980346774401
 20
5.071296240673461
 30
0.0
 11
-20.980346774401
 21
4.137539892913366
 31
0.0
  0
LINE
  5
198
330
2
100
AcDbEntity
  8
GAIKEI
  6
Continuous
 62
     1
100
AcDbLine
 10
-20.83034677440102
 20
4.137539892913366
 30
0.0
 11
-20.83034677440102
 21
5.071296240673461
 31
0.0
  0
LINE
  5
199
330
2
100
AcDbEntity
  8
GAIKEI
  6
Continuous
 62
     1
100
AcDbLine
 10
-20.63034677440098
 20
5.071296240673461
 30
0.0
 11
-20.63034677440098
 21
4.137539892913366
 31
0.0
  0
LINE
  5
19A
330
2
100
AcDbEntity
  8
GAIKEI
  6
Continuous
 62
     1
100
AcDbLine
 10
-20.480346774401
 20
4.137539892913366
 30
0.0
 11
-20.480346774401
 21
5.071296240673461
 31
0.0
  0
LINE
  5
19B
330
2
100
AcDbEntity
  8
GAIKEI
  6
Continuous
 62
     1
100
AcDbLine
 10
-39.65632807016092
 20
11.9129185877934
 30
0.0
 11
-39.70952890500107
 21
11.9129185877934
 31
0.0
  0
LINE
  5
19C
330
2
100
AcDbEntity
  8
GAIKEI
  6
Continuous
 62
     1
100
AcDbLine
 10
-38.65833012060111
 20
11.93753989291343
 30
0.0
 11
-39.64640480762088
 21
11.93753989291343
 31
0.0
  0
LINE
  5
19D
330
2
100
AcDbEntity
  8
GAIKEI
  6
Continuous
 62
     1
100
AcDbLine
 10
-39.70031969855083
 20
11.93753989291343
 30
0.0
 11
-44.60321495557102
 21
11.93753989291343
 31
0.0
  0
LINE
  5
19E
330
2
100
AcDbEntity
  8
GAIKEI
  6
Continuous
 62
     1
100
AcDbLine
 10
-10.85236342819095
 20
11.93753989291343
 30
0.0
 11
-9.880492630811062
 21
11.93753989291343
 31
0.0
  0
LINE
  5
19F
330
2
100
AcDbEntity
  8
GAIKEI
  6
Continuous
 62
     1
100
AcDbLine
 10
-39.64640480762088
 20
11.98753989291339
 30
0.0
 11
-39.70031969855083
 21
11.98753989291339
 31
0.0
  0
LINE
  5
1A0
330
2
100
AcDbEntity
  8
GAIKEI
  6
Continuous
 62
     1
100
AcDbLine
 10
-39.70031969855083
 20
12.03753989291334
 30
0.0
 11
-44.60321495557102
 21
12.03753989291334
 31
0.0
  0
LINE
  5
1A1
330
2
100
AcDbEntity
  8
GAIKEI
  6
Continuous
 62
     1
100
AcDbLine
 10
-20.28034677440095
 20
5.071296240673461
 30
0.0
 11
-20.28034677440095
 21
4.137539892913366
 31
0.0
  0
LINE
  5
1A2
330
2
100
AcDbEntity
  8
GAIKEI
  6
Continuous
 62
     1
100
AcDbLine
 10
-20.13034677440098
 20
4.137539892913366
 30
0.0
 11
-20.13034677440098
 21
5.071296240673461
 31
0.0
  0
LINE
  5
1A3
330
2
100
AcDbEntity
  8
GAIKEI
  6
Continuous
 62
     1
100
AcDbLine
 10
-19.93034677440104
 20
5.071296240673461
 30
0.0
 11
-19.93034677440104
 21
4.137539892913366
 31
0.0
  0
LINE
  5
1A4
330
2
100
AcDbEntity
  8
GAIKEI
  6
Continuous
 62
     1
100
AcDbLine
 10
-19.78034677440095
 20
4.137539892913366
 30
0.0
 11
-19.78034677440095
 21
5.071296240673461
 31
0.0
  0
LINE
  5
1A5
330
2
100
AcDbEntity
  8
GAIKEI
  6
Continuous
 62
     1
100
AcDbLine
 10
-19.58034677440102
 20
5.071296240673461
 30
0.0
 11
-19.58034677440102
 21
4.137539892913366
 31
0.0
  0
LINE
  5
1A6
330
2
100
AcDbEntity
  8
GAIKEI
  6
Continuous
 62
     1
100
AcDbLine
 10
-19.43034677440104
 20
4.137539892913366
 30
0.0
 11
-19.43034677440104
 21
5.071296240673461
 31
0.0
  0
LINE
  5
1A7
330
2
100
AcDbEntity
  8
GAIKEI
  6
Continuous
 62
     1
100
AcDbLine
 10
-19.230346774401
 20
5.071296240673461
 30
0.0
 11
-19.230346774401
 21
4.137539892913366
 31
0.0
  0
LINE
  5
1A8
330
2
100
AcDbEntity
  8
GAIKEI
  6
Continuous
 62
     1
100
AcDbLine
 10
-19.08034677440102
 20
4.137539892913366
 30
0.0
 11
-19.08034677440102
 21
5.071296240673461
 31
0.0
  0
LINE
  5
1A9
330
2
100
AcDbEntity
  8
GAIKEI
  6
Continuous
 62
     1
100
AcDbLine
 10
-18.88034677440098
 20
5.071296240673461
 30
0.0
 11
-18.88034677440098
 21
4.137539892913366
 31
0.0
  0
LINE
  5
1AA
330
2
100
AcDbEntity
  8
GAIKEI
  6
Continuous
 62
     1
100
AcDbLine
 10
-18.730346774401
 20
4.137539892913366
 30
0.0
 11
-18.730346774401
 21
5.071296240673461
 31
0.0
  0
LINE
  5
1AB
330
2
100
AcDbEntity
  8
GAIKEI
  6
Continuous
 62
     1
100
AcDbLine
 10
-18.53034677440095
 20
5.071296240673461
 30
0.0
 11
-18.53034677440095
 21
4.137539892913366
 31
0.0
  0
LINE
  5
1AC
330
2
100
AcDbEntity
  8
GAIKEI
  6
Continuous
 62
     1
100
AcDbLine
 10
-18.38034677440098
 20
4.137539892913366
 30
0.0
 11
-18.38034677440098
 21
5.071296240673461
 31
0.0
  0
LINE
  5
1AD
330
2
100
AcDbEntity
  8
GAIKEI
  6
Continuous
 62
     1
100
AcDbLine
 10
-18.18034677440104
 20
5.071296240673461
 30
0.0
 11
-18.18034677440104
 21
4.137539892913366
 31
0.0
  0
LINE
  5
1AE
330
2
100
AcDbEntity
  8
GAIKEI
  6
Continuous
 62
     1
100
AcDbLine
 10
-18.03034677440095
 20
4.137539892913366
 30
0.0
 11
-18.03034677440095
 21
5.071296240673461
 31
0.0
  0
LINE
  5
1AF
330
2
100
AcDbEntity
  8
GAIKEI
  6
Continuous
 62
     1
100
AcDbLine
 10
-17.83034677440102
 20
5.071296240673461
 30
0.0
 11
-17.83034677440102
 21
4.137539892913366
 31
0.0
  0
LINE
  5
1B0
330
2
100
AcDbEntity
  8
GAIKEI
  6
Continuous
 62
     1
100
AcDbLine
 10
-17.68034677440104
 20
4.137539892913366
 30
0.0
 11
-17.68034677440104
 21
5.071296240673461
 31
0.0
  0
LINE
  5
1B1
330
2
100
AcDbEntity
  8
GAIKEI
  6
Continuous
 62
     1
100
AcDbLine
 10
-17.480346774401
 20
5.071296240673461
 30
0.0
 11
-17.480346774401
 21
4.137539892913366
 31
0.0
  0
LINE
  5
1B2
330
2
100
AcDbEntity
  8
GAIKEI
  6
Continuous
 62
     1
100
AcDbLine
 10
-17.33034677440102
 20
4.137539892913366
 30
0.0
 11
-17.33034677440102
 21
5.071296240673461
 31
0.0
  0
LINE
  5
1B3
330
2
100
AcDbEntity
  8
GAIKEI
  6
Continuous
 62
     1
100
AcDbLine
 10
-17.13034677440098
 20
5.071296240673461
 30
0.0
 11
-17.13034677440098
 21
4.137539892913366
 31
0.0
  0
LINE
  5
1B4
330
2
100
AcDbEntity
  8
GAIKEI
  6
Continuous
 62
     1
100
AcDbLine
 10
-16.980346774401
 20
4.137539892913366
 30
0.0
 11
-16.980346774401
 21
5.071296240673461
 31
0.0
  0
LINE
  5
1B5
330
2
100
AcDbEntity
  8
GAIKEI
  6
Continuous
 62
     1
100
AcDbLine
 10
-16.78034677440095
 20
5.071296240673461
 30
0.0
 11
-16.78034677440095
 21
4.137539892913366
 31
0.0
  0
LINE
  5
1B6
330
2
100
AcDbEntity
  8
GAIKEI
  6
Continuous
 62
     1
100
AcDbLine
 10
-16.63034677440097
 20
4.137539892913366
 30
0.0
 11
-16.63034677440097
 21
5.071296240673461
 31
0.0
  0
LINE
  5
1B7
330
2
100
AcDbEntity
  8
GAIKEI
  6
Continuous
 62
     1
100
AcDbLine
 10
-16.43034677440104
 20
5.071296240673461
 30
0.0
 11
-16.43034677440104
 21
4.137539892913366
 31
0.0
  0
LINE
  5
1B8
330
2
100
AcDbEntity
  8
GAIKEI
  6
Continuous
 62
     1
100
AcDbLine
 10
-16.28034677440095
 20
4.137539892913366
 30
0.0
 11
-16.28034677440095
 21
5.071296240673461
 31
0.0
  0
LINE
  5
1B9
330
2
100
AcDbEntity
  8
GAIKEI
  6
Continuous
 62
     1
100
AcDbLine
 10
-16.08034677440102
 20
5.071296240673461
 30
0.0
 11
-16.08034677440102
 21
4.137539892913366
 31
0.0
  0
LINE
  5
1BA
330
2
100
AcDbEntity
  8
GAIKEI
  6
Continuous
 62
     1
100
AcDbLine
 10
-15.93034677440104
 20
4.137539892913366
 30
0.0
 11
-15.93034677440104
 21
5.071296240673461
 31
0.0
  0
LINE
  5
1BB
330
2
100
AcDbEntity
  8
GAIKEI
  6
Continuous
 62
     1
100
AcDbLine
 10
-15.730346774401
 20
5.071296240673461
 30
0.0
 11
-15.730346774401
 21
4.137539892913366
 31
0.0
  0
LINE
  5
1BC
330
2
100
AcDbEntity
  8
GAIKEI
  6
Continuous
 62
     1
100
AcDbLine
 10
-15.58034677440102
 20
4.137539892913366
 30
0.0
 11
-15.58034677440102
 21
5.071296240673461
 31
0.0
  0
LINE
  5
1BD
330
2
100
AcDbEntity
  8
GAIKEI
  6
Continuous
 62
     1
100
AcDbLine
 10
-15.38034677440097
 20
5.071296240673461
 30
0.0
 11
-15.38034677440097
 21
4.137539892913366
 31
0.0
  0
LINE
  5
1BE
330
2
100
AcDbEntity
  8
GAIKEI
  6
Continuous
 62
     1
100
AcDbLine
 10
-15.230346774401
 20
4.137539892913366
 30
0.0
 11
-15.230346774401
 21
5.071296240673461
 31
0.0
  0
LINE
  5
1BF
330
2
100
AcDbEntity
  8
GAIKEI
  6
Continuous
 62
     1
100
AcDbLine
 10
-15.03034677440095
 20
5.071296240673461
 30
0.0
 11
-15.03034677440095
 21
4.137539892913366
 31
0.0
  0
LINE
  5
1C0
330
2
100
AcDbEntity
  8
GAIKEI
  6
Continuous
 62
     1
100
AcDbLine
 10
-14.88034677440097
 20
4.137539892913366
 30
0.0
 11
-14.88034677440097
 21
5.071296240673461
 31
0.0
  0
LINE
  5
1C1
330
2
100
AcDbEntity
  8
GAIKEI
  6
Continuous
 62
     1
100
AcDbLine
 10
-10.85236342819095
 20
4.137539892913366
 30
0.0
 11
-10.85236342819095
 21
4.052013634913407
 31
0.0
  0
LINE
  5
1C2
330
2
100
AcDbEntity
  8
GAIKEI
  6
Continuous
 62
     1
100
AcDbLine
 10
-19.43534677440104
 20
9.782539892913462
 30
0.0
 11
-19.43534677440115
 21
6.292539892913339
 31
0.0
  0
LINE
  5
1C3
330
2
100
AcDbEntity
  8
GAIKEI
  6
Continuous
100
AcDbLine
 10
-3.555346774401044
 20
12.43753989291343
 30
0.0
 11
-3.555346774401044
 21
8.037539892913343
 31
0.0
  0
LINE
  5
1C4
330
2
100
AcDbEntity
  8
GAIKEI
  6
Continuous
100
AcDbLine
 10
-45.55534677440104
 20
8.037539892913343
 30
0.0
 11
-45.55534677440104
 21
12.43753989291343
 31
0.0
  0
LINE
  5
1C5
330
2
100
AcDbEntity
  8
GAIKEI
  6
S10
 62
     1
100
AcDbLine
 10
-48.55534677440104
 20
3.837539892913468
 30
0.0
 11
-48.55534677440082
 21
12.2375398929135
 31
0.0
  0
LINE
  5
1C6
330
2
100
AcDbEntity
  8
GAIKEI
  6
Continuous
100
AcDbLine
 10
-9.464418092926365
 20
2.587539892913184
 30
0.0
 11
-7.646275455875951
 21
2.587539892913184
 31
0.0
  0
LINE
  5
1C7
330
2
100
AcDbEntity
  8
GAIKEI
  6
S10
 62
     1
100
AcDbLine
 10
-0.5553467744010448
 20
12.2375398929135
 30
0.0
 11
-0.5553467744010448
 21
3.837539892913468
 31
0.0
  0
LINE
  5
1C8
330
2
100
AcDbEntity
  8
GAIKEI
  6
HIDDEN2
 62
     1
100
AcDbLine
 10
-0.7553467744010903
 20
3.63753989291348
 30
0.0
 11
-3.555346774401044
 21
3.63753989291348
 31
0.0
  0
LINE
  5
1C9
330
2
100
AcDbEntity
  8
GAIKEI
  6
HIDDEN2
 62
     1
100
AcDbLine
 10
-3.555346774401044
 20
12.43753989291343
 30
0.0
 11
-0.7553467744010903
 21
12.43753989291343
 31
0.0
  0
LINE
  5
1CA
330
2
100
AcDbEntity
  8
GAIKEI
  6
S10
 62
     1
100
AcDbLine
 10
23.88722991639363
 20
3.637540068850967
 30
0.0
 11
26.68722991639359
 21
3.637540068850967
 31
0.0
  0
LINE
  5
1CB
330
2
100
AcDbEntity
  8
GAIKEI
  6
S10
 62
     1
100
AcDbLine
 10
23.88722991639363
 20
12.43754006885098
 30
0.0
 11
23.88722991639363
 21
3.637540068850967
 31
0.0
  0
LINE
  5
1CC
330
2
100
AcDbEntity
  8
GAIKEI
  6
Continuous
100
AcDbLine
 10
26.5372299786649
 20
12.43754017253326
 30
0.0
 11
23.9996731126088
 21
12.43754007325032
 31
0.0
  0
LINE
  5
1CD
330
2
100
AcDbEntity
  8
GAIKEI
  6
Continuous
 62
     1
100
AcDbLine
 10
58.80723014099081
 20
12.35753989291362
 30
0.0
 11
58.70722991639323
 21
12.35753989291362
 31
0.0
  0
LINE
  5
1CE
330
2
100
AcDbEntity
  8
GAIKEI
  6
Continuous
 62
     1
100
AcDbLine
 10
58.80723014099081
 20
12.25753989652816
 30
0.0
 11
58.80723014099081
 21
12.35753989291362
 31
0.0
  0
LINE
  5
1CF
330
2
100
AcDbEntity
  8
GAIKEI
  6
Continuous
 62
     1
100
AcDbLine
 10
58.88723015570284
 20
12.25753990356333
 30
0.0
 11
58.70722991639323
 21
12.25753989030994
 31
0.0
  0
LINE
  5
1D0
330
2
100
AcDbEntity
  8
GAIKEI
  6
Continuous
 62
     1
100
AcDbLine
 10
58.70722991639323
 20
12.25753989030994
 30
0.0
 11
58.70722991639323
 21
12.4375424396307
 31
0.0
  0
LINE
  5
1D1
330
2
100
AcDbEntity
  8
GAIKEI
  6
Continuous
100
AcDbLine
 10
26.77151858750531
 20
12.3575396649191
 30
0.0
 11
26.88722991639341
 21
12.35753967550698
 31
0.0
  0
LINE
  5
1D2
330
2
100
AcDbEntity
  8
GAIKEI
  6
Continuous
100
AcDbLine
 10
26.59437587162396
 20
12.28753989291346
 30
0.0
 11
26.78722991639339
 21
12.28753989291346
 31
0.0
  0
LINE
  5
1D3
330
2
100
AcDbEntity
  8
GAIKEI
  6
Continuous
100
AcDbLine
 10
26.88722991639341
 20
12.38753989291348
 30
0.0
 11
26.88722991639341
 21
12.43753989291343
 31
0.0
  0
LINE
  5
1D4
330
2
100
AcDbEntity
  8
GAIKEI
  6
Continuous
100
AcDbLine
 10
26.70485209554411
 20
12.28753989291346
 30
0.0
 11
26.77151858750531
 21
12.3575396649191
 31
0.0
  0
LINE
  5
1D5
330
2
100
AcDbEntity
  8
GAIKEI
  6
Continuous
100
AcDbLine
 10
26.33723285081411
 20
12.01753989291359
 30
0.0
 11
26.73723310540723
 21
12.43753989291343
 31
0.0
  0
LINE
  5
1D6
330
2
100
AcDbEntity
  8
GAIKEI
  6
Continuous
100
AcDbLine
 10
26.33723285081411
 20
12.01753989291359
 30
0.0
 11
24.25722991639353
 21
12.01753989291359
 31
0.0
  0
LINE
  5
1D7
330
2
100
AcDbEntity
  8
GAIKEI
  6
Continuous
100
AcDbLine
 10
23.98722991639366
 20
3.637540445143713
 30
0.0
 11
24.13722991639364
 21
3.637540445143713
 31
0.0
  0
LINE
  5
1D8
330
2
100
AcDbEntity
  8
GAIKEI
  6
Continuous
100
AcDbLine
 10
24.25723063495062
 20
3.867540931731582
 30
0.0
 11
24.25723063495062
 21
3.737540931732269
 31
0.0
  0
LINE
  5
1D9
330
2
100
AcDbEntity
  8
GAIKEI
  6
Continuous
100
AcDbLine
 10
24.25723063495062
 20
3.817540931732082
 30
0.0
 11
24.25723063495062
 21
3.737538941709999
 31
0.0
  0
LINE
  5
1DA
330
2
100
AcDbEntity
  8
GAIKEI
  6
Continuous
100
AcDbLine
 10
24.25723063495062
 20
3.867540931731582
 30
0.0
 11
24.25722991638977
 21
3.867540931731582
 31
0.0
  0
LINE
  5
1DB
330
2
100
AcDbEntity
  8
GAIKEI
  6
Continuous
100
AcDbLine
 10
24.25723063495062
 20
3.867540931731582
 30
0.0
 11
24.25722991638977
 21
3.867540931731582
 31
0.0
  0
LINE
  5
1DC
330
2
100
AcDbEntity
  8
GAIKEI
  6
Continuous
 62
     1
100
AcDbLine
 10
35.88722531639294
 20
6.687540930909051
 30
0.0
 11
35.88722531639294
 21
7.187540930909051
 31
0.0
  0
LINE
  5
1DD
330
2
100
AcDbEntity
  8
GAIKEI
  6
Continuous
 62
     1
100
AcDbLine
 10
35.88722531639294
 20
7.437540930909051
 30
0.0
 11
35.88722531639294
 21
7.937540930909051
 31
0.0
  0
LINE
  5
1DE
330
2
100
AcDbEntity
  8
GAIKEI
  6
Continuous
 62
     1
100
AcDbLine
 10
35.88722531639294
 20
8.187540930909051
 30
0.0
 11
35.88722531639294
 21
8.687540930909051
 31
0.0
  0
LINE
  5
1DF
330
2
100
AcDbEntity
  8
GAIKEI
  6
Continuous
 62
     1
100
AcDbLine
 10
35.38722531639294
 20
6.687540930909051
 30
0.0
 11
35.38722531639294
 21
7.187540930909051
 31
0.0
  0
LINE
  5
1E0
330
2
100
AcDbEntity
  8
GAIKEI
  6
Continuous
 62
     1
100
AcDbLine
 10
35.38722531639294
 20
7.437540930909051
 30
0.0
 11
35.38722531639294
 21
7.937540930909051
 31
0.0
  0
LINE
  5
1E1
330
2
100
AcDbEntity
  8
GAIKEI
  6
Continuous
 62
     1
100
AcDbLine
 10
35.38722531639294
 20
8.187540930909051
 30
0.0
 11
35.38722531639294
 21
8.687540930909051
 31
0.0
  0
LINE
  5
1E2
330
2
100
AcDbEntity
  8
GAIKEI
  6
Continuous
 62
     1
100
AcDbLine
 10
34.88722531639294
 20
6.687540930909051
 30
0.0
 11
34.88722531639294
 21
7.187540930909051
 31
0.0
  0
LINE
  5
1E3
330
2
100
AcDbEntity
  8
GAIKEI
  6
Continuous
 62
     1
100
AcDbLine
 10
34.88722531639294
 20
7.437540930909051
 30
0.0
 11
34.88722531639294
 21
7.937540930909051
 31
0.0
  0
LINE
  5
1E4
330
2
100
AcDbEntity
  8
GAIKEI
  6
Continuous
 62
     1
100
AcDbLine
 10
34.88722531639294
 20
8.187540930909051
 30
0.0
 11
34.88722531639294
 21
8.687540930909051
 31
0.0
  0
LINE
  5
1E5
330
2
100
AcDbEntity
  8
GAIKEI
  6
Continuous
 62
     1
100
AcDbLine
 10
34.38722531639295
 20
6.687540930909051
 30
0.0
 11
34.38722531639295
 21
7.187540930909051
 31
0.0
  0
LINE
  5
1E6
330
2
100
AcDbEntity
  8
GAIKEI
  6
Continuous
 62
     1
100
AcDbLine
 10
34.38722531639295
 20
7.437540930909051
 30
0.0
 11
34.38722531639295
 21
7.937540930909051
 31
0.0
  0
LINE
  5
1E7
330
2
100
AcDbEntity
  8
GAIKEI
  6
Continuous
 62
     1
100
AcDbLine
 10
34.38722531639295
 20
8.187540930909051
 30
0.0
 11
34.38722531639295
 21
8.687540930909051
 31
0.0
  0
LINE
  5
1E8
330
2
100
AcDbEntity
  8
GAIKEI
  6
Continuous
 62
     1
100
AcDbLine
 10
33.88722991639307
 20
6.687540930909051
 30
0.0
 11
33.88722991639307
 21
7.187540930909051
 31
0.0
  0
LINE
  5
1E9
330
2
100
AcDbEntity
  8
GAIKEI
  6
Continuous
 62
     1
100
AcDbLine
 10
33.88722991639307
 20
7.437540930909051
 30
0.0
 11
33.88722991639307
 21
7.937540930909051
 31
0.0
  0
LINE
  5
1EA
330
2
100
AcDbEntity
  8
GAIKEI
  6
Continuous
 62
     1
100
AcDbLine
 10
33.88722991639307
 20
8.187540930909051
 30
0.0
 11
33.88722991639307
 21
8.687540930909051
 31
0.0
  0
LINE
  5
1EB
330
2
100
AcDbEntity
  8
GAIKEI
  6
Continuous
 62
     1
100
AcDbLine
 10
33.38722991639307
 20
6.687540930909051
 30
0.0
 11
33.38722991639307
 21
7.187540930909051
 31
0.0
  0
LINE
  5
1EC
330
2
100
AcDbEntity
  8
GAIKEI
  6
Continuous
 62
     1
100
AcDbLine
 10
33.38722991639307
 20
7.437540930909051
 30
0.0
 11
33.38722991639307
 21
7.937540930909051
 31
0.0
  0
LINE
  5
1ED
330
2
100
AcDbEntity
  8
GAIKEI
  6
Continuous
 62
     1
100
AcDbLine
 10
33.38722991639307
 20
8.187540930909051
 30
0.0
 11
33.38722991639307
 21
8.687540930909051
 31
0.0
  0
LINE
  5
1EE
330
2
100
AcDbEntity
  8
GAIKEI
  6
Continuous
 62
     1
100
AcDbLine
 10
32.88722991639307
 20
6.687540930909051
 30
0.0
 11
32.88722991639307
 21
7.187540930909051
 31
0.0
  0
LINE
  5
1EF
330
2
100
AcDbEntity
  8
GAIKEI
  6
Continuous
 62
     1
100
AcDbLine
 10
32.88722991639307
 20
7.437540930909051
 30
0.0
 11
32.88722991639307
 21
7.937540930909051
 31
0.0
  0
LINE
  5
1F0
330
2
100
AcDbEntity
  8
GAIKEI
  6
Continuous
 62
     1
100
AcDbLine
 10
32.88722991639307
 20
8.187540930909051
 30
0.0
 11
32.88722991639307
 21
8.687540930909051
 31
0.0
  0
LINE
  5
1F1
330
2
100
AcDbEntity
  8
GAIKEI
  6
Continuous
 62
     1
100
AcDbLine
 10
32.38722991639307
 20
6.687540930909051
 30
0.0
 11
32.38722991639307
 21
7.187540930909051
 31
0.0
  0
LINE
  5
1F2
330
2
100
AcDbEntity
  8
GAIKEI
  6
Continuous
 62
     1
100
AcDbLine
 10
32.38722991639307
 20
7.437540930909051
 30
0.0
 11
32.38722991639307
 21
7.937540930909051
 31
0.0
  0
LINE
  5
1F3
330
2
100
AcDbEntity
  8
GAIKEI
  6
Continuous
 62
     1
100
AcDbLine
 10
32.38722991639307
 20
8.187540930909051
 30
0.0
 11
32.38722991639307
 21
8.687540930909051
 31
0.0
  0
LINE
  5
1F4
330
2
100
AcDbEntity
  8
GAIKEI
  6
Continuous
 62
     1
100
AcDbLine
 10
31.88722991639307
 20
6.687540930909051
 30
0.0
 11
31.88722991639307
 21
7.187540930909051
 31
0.0
  0
LINE
  5
1F5
330
2
100
AcDbEntity
  8
GAIKEI
  6
Continuous
 62
     1
100
AcDbLine
 10
31.88722991639307
 20
7.437540930909051
 30
0.0
 11
31.88722991639307
 21
7.937540930909051
 31
0.0
  0
LINE
  5
1F6
330
2
100
AcDbEntity
  8
GAIKEI
  6
Continuous
 62
     1
100
AcDbLine
 10
31.88722991639307
 20
8.187540930909051
 30
0.0
 11
31.88722991639307
 21
8.687540930909051
 31
0.0
  0
LINE
  5
1F7
330
2
100
AcDbEntity
  8
GAIKEI
  6
Continuous
 62
     1
100
AcDbLine
 10
36.10722501639307
 20
7.187540930909051
 30
0.0
 11
35.88722531639294
 21
7.187540930909051
 31
0.0
  0
LINE
  5
1F8
330
2
100
AcDbEntity
  8
GAIKEI
  6
Continuous
 62
     1
100
AcDbLine
 10
36.10722501639307
 20
7.937540930909051
 30
0.0
 11
35.88722531639294
 21
7.937540930909051
 31
0.0
  0
LINE
  5
1F9
330
2
100
AcDbEntity
  8
GAIKEI
  6
Continuous
 62
     1
100
AcDbLine
 10
36.10722501639307
 20
8.687540930909051
 30
0.0
 11
35.88722531639294
 21
8.687540930909051
 31
0.0
  0
LINE
  5
1FA
330
2
100
AcDbEntity
  8
GAIKEI
  6
Continuous
 62
     1
100
AcDbLine
 10
35.60722501639308
 20
7.187540930909051
 30
0.0
 11
35.38722531639294
 21
7.187540930909051
 31
0.0
  0
LINE
  5
1FB
330
2
100
AcDbEntity
  8
GAIKEI
  6
Continuous
 62
     1
100
AcDbLine
 10
35.60722501639308
 20
7.937540930909051
 30
0.0
 11
35.38722531639294
 21
7.937540930909051
 31
0.0
  0
LINE
  5
1FC
330
2
100
AcDbEntity
  8
GAIKEI
  6
Continuous
 62
     1
100
AcDbLine
 10
35.60722501639308
 20
8.687540930909051
 30
0.0
 11
35.38722531639294
 21
8.687540930909051
 31
0.0
  0
LINE
  5
1FD
330
2
100
AcDbEntity
  8
GAIKEI
  6
Continuous
 62
     1
100
AcDbLine
 10
35.10722501639307
 20
7.187540930909051
 30
0.0
 11
34.88722531639294
 21
7.187540930909051
 31
0.0
  0
LINE
  5
1FE
330
2
100
AcDbEntity
  8
GAIKEI
  6
Continuous
 62
     1
100
AcDbLine
 10
35.10722501639307
 20
7.937540930909051
 30
0.0
 11
34.88722531639294
 21
7.937540930909051
 31
0.0
  0
LINE
  5
1FF
330
2
100
AcDbEntity
  8
GAIKEI
  6
Continuous
 62
     1
100
AcDbLine
 10
35.10722501639307
 20
8.687540930909051
 30
0.0
 11
34.88722531639294
 21
8.687540930909051
 31
0.0
  0
LINE
  5
200
330
2
100
AcDbEntity
  8
GAIKEI
  6
Continuous
 62
     1
100
AcDbLine
 10
34.60722501639307
 20
7.187540930909051
 30
0.0
 11
34.38722531639295
 21
7.187540930909051
 31
0.0
  0
LINE
  5
201
330
2
100
AcDbEntity
  8
GAIKEI
  6
Continuous
 62
     1
100
AcDbLine
 10
34.60722501639307
 20
7.937540930909051
 30
0.0
 11
34.38722531639295
 21
7.937540930909051
 31
0.0
  0
LINE
  5
202
330
2
100
AcDbEntity
  8
GAIKEI
  6
Continuous
 62
     1
100
AcDbLine
 10
34.60722501639307
 20
8.687540930909051
 30
0.0
 11
34.38722531639295
 21
8.687540930909051
 31
0.0
  0
LINE
  5
203
330
2
100
AcDbEntity
  8
GAIKEI
  6
Continuous
 62
     1
100
AcDbLine
 10
34.10722501639308
 20
7.187540930909051
 30
0.0
 11
33.88722991639307
 21
7.187540930909051
 31
0.0
  0
LINE
  5
204
330
2
100
AcDbEntity
  8
GAIKEI
  6
Continuous
 62
     1
100
AcDbLine
 10
34.10722501639308
 20
7.937540930909051
 30
0.0
 11
33.88722991639307
 21
7.937540930909051
 31
0.0
  0
LINE
  5
205
330
2
100
AcDbEntity
  8
GAIKEI
  6
Continuous
 62
     1
100
AcDbLine
 10
34.10722501639308
 20
8.687540930909051
 30
0.0
 11
33.88722991639307
 21
8.687540930909051
 31
0.0
  0
LINE
  5
206
330
2
100
AcDbEntity
  8
GAIKEI
  6
Continuous
 62
     1
100
AcDbLine
 10
33.60722501639307
 20
7.187540930909051
 30
0.0
 11
33.38722991639307
 21
7.187540930909051
 31
0.0
  0
LINE
  5
207
330
2
100
AcDbEntity
  8
GAIKEI
  6
Continuous
 62
     1
100
AcDbLine
 10
33.60722501639307
 20
7.937540930909051
 30
0.0
 11
33.38722991639307
 21
7.937540930909051
 31
0.0
  0
LINE
  5
208
330
2
100
AcDbEntity
  8
GAIKEI
  6
Continuous
 62
     1
100
AcDbLine
 10
33.60722501639307
 20
8.687540930909051
 30
0.0
 11
33.38722991639307
 21
8.687540930909051
 31
0.0
  0
LINE
  5
209
330
2
100
AcDbEntity
  8
GAIKEI
  6
Continuous
 62
     1
100
AcDbLine
 10
33.10722501639308
 20
7.187540930909051
 30
0.0
 11
32.88722991639307
 21
7.187540930909051
 31
0.0
  0
LINE
  5
20A
330
2
100
AcDbEntity
  8
GAIKEI
  6
Continuous
 62
     1
100
AcDbLine
 10
33.10722501639308
 20
7.937540930909051
 30
0.0
 11
32.88722991639307
 21
7.937540930909051
 31
0.0
  0
LINE
  5
20B
330
2
100
AcDbEntity
  8
GAIKEI
  6
Continuous
 62
     1
100
AcDbLine
 10
33.10722501639308
 20
8.687540930909051
 30
0.0
 11
32.88722991639307
 21
8.687540930909051
 31
0.0
  0
LINE
  5
20C
330
2
100
AcDbEntity
  8
GAIKEI
  6
Continuous
 62
     1
100
AcDbLine
 10
32.60722501639307
 20
7.187540930909051
 30
0.0
 11
32.38722991639307
 21
7.187540930909051
 31
0.0
  0
LINE
  5
20D
330
2
100
AcDbEntity
  8
GAIKEI
  6
Continuous
 62
     1
100
AcDbLine
 10
32.60722501639307
 20
7.937540930909051
 30
0.0
 11
32.38722991639307
 21
7.937540930909051
 31
0.0
  0
LINE
  5
20E
330
2
100
AcDbEntity
  8
GAIKEI
  6
Continuous
 62
     1
100
AcDbLine
 10
32.60722501639307
 20
8.687540930909051
 30
0.0
 11
32.38722991639307
 21
8.687540930909051
 31
0.0
  0
LINE
  5
20F
330
2
100
AcDbEntity
  8
GAIKEI
  6
Continuous
 62
     1
100
AcDbLine
 10
32.10722501639307
 20
7.187540930909051
 30
0.0
 11
31.88722991639307
 21
7.187540930909051
 31
0.0
  0
LINE
  5
210
330
2
100
AcDbEntity
  8
GAIKEI
  6
Continuous
 62
     1
100
AcDbLine
 10
32.10722501639307
 20
7.937540930909051
 30
0.0
 11
31.88722991639307
 21
7.937540930909051
 31
0.0
  0
LINE
  5
211
330
2
100
AcDbEntity
  8
GAIKEI
  6
Continuous
 62
     1
100
AcDbLine
 10
32.10722501639307
 20
8.687540930909051
 30
0.0
 11
31.88722991639307
 21
8.687540930909051
 31
0.0
  0
LINE
  5
212
330
2
100
AcDbEntity
  8
GAIKEI
  6
Continuous
 62
     1
100
AcDbLine
 10
36.10722501639307
 20
6.687540930909051
 30
0.0
 11
35.88722531639294
 21
6.687540930909051
 31
0.0
  0
LINE
  5
213
330
2
100
AcDbEntity
  8
GAIKEI
  6
Continuous
 62
     1
100
AcDbLine
 10
36.10722501639307
 20
7.437540930909051
 30
0.0
 11
35.88722531639294
 21
7.437540930909051
 31
0.0
  0
LINE
  5
214
330
2
100
AcDbEntity
  8
GAIKEI
  6
Continuous
 62
     1
100
AcDbLine
 10
36.10722501639307
 20
8.187540930909051
 30
0.0
 11
35.88722531639294
 21
8.187540930909051
 31
0.0
  0
LINE
  5
215
330
2
100
AcDbEntity
  8
GAIKEI
  6
Continuous
 62
     1
100
AcDbLine
 10
35.60722501639308
 20
6.687540930909051
 30
0.0
 11
35.38722531639294
 21
6.687540930909051
 31
0.0
  0
LINE
  5
216
330
2
100
AcDbEntity
  8
GAIKEI
  6
Continuous
 62
     1
100
AcDbLine
 10
35.60722501639308
 20
7.437540930909051
 30
0.0
 11
35.38722531639294
 21
7.437540930909051
 31
0.0
  0
LINE
  5
217
330
2
100
AcDbEntity
  8
GAIKEI
  6
Continuous
 62
     1
100
AcDbLine
 10
35.60722501639308
 20
8.187540930909051
 30
0.0
 11
35.38722531639294
 21
8.187540930909051
 31
0.0
  0
LINE
  5
218
330
2
100
AcDbEntity
  8
GAIKEI
  6
Continuous
 62
     1
100
AcDbLine
 10
35.10722501639307
 20
6.687540930909051
 30
0.0
 11
34.88722531639294
 21
6.687540930909051
 31
0.0
  0
LINE
  5
219
330
2
100
AcDbEntity
  8
GAIKEI
  6
Continuous
 62
     1
100
AcDbLine
 10
35.10722501639307
 20
7.437540930909051
 30
0.0
 11
34.88722531639294
 21
7.437540930909051
 31
0.0
  0
LINE
  5
21A
330
2
100
AcDbEntity
  8
GAIKEI
  6
Continuous
 62
     1
100
AcDbLine
 10
35.10722501639307
 20
8.187540930909051
 30
0.0
 11
34.88722531639294
 21
8.187540930909051
 31
0.0
  0
LINE
  5
21B
330
2
100
AcDbEntity
  8
GAIKEI
  6
Continuous
 62
     1
100
AcDbLine
 10
34.60722501639307
 20
6.687540930909051
 30
0.0
 11
34.38722531639295
 21
6.687540930909051
 31
0.0
  0
LINE
  5
21C
330
2
100
AcDbEntity
  8
GAIKEI
  6
Continuous
 62
     1
100
AcDbLine
 10
34.60722501639307
 20
7.437540930909051
 30
0.0
 11
34.38722531639295
 21
7.437540930909051
 31
0.0
  0
LINE
  5
21D
330
2
100
AcDbEntity
  8
GAIKEI
  6
Continuous
 62
     1
100
AcDbLine
 10
34.60722501639307
 20
8.187540930909051
 30
0.0
 11
34.38722531639295
 21
8.187540930909051
 31
0.0
  0
LINE
  5
21E
330
2
100
AcDbEntity
  8
GAIKEI
  6
Continuous
 62
     1
100
AcDbLine
 10
34.10722501639308
 20
6.687540930909051
 30
0.0
 11
33.88722991639307
 21
6.687540930909051
 31
0.0
  0
LINE
  5
21F
330
2
100
AcDbEntity
  8
GAIKEI
  6
Continuous
 62
     1
100
AcDbLine
 10
34.10722501639308
 20
7.437540930909051
 30
0.0
 11
33.88722991639307
 21
7.437540930909051
 31
0.0
  0
LINE
  5
220
330
2
100
AcDbEntity
  8
GAIKEI
  6
Continuous
 62
     1
100
AcDbLine
 10
34.10722501639308
 20
8.187540930909051
 30
0.0
 11
33.88722991639307
 21
8.187540930909051
 31
0.0
  0
LINE
  5
221
330
2
100
AcDbEntity
  8
GAIKEI
  6
Continuous
 62
     1
100
AcDbLine
 10
33.60722501639307
 20
6.687540930909051
 30
0.0
 11
33.38722991639307
 21
6.687540930909051
 31
0.0
  0
LINE
  5
222
330
2
100
AcDbEntity
  8
GAIKEI
  6
Continuous
 62
     1
100
AcDbLine
 10
33.60722501639307
 20
7.437540930909051
 30
0.0
 11
33.38722991639307
 21
7.437540930909051
 31
0.0
  0
LINE
  5
223
330
2
100
AcDbEntity
  8
GAIKEI
  6
Continuous
 62
     1
100
AcDbLine
 10
33.60722501639307
 20
8.187540930909051
 30
0.0
 11
33.38722991639307
 21
8.187540930909051
 31
0.0
  0
LINE
  5
224
330
2
100
AcDbEntity
  8
GAIKEI
  6
Continuous
 62
     1
100
AcDbLine
 10
33.10722501639308
 20
6.687540930909051
 30
0.0
 11
32.88722991639307
 21
6.687540930909051
 31
0.0
  0
LINE
  5
225
330
2
100
AcDbEntity
  8
GAIKEI
  6
Continuous
 62
     1
100
AcDbLine
 10
33.10722501639308
 20
7.437540930909051
 30
0.0
 11
32.88722991639307
 21
7.437540930909051
 31
0.0
  0
LINE
  5
226
330
2
100
AcDbEntity
  8
GAIKEI
  6
Continuous
 62
     1
100
AcDbLine
 10
33.10722501639308
 20
8.187540930909051
 30
0.0
 11
32.88722991639307
 21
8.187540930909051
 31
0.0
  0
LINE
  5
227
330
2
100
AcDbEntity
  8
GAIKEI
  6
Continuous
 62
     1
100
AcDbLine
 10
32.60722501639307
 20
6.687540930909051
 30
0.0
 11
32.38722991639307
 21
6.687540930909051
 31
0.0
  0
LINE
  5
228
330
2
100
AcDbEntity
  8
GAIKEI
  6
Continuous
 62
     1
100
AcDbLine
 10
32.60722501639307
 20
7.437540930909051
 30
0.0
 11
32.38722991639307
 21
7.437540930909051
 31
0.0
  0
LINE
  5
229
330
2
100
AcDbEntity
  8
GAIKEI
  6
Continuous
 62
     1
100
AcDbLine
 10
32.60722501639307
 20
8.187540930909051
 30
0.0
 11
32.38722991639307
 21
8.187540930909051
 31
0.0
  0
LINE
  5
22A
330
2
100
AcDbEntity
  8
GAIKEI
  6
Continuous
 62
     1
100
AcDbLine
 10
32.10722501639307
 20
6.687540930909051
 30
0.0
 11
31.88722991639307
 21
6.687540930909051
 31
0.0
  0
LINE
  5
22B
330
2
100
AcDbEntity
  8
GAIKEI
  6
Continuous
 62
     1
100
AcDbLine
 10
32.10722501639307
 20
7.437540930909051
 30
0.0
 11
31.88722991639307
 21
7.437540930909051
 31
0.0
  0
LINE
  5
22C
330
2
100
AcDbEntity
  8
GAIKEI
  6
Continuous
 62
     1
100
AcDbLine
 10
32.10722501639307
 20
8.187540930909051
 30
0.0
 11
31.88722991639307
 21
8.187540930909051
 31
0.0
  0
LINE
  5
22D
330
2
100
AcDbEntity
  8
GAIKEI
  6
Continuous
 62
     1
100
AcDbLine
 10
36.10722501639307
 20
6.687540930909051
 30
0.0
 11
36.10722501639307
 21
7.187540930909051
 31
0.0
  0
LINE
  5
22E
330
2
100
AcDbEntity
  8
GAIKEI
  6
Continuous
 62
     1
100
AcDbLine
 10
36.10722501639307
 20
7.437540930909051
 30
0.0
 11
36.10722501639307
 21
7.937540930909051
 31
0.0
  0
LINE
  5
22F
330
2
100
AcDbEntity
  8
GAIKEI
  6
Continuous
 62
     1
100
AcDbLine
 10
36.10722501639307
 20
8.187540930909051
 30
0.0
 11
36.10722501639307
 21
8.687540930909051
 31
0.0
  0
LINE
  5
230
330
2
100
AcDbEntity
  8
GAIKEI
  6
Continuous
 62
     1
100
AcDbLine
 10
35.60722501639308
 20
6.687540930909051
 30
0.0
 11
35.60722501639308
 21
7.187540930909051
 31
0.0
  0
LINE
  5
231
330
2
100
AcDbEntity
  8
GAIKEI
  6
Continuous
 62
     1
100
AcDbLine
 10
35.60722501639308
 20
7.437540930909051
 30
0.0
 11
35.60722501639308
 21
7.937540930909051
 31
0.0
  0
LINE
  5
232
330
2
100
AcDbEntity
  8
GAIKEI
  6
Continuous
 62
     1
100
AcDbLine
 10
35.60722501639308
 20
8.187540930909051
 30
0.0
 11
35.60722501639308
 21
8.687540930909051
 31
0.0
  0
LINE
  5
233
330
2
100
AcDbEntity
  8
GAIKEI
  6
Continuous
 62
     1
100
AcDbLine
 10
35.10722501639307
 20
6.687540930909051
 30
0.0
 11
35.10722501639307
 21
7.187540930909051
 31
0.0
  0
LINE
  5
234
330
2
100
AcDbEntity
  8
GAIKEI
  6
Continuous
 62
     1
100
AcDbLine
 10
35.10722501639307
 20
7.437540930909051
 30
0.0
 11
35.10722501639307
 21
7.937540930909051
 31
0.0
  0
LINE
  5
235
330
2
100
AcDbEntity
  8
GAIKEI
  6
Continuous
 62
     1
100
AcDbLine
 10
35.10722501639307
 20
8.187540930909051
 30
0.0
 11
35.10722501639307
 21
8.687540930909051
 31
0.0
  0
LINE
  5
236
330
2
100
AcDbEntity
  8
GAIKEI
  6
Continuous
 62
     1
100
AcDbLine
 10
34.60722501639307
 20
6.687540930909051
 30
0.0
 11
34.60722501639307
 21
7.187540930909051
 31
0.0
  0
LINE
  5
237
330
2
100
AcDbEntity
  8
GAIKEI
  6
Continuous
 62
     1
100
AcDbLine
 10
34.60722501639307
 20
7.437540930909051
 30
0.0
 11
34.60722501639307
 21
7.937540930909051
 31
0.0
  0
LINE
  5
238
330
2
100
AcDbEntity
  8
GAIKEI
  6
Continuous
 62
     1
100
AcDbLine
 10
34.60722501639307
 20
8.187540930909051
 30
0.0
 11
34.60722501639307
 21
8.687540930909051
 31
0.0
  0
LINE
  5
239
330
2
100
AcDbEntity
  8
GAIKEI
  6
Continuous
 62
     1
100
AcDbLine
 10
34.10722501639308
 20
6.687540930909051
 30
0.0
 11
34.10722501639308
 21
7.187540930909051
 31
0.0
  0
LINE
  5
23A
330
2
100
AcDbEntity
  8
GAIKEI
  6
Continuous
 62
     1
100
AcDbLine
 10
34.10722501639308
 20
7.437540930909051
 30
0.0
 11
34.10722501639308
 21
7.937540930909051
 31
0.0
  0
LINE
  5
23B
330
2
100
AcDbEntity
  8
GAIKEI
  6
Continuous
 62
     1
100
AcDbLine
 10
34.10722501639308
 20
8.187540930909051
 30
0.0
 11
34.10722501639308
 21
8.687540930909051
 31
0.0
  0
LINE
  5
23C
330
2
100
AcDbEntity
  8
GAIKEI
  6
Continuous
 62
     1
100
AcDbLine
 10
33.60722501639307
 20
6.687540930909051
 30
0.0
 11
33.60722501639307
 21
7.187540930909051
 31
0.0
  0
LINE
  5
23D
330
2
100
AcDbEntity
  8
GAIKEI
  6
Continuous
 62
     1
100
AcDbLine
 10
33.60722501639307
 20
7.437540930909051
 30
0.0
 11
33.60722501639307
 21
7.937540930909051
 31
0.0
  0
LINE
  5
23E
330
2
100
AcDbEntity
  8
GAIKEI
  6
Continuous
 62
     1
100
AcDbLine
 10
33.60722501639307
 20
8.187540930909051
 30
0.0
 11
33.60722501639307
 21
8.687540930909051
 31
0.0
  0
LINE
  5
23F
330
2
100
AcDbEntity
  8
GAIKEI
  6
Continuous
 62
     1
100
AcDbLine
 10
33.10722501639308
 20
6.687540930909051
 30
0.0
 11
33.10722501639308
 21
7.187540930909051
 31
0.0
  0
LINE
  5
240
330
2
100
AcDbEntity
  8
GAIKEI
  6
Continuous
 62
     1
100
AcDbLine
 10
33.10722501639308
 20
7.437540930909051
 30
0.0
 11
33.10722501639308
 21
7.937540930909051
 31
0.0
  0
LINE
  5
241
330
2
100
AcDbEntity
  8
GAIKEI
  6
Continuous
 62
     1
100
AcDbLine
 10
33.10722501639308
 20
8.187540930909051
 30
0.0
 11
33.10722501639308
 21
8.687540930909051
 31
0.0
  0
LINE
  5
242
330
2
100
AcDbEntity
  8
GAIKEI
  6
Continuous
 62
     1
100
AcDbLine
 10
32.60722501639307
 20
6.687540930909051
 30
0.0
 11
32.60722501639307
 21
7.187540930909051
 31
0.0
  0
LINE
  5
243
330
2
100
AcDbEntity
  8
GAIKEI
  6
Continuous
 62
     1
100
AcDbLine
 10
32.60722501639307
 20
7.437540930909051
 30
0.0
 11
32.60722501639307
 21
7.937540930909051
 31
0.0
  0
LINE
  5
244
330
2
100
AcDbEntity
  8
GAIKEI
  6
Continuous
 62
     1
100
AcDbLine
 10
32.60722501639307
 20
8.187540930909051
 30
0.0
 11
32.60722501639307
 21
8.687540930909051
 31
0.0
  0
LINE
  5
245
330
2
100
AcDbEntity
  8
GAIKEI
  6
Continuous
 62
     1
100
AcDbLine
 10
32.10722501639307
 20
6.687540930909051
 30
0.0
 11
32.10722501639307
 21
7.187540930909051
 31
0.0
  0
LINE
  5
246
330
2
100
AcDbEntity
  8
GAIKEI
  6
Continuous
 62
     1
100
AcDbLine
 10
32.10722501639307
 20
7.437540930909051
 30
0.0
 11
32.10722501639307
 21
7.937540930909051
 31
0.0
  0
LINE
  5
247
330
2
100
AcDbEntity
  8
GAIKEI
  6
Continuous
 62
     1
100
AcDbLine
 10
32.10722501639307
 20
8.187540930909051
 30
0.0
 11
32.10722501639307
 21
8.687540930909051
 31
0.0
  0
LINE
  5
248
330
2
100
AcDbEntity
  8
GAIKEI
  6
Continuous
 62
     1
100
AcDbLine
 10
35.88722531639294
 20
9.187540930909051
 30
0.0
 11
35.88722531639294
 21
9.687540930909051
 31
0.0
  0
LINE
  5
249
330
2
100
AcDbEntity
  8
GAIKEI
  6
Continuous
 62
     1
100
AcDbLine
 10
35.88722531639294
 20
9.937540930909051
 30
0.0
 11
35.88722531639294
 21
10.43754093090905
 31
0.0
  0
LINE
  5
24A
330
2
100
AcDbEntity
  8
GAIKEI
  6
Continuous
 62
     1
100
AcDbLine
 10
35.88722531639294
 20
10.68754093090905
 30
0.0
 11
35.88722531639294
 21
11.18754093090905
 31
0.0
  0
LINE
  5
24B
330
2
100
AcDbEntity
  8
GAIKEI
  6
Continuous
 62
     1
100
AcDbLine
 10
35.38722531639294
 20
9.187540930909051
 30
0.0
 11
35.38722531639294
 21
9.687540930909051
 31
0.0
  0
LINE
  5
24C
330
2
100
AcDbEntity
  8
GAIKEI
  6
Continuous
 62
     1
100
AcDbLine
 10
35.38722531639294
 20
9.937540930909051
 30
0.0
 11
35.38722531639294
 21
10.43754093090905
 31
0.0
  0
LINE
  5
24D
330
2
100
AcDbEntity
  8
GAIKEI
  6
Continuous
 62
     1
100
AcDbLine
 10
35.38722531639294
 20
10.68754093090905
 30
0.0
 11
35.38722531639294
 21
11.18754093090905
 31
0.0
  0
LINE
  5
24E
330
2
100
AcDbEntity
  8
GAIKEI
  6
Continuous
 62
     1
100
AcDbLine
 10
34.88722531639294
 20
9.187540930909051
 30
0.0
 11
34.88722531639294
 21
9.687540930909051
 31
0.0
  0
LINE
  5
24F
330
2
100
AcDbEntity
  8
GAIKEI
  6
Continuous
 62
     1
100
AcDbLine
 10
34.88722531639294
 20
9.937540930909051
 30
0.0
 11
34.88722531639294
 21
10.43754093090905
 31
0.0
  0
LINE
  5
250
330
2
100
AcDbEntity
  8
GAIKEI
  6
Continuous
 62
     1
100
AcDbLine
 10
34.88722531639294
 20
10.68754093090905
 30
0.0
 11
34.88722531639294
 21
11.18754093090905
 31
0.0
  0
LINE
  5
251
330
2
100
AcDbEntity
  8
GAIKEI
  6
Continuous
 62
     1
100
AcDbLine
 10
34.38722531639295
 20
9.187540930909051
 30
0.0
 11
34.38722531639295
 21
9.687540930909051
 31
0.0
  0
LINE
  5
252
330
2
100
AcDbEntity
  8
GAIKEI
  6
Continuous
 62
     1
100
AcDbLine
 10
34.38722531639295
 20
9.937540930909051
 30
0.0
 11
34.38722531639295
 21
10.43754093090905
 31
0.0
  0
LINE
  5
253
330
2
100
AcDbEntity
  8
GAIKEI
  6
Continuous
 62
     1
100
AcDbLine
 10
34.38722531639295
 20
10.68754093090905
 30
0.0
 11
34.38722531639295
 21
11.18754093090905
 31
0.0
  0
LINE
  5
254
330
2
100
AcDbEntity
  8
GAIKEI
  6
Continuous
 62
     1
100
AcDbLine
 10
33.88722991639307
 20
9.187540930909051
 30
0.0
 11
33.88722991639307
 21
9.687540930909051
 31
0.0
  0
LINE
  5
255
330
2
100
AcDbEntity
  8
GAIKEI
  6
Continuous
 62
     1
100
AcDbLine
 10
33.88722991639307
 20
9.937540930909051
 30
0.0
 11
33.88722991639307
 21
10.43754093090905
 31
0.0
  0
LINE
  5
256
330
2
100
AcDbEntity
  8
GAIKEI
  6
Continuous
 62
     1
100
AcDbLine
 10
33.88722991639307
 20
10.68754093090905
 30
0.0
 11
33.88722991639307
 21
11.18754093090905
 31
0.0
  0
LINE
  5
257
330
2
100
AcDbEntity
  8
GAIKEI
  6
Continuous
 62
     1
100
AcDbLine
 10
33.38722991639307
 20
9.187540930909051
 30
0.0
 11
33.38722991639307
 21
9.687540930909051
 31
0.0
  0
LINE
  5
258
330
2
100
AcDbEntity
  8
GAIKEI
  6
Continuous
 62
     1
100
AcDbLine
 10
33.38722991639307
 20
9.937540930909051
 30
0.0
 11
33.38722991639307
 21
10.43754093090905
 31
0.0
  0
LINE
  5
259
330
2
100
AcDbEntity
  8
GAIKEI
  6
Continuous
 62
     1
100
AcDbLine
 10
33.38722991639307
 20
10.68754093090905
 30
0.0
 11
33.38722991639307
 21
11.18754093090905
 31
0.0
  0
LINE
  5
25A
330
2
100
AcDbEntity
  8
GAIKEI
  6
Continuous
 62
     1
100
AcDbLine
 10
32.88722991639307
 20
9.187540930909051
 30
0.0
 11
32.88722991639307
 21
9.687540930909051
 31
0.0
  0
LINE
  5
25B
330
2
100
AcDbEntity
  8
GAIKEI
  6
Continuous
 62
     1
100
AcDbLine
 10
32.88722991639307
 20
9.937540930909051
 30
0.0
 11
32.88722991639307
 21
10.43754093090905
 31
0.0
  0
LINE
  5
25C
330
2
100
AcDbEntity
  8
GAIKEI
  6
Continuous
 62
     1
100
AcDbLine
 10
32.88722991639307
 20
10.68754093090905
 30
0.0
 11
32.88722991639307
 21
11.18754093090905
 31
0.0
  0
LINE
  5
25D
330
2
100
AcDbEntity
  8
GAIKEI
  6
Continuous
 62
     1
100
AcDbLine
 10
32.38722991639307
 20
9.187540930909051
 30
0.0
 11
32.38722991639307
 21
9.687540930909051
 31
0.0
  0
LINE
  5
25E
330
2
100
AcDbEntity
  8
GAIKEI
  6
Continuous
 62
     1
100
AcDbLine
 10
32.38722991639307
 20
9.937540930909051
 30
0.0
 11
32.38722991639307
 21
10.43754093090905
 31
0.0
  0
LINE
  5
25F
330
2
100
AcDbEntity
  8
GAIKEI
  6
Continuous
 62
     1
100
AcDbLine
 10
32.38722991639307
 20
10.68754093090905
 30
0.0
 11
32.38722991639307
 21
11.18754093090905
 31
0.0
  0
LINE
  5
260
330
2
100
AcDbEntity
  8
GAIKEI
  6
Continuous
 62
     1
100
AcDbLine
 10
31.88722991639307
 20
9.187540930909051
 30
0.0
 11
31.88722991639307
 21
9.687540930909051
 31
0.0
  0
LINE
  5
261
330
2
100
AcDbEntity
  8
GAIKEI
  6
Continuous
 62
     1
100
AcDbLine
 10
31.88722991639307
 20
9.937540930909051
 30
0.0
 11
31.88722991639307
 21
10.43754093090905
 31
0.0
  0
LINE
  5
262
330
2
100
AcDbEntity
  8
GAIKEI
  6
Continuous
 62
     1
100
AcDbLine
 10
31.88722991639307
 20
10.68754093090905
 30
0.0
 11
31.88722991639307
 21
11.18754093090905
 31
0.0
  0
LINE
  5
263
330
2
100
AcDbEntity
  8
GAIKEI
  6
Continuous
 62
     1
100
AcDbLine
 10
36.10722501639307
 20
9.687540930909051
 30
0.0
 11
35.88722531639294
 21
9.687540930909051
 31
0.0
  0
LINE
  5
264
330
2
100
AcDbEntity
  8
GAIKEI
  6
Continuous
 62
     1
100
AcDbLine
 10
36.10722501639307
 20
10.43754093090905
 30
0.0
 11
35.88722531639294
 21
10.43754093090905
 31
0.0
  0
LINE
  5
265
330
2
100
AcDbEntity
  8
GAIKEI
  6
Continuous
 62
     1
100
AcDbLine
 10
36.10722501639307
 20
11.18754093090905
 30
0.0
 11
35.88722531639294
 21
11.18754093090905
 31
0.0
  0
LINE
  5
266
330
2
100
AcDbEntity
  8
GAIKEI
  6
Continuous
 62
     1
100
AcDbLine
 10
35.60722501639308
 20
9.687540930909051
 30
0.0
 11
35.38722531639294
 21
9.687540930909051
 31
0.0
  0
LINE
  5
267
330
2
100
AcDbEntity
  8
GAIKEI
  6
Continuous
 62
     1
100
AcDbLine
 10
35.60722501639308
 20
10.43754093090905
 30
0.0
 11
35.38722531639294
 21
10.43754093090905
 31
0.0
  0
LINE
  5
268
330
2
100
AcDbEntity
  8
GAIKEI
  6
Continuous
 62
     1
100
AcDbLine
 10
35.60722501639308
 20
11.18754093090905
 30
0.0
 11
35.38722531639294
 21
11.18754093090905
 31
0.0
  0
LINE
  5
269
330
2
100
AcDbEntity
  8
GAIKEI
  6
Continuous
 62
     1
100
AcDbLine
 10
35.10722501639307
 20
9.687540930909051
 30
0.0
 11
34.88722531639294
 21
9.687540930909051
 31
0.0
  0
LINE
  5
26A
330
2
100
AcDbEntity
  8
GAIKEI
  6
Continuous
 62
     1
100
AcDbLine
 10
35.10722501639307
 20
10.43754093090905
 30
0.0
 11
34.88722531639294
 21
10.43754093090905
 31
0.0
  0
LINE
  5
26B
330
2
100
AcDbEntity
  8
GAIKEI
  6
Continuous
 62
     1
100
AcDbLine
 10
35.10722501639307
 20
11.18754093090905
 30
0.0
 11
34.88722531639294
 21
11.18754093090905
 31
0.0
  0
LINE
  5
26C
330
2
100
AcDbEntity
  8
GAIKEI
  6
Continuous
 62
     1
100
AcDbLine
 10
34.60722501639307
 20
9.687540930909051
 30
0.0
 11
34.38722531639295
 21
9.687540930909051
 31
0.0
  0
LINE
  5
26D
330
2
100
AcDbEntity
  8
GAIKEI
  6
Continuous
 62
     1
100
AcDbLine
 10
34.60722501639307
 20
10.43754093090905
 30
0.0
 11
34.38722531639295
 21
10.43754093090905
 31
0.0
  0
LINE
  5
26E
330
2
100
AcDbEntity
  8
GAIKEI
  6
Continuous
 62
     1
100
AcDbLine
 10
34.60722501639307
 20
11.18754093090905
 30
0.0
 11
34.38722531639295
 21
11.18754093090905
 31
0.0
  0
LINE
  5
26F
330
2
100
AcDbEntity
  8
GAIKEI
  6
Continuous
 62
     1
100
AcDbLine
 10
34.10722501639308
 20
9.687540930909051
 30
0.0
 11
33.88722991639307
 21
9.687540930909051
 31
0.0
  0
LINE
  5
270
330
2
100
AcDbEntity
  8
GAIKEI
  6
Continuous
 62
     1
100
AcDbLine
 10
34.10722501639308
 20
10.43754093090905
 30
0.0
 11
33.88722991639307
 21
10.43754093090905
 31
0.0
  0
LINE
  5
271
330
2
100
AcDbEntity
  8
GAIKEI
  6
Continuous
 62
     1
100
AcDbLine
 10
34.10722501639308
 20
11.18754093090905
 30
0.0
 11
33.88722991639307
 21
11.18754093090905
 31
0.0
  0
LINE
  5
272
330
2
100
AcDbEntity
  8
GAIKEI
  6
Continuous
 62
     1
100
AcDbLine
 10
33.60722501639307
 20
9.687540930909051
 30
0.0
 11
33.38722991639307
 21
9.687540930909051
 31
0.0
  0
LINE
  5
273
330
2
100
AcDbEntity
  8
GAIKEI
  6
Continuous
 62
     1
100
AcDbLine
 10
33.60722501639307
 20
10.43754093090905
 30
0.0
 11
33.38722991639307
 21
10.43754093090905
 31
0.0
  0
LINE
  5
274
330
2
100
AcDbEntity
  8
GAIKEI
  6
Continuous
 62
     1
100
AcDbLine
 10
33.60722501639307
 20
11.18754093090905
 30
0.0
 11
33.38722991639307
 21
11.18754093090905
 31
0.0
  0
LINE
  5
275
330
2
100
AcDbEntity
  8
GAIKEI
  6
Continuous
 62
     1
100
AcDbLine
 10
33.10722501639308
 20
9.687540930909051
 30
0.0
 11
32.88722991639307
 21
9.687540930909051
 31
0.0
  0
LINE
  5
276
330
2
100
AcDbEntity
  8
GAIKEI
  6
Continuous
 62
     1
100
AcDbLine
 10
33.10722501639308
 20
10.43754093090905
 30
0.0
 11
32.88722991639307
 21
10.43754093090905
 31
0.0
  0
LINE
  5
277
330
2
100
AcDbEntity
  8
GAIKEI
  6
Continuous
 62
     1
100
AcDbLine
 10
33.10722501639308
 20
11.18754093090905
 30
0.0
 11
32.88722991639307
 21
11.18754093090905
 31
0.0
  0
LINE
  5
278
330
2
100
AcDbEntity
  8
GAIKEI
  6
Continuous
 62
     1
100
AcDbLine
 10
32.60722501639307
 20
9.687540930909051
 30
0.0
 11
32.38722991639307
 21
9.687540930909051
 31
0.0
  0
LINE
  5
279
330
2
100
AcDbEntity
  8
GAIKEI
  6
Continuous
 62
     1
100
AcDbLine
 10
32.60722501639307
 20
10.43754093090905
 30
0.0
 11
32.38722991639307
 21
10.43754093090905
 31
0.0
  0
LINE
  5
27A
330
2
100
AcDbEntity
  8
GAIKEI
  6
Continuous
 62
     1
100
AcDbLine
 10
32.60722501639307
 20
11.18754093090905
 30
0.0
 11
32.38722991639307
 21
11.18754093090905
 31
0.0
  0
LINE
  5
27B
330
2
100
AcDbEntity
  8
GAIKEI
  6
Continuous
 62
     1
100
AcDbLine
 10
32.10722501639307
 20
9.687540930909051
 30
0.0
 11
31.88722991639307
 21
9.687540930909051
 31
0.0
  0
LINE
  5
27C
330
2
100
AcDbEntity
  8
GAIKEI
  6
Continuous
 62
     1
100
AcDbLine
 10
32.10722501639307
 20
10.43754093090905
 30
0.0
 11
31.88722991639307
 21
10.43754093090905
 31
0.0
  0
LINE
  5
27D
330
2
100
AcDbEntity
  8
GAIKEI
  6
Continuous
 62
     1
100
AcDbLine
 10
32.10722501639307
 20
11.18754093090905
 30
0.0
 11
31.88722991639307
 21
11.18754093090905
 31
0.0
  0
LINE
  5
27E
330
2
100
AcDbEntity
  8
GAIKEI
  6
Continuous
 62
     1
100
AcDbLine
 10
36.10722501639307
 20
9.187540930909051
 30
0.0
 11
35.88722531639294
 21
9.187540930909051
 31
0.0
  0
LINE
  5
27F
330
2
100
AcDbEntity
  8
GAIKEI
  6
Continuous
 62
     1
100
AcDbLine
 10
36.10722501639307
 20
9.937540930909051
 30
0.0
 11
35.88722531639294
 21
9.937540930909051
 31
0.0
  0
LINE
  5
280
330
2
100
AcDbEntity
  8
GAIKEI
  6
Continuous
 62
     1
100
AcDbLine
 10
36.10722501639307
 20
10.68754093090905
 30
0.0
 11
35.88722531639294
 21
10.68754093090905
 31
0.0
  0
LINE
  5
281
330
2
100
AcDbEntity
  8
GAIKEI
  6
Continuous
 62
     1
100
AcDbLine
 10
35.60722501639308
 20
9.187540930909051
 30
0.0
 11
35.38722531639294
 21
9.187540930909051
 31
0.0
  0
LINE
  5
282
330
2
100
AcDbEntity
  8
GAIKEI
  6
Continuous
 62
     1
100
AcDbLine
 10
35.60722501639308
 20
9.937540930909051
 30
0.0
 11
35.38722531639294
 21
9.937540930909051
 31
0.0
  0
LINE
  5
283
330
2
100
AcDbEntity
  8
GAIKEI
  6
Continuous
 62
     1
100
AcDbLine
 10
35.60722501639308
 20
10.68754093090905
 30
0.0
 11
35.38722531639294
 21
10.68754093090905
 31
0.0
  0
LINE
  5
284
330
2
100
AcDbEntity
  8
GAIKEI
  6
Continuous
 62
     1
100
AcDbLine
 10
35.10722501639307
 20
9.187540930909051
 30
0.0
 11
34.88722531639294
 21
9.187540930909051
 31
0.0
  0
LINE
  5
285
330
2
100
AcDbEntity
  8
GAIKEI
  6
Continuous
 62
     1
100
AcDbLine
 10
35.10722501639307
 20
9.937540930909051
 30
0.0
 11
34.88722531639294
 21
9.937540930909051
 31
0.0
  0
LINE
  5
286
330
2
100
AcDbEntity
  8
GAIKEI
  6
Continuous
 62
     1
100
AcDbLine
 10
35.10722501639307
 20
10.68754093090905
 30
0.0
 11
34.88722531639294
 21
10.68754093090905
 31
0.0
  0
LINE
  5
287
330
2
100
AcDbEntity
  8
GAIKEI
  6
Continuous
 62
     1
100
AcDbLine
 10
34.60722501639307
 20
9.187540930909051
 30
0.0
 11
34.38722531639295
 21
9.187540930909051
 31
0.0
  0
LINE
  5
288
330
2
100
AcDbEntity
  8
GAIKEI
  6
Continuous
 62
     1
100
AcDbLine
 10
34.60722501639307
 20
9.937540930909051
 30
0.0
 11
34.38722531639295
 21
9.937540930909051
 31
0.0
  0
LINE
  5
289
330
2
100
AcDbEntity
  8
GAIKEI
  6
Continuous
 62
     1
100
AcDbLine
 10
34.60722501639307
 20
10.68754093090905
 30
0.0
 11
34.38722531639295
 21
10.68754093090905
 31
0.0
  0
LINE
  5
28A
330
2
100
AcDbEntity
  8
GAIKEI
  6
Continuous
 62
     1
100
AcDbLine
 10
34.10722501639308
 20
9.187540930909051
 30
0.0
 11
33.88722991639307
 21
9.187540930909051
 31
0.0
  0
LINE
  5
28B
330
2
100
AcDbEntity
  8
GAIKEI
  6
Continuous
 62
     1
100
AcDbLine
 10
34.10722501639308
 20
9.937540930909051
 30
0.0
 11
33.88722991639307
 21
9.937540930909051
 31
0.0
  0
LINE
  5
28C
330
2
100
AcDbEntity
  8
GAIKEI
  6
Continuous
 62
     1
100
AcDbLine
 10
34.10722501639308
 20
10.68754093090905
 30
0.0
 11
33.88722991639307
 21
10.68754093090905
 31
0.0
  0
LINE
  5
28D
330
2
100
AcDbEntity
  8
GAIKEI
  6
Continuous
 62
     1
100
AcDbLine
 10
33.60722501639307
 20
9.187540930909051
 30
0.0
 11
33.38722991639307
 21
9.187540930909051
 31
0.0
  0
LINE
  5
28E
330
2
100
AcDbEntity
  8
GAIKEI
  6
Continuous
 62
     1
100
AcDbLine
 10
33.60722501639307
 20
9.937540930909051
 30
0.0
 11
33.38722991639307
 21
9.937540930909051
 31
0.0
  0
LINE
  5
28F
330
2
100
AcDbEntity
  8
GAIKEI
  6
Continuous
 62
     1
100
AcDbLine
 10
33.60722501639307
 20
10.68754093090905
 30
0.0
 11
33.38722991639307
 21
10.68754093090905
 31
0.0
  0
LINE
  5
290
330
2
100
AcDbEntity
  8
GAIKEI
  6
Continuous
 62
     1
100
AcDbLine
 10
33.10722501639308
 20
9.187540930909051
 30
0.0
 11
32.88722991639307
 21
9.187540930909051
 31
0.0
  0
LINE
  5
291
330
2
100
AcDbEntity
  8
GAIKEI
  6
Continuous
 62
     1
100
AcDbLine
 10
33.10722501639308
 20
9.937540930909051
 30
0.0
 11
32.88722991639307
 21
9.937540930909051
 31
0.0
  0
LINE
  5
292
330
2
100
AcDbEntity
  8
GAIKEI
  6
Continuous
 62
     1
100
AcDbLine
 10
33.10722501639308
 20
10.68754093090905
 30
0.0
 11
32.88722991639307
 21
10.68754093090905
 31
0.0
  0
LINE
  5
293
330
2
100
AcDbEntity
  8
GAIKEI
  6
Continuous
 62
     1
100
AcDbLine
 10
32.60722501639307
 20
9.187540930909051
 30
0.0
 11
32.38722991639307
 21
9.187540930909051
 31
0.0
  0
LINE
  5
294
330
2
100
AcDbEntity
  8
GAIKEI
  6
Continuous
 62
     1
100
AcDbLine
 10
32.60722501639307
 20
9.937540930909051
 30
0.0
 11
32.38722991639307
 21
9.937540930909051
 31
0.0
  0
LINE
  5
295
330
2
100
AcDbEntity
  8
GAIKEI
  6
Continuous
 62
     1
100
AcDbLine
 10
32.60722501639307
 20
10.68754093090905
 30
0.0
 11
32.38722991639307
 21
10.68754093090905
 31
0.0
  0
LINE
  5
296
330
2
100
AcDbEntity
  8
GAIKEI
  6
Continuous
 62
     1
100
AcDbLine
 10
32.10722501639307
 20
9.187540930909051
 30
0.0
 11
31.88722991639307
 21
9.187540930909051
 31
0.0
  0
LINE
  5
297
330
2
100
AcDbEntity
  8
GAIKEI
  6
Continuous
 62
     1
100
AcDbLine
 10
32.10722501639307
 20
9.937540930909051
 30
0.0
 11
31.88722991639307
 21
9.937540930909051
 31
0.0
  0
LINE
  5
298
330
2
100
AcDbEntity
  8
GAIKEI
  6
Continuous
 62
     1
100
AcDbLine
 10
32.10722501639307
 20
10.68754093090905
 30
0.0
 11
31.88722991639307
 21
10.68754093090905
 31
0.0
  0
LINE
  5
299
330
2
100
AcDbEntity
  8
GAIKEI
  6
Continuous
 62
     1
100
AcDbLine
 10
36.10722501639307
 20
9.187540930909051
 30
0.0
 11
36.10722501639307
 21
9.687540930909051
 31
0.0
  0
LINE
  5
29A
330
2
100
AcDbEntity
  8
GAIKEI
  6
Continuous
 62
     1
100
AcDbLine
 10
36.10722501639307
 20
9.937540930909051
 30
0.0
 11
36.10722501639307
 21
10.43754093090905
 31
0.0
  0
LINE
  5
29B
330
2
100
AcDbEntity
  8
GAIKEI
  6
Continuous
 62
     1
100
AcDbLine
 10
36.10722501639307
 20
10.68754093090905
 30
0.0
 11
36.10722501639307
 21
11.18754093090905
 31
0.0
  0
LINE
  5
29C
330
2
100
AcDbEntity
  8
GAIKEI
  6
Continuous
 62
     1
100
AcDbLine
 10
35.60722501639308
 20
9.187540930909051
 30
0.0
 11
35.60722501639308
 21
9.687540930909051
 31
0.0
  0
LINE
  5
29D
330
2
100
AcDbEntity
  8
GAIKEI
  6
Continuous
 62
     1
100
AcDbLine
 10
35.60722501639308
 20
9.937540930909051
 30
0.0
 11
35.60722501639308
 21
10.43754093090905
 31
0.0
  0
LINE
  5
29E
330
2
100
AcDbEntity
  8
GAIKEI
  6
Continuous
 62
     1
100
AcDbLine
 10
35.60722501639308
 20
10.68754093090905
 30
0.0
 11
35.60722501639308
 21
11.18754093090905
 31
0.0
  0
LINE
  5
29F
330
2
100
AcDbEntity
  8
GAIKEI
  6
Continuous
 62
     1
100
AcDbLine
 10
35.10722501639307
 20
9.187540930909051
 30
0.0
 11
35.10722501639307
 21
9.687540930909051
 31
0.0
  0
LINE
  5
2A0
330
2
100
AcDbEntity
  8
GAIKEI
  6
Continuous
 62
     1
100
AcDbLine
 10
35.10722501639307
 20
9.937540930909051
 30
0.0
 11
35.10722501639307
 21
10.43754093090905
 31
0.0
  0
LINE
  5
2A1
330
2
100
AcDbEntity
  8
GAIKEI
  6
Continuous
 62
     1
100
AcDbLine
 10
35.10722501639307
 20
10.68754093090905
 30
0.0
 11
35.10722501639307
 21
11.18754093090905
 31
0.0
  0
LINE
  5
2A2
330
2
100
AcDbEntity
  8
GAIKEI
  6
Continuous
 62
     1
100
AcDbLine
 10
34.60722501639307
 20
9.187540930909051
 30
0.0
 11
34.60722501639307
 21
9.687540930909051
 31
0.0
  0
LINE
  5
2A3
330
2
100
AcDbEntity
  8
GAIKEI
  6
Continuous
 62
     1
100
AcDbLine
 10
34.60722501639307
 20
9.937540930909051
 30
0.0
 11
34.60722501639307
 21
10.43754093090905
 31
0.0
  0
LINE
  5
2A4
330
2
100
AcDbEntity
  8
GAIKEI
  6
Continuous
 62
     1
100
AcDbLine
 10
34.60722501639307
 20
10.68754093090905
 30
0.0
 11
34.60722501639307
 21
11.18754093090905
 31
0.0
  0
LINE
  5
2A5
330
2
100
AcDbEntity
  8
GAIKEI
  6
Continuous
 62
     1
100
AcDbLine
 10
34.10722501639308
 20
9.187540930909051
 30
0.0
 11
34.10722501639308
 21
9.687540930909051
 31
0.0
  0
LINE
  5
2A6
330
2
100
AcDbEntity
  8
GAIKEI
  6
Continuous
 62
     1
100
AcDbLine
 10
34.10722501639308
 20
9.937540930909051
 30
0.0
 11
34.10722501639308
 21
10.43754093090905
 31
0.0
  0
LINE
  5
2A7
330
2
100
AcDbEntity
  8
GAIKEI
  6
Continuous
 62
     1
100
AcDbLine
 10
34.10722501639308
 20
10.68754093090905
 30
0.0
 11
34.10722501639308
 21
11.18754093090905
 31
0.0
  0
LINE
  5
2A8
330
2
100
AcDbEntity
  8
GAIKEI
  6
Continuous
 62
     1
100
AcDbLine
 10
33.60722501639307
 20
9.187540930909051
 30
0.0
 11
33.60722501639307
 21
9.687540930909051
 31
0.0
  0
LINE
  5
2A9
330
2
100
AcDbEntity
  8
GAIKEI
  6
Continuous
 62
     1
100
AcDbLine
 10
33.60722501639307
 20
9.937540930909051
 30
0.0
 11
33.60722501639307
 21
10.43754093090905
 31
0.0
  0
LINE
  5
2AA
330
2
100
AcDbEntity
  8
GAIKEI
  6
Continuous
 62
     1
100
AcDbLine
 10
33.60722501639307
 20
10.68754093090905
 30
0.0
 11
33.60722501639307
 21
11.18754093090905
 31
0.0
  0
LINE
  5
2AB
330
2
100
AcDbEntity
  8
GAIKEI
  6
Continuous
 62
     1
100
AcDbLine
 10
33.10722501639308
 20
9.187540930909051
 30
0.0
 11
33.10722501639308
 21
9.687540930909051
 31
0.0
  0
LINE
  5
2AC
330
2
100
AcDbEntity
  8
GAIKEI
  6
Continuous
 62
     1
100
AcDbLine
 10
33.10722501639308
 20
9.937540930909051
 30
0.0
 11
33.10722501639308
 21
10.43754093090905
 31
0.0
  0
LINE
  5
2AD
330
2
100
AcDbEntity
  8
GAIKEI
  6
Continuous
 62
     1
100
AcDbLine
 10
33.10722501639308
 20
10.68754093090905
 30
0.0
 11
33.10722501639308
 21
11.18754093090905
 31
0.0
  0
LINE
  5
2AE
330
2
100
AcDbEntity
  8
GAIKEI
  6
Continuous
 62
     1
100
AcDbLine
 10
32.60722501639307
 20
9.187540930909051
 30
0.0
 11
32.60722501639307
 21
9.687540930909051
 31
0.0
  0
LINE
  5
2AF
330
2
100
AcDbEntity
  8
GAIKEI
  6
Continuous
 62
     1
100
AcDbLine
 10
32.60722501639307
 20
9.937540930909051
 30
0.0
 11
32.60722501639307
 21
10.43754093090905
 31
0.0
  0
LINE
  5
2B0
330
2
100
AcDbEntity
  8
GAIKEI
  6
Continuous
 62
     1
100
AcDbLine
 10
32.60722501639307
 20
10.68754093090905
 30
0.0
 11
32.60722501639307
 21
11.18754093090905
 31
0.0
  0
LINE
  5
2B1
330
2
100
AcDbEntity
  8
GAIKEI
  6
Continuous
 62
     1
100
AcDbLine
 10
32.10722501639307
 20
9.187540930909051
 30
0.0
 11
32.10722501639307
 21
9.687540930909051
 31
0.0
  0
LINE
  5
2B2
330
2
100
AcDbEntity
  8
GAIKEI
  6
Continuous
 62
     1
100
AcDbLine
 10
32.10722501639307
 20
9.937540930909051
 30
0.0
 11
32.10722501639307
 21
10.43754093090905
 31
0.0
  0
LINE
  5
2B3
330
2
100
AcDbEntity
  8
GAIKEI
  6
Continuous
 62
     1
100
AcDbLine
 10
32.10722501639307
 20
10.68754093090905
 30
0.0
 11
32.10722501639307
 21
11.18754093090905
 31
0.0
  0
LINE
  5
2B4
330
2
100
AcDbEntity
  8
GAIKEI
  6
Continuous
 62
     1
100
AcDbLine
 10
31.60722501639308
 20
10.68754093090905
 30
0.0
 11
31.60722501639308
 21
11.18754093090905
 31
0.0
  0
LINE
  5
2B5
330
2
100
AcDbEntity
  8
GAIKEI
  6
Continuous
 62
     1
100
AcDbLine
 10
31.60722501639308
 20
9.937540930909051
 30
0.0
 11
31.60722501639308
 21
10.43754093090905
 31
0.0
  0
LINE
  5
2B6
330
2
100
AcDbEntity
  8
GAIKEI
  6
Continuous
 62
     1
100
AcDbLine
 10
31.60722501639308
 20
9.187540930909051
 30
0.0
 11
31.60722501639308
 21
9.687540930909051
 31
0.0
  0
LINE
  5
2B7
330
2
100
AcDbEntity
  8
GAIKEI
  6
Continuous
 62
     1
100
AcDbLine
 10
31.60722501639308
 20
10.68754093090905
 30
0.0
 11
31.38722991639307
 21
10.68754093090905
 31
0.0
  0
LINE
  5
2B8
330
2
100
AcDbEntity
  8
GAIKEI
  6
Continuous
 62
     1
100
AcDbLine
 10
31.60722501639308
 20
9.937540930909051
 30
0.0
 11
31.38722991639307
 21
9.937540930909051
 31
0.0
  0
LINE
  5
2B9
330
2
100
AcDbEntity
  8
GAIKEI
  6
Continuous
 62
     1
100
AcDbLine
 10
31.60722501639308
 20
9.187540930909051
 30
0.0
 11
31.38722991639307
 21
9.187540930909051
 31
0.0
  0
LINE
  5
2BA
330
2
100
AcDbEntity
  8
GAIKEI
  6
Continuous
 62
     1
100
AcDbLine
 10
31.60722501639308
 20
11.18754093090905
 30
0.0
 11
31.38722991639307
 21
11.18754093090905
 31
0.0
  0
LINE
  5
2BB
330
2
100
AcDbEntity
  8
GAIKEI
  6
Continuous
 62
     1
100
AcDbLine
 10
31.60722501639308
 20
10.43754093090905
 30
0.0
 11
31.38722991639307
 21
10.43754093090905
 31
0.0
  0
LINE
  5
2BC
330
2
100
AcDbEntity
  8
GAIKEI
  6
Continuous
 62
     1
100
AcDbLine
 10
31.60722501639308
 20
9.687540930909051
 30
0.0
 11
31.38722991639307
 21
9.687540930909051
 31
0.0
  0
LINE
  5
2BD
330
2
100
AcDbEntity
  8
GAIKEI
  6
Continuous
 62
     1
100
AcDbLine
 10
31.38722991639307
 20
10.68754093090905
 30
0.0
 11
31.38722991639307
 21
11.18754093090905
 31
0.0
  0
LINE
  5
2BE
330
2
100
AcDbEntity
  8
GAIKEI
  6
Continuous
 62
     1
100
AcDbLine
 10
31.38722991639307
 20
9.937540930909051
 30
0.0
 11
31.38722991639307
 21
10.43754093090905
 31
0.0
  0
LINE
  5
2BF
330
2
100
AcDbEntity
  8
GAIKEI
  6
Continuous
 62
     1
100
AcDbLine
 10
31.38722991639307
 20
9.187540930909051
 30
0.0
 11
31.38722991639307
 21
9.687540930909051
 31
0.0
  0
LINE
  5
2C0
330
2
100
AcDbEntity
  8
GAIKEI
  6
Continuous
 62
     1
100
AcDbLine
 10
31.60722501639308
 20
8.187540930909051
 30
0.0
 11
31.60722501639308
 21
8.687540930909051
 31
0.0
  0
LINE
  5
2C1
330
2
100
AcDbEntity
  8
GAIKEI
  6
Continuous
 62
     1
100
AcDbLine
 10
31.60722501639308
 20
7.437540930909051
 30
0.0
 11
31.60722501639308
 21
7.937540930909051
 31
0.0
  0
LINE
  5
2C2
330
2
100
AcDbEntity
  8
GAIKEI
  6
Continuous
 62
     1
100
AcDbLine
 10
31.60722501639308
 20
6.687540930909051
 30
0.0
 11
31.60722501639308
 21
7.187540930909051
 31
0.0
  0
LINE
  5
2C3
330
2
100
AcDbEntity
  8
GAIKEI
  6
Continuous
 62
     1
100
AcDbLine
 10
31.60722501639308
 20
8.187540930909051
 30
0.0
 11
31.38722991639307
 21
8.187540930909051
 31
0.0
  0
LINE
  5
2C4
330
2
100
AcDbEntity
  8
GAIKEI
  6
Continuous
 62
     1
100
AcDbLine
 10
31.60722501639308
 20
7.437540930909051
 30
0.0
 11
31.38722991639307
 21
7.437540930909051
 31
0.0
  0
LINE
  5
2C5
330
2
100
AcDbEntity
  8
GAIKEI
  6
Continuous
 62
     1
100
AcDbLine
 10
31.60722501639308
 20
6.687540930909051
 30
0.0
 11
31.38722991639307
 21
6.687540930909051
 31
0.0
  0
LINE
  5
2C6
330
2
100
AcDbEntity
  8
GAIKEI
  6
Continuous
 62
     1
100
AcDbLine
 10
31.60722501639308
 20
8.687540930909051
 30
0.0
 11
31.38722991639307
 21
8.687540930909051
 31
0.0
  0
LINE
  5
2C7
330
2
100
AcDbEntity
  8
GAIKEI
  6
Continuous
 62
     1
100
AcDbLine
 10
31.60722501639308
 20
7.937540930909051
 30
0.0
 11
31.38722991639307
 21
7.937540930909051
 31
0.0
  0
LINE
  5
2C8
330
2
100
AcDbEntity
  8
GAIKEI
  6
Continuous
 62
     1
100
AcDbLine
 10
31.60722501639308
 20
7.187540930909051
 30
0.0
 11
31.38722991639307
 21
7.187540930909051
 31
0.0
  0
LINE
  5
2C9
330
2
100
AcDbEntity
  8
GAIKEI
  6
Continuous
 62
     1
100
AcDbLine
 10
31.38722991639307
 20
8.187540930909051
 30
0.0
 11
31.38722991639307
 21
8.687540930909051
 31
0.0
  0
LINE
  5
2CA
330
2
100
AcDbEntity
  8
GAIKEI
  6
Continuous
 62
     1
100
AcDbLine
 10
31.38722991639307
 20
7.437540930909051
 30
0.0
 11
31.38722991639307
 21
7.937540930909051
 31
0.0
  0
LINE
  5
2CB
330
2
100
AcDbEntity
  8
GAIKEI
  6
Continuous
 62
     1
100
AcDbLine
 10
31.38722991639307
 20
6.687540930909051
 30
0.0
 11
31.38722991639307
 21
7.187540930909051
 31
0.0
  0
LINE
  5
2CC
330
2
100
AcDbEntity
  8
GAIKEI
  6
Continuous
 62
     1
100
AcDbLine
 10
30.88722991639307
 20
6.687540930909051
 30
0.0
 11
30.88722991639307
 21
7.187540930909051
 31
0.0
  0
LINE
  5
2CD
330
2
100
AcDbEntity
  8
GAIKEI
  6
Continuous
 62
     1
100
AcDbLine
 10
30.88722991639307
 20
7.437540930909051
 30
0.0
 11
30.88722991639307
 21
7.937540930909051
 31
0.0
  0
LINE
  5
2CE
330
2
100
AcDbEntity
  8
GAIKEI
  6
Continuous
 62
     1
100
AcDbLine
 10
30.88722991639307
 20
8.187540930909051
 30
0.0
 11
30.88722991639307
 21
8.687540930909051
 31
0.0
  0
LINE
  5
2CF
330
2
100
AcDbEntity
  8
GAIKEI
  6
Continuous
 62
     1
100
AcDbLine
 10
31.10722501639307
 20
7.187540930909051
 30
0.0
 11
30.88722991639307
 21
7.187540930909051
 31
0.0
  0
LINE
  5
2D0
330
2
100
AcDbEntity
  8
GAIKEI
  6
Continuous
 62
     1
100
AcDbLine
 10
31.10722501639307
 20
7.937540930909051
 30
0.0
 11
30.88722991639307
 21
7.937540930909051
 31
0.0
  0
LINE
  5
2D1
330
2
100
AcDbEntity
  8
GAIKEI
  6
Continuous
 62
     1
100
AcDbLine
 10
31.10722501639307
 20
8.687540930909051
 30
0.0
 11
30.88722991639307
 21
8.687540930909051
 31
0.0
  0
LINE
  5
2D2
330
2
100
AcDbEntity
  8
GAIKEI
  6
Continuous
 62
     1
100
AcDbLine
 10
31.10722501639307
 20
6.687540930909051
 30
0.0
 11
30.88722991639307
 21
6.687540930909051
 31
0.0
  0
LINE
  5
2D3
330
2
100
AcDbEntity
  8
GAIKEI
  6
Continuous
 62
     1
100
AcDbLine
 10
31.10722501639307
 20
7.437540930909051
 30
0.0
 11
30.88722991639307
 21
7.437540930909051
 31
0.0
  0
LINE
  5
2D4
330
2
100
AcDbEntity
  8
GAIKEI
  6
Continuous
 62
     1
100
AcDbLine
 10
31.10722501639307
 20
8.187540930909051
 30
0.0
 11
30.88722991639307
 21
8.187540930909051
 31
0.0
  0
LINE
  5
2D5
330
2
100
AcDbEntity
  8
GAIKEI
  6
Continuous
 62
     1
100
AcDbLine
 10
31.10722501639307
 20
6.687540930909051
 30
0.0
 11
31.10722501639307
 21
7.187540930909051
 31
0.0
  0
LINE
  5
2D6
330
2
100
AcDbEntity
  8
GAIKEI
  6
Continuous
 62
     1
100
AcDbLine
 10
31.10722501639307
 20
7.437540930909051
 30
0.0
 11
31.10722501639307
 21
7.937540930909051
 31
0.0
  0
LINE
  5
2D7
330
2
100
AcDbEntity
  8
GAIKEI
  6
Continuous
 62
     1
100
AcDbLine
 10
31.10722501639307
 20
8.187540930909051
 30
0.0
 11
31.10722501639307
 21
8.687540930909051
 31
0.0
  0
LINE
  5
2D8
330
2
100
AcDbEntity
  8
GAIKEI
  6
Continuous
 62
     1
100
AcDbLine
 10
30.88722991639307
 20
9.187540930909051
 30
0.0
 11
30.88722991639307
 21
9.687540930909051
 31
0.0
  0
LINE
  5
2D9
330
2
100
AcDbEntity
  8
GAIKEI
  6
Continuous
 62
     1
100
AcDbLine
 10
30.88722991639307
 20
9.937540930909051
 30
0.0
 11
30.88722991639307
 21
10.43754093090905
 31
0.0
  0
LINE
  5
2DA
330
2
100
AcDbEntity
  8
GAIKEI
  6
Continuous
 62
     1
100
AcDbLine
 10
30.88722991639307
 20
10.68754093090905
 30
0.0
 11
30.88722991639307
 21
11.18754093090905
 31
0.0
  0
LINE
  5
2DB
330
2
100
AcDbEntity
  8
GAIKEI
  6
Continuous
 62
     1
100
AcDbLine
 10
31.10722501639307
 20
9.687540930909051
 30
0.0
 11
30.88722991639307
 21
9.687540930909051
 31
0.0
  0
LINE
  5
2DC
330
2
100
AcDbEntity
  8
GAIKEI
  6
Continuous
 62
     1
100
AcDbLine
 10
31.10722501639307
 20
10.43754093090905
 30
0.0
 11
30.88722991639307
 21
10.43754093090905
 31
0.0
  0
LINE
  5
2DD
330
2
100
AcDbEntity
  8
GAIKEI
  6
Continuous
 62
     1
100
AcDbLine
 10
31.10722501639307
 20
11.18754093090905
 30
0.0
 11
30.88722991639307
 21
11.18754093090905
 31
0.0
  0
LINE
  5
2DE
330
2
100
AcDbEntity
  8
GAIKEI
  6
Continuous
 62
     1
100
AcDbLine
 10
31.10722501639307
 20
9.187540930909051
 30
0.0
 11
30.88722991639307
 21
9.187540930909051
 31
0.0
  0
LINE
  5
2DF
330
2
100
AcDbEntity
  8
GAIKEI
  6
Continuous
 62
     1
100
AcDbLine
 10
31.10722501639307
 20
9.937540930909051
 30
0.0
 11
30.88722991639307
 21
9.937540930909051
 31
0.0
  0
LINE
  5
2E0
330
2
100
AcDbEntity
  8
GAIKEI
  6
Continuous
 62
     1
100
AcDbLine
 10
31.10722501639307
 20
10.68754093090905
 30
0.0
 11
30.88722991639307
 21
10.68754093090905
 31
0.0
  0
LINE
  5
2E1
330
2
100
AcDbEntity
  8
GAIKEI
  6
Continuous
 62
     1
100
AcDbLine
 10
31.10722501639307
 20
9.187540930909051
 30
0.0
 11
31.10722501639307
 21
9.687540930909051
 31
0.0
  0
LINE
  5
2E2
330
2
100
AcDbEntity
  8
GAIKEI
  6
Continuous
 62
     1
100
AcDbLine
 10
31.10722501639307
 20
9.937540930909051
 30
0.0
 11
31.10722501639307
 21
10.43754093090905
 31
0.0
  0
LINE
  5
2E3
330
2
100
AcDbEntity
  8
GAIKEI
  6
Continuous
 62
     1
100
AcDbLine
 10
31.10722501639307
 20
10.68754093090905
 30
0.0
 11
31.10722501639307
 21
11.18754093090905
 31
0.0
  0
LINE
  5
2E4
330
2
100
AcDbEntity
  8
GAIKEI
  6
Continuous
 62
     1
100
AcDbLine
 10
30.60722501639308
 20
10.68754093090905
 30
0.0
 11
30.60722501639308
 21
11.18754093090905
 31
0.0
  0
LINE
  5
2E5
330
2
100
AcDbEntity
  8
GAIKEI
  6
Continuous
 62
     1
100
AcDbLine
 10
30.60722501639308
 20
9.937540930909051
 30
0.0
 11
30.60722501639308
 21
10.43754093090905
 31
0.0
  0
LINE
  5
2E6
330
2
100
AcDbEntity
  8
GAIKEI
  6
Continuous
 62
     1
100
AcDbLine
 10
30.60722501639308
 20
9.187540930909051
 30
0.0
 11
30.60722501639308
 21
9.687540930909051
 31
0.0
  0
LINE
  5
2E7
330
2
100
AcDbEntity
  8
GAIKEI
  6
Continuous
 62
     1
100
AcDbLine
 10
30.60722501639308
 20
10.68754093090905
 30
0.0
 11
30.38722991639307
 21
10.68754093090905
 31
0.0
  0
LINE
  5
2E8
330
2
100
AcDbEntity
  8
GAIKEI
  6
Continuous
 62
     1
100
AcDbLine
 10
30.60722501639308
 20
9.937540930909051
 30
0.0
 11
30.38722991639307
 21
9.937540930909051
 31
0.0
  0
LINE
  5
2E9
330
2
100
AcDbEntity
  8
GAIKEI
  6
Continuous
 62
     1
100
AcDbLine
 10
30.60722501639308
 20
9.187540930909051
 30
0.0
 11
30.38722991639307
 21
9.187540930909051
 31
0.0
  0
LINE
  5
2EA
330
2
100
AcDbEntity
  8
GAIKEI
  6
Continuous
 62
     1
100
AcDbLine
 10
30.60722501639308
 20
11.18754093090905
 30
0.0
 11
30.38722991639307
 21
11.18754093090905
 31
0.0
  0
LINE
  5
2EB
330
2
100
AcDbEntity
  8
GAIKEI
  6
Continuous
 62
     1
100
AcDbLine
 10
30.60722501639308
 20
10.43754093090905
 30
0.0
 11
30.38722991639307
 21
10.43754093090905
 31
0.0
  0
LINE
  5
2EC
330
2
100
AcDbEntity
  8
GAIKEI
  6
Continuous
 62
     1
100
AcDbLine
 10
30.60722501639308
 20
9.687540930909051
 30
0.0
 11
30.38722991639307
 21
9.687540930909051
 31
0.0
  0
LINE
  5
2ED
330
2
100
AcDbEntity
  8
GAIKEI
  6
Continuous
 62
     1
100
AcDbLine
 10
30.38722991639307
 20
10.68754093090905
 30
0.0
 11
30.38722991639307
 21
11.18754093090905
 31
0.0
  0
LINE
  5
2EE
330
2
100
AcDbEntity
  8
GAIKEI
  6
Continuous
 62
     1
100
AcDbLine
 10
30.38722991639307
 20
9.937540930909051
 30
0.0
 11
30.38722991639307
 21
10.43754093090905
 31
0.0
  0
LINE
  5
2EF
330
2
100
AcDbEntity
  8
GAIKEI
  6
Continuous
 62
     1
100
AcDbLine
 10
30.38722991639307
 20
9.187540930909051
 30
0.0
 11
30.38722991639307
 21
9.687540930909051
 31
0.0
  0
LINE
  5
2F0
330
2
100
AcDbEntity
  8
GAIKEI
  6
Continuous
 62
     1
100
AcDbLine
 10
30.60722501639308
 20
8.187540930909051
 30
0.0
 11
30.60722501639308
 21
8.687540930909051
 31
0.0
  0
LINE
  5
2F1
330
2
100
AcDbEntity
  8
GAIKEI
  6
Continuous
 62
     1
100
AcDbLine
 10
30.60722501639308
 20
7.437540930909051
 30
0.0
 11
30.60722501639308
 21
7.937540930909051
 31
0.0
  0
LINE
  5
2F2
330
2
100
AcDbEntity
  8
GAIKEI
  6
Continuous
 62
     1
100
AcDbLine
 10
30.60722501639308
 20
6.687540930909051
 30
0.0
 11
30.60722501639308
 21
7.187540930909051
 31
0.0
  0
LINE
  5
2F3
330
2
100
AcDbEntity
  8
GAIKEI
  6
Continuous
 62
     1
100
AcDbLine
 10
30.60722501639308
 20
8.187540930909051
 30
0.0
 11
30.38722991639307
 21
8.187540930909051
 31
0.0
  0
LINE
  5
2F4
330
2
100
AcDbEntity
  8
GAIKEI
  6
Continuous
 62
     1
100
AcDbLine
 10
30.60722501639308
 20
7.437540930909051
 30
0.0
 11
30.38722991639307
 21
7.437540930909051
 31
0.0
  0
LINE
  5
2F5
330
2
100
AcDbEntity
  8
GAIKEI
  6
Continuous
 62
     1
100
AcDbLine
 10
30.60722501639308
 20
6.687540930909051
 30
0.0
 11
30.38722991639307
 21
6.687540930909051
 31
0.0
  0
LINE
  5
2F6
330
2
100
AcDbEntity
  8
GAIKEI
  6
Continuous
 62
     1
100
AcDbLine
 10
30.60722501639308
 20
8.687540930909051
 30
0.0
 11
30.38722991639307
 21
8.687540930909051
 31
0.0
  0
LINE
  5
2F7
330
2
100
AcDbEntity
  8
GAIKEI
  6
Continuous
 62
     1
100
AcDbLine
 10
30.60722501639308
 20
7.937540930909051
 30
0.0
 11
30.38722991639307
 21
7.937540930909051
 31
0.0
  0
LINE
  5
2F8
330
2
100
AcDbEntity
  8
GAIKEI
  6
Continuous
 62
     1
100
AcDbLine
 10
30.60722501639308
 20
7.187540930909051
 30
0.0
 11
30.38722991639307
 21
7.187540930909051
 31
0.0
  0
LINE
  5
2F9
330
2
100
AcDbEntity
  8
GAIKEI
  6
Continuous
 62
     1
100
AcDbLine
 10
30.38722991639307
 20
8.187540930909051
 30
0.0
 11
30.38722991639307
 21
8.687540930909051
 31
0.0
  0
LINE
  5
2FA
330
2
100
AcDbEntity
  8
GAIKEI
  6
Continuous
 62
     1
100
AcDbLine
 10
30.38722991639307
 20
7.437540930909051
 30
0.0
 11
30.38722991639307
 21
7.937540930909051
 31
0.0
  0
LINE
  5
2FB
330
2
100
AcDbEntity
  8
GAIKEI
  6
Continuous
 62
     1
100
AcDbLine
 10
30.38722991639307
 20
6.687540930909051
 30
0.0
 11
30.38722991639307
 21
7.187540930909051
 31
0.0
  0
LINE
  5
2FC
330
2
100
AcDbEntity
  8
GAIKEI
  6
Continuous
 62
     1
100
AcDbLine
 10
29.88722991639307
 20
6.687540930909051
 30
0.0
 11
29.88722991639307
 21
7.187540930909051
 31
0.0
  0
LINE
  5
2FD
330
2
100
AcDbEntity
  8
GAIKEI
  6
Continuous
 62
     1
100
AcDbLine
 10
29.88722991639307
 20
7.437540930909051
 30
0.0
 11
29.88722991639307
 21
7.937540930909051
 31
0.0
  0
LINE
  5
2FE
330
2
100
AcDbEntity
  8
GAIKEI
  6
Continuous
 62
     1
100
AcDbLine
 10
29.88722991639307
 20
8.187540930909051
 30
0.0
 11
29.88722991639307
 21
8.687540930909051
 31
0.0
  0
LINE
  5
2FF
330
2
100
AcDbEntity
  8
GAIKEI
  6
Continuous
 62
     1
100
AcDbLine
 10
30.10722501639307
 20
7.187540930909051
 30
0.0
 11
29.88722991639307
 21
7.187540930909051
 31
0.0
  0
LINE
  5
300
330
2
100
AcDbEntity
  8
GAIKEI
  6
Continuous
 62
     1
100
AcDbLine
 10
30.10722501639307
 20
7.937540930909051
 30
0.0
 11
29.88722991639307
 21
7.937540930909051
 31
0.0
  0
LINE
  5
301
330
2
100
AcDbEntity
  8
GAIKEI
  6
Continuous
 62
     1
100
AcDbLine
 10
30.10722501639307
 20
8.687540930909051
 30
0.0
 11
29.88722991639307
 21
8.687540930909051
 31
0.0
  0
LINE
  5
302
330
2
100
AcDbEntity
  8
GAIKEI
  6
Continuous
 62
     1
100
AcDbLine
 10
30.10722501639307
 20
6.687540930909051
 30
0.0
 11
29.88722991639307
 21
6.687540930909051
 31
0.0
  0
LINE
  5
303
330
2
100
AcDbEntity
  8
GAIKEI
  6
Continuous
 62
     1
100
AcDbLine
 10
30.10722501639307
 20
7.437540930909051
 30
0.0
 11
29.88722991639307
 21
7.437540930909051
 31
0.0
  0
LINE
  5
304
330
2
100
AcDbEntity
  8
GAIKEI
  6
Continuous
 62
     1
100
AcDbLine
 10
30.10722501639307
 20
8.187540930909051
 30
0.0
 11
29.88722991639307
 21
8.187540930909051
 31
0.0
  0
LINE
  5
305
330
2
100
AcDbEntity
  8
GAIKEI
  6
Continuous
 62
     1
100
AcDbLine
 10
30.10722501639307
 20
6.687540930909051
 30
0.0
 11
30.10722501639307
 21
7.187540930909051
 31
0.0
  0
LINE
  5
306
330
2
100
AcDbEntity
  8
GAIKEI
  6
Continuous
 62
     1
100
AcDbLine
 10
30.10722501639307
 20
7.437540930909051
 30
0.0
 11
30.10722501639307
 21
7.937540930909051
 31
0.0
  0
LINE
  5
307
330
2
100
AcDbEntity
  8
GAIKEI
  6
Continuous
 62
     1
100
AcDbLine
 10
30.10722501639307
 20
8.187540930909051
 30
0.0
 11
30.10722501639307
 21
8.687540930909051
 31
0.0
  0
LINE
  5
308
330
2
100
AcDbEntity
  8
GAIKEI
  6
Continuous
 62
     1
100
AcDbLine
 10
29.88722991639307
 20
9.187540930909051
 30
0.0
 11
29.88722991639307
 21
9.687540930909051
 31
0.0
  0
LINE
  5
309
330
2
100
AcDbEntity
  8
GAIKEI
  6
Continuous
 62
     1
100
AcDbLine
 10
29.88722991639307
 20
9.937540930909051
 30
0.0
 11
29.88722991639307
 21
10.43754093090905
 31
0.0
  0
LINE
  5
30A
330
2
100
AcDbEntity
  8
GAIKEI
  6
Continuous
 62
     1
100
AcDbLine
 10
29.88722991639307
 20
10.68754093090905
 30
0.0
 11
29.88722991639307
 21
11.18754093090905
 31
0.0
  0
LINE
  5
30B
330
2
100
AcDbEntity
  8
GAIKEI
  6
Continuous
 62
     1
100
AcDbLine
 10
30.10722501639307
 20
9.687540930909051
 30
0.0
 11
29.88722991639307
 21
9.687540930909051
 31
0.0
  0
LINE
  5
30C
330
2
100
AcDbEntity
  8
GAIKEI
  6
Continuous
 62
     1
100
AcDbLine
 10
30.10722501639307
 20
10.43754093090905
 30
0.0
 11
29.88722991639307
 21
10.43754093090905
 31
0.0
  0
LINE
  5
30D
330
2
100
AcDbEntity
  8
GAIKEI
  6
Continuous
 62
     1
100
AcDbLine
 10
30.10722501639307
 20
11.18754093090905
 30
0.0
 11
29.88722991639307
 21
11.18754093090905
 31
0.0
  0
LINE
  5
30E
330
2
100
AcDbEntity
  8
GAIKEI
  6
Continuous
 62
     1
100
AcDbLine
 10
30.10722501639307
 20
9.187540930909051
 30
0.0
 11
29.88722991639307
 21
9.187540930909051
 31
0.0
  0
LINE
  5
30F
330
2
100
AcDbEntity
  8
GAIKEI
  6
Continuous
 62
     1
100
AcDbLine
 10
30.10722501639307
 20
9.937540930909051
 30
0.0
 11
29.88722991639307
 21
9.937540930909051
 31
0.0
  0
LINE
  5
310
330
2
100
AcDbEntity
  8
GAIKEI
  6
Continuous
 62
     1
100
AcDbLine
 10
30.10722501639307
 20
10.68754093090905
 30
0.0
 11
29.88722991639307
 21
10.68754093090905
 31
0.0
  0
LINE
  5
311
330
2
100
AcDbEntity
  8
GAIKEI
  6
Continuous
 62
     1
100
AcDbLine
 10
30.10722501639307
 20
9.187540930909051
 30
0.0
 11
30.10722501639307
 21
9.687540930909051
 31
0.0
  0
LINE
  5
312
330
2
100
AcDbEntity
  8
GAIKEI
  6
Continuous
 62
     1
100
AcDbLine
 10
30.10722501639307
 20
9.937540930909051
 30
0.0
 11
30.10722501639307
 21
10.43754093090905
 31
0.0
  0
LINE
  5
313
330
2
100
AcDbEntity
  8
GAIKEI
  6
Continuous
 62
     1
100
AcDbLine
 10
30.10722501639307
 20
10.68754093090905
 30
0.0
 11
30.10722501639307
 21
11.18754093090905
 31
0.0
  0
LINE
  5
314
330
2
100
AcDbEntity
  8
GAIKEI
  6
Continuous
 62
     1
100
AcDbLine
 10
29.60722501639308
 20
10.68754093090905
 30
0.0
 11
29.60722501639308
 21
11.18754093090905
 31
0.0
  0
LINE
  5
315
330
2
100
AcDbEntity
  8
GAIKEI
  6
Continuous
 62
     1
100
AcDbLine
 10
29.60722501639308
 20
9.937540930909051
 30
0.0
 11
29.60722501639308
 21
10.43754093090905
 31
0.0
  0
LINE
  5
316
330
2
100
AcDbEntity
  8
GAIKEI
  6
Continuous
 62
     1
100
AcDbLine
 10
29.60722501639308
 20
9.187540930909051
 30
0.0
 11
29.60722501639308
 21
9.687540930909051
 31
0.0
  0
LINE
  5
317
330
2
100
AcDbEntity
  8
GAIKEI
  6
Continuous
 62
     1
100
AcDbLine
 10
29.60722501639308
 20
10.68754093090905
 30
0.0
 11
29.38722991639307
 21
10.68754093090905
 31
0.0
  0
LINE
  5
318
330
2
100
AcDbEntity
  8
GAIKEI
  6
Continuous
 62
     1
100
AcDbLine
 10
29.60722501639308
 20
9.937540930909051
 30
0.0
 11
29.38722991639307
 21
9.937540930909051
 31
0.0
  0
LINE
  5
319
330
2
100
AcDbEntity
  8
GAIKEI
  6
Continuous
 62
     1
100
AcDbLine
 10
29.60722501639308
 20
9.187540930909051
 30
0.0
 11
29.38722991639307
 21
9.187540930909051
 31
0.0
  0
LINE
  5
31A
330
2
100
AcDbEntity
  8
GAIKEI
  6
Continuous
 62
     1
100
AcDbLine
 10
29.60722501639308
 20
11.18754093090905
 30
0.0
 11
29.38722991639307
 21
11.18754093090905
 31
0.0
  0
LINE
  5
31B
330
2
100
AcDbEntity
  8
GAIKEI
  6
Continuous
 62
     1
100
AcDbLine
 10
29.60722501639308
 20
10.43754093090905
 30
0.0
 11
29.38722991639307
 21
10.43754093090905
 31
0.0
  0
LINE
  5
31C
330
2
100
AcDbEntity
  8
GAIKEI
  6
Continuous
 62
     1
100
AcDbLine
 10
29.60722501639308
 20
9.687540930909051
 30
0.0
 11
29.38722991639307
 21
9.687540930909051
 31
0.0
  0
LINE
  5
31D
330
2
100
AcDbEntity
  8
GAIKEI
  6
Continuous
 62
     1
100
AcDbLine
 10
29.38722991639307
 20
10.68754093090905
 30
0.0
 11
29.38722991639307
 21
11.18754093090905
 31
0.0
  0
LINE
  5
31E
330
2
100
AcDbEntity
  8
GAIKEI
  6
Continuous
 62
     1
100
AcDbLine
 10
29.38722991639307
 20
9.937540930909051
 30
0.0
 11
29.38722991639307
 21
10.43754093090905
 31
0.0
  0
LINE
  5
31F
330
2
100
AcDbEntity
  8
GAIKEI
  6
Continuous
 62
     1
100
AcDbLine
 10
29.38722991639307
 20
9.187540930909051
 30
0.0
 11
29.38722991639307
 21
9.687540930909051
 31
0.0
  0
LINE
  5
320
330
2
100
AcDbEntity
  8
GAIKEI
  6
Continuous
 62
     1
100
AcDbLine
 10
29.60722501639308
 20
8.187540930909051
 30
0.0
 11
29.60722501639308
 21
8.687540930909051
 31
0.0
  0
LINE
  5
321
330
2
100
AcDbEntity
  8
GAIKEI
  6
Continuous
 62
     1
100
AcDbLine
 10
29.60722501639308
 20
7.437540930909051
 30
0.0
 11
29.60722501639308
 21
7.937540930909051
 31
0.0
  0
LINE
  5
322
330
2
100
AcDbEntity
  8
GAIKEI
  6
Continuous
 62
     1
100
AcDbLine
 10
29.60722501639308
 20
6.687540930909051
 30
0.0
 11
29.60722501639308
 21
7.187540930909051
 31
0.0
  0
LINE
  5
323
330
2
100
AcDbEntity
  8
GAIKEI
  6
Continuous
 62
     1
100
AcDbLine
 10
29.60722501639308
 20
8.187540930909051
 30
0.0
 11
29.38722991639307
 21
8.187540930909051
 31
0.0
  0
LINE
  5
324
330
2
100
AcDbEntity
  8
GAIKEI
  6
Continuous
 62
     1
100
AcDbLine
 10
29.60722501639308
 20
7.437540930909051
 30
0.0
 11
29.38722991639307
 21
7.437540930909051
 31
0.0
  0
LINE
  5
325
330
2
100
AcDbEntity
  8
GAIKEI
  6
Continuous
 62
     1
100
AcDbLine
 10
29.60722501639308
 20
6.687540930909051
 30
0.0
 11
29.38722991639307
 21
6.687540930909051
 31
0.0
  0
LINE
  5
326
330
2
100
AcDbEntity
  8
GAIKEI
  6
Continuous
 62
     1
100
AcDbLine
 10
29.60722501639308
 20
8.687540930909051
 30
0.0
 11
29.38722991639307
 21
8.687540930909051
 31
0.0
  0
LINE
  5
327
330
2
100
AcDbEntity
  8
GAIKEI
  6
Continuous
 62
     1
100
AcDbLine
 10
29.60722501639308
 20
7.937540930909051
 30
0.0
 11
29.38722991639307
 21
7.937540930909051
 31
0.0
  0
LINE
  5
328
330
2
100
AcDbEntity
  8
GAIKEI
  6
Continuous
 62
     1
100
AcDbLine
 10
29.60722501639308
 20
7.187540930909051
 30
0.0
 11
29.38722991639307
 21
7.187540930909051
 31
0.0
  0
LINE
  5
329
330
2
100
AcDbEntity
  8
GAIKEI
  6
Continuous
 62
     1
100
AcDbLine
 10
29.38722991639307
 20
8.187540930909051
 30
0.0
 11
29.38722991639307
 21
8.687540930909051
 31
0.0
  0
LINE
  5
32A
330
2
100
AcDbEntity
  8
GAIKEI
  6
Continuous
 62
     1
100
AcDbLine
 10
29.38722991639307
 20
7.437540930909051
 30
0.0
 11
29.38722991639307
 21
7.937540930909051
 31
0.0
  0
LINE
  5
32B
330
2
100
AcDbEntity
  8
GAIKEI
  6
Continuous
 62
     1
100
AcDbLine
 10
29.38722991639307
 20
6.687540930909051
 30
0.0
 11
29.38722991639307
 21
7.187540930909051
 31
0.0
  0
LINE
  5
32C
330
2
100
AcDbEntity
  8
GAIKEI
  6
Continuous
 62
     1
100
AcDbLine
 10
28.88722991639307
 20
6.687540930909051
 30
0.0
 11
28.88722991639307
 21
7.187540930909051
 31
0.0
  0
LINE
  5
32D
330
2
100
AcDbEntity
  8
GAIKEI
  6
Continuous
 62
     1
100
AcDbLine
 10
28.88722991639307
 20
7.437540930909051
 30
0.0
 11
28.88722991639307
 21
7.937540930909051
 31
0.0
  0
LINE
  5
32E
330
2
100
AcDbEntity
  8
GAIKEI
  6
Continuous
 62
     1
100
AcDbLine
 10
28.88722991639307
 20
8.187540930909051
 30
0.0
 11
28.88722991639307
 21
8.687540930909051
 31
0.0
  0
LINE
  5
32F
330
2
100
AcDbEntity
  8
GAIKEI
  6
Continuous
 62
     1
100
AcDbLine
 10
29.10722501639308
 20
7.187540930909051
 30
0.0
 11
28.88722991639307
 21
7.187540930909051
 31
0.0
  0
LINE
  5
330
330
2
100
AcDbEntity
  8
GAIKEI
  6
Continuous
 62
     1
100
AcDbLine
 10
29.10722501639308
 20
7.937540930909051
 30
0.0
 11
28.88722991639307
 21
7.937540930909051
 31
0.0
  0
LINE
  5
331
330
2
100
AcDbEntity
  8
GAIKEI
  6
Continuous
 62
     1
100
AcDbLine
 10
29.10722501639308
 20
8.687540930909051
 30
0.0
 11
28.88722991639307
 21
8.687540930909051
 31
0.0
  0
LINE
  5
332
330
2
100
AcDbEntity
  8
GAIKEI
  6
Continuous
 62
     1
100
AcDbLine
 10
29.10722501639308
 20
6.687540930909051
 30
0.0
 11
28.88722991639307
 21
6.687540930909051
 31
0.0
  0
LINE
  5
333
330
2
100
AcDbEntity
  8
GAIKEI
  6
Continuous
 62
     1
100
AcDbLine
 10
29.10722501639308
 20
7.437540930909051
 30
0.0
 11
28.88722991639307
 21
7.437540930909051
 31
0.0
  0
LINE
  5
334
330
2
100
AcDbEntity
  8
GAIKEI
  6
Continuous
 62
     1
100
AcDbLine
 10
29.10722501639308
 20
8.187540930909051
 30
0.0
 11
28.88722991639307
 21
8.187540930909051
 31
0.0
  0
LINE
  5
335
330
2
100
AcDbEntity
  8
GAIKEI
  6
Continuous
 62
     1
100
AcDbLine
 10
29.10722501639308
 20
6.687540930909051
 30
0.0
 11
29.10722501639308
 21
7.187540930909051
 31
0.0
  0
LINE
  5
336
330
2
100
AcDbEntity
  8
GAIKEI
  6
Continuous
 62
     1
100
AcDbLine
 10
29.10722501639308
 20
7.437540930909051
 30
0.0
 11
29.10722501639308
 21
7.937540930909051
 31
0.0
  0
LINE
  5
337
330
2
100
AcDbEntity
  8
GAIKEI
  6
Continuous
 62
     1
100
AcDbLine
 10
29.10722501639308
 20
8.187540930909051
 30
0.0
 11
29.10722501639308
 21
8.687540930909051
 31
0.0
  0
LINE
  5
338
330
2
100
AcDbEntity
  8
GAIKEI
  6
Continuous
 62
     1
100
AcDbLine
 10
28.88722991639307
 20
9.187540930909051
 30
0.0
 11
28.88722991639307
 21
9.687540930909051
 31
0.0
  0
LINE
  5
339
330
2
100
AcDbEntity
  8
GAIKEI
  6
Continuous
 62
     1
100
AcDbLine
 10
28.88722991639307
 20
9.937540930909051
 30
0.0
 11
28.88722991639307
 21
10.43754093090905
 31
0.0
  0
LINE
  5
33A
330
2
100
AcDbEntity
  8
GAIKEI
  6
Continuous
 62
     1
100
AcDbLine
 10
28.88722991639307
 20
10.68754093090905
 30
0.0
 11
28.88722991639307
 21
11.18754093090905
 31
0.0
  0
LINE
  5
33B
330
2
100
AcDbEntity
  8
GAIKEI
  6
Continuous
 62
     1
100
AcDbLine
 10
29.10722501639308
 20
9.687540930909051
 30
0.0
 11
28.88722991639307
 21
9.687540930909051
 31
0.0
  0
LINE
  5
33C
330
2
100
AcDbEntity
  8
GAIKEI
  6
Continuous
 62
     1
100
AcDbLine
 10
29.10722501639308
 20
10.43754093090905
 30
0.0
 11
28.88722991639307
 21
10.43754093090905
 31
0.0
  0
LINE
  5
33D
330
2
100
AcDbEntity
  8
GAIKEI
  6
Continuous
 62
     1
100
AcDbLine
 10
29.10722501639308
 20
11.18754093090905
 30
0.0
 11
28.88722991639307
 21
11.18754093090905
 31
0.0
  0
LINE
  5
33E
330
2
100
AcDbEntity
  8
GAIKEI
  6
Continuous
 62
     1
100
AcDbLine
 10
29.10722501639308
 20
9.187540930909051
 30
0.0
 11
28.88722991639307
 21
9.187540930909051
 31
0.0
  0
LINE
  5
33F
330
2
100
AcDbEntity
  8
GAIKEI
  6
Continuous
 62
     1
100
AcDbLine
 10
29.10722501639308
 20
9.937540930909051
 30
0.0
 11
28.88722991639307
 21
9.937540930909051
 31
0.0
  0
LINE
  5
340
330
2
100
AcDbEntity
  8
GAIKEI
  6
Continuous
 62
     1
100
AcDbLine
 10
29.10722501639308
 20
10.68754093090905
 30
0.0
 11
28.88722991639307
 21
10.68754093090905
 31
0.0
  0
LINE
  5
341
330
2
100
AcDbEntity
  8
GAIKEI
  6
Continuous
 62
     1
100
AcDbLine
 10
29.10722501639308
 20
9.187540930909051
 30
0.0
 11
29.10722501639308
 21
9.687540930909051
 31
0.0
  0
LINE
  5
342
330
2
100
AcDbEntity
  8
GAIKEI
  6
Continuous
 62
     1
100
AcDbLine
 10
29.10722501639308
 20
9.937540930909051
 30
0.0
 11
29.10722501639308
 21
10.43754093090905
 31
0.0
  0
LINE
  5
343
330
2
100
AcDbEntity
  8
GAIKEI
  6
Continuous
 62
     1
100
AcDbLine
 10
29.10722501639308
 20
10.68754093090905
 30
0.0
 11
29.10722501639308
 21
11.18754093090905
 31
0.0
  0
LINE
  5
344
330
2
100
AcDbEntity
  8
GAIKEI
  6
Continuous
 62
     1
100
AcDbLine
 10
28.60722501639307
 20
10.68754093090905
 30
0.0
 11
28.60722501639307
 21
11.18754093090905
 31
0.0
  0
LINE
  5
345
330
2
100
AcDbEntity
  8
GAIKEI
  6
Continuous
 62
     1
100
AcDbLine
 10
28.60722501639307
 20
9.937540930909051
 30
0.0
 11
28.60722501639307
 21
10.43754093090905
 31
0.0
  0
LINE
  5
346
330
2
100
AcDbEntity
  8
GAIKEI
  6
Continuous
 62
     1
100
AcDbLine
 10
28.60722501639307
 20
9.187540930909051
 30
0.0
 11
28.60722501639307
 21
9.687540930909051
 31
0.0
  0
LINE
  5
347
330
2
100
AcDbEntity
  8
GAIKEI
  6
Continuous
 62
     1
100
AcDbLine
 10
28.60722501639307
 20
10.68754093090905
 30
0.0
 11
28.38722991639307
 21
10.68754093090905
 31
0.0
  0
LINE
  5
348
330
2
100
AcDbEntity
  8
GAIKEI
  6
Continuous
 62
     1
100
AcDbLine
 10
28.60722501639307
 20
9.937540930909051
 30
0.0
 11
28.38722991639307
 21
9.937540930909051
 31
0.0
  0
LINE
  5
349
330
2
100
AcDbEntity
  8
GAIKEI
  6
Continuous
 62
     1
100
AcDbLine
 10
28.60722501639307
 20
9.187540930909051
 30
0.0
 11
28.38722991639307
 21
9.187540930909051
 31
0.0
  0
LINE
  5
34A
330
2
100
AcDbEntity
  8
GAIKEI
  6
Continuous
 62
     1
100
AcDbLine
 10
28.60722501639307
 20
11.18754093090905
 30
0.0
 11
28.38722991639307
 21
11.18754093090905
 31
0.0
  0
LINE
  5
34B
330
2
100
AcDbEntity
  8
GAIKEI
  6
Continuous
 62
     1
100
AcDbLine
 10
28.60722501639307
 20
10.43754093090905
 30
0.0
 11
28.38722991639307
 21
10.43754093090905
 31
0.0
  0
LINE
  5
34C
330
2
100
AcDbEntity
  8
GAIKEI
  6
Continuous
 62
     1
100
AcDbLine
 10
28.60722501639307
 20
9.687540930909051
 30
0.0
 11
28.38722991639307
 21
9.687540930909051
 31
0.0
  0
LINE
  5
34D
330
2
100
AcDbEntity
  8
GAIKEI
  6
Continuous
 62
     1
100
AcDbLine
 10
28.38722991639307
 20
10.68754093090905
 30
0.0
 11
28.38722991639307
 21
11.18754093090905
 31
0.0
  0
LINE
  5
34E
330
2
100
AcDbEntity
  8
GAIKEI
  6
Continuous
 62
     1
100
AcDbLine
 10
28.38722991639307
 20
9.937540930909051
 30
0.0
 11
28.38722991639307
 21
10.43754093090905
 31
0.0
  0
LINE
  5
34F
330
2
100
AcDbEntity
  8
GAIKEI
  6
Continuous
 62
     1
100
AcDbLine
 10
28.38722991639307
 20
9.187540930909051
 30
0.0
 11
28.38722991639307
 21
9.687540930909051
 31
0.0
  0
LINE
  5
350
330
2
100
AcDbEntity
  8
GAIKEI
  6
Continuous
 62
     1
100
AcDbLine
 10
28.60722501639307
 20
8.187540930909051
 30
0.0
 11
28.60722501639307
 21
8.687540930909051
 31
0.0
  0
LINE
  5
351
330
2
100
AcDbEntity
  8
GAIKEI
  6
Continuous
 62
     1
100
AcDbLine
 10
28.60722501639307
 20
7.437540930909051
 30
0.0
 11
28.60722501639307
 21
7.937540930909051
 31
0.0
  0
LINE
  5
352
330
2
100
AcDbEntity
  8
GAIKEI
  6
Continuous
 62
     1
100
AcDbLine
 10
28.60722501639307
 20
6.687540930909051
 30
0.0
 11
28.60722501639307
 21
7.187540930909051
 31
0.0
  0
LINE
  5
353
330
2
100
AcDbEntity
  8
GAIKEI
  6
Continuous
 62
     1
100
AcDbLine
 10
28.60722501639307
 20
8.187540930909051
 30
0.0
 11
28.38722991639307
 21
8.187540930909051
 31
0.0
  0
LINE
  5
354
330
2
100
AcDbEntity
  8
GAIKEI
  6
Continuous
 62
     1
100
AcDbLine
 10
28.60722501639307
 20
7.437540930909051
 30
0.0
 11
28.38722991639307
 21
7.437540930909051
 31
0.0
  0
LINE
  5
355
330
2
100
AcDbEntity
  8
GAIKEI
  6
Continuous
 62
     1
100
AcDbLine
 10
28.60722501639307
 20
6.687540930909051
 30
0.0
 11
28.38722991639307
 21
6.687540930909051
 31
0.0
  0
LINE
  5
356
330
2
100
AcDbEntity
  8
GAIKEI
  6
Continuous
 62
     1
100
AcDbLine
 10
28.60722501639307
 20
8.687540930909051
 30
0.0
 11
28.38722991639307
 21
8.687540930909051
 31
0.0
  0
LINE
  5
357
330
2
100
AcDbEntity
  8
GAIKEI
  6
Continuous
 62
     1
100
AcDbLine
 10
28.60722501639307
 20
7.937540930909051
 30
0.0
 11
28.38722991639307
 21
7.937540930909051
 31
0.0
  0
LINE
  5
358
330
2
100
AcDbEntity
  8
GAIKEI
  6
Continuous
 62
     1
100
AcDbLine
 10
28.60722501639307
 20
7.187540930909051
 30
0.0
 11
28.38722991639307
 21
7.187540930909051
 31
0.0
  0
LINE
  5
359
330
2
100
AcDbEntity
  8
GAIKEI
  6
Continuous
 62
     1
100
AcDbLine
 10
28.38722991639307
 20
8.187540930909051
 30
0.0
 11
28.38722991639307
 21
8.687540930909051
 31
0.0
  0
LINE
  5
35A
330
2
100
AcDbEntity
  8
GAIKEI
  6
Continuous
 62
     1
100
AcDbLine
 10
28.38722991639307
 20
7.437540930909051
 30
0.0
 11
28.38722991639307
 21
7.937540930909051
 31
0.0
  0
LINE
  5
35B
330
2
100
AcDbEntity
  8
GAIKEI
  6
Continuous
 62
     1
100
AcDbLine
 10
28.38722991639307
 20
6.687540930909051
 30
0.0
 11
28.38722991639307
 21
7.187540930909051
 31
0.0
  0
LINE
  5
35C
330
2
100
AcDbEntity
  8
GAIKEI
  6
Continuous
 62
     1
100
AcDbLine
 10
58.88723014099096
 20
11.03754361769478
 30
0.0
 11
58.93723014099092
 21
11.03754361769478
 31
0.0
  0
LINE
  5
35D
330
2
100
AcDbEntity
  8
GAIKEI
  6
Continuous
 62
     1
100
AcDbLine
 10
58.98723014099087
 20
10.98754361769482
 30
0.0
 11
58.93723014099092
 21
11.03754361769478
 31
0.0
  0
LINE
  5
35E
330
2
100
AcDbEntity
  8
GAIKEI
  6
Continuous
 62
     1
100
AcDbLine
 10
59.15723038618003
 20
5.109471989729001
 30
0.0
 11
59.15723038618003
 21
5.137543617694916
 31
0.0
  0
LINE
  5
35F
330
2
100
AcDbEntity
  8
GAIKEI
  6
Continuous
 62
     1
100
AcDbLine
 10
59.15723038618003
 20
4.337543617694961
 30
0.0
 11
59.15723038618003
 21
4.565612481565665
 31
0.0
  0
LINE
  5
360
330
2
100
AcDbEntity
  8
GAIKEI
  6
Continuous
 62
     1
100
AcDbLine
 10
59.05723038618001
 20
9.037543617694893
 30
0.0
 11
58.88723014099096
 21
9.037543617694893
 31
0.0
  0
LINE
  5
361
330
2
100
AcDbEntity
  8
GAIKEI
  6
Continuous
 62
     1
100
AcDbLine
 10
58.95136313192861
 20
4.237543617694825
 30
0.0
 11
59.05723038618001
 21
4.237543617694825
 31
0.0
  0
LINE
  5
362
330
2
100
AcDbEntity
  8
GAIKEI
  6
Continuous
 62
     1
100
AcDbLine
 10
59.15723038618003
 20
8.137543617694916
 30
0.0
 11
59.15723038618003
 21
8.937543617694871
 31
0.0
  0
LINE
  5
363
330
2
100
AcDbEntity
  8
GAIKEI
  6
Continuous
 62
     1
100
AcDbLine
 10
59.38722995169306
 20
5.237543617694825
 30
0.0
 11
59.38722995169306
 21
8.037543617694893
 31
0.0
  0
LINE
  5
364
330
2
100
AcDbEntity
  8
GAIKEI
  6
Continuous
 62
     1
100
AcDbLine
 10
59.28722995169303
 20
8.137543617694916
 30
0.0
 11
59.15723038618003
 21
8.137543617694916
 31
0.0
  0
LINE
  5
365
330
2
100
AcDbEntity
  8
GAIKEI
  6
Continuous
 62
     1
100
AcDbLine
 10
59.28722995169303
 20
5.137543617694916
 30
0.0
 11
59.15723038618003
 21
5.137543617694916
 31
0.0
  0
LINE
  5
366
330
2
100
AcDbEntity
  8
GAIKEI
  6
Continuous
 62
     1
100
AcDbLine
 10
58.93723014099092
 20
9.237543617694598
 30
0.0
 11
58.98723014099087
 21
9.287543617694552
 31
0.0
  0
LINE
  5
367
330
2
100
AcDbEntity
  8
GAIKEI
  6
Continuous
 62
     1
100
AcDbLine
 10
58.93723014099092
 20
9.237543617694598
 30
0.0
 11
58.88723014099096
 21
9.237543617694598
 31
0.0
  0
LINE
  5
368
330
2
100
AcDbEntity
  8
GAIKEI
  6
Continuous
 62
     1
100
AcDbLine
 10
59.28723014099094
 20
10.81754361769475
 30
0.0
 11
58.98723014099087
 21
10.81754361769475
 31
0.0
  0
LINE
  5
369
330
2
100
AcDbEntity
  8
GAIKEI
  6
Continuous
 62
     1
100
AcDbLine
 10
59.28723014099094
 20
9.457543617694625
 30
0.0
 11
58.98723014099087
 21
9.457543617694625
 31
0.0
  0
LINE
  5
36A
330
2
100
AcDbEntity
  8
GAIKEI
  6
Continuous
 62
     1
100
AcDbLine
 10
59.38723014099096
 20
10.71754361769461
 30
0.0
 11
59.38723014099096
 21
9.557543617694761
 31
0.0
  0
LINE
  5
36B
330
2
100
AcDbEntity
  8
GAIKEI
  6
Continuous
 62
     1
100
AcDbLine
 10
58.98723014099087
 20
10.98754361769482
 30
0.0
 11
58.98723014099087
 21
9.287543617694552
 31
0.0
  0
LINE
  5
36C
330
2
100
AcDbEntity
  8
GAIKEI
  6
Continuous
100
AcDbLine
 10
58.67722944532014
 20
3.917405675931377
 30
0.0
 11
58.67722944532014
 21
3.857566293539889
 31
0.0
  0
LINE
  5
36D
330
2
100
AcDbEntity
  8
GAIKEI
  6
Continuous
 62
     1
100
AcDbLine
 10
58.77722944532016
 20
3.917405675931377
 30
0.0
 11
58.77722944532016
 21
3.857566293539889
 31
0.0
  0
LINE
  5
36E
330
2
100
AcDbEntity
  8
GAIKEI
  6
Continuous
100
AcDbLine
 10
58.67722944532014
 20
3.737566293540112
 30
0.0
 11
58.57952689847266
 21
3.737566293540112
 31
0.0
  0
LINE
  5
36F
330
2
100
AcDbEntity
  8
GAIKEI
  6
Continuous
 62
     1
100
AcDbLine
 10
58.82722944532011
 20
3.737566293540112
 30
0.0
 11
58.77722944532016
 21
3.737566293540112
 31
0.0
  0
LINE
  5
370
330
2
100
AcDbEntity
  8
GAIKEI
  6
Continuous
 62
     1
100
AcDbLine
 10
58.82722944532011
 20
3.83753989291398
 30
0.0
 11
58.77722944532016
 21
3.83753989291398
 31
0.0
  0
LINE
  5
371
330
2
100
AcDbEntity
  8
GAIKEI
  6
Continuous
 62
     1
100
AcDbLine
 10
58.82722944532011
 20
3.83753989291398
 30
0.0
 11
58.82722944532011
 21
3.737566293540112
 31
0.0
  0
LINE
  5
372
330
2
100
AcDbEntity
  8
GAIKEI
  6
Continuous
100
AcDbLine
 10
58.67722944532014
 20
3.857566293539889
 30
0.0
 11
58.67722944532014
 21
3.737566293540112
 31
0.0
  0
LINE
  5
373
330
2
100
AcDbEntity
  8
GAIKEI
  6
Continuous
 62
     1
100
AcDbLine
 10
58.77722944532016
 20
3.857566293539889
 30
0.0
 11
58.77722944532016
 21
3.737566293540112
 31
0.0
  0
LINE
  5
374
330
2
100
AcDbEntity
  8
GAIKEI
  6
Continuous
 62
     1
100
AcDbLine
 10
58.67722944532014
 20
3.637566293540089
 30
0.0
 11
56.78722991639361
 21
3.637566293540089
 31
0.0
  0
LINE
  5
375
330
2
100
AcDbEntity
  8
GAIKEI
  6
Continuous
 62
     1
100
AcDbLine
 10
56.78722991639361
 20
3.737566293540112
 30
0.0
 11
56.78722991639361
 21
3.637566293540089
 31
0.0
  0
LINE
  5
376
330
2
100
AcDbEntity
  8
GAIKEI
  6
Continuous
 62
     1
100
AcDbLine
 10
58.77722944532016
 20
3.857566293539889
 30
0.0
 11
58.67722944532014
 21
3.857566293539889
 31
0.0
  0
LINE
  5
377
330
2
100
AcDbEntity
  8
GAIKEI
  6
Continuous
 62
     1
100
AcDbLine
 10
52.12223014099087
 20
5.552539892913671
 30
0.0
 11
52.12223014099087
 21
5.427539892913671
 31
0.0
  0
LINE
  5
378
330
2
100
AcDbEntity
  8
GAIKEI
  6
Continuous
 62
     1
100
AcDbLine
 10
52.28223014099106
 20
5.392539892913703
 30
0.0
 11
52.15723014099106
 21
5.392539892913703
 31
0.0
  0
LINE
  5
379
330
2
100
AcDbEntity
  8
GAIKEI
  6
Continuous
 62
     1
100
AcDbLine
 10
52.05223014099104
 20
5.287539892913798
 30
0.0
 11
52.05223014099104
 21
5.162539892913798
 31
0.0
  0
LINE
  5
37A
330
2
100
AcDbEntity
  8
GAIKEI
  6
Continuous
 62
     1
100
AcDbLine
 10
52.01723014099107
 20
5.392539892913703
 30
0.0
 11
51.89223014099107
 21
5.392539892913703
 31
0.0
  0
LINE
  5
37B
330
2
100
AcDbEntity
  8
GAIKEI
  6
Continuous
 62
     1
100
AcDbLine
 10
52.01723014099107
 20
5.32253989291388
 30
0.0
 11
51.89223014099107
 21
5.32253989291388
 31
0.0
  0
LINE
  5
37C
330
2
100
AcDbEntity
  8
GAIKEI
  6
Continuous
 62
     1
100
AcDbLine
 10
52.12223014099087
 20
5.287539892913798
 30
0.0
 11
52.12223014099087
 21
5.162539892913798
 31
0.0
  0
LINE
  5
37D
330
2
100
AcDbEntity
  8
GAIKEI
  6
Continuous
 62
     1
100
AcDbLine
 10
52.12223014099087
 20
5.552539892913671
 30
0.0
 11
52.05223014099104
 21
5.552539892913671
 31
0.0
  0
LINE
  5
37E
330
2
100
AcDbEntity
  8
GAIKEI
  6
Continuous
 62
     1
100
AcDbLine
 10
52.12223014099087
 20
5.162539892913798
 30
0.0
 11
52.05223014099104
 21
5.162539892913798
 31
0.0
  0
LINE
  5
37F
330
2
100
AcDbEntity
  8
GAIKEI
  6
Continuous
 62
     1
100
AcDbLine
 10
51.89223014099107
 20
5.392539892913703
 30
0.0
 11
51.89223014099107
 21
5.32253989291388
 31
0.0
  0
LINE
  5
380
330
2
100
AcDbEntity
  8
GAIKEI
  6
Continuous
 62
     1
100
AcDbLine
 10
52.28223014099106
 20
5.392539892913703
 30
0.0
 11
52.28223014099106
 21
5.32253989291388
 31
0.0
  0
LINE
  5
381
330
2
100
AcDbEntity
  8
GAIKEI
  6
Continuous
 62
     1
100
AcDbLine
 10
52.05223014099104
 20
5.552539892913671
 30
0.0
 11
52.05223014099104
 21
5.427539892913671
 31
0.0
  0
LINE
  5
382
330
2
100
AcDbEntity
  8
GAIKEI
  6
Continuous
 62
     1
100
AcDbLine
 10
52.28223014099106
 20
5.32253989291388
 30
0.0
 11
52.15723014099106
 21
5.32253989291388
 31
0.0
  0
LINE
  5
383
330
2
100
AcDbEntity
  8
GAIKEI
  6
Continuous
100
AcDbLine
 10
55.79630123491861
 20
2.687539892914003
 30
0.0
 11
53.97815859786831
 21
2.687539892914003
 31
0.0
  0
LINE
  5
384
330
2
100
AcDbEntity
  8
GAIKEI
  6
Continuous
100
AcDbLine
 10
55.98722991639366
 20
3.737539892914014
 30
0.0
 11
55.89585078217798
 21
2.778058983651078
 31
0.0
  0
LINE
  5
385
330
2
100
AcDbEntity
  8
GAIKEI
  6
Continuous
100
AcDbLine
 10
53.87860905060907
 20
2.778058983651078
 30
0.0
 11
53.78722991639361
 21
3.737539892914014
 31
0.0
  0
LINE
  5
386
330
2
100
AcDbEntity
  8
GAIKEI
  6
Continuous
100
AcDbLine
 10
58.55723049368274
 20
3.917405675931377
 30
0.0
 11
58.80723049368274
 21
3.917405675931377
 31
0.0
  0
LINE
  5
387
330
2
100
AcDbEntity
  8
GAIKEI
  6
Continuous
100
AcDbLine
 10
58.88723014099096
 20
12.35753989291408
 30
0.0
 11
58.88723014099096
 21
3.917405675931377
 31
0.0
  0
LINE
  5
388
330
2
100
AcDbEntity
  8
GAIKEI
  6
Continuous
100
AcDbLine
 10
58.88723049474063
 20
3.917405675931377
 30
0.0
 11
58.80723049368274
 21
3.917405675931377
 31
0.0
  0
LINE
  5
389
330
2
100
AcDbEntity
  8
GAIKEI
  6
Continuous
100
AcDbLine
 10
58.88723015850931
 20
12.23754132646007
 30
0.0
 11
58.88723014892767
 21
12.35754244980268
 31
0.0
  0
LINE
  5
38A
330
2
100
AcDbEntity
  8
GAIKEI
  6
Continuous
100
AcDbLine
 10
58.55723049368274
 20
3.917405675931377
 30
0.0
 11
58.55723049941949
 21
3.737540931732382
 31
0.0
  0
LINE
  5
38B
330
2
100
AcDbEntity
  8
GAIKEI
  6
Continuous
100
AcDbLine
 10
58.88723049474063
 20
3.917405675931377
 30
0.0
 11
58.88723016547797
 21
12.16754094930883
 31
0.0
  0
LINE
  5
38C
330
2
100
AcDbEntity
  8
GAIKEI
  6
Continuous
 62
     1
100
AcDbLine
 10
59.01483658858447
 20
4.487542235647367
 30
0.0
 11
59.01483658858447
 21
5.187542235646958
 31
0.0
  0
LINE
  5
38D
330
2
100
AcDbEntity
  8
GAIKEI
  6
Continuous
 62
     1
100
AcDbLine
 10
59.01483658858447
 20
5.187542235646958
 30
0.0
 11
59.19722847927303
 21
5.087542235647276
 31
0.0
  0
LINE
  5
38E
330
2
100
AcDbEntity
  8
GAIKEI
  6
Continuous
 62
     1
100
AcDbLine
 10
59.19722847927303
 20
5.087542235647276
 30
0.0
 11
59.19722847927292
 21
4.837542235647276
 31
0.0
  0
LINE
  5
38F
330
2
100
AcDbEntity
  8
GAIKEI
  6
Continuous
 62
     1
100
AcDbLine
 10
59.19722847927292
 20
4.587542235647276
 30
0.0
 11
59.01483658858447
 21
4.487542235647367
 31
0.0
  0
LINE
  5
390
330
2
100
AcDbEntity
  8
GAIKEI
  6
Continuous
 62
     1
100
AcDbLine
 10
59.01483658858447
 20
4.487542235647367
 30
0.0
 11
58.99639290568851
 21
4.382942912150781
 31
0.0
  0
LINE
  5
391
330
2
100
AcDbEntity
  8
GAIKEI
  6
Continuous
 62
     1
100
AcDbLine
 10
59.19722847927292
 20
4.837542235647276
 30
0.0
 11
59.19722847927292
 21
4.587542235647276
 31
0.0
  0
LINE
  5
392
330
2
100
AcDbEntity
  8
GAIKEI
  6
Continuous
 62
     1
100
AcDbLine
 10
58.99639290568851
 20
5.292141559143544
 30
0.0
 11
59.01483658858447
 21
5.187542235646958
 31
0.0
  0
LINE
  5
393
330
2
100
AcDbEntity
  8
GAIKEI
  6
Continuous
 62
     1
100
AcDbLine
 10
58.90177317614669
 20
11.1343320598317
 30
0.0
 11
58.90177317614669
 21
11.7407720598315
 31
0.0
  0
LINE
  5
394
330
2
100
AcDbEntity
  8
GAIKEI
  6
Continuous
 62
     1
100
AcDbLine
 10
58.88723022272817
 20
11.13305880831712
 30
0.0
 11
58.90177317614669
 21
11.1343320598317
 31
0.0
  0
LINE
  5
395
330
2
100
AcDbEntity
  8
GAIKEI
  6
Continuous
 62
     1
100
AcDbLine
 10
58.88723019842373
 20
11.7420443271705
 30
0.0
 11
58.90177317614669
 21
11.7407720598315
 31
0.0
  0
LINE
  5
396
330
2
100
AcDbEntity
  8
GAIKEI
  6
Continuous
 62
     1
100
AcDbLine
 10
58.90177317614669
 20
3.834326458939074
 30
0.0
 11
58.90177317614669
 21
4.355232745387581
 31
0.0
  0
LINE
  5
397
330
2
100
AcDbEntity
  8
GAIKEI
  6
Continuous
 62
     1
100
AcDbLine
 10
58.82722944532011
 20
3.827800073586786
 30
0.0
 11
58.90177317614669
 21
3.834326458939074
 31
0.0
  0
LINE
  5
398
330
2
100
AcDbEntity
  8
GAIKEI
  6
Continuous
 62
     1
100
AcDbLine
 10
58.99639290568851
 20
12.16214172821156
 30
0.0
 11
59.01483658858447
 21
12.05754240471486
 31
0.0
  0
LINE
  5
399
330
2
100
AcDbEntity
  8
GAIKEI
  6
Continuous
 62
     1
100
AcDbLine
 10
59.19722847927292
 20
11.7075424047153
 30
0.0
 11
59.19722847927292
 21
11.45754240471529
 31
0.0
  0
LINE
  5
39A
330
2
100
AcDbEntity
  8
GAIKEI
  6
Continuous
 62
     1
100
AcDbLine
 10
59.01483658858447
 20
11.35754240471527
 30
0.0
 11
58.99639290568851
 21
11.25294308121869
 31
0.0
  0
LINE
  5
39B
330
2
100
AcDbEntity
  8
GAIKEI
  6
Continuous
 62
     1
100
AcDbLine
 10
59.19722847927292
 20
11.45754240471529
 30
0.0
 11
59.01483658858447
 21
11.35754240471527
 31
0.0
  0
LINE
  5
39C
330
2
100
AcDbEntity
  8
GAIKEI
  6
Continuous
 62
     1
100
AcDbLine
 10
59.19722847927303
 20
11.95754240471529
 30
0.0
 11
59.19722847927292
 21
11.7075424047153
 31
0.0
  0
LINE
  5
39D
330
2
100
AcDbEntity
  8
GAIKEI
  6
Continuous
 62
     1
100
AcDbLine
 10
59.01483658858447
 20
12.05754240471486
 30
0.0
 11
59.19722847927303
 21
11.95754240471529
 31
0.0
  0
LINE
  5
39E
330
2
100
AcDbEntity
  8
GAIKEI
  6
Continuous
 62
     1
100
AcDbLine
 10
59.01483658858447
 20
11.35754240471527
 30
0.0
 11
59.01483658858447
 21
12.05754240471486
 31
0.0
  0
LINE
  5
39F
330
2
100
AcDbEntity
  8
GAIKEI
  6
Continuous
 62
     1
100
AcDbLine
 10
29.03723063495082
 20
3.637541483961967
 30
0.0
 11
26.73723063495086
 21
3.637541483961967
 31
0.0
  0
LINE
  5
3A0
330
2
100
AcDbEntity
  8
GAIKEI
  6
Continuous
100
AcDbLine
 10
29.13723063495084
 20
3.73754148396199
 30
0.0
 11
29.03723063495082
 21
3.637541483961967
 31
0.0
  0
LINE
  5
3A1
330
2
100
AcDbEntity
  8
GAIKEI
  6
Continuous
100
AcDbLine
 10
25.18723014099092
 20
12.0675404451436
 30
0.0
 11
24.16722991639327
 21
12.0675404451436
 31
0.0
  0
LINE
  5
3A2
330
2
100
AcDbEntity
  8
GAIKEI
  6
Continuous
100
AcDbLine
 10
23.98722991639366
 20
12.43754044514372
 30
0.0
 11
23.88722991639363
 21
12.3375404451437
 31
0.0
  0
LINE
  5
3A3
330
2
100
AcDbEntity
  8
GAIKEI
  6
Continuous
100
AcDbLine
 10
25.18722991639359
 20
12.43754044514372
 30
0.0
 11
23.98722991639366
 21
12.43754044514372
 31
0.0
  0
LINE
  5
3A4
330
2
100
AcDbEntity
  8
GAIKEI
  6
Continuous
100
AcDbLine
 10
24.13722991639364
 20
12.03754044514375
 30
0.0
 11
24.13722991639364
 21
3.637540445143713
 31
0.0
  0
LINE
  5
3A5
330
2
100
AcDbEntity
  8
GAIKEI
  6
Continuous
100
AcDbLine
 10
25.18722991639359
 20
12.43754044514372
 30
0.0
 11
23.98722991639343
 21
12.43754044514372
 31
0.0
  0
LINE
  5
3A6
330
2
100
AcDbEntity
  8
GAIKEI
  6
Continuous
 62
     1
100
AcDbLine
 10
29.42223014099105
 20
5.552540445143279
 30
0.0
 11
29.42223014099105
 21
5.427540445143279
 31
0.0
  0
LINE
  5
3A7
330
2
100
AcDbEntity
  8
GAIKEI
  6
Continuous
 62
     1
100
AcDbLine
 10
29.58223014099102
 20
5.392540445143197
 30
0.0
 11
29.45723014099101
 21
5.392540445143197
 31
0.0
  0
LINE
  5
3A8
330
2
100
AcDbEntity
  8
GAIKEI
  6
Continuous
 62
     1
100
AcDbLine
 10
29.352230140991
 20
5.28754044514352
 30
0.0
 11
29.352230140991
 21
5.16254044514352
 31
0.0
  0
LINE
  5
3A9
330
2
100
AcDbEntity
  8
GAIKEI
  6
Continuous
 62
     1
100
AcDbLine
 10
29.31723014099126
 20
5.392540445143197
 30
0.0
 11
29.19223014099126
 21
5.392540445143197
 31
0.0
  0
LINE
  5
3AA
330
2
100
AcDbEntity
  8
GAIKEI
  6
Continuous
 62
     1
100
AcDbLine
 10
29.31723014099126
 20
5.322540445143147
 30
0.0
 11
29.19223014099126
 21
5.322540445143147
 31
0.0
  0
LINE
  5
3AB
330
2
100
AcDbEntity
  8
GAIKEI
  6
Continuous
 62
     1
100
AcDbLine
 10
29.42223014099105
 20
5.28754044514352
 30
0.0
 11
29.42223014099105
 21
5.16254044514352
 31
0.0
  0
LINE
  5
3AC
330
2
100
AcDbEntity
  8
GAIKEI
  6
Continuous
 62
     1
100
AcDbLine
 10
29.42223014099105
 20
5.552540445143279
 30
0.0
 11
29.352230140991
 21
5.552540445143279
 31
0.0
  0
LINE
  5
3AD
330
2
100
AcDbEntity
  8
GAIKEI
  6
Continuous
 62
     1
100
AcDbLine
 10
29.42223014099105
 20
5.16254044514352
 30
0.0
 11
29.352230140991
 21
5.16254044514352
 31
0.0
  0
LINE
  5
3AE
330
2
100
AcDbEntity
  8
GAIKEI
  6
Continuous
 62
     1
100
AcDbLine
 10
29.19223014099126
 20
5.392540445143197
 30
0.0
 11
29.19223014099126
 21
5.322540445143147
 31
0.0
  0
LINE
  5
3AF
330
2
100
AcDbEntity
  8
GAIKEI
  6
Continuous
 62
     1
100
AcDbLine
 10
29.58223014099102
 20
5.392540445143197
 30
0.0
 11
29.58223014099102
 21
5.322540445143147
 31
0.0
  0
LINE
  5
3B0
330
2
100
AcDbEntity
  8
GAIKEI
  6
Continuous
 62
     1
100
AcDbLine
 10
29.352230140991
 20
5.552540445143279
 30
0.0
 11
29.352230140991
 21
5.427540445143279
 31
0.0
  0
LINE
  5
3B1
330
2
100
AcDbEntity
  8
GAIKEI
  6
Continuous
 62
     1
100
AcDbLine
 10
29.58223014099102
 20
5.322540445143147
 30
0.0
 11
29.45723014099101
 21
5.322540445143147
 31
0.0
  0
LINE
  5
3B2
330
2
100
AcDbEntity
  8
GAIKEI
  6
Continuous
100
AcDbLine
 10
28.79630195347593
 20
2.587540445143702
 30
0.0
 11
26.97815931642529
 21
2.587540445143702
 31
0.0
  0
LINE
  5
3B3
330
2
100
AcDbEntity
  8
GAIKEI
  6
Continuous
100
AcDbLine
 10
28.98723063495086
 20
3.637540445143713
 30
0.0
 11
28.89585150073529
 21
2.67805953588089
 31
0.0
  0
LINE
  5
3B4
330
2
100
AcDbEntity
  8
GAIKEI
  6
Continuous
100
AcDbLine
 10
26.87860976916639
 20
2.67805953588089
 30
0.0
 11
26.78723063495082
 21
3.637540445143713
 31
0.0
  0
LINE
  5
3B5
330
2
100
AcDbEntity
  8
GAIKEI
  6
Continuous
100
AcDbLine
 10
25.18723014099092
 20
12.01754044514376
 30
0.0
 11
24.25722988746716
 21
12.01754044514376
 31
0.0
  0
LINE
  5
3B6
330
2
100
AcDbEntity
  8
GAIKEI
  6
Continuous
100
AcDbLine
 10
24.15722991639351
 20
3.967540931731605
 30
0.0
 11
24.15722991639351
 21
11.91753989291356
 31
0.0
  0
LINE
  5
3B7
330
2
100
AcDbEntity
  8
GAIKEI
  6
Continuous
100
AcDbLine
 10
25.68722995136071
 20
12.43753814258065
 30
0.0
 11
25.58723701327691
 21
12.43753814258065
 31
0.0
  0
LINE
  5
3B8
330
2
100
AcDbEntity
  8
GAIKEI
  6
Continuous
100
AcDbLine
 10
25.68722995136071
 20
12.43753814258065
 30
0.0
 11
26.47304272463023
 21
12.43753814258065
 31
0.0
  0
LINE
  5
3B9
330
2
100
AcDbEntity
  8
GAIKEI
  6
Continuous
100
AcDbLine
 10
23.88722991639307
 20
11.78653750901384
 30
0.0
 11
23.88722991639363
 21
12.13754044514365
 31
0.0
  0
LINE
  5
3BA
330
2
100
AcDbEntity
  8
GAIKEI
  6
S10
 62
     1
100
AcDbLine
 10
24.11722991639365
 20
12.43754006885098
 30
0.0
 11
24.11722991639365
 21
3.637540068850967
 31
0.0
  0
LINE
  5
3BB
330
2
100
AcDbEntity
  8
GAIKEI
  6
S10
 62
     1
100
AcDbLine
 10
26.88722991639364
 20
3.837540068851012
 30
0.0
 11
26.88722991639364
 21
12.23754006885104
 31
0.0
  0
LINE
  5
3BC
330
2
100
AcDbEntity
  8
GAIKEI
  6
Continuous
100
AcDbLine
 10
23.88722991639363
 20
12.03754006885089
 30
0.0
 11
23.88722991639363
 21
11.69754006885142
 31
0.0
  0
LINE
  5
3BD
330
2
100
AcDbEntity
  8
GAIKEI
  6
Continuous
100
AcDbLine
 10
23.88722991639363
 20
11.69754006885142
 30
0.0
 11
23.88722991639352
 21
4.037540147278207
 31
0.0
  0
LINE
  5
3BE
330
2
100
AcDbEntity
  8
GAIKEI
  6
Continuous
100
AcDbLine
 10
25.18723014099092
 20
12.0675404451436
 30
0.0
 11
26.31722991639268
 21
12.0675404451436
 31
0.0
  0
LINE
  5
3BF
330
2
100
AcDbEntity
  8
GAIKEI
  6
Continuous
100
AcDbLine
 10
26.53722991639316
 20
12.28754044514386
 30
0.0
 11
26.5372299786649
 21
12.43754017253326
 31
0.0
  0
LINE
  5
3C0
330
2
100
AcDbEntity
  8
GAIKEI
  6
Continuous
100
AcDbLine
 10
26.53722991639316
 20
12.28754044514386
 30
0.0
 11
26.31722991639268
 21
12.0675404451436
 31
0.0
  0
LINE
  5
3C1
330
2
100
AcDbEntity
  8
GAIKEI
  6
Continuous
100
AcDbLine
 10
25.18722991639359
 20
12.43754044514372
 30
0.0
 11
25.58723701327691
 21
12.43753814258065
 31
0.0
  0
LINE
  5
3C2
330
2
100
AcDbEntity
  8
GAIKEI
  6
Continuous
100
AcDbLine
 10
26.11723020130071
 20
12.01754044514376
 30
0.0
 11
25.18723014099092
 21
12.01754044514376
 31
0.0
  0
LINE
  5
3C3
330
2
100
AcDbEntity
  8
GAIKEI
  6
Continuous
100
AcDbLine
 10
26.53722991638952
 20
12.43754016023257
 30
0.0
 11
26.5372299786649
 21
12.43754017253326
 31
0.0
  0
LINE
  5
3C4
330
2
100
AcDbEntity
  8
GAIKEI
  6
Continuous
100
AcDbLine
 10
26.73723063495086
 20
3.637541483961967
 30
0.0
 11
26.63723063495084
 21
3.73754148396199
 31
0.0
  0
LINE
  5
3C5
330
2
100
AcDbEntity
  8
GAIKEI
  6
Continuous
100
AcDbLine
 10
-45.55534677440104
 20
3.63753989291348
 30
0.0
 11
-45.55534677440104
 21
12.43753989291343
 31
0.0
  0
LINE
  5
3C6
330
2
100
AcDbEntity
  8
GAIKEI
  6
Continuous
100
AcDbLine
 10
-7.54672590861648
 20
2.678058983650487
 30
0.0
 11
-7.455346774401135
 21
3.63753989291348
 31
0.0
  0
LINE
  5
3C7
330
2
100
AcDbEntity
  8
GAIKEI
  6
Continuous
100
AcDbLine
 10
-9.655346774400953
 20
3.63753989291348
 30
0.0
 11
-9.563967640185495
 21
2.678058983650487
 31
0.0
  0
LINE
  5
3C8
330
2
100
AcDbEntity
  8
GAIKEI
  6
Continuous
100
AcDbLine
 10
-45.55534677440104
 20
12.43753989291343
 30
0.0
 11
-3.555346774401044
 21
12.43753989291343
 31
0.0
  0
LINE
  5
3C9
330
2
100
AcDbEntity
  8
GAIKEI
  6
Continuous
100
AcDbLine
 10
-3.555346774401044
 20
12.43753989291343
 30
0.0
 11
-3.555346774401044
 21
3.63753989291348
 31
0.0
  0
LINE
  5
3CA
330
2
100
AcDbEntity
  8
GAIKEI
  6
Continuous
100
AcDbLine
 10
-3.555346774401044
 20
3.63753989291348
 30
0.0
 11
-45.55534677440104
 21
3.63753989291348
 31
0.0
  0
LINE
  5
3CB
330
2
100
AcDbEntity
  8
GAIKEI
  6
Continuous
100
AcDbLine
 10
-3.555346774401044
 20
12.43753989291343
 30
0.0
 11
-3.555346774401044
 21
3.63753989291348
 31
0.0
  0
LINE
  5
3CC
330
2
100
AcDbEntity
  8
GAIKEI
  6
Continuous
100
AcDbLine
 10
-45.55534677440104
 20
12.43753989291343
 30
0.0
 11
-3.555346774401044
 21
12.43753989291343
 31
0.0
  0
LINE
  5
3CD
330
2
100
AcDbEntity
  8
GAIKEI
  6
Continuous
100
AcDbLine
 10
-41.46441809292625
 20
2.587539892913184
 30
0.0
 11
-39.64627545587573
 21
2.587539892913184
 31
0.0
  0
LINE
  5
3CE
330
2
100
AcDbEntity
  8
GAIKEI
  6
Continuous
100
AcDbLine
 10
-41.65534677440095
 20
3.63753989291348
 30
0.0
 11
-41.56396764018549
 21
2.678058983650487
 31
0.0
  0
LINE
  5
3CF
330
2
100
AcDbEntity
  8
GAIKEI
  6
Continuous
100
AcDbLine
 10
-39.5467259086166
 20
2.678058983650487
 30
0.0
 11
-39.45534677440114
 21
3.63753989291348
 31
0.0
  0
LINE
  5
3D0
330
2
100
AcDbEntity
  8
GAIKEI
  6
S10
 62
     1
100
AcDbLine
 10
-3.32534677440114
 20
3.63753989291348
 30
0.0
 11
-3.32534677440114
 21
12.43753989291343
 31
0.0
  0
LINE
  5
3D1
330
2
100
AcDbEntity
  8
GAIKEI
  6
HIDDEN2
 62
     1
100
AcDbLine
 10
-1.50534677440109
 20
4.537539892913571
 30
0.0
 11
-1.105346774401112
 21
4.537539892913571
 31
0.0
  0
LINE
  5
3D2
330
2
100
AcDbEntity
  8
GAIKEI
  6
HIDDEN2
 62
     1
100
AcDbLine
 10
-1.50534677440109
 20
3.937539892913491
 30
0.0
 11
-1.105346774401112
 21
3.937539892913491
 31
0.0
  0
LINE
  5
3D3
330
2
100
AcDbEntity
  8
GAIKEI
  6
HIDDEN2
 62
     1
100
AcDbLine
 10
-1.105346774401112
 20
11.53753989291345
 30
0.0
 11
-1.50534677440109
 21
11.53753989291345
 31
0.0
  0
LINE
  5
3D4
330
2
100
AcDbEntity
  8
GAIKEI
  6
HIDDEN2
 62
     1
100
AcDbLine
 10
-1.105346774401112
 20
12.13753989291348
 30
0.0
 11
-1.50534677440109
 21
12.13753989291348
 31
0.0
  0
LINE
  5
3D5
330
2
100
AcDbEntity
  8
GAIKEI
  6
S10
 62
     1
100
AcDbLine
 10
-48.00534677440109
 20
4.537539892913571
 30
0.0
 11
-47.60534677440111
 21
4.537539892913571
 31
0.0
  0
LINE
  5
3D6
330
2
100
AcDbEntity
  8
GAIKEI
  6
S10
 62
     1
100
AcDbLine
 10
-48.00534677440109
 20
3.937539892913491
 30
0.0
 11
-47.60534677440111
 21
3.937539892913491
 31
0.0
  0
LINE
  5
3D7
330
2
100
AcDbEntity
  8
GAIKEI
  6
S10
 62
     1
100
AcDbLine
 10
-47.60534677440111
 20
11.53753989291345
 30
0.0
 11
-48.00534677440109
 21
11.53753989291345
 31
0.0
  0
LINE
  5
3D8
330
2
100
AcDbEntity
  8
GAIKEI
  6
S10
 62
     1
100
AcDbLine
 10
-47.60534677440111
 20
12.13753989291348
 30
0.0
 11
-48.00534677440109
 21
12.13753989291348
 31
0.0
  0
LINE
  5
3D9
330
2
100
AcDbEntity
  8
GAIKEI
  6
HIDDEN2
 62
     1
100
AcDbLine
 10
-45.55534677440104
 20
3.63753989291348
 30
0.0
 11
-48.355346774401
 21
3.63753989291348
 31
0.0
  0
LINE
  5
3DA
330
2
100
AcDbEntity
  8
GAIKEI
  6
S10
 62
     1
100
AcDbLine
 10
-45.78534677440106
 20
12.43753989291343
 30
0.0
 11
-45.78534677440106
 21
3.63753989291348
 31
0.0
  0
LINE
  5
3DB
330
2
100
AcDbEntity
  8
GAIKEI
  6
HIDDEN2
 62
     1
100
AcDbLine
 10
-48.355346774401
 20
12.43753989291343
 30
0.0
 11
-45.55534677440104
 21
12.43753989291343
 31
0.0
  0
LINE
  5
3DC
330
2
100
AcDbEntity
  8
GAIKEI
  6
Continuous
100
AcDbLine
 10
-3.555346774401044
 20
3.63753989291348
 30
0.0
 11
-45.55534677440104
 21
3.63753989291348
 31
0.0
  0
LINE
  5
3DD
330
2
100
AcDbEntity
  8
GAIKEI
  6
Continuous
100
AcDbLine
 10
-3.555346774401044
 20
8.037539892913343
 30
0.0
 11
-3.555346774401044
 21
3.63753989291348
 31
0.0
  0
LINE
  5
3DE
330
2
100
AcDbEntity
  8
GAIKEI
  6
Continuous
100
AcDbLine
 10
-3.555346774401044
 20
3.63753989291348
 30
0.0
 11
-45.55534677440104
 21
3.63753989291348
 31
0.0
  0
LINE
  5
3DF
330
2
100
AcDbEntity
  8
GAIKEI
  6
Continuous
100
AcDbLine
 10
-45.55534677440104
 20
3.63753989291348
 30
0.0
 11
-45.55534677440104
 21
8.037539892913343
 31
0.0
  0
LINE
  5
3E0
330
2
100
AcDbEntity
  8
GAIKEI
  6
Continuous
100
AcDbLine
 10
-45.55534677440104
 20
12.43753989291343
 30
0.0
 11
-3.555346774401044
 21
12.43753989291343
 31
0.0
  0
LINE
  5
3E1
330
2
100
AcDbEntity
  8
GAIKEI
  6
Continuous
 62
     1
100
AcDbLine
 10
-45.55534677440104
 20
12.33753989291341
 30
0.0
 11
-3.555346774401044
 21
12.33753989291341
 31
0.0
  0
LINE
  5
3E2
330
2
100
AcDbEntity
  8
GAIKEI
  6
Continuous
 62
     1
100
AcDbLine
 10
56.28723014099094
 20
5.957539892914098
 30
0.0
 11
27.98723014099087
 21
5.957540445143479
 31
0.0
  0
LINE
  5
3E3
330
2
100
AcDbEntity
  8
GAIKEI
  6
Continuous
 62
     1
100
AcDbLine
 10
56.28723014099094
 20
4.757539892914053
 30
0.0
 11
27.98723014099087
 21
4.757540445143547
 31
0.0
  0
LINE
  5
3E4
330
2
100
AcDbEntity
  8
GAIKEI
  6
Continuous
 62
     1
100
AcDbLine
 10
56.28723014099094
 20
6.307539892914007
 30
0.0
 11
27.98723014099087
 21
6.307540445143501
 31
0.0
  0
LINE
  5
3E5
330
2
100
AcDbEntity
  8
GAIKEI
  6
Continuous
 62
     1
100
AcDbLine
 10
56.28723014099094
 20
4.407539892914144
 30
0.0
 11
27.98723014099087
 21
4.407540445143411
 31
0.0
  0
LINE
  5
3E6
330
2
100
AcDbEntity
  8
GAIKEI
  6
Continuous
100
AcDbLine
 10
58.80723013645209
 20
12.43754244584915
 30
0.0
 11
26.53722991638952
 21
12.43754016023257
 31
0.0
  0
LINE
  5
3E7
330
2
100
AcDbEntity
  8
GAIKEI
  6
Continuous
100
AcDbLine
 10
24.25723063495062
 20
3.73754148396199
 30
0.0
 11
58.67722944532014
 21
3.737566293540112
 31
0.0
  0
LINE
  5
3E8
330
2
100
AcDbEntity
  8
GAIKEI
  6
Continuous
 62
     1
100
AcDbLine
 10
-4.605346774400999
 20
12.03753989291334
 30
0.0
 11
-39.64640480762088
 21
12.03753989291334
 31
0.0
  0
LINE
  5
3E9
330
2
100
AcDbEntity
  8
GAIKEI
  6
Continuous
 62
     1
100
AcDbLine
 10
-14.68034677440104
 20
4.137539892913366
 30
0.0
 11
-14.88034677440097
 21
4.137539892913366
 31
0.0
  0
LINE
  5
3EA
330
2
100
AcDbEntity
  8
GAIKEI
  6
Continuous
 62
     1
100
AcDbLine
 10
-14.88034677440097
 20
5.071296240673461
 30
0.0
 11
-14.68034677440104
 21
5.071298133443349
 31
0.0
  0
LINE
  5
3EB
330
2
100
AcDbEntity
  8
GAIKEI
  6
Continuous
 62
     1
100
AcDbLine
 10
-14.68034677440104
 20
5.071298133443349
 30
0.0
 11
-14.68034677440104
 21
4.137539892913366
 31
0.0
  0
LINE
  5
3EC
330
2
100
AcDbEntity
  8
GAIKEI
  6
Continuous
 62
     1
100
AcDbLine
 10
-34.63034677440098
 20
5.071296240673461
 30
0.0
 11
-34.83034677440102
 21
5.071296240673461
 31
0.0
  0
DIMENSION
  5
3ED
330
2
100
AcDbEntity
  8
SUNPO
100
AcDbDimension
  2
*D4
 10
58.88722991639363
 20
20.42432251113763
 30
0.0
 11
41.38722991639363
 21
22.17432251113763
 31
0.0
 70
    33
  1
350
 71
     5
 42
35.0
  3
STANDARD
100
AcDbAlignedDimension
 13
23.88722991639363
 23
12.42432251113763
 33
0.0
 14
58.88722991639363
 24
12.42432251113763
 34
0.0
1001
ACAD
1000
DSTYLE
1002
{
1070
    40
1040
1.0
1070
   140
1040
2.5
1070
   147
1040
0.5
1070
   172
1070
     1
1002
}
  0
LINE
  5
3FA
330
2
100
AcDbEntity
  8
GAIKEI
 62
     1
100
AcDbLine
 10
-38.65833012060111
 20
11.93753989291343
 30
0.0
 11
-37.95182726851724
 21
12.03753989291334
 31
0.0
  0
ARC
  5
3FB
330
2
100
AcDbEntity
  8
GAIKEI
 62
     1
100
AcDbCircle
 10
-34.78766663121357
 20
-2.853447572656421
 30
0.0
 40
7.990987802307673
100
AcDbArc
 50
89.98336650945756
 51
118.9717542477351
  0
ELLIPSE
  5
3FC
330
2
100
AcDbEntity
  8
GAIKEI
 62
     1
100
AcDbEllipse
 10
-42.10534677440111
 20
9.13753989291348
 30
0.0
 11
0.4500000094901219
 21
-0.0000000101399564
 31
0.0
210
0.0
220
0.0
230
1.0
 40
0.3333330580148846
 41
0.0
 42
6.283185307179586
  0
ELLIPSE
  5
3FD
330
2
100
AcDbEntity
  8
GAIKEI
 62
     1
100
AcDbEllipse
 10
-42.10534677443123
 20
7.737539891913399
 30
0.0
 11
0.4500000094901219
 21
-0.0000000101399564
 31
0.0
210
0.0
220
0.0
230
1.0
 40
0.3333330580148846
 41
0.0
 42
6.283185307179586
  0
ELLIPSE
  5
3FE
330
2
100
AcDbEntity
  8
GAIKEI
 62
     1
100
AcDbEllipse
 10
-42.10534677773134
 20
5.437539834353344
 30
0.0
 11
0.4500000094901219
 21
-0.0000000101399564
 31
0.0
210
0.0
220
0.0
230
1.0
 40
0.3333330580148846
 41
0.0
 42
6.283185307179586
  0
ELLIPSE
  5
3FF
330
2
100
AcDbEntity
  8
GAIKEI
 62
     1
100
AcDbEllipse
 10
-38.45534677441126
 20
7.737539892913389
 30
0.0
 11
0.4500000094901219
 21
-0.0000000101399564
 31
0.0
210
0.0
220
0.0
230
1.0
 40
0.3333330580148846
 41
0.0
 42
6.283185307179586
  0
ELLIPSE
  5
400
330
2
100
AcDbEntity
  8
GAIKEI
 62
     1
100
AcDbEllipse
 10
-36.85534677441123
 20
7.737539892913389
 30
0.0
 11
0.4500000094901219
 21
-0.0000000101399564
 31
0.0
210
0.0
220
0.0
230
1.0
 40
0.3333330580148846
 41
0.0
 42
6.283185307179586
  0
ELLIPSE
  5
401
330
2
100
AcDbEntity
  8
GAIKEI
 62
     1
100
AcDbEllipse
 10
-35.25534677441132
 20
7.737539884643354
 30
0.0
 11
0.4500000094901219
 21
-0.0000000101399564
 31
0.0
210
0.0
220
0.0
230
1.0
 40
0.3333330580148846
 41
0.0
 42
6.283185307179586
  0
ELLIPSE
  5
402
330
2
100
AcDbEntity
  8
GAIKEI
 62
     1
100
AcDbEllipse
 10
-33.65534677441119
 20
7.737539892913389
 30
0.0
 11
0.4500000094901219
 21
-0.0000000101399564
 31
0.0
210
0.0
220
0.0
230
1.0
 40
0.3333330580148846
 41
0.0
 42
6.283185307179586
  0
ELLIPSE
  5
403
330
2
100
AcDbEntity
  8
GAIKEI
 62
     1
100
AcDbEllipse
 10
-32.05534677441128
 20
7.737539892913389
 30
0.0
 11
0.4500000094901219
 21
-0.0000000101399564
 31
0.0
210
0.0
220
0.0
230
1.0
 40
0.3333330580148846
 41
0.0
 42
6.283185307179586
  0
LINE
  5
404
330
2
100
AcDbEntity
  8
GAIKEI
  6
Phantom
 62
     1
100
AcDbLine
 10
-8.989469051391637
 20
8.89914928224374
 30
0.0
 11
-8.989396550531722
 21
8.898276728883786
 31
0.0
  0
LINE
  5
405
330
2
100
AcDbEntity
  8
GAIKEI
  6
Continuous
 62
     1
100
AcDbLine
 10
-9.862646232761079
 20
11.98753989291339
 30
0.0
 11
-9.808731341831133
 21
11.98753989291339
 31
0.0
  0
LINE
  5
406
330
2
100
AcDbEntity
  8
GAIKEI
  6
Continuous
 62
     1
100
AcDbLine
 10
-9.852722970221037
 20
11.9129185877934
 30
0.0
 11
-9.799522135380897
 21
11.9129185877934
 31
0.0
  0
LINE
  5
407
330
2
100
AcDbEntity
  8
GAIKEI
  6
Continuous
 62
     1
100
AcDbLine
 10
-9.862646232761079
 20
11.93753989291343
 30
0.0
 11
-9.862646232761079
 21
12.03753989291334
 31
0.0
  0
LINE
  5
408
330
2
100
AcDbEntity
  8
GAIKEI
  6
Continuous
 62
     1
100
AcDbLine
 10
-9.862646232761079
 20
4.0375398929134
 30
0.0
 11
-9.862646232761079
 21
4.137539892913366
 31
0.0
  0
LINE
  5
409
330
2
100
AcDbEntity
  8
GAIKEI
  6
Continuous
 62
     1
100
AcDbLine
 10
-9.808731341831133
 20
11.93753989291343
 30
0.0
 11
-9.808731341831133
 21
12.03753989291334
 31
0.0
  0
LINE
  5
40A
330
2
100
AcDbEntity
  8
GAIKEI
  6
Continuous
 62
     1
100
AcDbLine
 10
-9.808731341831133
 20
4.0375398929134
 30
0.0
 11
-9.808731341831133
 21
4.137539892913366
 31
0.0
  0
ARC
  5
40B
330
2
100
AcDbEntity
  8
GAIKEI
  6
Continuous
 62
     1
100
AcDbCircle
 10
-19.50370426598098
 20
8.037539892913343
 30
0.0
 40
10.4
100
AcDbArc
 50
337.9756871630001
 51
22.02431283699997
  0
ARC
  5
40C
330
2
100
AcDbEntity
  8
GAIKEI
  6
Continuous
 62
     1
100
AcDbCircle
 10
-19.50370426598098
 20
8.037539892913343
 30
0.0
 40
10.45
100
AcDbArc
 50
338.0865399486964
 51
21.91346005130354
  0
ARC
  5
40D
330
2
100
AcDbEntity
  8
GAIKEI
 62
     1
100
AcDbCircle
 10
-29.70169653192531
 20
8.037539892913343
 30
0.0
 40
10.41359507297155
100
AcDbArc
 50
350.3534705230486
 51
9.646529476944845
  0
ARC
  5
40E
330
2
100
AcDbEntity
  8
GAIKEI
 62
     1
100
AcDbCircle
 10
-19.80899701687699
 20
8.037539892913343
 30
0.0
 40
10.41359507297155
100
AcDbArc
 50
170.3534705230551
 51
189.6465294769448
  0
LINE
  5
40F
330
2
100
AcDbEntity
  8
GAIKEI
  6
Continuous
 62
     1
100
AcDbLine
 10
-30.07534677440125
 20
9.782539892913462
 30
0.0
 11
-30.07534677440114
 21
6.292539892913339
 31
0.0
  0
LINE
  5
410
330
2
100
AcDbEntity
  8
GAIKEI
 62
     1
100
AcDbLine
 10
-16.30534677440104
 20
7.314698278173352
 30
0.0
 11
-16.50534677440098
 21
6.88753989291348
 31
0.0
  0
LINE
  5
411
330
2
100
AcDbEntity
  8
GAIKEI
 62
     1
100
AcDbLine
 10
-16.70534677440057
 20
7.314698278173352
 30
0.0
 11
-16.50534677440098
 21
6.88753989291348
 31
0.0
  0
LINE
  5
412
330
2
100
AcDbEntity
  8
GAIKEI
 62
     1
100
AcDbLine
 10
-17.22818838914108
 20
7.837539892913753
 30
0.0
 11
-17.65534677440107
 21
8.037539892913343
 31
0.0
  0
LINE
  5
413
330
2
100
AcDbEntity
  8
GAIKEI
 62
     1
100
AcDbLine
 10
-17.65534677440107
 20
8.037539892913343
 30
0.0
 11
-17.22818838914097
 21
8.237539892913389
 31
0.0
  0
LINE
  5
414
330
2
100
AcDbEntity
  8
GAIKEI
 62
     1
100
AcDbLine
 10
-16.50534677440109
 20
9.187539892913321
 30
0.0
 11
-16.70534677440102
 21
8.760381507653335
 31
0.0
  0
LINE
  5
415
330
2
100
AcDbEntity
  8
GAIKEI
 62
     1
100
AcDbLine
 10
-16.50534677440109
 20
9.187539892913434
 30
0.0
 11
-16.30534677440104
 21
8.760381507653448
 31
0.0
  0
LINE
  5
416
330
2
100
AcDbEntity
  8
GAIKEI
 62
     1
100
AcDbLine
 10
-15.7825051596611
 20
8.237539892913389
 30
0.0
 11
-15.355346774401
 21
8.037539892913457
 31
0.0
  0
LINE
  5
417
330
2
100
AcDbEntity
  8
GAIKEI
 62
     1
100
AcDbLine
 10
-15.355346774401
 20
8.037539892913457
 30
0.0
 11
-15.7825051596611
 21
7.837539892913525
 31
0.0
  0
CIRCLE
  5
418
330
2
100
AcDbEntity
  8
GAIKEI
 62
     1
100
AcDbCircle
 10
-13.40534677440107
 20
8.037539892913343
 30
0.0
 40
0.6299999999999777
  0
CIRCLE
  5
419
330
2
100
AcDbEntity
  8
GAIKEI
 62
     1
100
AcDbCircle
 10
-11.60534677440111
 20
8.037539892913343
 30
0.0
 40
0.6299999999999777
  0
LINE
  5
41A
330
2
100
AcDbEntity
  8
GAIKEI
  6
Continuous
 62
     1
100
AcDbLine
 10
-4.605346774400999
 20
12.03753989291334
 30
0.0
 11
-4.605346774400999
 21
4.0375398929134
 31
0.0
  0
ARC
  5
41B
330
2
100
AcDbEntity
  8
GAIKEI
 62
     1
100
AcDbCircle
 10
-34.78387766684634
 20
18.94322972197818
 30
0.0
 40
8.005689963861202
100
AcDbArc
 50
241.0554898577689
 51
269.9894857703222
  0
ARC
  5
41C
330
2
100
AcDbEntity
  8
GAIKEI
 62
     1
100
AcDbCircle
 10
-14.72681588195596
 20
18.94322972197818
 30
0.0
 40
8.005689963861202
100
AcDbArc
 50
270.0105142296778
 51
298.944510142231
  0
LINE
  5
41D
330
2
100
AcDbEntity
  8
GAIKEI
 62
     1
100
AcDbLine
 10
-10.85236342820119
 20
11.93753989291343
 30
0.0
 11
-11.55886628028506
 21
12.03753989291334
 31
0.0
  0
ELLIPSE
  5
41E
330
2
100
AcDbEntity
  8
GAIKEI
 62
     1
100
AcDbEllipse
 10
-28.30534677440093
 20
12.03753989291334
 30
0.0
 11
0.0000065575891419
 21
-1.050028311288428
 31
0.0
210
0.0
220
0.0
230
1.0
 40
0.1883119117025167
 41
4.712387804347687
 42
7.85398045793748
  0
ELLIPSE
  5
41F
330
2
100
AcDbEntity
  8
GAIKEI
 62
     1
100
AcDbEllipse
 10
-25.90534021678101
 20
12.03753919986337
 30
0.0
 11
0.0000065575891419
 21
-1.050028311288428
 31
0.0
210
0.0
220
0.0
230
1.0
 40
0.1883119117025167
 41
4.712387804347687
 42
7.85398045793748
  0
ELLIPSE
  5
420
330
2
100
AcDbEntity
  8
GAIKEI
 62
     1
100
AcDbEllipse
 10
-23.50535349950084
 20
12.03753918327339
 30
0.0
 11
0.0000065575891419
 21
-1.050028311288428
 31
0.0
210
0.0
220
0.0
230
1.0
 40
0.1883119117025167
 41
4.712387804347687
 42
7.85398045793748
  0
ELLIPSE
  5
421
330
2
100
AcDbEntity
  8
GAIKEI
 62
     1
100
AcDbEllipse
 10
-21.10535349950087
 20
12.03753918327339
 30
0.0
 11
0.0000065575891419
 21
-1.050028311288428
 31
0.0
210
0.0
220
0.0
230
1.0
 40
0.1883119117025167
 41
4.712387804347687
 42
7.85398045793748
  0
LINE
  5
422
330
2
100
AcDbEntity
  8
GAIKEI
 62
     1
100
AcDbLine
 10
-35.53034677440107
 20
4.13753989291348
 30
0.0
 11
-35.53034677440107
 21
5.035882453003466
 31
0.0
  0
LINE
  5
423
330
2
100
AcDbEntity
  8
GAIKEI
 62
     1
100
AcDbLine
 10
-35.53034677440107
 20
5.035882453003466
 30
0.0
 11
-35.33034677440102
 21
5.052346090833395
 31
0.0
  0
LINE
  5
424
330
2
100
AcDbEntity
  8
GAIKEI
 62
     1
100
AcDbLine
 10
-35.33034677440102
 20
4.13753989291348
 30
0.0
 11
-35.53034677440107
 21
4.137539892903475
 31
0.0
  0
LINE
  5
425
330
2
100
AcDbEntity
  8
GAIKEI
 62
     1
100
AcDbLine
 10
-35.68034677440105
 20
4.13753989291348
 30
0.0
 11
-35.88034677440109
 21
4.137539892903475
 31
0.0
  0
LINE
  5
426
330
2
100
AcDbEntity
  8
GAIKEI
 62
     1
100
AcDbLine
 10
-36.03034677439095
 20
4.137539892903475
 30
0.0
 11
-36.230346774391
 21
4.137539892893471
 31
0.0
  0
LINE
  5
427
330
2
100
AcDbEntity
  8
GAIKEI
 62
     1
100
AcDbLine
 10
-36.38034677434106
 20
4.137539892853453
 30
0.0
 11
-36.580346774341
 21
4.137539892843449
 31
0.0
  0
LINE
  5
428
330
2
100
AcDbEntity
  8
GAIKEI
 62
     1
100
AcDbLine
 10
-35.88034677440109
 20
4.13753989291348
 30
0.0
 11
-35.88034677440109
 21
4.994631260763469
 31
0.0
  0
LINE
  5
429
330
2
100
AcDbEntity
  8
GAIKEI
 62
     1
100
AcDbLine
 10
-35.88034677440109
 20
4.994631260763469
 30
0.0
 11
-35.68034677439093
 21
5.020148836883379
 31
0.0
  0
LINE
  5
42A
330
2
100
AcDbEntity
  8
GAIKEI
 62
     1
100
AcDbLine
 10
-35.68034677439093
 20
5.020148836883379
 30
0.0
 11
-35.68034677440105
 21
4.13753989291348
 31
0.0
  0
LINE
  5
42B
330
2
100
AcDbEntity
  8
GAIKEI
 62
     1
100
AcDbLine
 10
-35.33034677440102
 20
5.052346090833395
 30
0.0
 11
-35.33034677440102
 21
4.13753989291348
 31
0.0
  0
LINE
  5
42C
330
2
100
AcDbEntity
  8
GAIKEI
 62
     1
100
AcDbLine
 10
-36.230346774401
 20
4.13753989291348
 30
0.0
 11
-36.23034677441101
 21
4.937365431363389
 31
0.0
  0
LINE
  5
42D
330
2
100
AcDbEntity
  8
GAIKEI
 62
     1
100
AcDbLine
 10
-36.23034677441101
 20
4.937365431363389
 30
0.0
 11
-36.03034677439095
 21
4.972065841743358
 31
0.0
  0
LINE
  5
42E
330
2
100
AcDbEntity
  8
GAIKEI
 62
     1
100
AcDbLine
 10
-36.03034677439095
 20
4.972065841743358
 30
0.0
 11
-36.03034677440107
 21
4.13753989291348
 31
0.0
  0
LINE
  5
42F
330
2
100
AcDbEntity
  8
GAIKEI
 62
     1
100
AcDbLine
 10
-36.580346774341
 20
4.137539892843449
 30
0.0
 11
-36.58034677441103
 21
4.863720394183417
 31
0.0
  0
LINE
  5
430
330
2
100
AcDbEntity
  8
GAIKEI
 62
     1
100
AcDbLine
 10
-36.58034677441103
 20
4.863720394183417
 30
0.0
 11
-36.38034677438097
 21
4.907838380103328
 31
0.0
  0
LINE
  5
431
330
2
100
AcDbEntity
  8
GAIKEI
 62
     1
100
AcDbLine
 10
-36.38034677438097
 20
4.907838380103328
 30
0.0
 11
-36.38034677434106
 21
4.137539892853453
 31
0.0
  0
LINE
  5
432
330
2
100
AcDbEntity
  8
GAIKEI
 62
     1
100
AcDbLine
 10
-36.93034677433101
 20
4.137539892833444
 30
0.0
 11
-36.93034677440105
 21
4.740718340233286
 31
0.0
  0
LINE
  5
433
330
2
100
AcDbEntity
  8
GAIKEI
 62
     1
100
AcDbLine
 10
-36.93034677440105
 20
4.740718340233286
 30
0.0
 11
-36.730346774401
 21
4.79433017085347
 31
0.0
  0
LINE
  5
434
330
2
100
AcDbEntity
  8
GAIKEI
 62
     1
100
AcDbLine
 10
-36.730346774401
 20
4.79433017085347
 30
0.0
 11
-36.730346774401
 21
4.13753989291348
 31
0.0
  0
LINE
  5
435
330
2
100
AcDbEntity
  8
GAIKEI
 62
     1
100
AcDbLine
 10
-36.730346774401
 20
4.13753989291348
 30
0.0
 11
-36.93034677433101
 21
4.137539892833444
 31
0.0
  0
LINE
  5
436
330
2
100
AcDbEntity
  8
GAIKEI
 62
     1
100
AcDbLine
 10
-37.28034677431103
 20
4.137539892833444
 30
0.0
 11
-37.28034677440107
 21
4.633116753863475
 31
0.0
  0
LINE
  5
437
330
2
100
AcDbEntity
  8
GAIKEI
 62
     1
100
AcDbLine
 10
-37.28034677440107
 20
4.633116753863475
 30
0.0
 11
-37.08034677440102
 21
4.696775533473385
 31
0.0
  0
LINE
  5
438
330
2
100
AcDbEntity
  8
GAIKEI
 62
     1
100
AcDbLine
 10
-37.08034677440102
 20
4.696775533473385
 30
0.0
 11
-37.08034677452108
 21
4.137539893003406
 31
0.0
  0
LINE
  5
439
330
2
100
AcDbEntity
  8
GAIKEI
 62
     1
100
AcDbLine
 10
-37.08034677452108
 20
4.137539893003406
 30
0.0
 11
-37.28034677431103
 21
4.137539892833444
 31
0.0
  0
LINE
  5
43A
330
2
100
AcDbEntity
  8
GAIKEI
 62
     1
100
AcDbLine
 10
-37.63034677433106
 20
4.137539892863458
 30
0.0
 11
-37.63034677440109
 21
4.507390514693327
 31
0.0
  0
LINE
  5
43B
330
2
100
AcDbEntity
  8
GAIKEI
 62
     1
100
AcDbLine
 10
-37.63034677440109
 20
4.507390514693327
 30
0.0
 11
-37.43034677440105
 21
4.581500437143461
 31
0.0
  0
LINE
  5
43C
330
2
100
AcDbEntity
  8
GAIKEI
 62
     1
100
AcDbLine
 10
-37.43034677440105
 20
4.581500437143461
 30
0.0
 11
-37.43034677440105
 21
4.13753989291348
 31
0.0
  0
LINE
  5
43D
330
2
100
AcDbEntity
  8
GAIKEI
 62
     1
100
AcDbLine
 10
-37.63034677440109
 20
4.13753989291348
 30
0.0
 11
-37.43034677440105
 21
4.13753989291348
 31
0.0
  0
LINE
  5
43E
330
2
100
AcDbEntity
  8
GAIKEI
 62
     1
100
AcDbLine
 10
-37.98034677445102
 20
4.13753989291348
 30
0.0
 11
-37.980346774401
 21
4.362593260743267
 31
0.0
  0
LINE
  5
43F
330
2
100
AcDbEntity
  8
GAIKEI
 62
     1
100
AcDbLine
 10
-37.980346774401
 20
4.362593260743267
 30
0.0
 11
-37.78034677440107
 21
4.447736618953456
 31
0.0
  0
LINE
  5
440
330
2
100
AcDbEntity
  8
GAIKEI
 62
     1
100
AcDbLine
 10
-37.78034677440107
 20
4.447736618953456
 30
0.0
 11
-37.78034677424111
 21
4.137539892923484
 31
0.0
  0
LINE
  5
441
330
2
100
AcDbEntity
  8
GAIKEI
 62
     1
100
AcDbLine
 10
-37.78034677424111
 20
4.137539892923484
 30
0.0
 11
-37.98034677445102
 21
4.13753989291348
 31
0.0
  0
LINE
  5
442
330
2
100
AcDbEntity
  8
GAIKEI
 62
     1
100
AcDbLine
 10
-38.33034677440102
 20
4.13753989291348
 30
0.0
 11
-38.33034677440102
 21
4.197481208493343
 31
0.0
  0
LINE
  5
443
330
2
100
AcDbEntity
  8
GAIKEI
 62
     1
100
AcDbLine
 10
-38.33034677440102
 20
4.197481208493343
 30
0.0
 11
-38.13034677440109
 21
4.294397482533383
 31
0.0
  0
LINE
  5
444
330
2
100
AcDbEntity
  8
GAIKEI
 62
     1
100
AcDbLine
 10
-38.13034677440109
 20
4.294397482533383
 30
0.0
 11
-38.13034677440109
 21
4.13753989291348
 31
0.0
  0
LINE
  5
445
330
2
100
AcDbEntity
  8
GAIKEI
 62
     1
100
AcDbLine
 10
-38.13034677440109
 20
4.13753989291348
 30
0.0
 11
-38.33034677440102
 21
4.13753989291348
 31
0.0
  0
LINE
  5
446
330
2
100
AcDbEntity
  8
GAIKEI
 62
     1
100
AcDbLine
 10
-11.3803467744012
 20
4.13753989291348
 30
0.0
 11
-11.18034677440116
 21
4.13753989291348
 31
0.0
  0
LINE
  5
447
330
2
100
AcDbEntity
  8
GAIKEI
 62
     1
100
AcDbLine
 10
-11.3803467744012
 20
4.294397482533383
 30
0.0
 11
-11.3803467744012
 21
4.13753989291348
 31
0.0
  0
LINE
  5
448
330
2
100
AcDbEntity
  8
GAIKEI
 62
     1
100
AcDbLine
 10
-11.18034677440116
 20
4.197481208493343
 30
0.0
 11
-11.3803467744012
 21
4.294397482533383
 31
0.0
  0
LINE
  5
449
330
2
100
AcDbEntity
  8
GAIKEI
 62
     1
100
AcDbLine
 10
-11.18034677440116
 20
4.13753989291348
 30
0.0
 11
-11.18034677440116
 21
4.197481208493343
 31
0.0
  0
LINE
  5
44A
330
2
100
AcDbEntity
  8
GAIKEI
 62
     1
100
AcDbLine
 10
-11.73034677456118
 20
4.137539892923484
 30
0.0
 11
-11.53034677435116
 21
4.13753989291348
 31
0.0
  0
LINE
  5
44B
330
2
100
AcDbEntity
  8
GAIKEI
 62
     1
100
AcDbLine
 10
-11.73034677440123
 20
4.447736618953456
 30
0.0
 11
-11.73034677456118
 21
4.137539892923484
 31
0.0
  0
LINE
  5
44C
330
2
100
AcDbEntity
  8
GAIKEI
 62
     1
100
AcDbLine
 10
-11.53034677440118
 20
4.362593260743267
 30
0.0
 11
-11.73034677440123
 21
4.447736618953456
 31
0.0
  0
LINE
  5
44D
330
2
100
AcDbEntity
  8
GAIKEI
 62
     1
100
AcDbLine
 10
-11.53034677435116
 20
4.13753989291348
 30
0.0
 11
-11.53034677440118
 21
4.362593260743267
 31
0.0
  0
LINE
  5
44E
330
2
100
AcDbEntity
  8
GAIKEI
 62
     1
100
AcDbLine
 10
-11.8803467744012
 20
4.13753989291348
 30
0.0
 11
-12.08034677440113
 21
4.13753989291348
 31
0.0
  0
LINE
  5
44F
330
2
100
AcDbEntity
  8
GAIKEI
 62
     1
100
AcDbLine
 10
-12.08034677440113
 20
4.581500437143461
 30
0.0
 11
-12.08034677440113
 21
4.13753989291348
 31
0.0
  0
LINE
  5
450
330
2
100
AcDbEntity
  8
GAIKEI
 62
     1
100
AcDbLine
 10
-11.8803467744012
 20
4.507390514693327
 30
0.0
 11
-12.08034677440113
 21
4.581500437143461
 31
0.0
  0
LINE
  5
451
330
2
100
AcDbEntity
  8
GAIKEI
 62
     1
100
AcDbLine
 10
-11.88034677447123
 20
4.137539892863458
 30
0.0
 11
-11.8803467744012
 21
4.507390514693327
 31
0.0
  0
LINE
  5
452
330
2
100
AcDbEntity
  8
GAIKEI
 62
     1
100
AcDbLine
 10
-12.4303467742811
 20
4.137539893003406
 30
0.0
 11
-12.23034677449126
 21
4.137539892833444
 31
0.0
  0
LINE
  5
453
330
2
100
AcDbEntity
  8
GAIKEI
 62
     1
100
AcDbLine
 10
-12.43034677440116
 20
4.696775533473385
 30
0.0
 11
-12.4303467742811
 21
4.137539893003406
 31
0.0
  0
LINE
  5
454
330
2
100
AcDbEntity
  8
GAIKEI
 62
     1
100
AcDbLine
 10
-12.23034677440123
 20
4.633116753863475
 30
0.0
 11
-12.43034677440116
 21
4.696775533473385
 31
0.0
  0
LINE
  5
455
330
2
100
AcDbEntity
  8
GAIKEI
 62
     1
100
AcDbLine
 10
-12.23034677449126
 20
4.137539892833444
 30
0.0
 11
-12.23034677440123
 21
4.633116753863475
 31
0.0
  0
LINE
  5
456
330
2
100
AcDbEntity
  8
GAIKEI
 62
     1
100
AcDbLine
 10
-12.78034677440118
 20
4.13753989291348
 30
0.0
 11
-12.58034677447116
 21
4.137539892833444
 31
0.0
  0
LINE
  5
457
330
2
100
AcDbEntity
  8
GAIKEI
 62
     1
100
AcDbLine
 10
-12.78034677440118
 20
4.79433017085347
 30
0.0
 11
-12.78034677440118
 21
4.13753989291348
 31
0.0
  0
LINE
  5
458
330
2
100
AcDbEntity
  8
GAIKEI
 62
     1
100
AcDbLine
 10
-12.58034677440113
 20
4.740718340233286
 30
0.0
 11
-12.78034677440118
 21
4.79433017085347
 31
0.0
  0
LINE
  5
459
330
2
100
AcDbEntity
  8
GAIKEI
 62
     1
100
AcDbLine
 10
-12.58034677447116
 20
4.137539892833444
 30
0.0
 11
-12.58034677440113
 21
4.740718340233286
 31
0.0
  0
LINE
  5
45A
330
2
100
AcDbEntity
  8
GAIKEI
 62
     1
100
AcDbLine
 10
-13.13034677442132
 20
4.907838380103328
 30
0.0
 11
-13.13034677446123
 21
4.137539892853453
 31
0.0
  0
LINE
  5
45B
330
2
100
AcDbEntity
  8
GAIKEI
 62
     1
100
AcDbLine
 10
-12.93034677439115
 20
4.863720394183417
 30
0.0
 11
-13.13034677442132
 21
4.907838380103328
 31
0.0
  0
LINE
  5
45C
330
2
100
AcDbEntity
  8
GAIKEI
 62
     1
100
AcDbLine
 10
-12.93034677446118
 20
4.137539892843449
 30
0.0
 11
-12.93034677439115
 21
4.863720394183417
 31
0.0
  0
LINE
  5
45D
330
2
100
AcDbEntity
  8
GAIKEI
 62
     1
100
AcDbLine
 10
-13.48034677441123
 20
4.972065841743358
 30
0.0
 11
-13.48034677440123
 21
4.13753989291348
 31
0.0
  0
LINE
  5
45E
330
2
100
AcDbEntity
  8
GAIKEI
 62
     1
100
AcDbLine
 10
-13.28034677439118
 20
4.937365431363389
 30
0.0
 11
-13.48034677441123
 21
4.972065841743358
 31
0.0
  0
LINE
  5
45F
330
2
100
AcDbEntity
  8
GAIKEI
 62
     1
100
AcDbLine
 10
-13.28034677440118
 20
4.13753989291348
 30
0.0
 11
-13.28034677439118
 21
4.937365431363389
 31
0.0
  0
LINE
  5
460
330
2
100
AcDbEntity
  8
GAIKEI
 62
     1
100
AcDbLine
 10
-14.18034677440116
 20
5.052346090833395
 30
0.0
 11
-14.18034677440116
 21
4.13753989291348
 31
0.0
  0
LINE
  5
461
330
2
100
AcDbEntity
  8
GAIKEI
 62
     1
100
AcDbLine
 10
-13.83034677441125
 20
5.020148836883379
 30
0.0
 11
-13.83034677440113
 21
4.13753989291348
 31
0.0
  0
LINE
  5
462
330
2
100
AcDbEntity
  8
GAIKEI
 62
     1
100
AcDbLine
 10
-13.6303467744012
 20
4.994631260763469
 30
0.0
 11
-13.83034677441125
 21
5.020148836883379
 31
0.0
  0
LINE
  5
463
330
2
100
AcDbEntity
  8
GAIKEI
 62
     1
100
AcDbLine
 10
-13.6303467744012
 20
4.13753989291348
 30
0.0
 11
-13.6303467744012
 21
4.994631260763469
 31
0.0
  0
LINE
  5
464
330
2
100
AcDbEntity
  8
GAIKEI
 62
     1
100
AcDbLine
 10
-13.13034677446123
 20
4.137539892853453
 30
0.0
 11
-12.93034677446118
 21
4.137539892843449
 31
0.0
  0
LINE
  5
465
330
2
100
AcDbEntity
  8
GAIKEI
 62
     1
100
AcDbLine
 10
-13.48034677441123
 20
4.137539892903475
 30
0.0
 11
-13.2803467744113
 21
4.137539892893471
 31
0.0
  0
LINE
  5
466
330
2
100
AcDbEntity
  8
GAIKEI
 62
     1
100
AcDbLine
 10
-13.83034677440113
 20
4.13753989291348
 30
0.0
 11
-13.6303467744012
 21
4.137539892903475
 31
0.0
  0
LINE
  5
467
330
2
100
AcDbEntity
  8
GAIKEI
 62
     1
100
AcDbLine
 10
-14.18034677440116
 20
4.13753989291348
 30
0.0
 11
-13.98034677440122
 21
4.137539892903475
 31
0.0
  0
LINE
  5
468
330
2
100
AcDbEntity
  8
GAIKEI
 62
     1
100
AcDbLine
 10
-13.98034677440122
 20
5.035882453003466
 30
0.0
 11
-14.18034677440116
 21
5.052346090833395
 31
0.0
  0
LINE
  5
469
330
2
100
AcDbEntity
  8
GAIKEI
 62
     1
100
AcDbLine
 10
-13.98034677440122
 20
4.13753989291348
 30
0.0
 11
-13.98034677440122
 21
5.035882453003466
 31
0.0
  0
ARC
  5
46A
330
2
100
AcDbEntity
  8
GAIKEI
 62
     1
100
AcDbCircle
 10
-14.72302691758872
 20
-2.853447572656421
 30
0.0
 40
7.990987802307673
100
AcDbArc
 50
61.02824575226486
 51
90.01663349054242
  0
LINE
  5
46B
330
2
100
AcDbEntity
  8
GAIKEI
 62
     1
100
AcDbLine
 10
-35.18034677440105
 20
4.137539892903475
 30
0.0
 11
-35.18034677440105
 21
5.061326204513363
 31
0.0
  0
LINE
  5
46C
330
2
100
AcDbEntity
  8
GAIKEI
 62
     1
100
AcDbLine
 10
-35.18034677440105
 20
5.061326204513363
 30
0.0
 11
-34.980346774401
 21
5.068833351553337
 31
0.0
  0
LINE
  5
46D
330
2
100
AcDbEntity
  8
GAIKEI
 62
     1
100
AcDbLine
 10
-34.980346774401
 20
5.068833351553337
 30
0.0
 11
-34.980346774401
 21
4.13753989291348
 31
0.0
  0
LINE
  5
46E
330
2
100
AcDbEntity
  8
GAIKEI
 62
     1
100
AcDbLine
 10
-34.980346774401
 20
4.13753989291348
 30
0.0
 11
-35.18034677440105
 21
4.137539892903475
 31
0.0
  0
LINE
  5
46F
330
2
100
AcDbEntity
  8
GAIKEI
 62
     1
100
AcDbLine
 10
-14.53034677440118
 20
4.13753989291348
 30
0.0
 11
-14.33034677440113
 21
4.137539892903475
 31
0.0
  0
LINE
  5
470
330
2
100
AcDbEntity
  8
GAIKEI
 62
     1
100
AcDbLine
 10
-14.53034677440118
 20
5.068833351553337
 30
0.0
 11
-14.53034677440118
 21
4.13753989291348
 31
0.0
  0
LINE
  5
471
330
2
100
AcDbEntity
  8
GAIKEI
 62
     1
100
AcDbLine
 10
-14.33034677440125
 20
5.061326204513363
 30
0.0
 11
-14.53034677440118
 21
5.068833351553337
 31
0.0
  0
LINE
  5
472
330
2
100
AcDbEntity
  8
GAIKEI
 62
     1
100
AcDbLine
 10
-14.33034677440113
 20
4.137539892903475
 30
0.0
 11
-14.33034677440125
 21
5.061326204513363
 31
0.0
  0
TEXT
  5
473
330
2
100
AcDbEntity
  8
MOJI1
100
AcDbText
 10
-55.53557895455478
 20
-38.61496201803902
 30
0.0
 40
3.0
  1
ネットワーク
100
AcDbText
  0
LINE
  5
474
330
2
100
AcDbEntity
  8
WAKU
 62
     1
100
AcDbLine
 10
-58.03557895455478
 20
-44.61496201803902
 30
0.0
 11
66.96442104544522
 21
-44.61496201803908
 31
0.0
  0
LINE
  5
476
330
2
100
AcDbEntity
  8
WAKU
 62
     1
100
AcDbLine
 10
-58.03557895455478
 20
-29.61496201803902
 30
0.0
 11
66.96442104544522
 21
-29.61496201803908
 31
0.0
  0
TEXT
  5
477
330
2
100
AcDbEntity
  8
MOJI1
100
AcDbText
 10
-15.53557895455478
 20
-43.61496201803902
 30
0.0
 40
3.0
  1
１０ＢＡＳＥ－Ｔ／１００ＢＡＳＥ－Ｔｘ （ＲＪ－４５）
 41
0.85
100
AcDbText
  0
TEXT
  5
478
330
2
100
AcDbEntity
  8
MOJI1
100
AcDbText
 10
-15.53557895455478
 20
-38.61496201803902
 30
0.0
 40
3.0
  1
ポート×２（カメラ　ＰＣ用）
100
AcDbText
  0
LINE
  5
479
330
2
100
AcDbEntity
  8
WAKU
 62
     1
100
AcDbLine
 10
-58.03557895455478
 20
-34.61496201803908
 30
0.0
 11
66.96442104544522
 21
-34.61496201803908
 31
0.0
  0
LINE
  5
47A
330
2
100
AcDbEntity
  8
WAKU
 62
     4
100
AcDbLine
 10
-58.03557895455478
 20
-59.61496201803908
 30
0.0
 11
66.96442104544522
 21
-59.61496201803908
 31
0.0
  0
LINE
  5
47B
330
2
100
AcDbEntity
  8
WAKU
 62
     4
100
AcDbLine
 10
66.96442104544522
 20
-14.61496201803908
 30
0.0
 11
-58.03557895455478
 21
-14.61496201803908
 31
0.0
  0
LINE
  5
47C
330
2
100
AcDbEntity
  8
WAKU
 62
     1
100
AcDbLine
 10
-58.03557895455478
 20
-39.61496201803908
 30
0.0
 11
66.96442104544522
 21
-39.61496201803908
 31
0.0
  0
LINE
  5
47D
330
2
100
AcDbEntity
  8
WAKU
 62
     1
100
AcDbLine
 10
-58.03557895455478
 20
-24.61496201803908
 30
0.0
 11
66.96442104544522
 21
-24.61496201803908
 31
0.0
  0
LINE
  5
47E
330
2
100
AcDbEntity
  8
WAKU
 62
     1
100
AcDbLine
 10
-58.03557895455478
 20
-19.61496201803908
 30
0.0
 11
66.96442104544522
 21
-19.61496201803908
 31
0.0
  0
LINE
  5
47F
330
2
100
AcDbEntity
  8
WAKU
 62
     4
100
AcDbLine
 10
-58.03557895455478
 20
-14.61496201803908
 30
0.0
 11
-58.03557895455478
 21
-59.61496201803908
 31
0.0
  0
TEXT
  5
480
330
2
100
AcDbEntity
  8
MOJI1
100
AcDbText
 10
-15.53557895455478
 20
-18.61496201803902
 30
0.0
 40
3.0
  1
ＡＣ１００Ｖ　５０／６０Ｈｚ
100
AcDbText
  0
TEXT
  5
481
330
2
100
AcDbEntity
  8
MOJI1
100
AcDbText
 10
-15.53557895455478
 20
-33.61496201803902
 30
0.0
 40
3.0
  1
１０００ＧＢ（２５０ＧＢ×４） 実記録容量：７５０ＧＢ
 41
0.85
100
AcDbText
  0
TEXT
  5
482
330
2
100
AcDbEntity
  8
MOJI1
100
AcDbText
 10
-15.53557895455478
 20
-28.61496201803902
 30
0.0
 40
3.0
  1
ＪＰＥＧ、ＭＰＥＧ－４カメラ対応
100
AcDbText
  0
TEXT
  5
483
330
2
100
AcDbEntity
  8
MOJI1
100
AcDbText
 10
-15.53557895455478
 20
-23.61496201803902
 30
0.0
 40
3.0
  1
最大３２台
100
AcDbText
  0
TEXT
  5
484
330
2
100
AcDbEntity
  8
MOJI1
100
AcDbText
 10
-55.53557895455478
 20
-33.61496201803902
 30
0.0
 40
3.0
  1
内蔵ハードディスク
100
AcDbText
  0
TEXT
  5
485
330
2
100
AcDbEntity
  8
MOJI1
100
AcDbText
 10
-55.53557895455478
 20
-18.61496201803902
 30
0.0
 40
3.0
  1
電　源
100
AcDbText
  0
TEXT
  5
486
330
2
100
AcDbEntity
  8
MOJI1
100
AcDbText
 10
-55.53557895455478
 20
-28.61496201803902
 30
0.0
 40
3.0
  1
カメラの画像圧縮方式
100
AcDbText
  0
TEXT
  5
487
330
2
100
AcDbEntity
  8
MOJI1
100
AcDbText
 10
-55.53557895455478
 20
-23.61496201803902
 30
0.0
 40
3.0
  1
カメラ接続台数
100
AcDbText
  0
LINE
  5
488
330
2
100
AcDbEntity
  8
WAKU
 62
     4
100
AcDbLine
 10
-18.03557895455478
 20
-59.61496201803908
 30
0.0
 11
-18.03557895455478
 21
-14.61496201803908
 31
0.0
  0
LINE
  5
489
330
2
100
AcDbEntity
  8
WAKU
 62
     4
100
AcDbLine
 10
66.96442104544522
 20
-59.61496201803908
 30
0.0
 11
66.96442104544522
 21
-14.61496201803908
 31
0.0
  0
LINE
  5
48A
330
2
100
AcDbEntity
  8
WAKU
 62
     1
100
AcDbLine
 10
-58.03557895455478
 20
-49.61496201803902
 30
0.0
 11
66.96442104544522
 21
-49.61496201803908
 31
0.0
  0
LINE
  5
48B
330
2
100
AcDbEntity
  8
WAKU
 62
     1
100
AcDbLine
 10
-58.03557895455478
 20
-54.61496201803902
 30
0.0
 11
66.96442104544522
 21
-54.61496201803908
 31
0.0
  0
TEXT
  5
48C
330
2
100
AcDbEntity
  8
MOJI1
100
AcDbText
 10
-55.53557895455478
 20
-48.61496201803902
 30
0.0
 40
3.0
  1
増設端子
100
AcDbText
  0
TEXT
  5
48D
330
2
100
AcDbEntity
  8
MOJI1
100
AcDbText
 10
-55.53557895455478
 20
-53.61496201803902
 30
0.0
 40
3.0
  1
機　能
100
AcDbText
  0
TEXT
  5
48E
330
2
100
AcDbEntity
  8
MOJI1
100
AcDbText
 10
-15.53557895455478
 20
-48.61496201803908
 30
0.0
 40
3.0
  1
高速シリアルインターフェース(増設ＨＤＤ用)
100
AcDbText
  0
TEXT
  5
48F
330
2
100
AcDbEntity
  8
MOJI1
100
AcDbText
 10
-15.53557895455478
 20
-53.61496201803908
 30
0.0
 40
3.0
  1
アラーム入力（１６）、マルチレコーディング
100
AcDbText
  0
TEXT
  5
490
330
2
100
AcDbEntity
  8
MOJI1
100
AcDbText
 10
-15.53557895455478
 20
-58.61496201803908
 30
0.0
 40
3.0
  1
ユーザー及びホスト認証、スケジュール録画
100
AcDbText
  0
ENDSEC
  0
SECTION
  2
OBJECTS
  0
DICTIONARY
  5
9
330
0
100
AcDbDictionary
281
     1
  3
ACAD_COLOR
350
2A
  3
ACAD_GROUP
350
26
  3
ACAD_LAYOUT
350
D
  3
ACAD_MATERIAL
350
29
  3
ACAD_MLINESTYLE
350
27
  3
ACAD_PLOTSETTINGS
350
28
  3
ACAD_PLOTSTYLENAME
350
8
  3
ACDBHEADERROUNDTRIPXREC
350
4CD
  3
AcDbVariableDictionary
350
4C8
  0
DICTIONARY
  5
15
330
14
100
AcDbDictionary
280
     1
281
     1
  3
ACAD_LAYERFILTERS
360
16
  3
ACAD_LAYERSTATES
360
17
  0
DICTIONARY
  5
3
330
2
100
AcDbDictionary
280
     1
281
     1
  3
ACAD_LAYOUTSELFREF
360
4
  0
DICTIONARY
  5
F
330
E
100
AcDbDictionary
280
     1
281
     1
  3
ACAD_LAYOUTSELFREF
360
10
  0
DICTIONARY
  5
2A
102
{ACAD_REACTORS
330
9
102
}
330
9
100
AcDbDictionary
281
     1
  0
DICTIONARY
  5
26
102
{ACAD_REACTORS
330
9
102
}
330
9
100
AcDbDictionary
281
     1
  0
DICTIONARY
  5
D
102
{ACAD_REACTORS
330
9
102
}
330
9
100
AcDbDictionary
281
     1
  3
Model
350
C
  3
ﾚｲｱｳﾄ1
350
13
  0
DICTIONARY
  5
29
102
{ACAD_REACTORS
330
9
102
}
330
9
100
AcDbDictionary
281
     1
  0
DICTIONARY
  5
27
102
{ACAD_REACTORS
330
9
102
}
330
9
100
AcDbDictionary
281
     1
  3
STANDARD
350
32
  0
DICTIONARY
  5
28
102
{ACAD_REACTORS
330
9
102
}
330
9
100
AcDbDictionary
281
     1
  0
ACDBDICTIONARYWDFLT
  5
8
102
{ACAD_REACTORS
330
9
102
}
330
9
100
AcDbDictionary
281
     1
  3
Normal
350
7
100
AcDbDictionaryWithDefault
340
7
  0
DICTIONARY
  5
4CD
102
{ACAD_REACTORS
330
9
102
}
330
9
100
AcDbDictionary
281
     1
  3
COLORDICT
350
4CF
  3
MATERIALDICT
350
4CE
  0
DICTIONARY
  5
4C8
102
{ACAD_REACTORS
330
9
102
}
330
9
100
AcDbDictionary
281
     1
  3
DIMASSOC
350
4CA
  3
HIDETEXT
350
4C9
  3
PROJECTNAME
350
4CB
  0
DICTIONARY
  5
16
102
{ACAD_REACTORS
330
15
102
}
330
15
100
AcDbDictionary
280
     1
281
     1
  0
DICTIONARY
  5
17
102
{ACAD_REACTORS
330
15
102
}
330
15
100
AcDbDictionary
281
     1
  0
XRECORD
  5
4
102
{ACAD_REACTORS
330
3
102
}
330
3
100
AcDbXrecord
280
     1
340
2
  0
XRECORD
  5
10
102
{ACAD_REACTORS
330
F
102
}
330
F
100
AcDbXrecord
280
     1
340
E
  0
LAYOUT
  5
C
102
{ACAD_XDICTIONARY
360
4D0
102
}
102
{ACAD_REACTORS
330
D
102
}
330
D
100
AcDbPlotSettings
  1

  2
FX78BC34-A4縦.pc3
  4
A4
  6

 40
4.900083065032958
 41
4.900057315826416
 42
4.90008544921875
 43
4.90008544921875
 44
210.0156707763672
 45
297.0106506347656
 46
5.769999999999999
 47
0.0
 48
0.0
 49
0.0
140
0.0
141
0.0
142
1.0
143
1.372949704875683
 70
 11956
 72
     1
 73
     0
 74
     1
  7
tmsacad.ctb
 75
     0
147
0.7283588003615522
148
0.5503903123740202
149
0.1116542191393819
100
AcDbLayout
  1
Model
 70
     1
 71
     0
 10
0.0
 20
0.0
 11
12.0
 21
9.0
 12
0.0
 22
0.0
 32
0.0
 14
0.0
 24
0.0
 34
0.0
 15
0.0
 25
0.0
 35
0.0
146
0.0
 13
0.0
 23
0.0
 33
0.0
 16
1.0
 26
0.0
 36
0.0
 17
0.0
 27
1.0
 37
0.0
 76
     0
330
2
  0
LAYOUT
  5
13
102
{ACAD_XDICTIONARY
360
4D2
102
}
102
{ACAD_REACTORS
330
D
102
}
330
D
100
AcDbPlotSettings
  1

  2
C:\Program Files\ACAD2000\plotters\DWF ePlot.pc3
  4

  6

 40
0.0
 41
0.0
 42
0.0
 43
0.0
 44
0.0
 45
0.0
 46
0.0
 47
0.0
 48
0.0
 49
0.0
140
0.0
141
0.0
142
1.0
143
1.0
 70
   688
 72
     0
 73
     0
 74
     5
  7
tmsacad.ctb
 75
    16
147
1.0
148
0.0
149
0.0
100
AcDbLayout
  1
ﾚｲｱｳﾄ1
 70
     1
 71
     1
 10
0.0
 20
0.0
 11
12.0
 21
9.0
 12
0.0
 22
0.0
 32
0.0
 14
1.000000000000000E+20
 24
1.000000000000000E+20
 34
1.000000000000000E+20
 15
-1.000000000000000E+20
 25
-1.000000000000000E+20
 35
-1.000000000000000E+20
146
0.0
 13
0.0
 23
0.0
 33
0.0
 16
1.0
 26
0.0
 36
0.0
 17
0.0
 27
1.0
 37
0.0
 76
     0
330
E
  0
MLINESTYLE
  5
32
102
{ACAD_REACTORS
330
27
102
}
330
27
100
AcDbMlineStyle
  2
STANDARD
 70
     0
  3

 62
   256
 51
90.0
 52
90.0
 71
     2
 49
0.5
 62
   256
  6
BYLAYER
 49
-0.5
 62
   256
  6
BYLAYER
  0
ACDBPLACEHOLDER
  5
7
102
{ACAD_REACTORS
330
8
102
}
330
8
  0
XRECORD
  5
4CF
102
{ACAD_REACTORS
330
4CD
102
}
330
4CD
100
AcDbXrecord
280
     1
340
2A
  0
XRECORD
  5
4CE
102
{ACAD_REACTORS
330
4CD
102
}
330
4CD
100
AcDbXrecord
280
     1
340
29
  0
DICTIONARYVAR
  5
4CA
102
{ACAD_REACTORS
330
4C8
102
}
330
4C8
100
DictionaryVariables
280
     0
  1
1
  0
DICTIONARYVAR
  5
4C9
102
{ACAD_REACTORS
330
4C8
102
}
330
4C8
100
DictionaryVariables
280
     0
  1
1
  0
DICTIONARYVAR
  5
4CB
102
{ACAD_REACTORS
330
4C8
102
}
330
4C8
100
DictionaryVariables
280
     0
  1

  0
DICTIONARY
  5
4D0
330
C
100
AcDbDictionary
280
     1
281
     1
  3
ACAD_XREC_ROUNDTRIP
360
4D1
  0
DICTIONARY
  5
4D2
330
13
100
AcDbDictionary
280
     1
281
     1
  3
ACAD_XREC_ROUNDTRIP
360
4D3
  0
XRECORD
  5
4D1
102
{ACAD_REACTORS
330
4D0
102
}
330
4D0
100
AcDbXrecord
280
     1
102
SHADEPLOT
 70
     0
102
SHADEPLOTRESLEVEL
 70
     2
102
SHADEPLOTCUSTOMDPI
 70
   300
  0
XRECORD
  5
4D3
102
{ACAD_REACTORS
330
4D2
102
}
330
4D2
100
AcDbXrecord
280
     1
102
SHADEPLOT
 70
     0
102
SHADEPLOTRESLEVEL
 70
     2
102
SHADEPLOTCUSTOMDPI
 70
   300
  0
ENDSEC
  0
EOF
