  0
SECTION
  2
HEADER
  9
$ACADVER
  1
AC1015
  9
$ACADMAINTVER
 70
    20
  9
$DWGCODEPAGE
  3
ANSI_932
  9
$INSBASE
 10
129.499999944041
 20
372.5008351249344
 30
0.0
  9
$EXTMIN
 10
-60.51086335036768
 20
-68.93865905671692
 30
-0.0015258207003583
  9
$EXTMAX
 10
64.52270564218372
 20
44.08593789707629
 30
0.0000000349246037
  9
$LIMMIN
 10
0.0
 20
0.0
  9
$LIMMAX
 10
420.0
 20
297.0
  9
$ORTHOMODE
 70
     1
  9
$REGENMODE
 70
     0
  9
$FILLMODE
 70
     1
  9
$QTEXTMODE
 70
     0
  9
$MIRRTEXT
 70
     0
  9
$LTSCALE
 40
1.0
  9
$ATTMODE
 70
     1
  9
$TEXTSIZE
 40
2.5
  9
$TRACEWID
 40
1.0
  9
$TEXTSTYLE
  7
Standard
  9
$CLAYER
  8
0
  9
$CELTYPE
  6
ByLayer
  9
$CECOLOR
 62
   256
  9
$CELTSCALE
 40
1.0
  9
$DISPSILH
 70
     0
  9
$DIMSCALE
 40
1.0
  9
$DIMASZ
 40
2.0
  9
$DIMEXO
 40
2.0
  9
$DIMDLI
 40
8.0
  9
$DIMRND
 40
0.0
  9
$DIMDLE
 40
0.0
  9
$DIMEXE
 40
2.0
  9
$DIMTP
 40
0.0
  9
$DIMTM
 40
0.0
  9
$DIMTXT
 40
2.5
  9
$DIMCEN
 40
0.0
  9
$DIMTSZ
 40
0.0
  9
$DIMTOL
 70
     0
  9
$DIMLIM
 70
     0
  9
$DIMTIH
 70
     0
  9
$DIMTOH
 70
     0
  9
$DIMSE1
 70
     0
  9
$DIMSE2
 70
     0
  9
$DIMTAD
 70
     3
  9
$DIMZIN
 70
     0
  9
$DIMBLK
  1

  9
$DIMASO
 70
     1
  9
$DIMSHO
 70
     1
  9
$DIMPOST
  1

  9
$DIMAPOST
  1

  9
$DIMALT
 70
     0
  9
$DIMALTD
 70
     2
  9
$DIMALTF
 40
25.4
  9
$DIMLFAC
 40
1.0
  9
$DIMTOFL
 70
     1
  9
$DIMTVP
 40
0.0
  9
$DIMTIX
 70
     0
  9
$DIMSOXD
 70
     0
  9
$DIMSAH
 70
     1
  9
$DIMBLK1
  1
OPEN30
  9
$DIMBLK2
  1
OPEN30
  9
$DIMSTYLE
  2
STANDARD
  9
$DIMCLRD
 70
     0
  9
$DIMCLRE
 70
     0
  9
$DIMCLRT
 70
     0
  9
$DIMTFAC
 40
1.0
  9
$DIMGAP
 40
0.5
  9
$DIMJUST
 70
     0
  9
$DIMSD1
 70
     0
  9
$DIMSD2
 70
     0
  9
$DIMTOLJ
 70
     1
  9
$DIMTZIN
 70
     0
  9
$DIMALTZ
 70
     0
  9
$DIMALTTZ
 70
     0
  9
$DIMUPT
 70
     0
  9
$DIMDEC
 70
     4
  9
$DIMTDEC
 70
     4
  9
$DIMALTU
 70
     2
  9
$DIMALTTD
 70
     2
  9
$DIMTXSTY
  7
Standard
  9
$DIMAUNIT
 70
     0
  9
$DIMADEC
 70
     0
  9
$DIMALTRND
 40
0.0
  9
$DIMAZIN
 70
     0
  9
$DIMDSEP
 70
    46
  9
$DIMATFIT
 70
     3
  9
$DIMFRAC
 70
     0
  9
$DIMLDRBLK
  1
OPEN30
  9
$DIMLUNIT
 70
     2
  9
$DIMLWD
 70
    -2
  9
$DIMLWE
 70
    -2
  9
$DIMTMOVE
 70
     0
  9
$LUNITS
 70
     2
  9
$LUPREC
 70
     4
  9
$SKETCHINC
 40
1.0
  9
$FILLETRAD
 40
0.0
  9
$AUNITS
 70
     0
  9
$AUPREC
 70
     0
  9
$MENU
  1
.
  9
$ELEVATION
 40
0.0
  9
$PELEVATION
 40
0.0
  9
$THICKNESS
 40
0.0
  9
$LIMCHECK
 70
     0
  9
$CHAMFERA
 40
0.0
  9
$CHAMFERB
 40
0.0
  9
$CHAMFERC
 40
0.0
  9
$CHAMFERD
 40
0.0
  9
$SKPOLY
 70
     0
  9
$TDCREATE
 40
2454349.434269746
  9
$TDUCREATE
 40
2454349.059269746
  9
$TDUPDATE
 40
2454799.450829097
  9
$TDUUPDATE
 40
2454799.075829097
  9
$TDINDWG
 40
0.2313751157
  9
$TDUSRTIMER
 40
0.2313751157
  9
$USRTIMER
 70
     1
  9
$ANGBASE
 50
0.0
  9
$ANGDIR
 70
     0
  9
$PDMODE
 70
     0
  9
$PDSIZE
 40
0.0
  9
$PLINEWID
 40
0.0
  9
$SPLFRAME
 70
     0
  9
$SPLINETYPE
 70
     6
  9
$SPLINESEGS
 70
     8
  9
$HANDSEED
  5
5BC
  9
$SURFTAB1
 70
     6
  9
$SURFTAB2
 70
     6
  9
$SURFTYPE
 70
     6
  9
$SURFU
 70
     6
  9
$SURFV
 70
     6
  9
$UCSBASE
  2

  9
$UCSNAME
  2

  9
$UCSORG
 10
0.0
 20
0.0
 30
0.0
  9
$UCSXDIR
 10
1.0
 20
0.0
 30
0.0
  9
$UCSYDIR
 10
0.0
 20
1.0
 30
0.0
  9
$UCSORTHOREF
  2

  9
$UCSORTHOVIEW
 70
     0
  9
$UCSORGTOP
 10
0.0
 20
0.0
 30
0.0
  9
$UCSORGBOTTOM
 10
0.0
 20
0.0
 30
0.0
  9
$UCSORGLEFT
 10
0.0
 20
0.0
 30
0.0
  9
$UCSORGRIGHT
 10
0.0
 20
0.0
 30
0.0
  9
$UCSORGFRONT
 10
0.0
 20
0.0
 30
0.0
  9
$UCSORGBACK
 10
0.0
 20
0.0
 30
0.0
  9
$PUCSBASE
  2

  9
$PUCSNAME
  2

  9
$PUCSORG
 10
0.0
 20
0.0
 30
0.0
  9
$PUCSXDIR
 10
1.0
 20
0.0
 30
0.0
  9
$PUCSYDIR
 10
0.0
 20
1.0
 30
0.0
  9
$PUCSORTHOREF
  2

  9
$PUCSORTHOVIEW
 70
     0
  9
$PUCSORGTOP
 10
0.0
 20
0.0
 30
0.0
  9
$PUCSORGBOTTOM
 10
0.0
 20
0.0
 30
0.0
  9
$PUCSORGLEFT
 10
0.0
 20
0.0
 30
0.0
  9
$PUCSORGRIGHT
 10
0.0
 20
0.0
 30
0.0
  9
$PUCSORGFRONT
 10
0.0
 20
0.0
 30
0.0
  9
$PUCSORGBACK
 10
0.0
 20
0.0
 30
0.0
  9
$USERI1
 70
     0
  9
$USERI2
 70
     0
  9
$USERI3
 70
     0
  9
$USERI4
 70
     0
  9
$USERI5
 70
     0
  9
$USERR1
 40
0.0
  9
$USERR2
 40
0.0
  9
$USERR3
 40
0.0
  9
$USERR4
 40
0.0
  9
$USERR5
 40
0.0
  9
$WORLDVIEW
 70
     1
  9
$SHADEDGE
 70
     3
  9
$SHADEDIF
 70
    70
  9
$TILEMODE
 70
     1
  9
$MAXACTVP
 70
    64
  9
$PINSBASE
 10
0.0
 20
0.0
 30
0.0
  9
$PLIMCHECK
 70
     0
  9
$PEXTMIN
 10
0.0
 20
0.0
 30
0.0
  9
$PEXTMAX
 10
0.0
 20
0.0
 30
0.0
  9
$PLIMMIN
 10
0.0
 20
0.0
  9
$PLIMMAX
 10
12.0
 20
9.0
  9
$UNITMODE
 70
     0
  9
$VISRETAIN
 70
     1
  9
$PLINEGEN
 70
     0
  9
$PSLTSCALE
 70
     1
  9
$TREEDEPTH
 70
  3020
  9
$CMLSTYLE
  2
Standard
  9
$CMLJUST
 70
     0
  9
$CMLSCALE
 40
20.0
  9
$PROXYGRAPHICS
 70
     1
  9
$MEASUREMENT
 70
     1
  9
$CELWEIGHT
370
    -1
  9
$ENDCAPS
280
     0
  9
$JOINSTYLE
280
     0
  9
$LWDISPLAY
290
     0
  9
$INSUNITS
 70
     4
  9
$HYPERLINKBASE
  1

  9
$STYLESHEET
  1

  9
$XEDIT
290
     1
  9
$CEPSNTYPE
380
     0
  9
$PSTYLEMODE
290
     1
  9
$FINGERPRINTGUID
  2
{FDEAD578-A652-11D2-9A35-0060089B3A3F}
  9
$VERSIONGUID
  2
{91CAFCAC-81B0-49D6-925A-7B926CB80750}
  9
$EXTNAMES
290
     1
  9
$PSVPSCALE
 40
0.0
  9
$OLESTARTUP
290
     0
  0
ENDSEC
  0
SECTION
  2
CLASSES
  0
CLASS
  1
ACDBDICTIONARYWDFLT
  2
AcDbDictionaryWithDefault
  3
ObjectDBX Classes
 90
        0
280
     0
281
     0
  0
CLASS
  1
ACDBPLACEHOLDER
  2
AcDbPlaceHolder
  3
ObjectDBX Classes
 90
        0
280
     0
281
     0
  0
CLASS
  1
LAYOUT
  2
AcDbLayout
  3
ObjectDBX Classes
 90
        0
280
     0
281
     0
  0
CLASS
  1
DICTIONARYVAR
  2
AcDbDictionaryVar
  3
ObjectDBX Classes
 90
        0
280
     0
281
     0
  0
ENDSEC
  0
SECTION
  2
TABLES
  0
TABLE
  2
VPORT
  5
1B
330
0
100
AcDbSymbolTable
 70
     3
  0
VPORT
  5
5B4
330
1B
100
AcDbSymbolTableRecord
100
AcDbViewportTableRecord
  2
*Active
 70
     0
 10
0.0
 20
0.0
 11
1.0
 21
1.0
 12
2.005921145908031
 22
-12.42636057982031
 13
0.0
 23
0.0
 14
10.0
 24
10.0
 15
10.0
 25
10.0
 16
0.0
 26
0.0
 36
1.0
 17
0.0
 27
0.0
 37
0.0
 40
113.8973737642472
 41
1.381443298969072
 42
50.0
 43
0.0
 44
0.0
 50
0.0
 51
0.0
 71
     0
 72
  1000
 73
     1
 74
     2
 75
     0
 76
     0
 77
     0
 78
     0
281
     0
 65
     1
110
0.0
120
0.0
130
0.0
111
1.0
121
0.0
131
0.0
112
0.0
122
1.0
132
0.0
 79
     0
146
0.0
  0
ENDTAB
  0
TABLE
  2
LTYPE
  5
16
330
0
100
AcDbSymbolTable
 70
     2
  0
LTYPE
  5
17
330
16
100
AcDbSymbolTableRecord
100
AcDbLinetypeTableRecord
  2
ByBlock
 70
     0
  3

 72
    65
 73
     0
 40
0.0
  0
LTYPE
  5
18
330
16
100
AcDbSymbolTableRecord
100
AcDbLinetypeTableRecord
  2
ByLayer
 70
     0
  3

 72
    65
 73
     0
 40
0.0
  0
LTYPE
  5
8
330
16
100
AcDbSymbolTableRecord
100
AcDbLinetypeTableRecord
  2
Continuous
 70
     0
  3
Solid line
 72
    65
 73
     0
 40
0.0
  0
LTYPE
  5
5B
330
16
100
AcDbSymbolTableRecord
100
AcDbLinetypeTableRecord
  2
HIDDEN2
 70
     0
  3
Hidden (.5x) _ _ _ _ _ _ _ _ _ _ _ _ _ _ _ _ _
 72
    65
 73
     2
 40
1.399999999999999
 49
0.7
 74
     0
 49
-0.7
 74
     0
  0
ENDTAB
  0
TABLE
  2
LAYER
  5
10
102
{ACAD_XDICTIONARY
360
11
102
}
330
0
100
AcDbSymbolTable
 70
     7
  0
LAYER
  5
4
330
10
100
AcDbSymbolTableRecord
100
AcDbLayerTableRecord
  2
0
 70
     0
 62
     7
  6
Continuous
370
    -3
390
5
  0
LAYER
  5
551
330
10
100
AcDbSymbolTableRecord
100
AcDbLayerTableRecord
  2
WAKU
 70
     0
 62
     4
  6
Continuous
370
    -3
390
5
  0
LAYER
  5
2F
330
10
100
AcDbSymbolTableRecord
100
AcDbLayerTableRecord
  2
MOJI1
 70
     0
 62
     2
  6
Continuous
370
    -3
390
5
  0
LAYER
  5
71
330
10
100
AcDbSymbolTableRecord
100
AcDbLayerTableRecord
  2
TOUROKU
 70
     0
 62
     1
  6
Continuous
370
    -3
390
5
  0
LAYER
  5
3B
330
10
100
AcDbSymbolTableRecord
100
AcDbLayerTableRecord
  2
DEFPOINTS
 70
     0
 62
     7
  6
Continuous
290
     0
370
    -3
390
5
  0
LAYER
  5
5A
330
10
100
AcDbSymbolTableRecord
100
AcDbLayerTableRecord
  2
GAIKEI
 70
     0
 62
     7
  6
Continuous
370
    -3
390
5
  0
LAYER
  5
31
330
10
100
AcDbSymbolTableRecord
100
AcDbLayerTableRecord
  2
SUNPO
 70
     0
 62
     3
  6
Continuous
370
    -3
390
5
  0
ENDTAB
  0
TABLE
  2
STYLE
  5
13
330
0
100
AcDbSymbolTable
 70
     2
  0
STYLE
  5
14
330
13
100
AcDbSymbolTableRecord
100
AcDbTextStyleTableRecord
  2
Standard
 70
     0
 40
0.0
 41
1.0
 50
0.0
 71
     0
 42
2.5
  3
MONOTXT.shx
  4
BIGFONT.shx
  0
STYLE
  5
553
330
13
100
AcDbSymbolTableRecord
100
AcDbTextStyleTableRecord
  2
KANJI
 70
     0
 40
0.0
 41
1.0
 50
0.0
 71
     0
 42
3.5
  3
MONOTXT
  4
BIGFONT
  0
ENDTAB
  0
TABLE
  2
VIEW
  5
19
330
0
100
AcDbSymbolTable
 70
     0
  0
ENDTAB
  0
TABLE
  2
UCS
  5
1A
330
0
100
AcDbSymbolTable
 70
     0
  0
ENDTAB
  0
TABLE
  2
APPID
  5
1D
330
0
100
AcDbSymbolTable
 70
     1
  0
APPID
  5
1E
330
1D
100
AcDbSymbolTableRecord
100
AcDbRegAppTableRecord
  2
ACAD
 70
     0
  0
ENDTAB
  0
TABLE
  2
DIMSTYLE
  5
1F
330
0
100
AcDbSymbolTable
 70
     1
100
AcDbDimStyleTable
 71
     1
340
20
  0
DIMSTYLE
105
20
102
{ACAD_REACTORS
330
4C
330
3F
330
30
102
}
330
1F
100
AcDbSymbolTableRecord
100
AcDbDimStyleTableRecord
  2
STANDARD
 70
     0
 40
0.0
 41
2.0
 42
2.0
 43
8.0
 44
2.0
 73
     0
 74
     0
 77
     3
140
3.0
141
0.0
173
     1
279
     2
288
     1
340
14
341
21
343
21
344
21
  0
ENDTAB
  0
TABLE
  2
BLOCK_RECORD
  5
1
330
0
100
AcDbSymbolTable
 70
     7
  0
BLOCK_RECORD
  5
2
330
1
100
AcDbSymbolTableRecord
100
AcDbBlockTableRecord
  2
*Model_Space
340
A
  0
BLOCK_RECORD
  5
C
330
1
100
AcDbSymbolTableRecord
100
AcDbBlockTableRecord
  2
*Paper_Space
340
F
  0
BLOCK_RECORD
  5
21
330
1
100
AcDbSymbolTableRecord
100
AcDbBlockTableRecord
  2
_OPEN30
340
0
102
{BLKREFS
331
45
331
46
331
52
331
53
331
37
331
38
331
590
331
591
331
59C
331
59D
331
5A8
331
5A9
102
}
  0
BLOCK_RECORD
  5
4D
330
1
100
AcDbSymbolTableRecord
100
AcDbBlockTableRecord
  2
*D1
340
0
  0
BLOCK_RECORD
  5
40
330
1
100
AcDbSymbolTableRecord
100
AcDbBlockTableRecord
  2
*D2
340
0
  0
BLOCK_RECORD
  5
32
330
1
100
AcDbSymbolTableRecord
100
AcDbBlockTableRecord
  2
*D3
340
0
  0
BLOCK_RECORD
  5
58C
330
1
100
AcDbSymbolTableRecord
100
AcDbBlockTableRecord
  2
*D4
340
0
  0
BLOCK_RECORD
  5
598
330
1
100
AcDbSymbolTableRecord
100
AcDbBlockTableRecord
  2
*D5
340
0
  0
BLOCK_RECORD
  5
5A4
330
1
100
AcDbSymbolTableRecord
100
AcDbBlockTableRecord
  2
*D6
340
0
  0
ENDTAB
  0
ENDSEC
  0
SECTION
  2
BLOCKS
  0
BLOCK
  5
3
330
2
100
AcDbEntity
  8
0
100
AcDbBlockBegin
  2
*Model_Space
 70
     0
 10
0.0
 20
0.0
 30
0.0
  3
*Model_Space
  1

  0
ENDBLK
  5
9
330
2
100
AcDbEntity
  8
0
100
AcDbBlockEnd
  0
BLOCK
  5
D
330
C
100
AcDbEntity
 67
     1
  8
0
100
AcDbBlockBegin
  2
*Paper_Space
 70
     0
 10
0.0
 20
0.0
 30
0.0
  3
*Paper_Space
  1

  0
ENDBLK
  5
E
330
C
100
AcDbEntity
 67
     1
  8
0
100
AcDbBlockEnd
  0
BLOCK
  5
22
330
21
100
AcDbEntity
  8
0
100
AcDbBlockBegin
  2
_OPEN30
 70
     0
 10
0.0
 20
0.0
 30
0.0
  3
_OPEN30
  1

  0
LINE
  5
23
330
21
100
AcDbEntity
  8
0
  6
ByBlock
 62
     0
100
AcDbLine
 10
-1.0
 20
0.26794919
 30
0.0
 11
0.0
 21
0.0
 31
0.0
  0
LINE
  5
24
330
21
100
AcDbEntity
  8
0
  6
ByBlock
 62
     0
100
AcDbLine
 10
0.0
 20
0.0
 30
0.0
 11
-1.0
 21
-0.26794919
 31
0.0
  0
LINE
  5
25
330
21
100
AcDbEntity
  8
0
  6
ByBlock
 62
     0
100
AcDbLine
 10
0.0
 20
0.0
 30
0.0
 11
-1.0
 21
0.0
 31
0.0
  0
ENDBLK
  5
26
330
21
100
AcDbEntity
  8
0
100
AcDbBlockEnd
  0
BLOCK
  5
4E
330
4D
100
AcDbEntity
  8
0
100
AcDbBlockBegin
  2
*D1
 70
     1
 10
0.0
 20
0.0
 30
0.0
  3
*D1
  1

  0
LINE
  5
4F
330
4D
100
AcDbEntity
  8
SUNPO
 62
     0
370
    -2
100
AcDbLine
 10
141.2996827497169
 20
348.5440713273311
 30
0.0
 11
141.2996827497169
 21
356.5440713273311
 31
0.0
  0
LINE
  5
50
330
4D
100
AcDbEntity
  8
SUNPO
 62
     0
370
    -2
100
AcDbLine
 10
184.1996827497169
 20
348.5440713273311
 30
0.0
 11
184.1996827497169
 21
356.5440713273311
 31
0.0
  0
LINE
  5
51
330
4D
100
AcDbEntity
  8
SUNPO
 62
     0
370
    -2
100
AcDbLine
 10
143.2996827497169
 20
354.5440713273311
 30
0.0
 11
182.1996827497169
 21
354.5440713273311
 31
0.0
  0
INSERT
  5
52
330
4D
100
AcDbEntity
  8
SUNPO
 62
     0
370
    -2
100
AcDbBlockReference
  2
_OPEN30
 10
141.2996827497169
 20
354.5440713273311
 30
0.0
 41
2.0
 42
2.0
 43
2.0
 50
180.0
  0
INSERT
  5
53
330
4D
100
AcDbEntity
  8
SUNPO
 62
     0
370
    -2
100
AcDbBlockReference
  2
_OPEN30
 10
184.1996827497169
 20
354.5440713273311
 30
0.0
 41
2.0
 42
2.0
 43
2.0
  0
MTEXT
  5
54
330
4D
100
AcDbEntity
  8
SUNPO
 62
     0
100
AcDbMText
 10
162.7496827497169
 20
356.2940713273311
 30
0.0
 40
2.5
 41
0.0
 71
     5
 72
     1
  1
\A1;430
 73
     1
 44
1.0
1001
ACAD
1000
MTEXTBEGIN
1070
    73
1070
     1
1070
    44
1040
1.0
1070
    74
1070
     0
1000
MTEXTEND
  0
POINT
  5
55
330
4D
100
AcDbEntity
  8
DEFPOINTS
 62
     0
100
AcDbPoint
 10
141.2996827497169
 20
346.5440713273311
 30
0.0
  0
POINT
  5
56
330
4D
100
AcDbEntity
  8
DEFPOINTS
 62
     0
100
AcDbPoint
 10
184.1996827497169
 20
346.5440713273311
 30
0.0
  0
POINT
  5
57
330
4D
100
AcDbEntity
  8
DEFPOINTS
 62
     0
100
AcDbPoint
 10
184.1996827497169
 20
354.5440713273311
 30
0.0
  0
ENDBLK
  5
58
330
4D
100
AcDbEntity
  8
0
100
AcDbBlockEnd
  0
BLOCK
  5
41
330
40
100
AcDbEntity
  8
0
100
AcDbBlockBegin
  2
*D2
 70
     1
 10
0.0
 20
0.0
 30
0.0
  3
*D2
  1

  0
LINE
  5
42
330
40
100
AcDbEntity
  8
SUNPO
 62
     0
370
    -2
100
AcDbLine
 10
188.7496841545666
 20
346.5440713273311
 30
0.0
 11
196.7496841545666
 21
346.5440713273311
 31
0.0
  0
LINE
  5
43
330
40
100
AcDbEntity
  8
SUNPO
 62
     0
370
    -2
100
AcDbLine
 10
188.7496841545666
 20
333.3440713273311
 30
0.0
 11
196.7496841545666
 21
333.3440713273311
 31
0.0
  0
LINE
  5
44
330
40
100
AcDbEntity
  8
SUNPO
 62
     0
370
    -2
100
AcDbLine
 10
194.7496841545666
 20
344.5440713273311
 30
0.0
 11
194.7496841545666
 21
335.3440713273311
 31
0.0
  0
INSERT
  5
45
330
40
100
AcDbEntity
  8
SUNPO
 62
     0
370
    -2
100
AcDbBlockReference
  2
_OPEN30
 10
194.7496841545666
 20
346.5440713273311
 30
0.0
 41
2.0
 42
2.0
 43
2.0
 50
90.0
  0
INSERT
  5
46
330
40
100
AcDbEntity
  8
SUNPO
 62
     0
370
    -2
100
AcDbBlockReference
  2
_OPEN30
 10
194.7496841545666
 20
333.3440713273311
 30
0.0
 41
2.0
 42
2.0
 43
2.0
 50
270.0
  0
MTEXT
  5
47
330
40
100
AcDbEntity
  8
SUNPO
 62
     0
100
AcDbMText
 10
192.9996841545665
 20
339.9440713273311
 30
0.0
 40
2.5
 41
0.0
 71
     5
 72
     1
  1
\A1;132
 11
0.0000000000000001
 21
1.0
 31
0.0
 73
     1
 44
1.0
1001
ACAD
1000
MTEXTBEGIN
1070
    73
1070
     1
1070
    44
1040
1.0
1070
    74
1070
     0
1000
MTEXTEND
  0
POINT
  5
48
330
40
100
AcDbEntity
  8
DEFPOINTS
 62
     0
100
AcDbPoint
 10
186.7496841545666
 20
346.5440713273311
 30
0.0
  0
POINT
  5
49
330
40
100
AcDbEntity
  8
DEFPOINTS
 62
     0
100
AcDbPoint
 10
186.7496841545666
 20
333.3440713273311
 30
0.0
  0
POINT
  5
4A
330
40
100
AcDbEntity
  8
DEFPOINTS
 62
     0
100
AcDbPoint
 10
194.7496841545666
 20
333.3440713273311
 30
0.0
  0
ENDBLK
  5
4B
330
40
100
AcDbEntity
  8
0
100
AcDbBlockEnd
  0
BLOCK
  5
33
330
32
100
AcDbEntity
  8
0
100
AcDbBlockBegin
  2
*D3
 70
     1
 10
0.0
 20
0.0
 30
0.0
  3
*D3
  1

  0
LINE
  5
34
330
32
100
AcDbEntity
  8
SUNPO
 62
     0
370
    -2
100
AcDbLine
 10
206.8704881092134
 20
348.5440713273311
 30
0.0
 11
206.8704881092134
 21
356.5440713273311
 31
0.0
  0
LINE
  5
35
330
32
100
AcDbEntity
  8
SUNPO
 62
     0
370
    -2
100
AcDbLine
 10
246.8704881092134
 20
348.5440713273311
 30
0.0
 11
246.8704881092134
 21
356.5440713273311
 31
0.0
  0
LINE
  5
36
330
32
100
AcDbEntity
  8
SUNPO
 62
     0
370
    -2
100
AcDbLine
 10
208.8704881092134
 20
354.5440713273311
 30
0.0
 11
244.8704881092134
 21
354.5440713273311
 31
0.0
  0
INSERT
  5
37
330
32
100
AcDbEntity
  8
SUNPO
 62
     0
370
    -2
100
AcDbBlockReference
  2
_OPEN30
 10
206.8704881092134
 20
354.5440713273311
 30
0.0
 41
2.0
 42
2.0
 43
2.0
 50
180.0
  0
INSERT
  5
38
330
32
100
AcDbEntity
  8
SUNPO
 62
     0
370
    -2
100
AcDbBlockReference
  2
_OPEN30
 10
246.8704881092134
 20
354.5440713273311
 30
0.0
 41
2.0
 42
2.0
 43
2.0
  0
MTEXT
  5
39
330
32
100
AcDbEntity
  8
SUNPO
 62
     0
100
AcDbMText
 10
226.8704881092134
 20
356.2940713273311
 30
0.0
 40
2.5
 41
0.0
 71
     5
 72
     1
  1
\A1;400
 73
     1
 44
1.0
1001
ACAD
1000
MTEXTBEGIN
1070
    73
1070
     1
1070
    44
1040
1.0
1070
    74
1070
     0
1000
MTEXTEND
  0
POINT
  5
3A
330
32
100
AcDbEntity
  8
DEFPOINTS
 62
     0
100
AcDbPoint
 10
206.8704881092134
 20
346.5440713273311
 30
0.0
  0
POINT
  5
3C
330
32
100
AcDbEntity
  8
DEFPOINTS
 62
     0
100
AcDbPoint
 10
246.8704881092134
 20
346.5440713273311
 30
0.0
  0
POINT
  5
3D
330
32
100
AcDbEntity
  8
DEFPOINTS
 62
     0
100
AcDbPoint
 10
246.8704881092134
 20
354.5440713273311
 30
0.0
  0
ENDBLK
  5
3E
330
32
100
AcDbEntity
  8
0
100
AcDbBlockEnd
  0
BLOCK
  5
596
330
58C
100
AcDbEntity
  8
0
100
AcDbBlockBegin
  2
*D4
 70
     1
 10
0.0
 20
0.0
 30
0.0
  3
*D4
  1

  0
LINE
  5
58D
330
58C
100
AcDbEntity
  8
SUNPO
 62
     0
370
    -2
100
AcDbLine
 10
-50.68674290355812
 20
22.10985956604196
 30
0.0
 11
-50.68674290355812
 21
30.10985956604196
 31
0.0
  0
LINE
  5
58E
330
58C
100
AcDbEntity
  8
SUNPO
 62
     0
370
    -2
100
AcDbLine
 10
-7.786742903558149
 20
22.10985956604196
 30
0.0
 11
-7.786742903558148
 21
30.10985956604196
 31
0.0
  0
LINE
  5
58F
330
58C
100
AcDbEntity
  8
SUNPO
 62
     0
370
    -2
100
AcDbLine
 10
-48.68674290355812
 20
28.10985956604196
 30
0.0
 11
-9.786742903558149
 21
28.10985956604196
 31
0.0
  0
INSERT
  5
590
330
58C
100
AcDbEntity
  8
SUNPO
 62
     0
370
    -2
100
AcDbBlockReference
  2
_OPEN30
 10
-50.68674290355812
 20
28.10985956604196
 30
0.0
 41
2.0
 42
2.0
 43
2.0
 50
180.0
  0
INSERT
  5
591
330
58C
100
AcDbEntity
  8
SUNPO
 62
     0
370
    -2
100
AcDbBlockReference
  2
_OPEN30
 10
-7.786742903558148
 20
28.10985956604196
 30
0.0
 41
2.0
 42
2.0
 43
2.0
  0
MTEXT
  5
592
330
58C
100
AcDbEntity
  8
SUNPO
 62
     0
100
AcDbMText
 10
-29.23674290355814
 20
29.85985956604196
 30
0.0
 40
2.5
 41
0.0
 71
     5
 72
     1
  1
\A1;430
 73
     1
 44
1.0
1001
ACAD
1000
MTEXTBEGIN
1070
    73
1070
     1
1070
    44
1040
1.0
1070
    74
1070
     0
1000
MTEXTEND
  0
POINT
  5
593
330
58C
100
AcDbEntity
  8
DEFPOINTS
 62
     0
100
AcDbPoint
 10
-50.68674290355812
 20
20.10985956604196
 30
0.0
  0
POINT
  5
594
330
58C
100
AcDbEntity
  8
DEFPOINTS
 62
     0
100
AcDbPoint
 10
-7.786742903558149
 20
20.10985956604196
 30
0.0
  0
POINT
  5
595
330
58C
100
AcDbEntity
  8
DEFPOINTS
 62
     0
100
AcDbPoint
 10
-7.786742903558148
 20
28.10985956604196
 30
0.0
  0
ENDBLK
  5
597
330
58C
100
AcDbEntity
  8
0
100
AcDbBlockEnd
  0
BLOCK
  5
5A2
330
598
100
AcDbEntity
  8
0
100
AcDbBlockBegin
  2
*D5
 70
     1
 10
0.0
 20
0.0
 30
0.0
  3
*D5
  1

  0
LINE
  5
599
330
598
100
AcDbEntity
  8
SUNPO
 62
     0
370
    -2
100
AcDbLine
 10
-3.236741498708482
 20
20.10985956604196
 30
0.0
 11
4.763258501291492
 21
20.10985956604196
 31
0.0
  0
LINE
  5
59A
330
598
100
AcDbEntity
  8
SUNPO
 62
     0
370
    -2
100
AcDbLine
 10
-3.236741498708511
 20
6.909859566041973
 30
0.0
 11
4.763258501291488
 21
6.90985956604197
 31
0.0
  0
LINE
  5
59B
330
598
100
AcDbEntity
  8
SUNPO
 62
     0
370
    -2
100
AcDbLine
 10
2.763258501291491
 20
18.10985956604196
 30
0.0
 11
2.763258501291489
 21
8.909859566041971
 31
0.0
  0
INSERT
  5
59C
330
598
100
AcDbEntity
  8
SUNPO
 62
     0
370
    -2
100
AcDbBlockReference
  2
_OPEN30
 10
2.763258501291491
 20
20.10985956604196
 30
0.0
 41
2.0
 42
2.0
 43
2.0
 50
90.0
  0
INSERT
  5
59D
330
598
100
AcDbEntity
  8
SUNPO
 62
     0
370
    -2
100
AcDbBlockReference
  2
_OPEN30
 10
2.763258501291488
 20
6.90985956604197
 30
0.0
 41
2.0
 42
2.0
 43
2.0
 50
270.0
  0
MTEXT
  5
59E
330
598
100
AcDbEntity
  8
SUNPO
 62
     0
100
AcDbMText
 10
1.013258501291488
 20
13.50985956604197
 30
0.0
 40
2.5
 41
0.0
 71
     5
 72
     1
  1
\A1;132
 11
0.0000000000000001
 21
1.0
 31
0.0
 73
     1
 44
1.0
1001
ACAD
1000
MTEXTBEGIN
1070
    73
1070
     1
1070
    44
1040
1.0
1070
    74
1070
     0
1000
MTEXTEND
  0
POINT
  5
59F
330
598
100
AcDbEntity
  8
DEFPOINTS
 62
     0
100
AcDbPoint
 10
-5.236741498708482
 20
20.10985956604196
 30
0.0
  0
POINT
  5
5A0
330
598
100
AcDbEntity
  8
DEFPOINTS
 62
     0
100
AcDbPoint
 10
-5.236741498708511
 20
6.909859566041973
 30
0.0
  0
POINT
  5
5A1
330
598
100
AcDbEntity
  8
DEFPOINTS
 62
     0
100
AcDbPoint
 10
2.763258501291488
 20
6.90985956604197
 30
0.0
  0
ENDBLK
  5
5A3
330
598
100
AcDbEntity
  8
0
100
AcDbBlockEnd
  0
BLOCK
  5
5AE
330
5A4
100
AcDbEntity
  8
0
100
AcDbBlockBegin
  2
*D6
 70
     1
 10
0.0
 20
0.0
 30
0.0
  3
*D6
  1

  0
LINE
  5
5A5
330
5A4
100
AcDbEntity
  8
SUNPO
 62
     0
370
    -2
100
AcDbLine
 10
14.8840624559383
 20
22.10985956604196
 30
0.0
 11
14.8840624559383
 21
30.10985956604196
 31
0.0
  0
LINE
  5
5A6
330
5A4
100
AcDbEntity
  8
SUNPO
 62
     0
370
    -2
100
AcDbLine
 10
54.8840624559383
 20
22.10985956604196
 30
0.0
 11
54.8840624559383
 21
30.10985956604196
 31
0.0
  0
LINE
  5
5A7
330
5A4
100
AcDbEntity
  8
SUNPO
 62
     0
370
    -2
100
AcDbLine
 10
16.8840624559383
 20
28.10985956604196
 30
0.0
 11
52.8840624559383
 21
28.10985956604196
 31
0.0
  0
INSERT
  5
5A8
330
5A4
100
AcDbEntity
  8
SUNPO
 62
     0
370
    -2
100
AcDbBlockReference
  2
_OPEN30
 10
14.8840624559383
 20
28.10985956604196
 30
0.0
 41
2.0
 42
2.0
 43
2.0
 50
180.0
  0
INSERT
  5
5A9
330
5A4
100
AcDbEntity
  8
SUNPO
 62
     0
370
    -2
100
AcDbBlockReference
  2
_OPEN30
 10
54.8840624559383
 20
28.10985956604196
 30
0.0
 41
2.0
 42
2.0
 43
2.0
  0
MTEXT
  5
5AA
330
5A4
100
AcDbEntity
  8
SUNPO
 62
     0
100
AcDbMText
 10
34.88406245593831
 20
29.85985956604196
 30
0.0
 40
2.5
 41
0.0
 71
     5
 72
     1
  1
\A1;400
 73
     1
 44
1.0
1001
ACAD
1000
MTEXTBEGIN
1070
    73
1070
     1
1070
    44
1040
1.0
1070
    74
1070
     0
1000
MTEXTEND
  0
POINT
  5
5AB
330
5A4
100
AcDbEntity
  8
DEFPOINTS
 62
     0
100
AcDbPoint
 10
14.8840624559383
 20
20.10985956604196
 30
0.0
  0
POINT
  5
5AC
330
5A4
100
AcDbEntity
  8
DEFPOINTS
 62
     0
100
AcDbPoint
 10
54.8840624559383
 20
20.10985956604196
 30
0.0
  0
POINT
  5
5AD
330
5A4
100
AcDbEntity
  8
DEFPOINTS
 62
     0
100
AcDbPoint
 10
54.8840624559383
 20
28.10985956604196
 30
0.0
  0
ENDBLK
  5
5AF
330
5A4
100
AcDbEntity
  8
0
100
AcDbBlockEnd
  0
ENDSEC
  0
SECTION
  2
ENTITIES
  0
TEXT
  5
2E
330
2
100
AcDbEntity
  8
MOJI1
100
AcDbText
 10
-33.48642570923312
 20
40.0666233636453
 30
0.0
 40
4.0
  1
ネットワークディスクレコーダー
100
AcDbText
  0
DIMENSION
  5
30
330
2
100
AcDbEntity
  8
SUNPO
100
AcDbDimension
  2
*D6
 10
54.8840624559383
 20
28.10985956604196
 30
0.0
 11
34.88406245593831
 21
29.85985956604196
 31
0.0
 70
    33
  1
400
 71
     5
 42
40.0
  3
STANDARD
100
AcDbAlignedDimension
 13
14.8840624559383
 23
20.10985956604196
 33
0.0
 14
54.8840624559383
 24
20.10985956604196
 34
0.0
1001
ACAD
1000
DSTYLE
1002
{
1070
    40
1040
1.0
1070
   140
1040
2.5
1070
   147
1040
0.5
1070
   172
1070
     1
1070
   279
1070
     0
1070
   288
1070
     0
1002
}
  0
DIMENSION
  5
3F
330
2
100
AcDbEntity
  8
SUNPO
100
AcDbDimension
  2
*D5
 10
2.763258501291488
 20
6.90985956604197
 30
0.0
 11
1.013258501291488
 21
13.50985956604197
 31
0.0
 70
    33
  1
132
 71
     5
 42
13.19999999999999
  3
STANDARD
100
AcDbAlignedDimension
 13
-5.236741498708482
 23
20.10985956604196
 33
0.0
 14
-5.236741498708511
 24
6.909859566041973
 34
0.0
1001
ACAD
1000
DSTYLE
1002
{
1070
    40
1040
1.0
1070
   140
1040
2.5
1070
   147
1040
0.5
1070
   172
1070
     1
1070
   279
1070
     0
1070
   288
1070
     0
1002
}
  0
DIMENSION
  5
4C
330
2
100
AcDbEntity
  8
SUNPO
100
AcDbDimension
  2
*D4
 10
-7.786742903558148
 20
28.10985956604196
 30
0.0
 11
-29.23674290355814
 21
29.85985956604196
 31
0.0
 70
    33
  1
430
 71
     5
 42
42.89999999999998
  3
STANDARD
100
AcDbAlignedDimension
 13
-50.68674290355812
 23
20.10985956604196
 33
0.0
 14
-7.786742903558149
 24
20.10985956604196
 34
0.0
1001
ACAD
1000
DSTYLE
1002
{
1070
    40
1040
1.0
1070
   140
1040
2.5
1070
   147
1040
0.5
1070
   172
1070
     1
1070
   279
1070
     0
1070
   288
1070
     0
1002
}
  0
LINE
  5
59
330
2
100
AcDbEntity
  8
GAIKEI
  6
HIDDEN2
 62
     1
 48
0.5
100
AcDbLine
 10
-5.436742903558126
 20
19.90985956604197
 30
0.0
 11
-7.736742903558138
 21
19.90985956604197
 31
0.0
  0
LINE
  5
5C
330
2
100
AcDbEntity
  8
GAIKEI
  6
HIDDEN2
 62
     1
 48
0.5
100
AcDbLine
 10
-6.186742903558126
 20
16.61985956604195
 30
0.0
 11
-5.786742903558149
 21
16.61985956604195
 31
0.0
  0
LINE
  5
5D
330
2
100
AcDbEntity
  8
GAIKEI
  6
HIDDEN2
 62
     1
 48
0.5
100
AcDbLine
 10
-5.786742903558149
 20
16.10985956604196
 30
0.0
 11
-6.186742903558126
 21
16.10985956604196
 31
0.0
  0
LINE
  5
5E
330
2
100
AcDbEntity
  8
GAIKEI
  6
HIDDEN2
 62
     1
 48
0.5
100
AcDbLine
 10
-6.14174290355811
 20
10.95485956604193
 30
0.0
 11
-5.831742903558108
 21
10.95485956604193
 31
0.0
  0
LINE
  5
5F
330
2
100
AcDbEntity
  8
GAIKEI
  6
HIDDEN2
 62
     1
 48
0.5
100
AcDbLine
 10
-5.831742903558108
 20
10.35485956604191
 30
0.0
 11
-6.14174290355811
 21
10.35485956604191
 31
0.0
  0
LINE
  5
60
330
2
100
AcDbEntity
  8
GAIKEI
  6
HIDDEN2
 62
     1
 48
0.5
100
AcDbLine
 10
-7.736742903558138
 20
7.109859566041961
 30
0.0
 11
-5.436742903558126
 21
7.109859566041961
 31
0.0
  0
LINE
  5
61
330
2
100
AcDbEntity
  8
GAIKEI
  6
HIDDEN2
 62
     1
 48
0.5
100
AcDbLine
 10
-7.636742903558115
 20
17.45985956604193
 30
0.0
 11
-7.636742903558115
 21
9.55985956604195
 31
0.0
  0
LINE
  5
62
330
2
100
AcDbEntity
  8
GAIKEI
  6
HIDDEN2
 62
     1
 48
0.5
100
AcDbLine
 10
-6.83674290355816
 20
17.45985956604193
 30
0.0
 11
-6.83674290355816
 21
9.55985956604195
 31
0.0
  0
LINE
  5
63
330
2
100
AcDbEntity
  8
GAIKEI
  6
HIDDEN2
 62
     1
 48
0.5
100
AcDbLine
 10
-5.236742903558138
 20
7.30985956604195
 30
0.0
 11
-5.236742903558138
 21
19.70985956604193
 31
0.0
  0
ARC
  5
64
330
2
100
AcDbEntity
  8
GAIKEI
  6
HIDDEN2
 62
     1
 48
0.5
100
AcDbCircle
 10
-6.186742903558126
 20
9.55985956604195
 30
0.0
 40
1.45
100
AcDbArc
 50
180.0
 51
270.0
  0
ARC
  5
65
330
2
100
AcDbEntity
  8
GAIKEI
  6
HIDDEN2
 62
     1
 48
0.5
100
AcDbCircle
 10
-6.186742903558126
 20
17.45985956604193
 30
0.0
 40
1.45
100
AcDbArc
 50
90.0
 51
180.0
  0
ARC
  5
66
330
2
100
AcDbEntity
  8
GAIKEI
  6
HIDDEN2
 62
     1
 48
0.5
100
AcDbCircle
 10
-6.186742903558126
 20
18.50985956604194
 30
0.0
 40
0.4
100
AcDbArc
 50
270.0
 51
90.0
  0
ARC
  5
67
330
2
100
AcDbEntity
  8
GAIKEI
  6
HIDDEN2
 62
     1
 48
0.5
100
AcDbCircle
 10
-6.186742903558126
 20
8.509859566041939
 30
0.0
 40
0.4
100
AcDbArc
 50
270.0
 51
90.0
  0
ARC
  5
68
330
2
100
AcDbEntity
  8
GAIKEI
  6
HIDDEN2
 62
     1
 48
0.5
100
AcDbCircle
 10
-6.186742903558126
 20
9.55985956604195
 30
0.0
 40
0.65
100
AcDbArc
 50
180.0
 51
270.0
  0
ARC
  5
69
330
2
100
AcDbEntity
  8
GAIKEI
  6
HIDDEN2
 62
     1
 48
0.5
100
AcDbCircle
 10
-6.186742903558126
 20
17.45985956604193
 30
0.0
 40
0.65
100
AcDbArc
 50
90.0
 51
180.0
  0
ARC
  5
6A
330
2
100
AcDbEntity
  8
GAIKEI
  6
HIDDEN2
 62
     1
 48
0.5
100
AcDbCircle
 10
-5.436742903558126
 20
7.30985956604195
 30
0.0
 40
0.2
100
AcDbArc
 50
270.0
 51
0.000000000000007
  0
ARC
  5
6B
330
2
100
AcDbEntity
  8
GAIKEI
  6
HIDDEN2
 62
     1
 48
0.5
100
AcDbCircle
 10
-6.14174290355811
 20
10.65485956604198
 30
0.0
 40
0.3
100
AcDbArc
 50
90.0
 51
270.0
  0
ARC
  5
6C
330
2
100
AcDbEntity
  8
GAIKEI
  6
HIDDEN2
 62
     1
 48
0.5
100
AcDbCircle
 10
-5.831742903558108
 20
10.65485956604198
 30
0.0
 40
0.3
100
AcDbArc
 50
270.0
 51
90.0
  0
ARC
  5
6D
330
2
100
AcDbEntity
  8
GAIKEI
  6
HIDDEN2
 62
     1
 48
0.5
100
AcDbCircle
 10
-5.786742903558149
 20
16.36485956604196
 30
0.0
 40
0.255
100
AcDbArc
 50
270.0
 51
90.0
  0
ARC
  5
6E
330
2
100
AcDbEntity
  8
GAIKEI
  6
HIDDEN2
 62
     1
 48
0.5
100
AcDbCircle
 10
-6.186742903558126
 20
16.36485956604196
 30
0.0
 40
0.255
100
AcDbArc
 50
90.0
 51
270.0
  0
ARC
  5
6F
330
2
100
AcDbEntity
  8
GAIKEI
  6
HIDDEN2
 62
     1
 48
0.5
100
AcDbCircle
 10
-5.436742903558126
 20
19.70985956604193
 30
0.0
 40
0.2
100
AcDbArc
 50
0.000000000000007
 51
90.0
  0
TEXT
  5
70
330
2
100
AcDbEntity
  8
TOUROKU
100
AcDbText
 10
48.6468576570274
 20
34.06662336364531
 30
0.0
 40
2.0
  1
ＤＧＮＤ４００
 72
     2
 11
64.51352432369407
 21
34.06662336364531
 31
0.0
100
AcDbText
  0
SPLINE
  5
72
330
2
100
AcDbEntity
  8
GAIKEI
  6
Continuous
 62
     1
100
AcDbSpline
210
0.0
220
0.0
230
1.0
 70
     8
 71
     3
 72
    29
 73
    25
 74
    23
 42
0.0000000001
 43
0.0000000001
 44
0.00000000001
 40
0.0
 40
0.0
 40
0.0
 40
0.0
 40
0.006424255517559
 40
0.0126138013520215
 40
0.0178869628891678
 40
0.023051611347453
 40
0.0280834772278064
 40
0.033239410052706
 40
0.0388302239896535
 40
0.0444208833828594
 40
0.0504054467042817
 40
0.0563939710834701
 40
0.0627827795707044
 40
0.069173735263539
 40
0.0759432271365698
 40
0.0827129964740882
 40
0.0898293001476612
 40
0.0969463199492625
 40
0.1042579596575083
 40
0.1113398657506216
 40
0.1196321674635768
 40
0.1282019590656899
 40
0.1393430095437139
 40
0.1509920326296046
 40
0.1509920326296046
 40
0.1509920326296046
 40
0.1509920326296046
 10
55.02190363561831
 20
15.70985956604193
 30
0.0
 10
55.0218080739632
 20
15.71199885701253
 30
0.0
 10
55.02162044199071
 20
15.71619928012217
 30
0.0
 10
55.02131159430678
 20
15.72215364589249
 30
0.0
 10
55.02099822041657
 20
15.72768724185641
 30
0.0
 10
55.0206859503881
 20
15.7328343539595
 30
0.0
 10
55.02035236103302
 20
15.73794097025126
 30
0.0
 10
55.01998572214422
 20
15.74318773005962
 30
0.0
 10
55.019581563994
 20
15.74861853512846
 30
0.0
 10
55.0191292040331
 20
15.75432266067207
 30
0.0
 10
55.01863722907569
 20
15.76015656193988
 30
0.0
 10
55.01809136370574
 20
15.7662528310089
 30
0.0
 10
55.01750014151054
 20
15.77248096067456
 30
0.0
 10
55.01684850562782
 20
15.77896474872983
 30
0.0
 10
55.01614664441991
 20
15.78557101396404
 30
0.0
 10
55.01537919491202
 20
15.7924133357215
 30
0.0
 10
55.0145572433151
 20
15.79936599476446
 30
0.0
 10
55.01366984994783
 20
15.80649265676169
 30
0.0
 10
55.01274117120289
 20
15.81360249728158
 30
0.0
 10
55.01171344915332
 20
15.8210943383836
 30
0.0
 10
55.01057217404952
 20
15.82899372469114
 30
0.0
 10
55.00917975054668
 20
15.83822370322764
 30
0.0
 10
55.00753575913447
 20
15.84854719896111
 30
0.0
 10
55.00624302668962
 20
15.85603315832225
 30
0.0
 10
55.0055822534783
 20
15.8598595660419
 30
0.0
 11
55.02190363561831
 21
15.70985956604193
 31
0.0
 11
55.0216091259002
 21
15.71627706734546
 31
0.0
 11
55.02129048994513
 21
15.7224584060973
 31
0.0
 11
55.02099260804297
 21
15.72772314720862
 31
0.0
 11
55.02067923416493
 21
15.73287827965214
 31
0.0
 11
55.02035130976136
 21
15.73789944882111
 31
0.0
 11
55.01999211241039
 21
15.74304285436199
 31
0.0
 11
55.01957704881116
 21
15.74861823979137
 31
0.0
 11
55.01913510513728
 21
15.75419140390522
 31
0.0
 11
55.01863220296596
 21
15.7601547995448
 31
0.0
 11
55.01809812637643
 21
15.76611946101354
 31
0.0
 11
55.01749435829569
 21
15.77247967626078
 31
0.0
 11
55.01685527965853
 21
15.77883859858798
 31
0.0
 11
55.01614009239242
 21
15.78557020518622
 31
0.0
 11
55.01538553486168
 21
15.792297791664
 31
0.0
 11
55.01454996616544
 21
15.79936487047553
 31
0.0
 11
55.01367089698343
 21
15.80642739185458
 31
0.0
 11
55.01272334467259
 21
15.81367737253328
 31
0.0
 11
55.01176057763448
 21
15.82069353056613
 31
0.0
 11
55.01057700202685
 21
15.8289009306709
 31
0.0
 11
55.00929754487074
 21
15.83737467349738
 31
0.0
 11
55.00753896907631
 21
15.84837605599819
 31
0.0
 11
55.0055822534783
 21
15.8598595660419
 31
0.0
  0
SPLINE
  5
73
330
2
100
AcDbEntity
  8
GAIKEI
  6
Continuous
 62
     1
100
AcDbSpline
210
0.0
220
0.0
230
1.0
 70
     8
 71
     3
 72
    11
 73
     7
 74
     5
 42
0.0000000001
 43
0.0000000001
 44
0.00000000001
 40
0.0
 40
0.0
 40
0.0
 40
0.0
 40
0.0125039656178153
 40
0.0250077800707895
 40
0.0375116718568416
 40
0.0500157457493294
 40
0.0500157457493294
 40
0.0500157457493294
 40
0.0500157457493294
 10
55.00667760443829
 20
15.65985956604197
 30
0.0
 10
55.00666456241146
 20
15.66402758136468
 30
0.0
 10
55.00663847851538
 20
15.67236356162147
 30
0.0
 10
55.00642329200451
 20
15.68486592570662
 30
0.0
 10
55.00609075673534
 20
15.69736575514804
 30
0.0
 10
55.00575175538688
 20
15.70569494219313
 30
0.0
 10
55.0055822534783
 20
15.70985956604193
 30
0.0
 11
55.00667760443829
 21
15.65985956604197
 31
0.0
 11
55.0066091345602
 21
15.67236334419289
 31
0.0
 11
55.00640373466135
 21
15.68486547148211
 31
0.0
 11
55.00606143123341
 21
15.69736467698328
 31
0.0
 11
55.0055822534783
 21
15.70985956604193
 31
0.0
  0
SPLINE
  5
74
330
2
100
AcDbEntity
  8
GAIKEI
  6
Continuous
 62
     1
100
AcDbSpline
210
0.0
220
0.0
230
1.0
 70
     8
 71
     3
 72
    11
 73
     7
 74
     5
 42
0.0000000001
 43
0.0000000001
 44
0.00000000001
 40
0.0
 40
0.0
 40
0.0
 40
0.0
 40
0.0125040823259157
 40
0.0250079801355016
 40
0.0375117885652428
 40
0.050015745749624
 40
0.050015745749624
 40
0.050015745749624
 40
0.050015745749624
 10
55.0055822534783
 20
15.6098595660419
 30
0.0
 10
55.00575175550278
 20
15.61402419269956
 30
0.0
 10
55.00609075705051
 20
15.62235338455969
 30
0.0
 10
55.00642329224032
 20
15.63485321681617
 30
0.0
 10
55.00663847854577
 20
15.6473555780928
 30
0.0
 10
55.0066645624224
 20
15.65569155353046
 30
0.0
 10
55.00667760443829
 20
15.65985956604197
 30
0.0
 11
55.0055822534783
 21
15.6098595660419
 31
0.0
 11
55.00606143153206
 21
15.62235446352872
 31
0.0
 11
55.00640373498462
 21
15.63485367505501
 31
0.0
 11
55.0066091346408
 21
15.64735579632418
 31
0.0
 11
55.00667760443829
 21
15.65985956604197
 31
0.0
  0
SPLINE
  5
75
330
2
100
AcDbEntity
  8
GAIKEI
  6
Continuous
 62
     1
100
AcDbSpline
210
0.0
220
0.0
230
1.0
 70
     8
 71
     3
 72
    27
 73
    23
 74
    21
 42
0.0000000001
 43
0.0000000001
 44
0.00000000001
 40
0.0
 40
0.0
 40
0.0
 40
0.0
 40
0.0127671201577194
 40
0.0249866170386647
 40
0.0344063930567714
 40
0.0435281786546162
 40
0.0512894902061029
 40
0.0592981071709867
 40
0.0670063513059883
 40
0.0747119049357512
 40
0.0819297670748867
 40
0.0891442267145937
 40
0.0958344618274849
 40
0.1025177046965888
 40
0.1086857114812704
 40
0.114850914839116
 40
0.120482687995617
 40
0.1259809380520784
 40
0.1315925965626636
 40
0.1373228965190024
 40
0.1440306573889732
 40
0.1509919774600188
 40
0.1509919774600188
 40
0.1509919774600188
 40
0.1509919774600188
 10
55.0055822534783
 20
15.45985956604193
 30
0.0
 10
55.00630538905807
 20
15.46405343080596
 30
0.0
 10
55.00772064258228
 20
15.47226127184433
 30
0.0
 10
55.00950732123411
 20
15.48359042969105
 30
0.0
 10
55.0110135801172
 20
15.49373292725102
 30
0.0
 10
55.01224173598649
 20
15.50241420190815
 30
0.0
 10
55.01333951200692
 20
15.51063856988003
 30
0.0
 10
55.01432013981712
 20
15.51840300875494
 30
0.0
 10
55.01524775826803
 20
15.52615523364005
 30
0.0
 10
55.01609371631565
 20
15.53365159618914
 30
0.0
 10
55.01687408750865
 20
15.54098955607077
 30
0.0
 10
55.01757496283204
 20
15.54799548424273
 30
0.0
 10
55.01821712975933
 20
15.55482805650791
 30
0.0
 10
55.01878916912918
 20
15.56131675498807
 30
0.0
 10
55.01931082833516
 20
15.5676341008504
 30
0.0
 10
55.01977169014134
 20
15.57360469643254
 30
0.0
 10
55.02018682855714
 20
15.57935482769403
 30
0.0
 10
55.02056114223029
 20
15.58492284432032
 30
0.0
 10
55.02090936046361
 20
15.59052545849255
 30
0.0
 10
55.0212562941337
 20
15.59653203392293
 30
0.0
 10
55.02159591952005
 20
15.6029896320897
 30
0.0
 10
55.02179980291774
 20
15.60754144294378
 30
0.0
 10
55.02190363561831
 20
15.6098595660419
 30
0.0
 11
55.0055822534783
 21
15.45985956604193
 31
0.0
 11
55.00772092308264
 21
15.47244628322494
 31
0.0
 11
55.00963226673267
 21
15.48451537057548
 31
0.0
 11
55.01101729124346
 21
15.49383276760124
 31
0.0
 11
55.0122924919618
 21
15.50286497860526
 31
0.0
 11
55.01331968828029
 21
15.51055801602376
 31
0.0
 11
55.01432385572943
 21
15.51850342938144
 31
0.0
 11
55.01523928994751
 21
15.52615712181301
 31
0.0
 11
55.01610347568558
 21
15.53381406243909
 31
0.0
 11
55.01686673832896
 21
15.54099145500163
 31
0.0
 11
55.01758490847866
 21
15.5481700801854
 31
0.0
 11
55.01821092742952
 21
15.55483096196929
 31
0.0
 11
55.01879785281577
 21
15.56148838292927
 31
0.0
 11
55.01930541861682
 21
15.56763547042283
 31
0.0
 11
55.01978005723609
 21
15.57378237619929
 31
0.0
 11
55.02018534617369
 21
15.57939954717437
 31
0.0
 11
55.02055403414406
 21
15.58488542202383
 31
0.0
 11
55.02090286248662
 21
15.59048622821819
 31
0.0
 11
55.02123298147203
 21
15.5962070112979
 31
0.0
 11
55.02158295056253
 21
15.60290563634521
 31
0.0
 11
55.02190363561831
 21
15.6098595660419
 31
0.0
  0
SPLINE
  5
76
330
2
100
AcDbEntity
  8
GAIKEI
  6
Continuous
 62
     1
100
AcDbSpline
210
0.0
220
0.0
230
1.0
 70
     8
 71
     3
 72
     9
 73
     5
 74
     3
 42
0.0000000001
 43
0.0000000001
 44
0.00000000001
 40
0.0
 40
0.0
 40
0.0
 40
0.0
 40
0.0074998671132706
 40
0.0149997829388638
 40
0.0149997829388638
 40
0.0149997829388638
 40
0.0149997829388638
 10
55.19301319103831
 20
19.26485956604193
 30
0.0
 10
55.19331944555688
 20
19.2673426332534
 30
0.0
 10
55.19393195658313
 20
19.27230878380408
 30
0.0
 10
55.19401895605915
 20
19.2773118081335
 30
0.0
 10
55.19406245593834
 20
19.27981332842193
 30
0.0
 11
55.19301319103831
 21
19.26485956604193
 31
0.0
 11
55.1938005775597
 21
19.27231798606112
 31
0.0
 11
55.19406245593834
 21
19.27981332842193
 31
0.0
  0
SPLINE
  5
77
330
2
100
AcDbEntity
  8
GAIKEI
  6
Continuous
 62
     1
100
AcDbSpline
210
0.0
220
0.0
230
1.0
 70
     8
 71
     3
 72
     9
 73
     5
 74
     3
 42
0.0000000001
 43
0.0000000001
 44
0.00000000001
 40
0.0
 40
0.0
 40
0.0
 40
0.0
 40
0.0074999213078502
 40
0.0149997829899335
 40
0.0149997829899335
 40
0.0149997829899335
 40
0.0149997829899335
 10
55.19406245593834
 20
19.63990580364191
 30
0.0
 10
55.1940189562159
 20
19.64240732577025
 30
0.0
 10
55.19393195711694
 20
19.64741035013958
 30
0.0
 10
55.19331944558627
 20
19.65237650065484
 30
0.0
 10
55.19301319103831
 20
19.65485956604197
 30
0.0
 11
55.19406245593834
 21
19.63990580364191
 31
0.0
 11
55.1938005776187
 21
19.64740115149038
 31
0.0
 11
55.19301319103831
 21
19.65485956604197
 31
0.0
  0
SPLINE
  5
78
330
2
100
AcDbEntity
  8
GAIKEI
  6
Continuous
 62
     1
100
AcDbSpline
210
0.0
220
0.0
230
1.0
 70
    24
 71
     3
 72
     9
 73
     5
 74
     3
 42
0.0000000001
 43
0.0000000001
 44
0.00000000001
 40
0.0
 40
0.0
 40
0.0
 40
0.0
 40
0.0030928830911701
 40
0.0061857661823401
 40
0.0061857661823401
 40
0.0061857661823401
 40
0.0061857661823401
 10
55.06179595597834
 20
18.0058643557619
 30
0.0
 10
55.06205292164498
 20
18.0068627791652
 30
0.0
 10
55.06256685297836
 20
18.00885962597192
 30
0.0
 10
55.06308078431167
 20
18.01085647277864
 30
0.0
 10
55.06333774997833
 20
18.01185489618194
 30
0.0
 11
55.06179595597834
 21
18.0058643557619
 31
0.0
 11
55.06256685297834
 21
18.00885962597192
 31
0.0
 11
55.06333774997833
 21
18.01185489618194
 31
0.0
  0
CIRCLE
  5
79
330
2
100
AcDbEntity
  8
GAIKEI
  6
Continuous
 62
     1
100
AcDbCircle
 10
49.8840624559383
 20
8.80985956604195
 30
0.0
 40
0.5
  0
CIRCLE
  5
7A
330
2
100
AcDbEntity
  8
GAIKEI
  6
Continuous
 62
     1
100
AcDbCircle
 10
49.8840624559383
 20
8.80985956604195
 30
0.0
 40
0.32285397678
  0
CIRCLE
  5
7B
330
2
100
AcDbEntity
  8
GAIKEI
  6
Continuous
 62
     1
100
AcDbCircle
 10
49.8840624559383
 20
8.80985956604195
 30
0.0
 40
0.4131400090400001
  0
CIRCLE
  5
7C
330
2
100
AcDbEntity
  8
GAIKEI
  6
Continuous
 62
     1
100
AcDbCircle
 10
21.88406245593831
 20
8.80985956604195
 30
0.0
 40
0.5
  0
CIRCLE
  5
7D
330
2
100
AcDbEntity
  8
GAIKEI
  6
Continuous
 62
     1
100
AcDbCircle
 10
21.88406245593831
 20
8.80985956604195
 30
0.0
 40
0.32285397678
  0
CIRCLE
  5
7E
330
2
100
AcDbEntity
  8
GAIKEI
  6
Continuous
 62
     1
100
AcDbCircle
 10
21.88406245593831
 20
8.80985956604195
 30
0.0
 40
0.4131400090400001
  0
CIRCLE
  5
7F
330
2
100
AcDbEntity
  8
GAIKEI
  6
Continuous
 62
     1
100
AcDbCircle
 10
18.3840624559383
 20
17.40985956604191
 30
0.0
 40
0.275
  0
CIRCLE
  5
80
330
2
100
AcDbEntity
  8
GAIKEI
  6
Continuous
 62
     1
100
AcDbCircle
 10
18.3840624559383
 20
9.609859566041905
 30
0.0
 40
0.275
  0
CIRCLE
  5
81
330
2
100
AcDbEntity
  8
GAIKEI
  6
Continuous
 62
     1
100
AcDbCircle
 10
29.38406245593831
 20
13.6098595660419
 30
0.0
 40
0.275
  0
ARC
  5
82
330
2
100
AcDbEntity
  8
GAIKEI
  6
Continuous
100
AcDbCircle
 10
14.94231006885832
 20
18.91223881550195
 30
0.0
 40
0.51673913044
100
AcDbArc
 50
159.6804278480069
 51
167.923280437101
  0
ARC
  5
83
330
2
100
AcDbEntity
  8
GAIKEI
  6
Continuous
 62
     1
100
AcDbCircle
 10
54.97620539243834
 20
9.017333659961877
 30
0.0
 40
0.01
100
AcDbArc
 50
275.0000000168515
 51
345.25217085373
  0
ARC
  5
84
330
2
100
AcDbEntity
  8
GAIKEI
  6
Continuous
 62
     1
100
AcDbCircle
 10
53.86494317733829
 20
15.65985956604191
 30
0.0
 40
1.159119278599999
100
AcDbArc
 50
9.935812002794813
 51
14.74782929600433
  0
ARC
  5
85
330
2
100
AcDbEntity
  8
GAIKEI
  6
Continuous
 62
     1
100
AcDbCircle
 10
53.86494317733829
 20
15.65985956604191
 30
0.0
 40
1.159119278599999
100
AcDbArc
 50
345.2521707039957
 51
350.0641879972052
  0
ARC
  5
86
330
2
100
AcDbEntity
  8
GAIKEI
  6
Continuous
 62
     1
100
AcDbCircle
 10
54.97620539243834
 20
15.3673336599619
 30
0.0
 40
0.01
100
AcDbArc
 50
275.0000000168515
 51
345.25217085373
  0
ARC
  5
87
330
2
100
AcDbEntity
  8
GAIKEI
  6
Continuous
 62
     1
100
AcDbCircle
 10
54.97620539243834
 20
15.95238547212193
 30
0.0
 40
0.01
100
AcDbArc
 50
14.74782914627002
 51
84.99999998314846
  0
ARC
  5
88
330
2
100
AcDbEntity
  8
GAIKEI
  6
Continuous
 62
     1
100
AcDbCircle
 10
54.97620539243834
 20
9.167333659961911
 30
0.0
 40
0.01
100
AcDbArc
 50
275.0000000168515
 51
345.25217085373
  0
ARC
  5
89
330
2
100
AcDbEntity
  8
GAIKEI
  6
Continuous
 62
     1
100
AcDbCircle
 10
54.97620539243834
 20
9.752385472121886
 30
0.0
 40
0.01
100
AcDbArc
 50
14.74782914627002
 51
84.99999998314846
  0
ARC
  5
8A
330
2
100
AcDbEntity
  8
GAIKEI
  6
Continuous
 62
     1
100
AcDbCircle
 10
54.97620539243829
 20
7.167333659961911
 30
0.0
 40
0.01
100
AcDbArc
 50
275.0000000168515
 51
345.25217085373
  0
ARC
  5
8B
330
2
100
AcDbEntity
  8
GAIKEI
  6
Continuous
 62
     1
100
AcDbCircle
 10
54.97620539243834
 20
7.752385472121886
 30
0.0
 40
0.01
100
AcDbArc
 50
14.74782914627002
 51
84.99999998314846
  0
ARC
  5
8C
330
2
100
AcDbEntity
  8
GAIKEI
  6
Continuous
 62
     1
100
AcDbCircle
 10
54.8962053924383
 20
18.21733365996192
 30
0.0
 40
0.01
100
AcDbArc
 50
275.0000000168515
 51
345.2521708537468
  0
ARC
  5
8D
330
2
100
AcDbEntity
  8
GAIKEI
  6
Continuous
 62
     1
100
AcDbCircle
 10
54.8962053924383
 20
18.80238547212195
 30
0.0
 40
0.01
100
AcDbArc
 50
14.74782914625323
 51
84.99999998314846
  0
ARC
  5
8E
330
2
100
AcDbEntity
  8
GAIKEI
  6
Continuous
 62
     1
100
AcDbCircle
 10
54.9995338595983
 20
8.742353716901902
 30
0.0
 40
0.1
100
AcDbArc
 50
58.47948242937317
 51
68.55254391584679
  0
ARC
  5
8F
330
2
100
AcDbEntity
  8
GAIKEI
  6
Continuous
 62
     1
100
AcDbCircle
 10
54.9995338595983
 20
8.277365415181918
 30
0.0
 40
0.1
100
AcDbArc
 50
291.4474560841532
 51
301.5205175705653
  0
ARC
  5
90
330
2
100
AcDbEntity
  8
GAIKEI
  6
Continuous
 62
     1
100
AcDbCircle
 10
54.93406245593829
 20
19.00985956604188
 30
0.0
 40
0.05
100
AcDbArc
 50
180.0
 51
0.0
  0
ARC
  5
91
330
2
100
AcDbEntity
  8
GAIKEI
  6
Continuous
 62
     1
100
AcDbCircle
 10
54.93406245593829
 20
19.90985956604191
 30
0.0
 40
0.05
100
AcDbArc
 50
0.0
 51
172.5006183875663
  0
ARC
  5
92
330
2
100
AcDbEntity
  8
GAIKEI
  6
Continuous
 62
     1
100
AcDbCircle
 10
55.08406245593832
 20
19.87299959794188
 30
0.0
 40
0.1
100
AcDbArc
 50
180.0000034323626
 51
244.5366562367787
  0
ARC
  5
93
330
2
100
AcDbEntity
  8
GAIKEI
  6
Continuous
 62
     1
100
AcDbCircle
 10
55.08406245593832
 20
19.04671953414191
 30
0.0
 40
0.1
100
AcDbArc
 50
115.463343763222
 51
179.9999965676374
  0
ARC
  5
94
330
2
100
AcDbEntity
  8
GAIKEI
  6
Continuous
 62
     1
100
AcDbCircle
 10
55.09406245593831
 20
19.64671953414188
 30
0.0
 40
0.1
100
AcDbArc
 50
4.744261520210176
 51
64.53661878302964
  0
ARC
  5
95
330
2
100
AcDbEntity
  8
GAIKEI
  6
Continuous
 62
     1
100
AcDbCircle
 10
55.09406245593831
 20
19.27299959794192
 30
0.0
 40
0.1
100
AcDbArc
 50
295.4633812169689
 51
355.2557384797898
  0
ARC
  5
96
330
2
100
AcDbEntity
  8
GAIKEI
  6
Continuous
 62
     1
100
AcDbCircle
 10
54.8540624559383
 20
12.1098595660419
 30
0.0
 40
0.08
100
AcDbArc
 50
0.0
 51
67.9466654052976
  0
ARC
  5
97
330
2
100
AcDbEntity
  8
GAIKEI
  6
Continuous
 62
     1
100
AcDbCircle
 10
55.3540624559383
 20
10.06202537422189
 30
0.0
 40
0.1
100
AcDbArc
 50
0.0
 51
88.7455483697524
  0
ARC
  5
98
330
2
100
AcDbEntity
  8
GAIKEI
  6
Continuous
 62
     1
100
AcDbCircle
 10
55.3540624559383
 20
9.017693757841925
 30
0.0
 40
0.1
100
AcDbArc
 50
271.254451630246
 51
0.0
  0
ARC
  5
99
330
2
100
AcDbEntity
  8
GAIKEI
  6
Continuous
 62
     1
100
AcDbCircle
 10
54.94591220289831
 20
13.05985956604195
 30
0.0
 40
0.1
100
AcDbArc
 50
270.0000010133286
 51
333.8115565258596
  0
ARC
  5
9A
330
2
100
AcDbEntity
  8
GAIKEI
  6
Continuous
 62
     1
100
AcDbCircle
 10
54.93406245593829
 20
8.05985956604195
 30
0.0
 40
0.05
100
AcDbArc
 50
180.0
 51
0.0
  0
ARC
  5
9B
330
2
100
AcDbEntity
  8
GAIKEI
  6
Continuous
 62
     1
100
AcDbCircle
 10
54.93406245593829
 20
8.959859566041927
 30
0.0
 40
0.05
100
AcDbArc
 50
0.0
 51
180.0
  0
ARC
  5
9C
330
2
100
AcDbEntity
  8
GAIKEI
  6
Continuous
 62
     1
100
AcDbCircle
 10
55.08406245593832
 20
8.922999597941952
 30
0.0
 40
0.1
100
AcDbArc
 50
180.0000034323626
 51
241.2935461584791
  0
ARC
  5
9D
330
2
100
AcDbEntity
  8
GAIKEI
  6
Continuous
 62
     1
100
AcDbCircle
 10
55.08406245593832
 20
8.096719534141925
 30
0.0
 40
0.1
100
AcDbArc
 50
118.7064538415223
 51
179.9999965676374
  0
ARC
  5
9E
330
2
100
AcDbEntity
  8
GAIKEI
  6
Continuous
 62
     1
100
AcDbCircle
 10
55.09406245593831
 20
8.696719534141948
 30
0.0
 40
0.1
100
AcDbArc
 50
4.744261520210176
 51
64.53661878302964
  0
ARC
  5
9F
330
2
100
AcDbEntity
  8
GAIKEI
  6
Continuous
 62
     1
100
AcDbCircle
 10
55.09406245593831
 20
8.32299959794193
 30
0.0
 40
0.1
100
AcDbArc
 50
295.4633812169689
 51
355.2557384797898
  0
ARC
  5
A0
330
2
100
AcDbEntity
  8
GAIKEI
  6
Continuous
 62
     1
100
AcDbCircle
 10
54.43758640037831
 20
18.30985956604195
 30
0.0
 40
0.66647605554
100
AcDbArc
 50
17.6470624809982
 51
26.18844634330238
  0
ARC
  5
A1
330
2
100
AcDbEntity
  8
GAIKEI
  6
Continuous
 62
     1
100
AcDbCircle
 10
54.94591220289831
 20
18.55985956604195
 30
0.0
 40
0.1
100
AcDbArc
 50
26.18844347414731
 51
89.99999898667059
  0
ARC
  5
A2
330
2
100
AcDbEntity
  8
GAIKEI
  6
Continuous
 62
     1
100
AcDbCircle
 10
54.92591220289828
 20
11.27485956604192
 30
0.0
 40
0.1
100
AcDbArc
 50
26.18844347404207
 51
89.99999898666487
  0
ARC
  5
A3
330
2
100
AcDbEntity
  8
GAIKEI
  6
Continuous
 62
     1
100
AcDbCircle
 10
54.41758640037832
 20
18.17485956604196
 30
0.0
 40
0.66647605554
100
AcDbArc
 50
333.8115536566976
 51
345.2925546865047
  0
ARC
  5
A4
330
2
100
AcDbEntity
  8
GAIKEI
  6
Continuous
 62
     1
100
AcDbCircle
 10
54.92591220289828
 20
17.92485956604196
 30
0.0
 40
0.1
100
AcDbArc
 50
306.8220313772969
 51
333.8115565258596
  0
ARC
  5
A5
330
2
100
AcDbEntity
  8
GAIKEI
  6
Continuous
100
AcDbCircle
 10
14.0019454661583
 20
10.89881830654189
 30
0.0
 40
0.05
100
AcDbArc
 50
154.3859432115401
 51
176.2955702474288
  0
ARC
  5
A6
330
2
100
AcDbEntity
  8
GAIKEI
  6
Continuous
100
AcDbCircle
 10
14.0019454661583
 20
8.320900825541912
 30
0.0
 40
0.05
100
AcDbArc
 50
183.7044297525711
 51
269.0000000000756
  0
ARC
  5
A7
330
2
100
AcDbEntity
  8
GAIKEI
  6
Continuous
100
AcDbCircle
 10
33.91026245593832
 20
9.609859566041905
 30
0.0
 40
20.0
100
AcDbArc
 50
176.2955702474027
 51
176.8486022673997
  0
ARC
  5
A8
330
2
100
AcDbEntity
  8
GAIKEI
  6
Continuous
 62
     1
100
AcDbCircle
 10
26.43406245593832
 20
15.50985956604188
 30
0.0
 40
12.5
100
AcDbArc
 50
168.7194622554002
 51
179.9459299768012
  0
ARC
  5
A9
330
2
100
AcDbEntity
  8
GAIKEI
  6
Continuous
100
AcDbCircle
 10
21.85406731829829
 20
16.23839844440192
 30
0.0
 40
8.0
100
AcDbArc
 50
168.4523604651998
 51
187.9953836369015
  0
ARC
  5
AA
330
2
100
AcDbEntity
  8
GAIKEI
  6
Continuous
100
AcDbCircle
 10
34.8958883712383
 20
5.159859566041916
 30
0.0
 40
0.15
100
AcDbArc
 50
270.0
 51
351.0273732665287
  0
ARC
  5
AB
330
2
100
AcDbEntity
  8
GAIKEI
  6
Continuous
100
AcDbCircle
 10
32.75223654063825
 20
5.159859566041916
 30
0.0
 40
0.15
100
AcDbArc
 50
188.9726267334712
 51
270.0
  0
ARC
  5
AC
330
2
100
AcDbEntity
  8
GAIKEI
  6
Continuous
100
AcDbCircle
 10
48.9558883712383
 20
5.159859566041916
 30
0.0
 40
0.15
100
AcDbArc
 50
270.0
 51
351.0273732665287
  0
ARC
  5
AD
330
2
100
AcDbEntity
  8
GAIKEI
  6
Continuous
100
AcDbCircle
 10
46.8122365406383
 20
5.159859566041916
 30
0.0
 40
0.15
100
AcDbArc
 50
188.9726267334712
 51
270.0
  0
ARC
  5
AE
330
2
100
AcDbEntity
  8
GAIKEI
  6
Continuous
100
AcDbCircle
 10
22.25588837123831
 20
5.159859566041916
 30
0.0
 40
0.15
100
AcDbArc
 50
270.0
 51
351.0273732665287
  0
ARC
  5
AF
330
2
100
AcDbEntity
  8
GAIKEI
  6
Continuous
100
AcDbCircle
 10
20.11223654063826
 20
5.159859566041916
 30
0.0
 40
0.15
100
AcDbArc
 50
188.9726267334712
 51
270.0
  0
ARC
  5
B0
330
2
100
AcDbEntity
  8
GAIKEI
  6
Continuous
 62
     1
100
AcDbCircle
 10
56.13406245593828
 20
11.1098595660419
 30
0.0
 40
0.3
100
AcDbArc
 50
270.0
 51
0.0
  0
ARC
  5
B1
330
2
100
AcDbEntity
  8
GAIKEI
  6
Continuous
 62
     1
100
AcDbCircle
 10
56.13406245593828
 20
11.1098595660419
 30
0.0
 40
0.9
100
AcDbArc
 50
270.0
 51
0.0
  0
ARC
  5
B2
330
2
100
AcDbEntity
  8
GAIKEI
  6
Continuous
 62
     1
100
AcDbCircle
 10
56.13406245593828
 20
13.90985956604191
 30
0.0
 40
0.3
100
AcDbArc
 50
0.0
 51
89.99999999999998
  0
ARC
  5
B3
330
2
100
AcDbEntity
  8
GAIKEI
  6
Continuous
 62
     1
100
AcDbCircle
 10
56.13406245593828
 20
13.90985956604191
 30
0.0
 40
0.9
100
AcDbArc
 50
0.0
 51
89.99999999999998
  0
ARC
  5
B4
330
2
100
AcDbEntity
  8
GAIKEI
  6
Continuous
 62
     1
100
AcDbCircle
 10
54.65406245593825
 20
7.009859566041882
 30
0.0
 40
0.1
100
AcDbArc
 50
270.0
 51
0.0
  0
ARC
  5
B5
330
2
100
AcDbEntity
  8
GAIKEI
  6
Continuous
 62
     1
100
AcDbCircle
 10
14.27919507301828
 20
15.36985956604189
 30
0.0
 40
0.3999999999998001
100
AcDbArc
 50
224.2407187902023
 51
270.0
  0
ARC
  5
B6
330
2
100
AcDbEntity
  8
GAIKEI
  6
Continuous
 62
     1
100
AcDbCircle
 10
14.44676707683828
 20
15.38985956604188
 30
0.0
 40
0.4200000000000001
100
AcDbArc
 50
270.0
 51
339.0751675723943
  0
ARC
  5
B7
330
2
100
AcDbEntity
  8
GAIKEI
  6
Continuous
 62
     1
100
AcDbCircle
 10
14.31406245593825
 20
15.45985956604193
 30
0.0
 40
0.5692370351
100
AcDbArc
 50
337.2642100783008
 51
0.0
  0
ARC
  5
B8
330
2
100
AcDbEntity
  8
GAIKEI
  6
Continuous
 62
     1
100
AcDbCircle
 10
13.97113663699832
 20
15.06985956604194
 30
0.0
 40
0.0300000000002
100
AcDbArc
 50
44.24071879016087
 51
89.99999999999998
  0
ARC
  5
B9
330
2
100
AcDbEntity
  8
GAIKEI
  6
Continuous
100
AcDbCircle
 10
53.93406245593832
 20
12.26443362092192
 30
0.0
 40
40.0
100
AcDbArc
 50
179.9999020899023
 51
186.7833892450013
  0
ARC
  5
BA
330
2
100
AcDbEntity
  8
GAIKEI
  6
Continuous
100
AcDbCircle
 10
15.22071600373829
 20
7.983259613981886
 30
0.0
 40
1.1
100
AcDbArc
 50
203.7755107009959
 51
252.1787338830051
  0
ARC
  5
BB
330
2
100
AcDbEntity
  8
GAIKEI
  6
Continuous
100
AcDbCircle
 10
26.43406245593832
 20
15.50985956604188
 30
0.0
 40
12.5
100
AcDbArc
 50
159.3903287967008
 51
168.5897314114199
  0
ARC
  5
BC
330
2
100
AcDbEntity
  8
GAIKEI
  6
Continuous
100
AcDbCircle
 10
14.93406245593831
 20
20.00919397306188
 30
0.0
 40
0.05
100
AcDbArc
 50
92.00000000008667
 51
180.0
  0
ARC
  5
BD
330
2
100
AcDbEntity
  8
GAIKEI
  6
Continuous
 62
     1
100
AcDbCircle
 10
14.73329949103828
 20
17.85979477772196
 30
0.0
 40
0.15
100
AcDbArc
 50
0.0
 51
87.99999999998904
  0
ARC
  5
BE
330
2
100
AcDbEntity
  8
GAIKEI
  6
Continuous
100
AcDbCircle
 10
54.78406245593831
 20
19.95985956604193
 30
0.0
 40
0.1
100
AcDbArc
 50
0.0
 51
89.99999999999998
  0
ARC
  5
BF
330
2
100
AcDbEntity
  8
GAIKEI
  6
Continuous
 62
     1
100
AcDbCircle
 10
50.8840624559383
 20
8.80985956604195
 30
0.0
 40
0.95
100
AcDbArc
 50
270.0
 51
89.99999999999998
  0
ARC
  5
C0
330
2
100
AcDbEntity
  8
GAIKEI
  6
Continuous
 62
     1
100
AcDbCircle
 10
50.8840624559383
 20
8.80985956604195
 30
0.0
 40
0.6000000000000001
100
AcDbArc
 50
270.0
 51
89.99999999999998
  0
ARC
  5
C1
330
2
100
AcDbEntity
  8
GAIKEI
  6
Continuous
 62
     1
100
AcDbCircle
 10
20.88406245593831
 20
8.80985956604195
 30
0.0
 40
0.95
100
AcDbArc
 50
89.99999999999998
 51
270.0
  0
ARC
  5
C2
330
2
100
AcDbEntity
  8
GAIKEI
  6
Continuous
 62
     1
100
AcDbCircle
 10
20.88406245593831
 20
8.80985956604195
 30
0.0
 40
0.6000000000000001
100
AcDbArc
 50
89.99999999999998
 51
270.0
  0
LINE
  5
C3
330
2
100
AcDbEntity
  8
GAIKEI
  6
Continuous
100
AcDbLine
 10
13.91817646845828
 20
9.047278132741951
 30
0.0
 11
13.95204993485828
 21
8.317670352501977
 31
0.0
  0
LINE
  5
C4
330
2
100
AcDbEntity
  8
GAIKEI
  6
Continuous
100
AcDbLine
 10
13.58406245593829
 20
13.3598595660419
 30
0.0
 11
13.58406245593829
 21
14.55985956604195
 31
0.0
  0
LINE
  5
C5
330
2
100
AcDbEntity
  8
GAIKEI
  6
Continuous
100
AcDbLine
 10
13.940507323102
 20
10.70935032751208
 30
0.0
 11
13.9181645974383
 21
9.052379689301915
 31
0.0
  0
LINE
  5
C6
330
2
100
AcDbEntity
  8
GAIKEI
  6
Continuous
 62
     1
100
AcDbLine
 10
13.93406802199831
 20
15.52165581344195
 30
0.0
 11
13.93406753679829
 21
15.23773116110192
 31
0.0
  0
LINE
  5
C7
330
2
100
AcDbEntity
  8
GAIKEI
  6
Continuous
100
AcDbLine
 10
13.93406798175829
 20
15.12565193336195
 30
0.0
 11
13.93406245599829
 21
12.26450197508194
 31
0.0
  0
LINE
  5
C8
330
2
100
AcDbEntity
  8
GAIKEI
  6
Continuous
 62
     1
100
AcDbLine
 10
14.31406245593831
 20
14.96985956604192
 30
0.0
 11
14.31406245593831
 21
17.95985956604193
 31
0.0
  0
LINE
  5
C9
330
2
100
AcDbEntity
  8
GAIKEI
  6
Continuous
100
AcDbLine
 10
14.88329949103831
 20
15.45985956604193
 30
0.0
 11
14.88329949103831
 21
17.85979477772196
 31
0.0
  0
LINE
  5
CA
330
2
100
AcDbEntity
  8
GAIKEI
  6
Continuous
100
AcDbLine
 10
14.8840624559383
 20
6.985177026581936
 30
0.0
 11
14.8840624559383
 21
20.00919397306194
 31
0.0
  0
LINE
  5
CB
330
2
100
AcDbEntity
  8
GAIKEI
  6
Continuous
100
AcDbLine
 10
16.3840624559383
 20
20.10985956604191
 30
0.0
 11
16.3840624559383
 21
6.909859566041973
 31
0.0
  0
LINE
  5
CC
330
2
100
AcDbEntity
  8
GAIKEI
  6
Continuous
 62
     1
100
AcDbLine
 10
16.40406245593829
 20
10.99985956604195
 30
0.0
 11
16.40406245593829
 21
11.00985956604194
 31
0.0
  0
LINE
  5
CD
330
2
100
AcDbEntity
  8
GAIKEI
  6
Continuous
 62
     1
100
AcDbLine
 10
16.40406245593829
 20
16.05985956604195
 30
0.0
 11
16.40406245593829
 21
16.06985956604194
 31
0.0
  0
LINE
  5
CE
330
2
100
AcDbEntity
  8
GAIKEI
  6
Continuous
 62
     1
100
AcDbLine
 10
16.48406245593833
 20
11.00985956604194
 30
0.0
 11
16.48406245593833
 21
16.05985956604195
 31
0.0
  0
LINE
  5
CF
330
2
100
AcDbEntity
  8
GAIKEI
  6
Continuous
100
AcDbLine
 10
14.90235915517831
 20
20.04785791908194
 30
0.0
 11
14.73406245593833
 21
19.90985956604197
 31
0.0
  0
LINE
  5
D0
330
2
100
AcDbEntity
  8
GAIKEI
  6
Continuous
 62
     1
100
AcDbLine
 10
55.13705587093827
 20
19.73700555888195
 30
0.0
 11
55.04106909993831
 21
19.78271354508194
 31
0.0
  0
LINE
  5
D1
330
2
100
AcDbEntity
  8
GAIKEI
  6
Continuous
100
AcDbLine
 10
19.96407209587829
 20
5.136465179701986
 30
0.0
 11
19.68406245593832
 21
6.909859566041973
 31
0.0
  0
LINE
  5
D2
330
2
100
AcDbEntity
  8
GAIKEI
  6
Continuous
100
AcDbLine
 10
14.17441945477833
 20
17.98253850132192
 30
0.0
 11
14.01599853345828
 21
17.83985956604192
 31
0.0
  0
LINE
  5
D3
330
2
100
AcDbEntity
  8
GAIKEI
  6
Continuous
 62
     1
100
AcDbLine
 10
55.06222521465829
 20
18.0056522029019
 30
0.0
 11
55.06179595597834
 21
18.0058643557619
 31
0.0
  0
LINE
  5
D4
330
2
100
AcDbEntity
  8
GAIKEI
  6
Continuous
 62
     1
100
AcDbLine
 10
20.88406245593831
 20
7.859859566041905
 30
0.0
 11
20.88406245593831
 21
8.209859566041927
 31
0.0
  0
LINE
  5
D5
330
2
100
AcDbEntity
  8
GAIKEI
  6
Continuous
 62
     1
100
AcDbLine
 10
20.88406245593831
 20
9.759859566041939
 30
0.0
 11
20.88406245593831
 21
9.409859566041973
 31
0.0
  0
LINE
  5
D6
330
2
100
AcDbEntity
  8
GAIKEI
  6
Continuous
 62
     1
100
AcDbLine
 10
21.68906245593831
 20
8.759859566041939
 30
0.0
 11
21.68906245593831
 21
8.859859566041905
 31
0.0
  0
LINE
  5
D7
330
2
100
AcDbEntity
  8
GAIKEI
  6
Continuous
 62
     1
100
AcDbLine
 10
21.83406245593829
 20
8.6148595660419
 30
0.0
 11
21.83406245593829
 21
8.759859566041939
 31
0.0
  0
LINE
  5
D8
330
2
100
AcDbEntity
  8
GAIKEI
  6
Continuous
 62
     1
100
AcDbLine
 10
21.83406245593829
 20
9.004859566041943
 30
0.0
 11
21.83406245593829
 21
8.859859566041905
 31
0.0
  0
LINE
  5
D9
330
2
100
AcDbEntity
  8
GAIKEI
  6
Continuous
 62
     1
100
AcDbLine
 10
21.93406245593832
 20
9.004859566041943
 30
0.0
 11
21.93406245593832
 21
8.859859566041905
 31
0.0
  0
LINE
  5
DA
330
2
100
AcDbEntity
  8
GAIKEI
  6
Continuous
 62
     1
100
AcDbLine
 10
21.93406245593832
 20
8.759859566041939
 30
0.0
 11
21.93406245593832
 21
8.6148595660419
 31
0.0
  0
LINE
  5
DB
330
2
100
AcDbEntity
  8
GAIKEI
  6
Continuous
 62
     1
100
AcDbLine
 10
22.0790624559383
 20
8.859859566041905
 30
0.0
 11
22.0790624559383
 21
8.759859566041939
 31
0.0
  0
LINE
  5
DC
330
2
100
AcDbEntity
  8
GAIKEI
  6
Continuous
100
AcDbLine
 10
22.40405281597828
 20
5.136465179701986
 30
0.0
 11
22.68406245593832
 21
6.909859566041973
 31
0.0
  0
LINE
  5
DD
330
2
100
AcDbEntity
  8
GAIKEI
  6
Continuous
100
AcDbLine
 10
13.90406245593829
 20
14.70985956604193
 30
0.0
 11
13.58406245593829
 21
14.55985956604195
 31
0.0
  0
LINE
  5
DE
330
2
100
AcDbEntity
  8
GAIKEI
  6
Continuous
100
AcDbLine
 10
14.93231748621832
 20
20.05916351458194
 30
0.0
 11
16.3840624559383
 21
20.10985956604191
 31
0.0
  0
LINE
  5
DF
330
2
100
AcDbEntity
  8
GAIKEI
  6
Continuous
100
AcDbLine
 10
54.76406245593827
 20
20.05133239996189
 30
0.0
 11
54.78406245593831
 21
20.05133239996189
 31
0.0
  0
LINE
  5
E0
330
2
100
AcDbEntity
  8
GAIKEI
  6
Continuous
100
AcDbLine
 10
54.76406245593827
 20
20.00170353084195
 30
0.0
 11
54.78406245593831
 21
20.00170353084195
 31
0.0
  0
LINE
  5
E1
330
2
100
AcDbEntity
  8
GAIKEI
  6
Continuous
 62
     1
100
AcDbLine
 10
54.88406245593828
 20
18.81348603978193
 30
0.0
 11
54.89707694987831
 21
18.81234741910191
 31
0.0
  0
LINE
  5
E2
330
2
100
AcDbEntity
  8
GAIKEI
  6
Continuous
 62
     1
100
AcDbLine
 10
14.17554794287832
 20
17.95502253266193
 30
0.0
 11
14.31406245593831
 21
17.95985956604193
 31
0.0
  0
LINE
  5
E3
330
2
100
AcDbEntity
  8
GAIKEI
  6
Continuous
 62
     1
100
AcDbLine
 10
55.19301319103826
 20
19.65485956604192
 30
0.0
 11
55.19373134651832
 21
19.65485956604192
 31
0.0
  0
LINE
  5
E4
330
2
100
AcDbEntity
  8
GAIKEI
  6
Continuous
 62
     1
100
AcDbLine
 10
55.19373134651832
 20
19.26485956604188
 30
0.0
 11
55.19301319103826
 21
19.26485956604188
 31
0.0
  0
LINE
  5
E5
330
2
100
AcDbEntity
  8
GAIKEI
  6
Continuous
 62
     1
100
AcDbLine
 10
54.90587594827829
 20
18.65985956604191
 30
0.0
 11
54.94591220467831
 21
18.65985956604191
 31
0.0
  0
LINE
  5
E6
330
2
100
AcDbEntity
  8
GAIKEI
  6
Continuous
 62
     1
100
AcDbLine
 10
54.90587594827829
 20
18.51185956604195
 30
0.0
 11
55.45806245593829
 21
18.51185956604195
 31
0.0
  0
LINE
  5
E7
330
2
100
AcDbEntity
  8
GAIKEI
  6
Continuous
100
AcDbLine
 10
14.29260613343831
 20
18.48223881550194
 30
0.0
 11
13.87439453028804
 21
18.48223881550194
 31
0.0
  0
LINE
  5
E8
330
2
100
AcDbEntity
  8
GAIKEI
  6
Continuous
 62
     1
100
AcDbLine
 10
54.90587594827829
 20
18.26185956604195
 30
0.0
 11
55.45806245593829
 21
18.26185956604195
 31
0.0
  0
LINE
  5
E9
330
2
100
AcDbEntity
  8
GAIKEI
  6
Continuous
 62
     1
100
AcDbLine
 10
54.88406245593828
 20
18.01185956604195
 30
0.0
 11
55.45806245593829
 21
18.01185956604195
 31
0.0
  0
LINE
  5
EA
330
2
100
AcDbEntity
  8
GAIKEI
  6
Continuous
 62
     1
100
AcDbLine
 10
55.33406245593832
 20
17.84485956604192
 30
0.0
 11
54.88406245593828
 21
17.84485956604192
 31
0.0
  0
LINE
  5
EB
330
2
100
AcDbEntity
  8
GAIKEI
  6
Continuous
 62
     1
100
AcDbLine
 10
54.98587594827828
 20
17.75818268866192
 30
0.0
 11
55.33406245593832
 21
17.75818268866192
 31
0.0
  0
LINE
  5
EC
330
2
100
AcDbEntity
  8
GAIKEI
  6
Continuous
 62
     1
100
AcDbLine
 10
54.88406245593828
 20
17.8204851328619
 30
0.0
 11
54.98587594827828
 21
17.81157760649182
 31
0.0
  0
LINE
  5
ED
330
2
100
AcDbEntity
  8
GAIKEI
  6
Continuous
 62
     1
100
AcDbLine
 10
54.88406245593828
 20
15.97048513286188
 30
0.0
 11
54.9770769498783
 21
15.96234741910189
 31
0.0
  0
LINE
  5
EE
330
2
100
AcDbEntity
  8
GAIKEI
  6
Continuous
 62
     1
100
AcDbLine
 10
55.13705587093827
 20
8.787005558881901
 30
0.0
 11
55.05181315809832
 21
8.827597326921932
 31
0.0
  0
LINE
  5
EF
330
2
100
AcDbEntity
  8
GAIKEI
  6
Continuous
 62
     1
100
AcDbLine
 10
54.88406245593828
 20
18.20623309230188
 30
0.0
 11
54.89707694987831
 21
18.20737171298191
 31
0.0
  0
LINE
  5
F0
330
2
100
AcDbEntity
  8
GAIKEI
  6
Continuous
 62
     1
100
AcDbLine
 10
54.98587594827828
 20
17.59748697176189
 30
0.0
 11
55.33406245593832
 21
17.59748697176189
 31
0.0
  0
LINE
  5
F1
330
2
100
AcDbEntity
  8
GAIKEI
  6
Continuous
 62
     1
100
AcDbLine
 10
16.3840624559383
 20
16.06985956604194
 30
0.0
 11
16.40406245593829
 21
16.06985956604194
 31
0.0
  0
LINE
  5
F2
330
2
100
AcDbEntity
  8
GAIKEI
  6
Continuous
 62
     1
100
AcDbLine
 10
16.3840624559383
 20
16.05985956604195
 30
0.0
 11
16.48406245593833
 21
16.05985956604195
 31
0.0
  0
LINE
  5
F3
330
2
100
AcDbEntity
  8
GAIKEI
  6
Continuous
 62
     1
100
AcDbLine
 10
55.0055822534783
 20
15.8598595660419
 30
0.0
 11
55.00667760443829
 21
15.8598595660419
 31
0.0
  0
LINE
  5
F4
330
2
100
AcDbEntity
  8
GAIKEI
  6
Continuous
 62
     1
100
AcDbLine
 10
55.0055822534783
 20
15.70985956604193
 30
0.0
 11
55.02190363561831
 21
15.70985956604193
 31
0.0
  0
LINE
  5
F5
330
2
100
AcDbEntity
  8
GAIKEI
  6
Continuous
 62
     1
100
AcDbLine
 10
55.02190363561831
 20
15.6098595660419
 30
0.0
 11
55.0055822534783
 21
15.6098595660419
 31
0.0
  0
LINE
  5
F6
330
2
100
AcDbEntity
  8
GAIKEI
  6
Continuous
 62
     1
100
AcDbLine
 10
14.19050364959832
 20
18.02884105782197
 30
0.0
 11
14.73853441553831
 21
18.00970340176195
 31
0.0
  0
LINE
  5
F7
330
2
100
AcDbEntity
  8
GAIKEI
  6
Continuous
100
AcDbLine
 10
46.18406245593831
 20
7.009859566041882
 30
0.0
 11
46.28406245593828
 21
6.909859566041916
 31
0.0
  0
LINE
  5
F8
330
2
100
AcDbEntity
  8
GAIKEI
  6
Continuous
100
AcDbLine
 10
32.60407209587834
 20
5.136465179701929
 30
0.0
 11
32.32406245593831
 21
6.909859566041916
 31
0.0
  0
LINE
  5
F9
330
2
100
AcDbEntity
  8
GAIKEI
  6
Continuous
100
AcDbLine
 10
22.88406245593831
 20
7.009859566041939
 30
0.0
 11
22.78406245593828
 21
6.909859566041973
 31
0.0
  0
LINE
  5
FA
330
2
100
AcDbEntity
  8
GAIKEI
  6
Continuous
 62
     1
100
AcDbLine
 10
54.88406245593828
 20
17.19923399922192
 30
0.0
 11
54.98587594827828
 21
17.20814152559194
 31
0.0
  0
LINE
  5
FB
330
2
100
AcDbEntity
  8
GAIKEI
  6
Continuous
 62
     1
100
AcDbLine
 10
54.88406245593828
 20
15.34923399922195
 30
0.0
 11
54.9770769498783
 21
15.35737171298194
 31
0.0
  0
LINE
  5
FC
330
2
100
AcDbEntity
  8
GAIKEI
  6
Continuous
 62
     1
100
AcDbLine
 10
55.00667760443829
 20
15.45985956604193
 30
0.0
 11
55.0055822534783
 21
15.45985956604193
 31
0.0
  0
LINE
  5
FD
330
2
100
AcDbEntity
  8
GAIKEI
  6
Continuous
 62
     1
100
AcDbLine
 10
13.9340673011983
 20
15.09985956604191
 30
0.0
 11
13.97113663699832
 21
15.09985956604191
 31
0.0
  0
LINE
  5
FE
330
2
100
AcDbEntity
  8
GAIKEI
  6
Continuous
 62
     1
100
AcDbLine
 10
14.27919507301828
 20
14.96985956604192
 30
0.0
 11
14.44676707683828
 21
14.96985956604192
 31
0.0
  0
LINE
  5
FF
330
2
100
AcDbEntity
  8
GAIKEI
  6
Continuous
 62
     1
100
AcDbLine
 10
54.88406245593828
 20
14.80985956604195
 30
0.0
 11
56.13406245593828
 21
14.80985956604195
 31
0.0
  0
LINE
  5
100
330
2
100
AcDbEntity
  8
GAIKEI
  6
Continuous
100
AcDbLine
 10
13.93406663475832
 20
14.70985956604193
 30
0.0
 11
13.90406245593829
 21
14.70985956604193
 31
0.0
  0
LINE
  5
101
330
2
100
AcDbEntity
  8
GAIKEI
  6
Continuous
 62
     1
100
AcDbLine
 10
54.88406245593828
 20
14.20985956604193
 30
0.0
 11
56.13406245593828
 21
14.20985956604193
 31
0.0
  0
LINE
  5
102
330
2
100
AcDbEntity
  8
GAIKEI
  6
Continuous
 62
     1
100
AcDbLine
 10
54.88406245593828
 20
14.10153644342193
 30
0.0
 11
55.33406245593832
 21
14.10153644342193
 31
0.0
  0
LINE
  5
103
330
2
100
AcDbEntity
  8
GAIKEI
  6
Continuous
 62
     1
100
AcDbLine
 10
54.88406245593828
 20
14.01789801544191
 30
0.0
 11
55.33406245593827
 21
14.01789801544191
 31
0.0
  0
LINE
  5
104
330
2
100
AcDbEntity
  8
GAIKEI
  6
Continuous
 62
     1
100
AcDbLine
 10
57.03406245593831
 20
13.90985956604191
 30
0.0
 11
56.43406245593829
 21
13.90985956604191
 31
0.0
  0
LINE
  5
105
330
2
100
AcDbEntity
  8
GAIKEI
  6
Continuous
 62
     1
100
AcDbLine
 10
54.88406245593828
 20
13.80785956604188
 30
0.0
 11
55.45806245593829
 21
13.80785956604188
 31
0.0
  0
LINE
  5
106
330
2
100
AcDbEntity
  8
GAIKEI
  6
Continuous
 62
     1
100
AcDbLine
 10
54.88406245593828
 20
13.55785956604188
 30
0.0
 11
55.45806245593829
 21
13.55785956604188
 31
0.0
  0
LINE
  5
107
330
2
100
AcDbEntity
  8
GAIKEI
  6
Continuous
 62
     1
100
AcDbLine
 10
54.88406245593828
 20
13.30785956604188
 30
0.0
 11
55.45806245593829
 21
13.30785956604188
 31
0.0
  0
LINE
  5
108
330
2
100
AcDbEntity
  8
GAIKEI
  6
Continuous
100
AcDbLine
 10
13.9340640714783
 20
13.20985956604193
 30
0.0
 11
13.90406245593829
 21
13.20985956604193
 31
0.0
  0
LINE
  5
109
330
2
100
AcDbEntity
  8
GAIKEI
  6
Continuous
 62
     1
100
AcDbLine
 10
54.93406245593829
 20
12.95985956604193
 30
0.0
 11
54.94591220467831
 21
12.95985956604193
 31
0.0
  0
LINE
  5
10A
330
2
100
AcDbEntity
  8
GAIKEI
  6
Continuous
 62
     1
100
AcDbLine
 10
54.88406245593828
 20
12.22985956604191
 30
0.0
 11
54.93406245593829
 21
12.22985956604191
 31
0.0
  0
LINE
  5
10B
330
2
100
AcDbEntity
  8
GAIKEI
  6
Continuous
 62
     1
100
AcDbLine
 10
54.93406245593829
 20
11.52985956604192
 30
0.0
 11
56.43406245593829
 21
11.52985956604192
 31
0.0
  0
LINE
  5
10C
330
2
100
AcDbEntity
  8
GAIKEI
  6
Continuous
 62
     1
100
AcDbLine
 10
57.03406245593831
 20
11.52985956604192
 30
0.0
 11
57.51406245593827
 21
11.52985956604192
 31
0.0
  0
LINE
  5
10D
330
2
100
AcDbEntity
  8
GAIKEI
  6
Continuous
 62
     1
100
AcDbLine
 10
54.88406245593828
 20
11.43985956604194
 30
0.0
 11
54.93406245593829
 21
11.43985956604194
 31
0.0
  0
LINE
  5
10E
330
2
100
AcDbEntity
  8
GAIKEI
  6
Continuous
 62
     1
100
AcDbLine
 10
54.88406245593828
 20
11.37485956604189
 30
0.0
 11
54.92591220467827
 21
11.37485956604189
 31
0.0
  0
LINE
  5
10F
330
2
100
AcDbEntity
  8
GAIKEI
  6
Continuous
 62
     1
100
AcDbLine
 10
54.99197299139829
 20
11.34985956604191
 30
0.0
 11
56.43406245593829
 21
11.34985956604191
 31
0.0
  0
LINE
  5
110
330
2
100
AcDbEntity
  8
GAIKEI
  6
Continuous
 62
     1
100
AcDbLine
 10
57.03406245593831
 20
11.34985956604191
 30
0.0
 11
57.4840624559383
 21
11.34985956604191
 31
0.0
  0
LINE
  5
111
330
2
100
AcDbEntity
  8
GAIKEI
  6
Continuous
 62
     1
100
AcDbLine
 10
56.42962594779826
 20
11.52985956604192
 30
0.0
 11
56.43406245593829
 21
11.52963548348191
 31
0.0
  0
LINE
  5
112
330
2
100
AcDbEntity
  8
GAIKEI
  6
Continuous
 62
     1
100
AcDbLine
 10
54.88406245593828
 20
9.770485132861949
 30
0.0
 11
54.9770769498783
 21
9.762347419101956
 31
0.0
  0
LINE
  5
113
330
2
100
AcDbEntity
  8
GAIKEI
  6
Continuous
100
AcDbLine
 10
35.04405281597832
 20
5.136465179701929
 30
0.0
 11
35.3240624559383
 21
6.909859566041916
 31
0.0
  0
LINE
  5
114
330
2
100
AcDbEntity
  8
GAIKEI
  6
Continuous
 62
     1
100
AcDbLine
 10
57.03406245593831
 20
11.1098595660419
 30
0.0
 11
56.43406245593829
 21
11.1098595660419
 31
0.0
  0
LINE
  5
115
330
2
100
AcDbEntity
  8
GAIKEI
  6
Continuous
 62
     1
100
AcDbLine
 10
16.48406245593833
 20
11.00985956604194
 30
0.0
 11
16.3840624559383
 21
11.00985956604194
 31
0.0
  0
LINE
  5
116
330
2
100
AcDbEntity
  8
GAIKEI
  6
Continuous
 62
     1
100
AcDbLine
 10
16.3840624559383
 20
10.99985956604195
 30
0.0
 11
16.40406245593829
 21
10.99985956604195
 31
0.0
  0
LINE
  5
117
330
2
100
AcDbEntity
  8
GAIKEI
  6
Continuous
 62
     1
100
AcDbLine
 10
56.13406245593828
 20
10.80985956604195
 30
0.0
 11
54.88406245593828
 21
10.80985956604195
 31
0.0
  0
LINE
  5
118
330
2
100
AcDbEntity
  8
GAIKEI
  6
Continuous
 62
     1
100
AcDbLine
 10
56.13406245593828
 20
10.20985956604193
 30
0.0
 11
54.88406245593828
 21
10.20985956604193
 31
0.0
  0
LINE
  5
119
330
2
100
AcDbEntity
  8
GAIKEI
  6
Continuous
 62
     1
100
AcDbLine
 10
50.8840624559383
 20
9.759859566041882
 30
0.0
 11
20.88406245593831
 21
9.759859566041939
 31
0.0
  0
LINE
  5
11A
330
2
100
AcDbEntity
  8
GAIKEI
  6
Continuous
 62
     1
100
AcDbLine
 10
50.8840624559383
 20
9.409859566041916
 30
0.0
 11
20.88406245593831
 21
9.409859566041973
 31
0.0
  0
LINE
  5
11B
330
2
100
AcDbEntity
  8
GAIKEI
  6
Continuous
 62
     1
100
AcDbLine
 10
55.35625171213829
 20
10.16200140714193
 30
0.0
 11
55.25406245593828
 21
10.16423912808193
 31
0.0
  0
LINE
  5
11C
330
2
100
AcDbEntity
  8
GAIKEI
  6
Continuous
 62
     1
100
AcDbLine
 10
54.88406245593828
 20
7.770485132861949
 30
0.0
 11
54.9770769498783
 21
7.762347419101956
 31
0.0
  0
LINE
  5
11D
330
2
100
AcDbEntity
  8
GAIKEI
  6
Continuous
 62
     1
100
AcDbLine
 10
55.13705587093827
 20
19.1827135731819
 30
0.0
 11
55.04106909993831
 21
19.13700558700191
 31
0.0
  0
LINE
  5
11E
330
2
100
AcDbEntity
  8
GAIKEI
  6
Continuous
 62
     1
100
AcDbLine
 10
54.88406245593828
 20
9.149233999221905
 30
0.0
 11
54.9770769498783
 21
9.157371712981898
 31
0.0
  0
LINE
  5
11F
330
2
100
AcDbEntity
  8
GAIKEI
  6
Continuous
 62
     1
100
AcDbLine
 10
54.88406245593828
 20
8.999233999221928
 30
0.0
 11
54.90606668023829
 21
9.001159119381895
 31
0.0
  0
LINE
  5
120
330
2
100
AcDbEntity
  8
GAIKEI
  6
Continuous
 62
     1
100
AcDbLine
 10
54.9545246581383
 20
9.005398643121907
 30
0.0
 11
54.9770769498783
 21
9.007371712981921
 31
0.0
  0
LINE
  5
121
330
2
100
AcDbEntity
  8
GAIKEI
  6
Continuous
 62
     1
100
AcDbLine
 10
55.35625171213829
 20
8.917717724941894
 30
0.0
 11
55.25406245593828
 21
8.915480004001892
 31
0.0
  0
LINE
  5
122
330
2
100
AcDbEntity
  8
GAIKEI
  6
Continuous
 62
     1
100
AcDbLine
 10
21.83406245593829
 20
9.004859566041943
 30
0.0
 11
21.93406245593832
 21
9.004859566041943
 31
0.0
  0
LINE
  5
123
330
2
100
AcDbEntity
  8
GAIKEI
  6
Continuous
 62
     1
100
AcDbLine
 10
49.8340624559383
 20
9.004859566041886
 30
0.0
 11
49.93406245593831
 21
9.004859566041886
 31
0.0
  0
LINE
  5
124
330
2
100
AcDbEntity
  8
GAIKEI
  6
Continuous
 62
     1
100
AcDbLine
 10
21.68906245593831
 20
8.859859566041905
 30
0.0
 11
21.83406245593829
 21
8.859859566041905
 31
0.0
  0
LINE
  5
125
330
2
100
AcDbEntity
  8
GAIKEI
  6
Continuous
 62
     1
100
AcDbLine
 10
21.93406245593832
 20
8.859859566041905
 30
0.0
 11
22.0790624559383
 21
8.859859566041905
 31
0.0
  0
LINE
  5
126
330
2
100
AcDbEntity
  8
GAIKEI
  6
Continuous
 62
     1
100
AcDbLine
 10
49.68906245593831
 20
8.859859566041905
 30
0.0
 11
49.8340624559383
 21
8.859859566041905
 31
0.0
  0
LINE
  5
127
330
2
100
AcDbEntity
  8
GAIKEI
  6
Continuous
 62
     1
100
AcDbLine
 10
49.93406245593831
 20
8.859859566041905
 30
0.0
 11
50.07906245593829
 21
8.859859566041905
 31
0.0
  0
LINE
  5
128
330
2
100
AcDbEntity
  8
GAIKEI
  6
Continuous
 62
     1
100
AcDbLine
 10
50.07906245593829
 20
8.759859566041882
 30
0.0
 11
49.93406245593831
 21
8.759859566041882
 31
0.0
  0
LINE
  5
129
330
2
100
AcDbEntity
  8
GAIKEI
  6
Continuous
 62
     1
100
AcDbLine
 10
22.0790624559383
 20
8.759859566041939
 30
0.0
 11
21.93406245593832
 21
8.759859566041939
 31
0.0
  0
LINE
  5
12A
330
2
100
AcDbEntity
  8
GAIKEI
  6
Continuous
 62
     1
100
AcDbLine
 10
21.68906245593831
 20
8.759859566041939
 30
0.0
 11
21.83406245593829
 21
8.759859566041939
 31
0.0
  0
LINE
  5
12B
330
2
100
AcDbEntity
  8
GAIKEI
  6
Continuous
 62
     1
100
AcDbLine
 10
49.68906245593831
 20
8.759859566041882
 30
0.0
 11
49.8340624559383
 21
8.759859566041882
 31
0.0
  0
LINE
  5
12C
330
2
100
AcDbEntity
  8
GAIKEI
  6
Continuous
 62
     1
100
AcDbLine
 10
49.93406245593831
 20
8.6148595660419
 30
0.0
 11
49.8340624559383
 21
8.6148595660419
 31
0.0
  0
LINE
  5
12D
330
2
100
AcDbEntity
  8
GAIKEI
  6
Continuous
 62
     1
100
AcDbLine
 10
21.93406245593832
 20
8.6148595660419
 30
0.0
 11
21.83406245593829
 21
8.6148595660419
 31
0.0
  0
LINE
  5
12E
330
2
100
AcDbEntity
  8
GAIKEI
  6
Continuous
 62
     1
100
AcDbLine
 10
57.4840624559383
 20
8.479859566041909
 30
0.0
 11
55.19350735093829
 21
8.479859566041909
 31
0.0
  0
LINE
  5
12F
330
2
100
AcDbEntity
  8
GAIKEI
  6
Continuous
 62
     1
100
AcDbLine
 10
57.51406245593833
 20
8.299859566041959
 30
0.0
 11
55.19123517011829
 21
8.299859566041959
 31
0.0
  0
LINE
  5
130
330
2
100
AcDbEntity
  8
GAIKEI
  6
Continuous
 62
     1
100
AcDbLine
 10
20.88406245593831
 20
8.209859566041927
 30
0.0
 11
50.8840624559383
 21
8.209859566041927
 31
0.0
  0
LINE
  5
131
330
2
100
AcDbEntity
  8
GAIKEI
  6
Continuous
 62
     1
100
AcDbLine
 10
20.88406245593831
 20
7.859859566041905
 30
0.0
 11
50.8840624559383
 21
7.859859566041905
 31
0.0
  0
LINE
  5
132
330
2
100
AcDbEntity
  8
GAIKEI
  6
Continuous
100
AcDbLine
 10
54.88406245593828
 20
7.169859566041964
 30
0.0
 11
54.58406245593832
 21
7.169859566041964
 31
0.0
  0
LINE
  5
133
330
2
100
AcDbEntity
  8
GAIKEI
  6
Continuous
100
AcDbLine
 10
14.00107284583828
 20
8.270908440781909
 30
0.0
 11
14.13442185083829
 21
8.26858082524194
 31
0.0
  0
LINE
  5
134
330
2
100
AcDbEntity
  8
GAIKEI
  6
Continuous
100
AcDbLine
 10
32.12406245593832
 20
7.009859566041882
 30
0.0
 11
32.22406245593828
 21
6.909859566041916
 31
0.0
  0
LINE
  5
135
330
2
100
AcDbEntity
  8
GAIKEI
  6
Continuous
100
AcDbLine
 10
35.52406245593829
 20
7.009859566041882
 30
0.0
 11
35.42406245593827
 21
6.909859566041916
 31
0.0
  0
LINE
  5
136
330
2
100
AcDbEntity
  8
GAIKEI
  6
Continuous
 62
     1
100
AcDbLine
 10
54.83406245593832
 20
7.14485956604193
 30
0.0
 11
54.9770769498783
 21
7.157371712981898
 31
0.0
  0
LINE
  5
137
330
2
100
AcDbEntity
  8
GAIKEI
  6
Continuous
 62
     1
100
AcDbLine
 10
54.75406245593828
 20
7.02985956604192
 30
0.0
 11
54.83406245593832
 21
7.02985956604192
 31
0.0
  0
LINE
  5
138
330
2
100
AcDbEntity
  8
GAIKEI
  6
Continuous
100
AcDbLine
 10
16.3840624559383
 20
7.009859566041939
 30
0.0
 11
54.65406245593832
 21
7.009859566041882
 31
0.0
  0
LINE
  5
139
330
2
100
AcDbEntity
  8
GAIKEI
  6
Continuous
 62
     1
100
AcDbLine
 10
54.65406245593832
 20
6.909859566041916
 30
0.0
 11
53.25406245593828
 21
6.909859566041916
 31
0.0
  0
LINE
  5
13A
330
2
100
AcDbEntity
  8
GAIKEI
  6
Continuous
100
AcDbLine
 10
49.48406245593833
 20
6.909859566041916
 30
0.0
 11
46.28406245593828
 21
6.909859566041916
 31
0.0
  0
LINE
  5
13B
330
2
100
AcDbEntity
  8
GAIKEI
  6
Continuous
100
AcDbLine
 10
35.42406245593827
 20
6.909859566041916
 30
0.0
 11
32.22406245593828
 21
6.909859566041916
 31
0.0
  0
LINE
  5
13C
330
2
100
AcDbEntity
  8
GAIKEI
  6
Continuous
100
AcDbLine
 10
22.78406245593828
 20
6.909859566041973
 30
0.0
 11
19.58406245593829
 21
6.909859566041973
 31
0.0
  0
LINE
  5
13D
330
2
100
AcDbEntity
  8
GAIKEI
  6
Continuous
 62
     1
100
AcDbLine
 10
49.10405281599833
 20
5.136465179721881
 30
0.0
 11
46.66407209587828
 21
5.136465179721881
 31
0.0
  0
LINE
  5
13E
330
2
100
AcDbEntity
  8
GAIKEI
  6
Continuous
 62
     1
100
AcDbLine
 10
35.04405281599833
 20
5.136465179721881
 30
0.0
 11
32.60407209587834
 21
5.136465179721881
 31
0.0
  0
LINE
  5
13F
330
2
100
AcDbEntity
  8
GAIKEI
  6
Continuous
 62
     1
100
AcDbLine
 10
22.40405281599828
 20
5.136465179721938
 30
0.0
 11
19.96407209587829
 21
5.136465179721938
 31
0.0
  0
LINE
  5
140
330
2
100
AcDbEntity
  8
GAIKEI
  6
Continuous
100
AcDbLine
 10
48.95587564647832
 20
5.009859566041882
 30
0.0
 11
46.81224926539829
 21
5.009859566041882
 31
0.0
  0
LINE
  5
141
330
2
100
AcDbEntity
  8
GAIKEI
  6
Continuous
100
AcDbLine
 10
34.89587564647832
 20
5.009859566041882
 30
0.0
 11
32.75224926539829
 21
5.009859566041882
 31
0.0
  0
LINE
  5
142
330
2
100
AcDbEntity
  8
GAIKEI
  6
Continuous
100
AcDbLine
 10
22.25587564647828
 20
5.009859566041939
 30
0.0
 11
20.1122492653983
 21
5.009859566041939
 31
0.0
  0
LINE
  5
143
330
2
100
AcDbEntity
  8
GAIKEI
  6
Continuous
100
AcDbLine
 10
16.3840624559383
 20
6.909859566041973
 30
0.0
 11
14.8840624559383
 21
6.936042163421916
 31
0.0
  0
LINE
  5
144
330
2
100
AcDbEntity
  8
GAIKEI
  6
Continuous
100
AcDbLine
 10
13.90406245593829
 20
13.20985956604193
 30
0.0
 11
13.58406245593829
 21
13.3598595660419
 31
0.0
  0
LINE
  5
145
330
2
100
AcDbEntity
  8
GAIKEI
  6
Continuous
100
AcDbLine
 10
46.66407209587828
 20
5.136465179701929
 30
0.0
 11
46.3840624559383
 21
6.909859566041916
 31
0.0
  0
LINE
  5
146
330
2
100
AcDbEntity
  8
GAIKEI
  6
Continuous
100
AcDbLine
 10
19.48406245593833
 20
7.009859566041939
 30
0.0
 11
19.58406245593829
 21
6.909859566041973
 31
0.0
  0
LINE
  5
147
330
2
100
AcDbEntity
  8
GAIKEI
  6
Continuous
 62
     1
100
AcDbLine
 10
55.13705587093827
 20
8.232713573181968
 30
0.0
 11
55.05181315809832
 21
8.192121805161946
 31
0.0
  0
LINE
  5
148
330
2
100
AcDbEntity
  8
GAIKEI
  6
Continuous
 62
     1
100
AcDbLine
 10
49.68906245593831
 20
8.759859566041882
 30
0.0
 11
49.68906245593831
 21
8.859859566041905
 31
0.0
  0
LINE
  5
149
330
2
100
AcDbEntity
  8
GAIKEI
  6
Continuous
 62
     1
100
AcDbLine
 10
49.8340624559383
 20
8.6148595660419
 30
0.0
 11
49.8340624559383
 21
8.759859566041882
 31
0.0
  0
LINE
  5
14A
330
2
100
AcDbEntity
  8
GAIKEI
  6
Continuous
 62
     1
100
AcDbLine
 10
49.8340624559383
 20
9.004859566041886
 30
0.0
 11
49.8340624559383
 21
8.859859566041905
 31
0.0
  0
LINE
  5
14B
330
2
100
AcDbEntity
  8
GAIKEI
  6
Continuous
 62
     1
100
AcDbLine
 10
49.93406245593831
 20
9.004859566041886
 30
0.0
 11
49.93406245593831
 21
8.859859566041905
 31
0.0
  0
LINE
  5
14C
330
2
100
AcDbEntity
  8
GAIKEI
  6
Continuous
 62
     1
100
AcDbLine
 10
49.93406245593831
 20
8.759859566041882
 30
0.0
 11
49.93406245593831
 21
8.6148595660419
 31
0.0
  0
LINE
  5
14D
330
2
100
AcDbEntity
  8
GAIKEI
  6
Continuous
 62
     1
100
AcDbLine
 10
50.07906245593829
 20
8.859859566041905
 30
0.0
 11
50.07906245593829
 21
8.759859566041882
 31
0.0
  0
LINE
  5
14E
330
2
100
AcDbEntity
  8
GAIKEI
  6
Continuous
 62
     1
100
AcDbLine
 10
50.8840624559383
 20
7.859859566041905
 30
0.0
 11
50.8840624559383
 21
8.209859566041927
 31
0.0
  0
LINE
  5
14F
330
2
100
AcDbEntity
  8
GAIKEI
  6
Continuous
 62
     1
100
AcDbLine
 10
50.8840624559383
 20
9.759859566041882
 30
0.0
 11
50.8840624559383
 21
9.409859566041916
 31
0.0
  0
LINE
  5
150
330
2
100
AcDbEntity
  8
GAIKEI
  6
Continuous
100
AcDbLine
 10
49.10405281597832
 20
5.136465179701929
 30
0.0
 11
49.38406245593831
 21
6.909859566041916
 31
0.0
  0
LINE
  5
151
330
2
100
AcDbEntity
  8
GAIKEI
  6
Continuous
100
AcDbLine
 10
49.58406245593829
 20
7.009859566041882
 30
0.0
 11
49.48406245593833
 21
6.909859566041916
 31
0.0
  0
LINE
  5
152
330
2
100
AcDbEntity
  8
GAIKEI
  6
Continuous
 62
     1
100
AcDbLine
 10
53.25406245593828
 20
6.909859566041916
 30
0.0
 11
53.25406245593828
 21
7.009859566041882
 31
0.0
  0
LINE
  5
153
330
2
100
AcDbEntity
  8
GAIKEI
  6
Continuous
 62
     1
100
AcDbLine
 10
53.75406245593828
 20
6.909859566041916
 30
0.0
 11
53.75406245593828
 21
7.009859566041882
 31
0.0
  0
LINE
  5
154
330
2
100
AcDbEntity
  8
GAIKEI
  6
Continuous
100
AcDbLine
 10
54.58406245593832
 20
7.169859566041964
 30
0.0
 11
54.58406245593832
 21
7.009859566041882
 31
0.0
  0
LINE
  5
155
330
2
100
AcDbEntity
  8
GAIKEI
  6
Continuous
100
AcDbLine
 10
54.65406245593832
 20
7.009859566041882
 30
0.0
 11
54.65406245593832
 21
7.169859566041964
 31
0.0
  0
LINE
  5
156
330
2
100
AcDbEntity
  8
GAIKEI
  6
Continuous
 62
     1
100
AcDbLine
 10
54.75406245593828
 20
7.009859566041882
 30
0.0
 11
54.75406245593828
 21
7.169859566041964
 31
0.0
  0
LINE
  5
157
330
2
100
AcDbEntity
  8
GAIKEI
  6
Continuous
100
AcDbLine
 10
54.76406245593827
 20
20.10985956604196
 30
0.0
 11
54.76406245593827
 21
20.00170353084195
 31
0.0
  0
LINE
  5
158
330
2
100
AcDbEntity
  8
GAIKEI
  6
Continuous
100
AcDbLine
 10
54.78406245593831
 20
20.00170353084195
 30
0.0
 11
54.78406245593831
 21
7.169859566041964
 31
0.0
  0
LINE
  5
159
330
2
100
AcDbEntity
  8
GAIKEI
  6
Continuous
100
AcDbLine
 10
54.78406245593831
 20
20.05985956604195
 30
0.0
 11
54.78406245593831
 21
20.05133239996189
 31
0.0
  0
LINE
  5
15A
330
2
100
AcDbEntity
  8
GAIKEI
  6
Continuous
 62
     1
100
AcDbLine
 10
54.83406245593832
 20
7.169859566041964
 30
0.0
 11
54.83406245593832
 21
7.02985956604192
 31
0.0
  0
LINE
  5
15B
330
2
100
AcDbEntity
  8
GAIKEI
  6
Continuous
100
AcDbLine
 10
54.88406245593828
 20
7.169859566041964
 30
0.0
 11
54.88406245593828
 21
19.95985956604193
 31
0.0
  0
LINE
  5
15C
330
2
100
AcDbEntity
  8
GAIKEI
  6
Continuous
 62
     1
100
AcDbLine
 10
54.89707694813827
 20
8.993356056981951
 30
0.0
 11
54.89707694877828
 21
9.000372619801908
 31
0.0
  0
LINE
  5
15D
330
2
100
AcDbEntity
  8
GAIKEI
  6
Continuous
 62
     1
100
AcDbLine
 10
54.90587594827829
 20
18.21478800688192
 30
0.0
 11
54.90587594827829
 21
18.80493112520196
 31
0.0
  0
LINE
  5
15E
330
2
100
AcDbEntity
  8
GAIKEI
  6
Continuous
 62
     1
100
AcDbLine
 10
54.9259122316183
 20
10.80985956604195
 30
0.0
 11
54.9259122046183
 21
11.37485956588193
 31
0.0
  0
LINE
  5
15F
330
2
100
AcDbEntity
  8
GAIKEI
  6
Continuous
 62
     1
100
AcDbLine
 10
54.92591220961831
 20
17.84485956604192
 30
0.0
 11
54.92591223141833
 21
18.01185956604195
 31
0.0
  0
LINE
  5
160
330
2
100
AcDbEntity
  8
GAIKEI
  6
Continuous
 62
     1
100
AcDbLine
 10
54.93406245593829
 20
13.30785956604188
 30
0.0
 11
54.93406245593829
 21
12.22985956604191
 31
0.0
  0
LINE
  5
161
330
2
100
AcDbEntity
  8
GAIKEI
  6
Continuous
 62
     1
100
AcDbLine
 10
54.93406245593829
 20
12.1098595660419
 30
0.0
 11
54.93406245593829
 21
11.43985956604194
 31
0.0
  0
LINE
  5
162
330
2
100
AcDbEntity
  8
GAIKEI
  6
Continuous
 62
     1
100
AcDbLine
 10
54.94591221200332
 20
18.51185956604195
 30
0.0
 11
54.94591220461828
 21
18.6598595658819
 31
0.0
  0
LINE
  5
163
330
2
100
AcDbEntity
  8
GAIKEI
  6
Continuous
 62
     1
100
AcDbLine
 10
54.9770769500183
 20
13.80785956604188
 30
0.0
 11
54.97707695023828
 21
14.01485956604188
 31
0.0
  0
LINE
  5
164
330
2
100
AcDbEntity
  8
GAIKEI
  6
Continuous
 62
     1
100
AcDbLine
 10
54.9840624559383
 20
8.05985956604195
 30
0.0
 11
54.9840624559383
 21
8.959859566041927
 31
0.0
  0
LINE
  5
165
330
2
100
AcDbEntity
  8
GAIKEI
  6
Continuous
 62
     1
100
AcDbLine
 10
54.9840624559383
 20
19.00985956604188
 30
0.0
 11
54.9840624559383
 21
19.90985956604191
 31
0.0
  0
LINE
  5
166
330
2
100
AcDbEntity
  8
GAIKEI
  6
Continuous
 62
     1
100
AcDbLine
 10
54.98587594827828
 20
7.164788006881906
 30
0.0
 11
54.98587594827828
 21
7.754931125201892
 31
0.0
  0
LINE
  5
167
330
2
100
AcDbEntity
  8
GAIKEI
  6
Continuous
 62
     1
100
AcDbLine
 10
54.98587594827828
 20
9.014788006881872
 30
0.0
 11
54.98587594937831
 21
10.20985956604193
 31
0.0
  0
LINE
  5
168
330
2
100
AcDbEntity
  8
GAIKEI
  6
Continuous
 62
     1
100
AcDbLine
 10
54.98587594827828
 20
15.36478800688189
 30
0.0
 11
54.98587594827828
 21
15.95493112520194
 31
0.0
  0
LINE
  5
169
330
2
100
AcDbEntity
  8
GAIKEI
  6
Continuous
 62
     1
100
AcDbLine
 10
54.98587594827828
 20
17.20814152559194
 30
0.0
 11
54.98587594827828
 21
17.81157760649182
 31
0.0
  0
LINE
  5
16A
330
2
100
AcDbEntity
  8
GAIKEI
  6
Continuous
 62
     1
100
AcDbLine
 10
55.01564696517831
 20
10.80985956604195
 30
0.0
 11
55.0156469431183
 21
11.31899205278193
 31
0.0
  0
LINE
  5
16B
330
2
100
AcDbEntity
  8
GAIKEI
  6
Continuous
 62
     1
100
AcDbLine
 10
55.03564694311828
 20
13.01572707928193
 30
0.0
 11
55.03564694165831
 21
13.30785956604188
 31
0.0
  0
LINE
  5
16C
330
2
100
AcDbEntity
  8
GAIKEI
  6
Continuous
 62
     1
100
AcDbLine
 10
55.25406245593828
 20
10.20985956604193
 30
0.0
 11
55.25406245593828
 21
8.479859566041909
 31
0.0
  0
LINE
  5
16D
330
2
100
AcDbEntity
  8
GAIKEI
  6
Continuous
 62
     1
100
AcDbLine
 10
55.33406245593832
 20
17.8448516852219
 30
0.0
 11
55.33406245593832
 21
14.80985956604195
 31
0.0
  0
LINE
  5
16E
330
2
100
AcDbEntity
  8
GAIKEI
  6
Continuous
 62
     1
100
AcDbLine
 10
55.33406245593832
 20
14.20985956604193
 30
0.0
 11
55.33406245593827
 21
14.01789801544191
 31
0.0
  0
LINE
  5
16F
330
2
100
AcDbEntity
  8
GAIKEI
  6
Continuous
 62
     1
100
AcDbLine
 10
55.45406245593833
 20
10.06202537364191
 30
0.0
 11
55.45406245593833
 21
9.017693758441907
 31
0.0
  0
LINE
  5
170
330
2
100
AcDbEntity
  8
GAIKEI
  6
Continuous
 62
     1
100
AcDbLine
 10
55.45806245593829
 20
18.51185956604195
 30
0.0
 11
55.45806245593829
 21
18.01185956604195
 31
0.0
  0
LINE
  5
171
330
2
100
AcDbEntity
  8
GAIKEI
  6
Continuous
 62
     1
100
AcDbLine
 10
55.45806245593829
 20
13.80785956604188
 30
0.0
 11
55.45806245593829
 21
13.30785956604188
 31
0.0
  0
LINE
  5
172
330
2
100
AcDbEntity
  8
GAIKEI
  6
Continuous
 62
     1
100
AcDbLine
 10
56.13406245593828
 20
10.20985956604193
 30
0.0
 11
56.13406245593828
 21
10.80985956604195
 31
0.0
  0
LINE
  5
173
330
2
100
AcDbEntity
  8
GAIKEI
  6
Continuous
 62
     1
100
AcDbLine
 10
56.13406245593828
 20
14.80985956604195
 30
0.0
 11
56.13406245593828
 21
14.20985956604193
 31
0.0
  0
LINE
  5
174
330
2
100
AcDbEntity
  8
GAIKEI
  6
Continuous
 62
     1
100
AcDbLine
 10
56.43406245593829
 20
13.90985956604191
 30
0.0
 11
56.43406245593829
 21
11.1098595660419
 31
0.0
  0
LINE
  5
175
330
2
100
AcDbEntity
  8
GAIKEI
  6
Continuous
 62
     1
100
AcDbLine
 10
57.03406245593831
 20
13.90985956604191
 30
0.0
 11
57.03406245593831
 21
11.1098595660419
 31
0.0
  0
LINE
  5
176
330
2
100
AcDbEntity
  8
GAIKEI
  6
Continuous
 62
     1
100
AcDbLine
 10
57.58406245593832
 20
11.24985956604189
 30
0.0
 11
57.58406245593826
 21
8.579859566041932
 31
0.0
  0
LINE
  5
177
330
2
100
AcDbEntity
  8
GAIKEI
  6
Continuous
 62
     1
100
AcDbLine
 10
57.76406245593827
 20
11.27985956604192
 30
0.0
 11
57.76406245593832
 21
8.549859566041959
 31
0.0
  0
LINE
  5
178
330
2
100
AcDbEntity
  8
GAIKEI
  6
Continuous
 62
     1
100
AcDbLine
 10
56.10497139187831
 20
11.35191634810189
 30
0.0
 11
56.11094372919828
 21
11.35049605642189
 31
0.0
  0
LINE
  5
179
330
2
100
AcDbEntity
  8
GAIKEI
  6
Continuous
 62
     1
100
AcDbLine
 10
56.11094372919828
 20
11.35049605642189
 30
0.0
 11
56.11698448787828
 21
11.3498850545219
 31
0.0
  0
LINE
  5
17A
330
2
100
AcDbEntity
  8
GAIKEI
  6
Continuous
 62
     1
100
AcDbLine
 10
56.11698448787828
 20
11.3498850545219
 30
0.0
 11
56.11849896407827
 21
11.34985956604191
 31
0.0
  0
LINE
  5
17B
330
2
100
AcDbEntity
  8
GAIKEI
  6
Continuous
 62
     1
100
AcDbLine
 10
56.11849896407827
 20
11.52985956604192
 30
0.0
 11
56.11395896625831
 21
11.52963025636188
 31
0.0
  0
LINE
  5
17C
330
2
100
AcDbEntity
  8
GAIKEI
  6
Continuous
 62
     1
100
AcDbLine
 10
56.11395896625831
 20
11.52963025636188
 30
0.0
 11
56.10794560715831
 21
11.52861345788187
 31
0.0
  0
LINE
  5
17D
330
2
100
AcDbEntity
  8
GAIKEI
  6
Continuous
 62
     1
100
AcDbLine
 10
56.10794560715831
 20
11.52861345788187
 30
0.0
 11
56.10202782089832
 21
11.5267928904019
 31
0.0
  0
LINE
  5
17E
330
2
100
AcDbEntity
  8
GAIKEI
  6
Continuous
 62
     1
100
AcDbLine
 10
56.43406245593829
 20
11.35018060796187
 30
0.0
 11
56.4311404239983
 21
11.3498850545219
 31
0.0
  0
LINE
  5
17F
330
2
100
AcDbEntity
  8
GAIKEI
  6
Continuous
 62
     1
100
AcDbLine
 10
56.4311404239983
 20
11.3498850545219
 30
0.0
 11
56.42962594779826
 21
11.34985956604191
 31
0.0
  0
POINT
  5
180
330
2
100
AcDbEntity
  8
GAIKEI
100
AcDbPoint
 10
14.8840624559383
 20
7.478757189621944
 30
0.0
  0
POINT
  5
181
330
2
100
AcDbEntity
  8
GAIKEI
100
AcDbPoint
 10
13.58406245593829
 20
14.45985956604193
 30
0.0
  0
POINT
  5
182
330
2
100
AcDbEntity
  8
GAIKEI
100
AcDbPoint
 10
14.8840624559383
 20
19.88925645018196
 30
0.0
  0
POINT
  5
183
330
2
100
AcDbEntity
  8
GAIKEI
100
AcDbPoint
 10
16.28406245593828
 20
20.10985956604191
 30
0.0
  0
POINT
  5
184
330
2
100
AcDbEntity
  8
GAIKEI
100
AcDbPoint
 10
16.28406245593828
 20
6.909859566041973
 30
0.0
  0
POINT
  5
185
330
2
100
AcDbEntity
  8
GAIKEI
100
AcDbPoint
 10
13.85406731829829
 20
16.1383984444019
 30
0.0
  0
SPLINE
  5
186
330
2
100
AcDbEntity
  8
GAIKEI
  6
Continuous
 62
     1
100
AcDbSpline
210
0.0
220
0.0
230
1.0
 70
     8
 71
     3
 72
    15
 73
    11
 74
     9
 42
0.0000000001
 43
0.0000000001
 44
0.00000000001
 40
0.0
 40
0.0
 40
0.0
 40
0.0
 40
0.0036255576872075
 40
0.007094758125151
 40
0.0095712193983718
 40
0.0119013314604822
 40
0.0137795138615486
 40
0.0157369620612455
 40
0.0178515590308334
 40
0.0200365993573675
 40
0.0200365993573675
 40
0.0200365993573675
 40
0.0200365993573675
 10
-10.8287930876981
 20
18.02884105784199
 30
0.0
 10
-10.83000160950695
 20
18.02883905248933
 30
0.0
 10
-10.83236653393032
 20
18.02883512826759
 30
0.0
 10
-10.83555681818879
 20
18.02880316178334
 30
0.0
 10
-10.83831506004773
 20
18.02875804611733
 30
0.0
 10
-10.84054271959235
 20
18.02870661335316
 30
0.0
 10
-10.84259707584454
 20
18.02864328567256
 30
0.0
 10
-10.84457953038515
 20
18.02859194797969
 30
0.0
 10
-10.84666368515803
 20
18.02846832878606
 30
0.0
 10
-10.84808150186399
 20
18.02825406694711
 30
0.0
 10
-10.84880202465808
 20
18.02814518084199
 30
0.0
 11
-10.8287930876981
 21
18.02884105784199
 31
0.0
 11
-10.83241862815026
 21
18.02882987870953
 31
0.0
 11
-10.83588765895229
 21
18.02879557166591
 31
0.0
 11
-10.83836377774219
 21
18.02875438700778
 31
0.0
 11
-10.84069325058971
 21
18.02869981160438
 31
0.0
 11
-10.84257065076366
 21
18.02864561088006
 31
0.0
 11
-10.84452709199308
 21
18.02858283213919
 31
0.0
 11
-10.84663675355995
 21
18.02843844232967
 31
0.0
 11
-10.84880202465808
 21
18.02814518084199
 31
0.0
  0
SPLINE
  5
187
330
2
100
AcDbEntity
  8
GAIKEI
  6
Continuous
 62
     1
100
AcDbSpline
210
0.0
220
0.0
230
1.0
 70
     8
 71
     3
 72
    25
 73
    21
 74
    19
 42
0.0000000001
 43
0.0000000001
 44
0.00000000001
 40
0.0
 40
0.0
 40
0.0
 40
0.0
 40
0.0166797909361202
 40
0.03264984634253
 40
0.0448352289378849
 40
0.0566265537970644
 40
0.0664113938115194
 40
0.0765150825874534
 40
0.0858970445990205
 40
0.0952895671881492
 40
0.1035825033550415
 40
0.111875615092687
 40
0.1188288043836871
 40
0.1257734897845972
 40
0.131195106662161
 40
0.1365711433205091
 40
0.1404683467632704
 40
0.1442785461795317
 40
0.1471479731081929
 40
0.1499715149485898
 40
0.1499715149485898
 40
0.1499715149485898
 40
0.1499715149485898
 10
-10.85794204641809
 20
17.86500624982193
 30
0.0
 10
-10.85793933500369
 20
17.87056618132897
 30
0.0
 10
-10.85793402754728
 20
17.88144946578222
 30
0.0
 10
-10.85788837441697
 20
17.89639448891341
 30
0.0
 10
-10.85782504137251
 20
17.90970992834388
 30
0.0
 10
-10.85775621323512
 20
17.92096357237227
 30
0.0
 10
-10.85767349375064
 20
17.9315232039728
 30
0.0
 10
-10.85758121844083
 20
17.941279602868
 30
0.0
 10
-10.85747321442073
 20
17.95090505948587
 30
0.0
 10
-10.8573548024645
 20
17.95992676343792
 30
0.0
 10
-10.85722117241255
 20
17.96858526303572
 30
0.0
 10
-10.85708032333008
 20
17.97643042294317
 30
0.0
 10
-10.85692495298525
 20
17.98382579660563
 30
0.0
 10
-10.85677213650763
 20
17.99026382027875
 30
0.0
 10
-10.85660173634898
 20
17.99617554203087
 30
0.0
 10
-10.85642485708857
 20
18.0010705934958
 30
0.0
 10
-10.85623650409158
 20
18.0054279560515
 30
0.0
 10
-10.85610437314938
 20
18.00895025785968
 30
0.0
 10
-10.85588926861515
 20
18.01211416173225
 30
0.0
 10
-10.85557234650417
 20
18.01398633303932
 30
0.0
 10
-10.85541516263811
 20
18.01491487388193
 30
0.0
 11
-10.85794204641809
 21
17.86500624982193
 31
0.0
 11
-10.85792662071907
 21
17.8816860336251
 31
0.0
 11
-10.85787938284517
 21
17.89765601916883
 31
0.0
 11
-10.85782160991641
 21
17.90984126480788
 31
0.0
 11
-10.85774843386224
 21
17.92163236260239
 31
0.0
 11
-10.85767172002579
 21
17.93141690189128
 31
0.0
 11
-10.85757586538545
 21
17.94152013596601
 31
0.0
 11
-10.85747027815057
 21
17.95090150380457
 31
0.0
 11
-10.85734615537262
 21
17.96029320621272
 31
0.0
 11
-10.85721769143737
 21
17.96858514731752
 31
0.0
 11
-10.85706771397616
 21
17.9768769028044
 31
0.0
 11
-10.85692173317653
 21
17.98382855950785
 31
0.0
 11
-10.85675348173765
 21
17.99077120646495
 31
0.0
 11
-10.85659467627738
 21
17.99619049704517
 31
0.0
 11
-10.85639970290253
 21
18.00156299697863
 31
0.0
 11
-10.85623900318211
 21
18.00545688581553
 31
0.0
 11
-10.85607057657199
 21
18.00926336083432
 31
0.0
 11
-10.85584045367375
 21
18.01212354515542
 31
0.0
 11
-10.85541516263811
 21
18.01491487388193
 31
0.0
  0
SPLINE
  5
188
330
2
100
AcDbEntity
  8
GAIKEI
  6
Continuous
100
AcDbSpline
210
0.0
220
0.0
230
1.0
 70
     8
 71
     3
 72
    21
 73
    17
 74
    15
 42
0.0000000001
 43
0.0000000001
 44
0.00000000001
 40
0.0
 40
0.0
 40
0.0
 40
0.0
 40
0.0071984178515074
 40
0.0140694549687031
 40
0.0194951001987882
 40
0.024761631056463
 40
0.0294635518603906
 40
0.0343158945371043
 40
0.0392527291140315
 40
0.0441890436402227
 40
0.0490379074629264
 40
0.0537368251905915
 40
0.0590002196050528
 40
0.064422980867549
 40
0.0712897847245076
 40
0.0784831957090634
 40
0.0784831957090634
 40
0.0784831957090634
 40
0.0784831957090634
 10
-50.68674289891811
 20
6.909859566041973
 30
0.0
 10
-50.68914515247948
 20
6.909948417985333
 30
0.0
 10
-50.69384040621475
 20
6.910122080926441
 30
0.0
 10
-50.70021186222746
 20
6.911573177445745
 30
0.0
 10
-50.70573272956477
 20
6.913536809600827
 30
0.0
 10
-50.71039534403197
 20
6.915702748462933
 30
0.0
 10
-50.71463663043329
 20
6.918252458843539
 30
0.0
 10
-50.71851429205844
 20
6.92114503210638
 30
0.0
 10
-50.72216313434939
 20
6.924440035380484
 30
0.0
 10
-50.7254582833759
 20
6.928087190590986
 30
0.0
 10
-50.72835034733074
 20
6.931962306997775
 30
0.0
 10
-50.73089964241422
 20
6.93620008737264
 30
0.0
 10
-50.7330656237358
 20
6.940859373425837
 30
0.0
 10
-50.73502916497943
 20
6.946376650298702
 30
0.0
 10
-50.73648032315976
 20
6.952743962293652
 30
0.0
 10
-50.73665403172336
 20
6.957436138181378
 30
0.0
 10
-50.73674290355814
 20
6.959836723801913
 30
0.0
 11
-50.68674289891811
 21
6.909859566041973
 31
0.0
 11
-50.69392426116519
 21
6.910354799159904
 31
0.0
 11
-50.70063633221377
 21
6.911824238952704
 31
0.0
 11
-50.70575119607003
 21
6.913634154391274
 31
0.0
 11
-50.7105198554421
 21
6.915869380345839
 31
0.0
 11
-50.71455058599252
 21
6.918290386433454
 31
0.0
 11
-50.71844406331712
 21
6.921186256557462
 31
0.0
 11
-50.72210410142583
 21
6.924499330158027
 31
0.0
 11
-50.72541771098946
 21
6.928158181447884
 31
0.0
 11
-50.72831244033301
 21
6.932048171473411
 31
0.0
 11
-50.73073303575921
 21
6.936075645321125
 31
0.0
 11
-50.73296821170657
 21
6.940840864019833
 31
0.0
 11
-50.73477818534508
 21
6.94595264796851
 31
0.0
 11
-50.73624763837472
 21
6.95266038253419
 31
0.0
 11
-50.73674290355814
 21
6.959836723801913
 31
0.0
  0
SPLINE
  5
189
330
2
100
AcDbEntity
  8
GAIKEI
  6
Continuous
 62
     1
100
AcDbSpline
210
0.0
220
0.0
230
1.0
 70
     8
 71
     3
 72
    23
 73
    19
 74
    17
 42
0.0000000001
 43
0.0000000001
 44
0.00000000001
 40
0.0
 40
0.0
 40
0.0
 40
0.0
 40
0.005598842331195
 40
0.0109365335651603
 40
0.0150962786111914
 40
0.0191202310099636
 40
0.0226901009463114
 40
0.0263714711311551
 40
0.0302027723667084
 40
0.0340367337068021
 40
0.0380516691355015
 40
0.0420700002080202
 40
0.0463099821742187
 40
0.0505060067894622
 40
0.0551864010383502
 40
0.0599401811085538
 40
0.0654105672647648
 40
0.0709995391973945
 40
0.0709995391973945
 40
0.0709995391973945
 40
0.0709995391973945
 10
-11.7617429036581
 20
18.525791671202
 30
0.0
 10
-11.76180468896325
 20
18.52392326951144
 30
0.0
 10
-11.76192537767409
 20
18.52027361542349
 30
0.0
 10
-11.76298924819366
 20
18.51532889231839
 30
0.0
 10
-11.7644285969377
 20
18.51105378376013
 30
0.0
 10
-11.76601009258632
 20
18.50746179298898
 30
0.0
 10
-11.76786671572594
 20
18.50418746726024
 30
0.0
 10
-11.76998295935038
 20
18.50115363990085
 30
0.0
 10
-11.77240979057367
 20
18.49824604917978
 30
0.0
 10
-11.77517070467644
 20
18.49549364102847
 30
0.0
 10
-11.77820946148045
 20
18.49295290498497
 30
0.0
 10
-11.78157076503265
 20
18.49061230984631
 30
0.0
 10
-11.78516878024612
 20
18.48853114101865
 30
0.0
 10
-11.78912990099479
 20
18.48666883353144
 30
0.0
 10
-11.79339703347017
 20
18.48509145277182
 30
0.0
 10
-11.79818490580174
 20
18.48375122141129
 30
0.0
 10
-11.80337105352251
 20
18.48274618535373
 30
0.0
 10
-11.80704956863957
 20
18.48246830541689
 30
0.0
 10
-11.80890854793813
 20
18.482327875642
 30
0.0
 11
-11.7617429036581
 21
18.525791671202
 31
0.0
 11
-11.76209862193388
 21
18.52020414044523
 31
0.0
 11
-11.7631801879051
 21
18.51497717547892
 31
0.0
 11
-11.7645024762686
 21
18.51103318862147
 31
0.0
 11
-11.76613539433503
 21
18.50735544862306
 31
0.0
 11
-11.76789455732108
 21
18.50424911365223
 31
0.0
 11
-11.76999569102634
 21
18.50122624686878
 31
0.0
 11
-11.77245229816725
 21
18.49828618725837
 31
0.0
 11
-11.77516479675927
 21
18.49557664653241
 31
0.0
 11
-11.77824432878589
 21
18.49300056637185
 31
0.0
 11
-11.78153943687755
 21
18.49070073001405
 31
0.0
 11
-11.78520939806395
 21
18.48857732897704
 31
0.0
 11
-11.78900557433968
 21
18.4867896857645
 31
0.0
 11
-11.79339303154614
 21
18.48515986688301
 31
0.0
 11
-11.7979695798466
 21
18.48387393118889
 31
0.0
 11
-11.80334474690721
 21
18.4828577108542
 31
0.0
 11
-11.80890854793813
 21
18.482327875642
 31
0.0
  0
SPLINE
  5
18A
330
2
100
AcDbEntity
  8
GAIKEI
  6
Continuous
 62
     1
100
AcDbSpline
210
0.0
220
0.0
230
1.0
 70
    24
 71
     3
 72
     9
 73
     5
 74
     3
 42
0.0000000001
 43
0.0000000001
 44
0.00000000001
 40
0.0
 40
0.0
 40
0.0
 40
0.0
 40
0.0017088923642389
 40
0.0034177847284794
 40
0.0034177847284794
 40
0.0034177847284794
 40
0.0034177847284794
 10
-11.80890854793813
 20
18.482327875642
 30
0.0
 10
-11.80947798599811
 20
18.48231305907865
 30
0.0
 10
-11.81061686211811
 20
18.482283425952
 30
0.0
 10
-11.81175573823813
 20
18.48225379282536
 30
0.0
 10
-11.81232517629814
 20
18.48223897626195
 30
0.0
 11
-11.80890854793813
 21
18.482327875642
 31
0.0
 11
-11.81061686211814
 21
18.482283425952
 31
0.0
 11
-11.81232517629814
 21
18.48223897626195
 31
0.0
  0
SPLINE
  5
18B
330
2
100
AcDbEntity
  8
GAIKEI
  6
Continuous
 62
     1
100
AcDbSpline
210
0.0
220
0.0
230
1.0
 70
     8
 71
     3
 72
    23
 73
    19
 74
    17
 42
0.0000000001
 43
0.0000000001
 44
0.00000000001
 40
0.0
 40
0.0
 40
0.0
 40
0.0
 40
0.0057319077443981
 40
0.0111791086502111
 40
0.0152570823910366
 40
0.0191814248603288
 40
0.0224702431429247
 40
0.0258744849790227
 40
0.0292493167900152
 40
0.0326294757865102
 40
0.0359710682804178
 40
0.0393126922603231
 40
0.0425884750700488
 40
0.0457630571358934
 40
0.0493564240853156
 40
0.0530664203112211
 40
0.0578154747362886
 40
0.0627919427476758
 40
0.0627919427476758
 40
0.0627919427476758
 40
0.0627919427476758
 10
-11.80174289483812
 20
19.34223881550195
 30
0.0
 10
-11.79982980776208
 20
19.34217064289413
 30
0.0
 10
-11.79609865763993
 20
19.34203768384742
 30
0.0
 10
-11.79111366009118
 20
19.34089202081486
 30
0.0
 10
-11.786885505968
 20
19.33939317563613
 30
0.0
 10
-11.78344852438454
 20
19.33784446969224
 30
0.0
 10
-11.78037219398553
 20
19.33608576632719
 30
0.0
 10
-11.77760672865938
 20
19.33417786121538
 30
0.0
 10
-11.7749818929355
 20
19.33203174404508
 30
0.0
 10
-11.77257279596151
 20
19.32967546127975
 30
0.0
 10
-11.77037817221403
 20
19.32713320394964
 30
0.0
 10
-11.76843068338212
 20
19.32444006674956
 30
0.0
 10
-11.76673159266226
 20
19.32164918388759
 30
0.0
 10
-11.76522809824513
 20
19.31865350072587
 30
0.0
 10
-11.76394532612852
 20
19.31539981905394
 30
0.0
 10
-11.76276721398005
 20
19.31155639864562
 30
0.0
 10
-11.76189408148136
 20
19.30714416231899
 30
0.0
 10
-11.76179407584229
 20
19.30389922867067
 30
0.0
 10
-11.76174290379811
 20
19.30223882342193
 30
0.0
 11
-11.80174289483812
 21
19.34223881550195
 31
0.0
 11
-11.79602428739787
 21
19.34184856515344
 31
0.0
 11
-11.79070479432164
 21
19.34067596499983
 31
0.0
 11
-11.78685793940968
 21
19.33932260728022
 31
0.0
 11
-11.78328635650257
 21
19.33769648940199
 31
0.0
 11
-11.7804299790439
 21
19.33606632575697
 31
0.0
 11
-11.77762653602155
 21
19.33413511636928
 31
0.0
 11
-11.77501659363906
 21
19.33199556255772
 31
0.0
 11
-11.77259848151777
 21
19.32963373940379
 31
0.0
 11
-11.77041582131744
 21
19.32710347561414
 31
0.0
 11
-11.76845498603666
 21
19.32439763455733
 31
0.0
 11
-11.76675366521709
 21
19.32159830240744
 31
0.0
 11
-11.7653313935159
 21
19.3187601490464
 31
0.0
 11
-11.76400323311634
 21
19.31542124563566
 31
0.0
 11
-11.76292208956056
 21
19.31187227386795
 31
0.0
 11
-11.76203571932143
 21
19.30720666932711
 31
0.0
 11
-11.76174290379811
 21
19.30223882342193
 31
0.0
  0
SPLINE
  5
18C
330
2
100
AcDbEntity
  8
GAIKEI
  6
Continuous
 62
     1
100
AcDbSpline
210
0.0
220
0.0
230
1.0
 70
     8
 71
     3
 72
    21
 73
    17
 74
    15
 42
0.0000000001
 43
0.0000000001
 44
0.00000000001
 40
0.0
 40
0.0
 40
0.0
 40
0.0
 40
0.0058938286781336
 40
0.011500950153869
 40
0.0158101433033
 40
0.0199739744168305
 40
0.0235997432231835
 40
0.0273493304937742
 40
0.0311561627523254
 40
0.0349632591472474
 40
0.0387378579928609
 40
0.0423845504427305
 40
0.046611868620669
 40
0.0509913634127524
 40
0.0567367153108286
 40
0.0627817090834117
 40
0.0627817090834117
 40
0.0627817090834117
 40
0.0627817090834117
 10
-15.77174290449812
 20
19.34223881550195
 30
0.0
 10
-15.77371018732398
 20
19.34216642202
 30
0.0
 10
-15.77754905386632
 20
19.34202515666055
 30
0.0
 10
-15.7827081947587
 20
19.34080222935302
 30
0.0
 10
-15.78711680746318
 20
19.33918228402376
 30
0.0
 10
-15.79077271208882
 20
19.33746276840952
 30
0.0
 10
-15.79407191356677
 20
19.33547393147734
 30
0.0
 10
-15.79707388047632
 20
19.33325595776892
 30
0.0
 10
-15.7999081018562
 20
19.33073379093684
 30
0.0
 10
-15.80247440486158
 20
19.32792816016092
 30
0.0
 10
-15.80474071563458
 20
19.32494286588388
 30
0.0
 10
-15.80678438661934
 20
19.32163403692465
 30
0.0
 10
-15.80855784919794
 20
19.31794622722378
 30
0.0
 10
-15.81024047738387
 20
19.31346397496094
 30
0.0
 10
-15.81151619810347
 20
19.30819214022273
 30
0.0
 10
-15.81166606531619
 20
19.30425659784606
 30
0.0
 10
-15.81174290329812
 20
19.30223881738197
 30
0.0
 11
-15.77174290449812
 21
19.34223881550195
 31
0.0
 11
-15.77762219531456
 21
19.34182510547919
 31
0.0
 11
-15.78308985032112
 21
19.34058230220717
 31
0.0
 11
-15.78713835148789
 21
19.33910623178144
 31
0.0
 11
-15.79089911266828
 21
19.33731900910754
 31
0.0
 11
-15.79400540298553
 21
19.3354489396163
 31
0.0
 11
-15.79702307648489
 21
19.33322339443566
 31
0.0
 11
-15.79986221653098
 21
19.33068740239241
 31
0.0
 11
-15.80243679612238
 21
19.32788284843718
 31
0.0
 11
-15.80471585955121
 21
19.32487395057705
 31
0.0
 11
-15.80663064988977
 21
19.32177041327532
 31
0.0
 11
-15.80847874237503
 21
19.31796846993757
 31
0.0
 11
-15.81000771014771
 21
19.31386454106587
 31
0.0
 11
-15.81130726435594
 21
19.30826809332711
 31
0.0
 11
-15.81174290329812
 21
19.30223881738197
 31
0.0
  0
SPLINE
  5
18D
330
2
100
AcDbEntity
  8
GAIKEI
  6
Continuous
 62
     1
100
AcDbSpline
210
0.0
220
0.0
230
1.0
 70
     8
 71
     3
 72
    13
 73
     9
 74
     7
 42
0.0000000001
 43
0.0000000001
 44
0.00000000001
 40
0.0
 40
0.0
 40
0.0
 40
0.0
 40
0.0066190696560691
 40
0.0128226345537694
 40
0.0179067039720187
 40
0.0229176135936799
 40
0.0281525962464872
 40
0.0337299238610556
 40
0.0337299238610556
 40
0.0337299238610556
 40
0.0337299238610556
 10
-13.78674290355809
 20
18.42167833274197
 30
0.0
 10
-13.78674292145538
 20
18.41947197619004
 30
0.0
 10
-13.78674295612646
 20
18.41519776467226
 30
0.0
 10
-13.78674299273362
 20
18.40922886334829
 30
0.0
 10
-13.78674301211836
 20
18.40379601536909
 30
0.0
 10
-13.78674301846359
 20
18.39868602813823
 30
0.0
 10
-13.78674299295193
 20
18.39341162150856
 30
0.0
 10
-13.78674293397844
 20
18.38980751808651
 30
0.0
 10
-13.78674290355809
 20
18.38794840888192
 30
0.0
 11
-13.78674290355809
 21
18.42167833274197
 31
0.0
 11
-13.78674295499633
 21
18.41505926308611
 31
0.0
 11
-13.78674299210729
 21
18.40885569818851
 31
0.0
 11
-13.78674301021988
 21
18.4037716287703
 31
0.0
 11
-13.78674301340527
 21
18.39876071914864
 31
0.0
 11
-13.78674298376592
 21
18.39352573649591
 31
0.0
 11
-13.78674290355809
 21
18.38794840888192
 31
0.0
  0
SPLINE
  5
18E
330
2
100
AcDbEntity
  8
GAIKEI
  6
Continuous
 62
     1
100
AcDbSpline
210
0.0
220
0.0
230
1.0
 70
     8
 71
     3
 72
    27
 73
    23
 74
    21
 42
0.0000000001
 43
0.0000000001
 44
0.00000000001
 40
0.0
 40
0.0
 40
0.0
 40
0.0
 40
0.0043051593857608
 40
0.0084047780747191
 40
0.0113975047798927
 40
0.0142696234357925
 40
0.0165654496066739
 40
0.0189462488434189
 40
0.021168515315137
 40
0.0233919446404065
 40
0.0254248661925438
 40
0.0274562408911882
 40
0.0293085768500267
 40
0.0311608912657496
 40
0.0328524282117187
 40
0.034546197551246
 40
0.036063918061538
 40
0.0375390084758715
 40
0.0390181194409881
 40
0.040528041709974
 40
0.0423010652337907
 40
0.0441615215866025
 40
0.0441615215866025
 40
0.0441615215866025
 40
0.0441615215866025
 10
-11.79958629693811
 20
18.482238815502
 30
0.0
 10
-11.79815109097438
 20
18.48222587116106
 30
0.0
 10
-11.79534919990931
 20
18.48220060047936
 30
0.0
 10
-11.79155570234229
 20
18.48196097013101
 30
0.0
 10
-11.78825019606287
 20
18.48163294156438
 30
0.0
 10
-11.78555140691361
 20
18.48128757426605
 30
0.0
 10
-11.78306814949945
 20
18.48087867137269
 30
0.0
 10
-11.78081242831692
 20
18.48042903101594
 30
0.0
 10
-11.77859721416556
 20
18.47990666448857
 30
0.0
 10
-11.77651543670856
 20
18.47932995817291
 30
0.0
 10
-11.7745206753593
 20
18.47868470629061
 30
0.0
 10
-11.77267301778468
 20
18.47799253123389
 30
0.0
 10
-11.77091910410007
 20
18.47722910734046
 30
0.0
 10
-11.76931161182125
 20
18.47641938967524
 30
0.0
 10
-11.76780648634346
 20
18.47553206341604
 30
0.0
 10
-11.76646226853012
 20
18.47459937349174
 30
0.0
 10
-11.7652555600435
 20
18.47360412294477
 30
0.0
 10
-11.76420295289912
 20
18.4725444084998
 30
0.0
 10
-11.76328799649491
 20
18.47136543447959
 30
0.0
 10
-11.76247745718703
 20
18.46999771834794
 30
0.0
 10
-11.76185988364406
 20
18.46837407393707
 30
0.0
 10
-11.76178251751665
 20
18.46715930685866
 30
0.0
 10
-11.76174290361814
 20
18.46653730778195
 30
0.0
 11
-11.79958629693811
 21
18.482238815502
 31
0.0
 11
-11.79528185451499
 21
18.4821602485697
 31
0.0
 11
-11.79118991077325
 21
18.48190951004198
 31
0.0
 11
-11.78821174863867
 21
18.48161461441299
 31
0.0
 11
-11.7853636064853
 21
18.48124427423454
 31
0.0
 11
-11.78309835025482
 21
18.48087086826626
 31
0.0
 11
-11.78076362995603
 21
18.48040472866046
 31
0.0
 11
-11.77860111499905
 21
18.4798928719108
 31
0.0
 11
-11.7764589637768
 21
18.47929719909331
 31
0.0
 11
-11.77452523318425
 21
18.478669938356
 31
0.0
 11
-11.77262402453004
 21
18.47795447429717
 31
0.0
 11
-11.77092639347773
 21
18.47721339581642
 31
0.0
 11
-11.7692739080918
 21
18.47637652023189
 31
0.0
 11
-11.76781829086246
 21
18.475514849923
 31
0.0
 11
-11.76642890248297
 21
18.47454611130683
 31
0.0
 11
-11.76526159349237
 21
18.47357612921019
 31
0.0
 11
-11.76422630758105
 21
18.47252537956717
 31
0.0
 11
-11.76331974603977
 21
18.47135665572512
 31
0.0
 11
-11.76255705694007
 21
18.47005351697749
 31
0.0
 11
-11.76195584288564
 21
18.46838553793782
 31
0.0
 11
-11.76174290361814
 21
18.46653730778195
 31
0.0
  0
SPLINE
  5
18F
330
2
100
AcDbEntity
  8
GAIKEI
  6
Continuous
 62
     1
100
AcDbSpline
210
0.0
220
0.0
230
1.0
 70
     8
 71
     3
 72
    27
 73
    23
 74
    21
 42
0.0000000001
 43
0.0000000001
 44
0.00000000001
 40
0.0
 40
0.0
 40
0.0
 40
0.0
 40
0.0018604567537402
 40
0.003633480273028
 40
0.0051434025467245
 40
0.006622513537764
 40
0.0080976038497186
 40
0.0096153243274207
 40
0.011309093700521
 40
0.0130006306595641
 40
0.0148529450674101
 40
0.0167052810244496
 40
0.0187366557245736
 40
0.0207695772769821
 40
0.0229930065958968
 40
0.0252152730604588
 40
0.0275960722831067
 40
0.0298918984413254
 40
0.0327640170769382
 40
0.0357567437599856
 40
0.0398563624120343
 40
0.0441615217587037
 40
0.0441615217587037
 40
0.0441615217587037
 40
0.0441615217587037
 10
-15.8117429034981
 20
18.46653730714194
 30
0.0
 10
-15.81170329201845
 20
18.46715930658507
 30
0.0
 10
-15.81162593062339
 20
18.46837407424994
 30
0.0
 10
-15.81100835750055
 20
18.46999771947998
 30
0.0
 10
-15.81019781724873
 20
18.47136543498794
 30
0.0
 10
-15.8092828608695
 20
18.4725444089712
 30
0.0
 10
-15.80823025377819
 20
18.47360412342618
 30
0.0
 10
-15.8070235452677
 20
18.47459937389351
 30
0.0
 10
-15.80567932740666
 20
18.47553206375551
 30
0.0
 10
-15.80417420189798
 20
18.47641938998634
 30
0.0
 10
-15.80256670960435
 20
18.47722910762491
 30
0.0
 10
-15.80081279590826
 20
18.47799253148469
 30
0.0
 10
-15.79896513832111
 20
18.47868470650849
 30
0.0
 10
-15.79697037695899
 20
18.47932995834617
 30
0.0
 10
-15.79488859949569
 20
18.47990666462147
 30
0.0
 10
-15.79267338535001
 20
18.48042903113151
 30
0.0
 10
-15.79041766417637
 20
18.4808786714762
 30
0.0
 10
-15.78793440677225
 20
18.48128757433466
 30
0.0
 10
-15.78523561763731
 20
18.48163294159894
 30
0.0
 10
-15.78193011138347
 20
18.48196097015329
 30
0.0
 10
-15.77813661384886
 20
18.48220060049584
 30
0.0
 10
-15.77533472280893
 20
18.48222587116663
 30
0.0
 10
-15.77389951685814
 20
18.482238815502
 30
0.0
 11
-15.8117429034981
 21
18.46653730714194
 31
0.0
 11
-15.81152997030079
 21
18.46838553840075
 31
0.0
 11
-15.81092875749675
 21
18.4700535178863
 31
0.0
 11
-15.81016606785374
 21
18.4713566563214
 31
0.0
 11
-15.80925950616273
 21
18.47252538008013
 31
0.0
 11
-15.80822422033475
 21
18.47357612966152
 31
0.0
 11
-15.80705691133551
 21
18.47454611169678
 31
0.0
 11
-15.80566752288615
 21
18.47551485027145
 31
0.0
 11
-15.80421190562288
 21
18.47637652054868
 31
0.0
 11
-15.80255942022865
 21
18.47721339609939
 31
0.0
 11
-15.80086178916463
 21
18.47795447454882
 31
0.0
 11
-15.79896058049564
 21
18.47866993857258
 31
0.0
 11
-15.79702684988973
 21
18.47929719926958
 31
0.0
 11
-15.79488469866322
 21
18.47989287204802
 31
0.0
 11
-15.79272218370892
 21
18.4804047287779
 31
0.0
 11
-15.79038746342098
 21
18.48087086836608
 31
0.0
 11
-15.78812220719874
 21
18.4812442743065
 31
0.0
 11
-15.78527406506157
 21
18.48161461445221
 31
0.0
 11
-15.78229590294779
 21
18.48190951006677
 31
0.0
 11
-15.77820395924243
 21
18.4821602485847
 31
0.0
 11
-15.77389951685814
 21
18.482238815502
 31
0.0
  0
SPLINE
  5
190
330
2
100
AcDbEntity
  8
GAIKEI
  6
Continuous
 62
     1
100
AcDbSpline
210
0.0
220
0.0
230
1.0
 70
     8
 71
     3
 72
    23
 73
    19
 74
    17
 42
0.0000000001
 43
0.0000000001
 44
0.00000000001
 40
0.0
 40
0.0
 40
0.0
 40
0.0
 40
0.0055340020515609
 40
0.0109487984607782
 40
0.0156743513584469
 40
0.0203281361402998
 40
0.02454730806117
 40
0.028816324643548
 40
0.0329065987615743
 40
0.0369966468009501
 40
0.0409025003779454
 40
0.0448017699383937
 40
0.0485086181489666
 40
0.0521001456099095
 40
0.0560982198299895
 40
0.0602292897823741
 40
0.0655006156576465
 40
0.0710300558785031
 40
0.0710300558785031
 40
0.0710300558785031
 40
0.0710300558785031
 10
-15.76454690393814
 20
18.48232629494197
 30
0.0
 10
-15.76638767214103
 20
18.48246402161595
 30
0.0
 10
-15.77002955732268
 20
18.48273650825069
 30
0.0
 10
-15.77517187453665
 20
18.48372270074924
 30
0.0
 10
-15.77992768961505
 20
18.48504052663713
 30
0.0
 10
-15.78419016838893
 20
18.48659961075992
 30
0.0
 10
-15.78816552687374
 20
18.48845175750603
 30
0.0
 10
-15.79180622286671
 20
18.49054186522352
 30
0.0
 10
-15.79522154854183
 20
18.49290804648268
 30
0.0
 10
-15.7983181714871
 20
18.49549379489184
 30
0.0
 10
-15.8011278956049
 20
18.4982991438394
 30
0.0
 10
-15.80358228773667
 20
18.50125589349886
 30
0.0
 10
-15.80570877286425
 20
18.50432944268471
 30
0.0
 10
-15.80755449013873
 20
18.50761817066763
 30
0.0
 10
-15.80911563252388
 20
18.51120696391177
 30
0.0
 10
-15.81052607592852
 20
18.51544918377624
 30
0.0
 10
-15.81156496150106
 20
18.52034224409061
 30
0.0
 10
-15.81168265195884
 20
18.52394648464741
 30
0.0
 10
-15.81174290345814
 20
18.52579167160195
 30
0.0
 11
-15.76454690393814
 21
18.48232629494197
 31
0.0
 11
-15.77005646298232
 21
18.48284585037243
 31
0.0
 11
-15.77537889588302
 21
18.48384170586939
 31
0.0
 11
-15.77993167960636
 21
18.4851078064014
 31
0.0
 11
-15.78429965003778
 21
18.486713591912
 31
0.0
 11
-15.78812307153362
 21
18.48849764901956
 31
0.0
 11
-15.79182503555535
 21
18.49062366994195
 31
0.0
 11
-15.79518453949907
 21
18.49295692423857
 31
0.0
 11
-15.79832351148866
 21
18.49557901268349
 31
0.0
 11
-15.80108448843936
 21
18.49834174655461
 31
0.0
 11
-15.80357673935208
 21
18.50134057774244
 31
0.0
 11
-15.80568075177018
 21
18.5043924387158
 31
0.0
 11
-15.8074367488021
 21
18.50752541556324
 31
0.0
 11
-15.80904297410387
 21
18.51118665002025
 31
0.0
 11
-15.81034130307154
 21
18.51510839463754
 31
0.0
 11
-15.81139604179566
 21
18.52027312141706
 31
0.0
 11
-15.81174290345814
 21
18.52579167160195
 31
0.0
  0
CIRCLE
  5
191
330
2
100
AcDbEntity
  8
GAIKEI
  6
Continuous
 62
     1
100
AcDbCircle
 10
-13.08674290355816
 20
13.95985956604192
 30
0.0
 40
0.6000000000000001
  0
CIRCLE
  5
192
330
2
100
AcDbEntity
  8
GAIKEI
  6
Continuous
 62
     1
100
AcDbCircle
 10
-44.51174290355811
 20
9.609859566041961
 30
0.0
 40
0.37585713968
  0
CIRCLE
  5
193
330
2
100
AcDbEntity
  8
GAIKEI
  6
Continuous
 62
     1
100
AcDbCircle
 10
-44.51174290355811
 20
9.609859566041961
 30
0.0
 40
0.5625814070000001
  0
CIRCLE
  5
194
330
2
100
AcDbEntity
  8
GAIKEI
  6
Continuous
 62
     1
100
AcDbCircle
 10
-44.51174290355811
 20
9.609859566041961
 30
0.0
 40
1.29218919926
  0
CIRCLE
  5
195
330
2
100
AcDbEntity
  8
GAIKEI
  6
Continuous
 62
     1
100
AcDbCircle
 10
-44.51174290355811
 20
9.609859566041961
 30
0.0
 40
0.26299900128
  0
CIRCLE
  5
196
330
2
100
AcDbEntity
  8
GAIKEI
  6
Continuous
 62
     1
100
AcDbCircle
 10
-13.08674290355816
 20
13.95985956604192
 30
0.0
 40
0.80174590586
  0
ARC
  5
197
330
2
100
AcDbEntity
  8
GAIKEI
  6
HIDDEN2
 62
     1
 48
0.5
100
AcDbCircle
 10
-53.03674290355814
 20
19.70985956604193
 30
0.0
 40
0.2
100
AcDbArc
 50
90.0
 51
180.0
  0
ARC
  5
198
330
2
100
AcDbEntity
  8
GAIKEI
  6
HIDDEN2
 62
     1
 48
0.5
100
AcDbCircle
 10
-52.28674290355815
 20
16.36485956604196
 30
0.0
 40
0.255
100
AcDbArc
 50
270.0
 51
90.0
  0
ARC
  5
199
330
2
100
AcDbEntity
  8
GAIKEI
  6
HIDDEN2
 62
     1
 48
0.5
100
AcDbCircle
 10
-52.68674290355813
 20
16.36485956604196
 30
0.0
 40
0.255
100
AcDbArc
 50
90.0
 51
270.0
  0
ARC
  5
19A
330
2
100
AcDbEntity
  8
GAIKEI
  6
HIDDEN2
 62
     1
 48
0.5
100
AcDbCircle
 10
-52.64174290355817
 20
10.65485956604198
 30
0.0
 40
0.3
100
AcDbArc
 50
90.0
 51
270.0
  0
ARC
  5
19B
330
2
100
AcDbEntity
  8
GAIKEI
  6
HIDDEN2
 62
     1
 48
0.5
100
AcDbCircle
 10
-52.33174290355816
 20
10.65485956604198
 30
0.0
 40
0.3
100
AcDbArc
 50
270.0
 51
90.0
  0
ARC
  5
19C
330
2
100
AcDbEntity
  8
GAIKEI
  6
HIDDEN2
 62
     1
 48
0.5
100
AcDbCircle
 10
-53.03674290355814
 20
7.30985956604195
 30
0.0
 40
0.2
100
AcDbArc
 50
180.0
 51
270.0
  0
ARC
  5
19D
330
2
100
AcDbEntity
  8
GAIKEI
  6
HIDDEN2
 62
     1
 48
0.5
100
AcDbCircle
 10
-52.28674290355815
 20
17.45985956604193
 30
0.0
 40
0.65
100
AcDbArc
 50
0.0
 51
90.0
  0
ARC
  5
19E
330
2
100
AcDbEntity
  8
GAIKEI
  6
HIDDEN2
 62
     1
 48
0.5
100
AcDbCircle
 10
-52.28674290355815
 20
9.55985956604195
 30
0.0
 40
0.65
100
AcDbArc
 50
270.0
 51
0.0
  0
ARC
  5
19F
330
2
100
AcDbEntity
  8
GAIKEI
  6
HIDDEN2
 62
     1
 48
0.5
100
AcDbCircle
 10
-52.28674290355815
 20
8.509859566041939
 30
0.0
 40
0.4
100
AcDbArc
 50
90.0
 51
270.0
  0
ARC
  5
1A0
330
2
100
AcDbEntity
  8
GAIKEI
  6
HIDDEN2
 62
     1
 48
0.5
100
AcDbCircle
 10
-52.28674290355815
 20
18.50985956604194
 30
0.0
 40
0.4
100
AcDbArc
 50
90.0
 51
270.0
  0
ARC
  5
1A1
330
2
100
AcDbEntity
  8
GAIKEI
  6
HIDDEN2
 62
     1
 48
0.5
100
AcDbCircle
 10
-52.28674290355815
 20
17.45985956604193
 30
0.0
 40
1.45
100
AcDbArc
 50
0.0
 51
90.0
  0
ARC
  5
1A2
330
2
100
AcDbEntity
  8
GAIKEI
  6
HIDDEN2
 62
     1
 48
0.5
100
AcDbCircle
 10
-52.28674290355815
 20
9.55985956604195
 30
0.0
 40
1.45
100
AcDbArc
 50
270.0
 51
0.0
  0
ARC
  5
1A3
330
2
100
AcDbEntity
  8
GAIKEI
  6
Continuous
 62
     1
100
AcDbCircle
 10
-13.08674290355816
 20
13.95985956604192
 30
0.0
 40
0.265
100
AcDbArc
 50
104.7568156062894
 51
75.24318439371056
  0
ARC
  5
1A4
330
2
100
AcDbEntity
  8
GAIKEI
  6
Continuous
 62
     1
100
AcDbCircle
 10
-13.08674290355816
 20
13.95985956604192
 30
0.0
 40
0.36
100
AcDbArc
 50
100.8069228748902
 51
79.19307712510978
  0
ARC
  5
1A5
330
2
100
AcDbEntity
  8
GAIKEI
  6
Continuous
100
AcDbCircle
 10
-30.30856881885814
 20
5.159859566041973
 30
0.0
 40
0.15
100
AcDbArc
 50
188.9726266148969
 51
270.0
  0
ARC
  5
1A6
330
2
100
AcDbEntity
  8
GAIKEI
  6
Continuous
100
AcDbCircle
 10
-28.16491698825814
 20
5.159859566041973
 30
0.0
 40
0.15
100
AcDbArc
 50
270.0
 51
351.0273733851032
  0
ARC
  5
1A7
330
2
100
AcDbEntity
  8
GAIKEI
  6
Continuous
100
AcDbCircle
 10
-11.70856881885811
 20
5.159859566041973
 30
0.0
 40
0.15
100
AcDbArc
 50
188.9726266148969
 51
270.0
  0
ARC
  5
1A8
330
2
100
AcDbEntity
  8
GAIKEI
  6
Continuous
100
AcDbCircle
 10
-9.564916988258119
 20
5.159859566041973
 30
0.0
 40
0.15
100
AcDbArc
 50
270.0
 51
351.0273733851032
  0
ARC
  5
1A9
330
2
100
AcDbEntity
  8
GAIKEI
  6
Continuous
100
AcDbCircle
 10
-48.90856881885816
 20
5.159859566041973
 30
0.0
 40
0.15
100
AcDbArc
 50
188.9726266149
 51
270.0
  0
ARC
  5
1AA
330
2
100
AcDbEntity
  8
GAIKEI
  6
Continuous
100
AcDbCircle
 10
-46.76491698825816
 20
5.159859566041973
 30
0.0
 40
0.15
100
AcDbArc
 50
270.0
 51
351.0273733851007
  0
LINE
  5
1AB
330
2
100
AcDbEntity
  8
GAIKEI
  6
HIDDEN2
 62
     1
 48
0.5
100
AcDbLine
 10
-53.23674290355814
 20
7.30985956604195
 30
0.0
 11
-53.23674290355814
 21
19.70985956604193
 31
0.0
  0
LINE
  5
1AC
330
2
100
AcDbEntity
  8
GAIKEI
  6
HIDDEN2
 62
     1
 48
0.5
100
AcDbLine
 10
-51.63674290355811
 20
17.45985956604193
 30
0.0
 11
-51.63674290355811
 21
9.55985956604195
 31
0.0
  0
LINE
  5
1AD
330
2
100
AcDbEntity
  8
GAIKEI
  6
HIDDEN2
 62
     1
 48
0.5
100
AcDbLine
 10
-50.83674290355816
 20
17.45985956604193
 30
0.0
 11
-50.83674290355816
 21
9.55985956604195
 31
0.0
  0
LINE
  5
1AE
330
2
100
AcDbEntity
  8
GAIKEI
  6
Continuous
 62
     1
100
AcDbLine
 10
-48.23674290355814
 20
17.37985956604194
 30
0.0
 11
-48.23674290355814
 21
15.82985956604193
 31
0.0
  0
LINE
  5
1AF
330
2
100
AcDbEntity
  8
GAIKEI
  6
Continuous
 62
     1
100
AcDbLine
 10
-42.33674290355816
 20
17.37985956604194
 30
0.0
 11
-42.33674290355816
 21
15.82985956604193
 31
0.0
  0
LINE
  5
1B0
330
2
100
AcDbEntity
  8
GAIKEI
  6
HIDDEN2
 62
     1
 48
0.5
100
AcDbLine
 10
-50.73674290355814
 20
7.109859566041961
 30
0.0
 11
-53.03674290355814
 21
7.109859566041961
 31
0.0
  0
LINE
  5
1B1
330
2
100
AcDbEntity
  8
GAIKEI
  6
HIDDEN2
 62
     1
 48
0.5
100
AcDbLine
 10
-52.64174290355817
 20
10.35485956604191
 30
0.0
 11
-52.33174290355816
 21
10.35485956604191
 31
0.0
  0
LINE
  5
1B2
330
2
100
AcDbEntity
  8
GAIKEI
  6
HIDDEN2
 62
     1
 48
0.5
100
AcDbLine
 10
-52.33174290355816
 20
10.95485956604193
 30
0.0
 11
-52.64174290355817
 21
10.95485956604193
 31
0.0
  0
LINE
  5
1B3
330
2
100
AcDbEntity
  8
GAIKEI
  6
Continuous
 62
     1
100
AcDbLine
 10
-48.23674290355814
 20
15.82985956604193
 30
0.0
 11
-42.33674290355816
 21
15.82985956604193
 31
0.0
  0
LINE
  5
1B4
330
2
100
AcDbEntity
  8
GAIKEI
  6
HIDDEN2
 62
     1
 48
0.5
100
AcDbLine
 10
-52.68674290355813
 20
16.10985956604196
 30
0.0
 11
-52.28674290355815
 21
16.10985956604196
 31
0.0
  0
LINE
  5
1B5
330
2
100
AcDbEntity
  8
GAIKEI
  6
HIDDEN2
 62
     1
 48
0.5
100
AcDbLine
 10
-52.28674290355815
 20
16.61985956604195
 30
0.0
 11
-52.68674290355813
 21
16.61985956604195
 31
0.0
  0
LINE
  5
1B6
330
2
100
AcDbEntity
  8
GAIKEI
  6
Continuous
100
AcDbLine
 10
-7.736742903558138
 20
7.109859566041961
 30
0.0
 11
-7.736742903558138
 21
19.90985956604197
 31
0.0
  0
LINE
  5
1B7
330
2
100
AcDbEntity
  8
GAIKEI
  6
Continuous
 62
     1
100
AcDbLine
 10
-48.23674290355814
 20
17.37985956604194
 30
0.0
 11
-42.33674290355816
 21
17.37985956604194
 31
0.0
  0
LINE
  5
1B8
330
2
100
AcDbEntity
  8
GAIKEI
  6
HIDDEN2
 62
     1
 48
0.5
100
AcDbLine
 10
-53.03674290355814
 20
19.90985956604197
 30
0.0
 11
-50.73674290355814
 21
19.90985956604197
 31
0.0
  0
LINE
  5
1B9
330
2
100
AcDbEntity
  8
GAIKEI
  6
Continuous
100
AcDbLine
 10
-50.73674290355814
 20
20.05985956604195
 30
0.0
 11
-50.73674290355814
 21
6.959836723801913
 31
0.0
  0
LINE
  5
1BA
330
2
100
AcDbEntity
  8
GAIKEI
  6
Continuous
 62
     1
100
AcDbLine
 10
-50.23674290355813
 20
6.909859566041973
 30
0.0
 11
-50.23674290355813
 21
20.10985956604196
 31
0.0
  0
LINE
  5
1BB
330
2
100
AcDbEntity
  8
GAIKEI
  6
Continuous
100
AcDbLine
 10
-49.05673326365814
 20
5.136465180021957
 30
0.0
 11
-49.33674290355816
 21
6.909859566041973
 31
0.0
  0
LINE
  5
1BC
330
2
100
AcDbEntity
  8
GAIKEI
  6
Continuous
 62
     1
100
AcDbLine
 10
-47.18674290355813
 20
13.14985956604198
 30
0.0
 11
-47.18674290355813
 21
13.06985956604194
 31
0.0
  0
LINE
  5
1BD
330
2
100
AcDbEntity
  8
GAIKEI
  6
Continuous
100
AcDbLine
 10
-46.61675254345811
 20
5.136465180021957
 30
0.0
 11
-46.33674290355815
 21
6.909859566041973
 31
0.0
  0
LINE
  5
1BE
330
2
100
AcDbEntity
  8
GAIKEI
  6
Continuous
 62
     1
100
AcDbLine
 10
-41.83674290355816
 20
13.14985956604198
 30
0.0
 11
-41.83674290355816
 21
13.06985956604194
 31
0.0
  0
LINE
  5
1BF
330
2
100
AcDbEntity
  8
GAIKEI
  6
Continuous
 62
     1
100
AcDbLine
 10
-40.92916470753812
 20
20.10985956604196
 30
0.0
 11
-40.92916470753812
 21
6.909859566041973
 31
0.0
  0
LINE
  5
1C0
330
2
100
AcDbEntity
  8
GAIKEI
  6
Continuous
 62
     1
100
AcDbLine
 10
-40.83143329320427
 20
20.10255140098195
 30
0.0
 11
-40.83143289970479
 21
6.909859566041973
 31
0.0
  0
LINE
  5
1C1
330
2
100
AcDbEntity
  8
GAIKEI
  6
Continuous
100
AcDbLine
 10
-9.564916988258119
 20
5.009859566041939
 30
0.0
 11
-11.70856881885811
 21
5.009859566041939
 31
0.0
  0
LINE
  5
1C2
330
2
100
AcDbEntity
  8
GAIKEI
  6
Continuous
100
AcDbLine
 10
-28.16491698825814
 20
5.009859566041939
 30
0.0
 11
-30.30856881885814
 21
5.009859566041939
 31
0.0
  0
LINE
  5
1C3
330
2
100
AcDbEntity
  8
GAIKEI
  6
Continuous
100
AcDbLine
 10
-46.76491698825816
 20
5.009859566041939
 30
0.0
 11
-48.90856881885816
 21
5.009859566041939
 31
0.0
  0
LINE
  5
1C4
330
2
100
AcDbEntity
  8
GAIKEI
  6
Continuous
 62
     1
100
AcDbLine
 10
-9.41675254345813
 20
5.136465180021957
 30
0.0
 11
-11.85673326365815
 21
5.136465180021957
 31
0.0
  0
LINE
  5
1C5
330
2
100
AcDbEntity
  8
GAIKEI
  6
Continuous
 62
     1
100
AcDbLine
 10
-28.01675254345815
 20
5.136465180021957
 30
0.0
 11
-30.45673326365812
 21
5.136465180021957
 31
0.0
  0
LINE
  5
1C6
330
2
100
AcDbEntity
  8
GAIKEI
  6
Continuous
 62
     1
100
AcDbLine
 10
-46.61675254345811
 20
5.136465180021957
 30
0.0
 11
-49.05673326365814
 21
5.136465180021957
 31
0.0
  0
LINE
  5
1C7
330
2
100
AcDbEntity
  8
GAIKEI
  6
Continuous
100
AcDbLine
 10
-7.786742903558149
 20
6.909859566041973
 30
0.0
 11
-50.68674289891816
 21
6.909859566041973
 31
0.0
  0
LINE
  5
1C8
330
2
100
AcDbEntity
  8
GAIKEI
  6
Continuous
 62
     1
100
AcDbLine
 10
-10.82918205825814
 20
7.539790006701991
 30
0.0
 11
-8.236742903558138
 21
7.539790006701991
 31
0.0
  0
LINE
  5
1C9
330
2
100
AcDbEntity
  8
GAIKEI
  6
Continuous
 62
     1
100
AcDbLine
 10
-50.23674290355813
 20
7.539859566041968
 30
0.0
 11
-40.92916470753812
 21
7.539859566041968
 31
0.0
  0
LINE
  5
1CA
330
2
100
AcDbEntity
  8
GAIKEI
  6
Continuous
 62
     1
100
AcDbLine
 10
-40.83143291849586
 20
7.539859566041968
 30
0.0
 11
-10.93716532951816
 21
7.539859566041968
 31
0.0
  0
LINE
  5
1CB
330
2
100
AcDbEntity
  8
GAIKEI
  6
Continuous
100
AcDbLine
 10
-30.45673326365812
 20
5.136465180021957
 30
0.0
 11
-30.73674290355814
 21
6.909859566041973
 31
0.0
  0
LINE
  5
1CC
330
2
100
AcDbEntity
  8
GAIKEI
  6
Continuous
 62
     1
100
AcDbLine
 10
-41.83674290355816
 20
13.06985956604194
 30
0.0
 11
-47.18674290355813
 21
13.06985956604194
 31
0.0
  0
LINE
  5
1CD
330
2
100
AcDbEntity
  8
GAIKEI
  6
Continuous
 62
     1
100
AcDbLine
 10
-41.83674290355816
 20
13.14985956604198
 30
0.0
 11
-47.18674290355813
 21
13.14985956604198
 31
0.0
  0
LINE
  5
1CE
330
2
100
AcDbEntity
  8
GAIKEI
  6
Continuous
 62
     1
100
AcDbLine
 10
-13.15424290355815
 20
14.05985956604195
 30
0.0
 11
-13.01924290355816
 21
14.05985956604195
 31
0.0
  0
LINE
  5
1CF
330
2
100
AcDbEntity
  8
GAIKEI
  6
Continuous
 62
     1
100
AcDbLine
 10
-13.01924290355816
 20
14.40985956604197
 30
0.0
 11
-13.15424290355815
 21
14.40985956604197
 31
0.0
  0
LINE
  5
1D0
330
2
100
AcDbEntity
  8
GAIKEI
  6
Continuous
 62
     1
100
AcDbLine
 10
-40.92916470753812
 20
15.09414541274191
 30
0.0
 11
-48.85245705685815
 21
15.09414541274191
 31
0.0
  0
LINE
  5
1D1
330
2
100
AcDbEntity
  8
GAIKEI
  6
Continuous
 62
     1
100
AcDbLine
 10
-40.83143314381811
 20
15.09414538864195
 30
0.0
 11
-10.93419796847814
 21
15.09414538864195
 31
0.0
  0
LINE
  5
1D2
330
2
100
AcDbEntity
  8
GAIKEI
  6
Continuous
 62
     1
100
AcDbLine
 10
-10.85794204641814
 20
15.09985956604191
 30
0.0
 11
-8.236742903558138
 21
15.09985956604191
 31
0.0
  0
LINE
  5
1D3
330
2
100
AcDbEntity
  8
GAIKEI
  6
Continuous
100
AcDbLine
 10
-28.01675254345815
 20
5.136465180021957
 30
0.0
 11
-27.73674290355814
 21
6.909859566041973
 31
0.0
  0
LINE
  5
1D4
330
2
100
AcDbEntity
  8
GAIKEI
  6
Continuous
 62
     1
100
AcDbLine
 10
-40.92916470753812
 20
18.01670575664195
 30
0.0
 11
-48.85245705685815
 21
18.01670575664195
 31
0.0
  0
LINE
  5
1D5
330
2
100
AcDbEntity
  8
GAIKEI
  6
Continuous
 62
     1
100
AcDbLine
 10
-40.8314332309896
 20
18.01670575664195
 30
0.0
 11
-10.93762002083815
 21
18.01670575664195
 31
0.0
  0
LINE
  5
1D6
330
2
100
AcDbEntity
  8
GAIKEI
  6
Continuous
 62
     1
100
AcDbLine
 10
-10.82879308769816
 20
18.02884105784199
 30
0.0
 11
-8.309282768358116
 21
18.02884105784199
 31
0.0
  0
LINE
  5
1D7
330
2
100
AcDbEntity
  8
GAIKEI
  6
Continuous
 62
     1
100
AcDbLine
 10
-11.79959015655811
 20
18.48223881550194
 30
0.0
 11
-15.77389568501814
 21
18.48223881550194
 31
0.0
  0
LINE
  5
1D8
330
2
100
AcDbEntity
  8
GAIKEI
  6
Continuous
 62
     1
100
AcDbLine
 10
-15.77174290449812
 20
19.34223881550195
 30
0.0
 11
-11.80174289483812
 21
19.34223881550195
 31
0.0
  0
LINE
  5
1D9
330
2
100
AcDbEntity
  8
GAIKEI
  6
Continuous
100
AcDbLine
 10
-10.91674290355814
 20
20.05985956604195
 30
0.0
 11
-10.88674290355811
 21
20.05985956604195
 31
0.0
  0
LINE
  5
1DA
330
2
100
AcDbEntity
  8
GAIKEI
  6
Continuous
100
AcDbLine
 10
-7.786742903558149
 20
20.10985956604196
 30
0.0
 11
-50.68674290355812
 21
20.10985956604196
 31
0.0
  0
LINE
  5
1DB
330
2
100
AcDbEntity
  8
GAIKEI
  6
Continuous
 62
     1
100
AcDbLine
 10
-15.81174290349816
 20
18.46653730714194
 30
0.0
 11
-15.81174290353817
 21
18.01670575664195
 31
0.0
  0
LINE
  5
1DC
330
2
100
AcDbEntity
  8
GAIKEI
  6
Continuous
 62
     1
100
AcDbLine
 10
-15.81174290345814
 20
18.52579167160195
 30
0.0
 11
-15.81174290329812
 21
19.30223881738197
 31
0.0
  0
LINE
  5
1DD
330
2
100
AcDbEntity
  8
GAIKEI
  6
Continuous
 62
     1
100
AcDbLine
 10
-13.78674290355815
 20
18.38794840688194
 30
0.0
 11
-13.78674290355815
 21
18.01670575664195
 31
0.0
  0
LINE
  5
1DE
330
2
100
AcDbEntity
  8
GAIKEI
  6
Continuous
 62
     1
100
AcDbLine
 10
-13.78674290355815
 20
18.42167833272197
 30
0.0
 11
-13.78674290355815
 21
18.48223881550194
 31
0.0
  0
LINE
  5
1DF
330
2
100
AcDbEntity
  8
GAIKEI
  6
Continuous
 62
     1
100
AcDbLine
 10
-10.85541516263811
 20
18.01491487388193
 30
0.0
 11
-10.84880202465814
 21
18.02814518084199
 31
0.0
  0
LINE
  5
1E0
330
2
100
AcDbEntity
  8
GAIKEI
  6
Continuous
 62
     1
100
AcDbLine
 10
-13.15424290355815
 20
14.40985956604197
 30
0.0
 11
-13.15424290355815
 21
14.31347482308195
 31
0.0
  0
LINE
  5
1E1
330
2
100
AcDbEntity
  8
GAIKEI
  6
Continuous
 62
     1
100
AcDbLine
 10
-13.15424290355815
 20
14.21611871222194
 30
0.0
 11
-13.15424290355815
 21
14.05985956604195
 31
0.0
  0
LINE
  5
1E2
330
2
100
AcDbEntity
  8
GAIKEI
  6
Continuous
 62
     1
100
AcDbLine
 10
-13.01924290355816
 20
14.05985956604195
 30
0.0
 11
-13.01924290355816
 21
14.21611871222194
 31
0.0
  0
LINE
  5
1E3
330
2
100
AcDbEntity
  8
GAIKEI
  6
Continuous
 62
     1
100
AcDbLine
 10
-13.01924290355816
 20
14.31347482308195
 30
0.0
 11
-13.01924290355816
 21
14.40985956604197
 31
0.0
  0
LINE
  5
1E4
330
2
100
AcDbEntity
  8
GAIKEI
  6
Continuous
100
AcDbLine
 10
-11.85673326365815
 20
5.136465180021957
 30
0.0
 11
-12.13674290355811
 21
6.909859566041973
 31
0.0
  0
LINE
  5
1E5
330
2
100
AcDbEntity
  8
GAIKEI
  6
Continuous
 62
     1
100
AcDbLine
 10
-11.76174290379816
 20
19.30223882342193
 30
0.0
 11
-11.76174290365816
 21
18.52579167120194
 31
0.0
  0
LINE
  5
1E6
330
2
100
AcDbEntity
  8
GAIKEI
  6
Continuous
 62
     1
100
AcDbLine
 10
-11.76174290357812
 20
18.01670575664195
 30
0.0
 11
-11.76174290361814
 21
18.46653730778195
 31
0.0
  0
LINE
  5
1E7
330
2
100
AcDbEntity
  8
GAIKEI
  6
Continuous
 62
     1
100
AcDbLine
 10
-10.93419796847814
 20
15.09414538864195
 30
0.0
 11
-10.93419806170749
 21
6.909859566041973
 31
0.0
  0
LINE
  5
1E8
330
2
100
AcDbEntity
  8
GAIKEI
  6
Continuous
 62
     1
100
AcDbLine
 10
-10.93419796847814
 20
15.09414538864195
 30
0.0
 11
-10.93419796847814
 21
18.00985956604194
 31
0.0
  0
LINE
  5
1E9
330
2
100
AcDbEntity
  8
GAIKEI
  6
Continuous
 62
     1
100
AcDbLine
 10
-10.91674290355814
 20
15.22661314091124
 30
0.0
 11
-10.91674290355814
 21
20.07493879656192
 31
0.0
  0
LINE
  5
1EA
330
2
100
AcDbEntity
  8
GAIKEI
  6
Continuous
100
AcDbLine
 10
-10.88674290355811
 20
20.06985956604194
 30
0.0
 11
-10.88674290355811
 21
19.84985956604191
 31
0.0
  0
LINE
  5
1EB
330
2
100
AcDbEntity
  8
GAIKEI
  6
Continuous
 62
     1
100
AcDbLine
 10
-10.85794204641814
 20
15.09985956604191
 30
0.0
 11
-10.85794204641814
 21
17.86500624982193
 31
0.0
  0
LINE
  5
1EC
330
2
100
AcDbEntity
  8
GAIKEI
  6
Continuous
 62
     1
100
AcDbLine
 10
-10.85794195299672
 20
6.909859566041973
 30
0.0
 11
-10.85794204641814
 21
15.09985956604191
 31
0.0
  0
LINE
  5
1ED
330
2
100
AcDbEntity
  8
GAIKEI
  6
Continuous
 62
     1
100
AcDbLine
 10
-10.93419796847814
 20
18.00985956604194
 30
0.0
 11
-10.93762002083815
 21
18.01670575664195
 31
0.0
  0
LINE
  5
1EE
330
2
100
AcDbEntity
  8
GAIKEI
  6
Continuous
100
AcDbLine
 10
-8.236742903558138
 20
20.10985956604196
 30
0.0
 11
-8.236742903558138
 21
6.909859566041973
 31
0.0
  0
LINE
  5
1EF
330
2
100
AcDbEntity
  8
GAIKEI
  6
Continuous
100
AcDbLine
 10
-7.736742903558138
 20
6.959859566041927
 30
0.0
 11
-7.736742903558138
 21
20.05985956604195
 31
0.0
  0
LINE
  5
1F0
330
2
100
AcDbEntity
  8
GAIKEI
  6
Continuous
100
AcDbLine
 10
-9.41675254345813
 20
5.136465180021957
 30
0.0
 11
-9.136742903558115
 21
6.909859566041973
 31
0.0
  0
POINT
  5
1F1
330
2
100
AcDbEntity
  8
GAIKEI
100
AcDbPoint
 10
-9.464916988258153
 20
5.009859566041939
 30
0.0
  0
LINE
  5
1F2
330
2
100
AcDbEntity
  8
GAIKEI
100
AcDbLine
 10
54.76406245593827
 20
20.10985956604196
 30
0.0
 11
16.3840624559383
 21
20.10985956604191
 31
0.0
  0
LINE
  5
1F3
330
2
100
AcDbEntity
  8
GAIKEI
 62
     1
100
AcDbLine
 10
-42.96174290355816
 20
9.609859566041961
 30
0.0
 11
-43.21955370429816
 21
9.609859566041961
 31
0.0
  0
LINE
  5
1F4
330
2
100
AcDbEntity
  8
GAIKEI
 62
     1
100
AcDbLine
 10
-46.06174290355812
 20
9.609859566041961
 30
0.0
 11
-45.80393210281812
 21
9.609859566041961
 31
0.0
  0
CIRCLE
  5
1F5
330
2
100
AcDbEntity
  8
GAIKEI
 62
     1
100
AcDbCircle
 10
-42.31159410308777
 20
8.959992294006553
 30
0.0
 40
0.3949206808423833
  0
CIRCLE
  5
1F6
330
2
100
AcDbEntity
  8
GAIKEI
 62
     1
100
AcDbCircle
 10
-42.31159410308777
 20
8.959992294006553
 30
0.0
 40
0.2871316445290612
  0
LINE
  5
1F7
330
2
100
AcDbEntity
  8
GAIKEI
 62
     1
100
AcDbLine
 10
-42.31174290355812
 20
8.672860688034006
 30
0.0
 11
-42.31174290355812
 21
9.247123899979101
 31
0.0
  0
LINE
  5
1F8
330
2
100
AcDbEntity
  8
GAIKEI
 62
     1
100
AcDbLine
 10
-42.31174292164815
 20
10.12227763080938
 30
0.0
 11
-42.31174292164815
 21
10.69654084275453
 31
0.0
  0
CIRCLE
  5
1F9
330
2
100
AcDbEntity
  8
GAIKEI
 62
     1
100
AcDbCircle
 10
-42.31159412117778
 20
10.40940923678192
 30
0.0
 40
0.2871316445290612
  0
CIRCLE
  5
1FA
330
2
100
AcDbEntity
  8
GAIKEI
 62
     1
100
AcDbCircle
 10
-42.31159412117778
 20
10.40940923678192
 30
0.0
 40
0.3949206808423833
  0
CIRCLE
  5
1FB
330
2
100
AcDbEntity
  8
GAIKEI
 62
     1
100
AcDbCircle
 10
-42.31159233197644
 20
13.75985956605194
 30
0.0
 40
0.2871316445290612
  0
LINE
  5
1FC
330
2
100
AcDbEntity
  8
GAIKEI
 62
     1
100
AcDbLine
 10
-42.31174113244679
 20
13.4727279600794
 30
0.0
 11
-42.31174113244679
 21
14.04699117202449
 31
0.0
  0
CIRCLE
  5
1FD
330
2
100
AcDbEntity
  8
GAIKEI
 62
     1
100
AcDbCircle
 10
-42.31159233197644
 20
13.75985956605194
 30
0.0
 40
0.3949206808423833
  0
ELLIPSE
  5
1FE
330
2
100
AcDbEntity
  8
GAIKEI
 62
     1
100
AcDbEllipse
 10
-43.78674290353808
 20
13.90985956604197
 30
0.0
 11
0.4499999999799459
 21
-0.0000000264400057
 31
0.0
210
0.0
220
0.0
230
1.0
 40
0.3333806282091778
 41
0.0
 42
6.283185307179586
  0
ELLIPSE
  5
1FF
330
2
100
AcDbEntity
  8
GAIKEI
 62
     1
100
AcDbEllipse
 10
-43.78674290353808
 20
13.90985956604197
 30
0.0
 11
0.3049999999799468
 21
0.0000000021497851
 31
0.0
210
0.0
220
0.0
230
1.0
 40
0.3441935516947883
 41
0.0
 42
6.283185307179586
  0
LINE
  5
200
330
2
100
AcDbEntity
  8
GAIKEI
 62
     1
100
AcDbLine
 10
-43.78674290427812
 20
14.01485490084195
 30
0.0
 11
-43.78674290427812
 21
13.80488053278191
 31
0.0
  0
LINE
  5
201
330
2
100
AcDbEntity
  8
GAIKEI
 62
     1
100
AcDbLine
 10
-44.23674290355814
 20
13.90985956604197
 30
0.0
 11
-43.33674290355816
 21
13.90985956604197
 31
0.0
  0
CIRCLE
  5
202
330
2
100
AcDbEntity
  8
GAIKEI
 62
     1
100
AcDbCircle
 10
-44.51174290355811
 20
9.609859566041961
 30
0.0
 40
1.54979161065139
  0
LINE
  5
203
330
2
100
AcDbEntity
  8
GAIKEI
 62
     1
100
AcDbLine
 10
-45.71174290281811
 20
13.90985956604197
 30
0.0
 11
-44.81174290281813
 21
13.90985956604197
 31
0.0
  0
LINE
  5
204
330
2
100
AcDbEntity
  8
GAIKEI
 62
     1
100
AcDbLine
 10
-45.2617429035381
 20
14.01485490084195
 30
0.0
 11
-45.2617429035381
 21
13.80488053278191
 31
0.0
  0
ELLIPSE
  5
205
330
2
100
AcDbEntity
  8
GAIKEI
 62
     1
100
AcDbEllipse
 10
-45.26174290279806
 20
13.90985956604197
 30
0.0
 11
0.3049999999799468
 21
0.0000000021497851
 31
0.0
210
0.0
220
0.0
230
1.0
 40
0.3441935516947883
 41
0.0
 42
6.283185307179586
  0
ELLIPSE
  5
206
330
2
100
AcDbEntity
  8
GAIKEI
 62
     1
100
AcDbEllipse
 10
-45.26174290279806
 20
13.90985956604197
 30
0.0
 11
0.4499999999799459
 21
-0.0000000264400057
 31
0.0
210
0.0
220
0.0
230
1.0
 40
0.3333806282091778
 41
0.0
 42
6.283185307179586
  0
ELLIPSE
  5
207
330
2
100
AcDbEntity
  8
GAIKEI
 62
     1
100
AcDbEllipse
 10
-46.73674290279797
 20
13.90985956604197
 30
0.0
 11
0.4499999999799459
 21
-0.0000000264400057
 31
0.0
210
0.0
220
0.0
230
1.0
 40
0.3333806282091778
 41
0.0
 42
6.283185307179586
  0
ELLIPSE
  5
208
330
2
100
AcDbEntity
  8
GAIKEI
 62
     1
100
AcDbEllipse
 10
-46.73674290279797
 20
13.90985956604197
 30
0.0
 11
0.3049999999799468
 21
0.0000000021497851
 31
0.0
210
0.0
220
0.0
230
1.0
 40
0.3441935516947883
 41
0.0
 42
6.283185307179586
  0
LINE
  5
209
330
2
100
AcDbEntity
  8
GAIKEI
 62
     1
100
AcDbLine
 10
-46.73674290353807
 20
14.01485490084195
 30
0.0
 11
-46.73674290353807
 21
13.80488053278191
 31
0.0
  0
LINE
  5
20A
330
2
100
AcDbEntity
  8
GAIKEI
 62
     1
100
AcDbLine
 10
-47.18674290281808
 20
13.90985956604197
 30
0.0
 11
-46.28674290281804
 21
13.90985956604197
 31
0.0
  0
LINE
  5
20B
330
2
100
AcDbEntity
  8
GAIKEI
 62
     1
100
AcDbLine
 10
-47.18674290281813
 20
11.85985956604196
 30
0.0
 11
-46.28674290281816
 21
11.85985956604196
 31
0.0
  0
LINE
  5
20C
330
2
100
AcDbEntity
  8
GAIKEI
 62
     1
100
AcDbLine
 10
-46.73674290353813
 20
11.96485490084194
 30
0.0
 11
-46.73674290353813
 21
11.75488053278195
 31
0.0
  0
ELLIPSE
  5
20D
330
2
100
AcDbEntity
  8
GAIKEI
 62
     1
100
AcDbEllipse
 10
-46.73674290279808
 20
11.85985956604196
 30
0.0
 11
0.3049999999799468
 21
0.0000000021497851
 31
0.0
210
0.0
220
0.0
230
1.0
 40
0.3441935516947883
 41
0.0
 42
6.283185307179586
  0
ELLIPSE
  5
20E
330
2
100
AcDbEntity
  8
GAIKEI
 62
     1
100
AcDbEllipse
 10
-46.73674290279808
 20
11.85985956604196
 30
0.0
 11
0.4499999999799459
 21
-0.0000000264400057
 31
0.0
210
0.0
220
0.0
230
1.0
 40
0.3333806282091778
 41
0.0
 42
6.283185307179586
  0
ELLIPSE
  5
20F
330
2
100
AcDbEntity
  8
GAIKEI
 62
     1
100
AcDbEllipse
 10
-45.26174290279806
 20
11.85985956604196
 30
0.0
 11
0.4499999999799459
 21
-0.0000000264400057
 31
0.0
210
0.0
220
0.0
230
1.0
 40
0.3333806282091778
 41
0.0
 42
6.283185307179586
  0
ELLIPSE
  5
210
330
2
100
AcDbEntity
  8
GAIKEI
 62
     1
100
AcDbEllipse
 10
-45.26174290279806
 20
11.85985956604196
 30
0.0
 11
0.3049999999799468
 21
0.0000000021497851
 31
0.0
210
0.0
220
0.0
230
1.0
 40
0.3441935516947883
 41
0.0
 42
6.283185307179586
  0
LINE
  5
211
330
2
100
AcDbEntity
  8
GAIKEI
 62
     1
100
AcDbLine
 10
-45.26174290353816
 20
11.96485490084194
 30
0.0
 11
-45.26174290353816
 21
11.75488053278195
 31
0.0
  0
LINE
  5
212
330
2
100
AcDbEntity
  8
GAIKEI
 62
     1
100
AcDbLine
 10
-45.71174290281811
 20
11.85985956604196
 30
0.0
 11
-44.81174290281813
 21
11.85985956604196
 31
0.0
  0
LINE
  5
213
330
2
100
AcDbEntity
  8
GAIKEI
 62
     1
100
AcDbLine
 10
-44.23674290281815
 20
11.85985956604196
 30
0.0
 11
-43.33674290281817
 21
11.85985956604196
 31
0.0
  0
LINE
  5
214
330
2
100
AcDbEntity
  8
GAIKEI
 62
     1
100
AcDbLine
 10
-43.78674290353814
 20
11.96485490084194
 30
0.0
 11
-43.78674290353814
 21
11.75488053278195
 31
0.0
  0
ELLIPSE
  5
215
330
2
100
AcDbEntity
  8
GAIKEI
 62
     1
100
AcDbEllipse
 10
-43.78674290279803
 20
11.85985956604196
 30
0.0
 11
0.3049999999799468
 21
0.0000000021497851
 31
0.0
210
0.0
220
0.0
230
1.0
 40
0.3441935516947883
 41
0.0
 42
6.283185307179586
  0
ELLIPSE
  5
216
330
2
100
AcDbEntity
  8
GAIKEI
 62
     1
100
AcDbEllipse
 10
-43.78674290279803
 20
11.85985956604196
 30
0.0
 11
0.4499999999799459
 21
-0.0000000264400057
 31
0.0
210
0.0
220
0.0
230
1.0
 40
0.3333806282091778
 41
0.0
 42
6.283185307179586
  0
ELLIPSE
  5
217
330
2
100
AcDbEntity
  8
GAIKEI
 62
     1
100
AcDbEllipse
 10
-46.73674290279808
 20
10.40985956604197
 30
0.0
 11
0.4499999999799459
 21
-0.0000000264400057
 31
0.0
210
0.0
220
0.0
230
1.0
 40
0.3333806282091778
 41
0.0
 42
6.283185307179586
  0
ELLIPSE
  5
218
330
2
100
AcDbEntity
  8
GAIKEI
 62
     1
100
AcDbEllipse
 10
-46.73674290279808
 20
10.40985956604197
 30
0.0
 11
0.3049999999799468
 21
0.0000000021497851
 31
0.0
210
0.0
220
0.0
230
1.0
 40
0.3441935516947883
 41
0.0
 42
6.283185307179586
  0
LINE
  5
219
330
2
100
AcDbEntity
  8
GAIKEI
 62
     1
100
AcDbLine
 10
-46.73674290353813
 20
10.51485490084195
 30
0.0
 11
-46.73674290353813
 21
10.30488053278191
 31
0.0
  0
LINE
  5
21A
330
2
100
AcDbEntity
  8
GAIKEI
 62
     1
100
AcDbLine
 10
-47.18674290281813
 20
10.40985956604197
 30
0.0
 11
-46.28674290281816
 21
10.40985956604197
 31
0.0
  0
LINE
  5
21B
330
2
100
AcDbEntity
  8
GAIKEI
 62
     1
100
AcDbLine
 10
-47.18674290281813
 20
8.959859566041927
 30
0.0
 11
-46.28674290281816
 21
8.959859566041927
 31
0.0
  0
LINE
  5
21C
330
2
100
AcDbEntity
  8
GAIKEI
 62
     1
100
AcDbLine
 10
-46.73674290353813
 20
9.064854900841964
 30
0.0
 11
-46.73674290353813
 21
8.854880532781976
 31
0.0
  0
ELLIPSE
  5
21D
330
2
100
AcDbEntity
  8
GAIKEI
 62
     1
100
AcDbEllipse
 10
-46.73674290279808
 20
8.959859566041927
 30
0.0
 11
0.3049999999799468
 21
0.0000000021497851
 31
0.0
210
0.0
220
0.0
230
1.0
 40
0.3441935516947883
 41
0.0
 42
6.283185307179586
  0
ELLIPSE
  5
21E
330
2
100
AcDbEntity
  8
GAIKEI
 62
     1
100
AcDbEllipse
 10
-46.73674290279808
 20
8.959859566041927
 30
0.0
 11
0.4499999999799459
 21
-0.0000000264400057
 31
0.0
210
0.0
220
0.0
230
1.0
 40
0.3333806282091778
 41
0.0
 42
6.283185307179586
  0
LINE
  5
21F
330
2
100
AcDbEntity
  8
GAIKEI
 62
     1
100
AcDbLine
 10
-10.91674290355808
 20
20.10985956604196
 30
0.0
 11
-10.91674290355814
 21
6.909859566041973
 31
0.0
  0
LINE
  5
220
330
2
100
AcDbEntity
  8
GAIKEI
 62
     1
100
AcDbLine
 10
-10.88674290355811
 20
20.06985956604194
 30
0.0
 11
-10.88674290355811
 21
6.909859566041973
 31
0.0
  0
ARC
  5
221
330
2
100
AcDbEntity
  8
GAIKEI
100
AcDbCircle
 10
-10.84674290355815
 20
20.06985956604194
 30
0.0
 40
0.04
100
AcDbArc
 50
90.0
 51
180.0
  0
ARC
  5
222
330
2
100
AcDbEntity
  8
GAIKEI
  6
Continuous
100
AcDbCircle
 10
-7.786742903558149
 20
6.959859566041927
 30
0.0
 40
0.05
100
AcDbArc
 50
270.0
 51
0.0
  0
ARC
  5
223
330
2
100
AcDbEntity
  8
GAIKEI
  6
Continuous
100
AcDbCircle
 10
-7.786742903558149
 20
20.05985956604195
 30
0.0
 40
0.05
100
AcDbArc
 50
0.0
 51
90.0
  0
ARC
  5
224
330
2
100
AcDbEntity
  8
GAIKEI
  6
Continuous
100
AcDbCircle
 10
-50.68674290355812
 20
20.05985956604195
 30
0.0
 40
0.05
100
AcDbArc
 50
90.0
 51
180.0
  0
CIRCLE
  5
225
330
2
100
AcDbEntity
  8
GAIKEI
 62
     1
100
AcDbCircle
 10
-40.27924290355815
 20
9.099861046921944
 30
0.0
 40
0.0900000000000002
  0
CIRCLE
  5
226
330
2
100
AcDbEntity
  8
GAIKEI
 62
     1
100
AcDbCircle
 10
-39.77424290355816
 20
9.099861046921944
 30
0.0
 40
0.0900000000000002
  0
CIRCLE
  5
227
330
2
100
AcDbEntity
  8
GAIKEI
 62
     1
100
AcDbCircle
 10
-39.26924290355811
 20
9.099861046921944
 30
0.0
 40
0.0900000000000002
  0
CIRCLE
  5
228
330
2
100
AcDbEntity
  8
GAIKEI
 62
     1
100
AcDbCircle
 10
-38.76424290355812
 20
9.099861046921944
 30
0.0
 40
0.0900000000000002
  0
CIRCLE
  5
229
330
2
100
AcDbEntity
  8
GAIKEI
 62
     1
100
AcDbCircle
 10
-38.25924290355812
 20
9.099861046921944
 30
0.0
 40
0.0900000000000002
  0
CIRCLE
  5
22A
330
2
100
AcDbEntity
  8
GAIKEI
 62
     1
100
AcDbCircle
 10
-37.75424290355812
 20
9.099861046921944
 30
0.0
 40
0.0900000000000002
  0
CIRCLE
  5
22B
330
2
100
AcDbEntity
  8
GAIKEI
 62
     1
100
AcDbCircle
 10
-37.24924290355813
 20
9.099861046921944
 30
0.0
 40
0.0900000000000002
  0
CIRCLE
  5
22C
330
2
100
AcDbEntity
  8
GAIKEI
 62
     1
100
AcDbCircle
 10
-36.74424290355813
 20
9.099861046921944
 30
0.0
 40
0.0900000000000002
  0
CIRCLE
  5
22D
330
2
100
AcDbEntity
  8
GAIKEI
 62
     1
100
AcDbCircle
 10
-36.23924290355814
 20
9.099861046921944
 30
0.0
 40
0.0900000000000002
  0
CIRCLE
  5
22E
330
2
100
AcDbEntity
  8
GAIKEI
 62
     1
100
AcDbCircle
 10
-35.73424290355814
 20
9.099861046921944
 30
0.0
 40
0.0900000000000002
  0
CIRCLE
  5
22F
330
2
100
AcDbEntity
  8
GAIKEI
 62
     1
100
AcDbCircle
 10
-35.22924290355815
 20
9.099861046921944
 30
0.0
 40
0.0900000000000002
  0
CIRCLE
  5
230
330
2
100
AcDbEntity
  8
GAIKEI
 62
     1
100
AcDbCircle
 10
-34.72424290355815
 20
9.099861046921944
 30
0.0
 40
0.0900000000000002
  0
CIRCLE
  5
231
330
2
100
AcDbEntity
  8
GAIKEI
 62
     1
100
AcDbCircle
 10
-34.21924290355816
 20
9.099861046921944
 30
0.0
 40
0.0900000000000002
  0
CIRCLE
  5
232
330
2
100
AcDbEntity
  8
GAIKEI
 62
     1
100
AcDbCircle
 10
-33.7142429035581
 20
9.099861046921944
 30
0.0
 40
0.0900000000000002
  0
CIRCLE
  5
233
330
2
100
AcDbEntity
  8
GAIKEI
 62
     1
100
AcDbCircle
 10
-33.20924290355811
 20
9.099861046921944
 30
0.0
 40
0.0900000000000002
  0
CIRCLE
  5
234
330
2
100
AcDbEntity
  8
GAIKEI
 62
     1
100
AcDbCircle
 10
-32.70424290355811
 20
9.099861046921944
 30
0.0
 40
0.0900000000000002
  0
CIRCLE
  5
235
330
2
100
AcDbEntity
  8
GAIKEI
 62
     1
100
AcDbCircle
 10
-32.19924290355812
 20
9.099861046921944
 30
0.0
 40
0.0900000000000002
  0
CIRCLE
  5
236
330
2
100
AcDbEntity
  8
GAIKEI
 62
     1
100
AcDbCircle
 10
-31.69424290355812
 20
9.099861046921944
 30
0.0
 40
0.0900000000000002
  0
CIRCLE
  5
237
330
2
100
AcDbEntity
  8
GAIKEI
 62
     1
100
AcDbCircle
 10
-31.18924290355812
 20
9.099861046921944
 30
0.0
 40
0.0900000000000002
  0
CIRCLE
  5
238
330
2
100
AcDbEntity
  8
GAIKEI
 62
     1
100
AcDbCircle
 10
-30.68424290355813
 20
9.099861046921944
 30
0.0
 40
0.0900000000000002
  0
CIRCLE
  5
239
330
2
100
AcDbEntity
  8
GAIKEI
 62
     1
100
AcDbCircle
 10
-30.17924290355813
 20
9.099861046921944
 30
0.0
 40
0.0900000000000002
  0
CIRCLE
  5
23A
330
2
100
AcDbEntity
  8
GAIKEI
 62
     1
100
AcDbCircle
 10
-29.67424290355814
 20
9.099861046921944
 30
0.0
 40
0.0900000000000002
  0
CIRCLE
  5
23B
330
2
100
AcDbEntity
  8
GAIKEI
 62
     1
100
AcDbCircle
 10
-21.0892429035581
 20
9.099861046921944
 30
0.0
 40
0.0900000000000002
  0
CIRCLE
  5
23C
330
2
100
AcDbEntity
  8
GAIKEI
 62
     1
100
AcDbCircle
 10
-21.59424290355815
 20
9.099861046921944
 30
0.0
 40
0.0900000000000002
  0
CIRCLE
  5
23D
330
2
100
AcDbEntity
  8
GAIKEI
 62
     1
100
AcDbCircle
 10
-22.09924290355815
 20
9.099861046921944
 30
0.0
 40
0.0900000000000002
  0
CIRCLE
  5
23E
330
2
100
AcDbEntity
  8
GAIKEI
 62
     1
100
AcDbCircle
 10
-22.60424290355814
 20
9.099861046921944
 30
0.0
 40
0.0900000000000002
  0
CIRCLE
  5
23F
330
2
100
AcDbEntity
  8
GAIKEI
 62
     1
100
AcDbCircle
 10
-23.10924290355814
 20
9.099861046921944
 30
0.0
 40
0.0900000000000002
  0
CIRCLE
  5
240
330
2
100
AcDbEntity
  8
GAIKEI
 62
     1
100
AcDbCircle
 10
-23.61424290355814
 20
9.099861046921944
 30
0.0
 40
0.0900000000000002
  0
CIRCLE
  5
241
330
2
100
AcDbEntity
  8
GAIKEI
 62
     1
100
AcDbCircle
 10
-24.11924290355813
 20
9.099861046921944
 30
0.0
 40
0.0900000000000002
  0
CIRCLE
  5
242
330
2
100
AcDbEntity
  8
GAIKEI
 62
     1
100
AcDbCircle
 10
-24.62424290355813
 20
9.099861046921944
 30
0.0
 40
0.0900000000000002
  0
CIRCLE
  5
243
330
2
100
AcDbEntity
  8
GAIKEI
 62
     1
100
AcDbCircle
 10
-25.12924290355812
 20
9.099861046921944
 30
0.0
 40
0.0900000000000002
  0
CIRCLE
  5
244
330
2
100
AcDbEntity
  8
GAIKEI
 62
     1
100
AcDbCircle
 10
-25.63424290355812
 20
9.099861046921944
 30
0.0
 40
0.0900000000000002
  0
CIRCLE
  5
245
330
2
100
AcDbEntity
  8
GAIKEI
 62
     1
100
AcDbCircle
 10
-26.13924290355811
 20
9.099861046921944
 30
0.0
 40
0.0900000000000002
  0
CIRCLE
  5
246
330
2
100
AcDbEntity
  8
GAIKEI
 62
     1
100
AcDbCircle
 10
-26.64424290355811
 20
9.099861046921944
 30
0.0
 40
0.0900000000000002
  0
CIRCLE
  5
247
330
2
100
AcDbEntity
  8
GAIKEI
 62
     1
100
AcDbCircle
 10
-27.1492429035581
 20
9.099861046921944
 30
0.0
 40
0.0900000000000002
  0
CIRCLE
  5
248
330
2
100
AcDbEntity
  8
GAIKEI
 62
     1
100
AcDbCircle
 10
-27.65424290355816
 20
9.099861046921944
 30
0.0
 40
0.0900000000000002
  0
CIRCLE
  5
249
330
2
100
AcDbEntity
  8
GAIKEI
 62
     1
100
AcDbCircle
 10
-28.15924290355815
 20
9.099861046921944
 30
0.0
 40
0.0900000000000002
  0
CIRCLE
  5
24A
330
2
100
AcDbEntity
  8
GAIKEI
 62
     1
100
AcDbCircle
 10
-28.66424290355815
 20
9.099861046921944
 30
0.0
 40
0.0900000000000002
  0
CIRCLE
  5
24B
330
2
100
AcDbEntity
  8
GAIKEI
 62
     1
100
AcDbCircle
 10
-29.16924290355814
 20
9.099861046921944
 30
0.0
 40
0.0900000000000002
  0
CIRCLE
  5
24C
330
2
100
AcDbEntity
  8
GAIKEI
 62
     1
100
AcDbCircle
 10
-20.5842429035581
 20
9.099861046921944
 30
0.0
 40
0.0900000000000002
  0
CIRCLE
  5
24D
330
2
100
AcDbEntity
  8
GAIKEI
 62
     1
100
AcDbCircle
 10
-20.07924290355811
 20
9.099861046921944
 30
0.0
 40
0.0900000000000002
  0
CIRCLE
  5
24E
330
2
100
AcDbEntity
  8
GAIKEI
 62
     1
100
AcDbCircle
 10
-19.57424290355811
 20
9.099861046921944
 30
0.0
 40
0.0900000000000002
  0
CIRCLE
  5
24F
330
2
100
AcDbEntity
  8
GAIKEI
 62
     1
100
AcDbCircle
 10
-19.06924290355812
 20
9.099861046921944
 30
0.0
 40
0.0900000000000002
  0
CIRCLE
  5
250
330
2
100
AcDbEntity
  8
GAIKEI
 62
     1
100
AcDbCircle
 10
-18.56424290355812
 20
9.099861046921944
 30
0.0
 40
0.0900000000000002
  0
CIRCLE
  5
251
330
2
100
AcDbEntity
  8
GAIKEI
 62
     1
100
AcDbCircle
 10
-18.05924290355813
 20
9.099861046921944
 30
0.0
 40
0.0900000000000002
  0
CIRCLE
  5
252
330
2
100
AcDbEntity
  8
GAIKEI
 62
     1
100
AcDbCircle
 10
-17.55424290355813
 20
9.099861046921944
 30
0.0
 40
0.0900000000000002
  0
CIRCLE
  5
253
330
2
100
AcDbEntity
  8
GAIKEI
 62
     1
100
AcDbCircle
 10
-17.04924290355814
 20
9.099861046921944
 30
0.0
 40
0.0900000000000002
  0
CIRCLE
  5
254
330
2
100
AcDbEntity
  8
GAIKEI
 62
     1
100
AcDbCircle
 10
-16.54424290355814
 20
9.099861046921944
 30
0.0
 40
0.0900000000000002
  0
CIRCLE
  5
255
330
2
100
AcDbEntity
  8
GAIKEI
 62
     1
100
AcDbCircle
 10
-12.50424290355812
 20
9.099861046921944
 30
0.0
 40
0.0900000000000002
  0
CIRCLE
  5
256
330
2
100
AcDbEntity
  8
GAIKEI
 62
     1
100
AcDbCircle
 10
-13.00924290355812
 20
9.099861046921944
 30
0.0
 40
0.0900000000000002
  0
CIRCLE
  5
257
330
2
100
AcDbEntity
  8
GAIKEI
 62
     1
100
AcDbCircle
 10
-13.51424290355811
 20
9.099861046921944
 30
0.0
 40
0.0900000000000002
  0
CIRCLE
  5
258
330
2
100
AcDbEntity
  8
GAIKEI
 62
     1
100
AcDbCircle
 10
-14.01924290355811
 20
9.099861046921944
 30
0.0
 40
0.0900000000000002
  0
CIRCLE
  5
259
330
2
100
AcDbEntity
  8
GAIKEI
 62
     1
100
AcDbCircle
 10
-14.5242429035581
 20
9.099861046921944
 30
0.0
 40
0.0900000000000002
  0
CIRCLE
  5
25A
330
2
100
AcDbEntity
  8
GAIKEI
 62
     1
100
AcDbCircle
 10
-15.0292429035581
 20
9.099861046921944
 30
0.0
 40
0.0900000000000002
  0
CIRCLE
  5
25B
330
2
100
AcDbEntity
  8
GAIKEI
 62
     1
100
AcDbCircle
 10
-15.53424290355809
 20
9.099861046921944
 30
0.0
 40
0.0900000000000002
  0
CIRCLE
  5
25C
330
2
100
AcDbEntity
  8
GAIKEI
 62
     1
100
AcDbCircle
 10
-16.03924290355809
 20
9.099861046921944
 30
0.0
 40
0.0900000000000002
  0
CIRCLE
  5
25D
330
2
100
AcDbEntity
  8
GAIKEI
 62
     1
100
AcDbCircle
 10
-11.99924290355812
 20
9.099861046921944
 30
0.0
 40
0.0900000000000002
  0
CIRCLE
  5
25E
330
2
100
AcDbEntity
  8
GAIKEI
 62
     1
100
AcDbCircle
 10
-11.49424290355807
 20
9.099861046921944
 30
0.0
 40
0.0900000000000002
  0
CIRCLE
  5
25F
330
2
100
AcDbEntity
  8
GAIKEI
 62
     1
100
AcDbCircle
 10
-11.49424290355807
 20
9.51986104692196
 30
0.0
 40
0.0900000000000002
  0
CIRCLE
  5
260
330
2
100
AcDbEntity
  8
GAIKEI
 62
     1
100
AcDbCircle
 10
-11.99924290355812
 20
9.51986104692196
 30
0.0
 40
0.0900000000000002
  0
CIRCLE
  5
261
330
2
100
AcDbEntity
  8
GAIKEI
 62
     1
100
AcDbCircle
 10
-16.03924290355809
 20
9.51986104692196
 30
0.0
 40
0.0900000000000002
  0
CIRCLE
  5
262
330
2
100
AcDbEntity
  8
GAIKEI
 62
     1
100
AcDbCircle
 10
-15.53424290355809
 20
9.51986104692196
 30
0.0
 40
0.0900000000000002
  0
CIRCLE
  5
263
330
2
100
AcDbEntity
  8
GAIKEI
 62
     1
100
AcDbCircle
 10
-15.0292429035581
 20
9.51986104692196
 30
0.0
 40
0.0900000000000002
  0
CIRCLE
  5
264
330
2
100
AcDbEntity
  8
GAIKEI
 62
     1
100
AcDbCircle
 10
-14.5242429035581
 20
9.51986104692196
 30
0.0
 40
0.0900000000000002
  0
CIRCLE
  5
265
330
2
100
AcDbEntity
  8
GAIKEI
 62
     1
100
AcDbCircle
 10
-14.01924290355811
 20
9.51986104692196
 30
0.0
 40
0.0900000000000002
  0
CIRCLE
  5
266
330
2
100
AcDbEntity
  8
GAIKEI
 62
     1
100
AcDbCircle
 10
-13.51424290355811
 20
9.51986104692196
 30
0.0
 40
0.0900000000000002
  0
CIRCLE
  5
267
330
2
100
AcDbEntity
  8
GAIKEI
 62
     1
100
AcDbCircle
 10
-13.00924290355812
 20
9.51986104692196
 30
0.0
 40
0.0900000000000002
  0
CIRCLE
  5
268
330
2
100
AcDbEntity
  8
GAIKEI
 62
     1
100
AcDbCircle
 10
-12.50424290355812
 20
9.51986104692196
 30
0.0
 40
0.0900000000000002
  0
CIRCLE
  5
269
330
2
100
AcDbEntity
  8
GAIKEI
 62
     1
100
AcDbCircle
 10
-16.54424290355814
 20
9.51986104692196
 30
0.0
 40
0.0900000000000002
  0
CIRCLE
  5
26A
330
2
100
AcDbEntity
  8
GAIKEI
 62
     1
100
AcDbCircle
 10
-17.04924290355814
 20
9.51986104692196
 30
0.0
 40
0.0900000000000002
  0
CIRCLE
  5
26B
330
2
100
AcDbEntity
  8
GAIKEI
 62
     1
100
AcDbCircle
 10
-17.55424290355813
 20
9.51986104692196
 30
0.0
 40
0.0900000000000002
  0
CIRCLE
  5
26C
330
2
100
AcDbEntity
  8
GAIKEI
 62
     1
100
AcDbCircle
 10
-18.05924290355813
 20
9.51986104692196
 30
0.0
 40
0.0900000000000002
  0
CIRCLE
  5
26D
330
2
100
AcDbEntity
  8
GAIKEI
 62
     1
100
AcDbCircle
 10
-18.56424290355812
 20
9.51986104692196
 30
0.0
 40
0.0900000000000002
  0
CIRCLE
  5
26E
330
2
100
AcDbEntity
  8
GAIKEI
 62
     1
100
AcDbCircle
 10
-19.06924290355812
 20
9.51986104692196
 30
0.0
 40
0.0900000000000002
  0
CIRCLE
  5
26F
330
2
100
AcDbEntity
  8
GAIKEI
 62
     1
100
AcDbCircle
 10
-19.57424290355811
 20
9.51986104692196
 30
0.0
 40
0.0900000000000002
  0
CIRCLE
  5
270
330
2
100
AcDbEntity
  8
GAIKEI
 62
     1
100
AcDbCircle
 10
-20.07924290355811
 20
9.51986104692196
 30
0.0
 40
0.0900000000000002
  0
CIRCLE
  5
271
330
2
100
AcDbEntity
  8
GAIKEI
 62
     1
100
AcDbCircle
 10
-20.5842429035581
 20
9.51986104692196
 30
0.0
 40
0.0900000000000002
  0
CIRCLE
  5
272
330
2
100
AcDbEntity
  8
GAIKEI
 62
     1
100
AcDbCircle
 10
-29.16924290355814
 20
9.51986104692196
 30
0.0
 40
0.0900000000000002
  0
CIRCLE
  5
273
330
2
100
AcDbEntity
  8
GAIKEI
 62
     1
100
AcDbCircle
 10
-28.66424290355815
 20
9.51986104692196
 30
0.0
 40
0.0900000000000002
  0
CIRCLE
  5
274
330
2
100
AcDbEntity
  8
GAIKEI
 62
     1
100
AcDbCircle
 10
-28.15924290355815
 20
9.51986104692196
 30
0.0
 40
0.0900000000000002
  0
CIRCLE
  5
275
330
2
100
AcDbEntity
  8
GAIKEI
 62
     1
100
AcDbCircle
 10
-27.65424290355816
 20
9.51986104692196
 30
0.0
 40
0.0900000000000002
  0
CIRCLE
  5
276
330
2
100
AcDbEntity
  8
GAIKEI
 62
     1
100
AcDbCircle
 10
-27.1492429035581
 20
9.51986104692196
 30
0.0
 40
0.0900000000000002
  0
CIRCLE
  5
277
330
2
100
AcDbEntity
  8
GAIKEI
 62
     1
100
AcDbCircle
 10
-26.64424290355811
 20
9.51986104692196
 30
0.0
 40
0.0900000000000002
  0
CIRCLE
  5
278
330
2
100
AcDbEntity
  8
GAIKEI
 62
     1
100
AcDbCircle
 10
-26.13924290355811
 20
9.51986104692196
 30
0.0
 40
0.0900000000000002
  0
CIRCLE
  5
279
330
2
100
AcDbEntity
  8
GAIKEI
 62
     1
100
AcDbCircle
 10
-25.63424290355812
 20
9.51986104692196
 30
0.0
 40
0.0900000000000002
  0
CIRCLE
  5
27A
330
2
100
AcDbEntity
  8
GAIKEI
 62
     1
100
AcDbCircle
 10
-25.12924290355812
 20
9.51986104692196
 30
0.0
 40
0.0900000000000002
  0
CIRCLE
  5
27B
330
2
100
AcDbEntity
  8
GAIKEI
 62
     1
100
AcDbCircle
 10
-24.62424290355813
 20
9.51986104692196
 30
0.0
 40
0.0900000000000002
  0
CIRCLE
  5
27C
330
2
100
AcDbEntity
  8
GAIKEI
 62
     1
100
AcDbCircle
 10
-24.11924290355813
 20
9.51986104692196
 30
0.0
 40
0.0900000000000002
  0
CIRCLE
  5
27D
330
2
100
AcDbEntity
  8
GAIKEI
 62
     1
100
AcDbCircle
 10
-23.61424290355814
 20
9.51986104692196
 30
0.0
 40
0.0900000000000002
  0
CIRCLE
  5
27E
330
2
100
AcDbEntity
  8
GAIKEI
 62
     1
100
AcDbCircle
 10
-23.10924290355814
 20
9.51986104692196
 30
0.0
 40
0.0900000000000002
  0
CIRCLE
  5
27F
330
2
100
AcDbEntity
  8
GAIKEI
 62
     1
100
AcDbCircle
 10
-22.60424290355814
 20
9.51986104692196
 30
0.0
 40
0.0900000000000002
  0
CIRCLE
  5
280
330
2
100
AcDbEntity
  8
GAIKEI
 62
     1
100
AcDbCircle
 10
-22.09924290355815
 20
9.51986104692196
 30
0.0
 40
0.0900000000000002
  0
CIRCLE
  5
281
330
2
100
AcDbEntity
  8
GAIKEI
 62
     1
100
AcDbCircle
 10
-21.59424290355815
 20
9.51986104692196
 30
0.0
 40
0.0900000000000002
  0
CIRCLE
  5
282
330
2
100
AcDbEntity
  8
GAIKEI
 62
     1
100
AcDbCircle
 10
-21.0892429035581
 20
9.51986104692196
 30
0.0
 40
0.0900000000000002
  0
CIRCLE
  5
283
330
2
100
AcDbEntity
  8
GAIKEI
 62
     1
100
AcDbCircle
 10
-29.67424290355814
 20
9.51986104692196
 30
0.0
 40
0.0900000000000002
  0
CIRCLE
  5
284
330
2
100
AcDbEntity
  8
GAIKEI
 62
     1
100
AcDbCircle
 10
-30.17924290355813
 20
9.51986104692196
 30
0.0
 40
0.0900000000000002
  0
CIRCLE
  5
285
330
2
100
AcDbEntity
  8
GAIKEI
 62
     1
100
AcDbCircle
 10
-30.68424290355813
 20
9.51986104692196
 30
0.0
 40
0.0900000000000002
  0
CIRCLE
  5
286
330
2
100
AcDbEntity
  8
GAIKEI
 62
     1
100
AcDbCircle
 10
-31.18924290355812
 20
9.51986104692196
 30
0.0
 40
0.0900000000000002
  0
CIRCLE
  5
287
330
2
100
AcDbEntity
  8
GAIKEI
 62
     1
100
AcDbCircle
 10
-31.69424290355812
 20
9.51986104692196
 30
0.0
 40
0.0900000000000002
  0
CIRCLE
  5
288
330
2
100
AcDbEntity
  8
GAIKEI
 62
     1
100
AcDbCircle
 10
-32.19924290355812
 20
9.51986104692196
 30
0.0
 40
0.0900000000000002
  0
CIRCLE
  5
289
330
2
100
AcDbEntity
  8
GAIKEI
 62
     1
100
AcDbCircle
 10
-32.70424290355811
 20
9.51986104692196
 30
0.0
 40
0.0900000000000002
  0
CIRCLE
  5
28A
330
2
100
AcDbEntity
  8
GAIKEI
 62
     1
100
AcDbCircle
 10
-33.20924290355811
 20
9.51986104692196
 30
0.0
 40
0.0900000000000002
  0
CIRCLE
  5
28B
330
2
100
AcDbEntity
  8
GAIKEI
 62
     1
100
AcDbCircle
 10
-33.7142429035581
 20
9.51986104692196
 30
0.0
 40
0.0900000000000002
  0
CIRCLE
  5
28C
330
2
100
AcDbEntity
  8
GAIKEI
 62
     1
100
AcDbCircle
 10
-34.21924290355816
 20
9.51986104692196
 30
0.0
 40
0.0900000000000002
  0
CIRCLE
  5
28D
330
2
100
AcDbEntity
  8
GAIKEI
 62
     1
100
AcDbCircle
 10
-34.72424290355815
 20
9.51986104692196
 30
0.0
 40
0.0900000000000002
  0
CIRCLE
  5
28E
330
2
100
AcDbEntity
  8
GAIKEI
 62
     1
100
AcDbCircle
 10
-35.22924290355815
 20
9.51986104692196
 30
0.0
 40
0.0900000000000002
  0
CIRCLE
  5
28F
330
2
100
AcDbEntity
  8
GAIKEI
 62
     1
100
AcDbCircle
 10
-35.73424290355814
 20
9.51986104692196
 30
0.0
 40
0.0900000000000002
  0
CIRCLE
  5
290
330
2
100
AcDbEntity
  8
GAIKEI
 62
     1
100
AcDbCircle
 10
-36.23924290355814
 20
9.51986104692196
 30
0.0
 40
0.0900000000000002
  0
CIRCLE
  5
291
330
2
100
AcDbEntity
  8
GAIKEI
 62
     1
100
AcDbCircle
 10
-36.74424290355813
 20
9.51986104692196
 30
0.0
 40
0.0900000000000002
  0
CIRCLE
  5
292
330
2
100
AcDbEntity
  8
GAIKEI
 62
     1
100
AcDbCircle
 10
-37.24924290355813
 20
9.51986104692196
 30
0.0
 40
0.0900000000000002
  0
CIRCLE
  5
293
330
2
100
AcDbEntity
  8
GAIKEI
 62
     1
100
AcDbCircle
 10
-37.75424290355812
 20
9.51986104692196
 30
0.0
 40
0.0900000000000002
  0
CIRCLE
  5
294
330
2
100
AcDbEntity
  8
GAIKEI
 62
     1
100
AcDbCircle
 10
-38.25924290355812
 20
9.51986104692196
 30
0.0
 40
0.0900000000000002
  0
CIRCLE
  5
295
330
2
100
AcDbEntity
  8
GAIKEI
 62
     1
100
AcDbCircle
 10
-38.76424290355812
 20
9.51986104692196
 30
0.0
 40
0.0900000000000002
  0
CIRCLE
  5
296
330
2
100
AcDbEntity
  8
GAIKEI
 62
     1
100
AcDbCircle
 10
-39.26924290355811
 20
9.51986104692196
 30
0.0
 40
0.0900000000000002
  0
CIRCLE
  5
297
330
2
100
AcDbEntity
  8
GAIKEI
 62
     1
100
AcDbCircle
 10
-39.77424290355816
 20
9.51986104692196
 30
0.0
 40
0.0900000000000002
  0
CIRCLE
  5
298
330
2
100
AcDbEntity
  8
GAIKEI
 62
     1
100
AcDbCircle
 10
-40.27924290355815
 20
9.51986104692196
 30
0.0
 40
0.0900000000000002
  0
CIRCLE
  5
299
330
2
100
AcDbEntity
  8
GAIKEI
 62
     1
100
AcDbCircle
 10
-40.27924290355815
 20
9.939861046921919
 30
0.0
 40
0.0900000000000002
  0
CIRCLE
  5
29A
330
2
100
AcDbEntity
  8
GAIKEI
 62
     1
100
AcDbCircle
 10
-39.77424290355816
 20
9.939861046921919
 30
0.0
 40
0.0900000000000002
  0
CIRCLE
  5
29B
330
2
100
AcDbEntity
  8
GAIKEI
 62
     1
100
AcDbCircle
 10
-39.26924290355811
 20
9.939861046921919
 30
0.0
 40
0.0900000000000002
  0
CIRCLE
  5
29C
330
2
100
AcDbEntity
  8
GAIKEI
 62
     1
100
AcDbCircle
 10
-38.76424290355812
 20
9.939861046921919
 30
0.0
 40
0.0900000000000002
  0
CIRCLE
  5
29D
330
2
100
AcDbEntity
  8
GAIKEI
 62
     1
100
AcDbCircle
 10
-38.25924290355812
 20
9.939861046921919
 30
0.0
 40
0.0900000000000002
  0
CIRCLE
  5
29E
330
2
100
AcDbEntity
  8
GAIKEI
 62
     1
100
AcDbCircle
 10
-37.75424290355812
 20
9.939861046921919
 30
0.0
 40
0.0900000000000002
  0
CIRCLE
  5
29F
330
2
100
AcDbEntity
  8
GAIKEI
 62
     1
100
AcDbCircle
 10
-37.24924290355813
 20
9.939861046921919
 30
0.0
 40
0.0900000000000002
  0
CIRCLE
  5
2A0
330
2
100
AcDbEntity
  8
GAIKEI
 62
     1
100
AcDbCircle
 10
-36.74424290355813
 20
9.939861046921919
 30
0.0
 40
0.0900000000000002
  0
CIRCLE
  5
2A1
330
2
100
AcDbEntity
  8
GAIKEI
 62
     1
100
AcDbCircle
 10
-36.23924290355814
 20
9.939861046921919
 30
0.0
 40
0.0900000000000002
  0
CIRCLE
  5
2A2
330
2
100
AcDbEntity
  8
GAIKEI
 62
     1
100
AcDbCircle
 10
-35.73424290355814
 20
9.939861046921919
 30
0.0
 40
0.0900000000000002
  0
CIRCLE
  5
2A3
330
2
100
AcDbEntity
  8
GAIKEI
 62
     1
100
AcDbCircle
 10
-35.22924290355815
 20
9.939861046921919
 30
0.0
 40
0.0900000000000002
  0
CIRCLE
  5
2A4
330
2
100
AcDbEntity
  8
GAIKEI
 62
     1
100
AcDbCircle
 10
-34.72424290355815
 20
9.939861046921919
 30
0.0
 40
0.0900000000000002
  0
CIRCLE
  5
2A5
330
2
100
AcDbEntity
  8
GAIKEI
 62
     1
100
AcDbCircle
 10
-34.21924290355816
 20
9.939861046921919
 30
0.0
 40
0.0900000000000002
  0
CIRCLE
  5
2A6
330
2
100
AcDbEntity
  8
GAIKEI
 62
     1
100
AcDbCircle
 10
-33.7142429035581
 20
9.939861046921919
 30
0.0
 40
0.0900000000000002
  0
CIRCLE
  5
2A7
330
2
100
AcDbEntity
  8
GAIKEI
 62
     1
100
AcDbCircle
 10
-33.20924290355811
 20
9.939861046921919
 30
0.0
 40
0.0900000000000002
  0
CIRCLE
  5
2A8
330
2
100
AcDbEntity
  8
GAIKEI
 62
     1
100
AcDbCircle
 10
-32.70424290355811
 20
9.939861046921919
 30
0.0
 40
0.0900000000000002
  0
CIRCLE
  5
2A9
330
2
100
AcDbEntity
  8
GAIKEI
 62
     1
100
AcDbCircle
 10
-32.19924290355812
 20
9.939861046921919
 30
0.0
 40
0.0900000000000002
  0
CIRCLE
  5
2AA
330
2
100
AcDbEntity
  8
GAIKEI
 62
     1
100
AcDbCircle
 10
-31.69424290355812
 20
9.939861046921919
 30
0.0
 40
0.0900000000000002
  0
CIRCLE
  5
2AB
330
2
100
AcDbEntity
  8
GAIKEI
 62
     1
100
AcDbCircle
 10
-31.18924290355812
 20
9.939861046921919
 30
0.0
 40
0.0900000000000002
  0
CIRCLE
  5
2AC
330
2
100
AcDbEntity
  8
GAIKEI
 62
     1
100
AcDbCircle
 10
-30.68424290355813
 20
9.939861046921919
 30
0.0
 40
0.0900000000000002
  0
CIRCLE
  5
2AD
330
2
100
AcDbEntity
  8
GAIKEI
 62
     1
100
AcDbCircle
 10
-30.17924290355813
 20
9.939861046921919
 30
0.0
 40
0.0900000000000002
  0
CIRCLE
  5
2AE
330
2
100
AcDbEntity
  8
GAIKEI
 62
     1
100
AcDbCircle
 10
-29.67424290355814
 20
9.939861046921919
 30
0.0
 40
0.0900000000000002
  0
CIRCLE
  5
2AF
330
2
100
AcDbEntity
  8
GAIKEI
 62
     1
100
AcDbCircle
 10
-21.0892429035581
 20
9.939861046921919
 30
0.0
 40
0.0900000000000002
  0
CIRCLE
  5
2B0
330
2
100
AcDbEntity
  8
GAIKEI
 62
     1
100
AcDbCircle
 10
-21.59424290355815
 20
9.939861046921919
 30
0.0
 40
0.0900000000000002
  0
CIRCLE
  5
2B1
330
2
100
AcDbEntity
  8
GAIKEI
 62
     1
100
AcDbCircle
 10
-22.09924290355815
 20
9.939861046921919
 30
0.0
 40
0.0900000000000002
  0
CIRCLE
  5
2B2
330
2
100
AcDbEntity
  8
GAIKEI
 62
     1
100
AcDbCircle
 10
-22.60424290355814
 20
9.939861046921919
 30
0.0
 40
0.0900000000000002
  0
CIRCLE
  5
2B3
330
2
100
AcDbEntity
  8
GAIKEI
 62
     1
100
AcDbCircle
 10
-23.10924290355814
 20
9.939861046921919
 30
0.0
 40
0.0900000000000002
  0
CIRCLE
  5
2B4
330
2
100
AcDbEntity
  8
GAIKEI
 62
     1
100
AcDbCircle
 10
-23.61424290355814
 20
9.939861046921919
 30
0.0
 40
0.0900000000000002
  0
CIRCLE
  5
2B5
330
2
100
AcDbEntity
  8
GAIKEI
 62
     1
100
AcDbCircle
 10
-24.11924290355813
 20
9.939861046921919
 30
0.0
 40
0.0900000000000002
  0
CIRCLE
  5
2B6
330
2
100
AcDbEntity
  8
GAIKEI
 62
     1
100
AcDbCircle
 10
-24.62424290355813
 20
9.939861046921919
 30
0.0
 40
0.0900000000000002
  0
CIRCLE
  5
2B7
330
2
100
AcDbEntity
  8
GAIKEI
 62
     1
100
AcDbCircle
 10
-25.12924290355812
 20
9.939861046921919
 30
0.0
 40
0.0900000000000002
  0
CIRCLE
  5
2B8
330
2
100
AcDbEntity
  8
GAIKEI
 62
     1
100
AcDbCircle
 10
-25.63424290355812
 20
9.939861046921919
 30
0.0
 40
0.0900000000000002
  0
CIRCLE
  5
2B9
330
2
100
AcDbEntity
  8
GAIKEI
 62
     1
100
AcDbCircle
 10
-26.13924290355811
 20
9.939861046921919
 30
0.0
 40
0.0900000000000002
  0
CIRCLE
  5
2BA
330
2
100
AcDbEntity
  8
GAIKEI
 62
     1
100
AcDbCircle
 10
-26.64424290355811
 20
9.939861046921919
 30
0.0
 40
0.0900000000000002
  0
CIRCLE
  5
2BB
330
2
100
AcDbEntity
  8
GAIKEI
 62
     1
100
AcDbCircle
 10
-27.1492429035581
 20
9.939861046921919
 30
0.0
 40
0.0900000000000002
  0
CIRCLE
  5
2BC
330
2
100
AcDbEntity
  8
GAIKEI
 62
     1
100
AcDbCircle
 10
-27.65424290355816
 20
9.939861046921919
 30
0.0
 40
0.0900000000000002
  0
CIRCLE
  5
2BD
330
2
100
AcDbEntity
  8
GAIKEI
 62
     1
100
AcDbCircle
 10
-28.15924290355815
 20
9.939861046921919
 30
0.0
 40
0.0900000000000002
  0
CIRCLE
  5
2BE
330
2
100
AcDbEntity
  8
GAIKEI
 62
     1
100
AcDbCircle
 10
-28.66424290355815
 20
9.939861046921919
 30
0.0
 40
0.0900000000000002
  0
CIRCLE
  5
2BF
330
2
100
AcDbEntity
  8
GAIKEI
 62
     1
100
AcDbCircle
 10
-29.16924290355814
 20
9.939861046921919
 30
0.0
 40
0.0900000000000002
  0
CIRCLE
  5
2C0
330
2
100
AcDbEntity
  8
GAIKEI
 62
     1
100
AcDbCircle
 10
-20.5842429035581
 20
9.939861046921919
 30
0.0
 40
0.0900000000000002
  0
CIRCLE
  5
2C1
330
2
100
AcDbEntity
  8
GAIKEI
 62
     1
100
AcDbCircle
 10
-20.07924290355811
 20
9.939861046921919
 30
0.0
 40
0.0900000000000002
  0
CIRCLE
  5
2C2
330
2
100
AcDbEntity
  8
GAIKEI
 62
     1
100
AcDbCircle
 10
-19.57424290355811
 20
9.939861046921919
 30
0.0
 40
0.0900000000000002
  0
CIRCLE
  5
2C3
330
2
100
AcDbEntity
  8
GAIKEI
 62
     1
100
AcDbCircle
 10
-19.06924290355812
 20
9.939861046921919
 30
0.0
 40
0.0900000000000002
  0
CIRCLE
  5
2C4
330
2
100
AcDbEntity
  8
GAIKEI
 62
     1
100
AcDbCircle
 10
-18.56424290355812
 20
9.939861046921919
 30
0.0
 40
0.0900000000000002
  0
CIRCLE
  5
2C5
330
2
100
AcDbEntity
  8
GAIKEI
 62
     1
100
AcDbCircle
 10
-18.05924290355813
 20
9.939861046921919
 30
0.0
 40
0.0900000000000002
  0
CIRCLE
  5
2C6
330
2
100
AcDbEntity
  8
GAIKEI
 62
     1
100
AcDbCircle
 10
-17.55424290355813
 20
9.939861046921919
 30
0.0
 40
0.0900000000000002
  0
CIRCLE
  5
2C7
330
2
100
AcDbEntity
  8
GAIKEI
 62
     1
100
AcDbCircle
 10
-17.04924290355814
 20
9.939861046921919
 30
0.0
 40
0.0900000000000002
  0
CIRCLE
  5
2C8
330
2
100
AcDbEntity
  8
GAIKEI
 62
     1
100
AcDbCircle
 10
-16.54424290355814
 20
9.939861046921919
 30
0.0
 40
0.0900000000000002
  0
CIRCLE
  5
2C9
330
2
100
AcDbEntity
  8
GAIKEI
 62
     1
100
AcDbCircle
 10
-12.50424290355812
 20
9.939861046921919
 30
0.0
 40
0.0900000000000002
  0
CIRCLE
  5
2CA
330
2
100
AcDbEntity
  8
GAIKEI
 62
     1
100
AcDbCircle
 10
-13.00924290355812
 20
9.939861046921919
 30
0.0
 40
0.0900000000000002
  0
CIRCLE
  5
2CB
330
2
100
AcDbEntity
  8
GAIKEI
 62
     1
100
AcDbCircle
 10
-13.51424290355811
 20
9.939861046921919
 30
0.0
 40
0.0900000000000002
  0
CIRCLE
  5
2CC
330
2
100
AcDbEntity
  8
GAIKEI
 62
     1
100
AcDbCircle
 10
-14.01924290355811
 20
9.939861046921919
 30
0.0
 40
0.0900000000000002
  0
CIRCLE
  5
2CD
330
2
100
AcDbEntity
  8
GAIKEI
 62
     1
100
AcDbCircle
 10
-14.5242429035581
 20
9.939861046921919
 30
0.0
 40
0.0900000000000002
  0
CIRCLE
  5
2CE
330
2
100
AcDbEntity
  8
GAIKEI
 62
     1
100
AcDbCircle
 10
-15.0292429035581
 20
9.939861046921919
 30
0.0
 40
0.0900000000000002
  0
CIRCLE
  5
2CF
330
2
100
AcDbEntity
  8
GAIKEI
 62
     1
100
AcDbCircle
 10
-15.53424290355809
 20
9.939861046921919
 30
0.0
 40
0.0900000000000002
  0
CIRCLE
  5
2D0
330
2
100
AcDbEntity
  8
GAIKEI
 62
     1
100
AcDbCircle
 10
-16.03924290355809
 20
9.939861046921919
 30
0.0
 40
0.0900000000000002
  0
CIRCLE
  5
2D1
330
2
100
AcDbEntity
  8
GAIKEI
 62
     1
100
AcDbCircle
 10
-11.99924290355812
 20
9.939861046921919
 30
0.0
 40
0.0900000000000002
  0
CIRCLE
  5
2D2
330
2
100
AcDbEntity
  8
GAIKEI
 62
     1
100
AcDbCircle
 10
-11.49424290355807
 20
9.939861046921919
 30
0.0
 40
0.0900000000000002
  0
CIRCLE
  5
2D3
330
2
100
AcDbEntity
  8
GAIKEI
 62
     1
100
AcDbCircle
 10
-11.49424290355807
 20
10.77986104692195
 30
0.0
 40
0.0900000000000002
  0
CIRCLE
  5
2D4
330
2
100
AcDbEntity
  8
GAIKEI
 62
     1
100
AcDbCircle
 10
-11.99924290355812
 20
10.77986104692195
 30
0.0
 40
0.0900000000000002
  0
CIRCLE
  5
2D5
330
2
100
AcDbEntity
  8
GAIKEI
 62
     1
100
AcDbCircle
 10
-16.03924290355809
 20
10.77986104692195
 30
0.0
 40
0.0900000000000002
  0
CIRCLE
  5
2D6
330
2
100
AcDbEntity
  8
GAIKEI
 62
     1
100
AcDbCircle
 10
-15.53424290355809
 20
10.77986104692195
 30
0.0
 40
0.0900000000000002
  0
CIRCLE
  5
2D7
330
2
100
AcDbEntity
  8
GAIKEI
 62
     1
100
AcDbCircle
 10
-15.0292429035581
 20
10.77986104692195
 30
0.0
 40
0.0900000000000002
  0
CIRCLE
  5
2D8
330
2
100
AcDbEntity
  8
GAIKEI
 62
     1
100
AcDbCircle
 10
-14.5242429035581
 20
10.77986104692195
 30
0.0
 40
0.0900000000000002
  0
CIRCLE
  5
2D9
330
2
100
AcDbEntity
  8
GAIKEI
 62
     1
100
AcDbCircle
 10
-14.01924290355811
 20
10.77986104692195
 30
0.0
 40
0.0900000000000002
  0
CIRCLE
  5
2DA
330
2
100
AcDbEntity
  8
GAIKEI
 62
     1
100
AcDbCircle
 10
-13.51424290355811
 20
10.77986104692195
 30
0.0
 40
0.0900000000000002
  0
CIRCLE
  5
2DB
330
2
100
AcDbEntity
  8
GAIKEI
 62
     1
100
AcDbCircle
 10
-13.00924290355812
 20
10.77986104692195
 30
0.0
 40
0.0900000000000002
  0
CIRCLE
  5
2DC
330
2
100
AcDbEntity
  8
GAIKEI
 62
     1
100
AcDbCircle
 10
-12.50424290355812
 20
10.77986104692195
 30
0.0
 40
0.0900000000000002
  0
CIRCLE
  5
2DD
330
2
100
AcDbEntity
  8
GAIKEI
 62
     1
100
AcDbCircle
 10
-16.54424290355814
 20
10.77986104692195
 30
0.0
 40
0.0900000000000002
  0
CIRCLE
  5
2DE
330
2
100
AcDbEntity
  8
GAIKEI
 62
     1
100
AcDbCircle
 10
-17.04924290355814
 20
10.77986104692195
 30
0.0
 40
0.0900000000000002
  0
CIRCLE
  5
2DF
330
2
100
AcDbEntity
  8
GAIKEI
 62
     1
100
AcDbCircle
 10
-17.55424290355813
 20
10.77986104692195
 30
0.0
 40
0.0900000000000002
  0
CIRCLE
  5
2E0
330
2
100
AcDbEntity
  8
GAIKEI
 62
     1
100
AcDbCircle
 10
-18.05924290355813
 20
10.77986104692195
 30
0.0
 40
0.0900000000000002
  0
CIRCLE
  5
2E1
330
2
100
AcDbEntity
  8
GAIKEI
 62
     1
100
AcDbCircle
 10
-18.56424290355812
 20
10.77986104692195
 30
0.0
 40
0.0900000000000002
  0
CIRCLE
  5
2E2
330
2
100
AcDbEntity
  8
GAIKEI
 62
     1
100
AcDbCircle
 10
-19.06924290355812
 20
10.77986104692195
 30
0.0
 40
0.0900000000000002
  0
CIRCLE
  5
2E3
330
2
100
AcDbEntity
  8
GAIKEI
 62
     1
100
AcDbCircle
 10
-19.57424290355811
 20
10.77986104692195
 30
0.0
 40
0.0900000000000002
  0
CIRCLE
  5
2E4
330
2
100
AcDbEntity
  8
GAIKEI
 62
     1
100
AcDbCircle
 10
-20.07924290355811
 20
10.77986104692195
 30
0.0
 40
0.0900000000000002
  0
CIRCLE
  5
2E5
330
2
100
AcDbEntity
  8
GAIKEI
 62
     1
100
AcDbCircle
 10
-20.5842429035581
 20
10.77986104692195
 30
0.0
 40
0.0900000000000002
  0
CIRCLE
  5
2E6
330
2
100
AcDbEntity
  8
GAIKEI
 62
     1
100
AcDbCircle
 10
-29.16924290355814
 20
10.77986104692195
 30
0.0
 40
0.0900000000000002
  0
CIRCLE
  5
2E7
330
2
100
AcDbEntity
  8
GAIKEI
 62
     1
100
AcDbCircle
 10
-28.66424290355815
 20
10.77986104692195
 30
0.0
 40
0.0900000000000002
  0
CIRCLE
  5
2E8
330
2
100
AcDbEntity
  8
GAIKEI
 62
     1
100
AcDbCircle
 10
-28.15924290355815
 20
10.77986104692195
 30
0.0
 40
0.0900000000000002
  0
CIRCLE
  5
2E9
330
2
100
AcDbEntity
  8
GAIKEI
 62
     1
100
AcDbCircle
 10
-27.65424290355816
 20
10.77986104692195
 30
0.0
 40
0.0900000000000002
  0
CIRCLE
  5
2EA
330
2
100
AcDbEntity
  8
GAIKEI
 62
     1
100
AcDbCircle
 10
-27.1492429035581
 20
10.77986104692195
 30
0.0
 40
0.0900000000000002
  0
CIRCLE
  5
2EB
330
2
100
AcDbEntity
  8
GAIKEI
 62
     1
100
AcDbCircle
 10
-26.64424290355811
 20
10.77986104692195
 30
0.0
 40
0.0900000000000002
  0
CIRCLE
  5
2EC
330
2
100
AcDbEntity
  8
GAIKEI
 62
     1
100
AcDbCircle
 10
-26.13924290355811
 20
10.77986104692195
 30
0.0
 40
0.0900000000000002
  0
CIRCLE
  5
2ED
330
2
100
AcDbEntity
  8
GAIKEI
 62
     1
100
AcDbCircle
 10
-25.63424290355812
 20
10.77986104692195
 30
0.0
 40
0.0900000000000002
  0
CIRCLE
  5
2EE
330
2
100
AcDbEntity
  8
GAIKEI
 62
     1
100
AcDbCircle
 10
-25.12924290355812
 20
10.77986104692195
 30
0.0
 40
0.0900000000000002
  0
CIRCLE
  5
2EF
330
2
100
AcDbEntity
  8
GAIKEI
 62
     1
100
AcDbCircle
 10
-24.62424290355813
 20
10.77986104692195
 30
0.0
 40
0.0900000000000002
  0
CIRCLE
  5
2F0
330
2
100
AcDbEntity
  8
GAIKEI
 62
     1
100
AcDbCircle
 10
-24.11924290355813
 20
10.77986104692195
 30
0.0
 40
0.0900000000000002
  0
CIRCLE
  5
2F1
330
2
100
AcDbEntity
  8
GAIKEI
 62
     1
100
AcDbCircle
 10
-23.61424290355814
 20
10.77986104692195
 30
0.0
 40
0.0900000000000002
  0
CIRCLE
  5
2F2
330
2
100
AcDbEntity
  8
GAIKEI
 62
     1
100
AcDbCircle
 10
-23.10924290355814
 20
10.77986104692195
 30
0.0
 40
0.0900000000000002
  0
CIRCLE
  5
2F3
330
2
100
AcDbEntity
  8
GAIKEI
 62
     1
100
AcDbCircle
 10
-22.60424290355814
 20
10.77986104692195
 30
0.0
 40
0.0900000000000002
  0
CIRCLE
  5
2F4
330
2
100
AcDbEntity
  8
GAIKEI
 62
     1
100
AcDbCircle
 10
-22.09924290355815
 20
10.77986104692195
 30
0.0
 40
0.0900000000000002
  0
CIRCLE
  5
2F5
330
2
100
AcDbEntity
  8
GAIKEI
 62
     1
100
AcDbCircle
 10
-21.59424290355815
 20
10.77986104692195
 30
0.0
 40
0.0900000000000002
  0
CIRCLE
  5
2F6
330
2
100
AcDbEntity
  8
GAIKEI
 62
     1
100
AcDbCircle
 10
-21.0892429035581
 20
10.77986104692195
 30
0.0
 40
0.0900000000000002
  0
CIRCLE
  5
2F7
330
2
100
AcDbEntity
  8
GAIKEI
 62
     1
100
AcDbCircle
 10
-29.67424290355814
 20
10.77986104692195
 30
0.0
 40
0.0900000000000002
  0
CIRCLE
  5
2F8
330
2
100
AcDbEntity
  8
GAIKEI
 62
     1
100
AcDbCircle
 10
-30.17924290355813
 20
10.77986104692195
 30
0.0
 40
0.0900000000000002
  0
CIRCLE
  5
2F9
330
2
100
AcDbEntity
  8
GAIKEI
 62
     1
100
AcDbCircle
 10
-30.68424290355813
 20
10.77986104692195
 30
0.0
 40
0.0900000000000002
  0
CIRCLE
  5
2FA
330
2
100
AcDbEntity
  8
GAIKEI
 62
     1
100
AcDbCircle
 10
-31.18924290355812
 20
10.77986104692195
 30
0.0
 40
0.0900000000000002
  0
CIRCLE
  5
2FB
330
2
100
AcDbEntity
  8
GAIKEI
 62
     1
100
AcDbCircle
 10
-31.69424290355812
 20
10.77986104692195
 30
0.0
 40
0.0900000000000002
  0
CIRCLE
  5
2FC
330
2
100
AcDbEntity
  8
GAIKEI
 62
     1
100
AcDbCircle
 10
-32.19924290355812
 20
10.77986104692195
 30
0.0
 40
0.0900000000000002
  0
CIRCLE
  5
2FD
330
2
100
AcDbEntity
  8
GAIKEI
 62
     1
100
AcDbCircle
 10
-32.70424290355811
 20
10.77986104692195
 30
0.0
 40
0.0900000000000002
  0
CIRCLE
  5
2FE
330
2
100
AcDbEntity
  8
GAIKEI
 62
     1
100
AcDbCircle
 10
-33.20924290355811
 20
10.77986104692195
 30
0.0
 40
0.0900000000000002
  0
CIRCLE
  5
2FF
330
2
100
AcDbEntity
  8
GAIKEI
 62
     1
100
AcDbCircle
 10
-33.7142429035581
 20
10.77986104692195
 30
0.0
 40
0.0900000000000002
  0
CIRCLE
  5
300
330
2
100
AcDbEntity
  8
GAIKEI
 62
     1
100
AcDbCircle
 10
-34.21924290355816
 20
10.77986104692195
 30
0.0
 40
0.0900000000000002
  0
CIRCLE
  5
301
330
2
100
AcDbEntity
  8
GAIKEI
 62
     1
100
AcDbCircle
 10
-34.72424290355815
 20
10.77986104692195
 30
0.0
 40
0.0900000000000002
  0
CIRCLE
  5
302
330
2
100
AcDbEntity
  8
GAIKEI
 62
     1
100
AcDbCircle
 10
-35.22924290355815
 20
10.77986104692195
 30
0.0
 40
0.0900000000000002
  0
CIRCLE
  5
303
330
2
100
AcDbEntity
  8
GAIKEI
 62
     1
100
AcDbCircle
 10
-35.73424290355814
 20
10.77986104692195
 30
0.0
 40
0.0900000000000002
  0
CIRCLE
  5
304
330
2
100
AcDbEntity
  8
GAIKEI
 62
     1
100
AcDbCircle
 10
-36.23924290355814
 20
10.77986104692195
 30
0.0
 40
0.0900000000000002
  0
CIRCLE
  5
305
330
2
100
AcDbEntity
  8
GAIKEI
 62
     1
100
AcDbCircle
 10
-36.74424290355813
 20
10.77986104692195
 30
0.0
 40
0.0900000000000002
  0
CIRCLE
  5
306
330
2
100
AcDbEntity
  8
GAIKEI
 62
     1
100
AcDbCircle
 10
-37.24924290355813
 20
10.77986104692195
 30
0.0
 40
0.0900000000000002
  0
CIRCLE
  5
307
330
2
100
AcDbEntity
  8
GAIKEI
 62
     1
100
AcDbCircle
 10
-37.75424290355812
 20
10.77986104692195
 30
0.0
 40
0.0900000000000002
  0
CIRCLE
  5
308
330
2
100
AcDbEntity
  8
GAIKEI
 62
     1
100
AcDbCircle
 10
-38.25924290355812
 20
10.77986104692195
 30
0.0
 40
0.0900000000000002
  0
CIRCLE
  5
309
330
2
100
AcDbEntity
  8
GAIKEI
 62
     1
100
AcDbCircle
 10
-38.76424290355812
 20
10.77986104692195
 30
0.0
 40
0.0900000000000002
  0
CIRCLE
  5
30A
330
2
100
AcDbEntity
  8
GAIKEI
 62
     1
100
AcDbCircle
 10
-39.26924290355811
 20
10.77986104692195
 30
0.0
 40
0.0900000000000002
  0
CIRCLE
  5
30B
330
2
100
AcDbEntity
  8
GAIKEI
 62
     1
100
AcDbCircle
 10
-39.77424290355816
 20
10.77986104692195
 30
0.0
 40
0.0900000000000002
  0
CIRCLE
  5
30C
330
2
100
AcDbEntity
  8
GAIKEI
 62
     1
100
AcDbCircle
 10
-40.27924290355815
 20
10.77986104692195
 30
0.0
 40
0.0900000000000002
  0
CIRCLE
  5
30D
330
2
100
AcDbEntity
  8
GAIKEI
 62
     1
100
AcDbCircle
 10
-40.27924290355815
 20
10.35986104692193
 30
0.0
 40
0.0900000000000002
  0
CIRCLE
  5
30E
330
2
100
AcDbEntity
  8
GAIKEI
 62
     1
100
AcDbCircle
 10
-39.77424290355816
 20
10.35986104692193
 30
0.0
 40
0.0900000000000002
  0
CIRCLE
  5
30F
330
2
100
AcDbEntity
  8
GAIKEI
 62
     1
100
AcDbCircle
 10
-39.26924290355811
 20
10.35986104692193
 30
0.0
 40
0.0900000000000002
  0
CIRCLE
  5
310
330
2
100
AcDbEntity
  8
GAIKEI
 62
     1
100
AcDbCircle
 10
-38.76424290355812
 20
10.35986104692193
 30
0.0
 40
0.0900000000000002
  0
CIRCLE
  5
311
330
2
100
AcDbEntity
  8
GAIKEI
 62
     1
100
AcDbCircle
 10
-38.25924290355812
 20
10.35986104692193
 30
0.0
 40
0.0900000000000002
  0
CIRCLE
  5
312
330
2
100
AcDbEntity
  8
GAIKEI
 62
     1
100
AcDbCircle
 10
-37.75424290355812
 20
10.35986104692193
 30
0.0
 40
0.0900000000000002
  0
CIRCLE
  5
313
330
2
100
AcDbEntity
  8
GAIKEI
 62
     1
100
AcDbCircle
 10
-37.24924290355813
 20
10.35986104692193
 30
0.0
 40
0.0900000000000002
  0
CIRCLE
  5
314
330
2
100
AcDbEntity
  8
GAIKEI
 62
     1
100
AcDbCircle
 10
-36.74424290355813
 20
10.35986104692193
 30
0.0
 40
0.0900000000000002
  0
CIRCLE
  5
315
330
2
100
AcDbEntity
  8
GAIKEI
 62
     1
100
AcDbCircle
 10
-36.23924290355814
 20
10.35986104692193
 30
0.0
 40
0.0900000000000002
  0
CIRCLE
  5
316
330
2
100
AcDbEntity
  8
GAIKEI
 62
     1
100
AcDbCircle
 10
-35.73424290355814
 20
10.35986104692193
 30
0.0
 40
0.0900000000000002
  0
CIRCLE
  5
317
330
2
100
AcDbEntity
  8
GAIKEI
 62
     1
100
AcDbCircle
 10
-35.22924290355815
 20
10.35986104692193
 30
0.0
 40
0.0900000000000002
  0
CIRCLE
  5
318
330
2
100
AcDbEntity
  8
GAIKEI
 62
     1
100
AcDbCircle
 10
-34.72424290355815
 20
10.35986104692193
 30
0.0
 40
0.0900000000000002
  0
CIRCLE
  5
319
330
2
100
AcDbEntity
  8
GAIKEI
 62
     1
100
AcDbCircle
 10
-34.21924290355816
 20
10.35986104692193
 30
0.0
 40
0.0900000000000002
  0
CIRCLE
  5
31A
330
2
100
AcDbEntity
  8
GAIKEI
 62
     1
100
AcDbCircle
 10
-33.7142429035581
 20
10.35986104692193
 30
0.0
 40
0.0900000000000002
  0
CIRCLE
  5
31B
330
2
100
AcDbEntity
  8
GAIKEI
 62
     1
100
AcDbCircle
 10
-33.20924290355811
 20
10.35986104692193
 30
0.0
 40
0.0900000000000002
  0
CIRCLE
  5
31C
330
2
100
AcDbEntity
  8
GAIKEI
 62
     1
100
AcDbCircle
 10
-32.70424290355811
 20
10.35986104692193
 30
0.0
 40
0.0900000000000002
  0
CIRCLE
  5
31D
330
2
100
AcDbEntity
  8
GAIKEI
 62
     1
100
AcDbCircle
 10
-32.19924290355812
 20
10.35986104692193
 30
0.0
 40
0.0900000000000002
  0
CIRCLE
  5
31E
330
2
100
AcDbEntity
  8
GAIKEI
 62
     1
100
AcDbCircle
 10
-31.69424290355812
 20
10.35986104692193
 30
0.0
 40
0.0900000000000002
  0
CIRCLE
  5
31F
330
2
100
AcDbEntity
  8
GAIKEI
 62
     1
100
AcDbCircle
 10
-31.18924290355812
 20
10.35986104692193
 30
0.0
 40
0.0900000000000002
  0
CIRCLE
  5
320
330
2
100
AcDbEntity
  8
GAIKEI
 62
     1
100
AcDbCircle
 10
-30.68424290355813
 20
10.35986104692193
 30
0.0
 40
0.0900000000000002
  0
CIRCLE
  5
321
330
2
100
AcDbEntity
  8
GAIKEI
 62
     1
100
AcDbCircle
 10
-30.17924290355813
 20
10.35986104692193
 30
0.0
 40
0.0900000000000002
  0
CIRCLE
  5
322
330
2
100
AcDbEntity
  8
GAIKEI
 62
     1
100
AcDbCircle
 10
-29.67424290355814
 20
10.35986104692193
 30
0.0
 40
0.0900000000000002
  0
CIRCLE
  5
323
330
2
100
AcDbEntity
  8
GAIKEI
 62
     1
100
AcDbCircle
 10
-21.0892429035581
 20
10.35986104692193
 30
0.0
 40
0.0900000000000002
  0
CIRCLE
  5
324
330
2
100
AcDbEntity
  8
GAIKEI
 62
     1
100
AcDbCircle
 10
-21.59424290355815
 20
10.35986104692193
 30
0.0
 40
0.0900000000000002
  0
CIRCLE
  5
325
330
2
100
AcDbEntity
  8
GAIKEI
 62
     1
100
AcDbCircle
 10
-22.09924290355815
 20
10.35986104692193
 30
0.0
 40
0.0900000000000002
  0
CIRCLE
  5
326
330
2
100
AcDbEntity
  8
GAIKEI
 62
     1
100
AcDbCircle
 10
-22.60424290355814
 20
10.35986104692193
 30
0.0
 40
0.0900000000000002
  0
CIRCLE
  5
327
330
2
100
AcDbEntity
  8
GAIKEI
 62
     1
100
AcDbCircle
 10
-23.10924290355814
 20
10.35986104692193
 30
0.0
 40
0.0900000000000002
  0
CIRCLE
  5
328
330
2
100
AcDbEntity
  8
GAIKEI
 62
     1
100
AcDbCircle
 10
-23.61424290355814
 20
10.35986104692193
 30
0.0
 40
0.0900000000000002
  0
CIRCLE
  5
329
330
2
100
AcDbEntity
  8
GAIKEI
 62
     1
100
AcDbCircle
 10
-24.11924290355813
 20
10.35986104692193
 30
0.0
 40
0.0900000000000002
  0
CIRCLE
  5
32A
330
2
100
AcDbEntity
  8
GAIKEI
 62
     1
100
AcDbCircle
 10
-24.62424290355813
 20
10.35986104692193
 30
0.0
 40
0.0900000000000002
  0
CIRCLE
  5
32B
330
2
100
AcDbEntity
  8
GAIKEI
 62
     1
100
AcDbCircle
 10
-25.12924290355812
 20
10.35986104692193
 30
0.0
 40
0.0900000000000002
  0
CIRCLE
  5
32C
330
2
100
AcDbEntity
  8
GAIKEI
 62
     1
100
AcDbCircle
 10
-25.63424290355812
 20
10.35986104692193
 30
0.0
 40
0.0900000000000002
  0
CIRCLE
  5
32D
330
2
100
AcDbEntity
  8
GAIKEI
 62
     1
100
AcDbCircle
 10
-26.13924290355811
 20
10.35986104692193
 30
0.0
 40
0.0900000000000002
  0
CIRCLE
  5
32E
330
2
100
AcDbEntity
  8
GAIKEI
 62
     1
100
AcDbCircle
 10
-26.64424290355811
 20
10.35986104692193
 30
0.0
 40
0.0900000000000002
  0
CIRCLE
  5
32F
330
2
100
AcDbEntity
  8
GAIKEI
 62
     1
100
AcDbCircle
 10
-27.1492429035581
 20
10.35986104692193
 30
0.0
 40
0.0900000000000002
  0
CIRCLE
  5
330
330
2
100
AcDbEntity
  8
GAIKEI
 62
     1
100
AcDbCircle
 10
-27.65424290355816
 20
10.35986104692193
 30
0.0
 40
0.0900000000000002
  0
CIRCLE
  5
331
330
2
100
AcDbEntity
  8
GAIKEI
 62
     1
100
AcDbCircle
 10
-28.15924290355815
 20
10.35986104692193
 30
0.0
 40
0.0900000000000002
  0
CIRCLE
  5
332
330
2
100
AcDbEntity
  8
GAIKEI
 62
     1
100
AcDbCircle
 10
-28.66424290355815
 20
10.35986104692193
 30
0.0
 40
0.0900000000000002
  0
CIRCLE
  5
333
330
2
100
AcDbEntity
  8
GAIKEI
 62
     1
100
AcDbCircle
 10
-29.16924290355814
 20
10.35986104692193
 30
0.0
 40
0.0900000000000002
  0
CIRCLE
  5
334
330
2
100
AcDbEntity
  8
GAIKEI
 62
     1
100
AcDbCircle
 10
-20.5842429035581
 20
10.35986104692193
 30
0.0
 40
0.0900000000000002
  0
CIRCLE
  5
335
330
2
100
AcDbEntity
  8
GAIKEI
 62
     1
100
AcDbCircle
 10
-20.07924290355811
 20
10.35986104692193
 30
0.0
 40
0.0900000000000002
  0
CIRCLE
  5
336
330
2
100
AcDbEntity
  8
GAIKEI
 62
     1
100
AcDbCircle
 10
-19.57424290355811
 20
10.35986104692193
 30
0.0
 40
0.0900000000000002
  0
CIRCLE
  5
337
330
2
100
AcDbEntity
  8
GAIKEI
 62
     1
100
AcDbCircle
 10
-19.06924290355812
 20
10.35986104692193
 30
0.0
 40
0.0900000000000002
  0
CIRCLE
  5
338
330
2
100
AcDbEntity
  8
GAIKEI
 62
     1
100
AcDbCircle
 10
-18.56424290355812
 20
10.35986104692193
 30
0.0
 40
0.0900000000000002
  0
CIRCLE
  5
339
330
2
100
AcDbEntity
  8
GAIKEI
 62
     1
100
AcDbCircle
 10
-18.05924290355813
 20
10.35986104692193
 30
0.0
 40
0.0900000000000002
  0
CIRCLE
  5
33A
330
2
100
AcDbEntity
  8
GAIKEI
 62
     1
100
AcDbCircle
 10
-17.55424290355813
 20
10.35986104692193
 30
0.0
 40
0.0900000000000002
  0
CIRCLE
  5
33B
330
2
100
AcDbEntity
  8
GAIKEI
 62
     1
100
AcDbCircle
 10
-17.04924290355814
 20
10.35986104692193
 30
0.0
 40
0.0900000000000002
  0
CIRCLE
  5
33C
330
2
100
AcDbEntity
  8
GAIKEI
 62
     1
100
AcDbCircle
 10
-16.54424290355814
 20
10.35986104692193
 30
0.0
 40
0.0900000000000002
  0
CIRCLE
  5
33D
330
2
100
AcDbEntity
  8
GAIKEI
 62
     1
100
AcDbCircle
 10
-12.50424290355812
 20
10.35986104692193
 30
0.0
 40
0.0900000000000002
  0
CIRCLE
  5
33E
330
2
100
AcDbEntity
  8
GAIKEI
 62
     1
100
AcDbCircle
 10
-13.00924290355812
 20
10.35986104692193
 30
0.0
 40
0.0900000000000002
  0
CIRCLE
  5
33F
330
2
100
AcDbEntity
  8
GAIKEI
 62
     1
100
AcDbCircle
 10
-13.51424290355811
 20
10.35986104692193
 30
0.0
 40
0.0900000000000002
  0
CIRCLE
  5
340
330
2
100
AcDbEntity
  8
GAIKEI
 62
     1
100
AcDbCircle
 10
-14.01924290355811
 20
10.35986104692193
 30
0.0
 40
0.0900000000000002
  0
CIRCLE
  5
341
330
2
100
AcDbEntity
  8
GAIKEI
 62
     1
100
AcDbCircle
 10
-14.5242429035581
 20
10.35986104692193
 30
0.0
 40
0.0900000000000002
  0
CIRCLE
  5
342
330
2
100
AcDbEntity
  8
GAIKEI
 62
     1
100
AcDbCircle
 10
-15.0292429035581
 20
10.35986104692193
 30
0.0
 40
0.0900000000000002
  0
CIRCLE
  5
343
330
2
100
AcDbEntity
  8
GAIKEI
 62
     1
100
AcDbCircle
 10
-15.53424290355809
 20
10.35986104692193
 30
0.0
 40
0.0900000000000002
  0
CIRCLE
  5
344
330
2
100
AcDbEntity
  8
GAIKEI
 62
     1
100
AcDbCircle
 10
-16.03924290355809
 20
10.35986104692193
 30
0.0
 40
0.0900000000000002
  0
CIRCLE
  5
345
330
2
100
AcDbEntity
  8
GAIKEI
 62
     1
100
AcDbCircle
 10
-11.99924290355812
 20
10.35986104692193
 30
0.0
 40
0.0900000000000002
  0
CIRCLE
  5
346
330
2
100
AcDbEntity
  8
GAIKEI
 62
     1
100
AcDbCircle
 10
-11.49424290355807
 20
10.35986104692193
 30
0.0
 40
0.0900000000000002
  0
CIRCLE
  5
347
330
2
100
AcDbEntity
  8
GAIKEI
 62
     1
100
AcDbCircle
 10
-11.49424290355807
 20
12.03986104692194
 30
0.0
 40
0.0900000000000002
  0
CIRCLE
  5
348
330
2
100
AcDbEntity
  8
GAIKEI
 62
     1
100
AcDbCircle
 10
-11.99924290355812
 20
12.03986104692194
 30
0.0
 40
0.0900000000000002
  0
CIRCLE
  5
349
330
2
100
AcDbEntity
  8
GAIKEI
 62
     1
100
AcDbCircle
 10
-16.03924290355809
 20
12.03986104692194
 30
0.0
 40
0.0900000000000002
  0
CIRCLE
  5
34A
330
2
100
AcDbEntity
  8
GAIKEI
 62
     1
100
AcDbCircle
 10
-15.53424290355809
 20
12.03986104692194
 30
0.0
 40
0.0900000000000002
  0
CIRCLE
  5
34B
330
2
100
AcDbEntity
  8
GAIKEI
 62
     1
100
AcDbCircle
 10
-15.0292429035581
 20
12.03986104692194
 30
0.0
 40
0.0900000000000002
  0
CIRCLE
  5
34C
330
2
100
AcDbEntity
  8
GAIKEI
 62
     1
100
AcDbCircle
 10
-14.5242429035581
 20
12.03986104692194
 30
0.0
 40
0.0900000000000002
  0
CIRCLE
  5
34D
330
2
100
AcDbEntity
  8
GAIKEI
 62
     1
100
AcDbCircle
 10
-14.01924290355811
 20
12.03986104692194
 30
0.0
 40
0.0900000000000002
  0
CIRCLE
  5
34E
330
2
100
AcDbEntity
  8
GAIKEI
 62
     1
100
AcDbCircle
 10
-13.51424290355811
 20
12.03986104692194
 30
0.0
 40
0.0900000000000002
  0
CIRCLE
  5
34F
330
2
100
AcDbEntity
  8
GAIKEI
 62
     1
100
AcDbCircle
 10
-13.00924290355812
 20
12.03986104692194
 30
0.0
 40
0.0900000000000002
  0
CIRCLE
  5
350
330
2
100
AcDbEntity
  8
GAIKEI
 62
     1
100
AcDbCircle
 10
-12.50424290355812
 20
12.03986104692194
 30
0.0
 40
0.0900000000000002
  0
CIRCLE
  5
351
330
2
100
AcDbEntity
  8
GAIKEI
 62
     1
100
AcDbCircle
 10
-16.54424290355814
 20
12.03986104692194
 30
0.0
 40
0.0900000000000002
  0
CIRCLE
  5
352
330
2
100
AcDbEntity
  8
GAIKEI
 62
     1
100
AcDbCircle
 10
-17.04924290355814
 20
12.03986104692194
 30
0.0
 40
0.0900000000000002
  0
CIRCLE
  5
353
330
2
100
AcDbEntity
  8
GAIKEI
 62
     1
100
AcDbCircle
 10
-17.55424290355813
 20
12.03986104692194
 30
0.0
 40
0.0900000000000002
  0
CIRCLE
  5
354
330
2
100
AcDbEntity
  8
GAIKEI
 62
     1
100
AcDbCircle
 10
-18.05924290355813
 20
12.03986104692194
 30
0.0
 40
0.0900000000000002
  0
CIRCLE
  5
355
330
2
100
AcDbEntity
  8
GAIKEI
 62
     1
100
AcDbCircle
 10
-18.56424290355812
 20
12.03986104692194
 30
0.0
 40
0.0900000000000002
  0
CIRCLE
  5
356
330
2
100
AcDbEntity
  8
GAIKEI
 62
     1
100
AcDbCircle
 10
-19.06924290355812
 20
12.03986104692194
 30
0.0
 40
0.0900000000000002
  0
CIRCLE
  5
357
330
2
100
AcDbEntity
  8
GAIKEI
 62
     1
100
AcDbCircle
 10
-19.57424290355811
 20
12.03986104692194
 30
0.0
 40
0.0900000000000002
  0
CIRCLE
  5
358
330
2
100
AcDbEntity
  8
GAIKEI
 62
     1
100
AcDbCircle
 10
-20.07924290355811
 20
12.03986104692194
 30
0.0
 40
0.0900000000000002
  0
CIRCLE
  5
359
330
2
100
AcDbEntity
  8
GAIKEI
 62
     1
100
AcDbCircle
 10
-20.5842429035581
 20
12.03986104692194
 30
0.0
 40
0.0900000000000002
  0
CIRCLE
  5
35A
330
2
100
AcDbEntity
  8
GAIKEI
 62
     1
100
AcDbCircle
 10
-29.16924290355814
 20
12.03986104692194
 30
0.0
 40
0.0900000000000002
  0
CIRCLE
  5
35B
330
2
100
AcDbEntity
  8
GAIKEI
 62
     1
100
AcDbCircle
 10
-28.66424290355815
 20
12.03986104692194
 30
0.0
 40
0.0900000000000002
  0
CIRCLE
  5
35C
330
2
100
AcDbEntity
  8
GAIKEI
 62
     1
100
AcDbCircle
 10
-28.15924290355815
 20
12.03986104692194
 30
0.0
 40
0.0900000000000002
  0
CIRCLE
  5
35D
330
2
100
AcDbEntity
  8
GAIKEI
 62
     1
100
AcDbCircle
 10
-27.65424290355816
 20
12.03986104692194
 30
0.0
 40
0.0900000000000002
  0
CIRCLE
  5
35E
330
2
100
AcDbEntity
  8
GAIKEI
 62
     1
100
AcDbCircle
 10
-27.1492429035581
 20
12.03986104692194
 30
0.0
 40
0.0900000000000002
  0
CIRCLE
  5
35F
330
2
100
AcDbEntity
  8
GAIKEI
 62
     1
100
AcDbCircle
 10
-26.64424290355811
 20
12.03986104692194
 30
0.0
 40
0.0900000000000002
  0
CIRCLE
  5
360
330
2
100
AcDbEntity
  8
GAIKEI
 62
     1
100
AcDbCircle
 10
-26.13924290355811
 20
12.03986104692194
 30
0.0
 40
0.0900000000000002
  0
CIRCLE
  5
361
330
2
100
AcDbEntity
  8
GAIKEI
 62
     1
100
AcDbCircle
 10
-25.63424290355812
 20
12.03986104692194
 30
0.0
 40
0.0900000000000002
  0
CIRCLE
  5
362
330
2
100
AcDbEntity
  8
GAIKEI
 62
     1
100
AcDbCircle
 10
-25.12924290355812
 20
12.03986104692194
 30
0.0
 40
0.0900000000000002
  0
CIRCLE
  5
363
330
2
100
AcDbEntity
  8
GAIKEI
 62
     1
100
AcDbCircle
 10
-24.62424290355813
 20
12.03986104692194
 30
0.0
 40
0.0900000000000002
  0
CIRCLE
  5
364
330
2
100
AcDbEntity
  8
GAIKEI
 62
     1
100
AcDbCircle
 10
-24.11924290355813
 20
12.03986104692194
 30
0.0
 40
0.0900000000000002
  0
CIRCLE
  5
365
330
2
100
AcDbEntity
  8
GAIKEI
 62
     1
100
AcDbCircle
 10
-23.61424290355814
 20
12.03986104692194
 30
0.0
 40
0.0900000000000002
  0
CIRCLE
  5
366
330
2
100
AcDbEntity
  8
GAIKEI
 62
     1
100
AcDbCircle
 10
-23.10924290355814
 20
12.03986104692194
 30
0.0
 40
0.0900000000000002
  0
CIRCLE
  5
367
330
2
100
AcDbEntity
  8
GAIKEI
 62
     1
100
AcDbCircle
 10
-22.60424290355814
 20
12.03986104692194
 30
0.0
 40
0.0900000000000002
  0
CIRCLE
  5
368
330
2
100
AcDbEntity
  8
GAIKEI
 62
     1
100
AcDbCircle
 10
-22.09924290355815
 20
12.03986104692194
 30
0.0
 40
0.0900000000000002
  0
CIRCLE
  5
369
330
2
100
AcDbEntity
  8
GAIKEI
 62
     1
100
AcDbCircle
 10
-21.59424290355815
 20
12.03986104692194
 30
0.0
 40
0.0900000000000002
  0
CIRCLE
  5
36A
330
2
100
AcDbEntity
  8
GAIKEI
 62
     1
100
AcDbCircle
 10
-21.0892429035581
 20
12.03986104692194
 30
0.0
 40
0.0900000000000002
  0
CIRCLE
  5
36B
330
2
100
AcDbEntity
  8
GAIKEI
 62
     1
100
AcDbCircle
 10
-29.67424290355814
 20
12.03986104692194
 30
0.0
 40
0.0900000000000002
  0
CIRCLE
  5
36C
330
2
100
AcDbEntity
  8
GAIKEI
 62
     1
100
AcDbCircle
 10
-30.17924290355813
 20
12.03986104692194
 30
0.0
 40
0.0900000000000002
  0
CIRCLE
  5
36D
330
2
100
AcDbEntity
  8
GAIKEI
 62
     1
100
AcDbCircle
 10
-30.68424290355813
 20
12.03986104692194
 30
0.0
 40
0.0900000000000002
  0
CIRCLE
  5
36E
330
2
100
AcDbEntity
  8
GAIKEI
 62
     1
100
AcDbCircle
 10
-31.18924290355812
 20
12.03986104692194
 30
0.0
 40
0.0900000000000002
  0
CIRCLE
  5
36F
330
2
100
AcDbEntity
  8
GAIKEI
 62
     1
100
AcDbCircle
 10
-31.69424290355812
 20
12.03986104692194
 30
0.0
 40
0.0900000000000002
  0
CIRCLE
  5
370
330
2
100
AcDbEntity
  8
GAIKEI
 62
     1
100
AcDbCircle
 10
-32.19924290355812
 20
12.03986104692194
 30
0.0
 40
0.0900000000000002
  0
CIRCLE
  5
371
330
2
100
AcDbEntity
  8
GAIKEI
 62
     1
100
AcDbCircle
 10
-32.70424290355811
 20
12.03986104692194
 30
0.0
 40
0.0900000000000002
  0
CIRCLE
  5
372
330
2
100
AcDbEntity
  8
GAIKEI
 62
     1
100
AcDbCircle
 10
-33.20924290355811
 20
12.03986104692194
 30
0.0
 40
0.0900000000000002
  0
CIRCLE
  5
373
330
2
100
AcDbEntity
  8
GAIKEI
 62
     1
100
AcDbCircle
 10
-33.7142429035581
 20
12.03986104692194
 30
0.0
 40
0.0900000000000002
  0
CIRCLE
  5
374
330
2
100
AcDbEntity
  8
GAIKEI
 62
     1
100
AcDbCircle
 10
-34.21924290355816
 20
12.03986104692194
 30
0.0
 40
0.0900000000000002
  0
CIRCLE
  5
375
330
2
100
AcDbEntity
  8
GAIKEI
 62
     1
100
AcDbCircle
 10
-34.72424290355815
 20
12.03986104692194
 30
0.0
 40
0.0900000000000002
  0
CIRCLE
  5
376
330
2
100
AcDbEntity
  8
GAIKEI
 62
     1
100
AcDbCircle
 10
-35.22924290355815
 20
12.03986104692194
 30
0.0
 40
0.0900000000000002
  0
CIRCLE
  5
377
330
2
100
AcDbEntity
  8
GAIKEI
 62
     1
100
AcDbCircle
 10
-35.73424290355814
 20
12.03986104692194
 30
0.0
 40
0.0900000000000002
  0
CIRCLE
  5
378
330
2
100
AcDbEntity
  8
GAIKEI
 62
     1
100
AcDbCircle
 10
-36.23924290355814
 20
12.03986104692194
 30
0.0
 40
0.0900000000000002
  0
CIRCLE
  5
379
330
2
100
AcDbEntity
  8
GAIKEI
 62
     1
100
AcDbCircle
 10
-36.74424290355813
 20
12.03986104692194
 30
0.0
 40
0.0900000000000002
  0
CIRCLE
  5
37A
330
2
100
AcDbEntity
  8
GAIKEI
 62
     1
100
AcDbCircle
 10
-37.24924290355813
 20
12.03986104692194
 30
0.0
 40
0.0900000000000002
  0
CIRCLE
  5
37B
330
2
100
AcDbEntity
  8
GAIKEI
 62
     1
100
AcDbCircle
 10
-37.75424290355812
 20
12.03986104692194
 30
0.0
 40
0.0900000000000002
  0
CIRCLE
  5
37C
330
2
100
AcDbEntity
  8
GAIKEI
 62
     1
100
AcDbCircle
 10
-38.25924290355812
 20
12.03986104692194
 30
0.0
 40
0.0900000000000002
  0
CIRCLE
  5
37D
330
2
100
AcDbEntity
  8
GAIKEI
 62
     1
100
AcDbCircle
 10
-38.76424290355812
 20
12.03986104692194
 30
0.0
 40
0.0900000000000002
  0
CIRCLE
  5
37E
330
2
100
AcDbEntity
  8
GAIKEI
 62
     1
100
AcDbCircle
 10
-39.26924290355811
 20
12.03986104692194
 30
0.0
 40
0.0900000000000002
  0
CIRCLE
  5
37F
330
2
100
AcDbEntity
  8
GAIKEI
 62
     1
100
AcDbCircle
 10
-39.77424290355816
 20
12.03986104692194
 30
0.0
 40
0.0900000000000002
  0
CIRCLE
  5
380
330
2
100
AcDbEntity
  8
GAIKEI
 62
     1
100
AcDbCircle
 10
-40.27924290355815
 20
12.03986104692194
 30
0.0
 40
0.0900000000000002
  0
CIRCLE
  5
381
330
2
100
AcDbEntity
  8
GAIKEI
 62
     1
100
AcDbCircle
 10
-40.27924290355815
 20
12.4598610469219
 30
0.0
 40
0.0900000000000002
  0
CIRCLE
  5
382
330
2
100
AcDbEntity
  8
GAIKEI
 62
     1
100
AcDbCircle
 10
-39.77424290355816
 20
12.4598610469219
 30
0.0
 40
0.0900000000000002
  0
CIRCLE
  5
383
330
2
100
AcDbEntity
  8
GAIKEI
 62
     1
100
AcDbCircle
 10
-39.26924290355811
 20
12.4598610469219
 30
0.0
 40
0.0900000000000002
  0
CIRCLE
  5
384
330
2
100
AcDbEntity
  8
GAIKEI
 62
     1
100
AcDbCircle
 10
-38.76424290355812
 20
12.4598610469219
 30
0.0
 40
0.0900000000000002
  0
CIRCLE
  5
385
330
2
100
AcDbEntity
  8
GAIKEI
 62
     1
100
AcDbCircle
 10
-38.25924290355812
 20
12.4598610469219
 30
0.0
 40
0.0900000000000002
  0
CIRCLE
  5
386
330
2
100
AcDbEntity
  8
GAIKEI
 62
     1
100
AcDbCircle
 10
-37.75424290355812
 20
12.4598610469219
 30
0.0
 40
0.0900000000000002
  0
CIRCLE
  5
387
330
2
100
AcDbEntity
  8
GAIKEI
 62
     1
100
AcDbCircle
 10
-37.24924290355813
 20
12.4598610469219
 30
0.0
 40
0.0900000000000002
  0
CIRCLE
  5
388
330
2
100
AcDbEntity
  8
GAIKEI
 62
     1
100
AcDbCircle
 10
-36.74424290355813
 20
12.4598610469219
 30
0.0
 40
0.0900000000000002
  0
CIRCLE
  5
389
330
2
100
AcDbEntity
  8
GAIKEI
 62
     1
100
AcDbCircle
 10
-36.23924290355814
 20
12.4598610469219
 30
0.0
 40
0.0900000000000002
  0
CIRCLE
  5
38A
330
2
100
AcDbEntity
  8
GAIKEI
 62
     1
100
AcDbCircle
 10
-35.73424290355814
 20
12.4598610469219
 30
0.0
 40
0.0900000000000002
  0
CIRCLE
  5
38B
330
2
100
AcDbEntity
  8
GAIKEI
 62
     1
100
AcDbCircle
 10
-35.22924290355815
 20
12.4598610469219
 30
0.0
 40
0.0900000000000002
  0
CIRCLE
  5
38C
330
2
100
AcDbEntity
  8
GAIKEI
 62
     1
100
AcDbCircle
 10
-34.72424290355815
 20
12.4598610469219
 30
0.0
 40
0.0900000000000002
  0
CIRCLE
  5
38D
330
2
100
AcDbEntity
  8
GAIKEI
 62
     1
100
AcDbCircle
 10
-34.21924290355816
 20
12.4598610469219
 30
0.0
 40
0.0900000000000002
  0
CIRCLE
  5
38E
330
2
100
AcDbEntity
  8
GAIKEI
 62
     1
100
AcDbCircle
 10
-33.7142429035581
 20
12.4598610469219
 30
0.0
 40
0.0900000000000002
  0
CIRCLE
  5
38F
330
2
100
AcDbEntity
  8
GAIKEI
 62
     1
100
AcDbCircle
 10
-33.20924290355811
 20
12.4598610469219
 30
0.0
 40
0.0900000000000002
  0
CIRCLE
  5
390
330
2
100
AcDbEntity
  8
GAIKEI
 62
     1
100
AcDbCircle
 10
-32.70424290355811
 20
12.4598610469219
 30
0.0
 40
0.0900000000000002
  0
CIRCLE
  5
391
330
2
100
AcDbEntity
  8
GAIKEI
 62
     1
100
AcDbCircle
 10
-32.19924290355812
 20
12.4598610469219
 30
0.0
 40
0.0900000000000002
  0
CIRCLE
  5
392
330
2
100
AcDbEntity
  8
GAIKEI
 62
     1
100
AcDbCircle
 10
-31.69424290355812
 20
12.4598610469219
 30
0.0
 40
0.0900000000000002
  0
CIRCLE
  5
393
330
2
100
AcDbEntity
  8
GAIKEI
 62
     1
100
AcDbCircle
 10
-31.18924290355812
 20
12.4598610469219
 30
0.0
 40
0.0900000000000002
  0
CIRCLE
  5
394
330
2
100
AcDbEntity
  8
GAIKEI
 62
     1
100
AcDbCircle
 10
-30.68424290355813
 20
12.4598610469219
 30
0.0
 40
0.0900000000000002
  0
CIRCLE
  5
395
330
2
100
AcDbEntity
  8
GAIKEI
 62
     1
100
AcDbCircle
 10
-30.17924290355813
 20
12.4598610469219
 30
0.0
 40
0.0900000000000002
  0
CIRCLE
  5
396
330
2
100
AcDbEntity
  8
GAIKEI
 62
     1
100
AcDbCircle
 10
-29.67424290355814
 20
12.4598610469219
 30
0.0
 40
0.0900000000000002
  0
CIRCLE
  5
397
330
2
100
AcDbEntity
  8
GAIKEI
 62
     1
100
AcDbCircle
 10
-21.0892429035581
 20
12.4598610469219
 30
0.0
 40
0.0900000000000002
  0
CIRCLE
  5
398
330
2
100
AcDbEntity
  8
GAIKEI
 62
     1
100
AcDbCircle
 10
-21.59424290355815
 20
12.4598610469219
 30
0.0
 40
0.0900000000000002
  0
CIRCLE
  5
399
330
2
100
AcDbEntity
  8
GAIKEI
 62
     1
100
AcDbCircle
 10
-22.09924290355815
 20
12.4598610469219
 30
0.0
 40
0.0900000000000002
  0
CIRCLE
  5
39A
330
2
100
AcDbEntity
  8
GAIKEI
 62
     1
100
AcDbCircle
 10
-22.60424290355814
 20
12.4598610469219
 30
0.0
 40
0.0900000000000002
  0
CIRCLE
  5
39B
330
2
100
AcDbEntity
  8
GAIKEI
 62
     1
100
AcDbCircle
 10
-23.10924290355814
 20
12.4598610469219
 30
0.0
 40
0.0900000000000002
  0
CIRCLE
  5
39C
330
2
100
AcDbEntity
  8
GAIKEI
 62
     1
100
AcDbCircle
 10
-23.61424290355814
 20
12.4598610469219
 30
0.0
 40
0.0900000000000002
  0
CIRCLE
  5
39D
330
2
100
AcDbEntity
  8
GAIKEI
 62
     1
100
AcDbCircle
 10
-24.11924290355813
 20
12.4598610469219
 30
0.0
 40
0.0900000000000002
  0
CIRCLE
  5
39E
330
2
100
AcDbEntity
  8
GAIKEI
 62
     1
100
AcDbCircle
 10
-24.62424290355813
 20
12.4598610469219
 30
0.0
 40
0.0900000000000002
  0
CIRCLE
  5
39F
330
2
100
AcDbEntity
  8
GAIKEI
 62
     1
100
AcDbCircle
 10
-25.12924290355812
 20
12.4598610469219
 30
0.0
 40
0.0900000000000002
  0
CIRCLE
  5
3A0
330
2
100
AcDbEntity
  8
GAIKEI
 62
     1
100
AcDbCircle
 10
-25.63424290355812
 20
12.4598610469219
 30
0.0
 40
0.0900000000000002
  0
CIRCLE
  5
3A1
330
2
100
AcDbEntity
  8
GAIKEI
 62
     1
100
AcDbCircle
 10
-26.13924290355811
 20
12.4598610469219
 30
0.0
 40
0.0900000000000002
  0
CIRCLE
  5
3A2
330
2
100
AcDbEntity
  8
GAIKEI
 62
     1
100
AcDbCircle
 10
-26.64424290355811
 20
12.4598610469219
 30
0.0
 40
0.0900000000000002
  0
CIRCLE
  5
3A3
330
2
100
AcDbEntity
  8
GAIKEI
 62
     1
100
AcDbCircle
 10
-27.1492429035581
 20
12.4598610469219
 30
0.0
 40
0.0900000000000002
  0
CIRCLE
  5
3A4
330
2
100
AcDbEntity
  8
GAIKEI
 62
     1
100
AcDbCircle
 10
-27.65424290355816
 20
12.4598610469219
 30
0.0
 40
0.0900000000000002
  0
CIRCLE
  5
3A5
330
2
100
AcDbEntity
  8
GAIKEI
 62
     1
100
AcDbCircle
 10
-28.15924290355815
 20
12.4598610469219
 30
0.0
 40
0.0900000000000002
  0
CIRCLE
  5
3A6
330
2
100
AcDbEntity
  8
GAIKEI
 62
     1
100
AcDbCircle
 10
-28.66424290355815
 20
12.4598610469219
 30
0.0
 40
0.0900000000000002
  0
CIRCLE
  5
3A7
330
2
100
AcDbEntity
  8
GAIKEI
 62
     1
100
AcDbCircle
 10
-29.16924290355814
 20
12.4598610469219
 30
0.0
 40
0.0900000000000002
  0
CIRCLE
  5
3A8
330
2
100
AcDbEntity
  8
GAIKEI
 62
     1
100
AcDbCircle
 10
-20.5842429035581
 20
12.4598610469219
 30
0.0
 40
0.0900000000000002
  0
CIRCLE
  5
3A9
330
2
100
AcDbEntity
  8
GAIKEI
 62
     1
100
AcDbCircle
 10
-20.07924290355811
 20
12.4598610469219
 30
0.0
 40
0.0900000000000002
  0
CIRCLE
  5
3AA
330
2
100
AcDbEntity
  8
GAIKEI
 62
     1
100
AcDbCircle
 10
-19.57424290355811
 20
12.4598610469219
 30
0.0
 40
0.0900000000000002
  0
CIRCLE
  5
3AB
330
2
100
AcDbEntity
  8
GAIKEI
 62
     1
100
AcDbCircle
 10
-19.06924290355812
 20
12.4598610469219
 30
0.0
 40
0.0900000000000002
  0
CIRCLE
  5
3AC
330
2
100
AcDbEntity
  8
GAIKEI
 62
     1
100
AcDbCircle
 10
-18.56424290355812
 20
12.4598610469219
 30
0.0
 40
0.0900000000000002
  0
CIRCLE
  5
3AD
330
2
100
AcDbEntity
  8
GAIKEI
 62
     1
100
AcDbCircle
 10
-18.05924290355813
 20
12.4598610469219
 30
0.0
 40
0.0900000000000002
  0
CIRCLE
  5
3AE
330
2
100
AcDbEntity
  8
GAIKEI
 62
     1
100
AcDbCircle
 10
-17.55424290355813
 20
12.4598610469219
 30
0.0
 40
0.0900000000000002
  0
CIRCLE
  5
3AF
330
2
100
AcDbEntity
  8
GAIKEI
 62
     1
100
AcDbCircle
 10
-17.04924290355814
 20
12.4598610469219
 30
0.0
 40
0.0900000000000002
  0
CIRCLE
  5
3B0
330
2
100
AcDbEntity
  8
GAIKEI
 62
     1
100
AcDbCircle
 10
-16.54424290355814
 20
12.4598610469219
 30
0.0
 40
0.0900000000000002
  0
CIRCLE
  5
3B1
330
2
100
AcDbEntity
  8
GAIKEI
 62
     1
100
AcDbCircle
 10
-12.50424290355812
 20
12.4598610469219
 30
0.0
 40
0.0900000000000002
  0
CIRCLE
  5
3B2
330
2
100
AcDbEntity
  8
GAIKEI
 62
     1
100
AcDbCircle
 10
-13.00924290355812
 20
12.4598610469219
 30
0.0
 40
0.0900000000000002
  0
CIRCLE
  5
3B3
330
2
100
AcDbEntity
  8
GAIKEI
 62
     1
100
AcDbCircle
 10
-13.51424290355811
 20
12.4598610469219
 30
0.0
 40
0.0900000000000002
  0
CIRCLE
  5
3B4
330
2
100
AcDbEntity
  8
GAIKEI
 62
     1
100
AcDbCircle
 10
-14.01924290355811
 20
12.4598610469219
 30
0.0
 40
0.0900000000000002
  0
CIRCLE
  5
3B5
330
2
100
AcDbEntity
  8
GAIKEI
 62
     1
100
AcDbCircle
 10
-14.5242429035581
 20
12.4598610469219
 30
0.0
 40
0.0900000000000002
  0
CIRCLE
  5
3B6
330
2
100
AcDbEntity
  8
GAIKEI
 62
     1
100
AcDbCircle
 10
-15.0292429035581
 20
12.4598610469219
 30
0.0
 40
0.0900000000000002
  0
CIRCLE
  5
3B7
330
2
100
AcDbEntity
  8
GAIKEI
 62
     1
100
AcDbCircle
 10
-15.53424290355809
 20
12.4598610469219
 30
0.0
 40
0.0900000000000002
  0
CIRCLE
  5
3B8
330
2
100
AcDbEntity
  8
GAIKEI
 62
     1
100
AcDbCircle
 10
-16.03924290355809
 20
12.4598610469219
 30
0.0
 40
0.0900000000000002
  0
CIRCLE
  5
3B9
330
2
100
AcDbEntity
  8
GAIKEI
 62
     1
100
AcDbCircle
 10
-11.99924290355812
 20
12.4598610469219
 30
0.0
 40
0.0900000000000002
  0
CIRCLE
  5
3BA
330
2
100
AcDbEntity
  8
GAIKEI
 62
     1
100
AcDbCircle
 10
-11.49424290355807
 20
12.4598610469219
 30
0.0
 40
0.0900000000000002
  0
CIRCLE
  5
3BB
330
2
100
AcDbEntity
  8
GAIKEI
 62
     1
100
AcDbCircle
 10
-11.49424290355807
 20
11.61986104692198
 30
0.0
 40
0.0900000000000002
  0
CIRCLE
  5
3BC
330
2
100
AcDbEntity
  8
GAIKEI
 62
     1
100
AcDbCircle
 10
-11.99924290355812
 20
11.61986104692198
 30
0.0
 40
0.0900000000000002
  0
CIRCLE
  5
3BD
330
2
100
AcDbEntity
  8
GAIKEI
 62
     1
100
AcDbCircle
 10
-16.03924290355809
 20
11.61986104692198
 30
0.0
 40
0.0900000000000002
  0
CIRCLE
  5
3BE
330
2
100
AcDbEntity
  8
GAIKEI
 62
     1
100
AcDbCircle
 10
-15.53424290355809
 20
11.61986104692198
 30
0.0
 40
0.0900000000000002
  0
CIRCLE
  5
3BF
330
2
100
AcDbEntity
  8
GAIKEI
 62
     1
100
AcDbCircle
 10
-15.0292429035581
 20
11.61986104692198
 30
0.0
 40
0.0900000000000002
  0
CIRCLE
  5
3C0
330
2
100
AcDbEntity
  8
GAIKEI
 62
     1
100
AcDbCircle
 10
-14.5242429035581
 20
11.61986104692198
 30
0.0
 40
0.0900000000000002
  0
CIRCLE
  5
3C1
330
2
100
AcDbEntity
  8
GAIKEI
 62
     1
100
AcDbCircle
 10
-14.01924290355811
 20
11.61986104692198
 30
0.0
 40
0.0900000000000002
  0
CIRCLE
  5
3C2
330
2
100
AcDbEntity
  8
GAIKEI
 62
     1
100
AcDbCircle
 10
-13.51424290355811
 20
11.61986104692198
 30
0.0
 40
0.0900000000000002
  0
CIRCLE
  5
3C3
330
2
100
AcDbEntity
  8
GAIKEI
 62
     1
100
AcDbCircle
 10
-13.00924290355812
 20
11.61986104692198
 30
0.0
 40
0.0900000000000002
  0
CIRCLE
  5
3C4
330
2
100
AcDbEntity
  8
GAIKEI
 62
     1
100
AcDbCircle
 10
-12.50424290355812
 20
11.61986104692198
 30
0.0
 40
0.0900000000000002
  0
CIRCLE
  5
3C5
330
2
100
AcDbEntity
  8
GAIKEI
 62
     1
100
AcDbCircle
 10
-16.54424290355814
 20
11.61986104692198
 30
0.0
 40
0.0900000000000002
  0
CIRCLE
  5
3C6
330
2
100
AcDbEntity
  8
GAIKEI
 62
     1
100
AcDbCircle
 10
-17.04924290355814
 20
11.61986104692198
 30
0.0
 40
0.0900000000000002
  0
CIRCLE
  5
3C7
330
2
100
AcDbEntity
  8
GAIKEI
 62
     1
100
AcDbCircle
 10
-17.55424290355813
 20
11.61986104692198
 30
0.0
 40
0.0900000000000002
  0
CIRCLE
  5
3C8
330
2
100
AcDbEntity
  8
GAIKEI
 62
     1
100
AcDbCircle
 10
-18.05924290355813
 20
11.61986104692198
 30
0.0
 40
0.0900000000000002
  0
CIRCLE
  5
3C9
330
2
100
AcDbEntity
  8
GAIKEI
 62
     1
100
AcDbCircle
 10
-18.56424290355812
 20
11.61986104692198
 30
0.0
 40
0.0900000000000002
  0
CIRCLE
  5
3CA
330
2
100
AcDbEntity
  8
GAIKEI
 62
     1
100
AcDbCircle
 10
-19.06924290355812
 20
11.61986104692198
 30
0.0
 40
0.0900000000000002
  0
CIRCLE
  5
3CB
330
2
100
AcDbEntity
  8
GAIKEI
 62
     1
100
AcDbCircle
 10
-19.57424290355811
 20
11.61986104692198
 30
0.0
 40
0.0900000000000002
  0
CIRCLE
  5
3CC
330
2
100
AcDbEntity
  8
GAIKEI
 62
     1
100
AcDbCircle
 10
-20.07924290355811
 20
11.61986104692198
 30
0.0
 40
0.0900000000000002
  0
CIRCLE
  5
3CD
330
2
100
AcDbEntity
  8
GAIKEI
 62
     1
100
AcDbCircle
 10
-20.5842429035581
 20
11.61986104692198
 30
0.0
 40
0.0900000000000002
  0
CIRCLE
  5
3CE
330
2
100
AcDbEntity
  8
GAIKEI
 62
     1
100
AcDbCircle
 10
-29.16924290355814
 20
11.61986104692198
 30
0.0
 40
0.0900000000000002
  0
CIRCLE
  5
3CF
330
2
100
AcDbEntity
  8
GAIKEI
 62
     1
100
AcDbCircle
 10
-28.66424290355815
 20
11.61986104692198
 30
0.0
 40
0.0900000000000002
  0
CIRCLE
  5
3D0
330
2
100
AcDbEntity
  8
GAIKEI
 62
     1
100
AcDbCircle
 10
-28.15924290355815
 20
11.61986104692198
 30
0.0
 40
0.0900000000000002
  0
CIRCLE
  5
3D1
330
2
100
AcDbEntity
  8
GAIKEI
 62
     1
100
AcDbCircle
 10
-27.65424290355816
 20
11.61986104692198
 30
0.0
 40
0.0900000000000002
  0
CIRCLE
  5
3D2
330
2
100
AcDbEntity
  8
GAIKEI
 62
     1
100
AcDbCircle
 10
-27.1492429035581
 20
11.61986104692198
 30
0.0
 40
0.0900000000000002
  0
CIRCLE
  5
3D3
330
2
100
AcDbEntity
  8
GAIKEI
 62
     1
100
AcDbCircle
 10
-26.64424290355811
 20
11.61986104692198
 30
0.0
 40
0.0900000000000002
  0
CIRCLE
  5
3D4
330
2
100
AcDbEntity
  8
GAIKEI
 62
     1
100
AcDbCircle
 10
-26.13924290355811
 20
11.61986104692198
 30
0.0
 40
0.0900000000000002
  0
CIRCLE
  5
3D5
330
2
100
AcDbEntity
  8
GAIKEI
 62
     1
100
AcDbCircle
 10
-25.63424290355812
 20
11.61986104692198
 30
0.0
 40
0.0900000000000002
  0
CIRCLE
  5
3D6
330
2
100
AcDbEntity
  8
GAIKEI
 62
     1
100
AcDbCircle
 10
-25.12924290355812
 20
11.61986104692198
 30
0.0
 40
0.0900000000000002
  0
CIRCLE
  5
3D7
330
2
100
AcDbEntity
  8
GAIKEI
 62
     1
100
AcDbCircle
 10
-24.62424290355813
 20
11.61986104692198
 30
0.0
 40
0.0900000000000002
  0
CIRCLE
  5
3D8
330
2
100
AcDbEntity
  8
GAIKEI
 62
     1
100
AcDbCircle
 10
-24.11924290355813
 20
11.61986104692198
 30
0.0
 40
0.0900000000000002
  0
CIRCLE
  5
3D9
330
2
100
AcDbEntity
  8
GAIKEI
 62
     1
100
AcDbCircle
 10
-23.61424290355814
 20
11.61986104692198
 30
0.0
 40
0.0900000000000002
  0
CIRCLE
  5
3DA
330
2
100
AcDbEntity
  8
GAIKEI
 62
     1
100
AcDbCircle
 10
-23.10924290355814
 20
11.61986104692198
 30
0.0
 40
0.0900000000000002
  0
CIRCLE
  5
3DB
330
2
100
AcDbEntity
  8
GAIKEI
 62
     1
100
AcDbCircle
 10
-22.60424290355814
 20
11.61986104692198
 30
0.0
 40
0.0900000000000002
  0
CIRCLE
  5
3DC
330
2
100
AcDbEntity
  8
GAIKEI
 62
     1
100
AcDbCircle
 10
-22.09924290355815
 20
11.61986104692198
 30
0.0
 40
0.0900000000000002
  0
CIRCLE
  5
3DD
330
2
100
AcDbEntity
  8
GAIKEI
 62
     1
100
AcDbCircle
 10
-21.59424290355815
 20
11.61986104692198
 30
0.0
 40
0.0900000000000002
  0
CIRCLE
  5
3DE
330
2
100
AcDbEntity
  8
GAIKEI
 62
     1
100
AcDbCircle
 10
-21.0892429035581
 20
11.61986104692198
 30
0.0
 40
0.0900000000000002
  0
CIRCLE
  5
3DF
330
2
100
AcDbEntity
  8
GAIKEI
 62
     1
100
AcDbCircle
 10
-29.67424290355814
 20
11.61986104692198
 30
0.0
 40
0.0900000000000002
  0
CIRCLE
  5
3E0
330
2
100
AcDbEntity
  8
GAIKEI
 62
     1
100
AcDbCircle
 10
-30.17924290355813
 20
11.61986104692198
 30
0.0
 40
0.0900000000000002
  0
CIRCLE
  5
3E1
330
2
100
AcDbEntity
  8
GAIKEI
 62
     1
100
AcDbCircle
 10
-30.68424290355813
 20
11.61986104692198
 30
0.0
 40
0.0900000000000002
  0
CIRCLE
  5
3E2
330
2
100
AcDbEntity
  8
GAIKEI
 62
     1
100
AcDbCircle
 10
-31.18924290355812
 20
11.61986104692198
 30
0.0
 40
0.0900000000000002
  0
CIRCLE
  5
3E3
330
2
100
AcDbEntity
  8
GAIKEI
 62
     1
100
AcDbCircle
 10
-31.69424290355812
 20
11.61986104692198
 30
0.0
 40
0.0900000000000002
  0
CIRCLE
  5
3E4
330
2
100
AcDbEntity
  8
GAIKEI
 62
     1
100
AcDbCircle
 10
-32.19924290355812
 20
11.61986104692198
 30
0.0
 40
0.0900000000000002
  0
CIRCLE
  5
3E5
330
2
100
AcDbEntity
  8
GAIKEI
 62
     1
100
AcDbCircle
 10
-32.70424290355811
 20
11.61986104692198
 30
0.0
 40
0.0900000000000002
  0
CIRCLE
  5
3E6
330
2
100
AcDbEntity
  8
GAIKEI
 62
     1
100
AcDbCircle
 10
-33.20924290355811
 20
11.61986104692198
 30
0.0
 40
0.0900000000000002
  0
CIRCLE
  5
3E7
330
2
100
AcDbEntity
  8
GAIKEI
 62
     1
100
AcDbCircle
 10
-33.7142429035581
 20
11.61986104692198
 30
0.0
 40
0.0900000000000002
  0
CIRCLE
  5
3E8
330
2
100
AcDbEntity
  8
GAIKEI
 62
     1
100
AcDbCircle
 10
-34.21924290355816
 20
11.61986104692198
 30
0.0
 40
0.0900000000000002
  0
CIRCLE
  5
3E9
330
2
100
AcDbEntity
  8
GAIKEI
 62
     1
100
AcDbCircle
 10
-34.72424290355815
 20
11.61986104692198
 30
0.0
 40
0.0900000000000002
  0
CIRCLE
  5
3EA
330
2
100
AcDbEntity
  8
GAIKEI
 62
     1
100
AcDbCircle
 10
-35.22924290355815
 20
11.61986104692198
 30
0.0
 40
0.0900000000000002
  0
CIRCLE
  5
3EB
330
2
100
AcDbEntity
  8
GAIKEI
 62
     1
100
AcDbCircle
 10
-35.73424290355814
 20
11.61986104692198
 30
0.0
 40
0.0900000000000002
  0
CIRCLE
  5
3EC
330
2
100
AcDbEntity
  8
GAIKEI
 62
     1
100
AcDbCircle
 10
-36.23924290355814
 20
11.61986104692198
 30
0.0
 40
0.0900000000000002
  0
CIRCLE
  5
3ED
330
2
100
AcDbEntity
  8
GAIKEI
 62
     1
100
AcDbCircle
 10
-36.74424290355813
 20
11.61986104692198
 30
0.0
 40
0.0900000000000002
  0
CIRCLE
  5
3EE
330
2
100
AcDbEntity
  8
GAIKEI
 62
     1
100
AcDbCircle
 10
-37.24924290355813
 20
11.61986104692198
 30
0.0
 40
0.0900000000000002
  0
CIRCLE
  5
3EF
330
2
100
AcDbEntity
  8
GAIKEI
 62
     1
100
AcDbCircle
 10
-37.75424290355812
 20
11.61986104692198
 30
0.0
 40
0.0900000000000002
  0
CIRCLE
  5
3F0
330
2
100
AcDbEntity
  8
GAIKEI
 62
     1
100
AcDbCircle
 10
-38.25924290355812
 20
11.61986104692198
 30
0.0
 40
0.0900000000000002
  0
CIRCLE
  5
3F1
330
2
100
AcDbEntity
  8
GAIKEI
 62
     1
100
AcDbCircle
 10
-38.76424290355812
 20
11.61986104692198
 30
0.0
 40
0.0900000000000002
  0
CIRCLE
  5
3F2
330
2
100
AcDbEntity
  8
GAIKEI
 62
     1
100
AcDbCircle
 10
-39.26924290355811
 20
11.61986104692198
 30
0.0
 40
0.0900000000000002
  0
CIRCLE
  5
3F3
330
2
100
AcDbEntity
  8
GAIKEI
 62
     1
100
AcDbCircle
 10
-39.77424290355816
 20
11.61986104692198
 30
0.0
 40
0.0900000000000002
  0
CIRCLE
  5
3F4
330
2
100
AcDbEntity
  8
GAIKEI
 62
     1
100
AcDbCircle
 10
-40.27924290355815
 20
11.61986104692198
 30
0.0
 40
0.0900000000000002
  0
CIRCLE
  5
3F5
330
2
100
AcDbEntity
  8
GAIKEI
 62
     1
100
AcDbCircle
 10
-40.27924290355815
 20
11.19986104692191
 30
0.0
 40
0.0900000000000002
  0
CIRCLE
  5
3F6
330
2
100
AcDbEntity
  8
GAIKEI
 62
     1
100
AcDbCircle
 10
-39.77424290355816
 20
11.19986104692191
 30
0.0
 40
0.0900000000000002
  0
CIRCLE
  5
3F7
330
2
100
AcDbEntity
  8
GAIKEI
 62
     1
100
AcDbCircle
 10
-39.26924290355811
 20
11.19986104692191
 30
0.0
 40
0.0900000000000002
  0
CIRCLE
  5
3F8
330
2
100
AcDbEntity
  8
GAIKEI
 62
     1
100
AcDbCircle
 10
-38.76424290355812
 20
11.19986104692191
 30
0.0
 40
0.0900000000000002
  0
CIRCLE
  5
3F9
330
2
100
AcDbEntity
  8
GAIKEI
 62
     1
100
AcDbCircle
 10
-38.25924290355812
 20
11.19986104692191
 30
0.0
 40
0.0900000000000002
  0
CIRCLE
  5
3FA
330
2
100
AcDbEntity
  8
GAIKEI
 62
     1
100
AcDbCircle
 10
-37.75424290355812
 20
11.19986104692191
 30
0.0
 40
0.0900000000000002
  0
CIRCLE
  5
3FB
330
2
100
AcDbEntity
  8
GAIKEI
 62
     1
100
AcDbCircle
 10
-37.24924290355813
 20
11.19986104692191
 30
0.0
 40
0.0900000000000002
  0
CIRCLE
  5
3FC
330
2
100
AcDbEntity
  8
GAIKEI
 62
     1
100
AcDbCircle
 10
-36.74424290355813
 20
11.19986104692191
 30
0.0
 40
0.0900000000000002
  0
CIRCLE
  5
3FD
330
2
100
AcDbEntity
  8
GAIKEI
 62
     1
100
AcDbCircle
 10
-36.23924290355814
 20
11.19986104692191
 30
0.0
 40
0.0900000000000002
  0
CIRCLE
  5
3FE
330
2
100
AcDbEntity
  8
GAIKEI
 62
     1
100
AcDbCircle
 10
-35.73424290355814
 20
11.19986104692191
 30
0.0
 40
0.0900000000000002
  0
CIRCLE
  5
3FF
330
2
100
AcDbEntity
  8
GAIKEI
 62
     1
100
AcDbCircle
 10
-35.22924290355815
 20
11.19986104692191
 30
0.0
 40
0.0900000000000002
  0
CIRCLE
  5
400
330
2
100
AcDbEntity
  8
GAIKEI
 62
     1
100
AcDbCircle
 10
-34.72424290355815
 20
11.19986104692191
 30
0.0
 40
0.0900000000000002
  0
CIRCLE
  5
401
330
2
100
AcDbEntity
  8
GAIKEI
 62
     1
100
AcDbCircle
 10
-34.21924290355816
 20
11.19986104692191
 30
0.0
 40
0.0900000000000002
  0
CIRCLE
  5
402
330
2
100
AcDbEntity
  8
GAIKEI
 62
     1
100
AcDbCircle
 10
-33.7142429035581
 20
11.19986104692191
 30
0.0
 40
0.0900000000000002
  0
CIRCLE
  5
403
330
2
100
AcDbEntity
  8
GAIKEI
 62
     1
100
AcDbCircle
 10
-33.20924290355811
 20
11.19986104692191
 30
0.0
 40
0.0900000000000002
  0
CIRCLE
  5
404
330
2
100
AcDbEntity
  8
GAIKEI
 62
     1
100
AcDbCircle
 10
-32.70424290355811
 20
11.19986104692191
 30
0.0
 40
0.0900000000000002
  0
CIRCLE
  5
405
330
2
100
AcDbEntity
  8
GAIKEI
 62
     1
100
AcDbCircle
 10
-32.19924290355812
 20
11.19986104692191
 30
0.0
 40
0.0900000000000002
  0
CIRCLE
  5
406
330
2
100
AcDbEntity
  8
GAIKEI
 62
     1
100
AcDbCircle
 10
-31.69424290355812
 20
11.19986104692191
 30
0.0
 40
0.0900000000000002
  0
CIRCLE
  5
407
330
2
100
AcDbEntity
  8
GAIKEI
 62
     1
100
AcDbCircle
 10
-31.18924290355812
 20
11.19986104692191
 30
0.0
 40
0.0900000000000002
  0
CIRCLE
  5
408
330
2
100
AcDbEntity
  8
GAIKEI
 62
     1
100
AcDbCircle
 10
-30.68424290355813
 20
11.19986104692191
 30
0.0
 40
0.0900000000000002
  0
CIRCLE
  5
409
330
2
100
AcDbEntity
  8
GAIKEI
 62
     1
100
AcDbCircle
 10
-30.17924290355813
 20
11.19986104692191
 30
0.0
 40
0.0900000000000002
  0
CIRCLE
  5
40A
330
2
100
AcDbEntity
  8
GAIKEI
 62
     1
100
AcDbCircle
 10
-29.67424290355814
 20
11.19986104692191
 30
0.0
 40
0.0900000000000002
  0
CIRCLE
  5
40B
330
2
100
AcDbEntity
  8
GAIKEI
 62
     1
100
AcDbCircle
 10
-21.0892429035581
 20
11.19986104692191
 30
0.0
 40
0.0900000000000002
  0
CIRCLE
  5
40C
330
2
100
AcDbEntity
  8
GAIKEI
 62
     1
100
AcDbCircle
 10
-21.59424290355815
 20
11.19986104692191
 30
0.0
 40
0.0900000000000002
  0
CIRCLE
  5
40D
330
2
100
AcDbEntity
  8
GAIKEI
 62
     1
100
AcDbCircle
 10
-22.09924290355815
 20
11.19986104692191
 30
0.0
 40
0.0900000000000002
  0
CIRCLE
  5
40E
330
2
100
AcDbEntity
  8
GAIKEI
 62
     1
100
AcDbCircle
 10
-22.60424290355814
 20
11.19986104692191
 30
0.0
 40
0.0900000000000002
  0
CIRCLE
  5
40F
330
2
100
AcDbEntity
  8
GAIKEI
 62
     1
100
AcDbCircle
 10
-23.10924290355814
 20
11.19986104692191
 30
0.0
 40
0.0900000000000002
  0
CIRCLE
  5
410
330
2
100
AcDbEntity
  8
GAIKEI
 62
     1
100
AcDbCircle
 10
-23.61424290355814
 20
11.19986104692191
 30
0.0
 40
0.0900000000000002
  0
CIRCLE
  5
411
330
2
100
AcDbEntity
  8
GAIKEI
 62
     1
100
AcDbCircle
 10
-24.11924290355813
 20
11.19986104692191
 30
0.0
 40
0.0900000000000002
  0
CIRCLE
  5
412
330
2
100
AcDbEntity
  8
GAIKEI
 62
     1
100
AcDbCircle
 10
-24.62424290355813
 20
11.19986104692191
 30
0.0
 40
0.0900000000000002
  0
CIRCLE
  5
413
330
2
100
AcDbEntity
  8
GAIKEI
 62
     1
100
AcDbCircle
 10
-25.12924290355812
 20
11.19986104692191
 30
0.0
 40
0.0900000000000002
  0
CIRCLE
  5
414
330
2
100
AcDbEntity
  8
GAIKEI
 62
     1
100
AcDbCircle
 10
-25.63424290355812
 20
11.19986104692191
 30
0.0
 40
0.0900000000000002
  0
CIRCLE
  5
415
330
2
100
AcDbEntity
  8
GAIKEI
 62
     1
100
AcDbCircle
 10
-26.13924290355811
 20
11.19986104692191
 30
0.0
 40
0.0900000000000002
  0
CIRCLE
  5
416
330
2
100
AcDbEntity
  8
GAIKEI
 62
     1
100
AcDbCircle
 10
-26.64424290355811
 20
11.19986104692191
 30
0.0
 40
0.0900000000000002
  0
CIRCLE
  5
417
330
2
100
AcDbEntity
  8
GAIKEI
 62
     1
100
AcDbCircle
 10
-27.1492429035581
 20
11.19986104692191
 30
0.0
 40
0.0900000000000002
  0
CIRCLE
  5
418
330
2
100
AcDbEntity
  8
GAIKEI
 62
     1
100
AcDbCircle
 10
-27.65424290355816
 20
11.19986104692191
 30
0.0
 40
0.0900000000000002
  0
CIRCLE
  5
419
330
2
100
AcDbEntity
  8
GAIKEI
 62
     1
100
AcDbCircle
 10
-28.15924290355815
 20
11.19986104692191
 30
0.0
 40
0.0900000000000002
  0
CIRCLE
  5
41A
330
2
100
AcDbEntity
  8
GAIKEI
 62
     1
100
AcDbCircle
 10
-28.66424290355815
 20
11.19986104692191
 30
0.0
 40
0.0900000000000002
  0
CIRCLE
  5
41B
330
2
100
AcDbEntity
  8
GAIKEI
 62
     1
100
AcDbCircle
 10
-29.16924290355814
 20
11.19986104692191
 30
0.0
 40
0.0900000000000002
  0
CIRCLE
  5
41C
330
2
100
AcDbEntity
  8
GAIKEI
 62
     1
100
AcDbCircle
 10
-20.5842429035581
 20
11.19986104692191
 30
0.0
 40
0.0900000000000002
  0
CIRCLE
  5
41D
330
2
100
AcDbEntity
  8
GAIKEI
 62
     1
100
AcDbCircle
 10
-20.07924290355811
 20
11.19986104692191
 30
0.0
 40
0.0900000000000002
  0
CIRCLE
  5
41E
330
2
100
AcDbEntity
  8
GAIKEI
 62
     1
100
AcDbCircle
 10
-19.57424290355811
 20
11.19986104692191
 30
0.0
 40
0.0900000000000002
  0
CIRCLE
  5
41F
330
2
100
AcDbEntity
  8
GAIKEI
 62
     1
100
AcDbCircle
 10
-19.06924290355812
 20
11.19986104692191
 30
0.0
 40
0.0900000000000002
  0
CIRCLE
  5
420
330
2
100
AcDbEntity
  8
GAIKEI
 62
     1
100
AcDbCircle
 10
-18.56424290355812
 20
11.19986104692191
 30
0.0
 40
0.0900000000000002
  0
CIRCLE
  5
421
330
2
100
AcDbEntity
  8
GAIKEI
 62
     1
100
AcDbCircle
 10
-18.05924290355813
 20
11.19986104692191
 30
0.0
 40
0.0900000000000002
  0
CIRCLE
  5
422
330
2
100
AcDbEntity
  8
GAIKEI
 62
     1
100
AcDbCircle
 10
-17.55424290355813
 20
11.19986104692191
 30
0.0
 40
0.0900000000000002
  0
CIRCLE
  5
423
330
2
100
AcDbEntity
  8
GAIKEI
 62
     1
100
AcDbCircle
 10
-17.04924290355814
 20
11.19986104692191
 30
0.0
 40
0.0900000000000002
  0
CIRCLE
  5
424
330
2
100
AcDbEntity
  8
GAIKEI
 62
     1
100
AcDbCircle
 10
-16.54424290355814
 20
11.19986104692191
 30
0.0
 40
0.0900000000000002
  0
CIRCLE
  5
425
330
2
100
AcDbEntity
  8
GAIKEI
 62
     1
100
AcDbCircle
 10
-12.50424290355812
 20
11.19986104692191
 30
0.0
 40
0.0900000000000002
  0
CIRCLE
  5
426
330
2
100
AcDbEntity
  8
GAIKEI
 62
     1
100
AcDbCircle
 10
-13.00924290355812
 20
11.19986104692191
 30
0.0
 40
0.0900000000000002
  0
CIRCLE
  5
427
330
2
100
AcDbEntity
  8
GAIKEI
 62
     1
100
AcDbCircle
 10
-13.51424290355811
 20
11.19986104692191
 30
0.0
 40
0.0900000000000002
  0
CIRCLE
  5
428
330
2
100
AcDbEntity
  8
GAIKEI
 62
     1
100
AcDbCircle
 10
-14.01924290355811
 20
11.19986104692191
 30
0.0
 40
0.0900000000000002
  0
CIRCLE
  5
429
330
2
100
AcDbEntity
  8
GAIKEI
 62
     1
100
AcDbCircle
 10
-14.5242429035581
 20
11.19986104692191
 30
0.0
 40
0.0900000000000002
  0
CIRCLE
  5
42A
330
2
100
AcDbEntity
  8
GAIKEI
 62
     1
100
AcDbCircle
 10
-15.0292429035581
 20
11.19986104692191
 30
0.0
 40
0.0900000000000002
  0
CIRCLE
  5
42B
330
2
100
AcDbEntity
  8
GAIKEI
 62
     1
100
AcDbCircle
 10
-15.53424290355809
 20
11.19986104692191
 30
0.0
 40
0.0900000000000002
  0
CIRCLE
  5
42C
330
2
100
AcDbEntity
  8
GAIKEI
 62
     1
100
AcDbCircle
 10
-16.03924290355809
 20
11.19986104692191
 30
0.0
 40
0.0900000000000002
  0
CIRCLE
  5
42D
330
2
100
AcDbEntity
  8
GAIKEI
 62
     1
100
AcDbCircle
 10
-11.99924290355812
 20
11.19986104692191
 30
0.0
 40
0.0900000000000002
  0
CIRCLE
  5
42E
330
2
100
AcDbEntity
  8
GAIKEI
 62
     1
100
AcDbCircle
 10
-11.49424290355807
 20
11.19986104692191
 30
0.0
 40
0.0900000000000002
  0
CIRCLE
  5
42F
330
2
100
AcDbEntity
  8
GAIKEI
 62
     1
100
AcDbCircle
 10
-11.49424290355807
 20
12.87986104692197
 30
0.0
 40
0.0900000000000002
  0
CIRCLE
  5
430
330
2
100
AcDbEntity
  8
GAIKEI
 62
     1
100
AcDbCircle
 10
-11.99924290355812
 20
12.87986104692197
 30
0.0
 40
0.0900000000000002
  0
CIRCLE
  5
431
330
2
100
AcDbEntity
  8
GAIKEI
 62
     1
100
AcDbCircle
 10
-16.03924290355809
 20
12.87986104692197
 30
0.0
 40
0.0900000000000002
  0
CIRCLE
  5
432
330
2
100
AcDbEntity
  8
GAIKEI
 62
     1
100
AcDbCircle
 10
-15.53424290355809
 20
12.87986104692197
 30
0.0
 40
0.0900000000000002
  0
CIRCLE
  5
433
330
2
100
AcDbEntity
  8
GAIKEI
 62
     1
100
AcDbCircle
 10
-15.0292429035581
 20
12.87986104692197
 30
0.0
 40
0.0900000000000002
  0
CIRCLE
  5
434
330
2
100
AcDbEntity
  8
GAIKEI
 62
     1
100
AcDbCircle
 10
-14.5242429035581
 20
12.87986104692197
 30
0.0
 40
0.0900000000000002
  0
CIRCLE
  5
435
330
2
100
AcDbEntity
  8
GAIKEI
 62
     1
100
AcDbCircle
 10
-14.01924290355811
 20
12.87986104692197
 30
0.0
 40
0.0900000000000002
  0
CIRCLE
  5
436
330
2
100
AcDbEntity
  8
GAIKEI
 62
     1
100
AcDbCircle
 10
-13.51424290355811
 20
12.87986104692197
 30
0.0
 40
0.0900000000000002
  0
CIRCLE
  5
437
330
2
100
AcDbEntity
  8
GAIKEI
 62
     1
100
AcDbCircle
 10
-13.00924290355812
 20
12.87986104692197
 30
0.0
 40
0.0900000000000002
  0
CIRCLE
  5
438
330
2
100
AcDbEntity
  8
GAIKEI
 62
     1
100
AcDbCircle
 10
-12.50424290355812
 20
12.87986104692197
 30
0.0
 40
0.0900000000000002
  0
CIRCLE
  5
439
330
2
100
AcDbEntity
  8
GAIKEI
 62
     1
100
AcDbCircle
 10
-16.54424290355814
 20
12.87986104692197
 30
0.0
 40
0.0900000000000002
  0
CIRCLE
  5
43A
330
2
100
AcDbEntity
  8
GAIKEI
 62
     1
100
AcDbCircle
 10
-17.04924290355814
 20
12.87986104692197
 30
0.0
 40
0.0900000000000002
  0
CIRCLE
  5
43B
330
2
100
AcDbEntity
  8
GAIKEI
 62
     1
100
AcDbCircle
 10
-17.55424290355813
 20
12.87986104692197
 30
0.0
 40
0.0900000000000002
  0
CIRCLE
  5
43C
330
2
100
AcDbEntity
  8
GAIKEI
 62
     1
100
AcDbCircle
 10
-18.05924290355813
 20
12.87986104692197
 30
0.0
 40
0.0900000000000002
  0
CIRCLE
  5
43D
330
2
100
AcDbEntity
  8
GAIKEI
 62
     1
100
AcDbCircle
 10
-18.56424290355812
 20
12.87986104692197
 30
0.0
 40
0.0900000000000002
  0
CIRCLE
  5
43E
330
2
100
AcDbEntity
  8
GAIKEI
 62
     1
100
AcDbCircle
 10
-19.06924290355812
 20
12.87986104692197
 30
0.0
 40
0.0900000000000002
  0
CIRCLE
  5
43F
330
2
100
AcDbEntity
  8
GAIKEI
 62
     1
100
AcDbCircle
 10
-19.57424290355811
 20
12.87986104692197
 30
0.0
 40
0.0900000000000002
  0
CIRCLE
  5
440
330
2
100
AcDbEntity
  8
GAIKEI
 62
     1
100
AcDbCircle
 10
-20.07924290355811
 20
12.87986104692197
 30
0.0
 40
0.0900000000000002
  0
CIRCLE
  5
441
330
2
100
AcDbEntity
  8
GAIKEI
 62
     1
100
AcDbCircle
 10
-20.5842429035581
 20
12.87986104692197
 30
0.0
 40
0.0900000000000002
  0
CIRCLE
  5
442
330
2
100
AcDbEntity
  8
GAIKEI
 62
     1
100
AcDbCircle
 10
-29.16924290355814
 20
12.87986104692197
 30
0.0
 40
0.0900000000000002
  0
CIRCLE
  5
443
330
2
100
AcDbEntity
  8
GAIKEI
 62
     1
100
AcDbCircle
 10
-28.66424290355815
 20
12.87986104692197
 30
0.0
 40
0.0900000000000002
  0
CIRCLE
  5
444
330
2
100
AcDbEntity
  8
GAIKEI
 62
     1
100
AcDbCircle
 10
-28.15924290355815
 20
12.87986104692197
 30
0.0
 40
0.0900000000000002
  0
CIRCLE
  5
445
330
2
100
AcDbEntity
  8
GAIKEI
 62
     1
100
AcDbCircle
 10
-27.65424290355816
 20
12.87986104692197
 30
0.0
 40
0.0900000000000002
  0
CIRCLE
  5
446
330
2
100
AcDbEntity
  8
GAIKEI
 62
     1
100
AcDbCircle
 10
-27.1492429035581
 20
12.87986104692197
 30
0.0
 40
0.0900000000000002
  0
CIRCLE
  5
447
330
2
100
AcDbEntity
  8
GAIKEI
 62
     1
100
AcDbCircle
 10
-26.64424290355811
 20
12.87986104692197
 30
0.0
 40
0.0900000000000002
  0
CIRCLE
  5
448
330
2
100
AcDbEntity
  8
GAIKEI
 62
     1
100
AcDbCircle
 10
-26.13924290355811
 20
12.87986104692197
 30
0.0
 40
0.0900000000000002
  0
CIRCLE
  5
449
330
2
100
AcDbEntity
  8
GAIKEI
 62
     1
100
AcDbCircle
 10
-25.63424290355812
 20
12.87986104692197
 30
0.0
 40
0.0900000000000002
  0
CIRCLE
  5
44A
330
2
100
AcDbEntity
  8
GAIKEI
 62
     1
100
AcDbCircle
 10
-25.12924290355812
 20
12.87986104692197
 30
0.0
 40
0.0900000000000002
  0
CIRCLE
  5
44B
330
2
100
AcDbEntity
  8
GAIKEI
 62
     1
100
AcDbCircle
 10
-24.62424290355813
 20
12.87986104692197
 30
0.0
 40
0.0900000000000002
  0
CIRCLE
  5
44C
330
2
100
AcDbEntity
  8
GAIKEI
 62
     1
100
AcDbCircle
 10
-24.11924290355813
 20
12.87986104692197
 30
0.0
 40
0.0900000000000002
  0
CIRCLE
  5
44D
330
2
100
AcDbEntity
  8
GAIKEI
 62
     1
100
AcDbCircle
 10
-23.61424290355814
 20
12.87986104692197
 30
0.0
 40
0.0900000000000002
  0
CIRCLE
  5
44E
330
2
100
AcDbEntity
  8
GAIKEI
 62
     1
100
AcDbCircle
 10
-23.10924290355814
 20
12.87986104692197
 30
0.0
 40
0.0900000000000002
  0
CIRCLE
  5
44F
330
2
100
AcDbEntity
  8
GAIKEI
 62
     1
100
AcDbCircle
 10
-22.60424290355814
 20
12.87986104692197
 30
0.0
 40
0.0900000000000002
  0
CIRCLE
  5
450
330
2
100
AcDbEntity
  8
GAIKEI
 62
     1
100
AcDbCircle
 10
-22.09924290355815
 20
12.87986104692197
 30
0.0
 40
0.0900000000000002
  0
CIRCLE
  5
451
330
2
100
AcDbEntity
  8
GAIKEI
 62
     1
100
AcDbCircle
 10
-21.59424290355815
 20
12.87986104692197
 30
0.0
 40
0.0900000000000002
  0
CIRCLE
  5
452
330
2
100
AcDbEntity
  8
GAIKEI
 62
     1
100
AcDbCircle
 10
-21.0892429035581
 20
12.87986104692197
 30
0.0
 40
0.0900000000000002
  0
CIRCLE
  5
453
330
2
100
AcDbEntity
  8
GAIKEI
 62
     1
100
AcDbCircle
 10
-29.67424290355814
 20
12.87986104692197
 30
0.0
 40
0.0900000000000002
  0
CIRCLE
  5
454
330
2
100
AcDbEntity
  8
GAIKEI
 62
     1
100
AcDbCircle
 10
-30.17924290355813
 20
12.87986104692197
 30
0.0
 40
0.0900000000000002
  0
CIRCLE
  5
455
330
2
100
AcDbEntity
  8
GAIKEI
 62
     1
100
AcDbCircle
 10
-30.68424290355813
 20
12.87986104692197
 30
0.0
 40
0.0900000000000002
  0
CIRCLE
  5
456
330
2
100
AcDbEntity
  8
GAIKEI
 62
     1
100
AcDbCircle
 10
-31.18924290355812
 20
12.87986104692197
 30
0.0
 40
0.0900000000000002
  0
CIRCLE
  5
457
330
2
100
AcDbEntity
  8
GAIKEI
 62
     1
100
AcDbCircle
 10
-31.69424290355812
 20
12.87986104692197
 30
0.0
 40
0.0900000000000002
  0
CIRCLE
  5
458
330
2
100
AcDbEntity
  8
GAIKEI
 62
     1
100
AcDbCircle
 10
-32.19924290355812
 20
12.87986104692197
 30
0.0
 40
0.0900000000000002
  0
CIRCLE
  5
459
330
2
100
AcDbEntity
  8
GAIKEI
 62
     1
100
AcDbCircle
 10
-32.70424290355811
 20
12.87986104692197
 30
0.0
 40
0.0900000000000002
  0
CIRCLE
  5
45A
330
2
100
AcDbEntity
  8
GAIKEI
 62
     1
100
AcDbCircle
 10
-33.20924290355811
 20
12.87986104692197
 30
0.0
 40
0.0900000000000002
  0
CIRCLE
  5
45B
330
2
100
AcDbEntity
  8
GAIKEI
 62
     1
100
AcDbCircle
 10
-33.7142429035581
 20
12.87986104692197
 30
0.0
 40
0.0900000000000002
  0
CIRCLE
  5
45C
330
2
100
AcDbEntity
  8
GAIKEI
 62
     1
100
AcDbCircle
 10
-34.21924290355816
 20
12.87986104692197
 30
0.0
 40
0.0900000000000002
  0
CIRCLE
  5
45D
330
2
100
AcDbEntity
  8
GAIKEI
 62
     1
100
AcDbCircle
 10
-34.72424290355815
 20
12.87986104692197
 30
0.0
 40
0.0900000000000002
  0
CIRCLE
  5
45E
330
2
100
AcDbEntity
  8
GAIKEI
 62
     1
100
AcDbCircle
 10
-35.22924290355815
 20
12.87986104692197
 30
0.0
 40
0.0900000000000002
  0
CIRCLE
  5
45F
330
2
100
AcDbEntity
  8
GAIKEI
 62
     1
100
AcDbCircle
 10
-35.73424290355814
 20
12.87986104692197
 30
0.0
 40
0.0900000000000002
  0
CIRCLE
  5
460
330
2
100
AcDbEntity
  8
GAIKEI
 62
     1
100
AcDbCircle
 10
-36.23924290355814
 20
12.87986104692197
 30
0.0
 40
0.0900000000000002
  0
CIRCLE
  5
461
330
2
100
AcDbEntity
  8
GAIKEI
 62
     1
100
AcDbCircle
 10
-36.74424290355813
 20
12.87986104692197
 30
0.0
 40
0.0900000000000002
  0
CIRCLE
  5
462
330
2
100
AcDbEntity
  8
GAIKEI
 62
     1
100
AcDbCircle
 10
-37.24924290355813
 20
12.87986104692197
 30
0.0
 40
0.0900000000000002
  0
CIRCLE
  5
463
330
2
100
AcDbEntity
  8
GAIKEI
 62
     1
100
AcDbCircle
 10
-37.75424290355812
 20
12.87986104692197
 30
0.0
 40
0.0900000000000002
  0
CIRCLE
  5
464
330
2
100
AcDbEntity
  8
GAIKEI
 62
     1
100
AcDbCircle
 10
-38.25924290355812
 20
12.87986104692197
 30
0.0
 40
0.0900000000000002
  0
CIRCLE
  5
465
330
2
100
AcDbEntity
  8
GAIKEI
 62
     1
100
AcDbCircle
 10
-38.76424290355812
 20
12.87986104692197
 30
0.0
 40
0.0900000000000002
  0
CIRCLE
  5
466
330
2
100
AcDbEntity
  8
GAIKEI
 62
     1
100
AcDbCircle
 10
-39.26924290355811
 20
12.87986104692197
 30
0.0
 40
0.0900000000000002
  0
CIRCLE
  5
467
330
2
100
AcDbEntity
  8
GAIKEI
 62
     1
100
AcDbCircle
 10
-39.77424290355816
 20
12.87986104692197
 30
0.0
 40
0.0900000000000002
  0
CIRCLE
  5
468
330
2
100
AcDbEntity
  8
GAIKEI
 62
     1
100
AcDbCircle
 10
-40.27924290355815
 20
12.87986104692197
 30
0.0
 40
0.0900000000000002
  0
CIRCLE
  5
469
330
2
100
AcDbEntity
  8
GAIKEI
 62
     1
100
AcDbCircle
 10
-40.27924290355815
 20
14.55986104692192
 30
0.0
 40
0.0900000000000002
  0
CIRCLE
  5
46A
330
2
100
AcDbEntity
  8
GAIKEI
 62
     1
100
AcDbCircle
 10
-39.77424290355816
 20
14.55986104692192
 30
0.0
 40
0.0900000000000002
  0
CIRCLE
  5
46B
330
2
100
AcDbEntity
  8
GAIKEI
 62
     1
100
AcDbCircle
 10
-39.26924290355811
 20
14.55986104692192
 30
0.0
 40
0.0900000000000002
  0
CIRCLE
  5
46C
330
2
100
AcDbEntity
  8
GAIKEI
 62
     1
100
AcDbCircle
 10
-38.76424290355812
 20
14.55986104692192
 30
0.0
 40
0.0900000000000002
  0
CIRCLE
  5
46D
330
2
100
AcDbEntity
  8
GAIKEI
 62
     1
100
AcDbCircle
 10
-38.25924290355812
 20
14.55986104692192
 30
0.0
 40
0.0900000000000002
  0
CIRCLE
  5
46E
330
2
100
AcDbEntity
  8
GAIKEI
 62
     1
100
AcDbCircle
 10
-37.75424290355812
 20
14.55986104692192
 30
0.0
 40
0.0900000000000002
  0
CIRCLE
  5
46F
330
2
100
AcDbEntity
  8
GAIKEI
 62
     1
100
AcDbCircle
 10
-37.24924290355813
 20
14.55986104692192
 30
0.0
 40
0.0900000000000002
  0
CIRCLE
  5
470
330
2
100
AcDbEntity
  8
GAIKEI
 62
     1
100
AcDbCircle
 10
-36.74424290355813
 20
14.55986104692192
 30
0.0
 40
0.0900000000000002
  0
CIRCLE
  5
471
330
2
100
AcDbEntity
  8
GAIKEI
 62
     1
100
AcDbCircle
 10
-36.23924290355814
 20
14.55986104692192
 30
0.0
 40
0.0900000000000002
  0
CIRCLE
  5
472
330
2
100
AcDbEntity
  8
GAIKEI
 62
     1
100
AcDbCircle
 10
-35.73424290355814
 20
14.55986104692192
 30
0.0
 40
0.0900000000000002
  0
CIRCLE
  5
473
330
2
100
AcDbEntity
  8
GAIKEI
 62
     1
100
AcDbCircle
 10
-35.22924290355815
 20
14.55986104692192
 30
0.0
 40
0.0900000000000002
  0
CIRCLE
  5
474
330
2
100
AcDbEntity
  8
GAIKEI
 62
     1
100
AcDbCircle
 10
-34.72424290355815
 20
14.55986104692192
 30
0.0
 40
0.0900000000000002
  0
CIRCLE
  5
475
330
2
100
AcDbEntity
  8
GAIKEI
 62
     1
100
AcDbCircle
 10
-34.21924290355816
 20
14.55986104692192
 30
0.0
 40
0.0900000000000002
  0
CIRCLE
  5
476
330
2
100
AcDbEntity
  8
GAIKEI
 62
     1
100
AcDbCircle
 10
-33.7142429035581
 20
14.55986104692192
 30
0.0
 40
0.0900000000000002
  0
CIRCLE
  5
477
330
2
100
AcDbEntity
  8
GAIKEI
 62
     1
100
AcDbCircle
 10
-33.20924290355811
 20
14.55986104692192
 30
0.0
 40
0.0900000000000002
  0
CIRCLE
  5
478
330
2
100
AcDbEntity
  8
GAIKEI
 62
     1
100
AcDbCircle
 10
-32.70424290355811
 20
14.55986104692192
 30
0.0
 40
0.0900000000000002
  0
CIRCLE
  5
479
330
2
100
AcDbEntity
  8
GAIKEI
 62
     1
100
AcDbCircle
 10
-32.19924290355812
 20
14.55986104692192
 30
0.0
 40
0.0900000000000002
  0
CIRCLE
  5
47A
330
2
100
AcDbEntity
  8
GAIKEI
 62
     1
100
AcDbCircle
 10
-31.69424290355812
 20
14.55986104692192
 30
0.0
 40
0.0900000000000002
  0
CIRCLE
  5
47B
330
2
100
AcDbEntity
  8
GAIKEI
 62
     1
100
AcDbCircle
 10
-31.18924290355812
 20
14.55986104692192
 30
0.0
 40
0.0900000000000002
  0
CIRCLE
  5
47C
330
2
100
AcDbEntity
  8
GAIKEI
 62
     1
100
AcDbCircle
 10
-30.68424290355813
 20
14.55986104692192
 30
0.0
 40
0.0900000000000002
  0
CIRCLE
  5
47D
330
2
100
AcDbEntity
  8
GAIKEI
 62
     1
100
AcDbCircle
 10
-30.17924290355813
 20
14.55986104692192
 30
0.0
 40
0.0900000000000002
  0
CIRCLE
  5
47E
330
2
100
AcDbEntity
  8
GAIKEI
 62
     1
100
AcDbCircle
 10
-29.67424290355814
 20
14.55986104692192
 30
0.0
 40
0.0900000000000002
  0
CIRCLE
  5
47F
330
2
100
AcDbEntity
  8
GAIKEI
 62
     1
100
AcDbCircle
 10
-21.0892429035581
 20
14.55986104692192
 30
0.0
 40
0.0900000000000002
  0
CIRCLE
  5
480
330
2
100
AcDbEntity
  8
GAIKEI
 62
     1
100
AcDbCircle
 10
-21.59424290355815
 20
14.55986104692192
 30
0.0
 40
0.0900000000000002
  0
CIRCLE
  5
481
330
2
100
AcDbEntity
  8
GAIKEI
 62
     1
100
AcDbCircle
 10
-22.09924290355815
 20
14.55986104692192
 30
0.0
 40
0.0900000000000002
  0
CIRCLE
  5
482
330
2
100
AcDbEntity
  8
GAIKEI
 62
     1
100
AcDbCircle
 10
-22.60424290355814
 20
14.55986104692192
 30
0.0
 40
0.0900000000000002
  0
CIRCLE
  5
483
330
2
100
AcDbEntity
  8
GAIKEI
 62
     1
100
AcDbCircle
 10
-23.10924290355814
 20
14.55986104692192
 30
0.0
 40
0.0900000000000002
  0
CIRCLE
  5
484
330
2
100
AcDbEntity
  8
GAIKEI
 62
     1
100
AcDbCircle
 10
-23.61424290355814
 20
14.55986104692192
 30
0.0
 40
0.0900000000000002
  0
CIRCLE
  5
485
330
2
100
AcDbEntity
  8
GAIKEI
 62
     1
100
AcDbCircle
 10
-24.11924290355813
 20
14.55986104692192
 30
0.0
 40
0.0900000000000002
  0
CIRCLE
  5
486
330
2
100
AcDbEntity
  8
GAIKEI
 62
     1
100
AcDbCircle
 10
-24.62424290355813
 20
14.55986104692192
 30
0.0
 40
0.0900000000000002
  0
CIRCLE
  5
487
330
2
100
AcDbEntity
  8
GAIKEI
 62
     1
100
AcDbCircle
 10
-25.12924290355812
 20
14.55986104692192
 30
0.0
 40
0.0900000000000002
  0
CIRCLE
  5
488
330
2
100
AcDbEntity
  8
GAIKEI
 62
     1
100
AcDbCircle
 10
-25.63424290355812
 20
14.55986104692192
 30
0.0
 40
0.0900000000000002
  0
CIRCLE
  5
489
330
2
100
AcDbEntity
  8
GAIKEI
 62
     1
100
AcDbCircle
 10
-26.13924290355811
 20
14.55986104692192
 30
0.0
 40
0.0900000000000002
  0
CIRCLE
  5
48A
330
2
100
AcDbEntity
  8
GAIKEI
 62
     1
100
AcDbCircle
 10
-26.64424290355811
 20
14.55986104692192
 30
0.0
 40
0.0900000000000002
  0
CIRCLE
  5
48B
330
2
100
AcDbEntity
  8
GAIKEI
 62
     1
100
AcDbCircle
 10
-27.1492429035581
 20
14.55986104692192
 30
0.0
 40
0.0900000000000002
  0
CIRCLE
  5
48C
330
2
100
AcDbEntity
  8
GAIKEI
 62
     1
100
AcDbCircle
 10
-27.65424290355816
 20
14.55986104692192
 30
0.0
 40
0.0900000000000002
  0
CIRCLE
  5
48D
330
2
100
AcDbEntity
  8
GAIKEI
 62
     1
100
AcDbCircle
 10
-28.15924290355815
 20
14.55986104692192
 30
0.0
 40
0.0900000000000002
  0
CIRCLE
  5
48E
330
2
100
AcDbEntity
  8
GAIKEI
 62
     1
100
AcDbCircle
 10
-28.66424290355815
 20
14.55986104692192
 30
0.0
 40
0.0900000000000002
  0
CIRCLE
  5
48F
330
2
100
AcDbEntity
  8
GAIKEI
 62
     1
100
AcDbCircle
 10
-29.16924290355814
 20
14.55986104692192
 30
0.0
 40
0.0900000000000002
  0
CIRCLE
  5
490
330
2
100
AcDbEntity
  8
GAIKEI
 62
     1
100
AcDbCircle
 10
-20.5842429035581
 20
14.55986104692192
 30
0.0
 40
0.0900000000000002
  0
CIRCLE
  5
491
330
2
100
AcDbEntity
  8
GAIKEI
 62
     1
100
AcDbCircle
 10
-20.07924290355811
 20
14.55986104692192
 30
0.0
 40
0.0900000000000002
  0
CIRCLE
  5
492
330
2
100
AcDbEntity
  8
GAIKEI
 62
     1
100
AcDbCircle
 10
-19.57424290355811
 20
14.55986104692192
 30
0.0
 40
0.0900000000000002
  0
CIRCLE
  5
493
330
2
100
AcDbEntity
  8
GAIKEI
 62
     1
100
AcDbCircle
 10
-19.06924290355812
 20
14.55986104692192
 30
0.0
 40
0.0900000000000002
  0
CIRCLE
  5
494
330
2
100
AcDbEntity
  8
GAIKEI
 62
     1
100
AcDbCircle
 10
-18.56424290355812
 20
14.55986104692192
 30
0.0
 40
0.0900000000000002
  0
CIRCLE
  5
495
330
2
100
AcDbEntity
  8
GAIKEI
 62
     1
100
AcDbCircle
 10
-18.05924290355813
 20
14.55986104692192
 30
0.0
 40
0.0900000000000002
  0
CIRCLE
  5
496
330
2
100
AcDbEntity
  8
GAIKEI
 62
     1
100
AcDbCircle
 10
-17.55424290355813
 20
14.55986104692192
 30
0.0
 40
0.0900000000000002
  0
CIRCLE
  5
497
330
2
100
AcDbEntity
  8
GAIKEI
 62
     1
100
AcDbCircle
 10
-17.04924290355814
 20
14.55986104692192
 30
0.0
 40
0.0900000000000002
  0
CIRCLE
  5
498
330
2
100
AcDbEntity
  8
GAIKEI
 62
     1
100
AcDbCircle
 10
-16.54424290355814
 20
14.55986104692192
 30
0.0
 40
0.0900000000000002
  0
CIRCLE
  5
499
330
2
100
AcDbEntity
  8
GAIKEI
 62
     1
100
AcDbCircle
 10
-14.01924290355811
 20
14.55986104692192
 30
0.0
 40
0.0900000000000002
  0
CIRCLE
  5
49A
330
2
100
AcDbEntity
  8
GAIKEI
 62
     1
100
AcDbCircle
 10
-14.5242429035581
 20
14.55986104692192
 30
0.0
 40
0.0900000000000002
  0
CIRCLE
  5
49B
330
2
100
AcDbEntity
  8
GAIKEI
 62
     1
100
AcDbCircle
 10
-15.0292429035581
 20
14.55986104692192
 30
0.0
 40
0.0900000000000002
  0
CIRCLE
  5
49C
330
2
100
AcDbEntity
  8
GAIKEI
 62
     1
100
AcDbCircle
 10
-15.53424290355809
 20
14.55986104692192
 30
0.0
 40
0.0900000000000002
  0
CIRCLE
  5
49D
330
2
100
AcDbEntity
  8
GAIKEI
 62
     1
100
AcDbCircle
 10
-16.03924290355809
 20
14.55986104692192
 30
0.0
 40
0.0900000000000002
  0
CIRCLE
  5
49E
330
2
100
AcDbEntity
  8
GAIKEI
 62
     1
100
AcDbCircle
 10
-11.99924290355812
 20
14.55986104692192
 30
0.0
 40
0.0900000000000002
  0
CIRCLE
  5
49F
330
2
100
AcDbEntity
  8
GAIKEI
 62
     1
100
AcDbCircle
 10
-11.49424290355807
 20
14.55986104692192
 30
0.0
 40
0.0900000000000002
  0
CIRCLE
  5
4A0
330
2
100
AcDbEntity
  8
GAIKEI
 62
     1
100
AcDbCircle
 10
-40.27924290355815
 20
13.29986104692193
 30
0.0
 40
0.0900000000000002
  0
CIRCLE
  5
4A1
330
2
100
AcDbEntity
  8
GAIKEI
 62
     1
100
AcDbCircle
 10
-39.77424290355816
 20
13.29986104692193
 30
0.0
 40
0.0900000000000002
  0
CIRCLE
  5
4A2
330
2
100
AcDbEntity
  8
GAIKEI
 62
     1
100
AcDbCircle
 10
-39.26924290355811
 20
13.29986104692193
 30
0.0
 40
0.0900000000000002
  0
CIRCLE
  5
4A3
330
2
100
AcDbEntity
  8
GAIKEI
 62
     1
100
AcDbCircle
 10
-38.76424290355812
 20
13.29986104692193
 30
0.0
 40
0.0900000000000002
  0
CIRCLE
  5
4A4
330
2
100
AcDbEntity
  8
GAIKEI
 62
     1
100
AcDbCircle
 10
-38.25924290355812
 20
13.29986104692193
 30
0.0
 40
0.0900000000000002
  0
CIRCLE
  5
4A5
330
2
100
AcDbEntity
  8
GAIKEI
 62
     1
100
AcDbCircle
 10
-37.75424290355812
 20
13.29986104692193
 30
0.0
 40
0.0900000000000002
  0
CIRCLE
  5
4A6
330
2
100
AcDbEntity
  8
GAIKEI
 62
     1
100
AcDbCircle
 10
-37.24924290355813
 20
13.29986104692193
 30
0.0
 40
0.0900000000000002
  0
CIRCLE
  5
4A7
330
2
100
AcDbEntity
  8
GAIKEI
 62
     1
100
AcDbCircle
 10
-36.74424290355813
 20
13.29986104692193
 30
0.0
 40
0.0900000000000002
  0
CIRCLE
  5
4A8
330
2
100
AcDbEntity
  8
GAIKEI
 62
     1
100
AcDbCircle
 10
-36.23924290355814
 20
13.29986104692193
 30
0.0
 40
0.0900000000000002
  0
CIRCLE
  5
4A9
330
2
100
AcDbEntity
  8
GAIKEI
 62
     1
100
AcDbCircle
 10
-35.73424290355814
 20
13.29986104692193
 30
0.0
 40
0.0900000000000002
  0
CIRCLE
  5
4AA
330
2
100
AcDbEntity
  8
GAIKEI
 62
     1
100
AcDbCircle
 10
-35.22924290355815
 20
13.29986104692193
 30
0.0
 40
0.0900000000000002
  0
CIRCLE
  5
4AB
330
2
100
AcDbEntity
  8
GAIKEI
 62
     1
100
AcDbCircle
 10
-34.72424290355815
 20
13.29986104692193
 30
0.0
 40
0.0900000000000002
  0
CIRCLE
  5
4AC
330
2
100
AcDbEntity
  8
GAIKEI
 62
     1
100
AcDbCircle
 10
-34.21924290355816
 20
13.29986104692193
 30
0.0
 40
0.0900000000000002
  0
CIRCLE
  5
4AD
330
2
100
AcDbEntity
  8
GAIKEI
 62
     1
100
AcDbCircle
 10
-33.7142429035581
 20
13.29986104692193
 30
0.0
 40
0.0900000000000002
  0
CIRCLE
  5
4AE
330
2
100
AcDbEntity
  8
GAIKEI
 62
     1
100
AcDbCircle
 10
-33.20924290355811
 20
13.29986104692193
 30
0.0
 40
0.0900000000000002
  0
CIRCLE
  5
4AF
330
2
100
AcDbEntity
  8
GAIKEI
 62
     1
100
AcDbCircle
 10
-32.70424290355811
 20
13.29986104692193
 30
0.0
 40
0.0900000000000002
  0
CIRCLE
  5
4B0
330
2
100
AcDbEntity
  8
GAIKEI
 62
     1
100
AcDbCircle
 10
-32.19924290355812
 20
13.29986104692193
 30
0.0
 40
0.0900000000000002
  0
CIRCLE
  5
4B1
330
2
100
AcDbEntity
  8
GAIKEI
 62
     1
100
AcDbCircle
 10
-31.69424290355812
 20
13.29986104692193
 30
0.0
 40
0.0900000000000002
  0
CIRCLE
  5
4B2
330
2
100
AcDbEntity
  8
GAIKEI
 62
     1
100
AcDbCircle
 10
-31.18924290355812
 20
13.29986104692193
 30
0.0
 40
0.0900000000000002
  0
CIRCLE
  5
4B3
330
2
100
AcDbEntity
  8
GAIKEI
 62
     1
100
AcDbCircle
 10
-30.68424290355813
 20
13.29986104692193
 30
0.0
 40
0.0900000000000002
  0
CIRCLE
  5
4B4
330
2
100
AcDbEntity
  8
GAIKEI
 62
     1
100
AcDbCircle
 10
-30.17924290355813
 20
13.29986104692193
 30
0.0
 40
0.0900000000000002
  0
CIRCLE
  5
4B5
330
2
100
AcDbEntity
  8
GAIKEI
 62
     1
100
AcDbCircle
 10
-29.67424290355814
 20
13.29986104692193
 30
0.0
 40
0.0900000000000002
  0
CIRCLE
  5
4B6
330
2
100
AcDbEntity
  8
GAIKEI
 62
     1
100
AcDbCircle
 10
-21.0892429035581
 20
13.29986104692193
 30
0.0
 40
0.0900000000000002
  0
CIRCLE
  5
4B7
330
2
100
AcDbEntity
  8
GAIKEI
 62
     1
100
AcDbCircle
 10
-21.59424290355815
 20
13.29986104692193
 30
0.0
 40
0.0900000000000002
  0
CIRCLE
  5
4B8
330
2
100
AcDbEntity
  8
GAIKEI
 62
     1
100
AcDbCircle
 10
-22.09924290355815
 20
13.29986104692193
 30
0.0
 40
0.0900000000000002
  0
CIRCLE
  5
4B9
330
2
100
AcDbEntity
  8
GAIKEI
 62
     1
100
AcDbCircle
 10
-22.60424290355814
 20
13.29986104692193
 30
0.0
 40
0.0900000000000002
  0
CIRCLE
  5
4BA
330
2
100
AcDbEntity
  8
GAIKEI
 62
     1
100
AcDbCircle
 10
-23.10924290355814
 20
13.29986104692193
 30
0.0
 40
0.0900000000000002
  0
CIRCLE
  5
4BB
330
2
100
AcDbEntity
  8
GAIKEI
 62
     1
100
AcDbCircle
 10
-23.61424290355814
 20
13.29986104692193
 30
0.0
 40
0.0900000000000002
  0
CIRCLE
  5
4BC
330
2
100
AcDbEntity
  8
GAIKEI
 62
     1
100
AcDbCircle
 10
-24.11924290355813
 20
13.29986104692193
 30
0.0
 40
0.0900000000000002
  0
CIRCLE
  5
4BD
330
2
100
AcDbEntity
  8
GAIKEI
 62
     1
100
AcDbCircle
 10
-24.62424290355813
 20
13.29986104692193
 30
0.0
 40
0.0900000000000002
  0
CIRCLE
  5
4BE
330
2
100
AcDbEntity
  8
GAIKEI
 62
     1
100
AcDbCircle
 10
-25.12924290355812
 20
13.29986104692193
 30
0.0
 40
0.0900000000000002
  0
CIRCLE
  5
4BF
330
2
100
AcDbEntity
  8
GAIKEI
 62
     1
100
AcDbCircle
 10
-25.63424290355812
 20
13.29986104692193
 30
0.0
 40
0.0900000000000002
  0
CIRCLE
  5
4C0
330
2
100
AcDbEntity
  8
GAIKEI
 62
     1
100
AcDbCircle
 10
-26.13924290355811
 20
13.29986104692193
 30
0.0
 40
0.0900000000000002
  0
CIRCLE
  5
4C1
330
2
100
AcDbEntity
  8
GAIKEI
 62
     1
100
AcDbCircle
 10
-26.64424290355811
 20
13.29986104692193
 30
0.0
 40
0.0900000000000002
  0
CIRCLE
  5
4C2
330
2
100
AcDbEntity
  8
GAIKEI
 62
     1
100
AcDbCircle
 10
-27.1492429035581
 20
13.29986104692193
 30
0.0
 40
0.0900000000000002
  0
CIRCLE
  5
4C3
330
2
100
AcDbEntity
  8
GAIKEI
 62
     1
100
AcDbCircle
 10
-27.65424290355816
 20
13.29986104692193
 30
0.0
 40
0.0900000000000002
  0
CIRCLE
  5
4C4
330
2
100
AcDbEntity
  8
GAIKEI
 62
     1
100
AcDbCircle
 10
-28.15924290355815
 20
13.29986104692193
 30
0.0
 40
0.0900000000000002
  0
CIRCLE
  5
4C5
330
2
100
AcDbEntity
  8
GAIKEI
 62
     1
100
AcDbCircle
 10
-28.66424290355815
 20
13.29986104692193
 30
0.0
 40
0.0900000000000002
  0
CIRCLE
  5
4C6
330
2
100
AcDbEntity
  8
GAIKEI
 62
     1
100
AcDbCircle
 10
-29.16924290355814
 20
13.29986104692193
 30
0.0
 40
0.0900000000000002
  0
CIRCLE
  5
4C7
330
2
100
AcDbEntity
  8
GAIKEI
 62
     1
100
AcDbCircle
 10
-20.5842429035581
 20
13.29986104692193
 30
0.0
 40
0.0900000000000002
  0
CIRCLE
  5
4C8
330
2
100
AcDbEntity
  8
GAIKEI
 62
     1
100
AcDbCircle
 10
-20.07924290355811
 20
13.29986104692193
 30
0.0
 40
0.0900000000000002
  0
CIRCLE
  5
4C9
330
2
100
AcDbEntity
  8
GAIKEI
 62
     1
100
AcDbCircle
 10
-19.57424290355811
 20
13.29986104692193
 30
0.0
 40
0.0900000000000002
  0
CIRCLE
  5
4CA
330
2
100
AcDbEntity
  8
GAIKEI
 62
     1
100
AcDbCircle
 10
-19.06924290355812
 20
13.29986104692193
 30
0.0
 40
0.0900000000000002
  0
CIRCLE
  5
4CB
330
2
100
AcDbEntity
  8
GAIKEI
 62
     1
100
AcDbCircle
 10
-18.56424290355812
 20
13.29986104692193
 30
0.0
 40
0.0900000000000002
  0
CIRCLE
  5
4CC
330
2
100
AcDbEntity
  8
GAIKEI
 62
     1
100
AcDbCircle
 10
-18.05924290355813
 20
13.29986104692193
 30
0.0
 40
0.0900000000000002
  0
CIRCLE
  5
4CD
330
2
100
AcDbEntity
  8
GAIKEI
 62
     1
100
AcDbCircle
 10
-17.55424290355813
 20
13.29986104692193
 30
0.0
 40
0.0900000000000002
  0
CIRCLE
  5
4CE
330
2
100
AcDbEntity
  8
GAIKEI
 62
     1
100
AcDbCircle
 10
-17.04924290355814
 20
13.29986104692193
 30
0.0
 40
0.0900000000000002
  0
CIRCLE
  5
4CF
330
2
100
AcDbEntity
  8
GAIKEI
 62
     1
100
AcDbCircle
 10
-16.54424290355814
 20
13.29986104692193
 30
0.0
 40
0.0900000000000002
  0
CIRCLE
  5
4D0
330
2
100
AcDbEntity
  8
GAIKEI
 62
     1
100
AcDbCircle
 10
-14.01924290355811
 20
13.29986104692193
 30
0.0
 40
0.0900000000000002
  0
CIRCLE
  5
4D1
330
2
100
AcDbEntity
  8
GAIKEI
 62
     1
100
AcDbCircle
 10
-14.5242429035581
 20
13.29986104692193
 30
0.0
 40
0.0900000000000002
  0
CIRCLE
  5
4D2
330
2
100
AcDbEntity
  8
GAIKEI
 62
     1
100
AcDbCircle
 10
-15.0292429035581
 20
13.29986104692193
 30
0.0
 40
0.0900000000000002
  0
CIRCLE
  5
4D3
330
2
100
AcDbEntity
  8
GAIKEI
 62
     1
100
AcDbCircle
 10
-15.53424290355809
 20
13.29986104692193
 30
0.0
 40
0.0900000000000002
  0
CIRCLE
  5
4D4
330
2
100
AcDbEntity
  8
GAIKEI
 62
     1
100
AcDbCircle
 10
-16.03924290355809
 20
13.29986104692193
 30
0.0
 40
0.0900000000000002
  0
CIRCLE
  5
4D5
330
2
100
AcDbEntity
  8
GAIKEI
 62
     1
100
AcDbCircle
 10
-11.99924290355812
 20
13.29986104692193
 30
0.0
 40
0.0900000000000002
  0
CIRCLE
  5
4D6
330
2
100
AcDbEntity
  8
GAIKEI
 62
     1
100
AcDbCircle
 10
-11.49424290355807
 20
13.29986104692193
 30
0.0
 40
0.0900000000000002
  0
CIRCLE
  5
4D7
330
2
100
AcDbEntity
  8
GAIKEI
 62
     1
100
AcDbCircle
 10
-11.49424290355807
 20
14.13986104692196
 30
0.0
 40
0.0900000000000002
  0
CIRCLE
  5
4D8
330
2
100
AcDbEntity
  8
GAIKEI
 62
     1
100
AcDbCircle
 10
-11.99924290355812
 20
14.13986104692196
 30
0.0
 40
0.0900000000000002
  0
CIRCLE
  5
4D9
330
2
100
AcDbEntity
  8
GAIKEI
 62
     1
100
AcDbCircle
 10
-16.03924290355809
 20
14.13986104692196
 30
0.0
 40
0.0900000000000002
  0
CIRCLE
  5
4DA
330
2
100
AcDbEntity
  8
GAIKEI
 62
     1
100
AcDbCircle
 10
-15.53424290355809
 20
14.13986104692196
 30
0.0
 40
0.0900000000000002
  0
CIRCLE
  5
4DB
330
2
100
AcDbEntity
  8
GAIKEI
 62
     1
100
AcDbCircle
 10
-15.0292429035581
 20
14.13986104692196
 30
0.0
 40
0.0900000000000002
  0
CIRCLE
  5
4DC
330
2
100
AcDbEntity
  8
GAIKEI
 62
     1
100
AcDbCircle
 10
-14.5242429035581
 20
14.13986104692196
 30
0.0
 40
0.0900000000000002
  0
CIRCLE
  5
4DD
330
2
100
AcDbEntity
  8
GAIKEI
 62
     1
100
AcDbCircle
 10
-14.01924290355811
 20
14.13986104692196
 30
0.0
 40
0.0900000000000002
  0
CIRCLE
  5
4DE
330
2
100
AcDbEntity
  8
GAIKEI
 62
     1
100
AcDbCircle
 10
-16.54424290355814
 20
14.13986104692196
 30
0.0
 40
0.0900000000000002
  0
CIRCLE
  5
4DF
330
2
100
AcDbEntity
  8
GAIKEI
 62
     1
100
AcDbCircle
 10
-17.04924290355814
 20
14.13986104692196
 30
0.0
 40
0.0900000000000002
  0
CIRCLE
  5
4E0
330
2
100
AcDbEntity
  8
GAIKEI
 62
     1
100
AcDbCircle
 10
-17.55424290355813
 20
14.13986104692196
 30
0.0
 40
0.0900000000000002
  0
CIRCLE
  5
4E1
330
2
100
AcDbEntity
  8
GAIKEI
 62
     1
100
AcDbCircle
 10
-18.05924290355813
 20
14.13986104692196
 30
0.0
 40
0.0900000000000002
  0
CIRCLE
  5
4E2
330
2
100
AcDbEntity
  8
GAIKEI
 62
     1
100
AcDbCircle
 10
-18.56424290355812
 20
14.13986104692196
 30
0.0
 40
0.0900000000000002
  0
CIRCLE
  5
4E3
330
2
100
AcDbEntity
  8
GAIKEI
 62
     1
100
AcDbCircle
 10
-19.06924290355812
 20
14.13986104692196
 30
0.0
 40
0.0900000000000002
  0
CIRCLE
  5
4E4
330
2
100
AcDbEntity
  8
GAIKEI
 62
     1
100
AcDbCircle
 10
-19.57424290355811
 20
14.13986104692196
 30
0.0
 40
0.0900000000000002
  0
CIRCLE
  5
4E5
330
2
100
AcDbEntity
  8
GAIKEI
 62
     1
100
AcDbCircle
 10
-20.07924290355811
 20
14.13986104692196
 30
0.0
 40
0.0900000000000002
  0
CIRCLE
  5
4E6
330
2
100
AcDbEntity
  8
GAIKEI
 62
     1
100
AcDbCircle
 10
-20.5842429035581
 20
14.13986104692196
 30
0.0
 40
0.0900000000000002
  0
CIRCLE
  5
4E7
330
2
100
AcDbEntity
  8
GAIKEI
 62
     1
100
AcDbCircle
 10
-29.16924290355814
 20
14.13986104692196
 30
0.0
 40
0.0900000000000002
  0
CIRCLE
  5
4E8
330
2
100
AcDbEntity
  8
GAIKEI
 62
     1
100
AcDbCircle
 10
-28.66424290355815
 20
14.13986104692196
 30
0.0
 40
0.0900000000000002
  0
CIRCLE
  5
4E9
330
2
100
AcDbEntity
  8
GAIKEI
 62
     1
100
AcDbCircle
 10
-28.15924290355815
 20
14.13986104692196
 30
0.0
 40
0.0900000000000002
  0
CIRCLE
  5
4EA
330
2
100
AcDbEntity
  8
GAIKEI
 62
     1
100
AcDbCircle
 10
-27.65424290355816
 20
14.13986104692196
 30
0.0
 40
0.0900000000000002
  0
CIRCLE
  5
4EB
330
2
100
AcDbEntity
  8
GAIKEI
 62
     1
100
AcDbCircle
 10
-27.1492429035581
 20
14.13986104692196
 30
0.0
 40
0.0900000000000002
  0
CIRCLE
  5
4EC
330
2
100
AcDbEntity
  8
GAIKEI
 62
     1
100
AcDbCircle
 10
-26.64424290355811
 20
14.13986104692196
 30
0.0
 40
0.0900000000000002
  0
CIRCLE
  5
4ED
330
2
100
AcDbEntity
  8
GAIKEI
 62
     1
100
AcDbCircle
 10
-26.13924290355811
 20
14.13986104692196
 30
0.0
 40
0.0900000000000002
  0
CIRCLE
  5
4EE
330
2
100
AcDbEntity
  8
GAIKEI
 62
     1
100
AcDbCircle
 10
-25.63424290355812
 20
14.13986104692196
 30
0.0
 40
0.0900000000000002
  0
CIRCLE
  5
4EF
330
2
100
AcDbEntity
  8
GAIKEI
 62
     1
100
AcDbCircle
 10
-25.12924290355812
 20
14.13986104692196
 30
0.0
 40
0.0900000000000002
  0
CIRCLE
  5
4F0
330
2
100
AcDbEntity
  8
GAIKEI
 62
     1
100
AcDbCircle
 10
-24.62424290355813
 20
14.13986104692196
 30
0.0
 40
0.0900000000000002
  0
CIRCLE
  5
4F1
330
2
100
AcDbEntity
  8
GAIKEI
 62
     1
100
AcDbCircle
 10
-24.11924290355813
 20
14.13986104692196
 30
0.0
 40
0.0900000000000002
  0
CIRCLE
  5
4F2
330
2
100
AcDbEntity
  8
GAIKEI
 62
     1
100
AcDbCircle
 10
-23.61424290355814
 20
14.13986104692196
 30
0.0
 40
0.0900000000000002
  0
CIRCLE
  5
4F3
330
2
100
AcDbEntity
  8
GAIKEI
 62
     1
100
AcDbCircle
 10
-23.10924290355814
 20
14.13986104692196
 30
0.0
 40
0.0900000000000002
  0
CIRCLE
  5
4F4
330
2
100
AcDbEntity
  8
GAIKEI
 62
     1
100
AcDbCircle
 10
-22.60424290355814
 20
14.13986104692196
 30
0.0
 40
0.0900000000000002
  0
CIRCLE
  5
4F5
330
2
100
AcDbEntity
  8
GAIKEI
 62
     1
100
AcDbCircle
 10
-22.09924290355815
 20
14.13986104692196
 30
0.0
 40
0.0900000000000002
  0
CIRCLE
  5
4F6
330
2
100
AcDbEntity
  8
GAIKEI
 62
     1
100
AcDbCircle
 10
-21.59424290355815
 20
14.13986104692196
 30
0.0
 40
0.0900000000000002
  0
CIRCLE
  5
4F7
330
2
100
AcDbEntity
  8
GAIKEI
 62
     1
100
AcDbCircle
 10
-21.0892429035581
 20
14.13986104692196
 30
0.0
 40
0.0900000000000002
  0
CIRCLE
  5
4F8
330
2
100
AcDbEntity
  8
GAIKEI
 62
     1
100
AcDbCircle
 10
-29.67424290355814
 20
14.13986104692196
 30
0.0
 40
0.0900000000000002
  0
CIRCLE
  5
4F9
330
2
100
AcDbEntity
  8
GAIKEI
 62
     1
100
AcDbCircle
 10
-30.17924290355813
 20
14.13986104692196
 30
0.0
 40
0.0900000000000002
  0
CIRCLE
  5
4FA
330
2
100
AcDbEntity
  8
GAIKEI
 62
     1
100
AcDbCircle
 10
-30.68424290355813
 20
14.13986104692196
 30
0.0
 40
0.0900000000000002
  0
CIRCLE
  5
4FB
330
2
100
AcDbEntity
  8
GAIKEI
 62
     1
100
AcDbCircle
 10
-31.18924290355812
 20
14.13986104692196
 30
0.0
 40
0.0900000000000002
  0
CIRCLE
  5
4FC
330
2
100
AcDbEntity
  8
GAIKEI
 62
     1
100
AcDbCircle
 10
-31.69424290355812
 20
14.13986104692196
 30
0.0
 40
0.0900000000000002
  0
CIRCLE
  5
4FD
330
2
100
AcDbEntity
  8
GAIKEI
 62
     1
100
AcDbCircle
 10
-32.19924290355812
 20
14.13986104692196
 30
0.0
 40
0.0900000000000002
  0
CIRCLE
  5
4FE
330
2
100
AcDbEntity
  8
GAIKEI
 62
     1
100
AcDbCircle
 10
-32.70424290355811
 20
14.13986104692196
 30
0.0
 40
0.0900000000000002
  0
CIRCLE
  5
4FF
330
2
100
AcDbEntity
  8
GAIKEI
 62
     1
100
AcDbCircle
 10
-33.20924290355811
 20
14.13986104692196
 30
0.0
 40
0.0900000000000002
  0
CIRCLE
  5
500
330
2
100
AcDbEntity
  8
GAIKEI
 62
     1
100
AcDbCircle
 10
-33.7142429035581
 20
14.13986104692196
 30
0.0
 40
0.0900000000000002
  0
CIRCLE
  5
501
330
2
100
AcDbEntity
  8
GAIKEI
 62
     1
100
AcDbCircle
 10
-34.21924290355816
 20
14.13986104692196
 30
0.0
 40
0.0900000000000002
  0
CIRCLE
  5
502
330
2
100
AcDbEntity
  8
GAIKEI
 62
     1
100
AcDbCircle
 10
-34.72424290355815
 20
14.13986104692196
 30
0.0
 40
0.0900000000000002
  0
CIRCLE
  5
503
330
2
100
AcDbEntity
  8
GAIKEI
 62
     1
100
AcDbCircle
 10
-35.22924290355815
 20
14.13986104692196
 30
0.0
 40
0.0900000000000002
  0
CIRCLE
  5
504
330
2
100
AcDbEntity
  8
GAIKEI
 62
     1
100
AcDbCircle
 10
-35.73424290355814
 20
14.13986104692196
 30
0.0
 40
0.0900000000000002
  0
CIRCLE
  5
505
330
2
100
AcDbEntity
  8
GAIKEI
 62
     1
100
AcDbCircle
 10
-36.23924290355814
 20
14.13986104692196
 30
0.0
 40
0.0900000000000002
  0
CIRCLE
  5
506
330
2
100
AcDbEntity
  8
GAIKEI
 62
     1
100
AcDbCircle
 10
-36.74424290355813
 20
14.13986104692196
 30
0.0
 40
0.0900000000000002
  0
CIRCLE
  5
507
330
2
100
AcDbEntity
  8
GAIKEI
 62
     1
100
AcDbCircle
 10
-37.24924290355813
 20
14.13986104692196
 30
0.0
 40
0.0900000000000002
  0
CIRCLE
  5
508
330
2
100
AcDbEntity
  8
GAIKEI
 62
     1
100
AcDbCircle
 10
-37.75424290355812
 20
14.13986104692196
 30
0.0
 40
0.0900000000000002
  0
CIRCLE
  5
509
330
2
100
AcDbEntity
  8
GAIKEI
 62
     1
100
AcDbCircle
 10
-38.25924290355812
 20
14.13986104692196
 30
0.0
 40
0.0900000000000002
  0
CIRCLE
  5
50A
330
2
100
AcDbEntity
  8
GAIKEI
 62
     1
100
AcDbCircle
 10
-38.76424290355812
 20
14.13986104692196
 30
0.0
 40
0.0900000000000002
  0
CIRCLE
  5
50B
330
2
100
AcDbEntity
  8
GAIKEI
 62
     1
100
AcDbCircle
 10
-39.26924290355811
 20
14.13986104692196
 30
0.0
 40
0.0900000000000002
  0
CIRCLE
  5
50C
330
2
100
AcDbEntity
  8
GAIKEI
 62
     1
100
AcDbCircle
 10
-39.77424290355816
 20
14.13986104692196
 30
0.0
 40
0.0900000000000002
  0
CIRCLE
  5
50D
330
2
100
AcDbEntity
  8
GAIKEI
 62
     1
100
AcDbCircle
 10
-40.27924290355815
 20
14.13986104692196
 30
0.0
 40
0.0900000000000002
  0
CIRCLE
  5
50E
330
2
100
AcDbEntity
  8
GAIKEI
 62
     1
100
AcDbCircle
 10
-40.27924290355815
 20
13.71986104692195
 30
0.0
 40
0.0900000000000002
  0
CIRCLE
  5
50F
330
2
100
AcDbEntity
  8
GAIKEI
 62
     1
100
AcDbCircle
 10
-39.77424290355816
 20
13.71986104692195
 30
0.0
 40
0.0900000000000002
  0
CIRCLE
  5
510
330
2
100
AcDbEntity
  8
GAIKEI
 62
     1
100
AcDbCircle
 10
-39.26924290355811
 20
13.71986104692195
 30
0.0
 40
0.0900000000000002
  0
CIRCLE
  5
511
330
2
100
AcDbEntity
  8
GAIKEI
 62
     1
100
AcDbCircle
 10
-38.76424290355812
 20
13.71986104692195
 30
0.0
 40
0.0900000000000002
  0
CIRCLE
  5
512
330
2
100
AcDbEntity
  8
GAIKEI
 62
     1
100
AcDbCircle
 10
-38.25924290355812
 20
13.71986104692195
 30
0.0
 40
0.0900000000000002
  0
CIRCLE
  5
513
330
2
100
AcDbEntity
  8
GAIKEI
 62
     1
100
AcDbCircle
 10
-37.75424290355812
 20
13.71986104692195
 30
0.0
 40
0.0900000000000002
  0
CIRCLE
  5
514
330
2
100
AcDbEntity
  8
GAIKEI
 62
     1
100
AcDbCircle
 10
-37.24924290355813
 20
13.71986104692195
 30
0.0
 40
0.0900000000000002
  0
CIRCLE
  5
515
330
2
100
AcDbEntity
  8
GAIKEI
 62
     1
100
AcDbCircle
 10
-36.74424290355813
 20
13.71986104692195
 30
0.0
 40
0.0900000000000002
  0
CIRCLE
  5
516
330
2
100
AcDbEntity
  8
GAIKEI
 62
     1
100
AcDbCircle
 10
-36.23924290355814
 20
13.71986104692195
 30
0.0
 40
0.0900000000000002
  0
CIRCLE
  5
517
330
2
100
AcDbEntity
  8
GAIKEI
 62
     1
100
AcDbCircle
 10
-35.73424290355814
 20
13.71986104692195
 30
0.0
 40
0.0900000000000002
  0
CIRCLE
  5
518
330
2
100
AcDbEntity
  8
GAIKEI
 62
     1
100
AcDbCircle
 10
-35.22924290355815
 20
13.71986104692195
 30
0.0
 40
0.0900000000000002
  0
CIRCLE
  5
519
330
2
100
AcDbEntity
  8
GAIKEI
 62
     1
100
AcDbCircle
 10
-34.72424290355815
 20
13.71986104692195
 30
0.0
 40
0.0900000000000002
  0
CIRCLE
  5
51A
330
2
100
AcDbEntity
  8
GAIKEI
 62
     1
100
AcDbCircle
 10
-34.21924290355816
 20
13.71986104692195
 30
0.0
 40
0.0900000000000002
  0
CIRCLE
  5
51B
330
2
100
AcDbEntity
  8
GAIKEI
 62
     1
100
AcDbCircle
 10
-33.7142429035581
 20
13.71986104692195
 30
0.0
 40
0.0900000000000002
  0
CIRCLE
  5
51C
330
2
100
AcDbEntity
  8
GAIKEI
 62
     1
100
AcDbCircle
 10
-33.20924290355811
 20
13.71986104692195
 30
0.0
 40
0.0900000000000002
  0
CIRCLE
  5
51D
330
2
100
AcDbEntity
  8
GAIKEI
 62
     1
100
AcDbCircle
 10
-32.70424290355811
 20
13.71986104692195
 30
0.0
 40
0.0900000000000002
  0
CIRCLE
  5
51E
330
2
100
AcDbEntity
  8
GAIKEI
 62
     1
100
AcDbCircle
 10
-32.19924290355812
 20
13.71986104692195
 30
0.0
 40
0.0900000000000002
  0
CIRCLE
  5
51F
330
2
100
AcDbEntity
  8
GAIKEI
 62
     1
100
AcDbCircle
 10
-31.69424290355812
 20
13.71986104692195
 30
0.0
 40
0.0900000000000002
  0
CIRCLE
  5
520
330
2
100
AcDbEntity
  8
GAIKEI
 62
     1
100
AcDbCircle
 10
-31.18924290355812
 20
13.71986104692195
 30
0.0
 40
0.0900000000000002
  0
CIRCLE
  5
521
330
2
100
AcDbEntity
  8
GAIKEI
 62
     1
100
AcDbCircle
 10
-30.68424290355813
 20
13.71986104692195
 30
0.0
 40
0.0900000000000002
  0
CIRCLE
  5
522
330
2
100
AcDbEntity
  8
GAIKEI
 62
     1
100
AcDbCircle
 10
-30.17924290355813
 20
13.71986104692195
 30
0.0
 40
0.0900000000000002
  0
CIRCLE
  5
523
330
2
100
AcDbEntity
  8
GAIKEI
 62
     1
100
AcDbCircle
 10
-29.67424290355814
 20
13.71986104692195
 30
0.0
 40
0.0900000000000002
  0
CIRCLE
  5
524
330
2
100
AcDbEntity
  8
GAIKEI
 62
     1
100
AcDbCircle
 10
-21.0892429035581
 20
13.71986104692195
 30
0.0
 40
0.0900000000000002
  0
CIRCLE
  5
525
330
2
100
AcDbEntity
  8
GAIKEI
 62
     1
100
AcDbCircle
 10
-21.59424290355815
 20
13.71986104692195
 30
0.0
 40
0.0900000000000002
  0
CIRCLE
  5
526
330
2
100
AcDbEntity
  8
GAIKEI
 62
     1
100
AcDbCircle
 10
-22.09924290355815
 20
13.71986104692195
 30
0.0
 40
0.0900000000000002
  0
CIRCLE
  5
527
330
2
100
AcDbEntity
  8
GAIKEI
 62
     1
100
AcDbCircle
 10
-22.60424290355814
 20
13.71986104692195
 30
0.0
 40
0.0900000000000002
  0
CIRCLE
  5
528
330
2
100
AcDbEntity
  8
GAIKEI
 62
     1
100
AcDbCircle
 10
-23.10924290355814
 20
13.71986104692195
 30
0.0
 40
0.0900000000000002
  0
CIRCLE
  5
529
330
2
100
AcDbEntity
  8
GAIKEI
 62
     1
100
AcDbCircle
 10
-23.61424290355814
 20
13.71986104692195
 30
0.0
 40
0.0900000000000002
  0
CIRCLE
  5
52A
330
2
100
AcDbEntity
  8
GAIKEI
 62
     1
100
AcDbCircle
 10
-24.11924290355813
 20
13.71986104692195
 30
0.0
 40
0.0900000000000002
  0
CIRCLE
  5
52B
330
2
100
AcDbEntity
  8
GAIKEI
 62
     1
100
AcDbCircle
 10
-24.62424290355813
 20
13.71986104692195
 30
0.0
 40
0.0900000000000002
  0
CIRCLE
  5
52C
330
2
100
AcDbEntity
  8
GAIKEI
 62
     1
100
AcDbCircle
 10
-25.12924290355812
 20
13.71986104692195
 30
0.0
 40
0.0900000000000002
  0
CIRCLE
  5
52D
330
2
100
AcDbEntity
  8
GAIKEI
 62
     1
100
AcDbCircle
 10
-25.63424290355812
 20
13.71986104692195
 30
0.0
 40
0.0900000000000002
  0
CIRCLE
  5
52E
330
2
100
AcDbEntity
  8
GAIKEI
 62
     1
100
AcDbCircle
 10
-26.13924290355811
 20
13.71986104692195
 30
0.0
 40
0.0900000000000002
  0
CIRCLE
  5
52F
330
2
100
AcDbEntity
  8
GAIKEI
 62
     1
100
AcDbCircle
 10
-26.64424290355811
 20
13.71986104692195
 30
0.0
 40
0.0900000000000002
  0
CIRCLE
  5
530
330
2
100
AcDbEntity
  8
GAIKEI
 62
     1
100
AcDbCircle
 10
-27.1492429035581
 20
13.71986104692195
 30
0.0
 40
0.0900000000000002
  0
CIRCLE
  5
531
330
2
100
AcDbEntity
  8
GAIKEI
 62
     1
100
AcDbCircle
 10
-27.65424290355816
 20
13.71986104692195
 30
0.0
 40
0.0900000000000002
  0
CIRCLE
  5
532
330
2
100
AcDbEntity
  8
GAIKEI
 62
     1
100
AcDbCircle
 10
-28.15924290355815
 20
13.71986104692195
 30
0.0
 40
0.0900000000000002
  0
CIRCLE
  5
533
330
2
100
AcDbEntity
  8
GAIKEI
 62
     1
100
AcDbCircle
 10
-28.66424290355815
 20
13.71986104692195
 30
0.0
 40
0.0900000000000002
  0
CIRCLE
  5
534
330
2
100
AcDbEntity
  8
GAIKEI
 62
     1
100
AcDbCircle
 10
-29.16924290355814
 20
13.71986104692195
 30
0.0
 40
0.0900000000000002
  0
CIRCLE
  5
535
330
2
100
AcDbEntity
  8
GAIKEI
 62
     1
100
AcDbCircle
 10
-20.5842429035581
 20
13.71986104692195
 30
0.0
 40
0.0900000000000002
  0
CIRCLE
  5
536
330
2
100
AcDbEntity
  8
GAIKEI
 62
     1
100
AcDbCircle
 10
-20.07924290355811
 20
13.71986104692195
 30
0.0
 40
0.0900000000000002
  0
CIRCLE
  5
537
330
2
100
AcDbEntity
  8
GAIKEI
 62
     1
100
AcDbCircle
 10
-19.57424290355811
 20
13.71986104692195
 30
0.0
 40
0.0900000000000002
  0
CIRCLE
  5
538
330
2
100
AcDbEntity
  8
GAIKEI
 62
     1
100
AcDbCircle
 10
-19.06924290355812
 20
13.71986104692195
 30
0.0
 40
0.0900000000000002
  0
CIRCLE
  5
539
330
2
100
AcDbEntity
  8
GAIKEI
 62
     1
100
AcDbCircle
 10
-18.56424290355812
 20
13.71986104692195
 30
0.0
 40
0.0900000000000002
  0
CIRCLE
  5
53A
330
2
100
AcDbEntity
  8
GAIKEI
 62
     1
100
AcDbCircle
 10
-18.05924290355813
 20
13.71986104692195
 30
0.0
 40
0.0900000000000002
  0
CIRCLE
  5
53B
330
2
100
AcDbEntity
  8
GAIKEI
 62
     1
100
AcDbCircle
 10
-17.55424290355813
 20
13.71986104692195
 30
0.0
 40
0.0900000000000002
  0
CIRCLE
  5
53C
330
2
100
AcDbEntity
  8
GAIKEI
 62
     1
100
AcDbCircle
 10
-17.04924290355814
 20
13.71986104692195
 30
0.0
 40
0.0900000000000002
  0
CIRCLE
  5
53D
330
2
100
AcDbEntity
  8
GAIKEI
 62
     1
100
AcDbCircle
 10
-16.54424290355814
 20
13.71986104692195
 30
0.0
 40
0.0900000000000002
  0
CIRCLE
  5
53E
330
2
100
AcDbEntity
  8
GAIKEI
 62
     1
100
AcDbCircle
 10
-14.01924290355811
 20
13.71986104692195
 30
0.0
 40
0.0900000000000002
  0
CIRCLE
  5
53F
330
2
100
AcDbEntity
  8
GAIKEI
 62
     1
100
AcDbCircle
 10
-14.5242429035581
 20
13.71986104692195
 30
0.0
 40
0.0900000000000002
  0
CIRCLE
  5
540
330
2
100
AcDbEntity
  8
GAIKEI
 62
     1
100
AcDbCircle
 10
-15.0292429035581
 20
13.71986104692195
 30
0.0
 40
0.0900000000000002
  0
CIRCLE
  5
541
330
2
100
AcDbEntity
  8
GAIKEI
 62
     1
100
AcDbCircle
 10
-15.53424290355809
 20
13.71986104692195
 30
0.0
 40
0.0900000000000002
  0
CIRCLE
  5
542
330
2
100
AcDbEntity
  8
GAIKEI
 62
     1
100
AcDbCircle
 10
-16.03924290355809
 20
13.71986104692195
 30
0.0
 40
0.0900000000000002
  0
CIRCLE
  5
543
330
2
100
AcDbEntity
  8
GAIKEI
 62
     1
100
AcDbCircle
 10
-11.99924290355812
 20
13.71986104692195
 30
0.0
 40
0.0900000000000002
  0
CIRCLE
  5
544
330
2
100
AcDbEntity
  8
GAIKEI
 62
     1
100
AcDbCircle
 10
-11.49424290355807
 20
13.71986104692195
 30
0.0
 40
0.0900000000000002
  0
LINE
  5
545
330
2
100
AcDbEntity
  8
GAIKEI
 62
     1
100
AcDbLine
 10
55.19371983505684
 20
8.704990373713314
 30
0.0
 11
55.19371983505684
 21
8.314728758370506
 31
0.0
  0
LINE
  5
546
330
2
100
AcDbEntity
  8
GAIKEI
 62
     1
100
AcDbLine
 10
55.19406245593827
 20
19.63990580364191
 30
0.0
 11
55.19406245593827
 21
19.27981332842193
 31
0.0
  0
ARC
  5
547
330
2
100
AcDbEntity
  8
GAIKEI
  6
Continuous
 62
     1
100
AcDbCircle
 10
57.4840624559383
 20
8.579859566041932
 30
0.0
 40
0.1
100
AcDbArc
 50
270.0
 51
359.9999999999995
  0
ARC
  5
548
330
2
100
AcDbEntity
  8
GAIKEI
  6
Continuous
 62
     1
100
AcDbCircle
 10
57.4840624559383
 20
11.24985956604189
 30
0.0
 40
0.1
100
AcDbArc
 50
359.9999999999995
 51
90.0
  0
ARC
  5
549
330
2
100
AcDbEntity
  8
GAIKEI
  6
Continuous
 62
     1
100
AcDbCircle
 10
57.51406245593833
 20
8.549859566041959
 30
0.0
 40
0.25
100
AcDbArc
 50
270.0
 51
0.0
  0
ARC
  5
54A
330
2
100
AcDbEntity
  8
GAIKEI
  6
Continuous
 62
     1
100
AcDbCircle
 10
57.51406245593827
 20
11.27985956604192
 30
0.0
 40
0.25
100
AcDbArc
 50
0.0000000000005089
 51
90.0
  0
LINE
  5
54B
330
2
100
AcDbEntity
  8
GAIKEI
100
AcDbLine
 10
14.18801320823831
 20
18.01670575662194
 30
0.0
 11
13.837562873178
 21
18.39842418797883
 31
0.0
  0
ARC
  5
54C
330
2
100
AcDbEntity
  8
GAIKEI
100
AcDbCircle
 10
13.87439453028804
 20
18.43223881550193
 30
0.0
 40
0.05
100
AcDbArc
 50
90.0
 51
222.5546047788101
  0
LINE
  5
54D
330
2
100
AcDbEntity
  8
GAIKEI
 62
     1
100
AcDbLine
 10
-48.85245705685815
 20
15.09414541274191
 30
0.0
 11
-48.85245705685815
 21
18.01670575664195
 31
0.0
  0
TEXT
  5
54E
330
2
100
AcDbEntity
  8
MOJI1
100
AcDbText
 10
-57.98642570923423
 20
-22.93337663635464
 30
0.0
 40
3.0
  1
ＨＤＤ機能
100
AcDbText
  0
TEXT
  5
54F
330
2
100
AcDbEntity
  8
MOJI1
100
AcDbText
 10
-17.98642570923422
 20
-22.93337663635464
 30
0.0
 40
3.0
  1
３．５インチＨＤＤ×最大９台搭載可能（初期１台搭載）
 41
0.88
100
AcDbText
  0
LINE
  5
550
330
2
100
AcDbEntity
  8
WAKU
 62
     1
100
AcDbLine
 10
-60.48642570923437
 20
-23.93337663635464
 30
0.0
 11
64.51357429076563
 21
-23.93337663635475
 31
0.0
  0
TEXT
  5
552
330
2
100
AcDbEntity
  8
MOJI1
100
AcDbText
 10
-57.78084447871598
 20
-67.80142019889644
 30
0.0
 40
3.0
  1
クライアントＰＣ／カメラポート
 41
0.65
  7
KANJI
100
AcDbText
  0
TEXT
  5
554
330
2
100
AcDbEntity
  8
MOJI1
100
AcDbText
 10
-17.85023010174328
 20
-67.870253244396
 30
0.0
 40
3.0
  1
１０ＢＡＳＥ－Ｔ／１００ＢＡＳＥ－ＴＸ／１０００ＢＡＳＥ－Ｔ（ＲＪ－４５）
 41
0.6200000000000001
  7
KANJI
100
AcDbText
  0
TEXT
  5
555
330
2
100
AcDbEntity
  8
MOJI1
100
AcDbText
 10
-17.98642570923439
 20
-57.93337663635464
 30
0.0
 40
3.0
  1
１９２０×９６０／６４０×４８０／３２０×２４０（カメラ依存）
 41
0.73
100
AcDbText
  0
TEXT
  5
556
330
2
100
AcDbEntity
  8
MOJI1
100
AcDbText
 10
-57.9864257092344
 20
-57.93337663635464
 30
0.0
 40
3.0
  1
画像解像度（Ｈ×Ｖ）
100
AcDbText
  0
LINE
  5
557
330
2
100
AcDbEntity
  8
WAKU
 62
     4
100
AcDbLine
 10
-20.4864257092344
 20
-48.93337663635469
 30
0.0
 11
-20.48642570923437
 21
-3.933376636354751
 31
0.0
  0
TEXT
  5
558
330
2
100
AcDbEntity
  8
MOJI1
100
AcDbText
 10
-57.98642570923437
 20
-52.93337663635464
 30
0.0
 40
3.0
  1
ネットワーク部
100
AcDbText
  0
TEXT
  5
559
330
2
100
AcDbEntity
  8
MOJI1
100
AcDbText
 10
-17.98642570923437
 20
-47.93337663635464
 30
0.0
 40
3.0
  1
ネットワーク／ＨＤＤ／カメラ
100
AcDbText
  0
TEXT
  5
55A
330
2
100
AcDbEntity
  8
MOJI1
100
AcDbText
 10
-57.98642570923437
 20
-47.93337663635464
 30
0.0
 40
3.0
  1
異常検出出力
100
AcDbText
  0
TEXT
  5
55B
330
2
100
AcDbEntity
  8
MOJI1
100
AcDbText
 10
-17.98642570923437
 20
-42.93337663635464
 30
0.0
 40
3.0
  1
アラーム入力×３２ｃｈ、アラーム復帰入力×１ｃｈ、アラーム出力×１ｃｈ
 41
0.65
100
AcDbText
  0
TEXT
  5
55C
330
2
100
AcDbEntity
  8
MOJI1
100
AcDbText
 10
-57.98642570923437
 20
-42.93337663635464
 30
0.0
 40
3.0
  1
アラーム入出力
100
AcDbText
  0
TEXT
  5
55D
330
2
100
AcDbEntity
  8
MOJI1
100
AcDbText
 10
-17.98642570923437
 20
-37.93337663635464
 30
0.0
 40
3.0
  1
高速シリアルインターフェイス（理論値１．５Ｇｂｂｐｓ）×５系統
 41
0.73
100
AcDbText
  0
TEXT
  5
55E
330
2
100
AcDbEntity
  8
MOJI1
100
AcDbText
 10
-57.98642570923437
 20
-37.93337663635464
 30
0.0
 40
3.0
  1
増設端子
100
AcDbText
  0
TEXT
  5
55F
330
2
100
AcDbEntity
  8
MOJI1
100
AcDbText
 10
-17.98642570923437
 20
-32.93337663635464
 30
0.0
 40
3.0
  1
ＲＡＩＤ６機能（ＨＤＤ４台以上）
100
AcDbText
  0
TEXT
  5
560
330
2
100
AcDbEntity
  8
MOJI1
100
AcDbText
 10
-17.98642570923437
 20
-27.93337663635464
 30
0.0
 40
3.0
  1
ＲＡＩＤ５機能（ＨＤＤ３台以上）
100
AcDbText
  0
TEXT
  5
561
330
2
100
AcDbEntity
  8
MOJI1
100
AcDbText
 10
-17.98642570923439
 20
-62.93337663635464
 30
0.0
 40
3.0
  1
ＪＰＥＧ／ＭＰＥＧ－４（カメラ依存）
100
AcDbText
  0
TEXT
  5
562
330
2
100
AcDbEntity
  8
MOJI1
100
AcDbText
 10
-57.9864257092344
 20
-62.93337663635464
 30
0.0
 40
3.0
  1
画像圧縮方式
100
AcDbText
  0
LINE
  5
563
330
2
100
AcDbEntity
  8
WAKU
 62
     1
100
AcDbLine
 10
-60.48642570923437
 20
-63.93337663635463
 30
0.0
 11
64.51357429076563
 21
-63.93337663635475
 31
0.0
  0
LINE
  5
564
330
2
100
AcDbEntity
  8
WAKU
 62
     1
100
AcDbLine
 10
-60.48642570923437
 20
-58.93337663635463
 30
0.0
 11
64.51357429076563
 21
-58.93337663635475
 31
0.0
  0
LINE
  5
565
330
2
100
AcDbEntity
  8
WAKU
 62
     1
100
AcDbLine
 10
-60.48642570923437
 20
-53.93337663635463
 30
0.0
 11
64.51357429076563
 21
-53.93337663635475
 31
0.0
  0
LINE
  5
566
330
2
100
AcDbEntity
  8
WAKU
 62
     1
100
AcDbLine
 10
-60.48642570923437
 20
-48.93337663635463
 30
0.0
 11
64.51357429076563
 21
-48.93337663635475
 31
0.0
  0
LINE
  5
567
330
2
100
AcDbEntity
  8
WAKU
 62
     1
100
AcDbLine
 10
-60.48642570923437
 20
-43.93337663635463
 30
0.0
 11
64.51357429076563
 21
-43.93337663635475
 31
0.0
  0
LINE
  5
568
330
2
100
AcDbEntity
  8
WAKU
 62
     4
100
AcDbLine
 10
64.51357429076563
 20
-68.93337663635469
 30
0.0
 11
64.51357429076563
 21
-3.933376636354751
 31
0.0
  0
LINE
  5
569
330
2
100
AcDbEntity
  8
WAKU
 62
     4
100
AcDbLine
 10
-20.4864257092344
 20
-68.93337663635469
 30
0.0
 11
-20.4864257092344
 21
-53.93337663635469
 31
0.0
  0
TEXT
  5
56A
330
2
100
AcDbEntity
  8
MOJI1
100
AcDbText
 10
-57.98642570923437
 20
-12.93337663635464
 30
0.0
 40
3.0
  1
カメラ接続台数
100
AcDbText
  0
TEXT
  5
56B
330
2
100
AcDbEntity
  8
MOJI1
100
AcDbText
 10
-57.98642570923437
 20
-17.93337663635464
 30
0.0
 40
3.0
  1
記録仕様
100
AcDbText
  0
TEXT
  5
56C
330
2
100
AcDbEntity
  8
MOJI1
100
AcDbText
 10
-57.98642570923437
 20
-7.933376636354637
 30
0.0
 40
3.0
  1
電　源
100
AcDbText
  0
TEXT
  5
56D
330
2
100
AcDbEntity
  8
MOJI1
100
AcDbText
 10
-17.98642570923437
 20
-12.93337663635464
 30
0.0
 40
3.0
  1
最大６４台
100
AcDbText
  0
TEXT
  5
56E
330
2
100
AcDbEntity
  8
MOJI1
100
AcDbText
 10
-17.98642570923437
 20
-17.93337663635464
 30
0.0
 40
3.0
  1
全カメラ最大３０ｉｐｓ動画記録
100
AcDbText
  0
TEXT
  5
56F
330
2
100
AcDbEntity
  8
MOJI1
100
AcDbText
 10
-17.98642570923437
 20
-7.933376636354637
 30
0.0
 40
3.0
  1
ＡＣ１００Ｖ　５０／６０Ｈｚ
100
AcDbText
  0
LINE
  5
570
330
2
100
AcDbEntity
  8
WAKU
 62
     4
100
AcDbLine
 10
-60.48642570923437
 20
-3.933376636354751
 30
0.0
 11
-60.4864257092344
 21
-68.93337663635469
 31
0.0
  0
LINE
  5
571
330
2
100
AcDbEntity
  8
WAKU
 62
     1
100
AcDbLine
 10
-60.48642570923437
 20
-8.933376636354751
 30
0.0
 11
64.51357429076563
 21
-8.933376636354751
 31
0.0
  0
LINE
  5
572
330
2
100
AcDbEntity
  8
WAKU
 62
     1
100
AcDbLine
 10
-60.48642570923437
 20
-13.93337663635475
 30
0.0
 11
64.51357429076563
 21
-13.93337663635475
 31
0.0
  0
LINE
  5
573
330
2
100
AcDbEntity
  8
WAKU
 62
     1
100
AcDbLine
 10
-60.48642570923437
 20
-33.93337663635475
 30
0.0
 11
64.51357429076563
 21
-33.93337663635475
 31
0.0
  0
LINE
  5
574
330
2
100
AcDbEntity
  8
WAKU
 62
     4
100
AcDbLine
 10
64.51357429076563
 20
-3.933376636354751
 30
0.0
 11
-60.48642570923437
 21
-3.933376636354751
 31
0.0
  0
LINE
  5
575
330
2
100
AcDbEntity
  8
WAKU
 62
     4
100
AcDbLine
 10
-60.4864257092344
 20
-68.93337663635469
 30
0.0
 11
64.51357429076563
 21
-68.93337663635469
 31
0.0
  0
LINE
  5
576
330
2
100
AcDbEntity
  8
WAKU
 62
     1
100
AcDbLine
 10
-60.48642570923437
 20
-28.93337663635475
 30
0.0
 11
64.51357429076563
 21
-28.93337663635475
 31
0.0
  0
LINE
  5
577
330
2
100
AcDbEntity
  8
WAKU
 62
     1
100
AcDbLine
 10
-60.48642570923437
 20
-18.93337663635463
 30
0.0
 11
64.51357429076563
 21
-18.93337663635475
 31
0.0
  0
LINE
  5
578
330
2
100
AcDbEntity
  8
WAKU
 62
     1
100
AcDbLine
 10
-60.48642570923437
 20
-38.93337663635464
 30
0.0
 11
64.51357429076563
 21
-38.93337663635475
 31
0.0
  0
ENDSEC
  0
SECTION
  2
OBJECTS
  0
DICTIONARY
  5
7
330
0
100
AcDbDictionary
281
     1
  3
ACAD_COLOR
350
2C
  3
ACAD_GROUP
350
28
  3
ACAD_LAYOUT
350
B
  3
ACAD_MATERIAL
350
2B
  3
ACAD_MLINESTYLE
350
29
  3
ACAD_PLOTSETTINGS
350
2A
  3
ACAD_PLOTSTYLENAME
350
6
  3
ACDBHEADERROUNDTRIPXREC
350
5B5
  3
AcDbVariableDictionary
350
5B0
  0
DICTIONARY
  5
11
330
10
100
AcDbDictionary
280
     1
281
     1
  3
ACAD_LAYERSTATES
360
12
  0
DICTIONARY
  5
2C
102
{ACAD_REACTORS
330
7
102
}
330
7
100
AcDbDictionary
281
     1
  0
DICTIONARY
  5
28
102
{ACAD_REACTORS
330
7
102
}
330
7
100
AcDbDictionary
281
     1
  0
DICTIONARY
  5
B
102
{ACAD_REACTORS
330
7
102
}
330
7
100
AcDbDictionary
281
     1
  3
Model
350
A
  3
レイアウト1
350
F
  0
DICTIONARY
  5
2B
102
{ACAD_REACTORS
330
7
102
}
330
7
100
AcDbDictionary
281
     1
  0
DICTIONARY
  5
29
102
{ACAD_REACTORS
330
7
102
}
330
7
100
AcDbDictionary
281
     1
  3
Standard
350
2D
  0
DICTIONARY
  5
2A
102
{ACAD_REACTORS
330
7
102
}
330
7
100
AcDbDictionary
281
     1
  0
ACDBDICTIONARYWDFLT
  5
6
102
{ACAD_REACTORS
330
7
102
}
330
7
100
AcDbDictionary
281
     1
  3
Normal
350
5
100
AcDbDictionaryWithDefault
340
5
  0
DICTIONARY
  5
5B5
102
{ACAD_REACTORS
330
7
102
}
330
7
100
AcDbDictionary
281
     1
  3
COLORDICT
350
5B7
  3
MATERIALDICT
350
5B6
  0
DICTIONARY
  5
5B0
102
{ACAD_REACTORS
330
7
102
}
330
7
100
AcDbDictionary
281
     1
  3
DIMASSOC
350
5B2
  3
HIDETEXT
350
5B1
  3
PROJECTNAME
350
5B3
  0
DICTIONARY
  5
12
102
{ACAD_REACTORS
330
11
102
}
330
11
100
AcDbDictionary
281
     1
  0
LAYOUT
  5
A
102
{ACAD_XDICTIONARY
360
5B8
102
}
102
{ACAD_REACTORS
330
B
102
}
330
B
100
AcDbPlotSettings
  1

  2
Ａ４－縦3FRIM01.pc3
  4
A4
  6

 40
5.873749732971191
 41
5.873747825622558
 42
5.873748779296875
 43
5.873748779296875
 44
209.9733276367187
 45
296.9259948730469
 46
5.429999999999999
 47
0.0
 48
0.0
 49
0.0
140
0.0
141
0.0
142
1.0
143
1.382515366965649
 70
 11956
 72
     1
 73
     0
 74
     1
  7
tmsacad.ctb
 75
     0
147
0.7233192656619828
148
0.0256332569354072
149
0.0240599051811614
100
AcDbLayout
  1
Model
 70
     1
 71
     0
 10
0.0
 20
0.0
 11
12.0
 21
9.0
 12
0.0
 22
0.0
 32
0.0
 14
0.0
 24
0.0
 34
0.0
 15
0.0
 25
0.0
 35
0.0
146
0.0
 13
0.0
 23
0.0
 33
0.0
 16
1.0
 26
0.0
 36
0.0
 17
0.0
 27
1.0
 37
0.0
 76
     0
330
2
  0
LAYOUT
  5
F
102
{ACAD_XDICTIONARY
360
5BA
102
}
102
{ACAD_REACTORS
330
B
102
}
330
B
100
AcDbPlotSettings
  1

  2
None
  4

  6

 40
0.0
 41
0.0
 42
0.0
 43
0.0
 44
0.0
 45
0.0
 46
0.0
 47
0.0
 48
0.0
 49
0.0
140
0.0
141
0.0
142
1.0
143
1.0
 70
   688
 72
     0
 73
     0
 74
     5
  7
tmsacad.ctb
 75
    16
147
1.0
148
0.0
149
0.0
100
AcDbLayout
  1
レイアウト1
 70
     1
 71
     1
 10
0.0
 20
0.0
 11
12.0
 21
9.0
 12
0.0
 22
0.0
 32
0.0
 14
0.0
 24
0.0
 34
0.0
 15
0.0
 25
0.0
 35
0.0
146
0.0
 13
0.0
 23
0.0
 33
0.0
 16
1.0
 26
0.0
 36
0.0
 17
0.0
 27
1.0
 37
0.0
 76
     0
330
C
  0
MLINESTYLE
  5
2D
102
{ACAD_REACTORS
330
29
102
}
330
29
100
AcDbMlineStyle
  2
STANDARD
 70
     0
  3

 62
   256
 51
90.0
 52
90.0
 71
     2
 49
0.5
 62
   256
  6
BYLAYER
 49
-0.5
 62
   256
  6
BYLAYER
  0
ACDBPLACEHOLDER
  5
5
102
{ACAD_REACTORS
330
6
102
}
330
6
  0
XRECORD
  5
5B7
102
{ACAD_REACTORS
330
5B5
102
}
330
5B5
100
AcDbXrecord
280
     1
340
2C
  0
XRECORD
  5
5B6
102
{ACAD_REACTORS
330
5B5
102
}
330
5B5
100
AcDbXrecord
280
     1
340
2B
  0
DICTIONARYVAR
  5
5B2
102
{ACAD_REACTORS
330
5B0
102
}
330
5B0
100
DictionaryVariables
280
     0
  1
1
  0
DICTIONARYVAR
  5
5B1
102
{ACAD_REACTORS
330
5B0
102
}
330
5B0
100
DictionaryVariables
280
     0
  1
1
  0
DICTIONARYVAR
  5
5B3
102
{ACAD_REACTORS
330
5B0
102
}
330
5B0
100
DictionaryVariables
280
     0
  1

  0
DICTIONARY
  5
5B8
330
A
100
AcDbDictionary
280
     1
281
     1
  3
ACAD_XREC_ROUNDTRIP
360
5B9
  0
DICTIONARY
  5
5BA
330
F
100
AcDbDictionary
280
     1
281
     1
  3
ACAD_XREC_ROUNDTRIP
360
5BB
  0
XRECORD
  5
5B9
102
{ACAD_REACTORS
330
5B8
102
}
330
5B8
100
AcDbXrecord
280
     1
102
SHADEPLOT
 70
     0
102
SHADEPLOTRESLEVEL
 70
     2
102
SHADEPLOTCUSTOMDPI
 70
   300
  0
XRECORD
  5
5BB
102
{ACAD_REACTORS
330
5BA
102
}
330
5BA
100
AcDbXrecord
280
     1
102
SHADEPLOT
 70
     0
102
SHADEPLOTRESLEVEL
 70
     2
102
SHADEPLOTCUSTOMDPI
 70
   300
  0
ENDSEC
  0
EOF
