  0
SECTION
  2
HEADER
  9
$ACADVER
  1
AC1015
  9
$ACADMAINTVER
 70
    20
  9
$DWGCODEPAGE
  3
ANSI_932
  9
$INSBASE
 10
0.0
 20
246.4992141396417
 30
0.0
  9
$EXTMIN
 10
1.999999999999658
 20
131.499214139642
 30
0.0
  9
$EXTMAX
 10
126.9999999999996
 20
244.2325474729752
 30
0.0
  9
$LIMMIN
 10
-1101.784450318844
 20
-1579.160531687244
  9
$LIMMAX
 10
-508.2420711400536
 20
-1161.440814074914
  9
$ORTHOMODE
 70
     1
  9
$REGENMODE
 70
     1
  9
$FILLMODE
 70
     1
  9
$QTEXTMODE
 70
     0
  9
$MIRRTEXT
 70
     1
  9
$LTSCALE
 40
1.0
  9
$ATTMODE
 70
     1
  9
$TEXTSIZE
 40
3.0
  9
$TRACEWID
 40
0.5
  9
$TEXTSTYLE
  7
STANDARD
  9
$CLAYER
  8
SUNPO
  9
$CELTYPE
  6
BYLAYER
  9
$CECOLOR
 62
   256
  9
$CELTSCALE
 40
1.0
  9
$DISPSILH
 70
     0
  9
$DIMSCALE
 40
1.0
  9
$DIMASZ
 40
2.0
  9
$DIMEXO
 40
2.0
  9
$DIMDLI
 40
8.0
  9
$DIMRND
 40
0.0
  9
$DIMDLE
 40
0.0
  9
$DIMEXE
 40
2.0
  9
$DIMTP
 40
0.0
  9
$DIMTM
 40
0.0
  9
$DIMTXT
 40
2.5
  9
$DIMCEN
 40
0.0
  9
$DIMTSZ
 40
0.0
  9
$DIMTOL
 70
     0
  9
$DIMLIM
 70
     0
  9
$DIMTIH
 70
     0
  9
$DIMTOH
 70
     0
  9
$DIMSE1
 70
     0
  9
$DIMSE2
 70
     0
  9
$DIMTAD
 70
     3
  9
$DIMZIN
 70
     0
  9
$DIMBLK
  1

  9
$DIMASO
 70
     1
  9
$DIMSHO
 70
     1
  9
$DIMPOST
  1

  9
$DIMAPOST
  1

  9
$DIMALT
 70
     0
  9
$DIMALTD
 70
     2
  9
$DIMALTF
 40
25.4
  9
$DIMLFAC
 40
1.0
  9
$DIMTOFL
 70
     1
  9
$DIMTVP
 40
0.0
  9
$DIMTIX
 70
     0
  9
$DIMSOXD
 70
     0
  9
$DIMSAH
 70
     1
  9
$DIMBLK1
  1
OPEN30
  9
$DIMBLK2
  1
OPEN30
  9
$DIMSTYLE
  2
STANDARD
  9
$DIMCLRD
 70
     0
  9
$DIMCLRE
 70
     0
  9
$DIMCLRT
 70
     0
  9
$DIMTFAC
 40
1.0
  9
$DIMGAP
 40
0.5
  9
$DIMJUST
 70
     0
  9
$DIMSD1
 70
     0
  9
$DIMSD2
 70
     0
  9
$DIMTOLJ
 70
     1
  9
$DIMTZIN
 70
     0
  9
$DIMALTZ
 70
     0
  9
$DIMALTTZ
 70
     0
  9
$DIMUPT
 70
     0
  9
$DIMDEC
 70
     4
  9
$DIMTDEC
 70
     4
  9
$DIMALTU
 70
     2
  9
$DIMALTTD
 70
     2
  9
$DIMTXSTY
  7
STANDARD
  9
$DIMAUNIT
 70
     0
  9
$DIMADEC
 70
     0
  9
$DIMALTRND
 40
0.0
  9
$DIMAZIN
 70
     0
  9
$DIMDSEP
 70
    46
  9
$DIMATFIT
 70
     3
  9
$DIMFRAC
 70
     0
  9
$DIMLDRBLK
  1
OPEN30
  9
$DIMLUNIT
 70
     2
  9
$DIMLWD
 70
    -2
  9
$DIMLWE
 70
    -2
  9
$DIMTMOVE
 70
     0
  9
$LUNITS
 70
     2
  9
$LUPREC
 70
     4
  9
$SKETCHINC
 40
0.1
  9
$FILLETRAD
 40
0.0
  9
$AUNITS
 70
     0
  9
$AUPREC
 70
     0
  9
$MENU
  1
ACAD
  9
$ELEVATION
 40
0.0
  9
$PELEVATION
 40
0.0
  9
$THICKNESS
 40
0.0
  9
$LIMCHECK
 70
     0
  9
$CHAMFERA
 40
0.0
  9
$CHAMFERB
 40
0.0
  9
$CHAMFERC
 40
0.0
  9
$CHAMFERD
 40
0.0
  9
$SKPOLY
 70
     0
  9
$TDCREATE
 40
2451815.565532581
  9
$TDUCREATE
 40
2451815.190532581
  9
$TDUPDATE
 40
2454124.626094653
  9
$TDUUPDATE
 40
2454124.251094653
  9
$TDINDWG
 40
0.7336557176
  9
$TDUSRTIMER
 40
0.7336557176
  9
$USRTIMER
 70
     1
  9
$ANGBASE
 50
0.0
  9
$ANGDIR
 70
     0
  9
$PDMODE
 70
     0
  9
$PDSIZE
 40
0.0
  9
$PLINEWID
 40
0.0
  9
$SPLFRAME
 70
     0
  9
$SPLINETYPE
 70
     6
  9
$SPLINESEGS
 70
     8
  9
$HANDSEED
  5
1D1
  9
$SURFTAB1
 70
     6
  9
$SURFTAB2
 70
     6
  9
$SURFTYPE
 70
     6
  9
$SURFU
 70
     6
  9
$SURFV
 70
     6
  9
$UCSBASE
  2

  9
$UCSNAME
  2

  9
$UCSORG
 10
0.0
 20
0.0
 30
0.0
  9
$UCSXDIR
 10
1.0
 20
0.0
 30
0.0
  9
$UCSYDIR
 10
0.0
 20
1.0
 30
0.0
  9
$UCSORTHOREF
  2

  9
$UCSORTHOVIEW
 70
     0
  9
$UCSORGTOP
 10
0.0
 20
0.0
 30
0.0
  9
$UCSORGBOTTOM
 10
0.0
 20
0.0
 30
0.0
  9
$UCSORGLEFT
 10
0.0
 20
0.0
 30
0.0
  9
$UCSORGRIGHT
 10
0.0
 20
0.0
 30
0.0
  9
$UCSORGFRONT
 10
0.0
 20
0.0
 30
0.0
  9
$UCSORGBACK
 10
0.0
 20
0.0
 30
0.0
  9
$PUCSBASE
  2

  9
$PUCSNAME
  2

  9
$PUCSORG
 10
0.0
 20
0.0
 30
0.0
  9
$PUCSXDIR
 10
1.0
 20
0.0
 30
0.0
  9
$PUCSYDIR
 10
0.0
 20
1.0
 30
0.0
  9
$PUCSORTHOREF
  2

  9
$PUCSORTHOVIEW
 70
     0
  9
$PUCSORGTOP
 10
0.0
 20
0.0
 30
0.0
  9
$PUCSORGBOTTOM
 10
0.0
 20
0.0
 30
0.0
  9
$PUCSORGLEFT
 10
0.0
 20
0.0
 30
0.0
  9
$PUCSORGRIGHT
 10
0.0
 20
0.0
 30
0.0
  9
$PUCSORGFRONT
 10
0.0
 20
0.0
 30
0.0
  9
$PUCSORGBACK
 10
0.0
 20
0.0
 30
0.0
  9
$USERI1
 70
     0
  9
$USERI2
 70
     0
  9
$USERI3
 70
     0
  9
$USERI4
 70
     0
  9
$USERI5
 70
     0
  9
$USERR1
 40
0.0
  9
$USERR2
 40
0.0
  9
$USERR3
 40
0.0
  9
$USERR4
 40
0.0
  9
$USERR5
 40
0.0
  9
$WORLDVIEW
 70
     1
  9
$SHADEDGE
 70
     3
  9
$SHADEDIF
 70
    70
  9
$TILEMODE
 70
     1
  9
$MAXACTVP
 70
    48
  9
$PINSBASE
 10
0.0
 20
0.0
 30
0.0
  9
$PLIMCHECK
 70
     0
  9
$PEXTMIN
 10
1.000000000000000E+20
 20
1.000000000000000E+20
 30
1.000000000000000E+20
  9
$PEXTMAX
 10
-1.000000000000000E+20
 20
-1.000000000000000E+20
 30
-1.000000000000000E+20
  9
$PLIMMIN
 10
0.0
 20
0.0
  9
$PLIMMAX
 10
12.0
 20
9.0
  9
$UNITMODE
 70
     0
  9
$VISRETAIN
 70
     1
  9
$PLINEGEN
 70
     0
  9
$PSLTSCALE
 70
     1
  9
$TREEDEPTH
 70
  3020
  9
$CMLSTYLE
  2
STANDARD
  9
$CMLJUST
 70
     0
  9
$CMLSCALE
 40
1.0
  9
$PROXYGRAPHICS
 70
     1
  9
$MEASUREMENT
 70
     0
  9
$CELWEIGHT
370
    -1
  9
$ENDCAPS
280
     0
  9
$JOINSTYLE
280
     0
  9
$LWDISPLAY
290
     0
  9
$INSUNITS
 70
     0
  9
$HYPERLINKBASE
  1

  9
$STYLESHEET
  1

  9
$XEDIT
290
     1
  9
$CEPSNTYPE
380
     0
  9
$PSTYLEMODE
290
     1
  9
$FINGERPRINTGUID
  2
{1754B7AB-9B3C-11D4-AD9E-00104B1004F2}
  9
$VERSIONGUID
  2
{700BBF4E-C97E-49FC-9A18-88CD937C947C}
  9
$EXTNAMES
290
     1
  9
$PSVPSCALE
 40
0.0
  9
$OLESTARTUP
290
     0
  0
ENDSEC
  0
SECTION
  2
CLASSES
  0
CLASS
  1
ACDBDICTIONARYWDFLT
  2
AcDbDictionaryWithDefault
  3
ObjectDBX Classes
 90
        0
280
     0
281
     0
  0
CLASS
  1
ACDBPLACEHOLDER
  2
AcDbPlaceHolder
  3
ObjectDBX Classes
 90
        0
280
     0
281
     0
  0
CLASS
  1
LAYOUT
  2
AcDbLayout
  3
ObjectDBX Classes
 90
        0
280
     0
281
     0
  0
CLASS
  1
DICTIONARYVAR
  2
AcDbDictionaryVar
  3
ObjectDBX Classes
 90
        0
280
     0
281
     0
  0
CLASS
  1
SORTENTSTABLE
  2
AcDbSortentsTable
  3
ObjectDBX Classes
 90
    32768
280
     0
281
     0
  0
ENDSEC
  0
SECTION
  2
TABLES
  0
TABLE
  2
VPORT
  5
21
330
0
100
AcDbSymbolTable
 70
     3
  0
VPORT
  5
1C9
330
21
100
AcDbSymbolTableRecord
100
AcDbViewportTableRecord
  2
*Active
 70
     0
 10
0.0
 20
0.0
 11
1.0
 21
1.0
 12
62.99146932004338
 22
190.7360663308695
 13
0.0
 23
0.0
 14
1.0
 24
1.0
 15
0.0
 25
0.0
 16
0.0
 26
0.0
 36
1.0
 17
0.0
 27
0.0
 37
0.0
 40
131.9997708851516
 41
1.412451361867704
 42
50.0
 43
0.0
 44
0.0
 50
0.0
 51
0.0
 71
     0
 72
 10000
 73
     1
 74
     0
 75
     0
 76
     1
 77
     0
 78
     0
281
     0
 65
     1
110
0.0
120
0.0
130
0.0
111
1.0
121
0.0
131
0.0
112
0.0
122
1.0
132
0.0
 79
     0
146
0.0
  0
ENDTAB
  0
TABLE
  2
LTYPE
  5
1C
330
0
100
AcDbSymbolTable
 70
     1
  0
LTYPE
  5
1D
330
1C
100
AcDbSymbolTableRecord
100
AcDbLinetypeTableRecord
  2
BYBLOCK
 70
     0
  3

 72
    65
 73
     0
 40
0.0
  0
LTYPE
  5
1E
330
1C
100
AcDbSymbolTableRecord
100
AcDbLinetypeTableRecord
  2
BYLAYER
 70
     0
  3

 72
    65
 73
     0
 40
0.0
  0
LTYPE
  5
A
330
1C
100
AcDbSymbolTableRecord
100
AcDbLinetypeTableRecord
  2
CONTINUOUS
 70
     0
  3
Solid line
 72
    65
 73
     0
 40
0.0
  0
ENDTAB
  0
TABLE
  2
LAYER
  5
14
102
{ACAD_XDICTIONARY
360
15
102
}
330
0
100
AcDbSymbolTable
 70
     7
  0
LAYER
  5
6
330
14
100
AcDbSymbolTableRecord
100
AcDbLayerTableRecord
  2
0
 70
     0
 62
     7
  6
CONTINUOUS
370
    -3
390
7
  0
LAYER
  5
43
330
14
100
AcDbSymbolTableRecord
100
AcDbLayerTableRecord
  2
DEFPOINTS
 70
     0
 62
     7
  6
CONTINUOUS
290
     0
370
    -3
390
7
  0
LAYER
  5
18D
330
14
100
AcDbSymbolTableRecord
100
AcDbLayerTableRecord
  2
WAKU
 70
     0
 62
     4
  6
CONTINUOUS
370
    -3
390
7
  0
LAYER
  5
36
330
14
100
AcDbSymbolTableRecord
100
AcDbLayerTableRecord
  2
MOJI1
 70
     0
 62
     2
  6
CONTINUOUS
370
    -3
390
7
  0
LAYER
  5
55
330
14
100
AcDbSymbolTableRecord
100
AcDbLayerTableRecord
  2
GAIKEI
 70
     0
 62
     7
  6
CONTINUOUS
370
    -3
390
7
  0
LAYER
  5
33
330
14
100
AcDbSymbolTableRecord
100
AcDbLayerTableRecord
  2
SUNPO
 70
     0
 62
     3
  6
CONTINUOUS
370
    -3
390
7
  0
LAYER
  5
38
330
14
100
AcDbSymbolTableRecord
100
AcDbLayerTableRecord
  2
TOUROKU
 70
     0
 62
     1
  6
CONTINUOUS
370
    -3
390
7
  0
ENDTAB
  0
TABLE
  2
STYLE
  5
19
330
0
100
AcDbSymbolTable
 70
     2
  0
STYLE
  5
1A
330
19
100
AcDbSymbolTableRecord
100
AcDbTextStyleTableRecord
  2
STANDARD
 70
     0
 40
0.0
 41
1.0
 50
0.0
 71
     0
 42
3.0
  3
MONOTXT.shx
  4
BIGFONT.shx
  0
STYLE
  5
189
330
19
100
AcDbSymbolTableRecord
100
AcDbTextStyleTableRecord
  2
KANJI
 70
     0
 40
0.0
 41
1.0
 50
0.0
 71
     0
 42
3.5
  3
MONOTXT
  4
BIGFONT
  0
ENDTAB
  0
TABLE
  2
VIEW
  5
1F
330
0
100
AcDbSymbolTable
 70
     0
  0
ENDTAB
  0
TABLE
  2
UCS
  5
20
330
0
100
AcDbSymbolTable
 70
     0
  0
ENDTAB
  0
TABLE
  2
APPID
  5
23
330
0
100
AcDbSymbolTable
 70
     2
  0
APPID
  5
24
330
23
100
AcDbSymbolTableRecord
100
AcDbRegAppTableRecord
  2
ACAD
 70
     0
  0
APPID
  5
1AF
330
23
100
AcDbSymbolTableRecord
100
AcDbRegAppTableRecord
  2
DCO15
 70
     0
  0
ENDTAB
  0
TABLE
  2
DIMSTYLE
  5
25
330
0
100
AcDbSymbolTable
 70
     1
100
AcDbDimStyleTable
 71
     1
340
26
  0
DIMSTYLE
105
26
102
{ACAD_REACTORS
330
47
330
39
102
}
330
25
100
AcDbSymbolTableRecord
100
AcDbDimStyleTableRecord
  2
STANDARD
 70
     0
 40
0.0
 41
2.0
 42
2.0
 43
8.0
 44
2.0
 73
     0
 74
     0
 77
     3
140
3.0
141
0.0
173
     1
279
     2
288
     1
340
1A
341
27
343
27
344
27
  0
ENDTAB
  0
TABLE
  2
BLOCK_RECORD
  5
1
330
0
100
AcDbSymbolTable
 70
     3
  0
BLOCK_RECORD
  5
2
102
{ACAD_XDICTIONARY
360
3
102
}
330
1
100
AcDbSymbolTableRecord
100
AcDbBlockTableRecord
  2
*MODEL_SPACE
340
C
  0
BLOCK_RECORD
  5
E
102
{ACAD_XDICTIONARY
360
F
102
}
330
1
100
AcDbSymbolTableRecord
100
AcDbBlockTableRecord
  2
*PAPER_SPACE
340
13
  0
BLOCK_RECORD
  5
27
330
1
100
AcDbSymbolTableRecord
100
AcDbBlockTableRecord
  2
_OPEN30
340
0
102
{BLKREFS
331
3F
331
40
331
4D
331
4E
102
}
  0
BLOCK_RECORD
  5
48
330
1
100
AcDbSymbolTableRecord
100
AcDbBlockTableRecord
  2
*D1
340
0
  0
BLOCK_RECORD
  5
3A
330
1
100
AcDbSymbolTableRecord
100
AcDbBlockTableRecord
  2
*D2
340
0
  0
ENDTAB
  0
ENDSEC
  0
SECTION
  2
BLOCKS
  0
BLOCK
  5
5
330
2
100
AcDbEntity
  8
0
100
AcDbBlockBegin
  2
*MODEL_SPACE
 70
     0
 10
0.0
 20
0.0
 30
0.0
  3
*MODEL_SPACE
  1

  0
ENDBLK
  5
B
330
2
100
AcDbEntity
  8
0
100
AcDbBlockEnd
  0
BLOCK
  5
11
330
E
100
AcDbEntity
 67
     1
  8
0
100
AcDbBlockBegin
  2
*PAPER_SPACE
 70
     0
 10
0.0
 20
0.0
 30
0.0
  3
*PAPER_SPACE
  1

  0
ENDBLK
  5
12
330
E
100
AcDbEntity
 67
     1
  8
0
100
AcDbBlockEnd
  0
BLOCK
  5
28
330
27
100
AcDbEntity
  8
0
100
AcDbBlockBegin
  2
_OPEN30
 70
     0
 10
0.0
 20
0.0
 30
0.0
  3
_OPEN30
  1

  0
LINE
  5
29
330
27
100
AcDbEntity
  8
0
  6
ByBlock
 62
     0
100
AcDbLine
 10
-1.0
 20
0.26794919
 30
0.0
 11
0.0
 21
0.0
 31
0.0
  0
LINE
  5
2A
330
27
100
AcDbEntity
  8
0
  6
ByBlock
 62
     0
100
AcDbLine
 10
0.0
 20
0.0
 30
0.0
 11
-1.0
 21
-0.26794919
 31
0.0
  0
LINE
  5
2B
330
27
100
AcDbEntity
  8
0
  6
ByBlock
 62
     0
100
AcDbLine
 10
0.0
 20
0.0
 30
0.0
 11
-1.0
 21
0.0
 31
0.0
  0
ENDBLK
  5
2C
330
27
100
AcDbEntity
  8
0
100
AcDbBlockEnd
  0
BLOCK
  5
49
330
48
100
AcDbEntity
  8
0
100
AcDbBlockBegin
  2
*D1
 70
     1
 10
0.0
 20
0.0
 30
0.0
  3
*D1
  1

  0
LINE
  5
4A
330
48
100
AcDbEntity
  8
SUNPO
 62
     0
370
    -2
100
AcDbLine
 10
28.73901058386131
 20
219.1035529704237
 30
0.0
 11
28.73901058386131
 21
227.1035529704237
 31
0.0
  0
LINE
  5
4B
330
48
100
AcDbEntity
  8
SUNPO
 62
     0
370
    -2
100
AcDbLine
 10
53.03901058386131
 20
219.1035529704237
 30
0.0
 11
53.03901058386131
 21
227.1035529704237
 31
0.0
  0
LINE
  5
4C
330
48
100
AcDbEntity
  8
SUNPO
 62
     0
370
    -2
100
AcDbLine
 10
30.73901058386131
 20
225.1035529704237
 30
0.0
 11
51.03901058386131
 21
225.1035529704237
 31
0.0
  0
INSERT
  5
4D
330
48
100
AcDbEntity
  8
SUNPO
 62
     0
370
    -2
100
AcDbBlockReference
  2
_OPEN30
 10
28.73901058386131
 20
225.1035529704237
 30
0.0
 41
2.0
 42
2.0
 43
2.0
 50
180.0
  0
INSERT
  5
4E
330
48
100
AcDbEntity
  8
SUNPO
 62
     0
370
    -2
100
AcDbBlockReference
  2
_OPEN30
 10
53.03901058386131
 20
225.1035529704237
 30
0.0
 41
2.0
 42
2.0
 43
2.0
  0
MTEXT
  5
4F
330
48
100
AcDbEntity
  8
SUNPO
 62
     0
100
AcDbMText
 10
40.8890105838613
 20
226.8535529704237
 30
0.0
 40
2.5
 41
0.0
 71
     5
 72
     1
  1
\A1;φ122
 73
     1
 44
1.0
1001
ACAD
1000
MTEXTBEGIN
1070
    73
1070
     1
1070
    44
1040
1.0
1070
    74
1070
     0
1000
MTEXTEND
  0
POINT
  5
50
330
48
100
AcDbEntity
  8
DEFPOINTS
 62
     0
100
AcDbPoint
 10
28.73901058386131
 20
217.1035529704237
 30
0.0
  0
POINT
  5
51
330
48
100
AcDbEntity
  8
DEFPOINTS
 62
     0
100
AcDbPoint
 10
53.03901058386131
 20
217.1035529704237
 30
0.0
  0
POINT
  5
52
330
48
100
AcDbEntity
  8
DEFPOINTS
 62
     0
100
AcDbPoint
 10
53.03901058386131
 20
225.1035529704237
 30
0.0
  0
ENDBLK
  5
53
330
48
100
AcDbEntity
  8
0
100
AcDbBlockEnd
  0
BLOCK
  5
3B
330
3A
100
AcDbEntity
  8
0
100
AcDbBlockBegin
  2
*D2
 70
     1
 10
0.0
 20
0.0
 30
0.0
  3
*D2
  1

  0
LINE
  5
3C
330
3A
100
AcDbEntity
  8
SUNPO
 62
     0
370
    -2
100
AcDbLine
 10
68.27557845455874
 20
219.1035529704237
 30
0.0
 11
68.27557845455874
 21
227.1035529704237
 31
0.0
  0
LINE
  5
3D
330
3A
100
AcDbEntity
  8
SUNPO
 62
     0
370
    -2
100
AcDbLine
 10
95.41557845455875
 20
219.1035529704237
 30
0.0
 11
95.41557845455875
 21
227.1035529704237
 31
0.0
  0
LINE
  5
3E
330
3A
100
AcDbEntity
  8
SUNPO
 62
     0
370
    -2
100
AcDbLine
 10
70.27557845455874
 20
225.1035529704237
 30
0.0
 11
93.41557845455875
 21
225.1035529704237
 31
0.0
  0
INSERT
  5
3F
330
3A
100
AcDbEntity
  8
SUNPO
 62
     0
370
    -2
100
AcDbBlockReference
  2
_OPEN30
 10
68.27557845455874
 20
225.1035529704237
 30
0.0
 41
2.0
 42
2.0
 43
2.0
 50
180.0
  0
INSERT
  5
40
330
3A
100
AcDbEntity
  8
SUNPO
 62
     0
370
    -2
100
AcDbBlockReference
  2
_OPEN30
 10
95.41557845455875
 20
225.1035529704237
 30
0.0
 41
2.0
 42
2.0
 43
2.0
  0
MTEXT
  5
41
330
3A
100
AcDbEntity
  8
SUNPO
 62
     0
100
AcDbMText
 10
81.84557845455875
 20
226.8535529704237
 30
0.0
 40
2.5
 41
0.0
 71
     5
 72
     1
  1
\A1;136
 73
     1
 44
1.0
1001
ACAD
1000
MTEXTBEGIN
1070
    73
1070
     1
1070
    44
1040
1.0
1070
    74
1070
     0
1000
MTEXTEND
  0
POINT
  5
42
330
3A
100
AcDbEntity
  8
DEFPOINTS
 62
     0
100
AcDbPoint
 10
68.27557845455874
 20
217.1035529704237
 30
0.0
  0
POINT
  5
44
330
3A
100
AcDbEntity
  8
DEFPOINTS
 62
     0
100
AcDbPoint
 10
95.41557845455875
 20
217.1035529704237
 30
0.0
  0
POINT
  5
45
330
3A
100
AcDbEntity
  8
DEFPOINTS
 62
     0
100
AcDbPoint
 10
95.41557845455875
 20
225.1035529704237
 30
0.0
  0
ENDBLK
  5
46
330
3A
100
AcDbEntity
  8
0
100
AcDbBlockEnd
  0
ENDSEC
  0
SECTION
  2
ENTITIES
  0
TEXT
  5
35
330
2
100
AcDbEntity
  8
MOJI1
100
AcDbText
 10
28.99999999999966
 20
240.4992141396419
 30
0.0
 40
4.0
  1
ネットワークカメラ
100
AcDbText
  0
TEXT
  5
37
330
2
100
AcDbEntity
  8
TOUROKU
100
AcDbText
 10
106.1999500329274
 20
234.4992141396418
 30
0.0
 40
2.0
  1
ＤＧＮＦ２８２ＷＤ
 72
     2
 11
126.9999500329274
 21
234.4992141396418
 31
0.0
100
AcDbText
  0
DIMENSION
  5
39
330
2
100
AcDbEntity
  8
SUNPO
100
AcDbDimension
  2
*D2
 10
95.41557845455875
 20
225.1035529704237
 30
0.0
 11
81.84557845455875
 21
226.8535529704237
 31
0.0
 70
     1
  1
136
 71
     5
 42
27.14000000000002
  3
STANDARD
100
AcDbAlignedDimension
 13
68.27557845455874
 23
217.1035529704237
 33
0.0
 14
95.41557845455875
 24
217.1035529704237
 34
0.0
1001
ACAD
1000
DSTYLE
1002
{
1070
    40
1040
1.0
1070
   140
1040
2.5
1070
   147
1040
0.5
1070
   172
1070
     1
1070
   279
1070
     0
1070
   288
1070
     0
1002
}
  0
DIMENSION
  5
47
330
2
100
AcDbEntity
  8
SUNPO
100
AcDbDimension
  2
*D1
 10
53.03901058386131
 20
225.1035529704237
 30
0.0
 11
40.8890105838613
 21
226.8535529704237
 31
0.0
 70
     1
  1
φ122
 71
     5
 42
24.3
  3
STANDARD
100
AcDbAlignedDimension
 13
28.73901058386131
 23
217.1035529704237
 33
0.0
 14
53.03901058386131
 24
217.1035529704237
 34
0.0
1001
ACAD
1000
DSTYLE
1002
{
1070
    40
1040
1.0
1070
   140
1040
2.5
1070
   147
1040
0.5
1070
   172
1070
     1
1070
   279
1070
     0
1070
   288
1070
     0
1002
}
  0
LINE
  5
54
330
2
100
AcDbEntity
  8
GAIKEI
  6
Continuous
 62
     1
100
AcDbLine
 10
52.39730360248128
 20
196.7307152432222
 30
0.0
 11
50.98317086118129
 21
195.0454174683622
 31
0.0
  0
LINE
  5
56
330
2
100
AcDbEntity
  8
GAIKEI
  6
Continuous
 62
     1
100
AcDbLine
 10
50.6644274005813
 20
195.4434157175222
 30
0.0
 11
50.37570160376128
 21
195.0993257118822
 31
0.0
  0
LINE
  5
57
330
2
100
AcDbEntity
  8
GAIKEI
  6
Continuous
 62
     1
100
AcDbLine
 10
52.23872841678129
 20
197.3195946093822
 30
0.0
 11
51.95000261996128
 21
196.9755046037622
 31
0.0
  0
LINE
  5
58
330
2
100
AcDbEntity
  8
GAIKEI
  6
Continuous
 62
     1
100
AcDbLine
 10
50.20480073472128
 20
195.8290882833422
 30
0.0
 11
49.9160749379013
 21
195.4849982777022
 31
0.0
  0
LINE
  5
59
330
2
100
AcDbEntity
  8
GAIKEI
  6
Continuous
 62
     1
100
AcDbLine
 10
51.7791017509013
 20
197.7052671752022
 30
0.0
 11
51.49037595408128
 21
197.3611771695622
 31
0.0
  0
LINE
  5
5A
330
2
100
AcDbEntity
  8
GAIKEI
  6
Continuous
 62
     1
100
AcDbLine
 10
50.20507771074131
 20
210.2145354620422
 30
0.0
 11
50.1050776850413
 21
210.3877405863622
 31
0.0
  0
LINE
  5
5B
330
2
100
AcDbEntity
  8
GAIKEI
  6
Continuous
 62
     1
100
AcDbLine
 10
51.3507972330213
 20
196.5665752045222
 30
0.0
 11
51.3507972330213
 21
196.3665752045222
 31
0.0
  0
LINE
  5
5C
330
2
100
AcDbEntity
  8
GAIKEI
  6
Continuous
 62
     1
100
AcDbLine
 10
51.1007972330213
 20
196.3265752045222
 30
0.0
 11
51.1007972330213
 21
196.1165752045222
 31
0.0
  0
LINE
  5
5D
330
2
100
AcDbEntity
  8
GAIKEI
  6
Continuous
 62
     1
100
AcDbLine
 10
51.1007972330213
 20
196.8165752045222
 30
0.0
 11
51.1007972330213
 21
196.6065752045222
 31
0.0
  0
LINE
  5
5E
330
2
100
AcDbEntity
  8
GAIKEI
  6
Continuous
 62
     1
100
AcDbLine
 10
50.90079723302131
 20
196.6065752045222
 30
0.0
 11
50.90079723302131
 21
196.8165752045222
 31
0.0
  0
LINE
  5
5F
330
2
100
AcDbEntity
  8
GAIKEI
  6
Continuous
 62
     1
100
AcDbLine
 10
50.90079723302131
 20
196.1165752045222
 30
0.0
 11
50.90079723302131
 21
196.3265752045222
 31
0.0
  0
LINE
  5
60
330
2
100
AcDbEntity
  8
GAIKEI
  6
Continuous
 62
     1
100
AcDbLine
 10
50.6507972330213
 20
196.3665752045222
 30
0.0
 11
50.6507972330213
 21
196.5665752045222
 31
0.0
  0
LINE
  5
61
330
2
100
AcDbEntity
  8
GAIKEI
  6
Continuous
 62
     1
100
AcDbLine
 10
46.95839818932128
 20
194.4472623800422
 30
0.0
 11
46.95011694344128
 21
194.4244793278622
 31
0.0
  0
LINE
  5
62
330
2
100
AcDbEntity
  8
GAIKEI
  6
Continuous
 62
     1
100
AcDbLine
 10
49.43396062292129
 20
196.3398905753422
 30
0.0
 11
49.43423851090128
 21
196.3451260322022
 31
0.0
  0
LINE
  5
63
330
2
100
AcDbEntity
  8
GAIKEI
  6
Continuous
 62
     1
100
AcDbLine
 10
36.58232506536129
 20
194.7719735221422
 30
0.0
 11
36.76019604620129
 21
195.0800550981422
 31
0.0
  0
LINE
  5
64
330
2
100
AcDbEntity
  8
GAIKEI
  6
Continuous
 62
     1
100
AcDbLine
 10
36.81060878964129
 20
195.1673725311022
 30
0.0
 11
36.76024427228128
 21
195.0801386281422
 31
0.0
  0
LINE
  5
65
330
2
100
AcDbEntity
  8
GAIKEI
  6
Continuous
 62
     1
100
AcDbLine
 10
36.3935253735813
 20
215.0483967511822
 30
0.0
 11
36.57856957772128
 21
214.6327806638822
 31
0.0
  0
LINE
  5
66
330
2
100
AcDbEntity
  8
GAIKEI
  6
Continuous
 62
     1
100
AcDbLine
 10
36.04146737764128
 20
214.8903081103022
 30
0.0
 11
36.2460583201613
 21
214.4708345149022
 31
0.0
  0
LINE
  5
67
330
2
100
AcDbEntity
  8
GAIKEI
  6
Continuous
 62
     1
100
AcDbLine
 10
36.66231285012128
 20
214.6722268754422
 30
0.0
 11
36.43474737032131
 21
215.0663818485022
 31
0.0
  0
LINE
  5
68
330
2
100
AcDbEntity
  8
GAIKEI
  6
Continuous
 62
     1
100
AcDbLine
 10
52.23872841678129
 20
197.3195946093822
 30
0.0
 11
51.7791017509013
 21
197.7052671752022
 31
0.0
  0
LINE
  5
69
330
2
100
AcDbEntity
  8
GAIKEI
  6
Continuous
 62
     1
100
AcDbLine
 10
52.11202748644129
 20
197.1685983204822
 30
0.0
 11
51.65240082056129
 21
197.5542708862822
 31
0.0
  0
LINE
  5
6A
330
2
100
AcDbEntity
  8
GAIKEI
  6
Continuous
 62
     1
100
AcDbLine
 10
35.2506701239013
 20
195.9281407278422
 30
0.0
 11
35.27680524004129
 21
195.9699656566222
 31
0.0
  0
LINE
  5
6B
330
2
100
AcDbEntity
  8
GAIKEI
  6
Continuous
 62
     1
100
AcDbLine
 10
36.53819731812129
 20
195.2415815451422
 30
0.0
 11
36.33050239584128
 21
194.8818433872822
 31
0.0
  0
LINE
  5
6C
330
2
100
AcDbEntity
  8
GAIKEI
  6
Continuous
 62
     1
100
AcDbLine
 10
36.12907898992131
 20
195.4354559727822
 30
0.0
 11
35.92146520966131
 21
195.0758583570222
 31
0.0
  0
LINE
  5
6D
330
2
100
AcDbEntity
  8
GAIKEI
  6
Continuous
 62
     1
100
AcDbLine
 10
35.56905781390128
 20
195.7369431609622
 30
0.0
 11
35.59166451358129
 21
195.7760991133822
 31
0.0
  0
LINE
  5
6E
330
2
100
AcDbEntity
  8
GAIKEI
  6
Continuous
 62
     1
100
AcDbLine
 10
35.89389177000129
 20
195.5569195016222
 30
0.0
 11
35.91592522104128
 21
195.5983583961222
 31
0.0
  0
LINE
  5
6F
330
2
100
AcDbEntity
  8
GAIKEI
  6
Continuous
 62
     1
100
AcDbLine
 10
36.22483887096129
 20
195.3884024716622
 30
0.0
 11
36.2460583201613
 21
195.4319087898422
 31
0.0
  0
LINE
  5
70
330
2
100
AcDbEntity
  8
GAIKEI
  6
Continuous
 62
     1
100
AcDbLine
 10
36.56134497298129
 20
195.2312755452022
 30
0.0
 11
36.57856957772128
 21
195.2699626408622
 31
0.0
  0
LINE
  5
71
330
2
100
AcDbEntity
  8
GAIKEI
  6
Continuous
 62
     1
100
AcDbLine
 10
40.9890105838613
 20
193.8951132922422
 30
0.0
 11
40.9890105838613
 21
194.3518433609822
 31
0.0
  0
LINE
  5
72
330
2
100
AcDbEntity
  8
GAIKEI
  6
Continuous
 62
     1
100
AcDbLine
 10
40.78901058386128
 20
193.8951132922422
 30
0.0
 11
40.78901058386128
 21
194.3518433609822
 31
0.0
  0
LINE
  5
73
330
2
100
AcDbEntity
  8
GAIKEI
  6
Continuous
 62
     1
100
AcDbLine
 10
35.02795166202128
 20
213.8315511728022
 30
0.0
 11
34.82034373310131
 21
214.1911386537622
 31
0.0
  0
LINE
  5
74
330
2
100
AcDbEntity
  8
GAIKEI
  6
Continuous
 62
     1
100
AcDbLine
 10
34.65549231844131
 20
213.5741815212422
 30
0.0
 11
34.44779166078129
 21
213.9339296130622
 31
0.0
  0
LINE
  5
75
330
2
100
AcDbEntity
  8
GAIKEI
  6
Continuous
 62
     1
100
AcDbLine
 10
34.45501969134131
 20
213.3753707736422
 30
0.0
 11
34.4046396717813
 21
213.4626315272022
 31
0.0
  0
LINE
  5
76
330
2
100
AcDbEntity
  8
GAIKEI
  6
Continuous
 62
     1
100
AcDbLine
 10
34.22673066886131
 20
213.7707789594022
 30
0.0
 11
34.40460694792131
 21
213.4626882066022
 31
0.0
  0
LINE
  5
77
330
2
100
AcDbEntity
  8
GAIKEI
  6
Continuous
 62
     1
100
AcDbLine
 10
51.0307492882213
 20
197.7468497353822
 30
0.0
 11
50.78873651738129
 21
197.9499225621222
 31
0.0
  0
LINE
  5
78
330
2
100
AcDbEntity
  8
GAIKEI
  6
Continuous
 62
     1
100
AcDbLine
 10
51.95000261996128
 20
196.9755046037622
 30
0.0
 11
51.49037595408128
 21
197.3611771695622
 31
0.0
  0
LINE
  5
79
330
2
100
AcDbEntity
  8
GAIKEI
  6
Continuous
 62
     7
100
AcDbLine
 10
29.3955820266213
 20
208.8913716523822
 30
0.0
 11
29.41884127386129
 21
208.8913716523822
 31
0.0
  0
LINE
  5
7A
330
2
100
AcDbEntity
  8
GAIKEI
  6
Continuous
 62
     7
100
AcDbLine
 10
29.3485383231413
 20
208.7513716523822
 30
0.0
 11
29.37594997322128
 21
208.7513716523822
 31
0.0
  0
LINE
  5
7B
330
2
100
AcDbEntity
  8
GAIKEI
  6
Continuous
 62
     7
100
AcDbLine
 10
29.3128517960613
 20
208.5513716523822
 30
0.0
 11
29.3107014814413
 21
208.5513716523822
 31
0.0
  0
LINE
  5
7C
330
2
100
AcDbEntity
  8
GAIKEI
  6
Continuous
 62
     1
100
AcDbLine
 10
34.39246637846128
 20
196.0096456625222
 30
0.0
 11
34.66387642734128
 21
196.3832095468422
 31
0.0
  0
LINE
  5
7D
330
2
100
AcDbEntity
  8
GAIKEI
  6
Continuous
 62
     1
100
AcDbLine
 10
34.7054174829413
 20
195.7838178758222
 30
0.0
 11
34.96180070840131
 21
196.1639216388422
 31
0.0
  0
LINE
  5
7E
330
2
100
AcDbEntity
  8
GAIKEI
  6
Continuous
 62
     1
100
AcDbLine
 10
34.9422087196613
 20
196.1283819330222
 30
0.0
 11
34.7331969010813
 21
195.7663628438622
 31
0.0
  0
LINE
  5
7F
330
2
100
AcDbEntity
  8
GAIKEI
  6
Continuous
 62
     1
100
AcDbLine
 10
34.35628084682131
 20
196.0363518357422
 30
0.0
 11
34.58385188104131
 21
196.4305164293222
 31
0.0
  0
LINE
  5
80
330
2
100
AcDbEntity
  8
GAIKEI
  6
Continuous
 62
     1
100
AcDbLine
 10
50.6644274005813
 20
195.4434157175222
 30
0.0
 11
50.20480073472128
 21
195.8290882833422
 31
0.0
  0
LINE
  5
81
330
2
100
AcDbEntity
  8
GAIKEI
  6
Continuous
 62
     1
100
AcDbLine
 10
49.50316129802129
 20
196.4178336758822
 30
0.0
 11
49.74517406884129
 21
196.2147608491422
 31
0.0
  0
LINE
  5
82
330
2
100
AcDbEntity
  8
GAIKEI
  6
Continuous
 62
     1
100
AcDbLine
 10
50.50240253410129
 20
195.2503220008022
 30
0.0
 11
50.0427758682413
 21
195.6359945666222
 31
0.0
  0
LINE
  5
83
330
2
100
AcDbEntity
  8
GAIKEI
  6
Continuous
 62
     1
100
AcDbLine
 10
50.37570160376128
 20
195.0993257118822
 30
0.0
 11
49.9160749379013
 21
195.4849982777022
 31
0.0
  0
LINE
  5
84
330
2
100
AcDbEntity
  8
GAIKEI
  6
Continuous
 62
     1
100
AcDbLine
 10
31.75954981538129
 20
210.3377383384422
 30
0.0
 11
31.3640145041613
 21
210.5661007568622
 31
0.0
  0
LINE
  5
85
330
2
100
AcDbEntity
  8
GAIKEI
  6
Continuous
 62
     1
100
AcDbLine
 10
31.6595498153813
 20
210.1645332577022
 30
0.0
 11
31.26400566722129
 21
210.3929007781022
 31
0.0
  0
LINE
  5
86
330
2
100
AcDbEntity
  8
GAIKEI
  6
Continuous
 62
     1
100
AcDbLine
 10
50.1184713523213
 20
210.1645332577022
 30
0.0
 11
50.51401550048129
 21
210.3929007781022
 31
0.0
  0
LINE
  5
87
330
2
100
AcDbEntity
  8
GAIKEI
  6
Continuous
 62
     1
100
AcDbLine
 10
50.01847132342129
 20
210.3377383874622
 30
0.0
 11
50.4140066486213
 21
210.5661007806022
 31
0.0
  0
LINE
  5
88
330
2
100
AcDbEntity
  8
GAIKEI
  6
Continuous
 62
     1
100
AcDbLine
 10
51.88103684762129
 20
203.7960631379022
 30
0.0
 11
51.42351141442128
 21
203.8441509986822
 31
0.0
  0
LINE
  5
89
330
2
100
AcDbEntity
  8
GAIKEI
  6
Continuous
 62
     1
100
AcDbLine
 10
51.9201486118013
 20
204.1799993379822
 30
0.0
 11
51.45486552232132
 21
204.2125351010622
 31
0.0
  0
LINE
  5
8A
330
2
100
AcDbEntity
  8
GAIKEI
  6
Continuous
 62
     1
100
AcDbLine
 10
51.40140327058128
 20
206.3113716523822
 30
0.0
 11
51.50217279750129
 21
206.3113716523822
 31
0.0
  0
LINE
  5
8B
330
2
100
AcDbEntity
  8
GAIKEI
  6
Continuous
 62
     1
100
AcDbLine
 10
51.85797316980128
 20
206.3113716523822
 30
0.0
 11
51.50222875744129
 21
206.3113716523822
 31
0.0
  0
LINE
  5
8C
330
2
100
AcDbEntity
  8
GAIKEI
  6
Continuous
 62
     1
100
AcDbLine
 10
51.47334211500129
 20
206.0383518907422
 30
0.0
 11
51.8887357577413
 21
206.0383518907422
 31
0.0
  0
LINE
  5
8D
330
2
100
AcDbEntity
  8
GAIKEI
  6
Continuous
 62
     1
100
AcDbLine
 10
51.51000109962129
 20
205.5871078115422
 30
0.0
 11
51.92522362792129
 21
205.5871078115422
 31
0.0
  0
LINE
  5
8E
330
2
100
AcDbEntity
  8
GAIKEI
  6
Continuous
 62
     1
100
AcDbLine
 10
51.52252801868129
 20
204.5800410411422
 30
0.0
 11
51.4794596256213
 21
204.5815450225823
 31
0.0
  0
LINE
  5
8F
330
2
100
AcDbEntity
  8
GAIKEI
  6
Continuous
 62
     1
100
AcDbLine
 10
51.52891612374128
 20
204.9513716523823
 30
0.0
 11
51.4794596256213
 21
204.9513716523823
 31
0.0
  0
LINE
  5
90
330
2
100
AcDbEntity
  8
GAIKEI
  6
Continuous
 62
     7
100
AcDbLine
 10
28.7725980669413
 20
204.5513716523822
 30
0.0
 11
28.7705436151613
 21
204.5513716523822
 31
0.0
  0
LINE
  5
91
330
2
100
AcDbEntity
  8
GAIKEI
  6
Continuous
 62
     7
100
AcDbLine
 10
28.77989874206131
 20
204.3513716523822
 30
0.0
 11
28.75383444174131
 21
204.3513716523822
 31
0.0
  0
LINE
  5
92
330
2
100
AcDbEntity
  8
GAIKEI
  6
Continuous
 62
     1
100
AcDbLine
 10
51.5033447502413
 20
204.2127850264022
 30
0.0
 11
51.9213753341013
 21
204.2127850264022
 31
0.0
  0
LINE
  5
93
330
2
100
AcDbEntity
  8
GAIKEI
  6
Continuous
 62
     7
100
AcDbLine
 10
28.78360749266131
 20
204.2113716523823
 30
0.0
 11
28.76156650028131
 21
204.2113716523823
 31
0.0
  0
LINE
  5
94
330
2
100
AcDbEntity
  8
GAIKEI
  6
Continuous
 62
     1
100
AcDbLine
 10
51.42086702040129
 20
203.7513716523822
 30
0.0
 11
51.8760012203613
 21
203.7513716523822
 31
0.0
  0
LINE
  5
95
330
2
100
AcDbEntity
  8
GAIKEI
  6
Continuous
 62
     1
100
AcDbLine
 10
51.5224042079613
 20
205.3226979400422
 30
0.0
 11
51.4794596256213
 21
205.3211982821823
 31
0.0
  0
LINE
  5
96
330
2
100
AcDbEntity
  8
GAIKEI
  6
Continuous
 62
     1
100
AcDbLine
 10
51.50287068640131
 20
205.6935650517622
 30
0.0
 11
51.45486552232132
 21
205.6902082036822
 31
0.0
  0
LINE
  5
97
330
2
100
AcDbEntity
  8
GAIKEI
  6
Continuous
 62
     1
100
AcDbLine
 10
51.47072244330129
 20
206.0635543851622
 30
0.0
 11
51.42351141442128
 21
206.0585923060822
 31
0.0
  0
LINE
  5
98
330
2
100
AcDbEntity
  8
GAIKEI
  6
Continuous
 62
     1
100
AcDbLine
 10
31.69026472292129
 20
210.3777401052222
 30
0.0
 11
31.59026472292129
 21
210.2045350244623
 31
0.0
  0
LINE
  5
99
330
2
100
AcDbEntity
  8
GAIKEI
  6
Continuous
 62
     1
100
AcDbLine
 10
50.90079723302131
 20
196.8165752045222
 30
0.0
 11
51.1007972330213
 21
196.8165752045222
 31
0.0
  0
LINE
  5
9A
330
2
100
AcDbEntity
  8
GAIKEI
  6
Continuous
 62
     1
100
AcDbLine
 10
51.14079723302129
 20
196.5665752045222
 30
0.0
 11
51.3507972330213
 21
196.5665752045222
 31
0.0
  0
LINE
  5
9B
330
2
100
AcDbEntity
  8
GAIKEI
  6
Continuous
 62
     1
100
AcDbLine
 10
50.6507972330213
 20
196.5665752045222
 30
0.0
 11
50.86079723302129
 21
196.5665752045222
 31
0.0
  0
LINE
  5
9C
330
2
100
AcDbEntity
  8
GAIKEI
  6
Continuous
 62
     1
100
AcDbLine
 10
50.86079723302129
 20
196.3665752045222
 30
0.0
 11
50.6507972330213
 21
196.3665752045222
 31
0.0
  0
LINE
  5
9D
330
2
100
AcDbEntity
  8
GAIKEI
  6
Continuous
 62
     1
100
AcDbLine
 10
51.3507972330213
 20
196.3665752045222
 30
0.0
 11
51.14079723302129
 21
196.3665752045222
 31
0.0
  0
LINE
  5
9E
330
2
100
AcDbEntity
  8
GAIKEI
  6
Continuous
 62
     1
100
AcDbLine
 10
51.1007972330213
 20
196.1165752045222
 30
0.0
 11
50.90079723302131
 21
196.1165752045222
 31
0.0
  0
LINE
  5
9F
330
2
100
AcDbEntity
  8
GAIKEI
  6
Continuous
 62
     1
100
AcDbLine
 10
40.78901058386128
 20
194.2518389523022
 30
0.0
 11
40.9890105838613
 21
194.2518389523022
 31
0.0
  0
ARC
  5
A0
330
2
100
AcDbEntity
  8
GAIKEI
  6
Continuous
 62
     1
100
AcDbCircle
 10
51.25996072250129
 20
196.2633938967622
 30
0.0
 40
0.025
100
AcDbArc
 50
0.0
 51
180.0
  0
ARC
  5
A1
330
2
100
AcDbEntity
  8
GAIKEI
  6
Continuous
 62
     1
100
AcDbCircle
 10
51.25996072250129
 20
196.2633938967622
 30
0.0
 40
0.025
100
AcDbArc
 50
180.0
 51
0.0
  0
ARC
  5
A2
330
2
100
AcDbEntity
  8
GAIKEI
  6
Continuous
 62
     1
100
AcDbCircle
 10
40.8890105838613
 20
204.9513716523823
 30
0.0
 40
10.7
100
AcDbArc
 50
7.30220630889993
 51
29.46451762969943
  0
ARC
  5
A3
330
2
100
AcDbEntity
  8
GAIKEI
  6
Continuous
 62
     1
100
AcDbCircle
 10
40.8890105838613
 20
204.9513716523823
 30
0.0
 40
10.7
100
AcDbArc
 50
30.5354826410994
 51
113.5607584057994
  0
ARC
  5
A4
330
2
100
AcDbEntity
  8
GAIKEI
  6
Continuous
 62
     1
100
AcDbCircle
 10
40.8890105838613
 20
204.9513716523823
 30
0.0
 40
10.7
100
AcDbArc
 50
270.535482370301
 51
353.5607584058013
  0
ARC
  5
A5
330
2
100
AcDbEntity
  8
GAIKEI
  6
Continuous
 62
     1
100
AcDbCircle
 10
40.8890105838613
 20
204.9513716523823
 30
0.0
 40
10.7
100
AcDbArc
 50
247.3022063089013
 51
269.4645176296991
  0
ARC
  5
A6
330
2
100
AcDbEntity
  8
GAIKEI
  6
Continuous
 62
     1
100
AcDbCircle
 10
40.8890105838613
 20
204.9513716523823
 30
0.0
 40
10.7
100
AcDbArc
 50
127.3022063088991
 51
149.4645176296995
  0
ARC
  5
A7
330
2
100
AcDbEntity
  8
GAIKEI
  6
Continuous
 62
     1
100
AcDbCircle
 10
40.8890105838613
 20
204.9513716523823
 30
0.0
 40
10.7
100
AcDbArc
 50
150.5354823703005
 51
233.5607584058004
  0
ARC
  5
A8
330
2
100
AcDbEntity
  8
GAIKEI
  6
Continuous
 62
     1
100
AcDbCircle
 10
40.8890105838613
 20
204.9513716523823
 30
0.0
 40
10.64
100
AcDbArc
 50
116.0195530278998
 51
127.3436104917005
  0
ARC
  5
A9
330
2
100
AcDbEntity
  8
GAIKEI
  6
Continuous
 62
     1
100
AcDbCircle
 10
40.8890105838613
 20
204.9513716523823
 30
0.0
 40
10.64
100
AcDbArc
 50
236.0195530279014
 51
247.343610491702
  0
ARC
  5
AA
330
2
100
AcDbEntity
  8
GAIKEI
  6
Continuous
 62
     1
100
AcDbCircle
 10
40.8890105838613
 20
204.9513716523823
 30
0.0
 40
10.64
100
AcDbArc
 50
356.0195530279018
 51
7.343610491700329
  0
ARC
  5
AB
330
2
100
AcDbEntity
  8
GAIKEI
  6
Continuous
 62
     1
100
AcDbCircle
 10
40.8890105838613
 20
204.9513716523823
 30
0.0
 40
10.7
100
AcDbArc
 50
29.46451762969943
 51
30.5354826410994
  0
ARC
  5
AC
330
2
100
AcDbEntity
  8
GAIKEI
  6
Continuous
 62
     1
100
AcDbCircle
 10
40.8890105838613
 20
204.9513716523823
 30
0.0
 40
10.68
100
AcDbArc
 50
149.4635148245009
 51
150.5364851754994
  0
ARC
  5
AD
330
2
100
AcDbEntity
  8
GAIKEI
  6
Continuous
 62
     1
100
AcDbCircle
 10
40.8890105838613
 20
204.9513716523823
 30
0.0
 40
10.7
100
AcDbArc
 50
269.4645176296991
 51
270.535482370301
  0
ARC
  5
AE
330
2
100
AcDbEntity
  8
GAIKEI
  6
Continuous
 62
     7
100
AcDbCircle
 10
40.8890105838613
 20
204.9513716523823
 30
0.0
 40
12.12506666666
100
AcDbArc
 50
162.7281602288995
 51
181.8905026671008
  0
ARC
  5
AF
330
2
100
AcDbEntity
  8
GAIKEI
  6
Continuous
 62
     7
100
AcDbCircle
 10
40.8890105838613
 20
204.9513716523823
 30
0.0
 40
12.12301333334
100
AcDbArc
 50
162.7251428321001
 51
181.8908229869007
  0
ARC
  5
B0
330
2
100
AcDbEntity
  8
GAIKEI
  6
Continuous
 62
     7
100
AcDbCircle
 10
40.8890105838613
 20
204.9513716523823
 30
0.0
 40
12.13152
100
AcDbArc
 50
300.0197851858021
 51
314.7778134304997
  0
ARC
  5
B1
330
2
100
AcDbEntity
  8
GAIKEI
  6
Continuous
 62
     7
100
AcDbCircle
 10
40.8890105838613
 20
204.9513716523823
 30
0.0
 40
12.128
100
AcDbArc
 50
314.7961666948015
 51
325.2038333052003
  0
ARC
  5
B2
330
2
100
AcDbEntity
  8
GAIKEI
  6
Continuous
 62
     7
100
AcDbCircle
 10
40.8890105838613
 20
204.9513716523823
 30
0.0
 40
12.15
100
AcDbArc
 50
183.4917805372007
 51
298.989166927501
  0
ARC
  5
B3
330
2
100
AcDbEntity
  8
GAIKEI
  6
Continuous
 62
     7
100
AcDbCircle
 10
40.8890105838613
 20
204.9513716523823
 30
0.0
 40
12.15
100
AcDbArc
 50
326.2499502866011
 51
161.0780502491
  0
ARC
  5
B4
330
2
100
AcDbEntity
  8
GAIKEI
  6
Continuous
 62
     7
100
AcDbCircle
 10
40.8890105838613
 20
204.9513716523823
 30
0.0
 40
12.15
100
AcDbArc
 50
161.7745289238991
 51
182.8305724703004
  0
ARC
  5
B5
330
2
100
AcDbEntity
  8
GAIKEI
  6
Continuous
 62
     1
100
AcDbCircle
 10
50.37033530668129
 20
195.5596475561222
 30
0.0
 40
0.8
100
AcDbArc
 50
140.0000000000031
 51
320.0000000000034
  0
ARC
  5
B6
330
2
100
AcDbEntity
  8
GAIKEI
  6
Continuous
 62
     1
100
AcDbCircle
 10
51.78446804798131
 20
197.2449453309822
 30
0.0
 40
0.8
100
AcDbArc
 50
320.0000000000031
 51
140.0000000000034
  0
ARC
  5
B7
330
2
100
AcDbEntity
  8
GAIKEI
  6
Continuous
 62
     1
100
AcDbCircle
 10
49.68089530788128
 20
196.1381564048422
 30
0.0
 40
0.0999999999998
100
AcDbArc
 50
319.9999999999881
 51
49.99999999998824
  0
ARC
  5
B8
330
2
100
AcDbEntity
  8
GAIKEI
  6
Continuous
 62
     1
100
AcDbCircle
 10
51.09502804918128
 20
197.8234541797022
 30
0.0
 40
0.1
100
AcDbArc
 50
230.0000000000598
 51
320.0000000000648
  0
ARC
  5
B9
330
2
100
AcDbEntity
  8
GAIKEI
  6
Continuous
 62
     1
100
AcDbCircle
 10
51.14079723302129
 20
196.3265752045222
 30
0.0
 40
0.04
100
AcDbArc
 50
90.0
 51
180.0
  0
ARC
  5
BA
330
2
100
AcDbEntity
  8
GAIKEI
  6
Continuous
 62
     1
100
AcDbCircle
 10
51.14079723302129
 20
196.6065752045222
 30
0.0
 40
0.04
100
AcDbArc
 50
180.0
 51
270.0
  0
ARC
  5
BB
330
2
100
AcDbEntity
  8
GAIKEI
  6
Continuous
 62
     1
100
AcDbCircle
 10
50.86079723302129
 20
196.3265752045222
 30
0.0
 40
0.04
100
AcDbArc
 50
0.0
 51
90.0
  0
ARC
  5
BC
330
2
100
AcDbEntity
  8
GAIKEI
  6
Continuous
 62
     1
100
AcDbCircle
 10
50.86079723302129
 20
196.6065752045222
 30
0.0
 40
0.04
100
AcDbArc
 50
270.0
 51
0.0
  0
CIRCLE
  5
BD
330
2
100
AcDbEntity
  8
GAIKEI
  6
Continuous
 62
     1
100
AcDbCircle
 10
40.8890105838613
 20
204.9513716523823
 30
0.0
 40
10.09007433052
  0
CIRCLE
  5
BE
330
2
100
AcDbEntity
  8
GAIKEI
  6
Continuous
 62
     1
100
AcDbCircle
 10
40.8890105838613
 20
204.9513716523823
 30
0.0
 40
10.2841142217
  0
CIRCLE
  5
BF
330
2
100
AcDbEntity
  8
GAIKEI
  6
Continuous
 62
     1
100
AcDbCircle
 10
40.8890105838613
 20
204.9513716523823
 30
0.0
 40
10.6
  0
CIRCLE
  5
C0
330
2
100
AcDbEntity
  8
GAIKEI
  6
Continuous
 62
     1
100
AcDbCircle
 10
40.8890105838613
 20
204.9513716523823
 30
0.0
 40
11.65
  0
CIRCLE
  5
C1
330
2
100
AcDbEntity
  8
GAIKEI
  6
Continuous
 62
     1
100
AcDbCircle
 10
40.8890105838613
 20
204.9513716523823
 30
0.0
 40
11.95
  0
CIRCLE
  5
C2
330
2
100
AcDbEntity
  8
GAIKEI
  6
Continuous
 62
     1
100
AcDbCircle
 10
40.8890105838613
 20
204.9513716523823
 30
0.0
 40
11.06
  0
CIRCLE
  5
C3
330
2
100
AcDbEntity
  8
GAIKEI
  6
Continuous
 62
     1
100
AcDbCircle
 10
51.0007972330213
 20
196.4665752045222
 30
0.0
 40
0.6072529474800002
  0
CIRCLE
  5
C4
330
2
100
AcDbEntity
  8
GAIKEI
  6
Continuous
 62
     1
100
AcDbCircle
 10
51.0007972330213
 20
196.4665752045222
 30
0.0
 40
0.63
  0
SPLINE
  5
C5
330
2
100
AcDbEntity
  8
GAIKEI
  6
Continuous
 62
     1
100
AcDbSpline
210
0.0
220
0.0
230
1.0
 70
     8
 71
     3
 72
    11
 73
     7
 74
     5
 42
0.0000000001
 43
0.0000000001
 44
0.00000000001
 40
0.0
 40
0.0
 40
0.0
 40
0.0
 40
0.1055690124373729
 40
0.2140251888790233
 40
0.3369171853223399
 40
0.4626963457624928
 40
0.4626963457624928
 40
0.4626963457624928
 40
0.4626963457624928
 10
36.37183056916132
 20
214.5342475334622
 30
0.0
 10
36.35701983849991
 20
214.5661686109687
 30
0.0
 10
36.32699332452523
 20
214.6308837625536
 30
0.0
 10
36.27972481677759
 20
214.7327575315828
 30
0.0
 10
36.2296201016616
 20
214.8407418874052
 30
0.0
 10
36.19473079004697
 20
214.9159319929025
 30
0.0
 10
36.17708359534123
 20
214.9539635381022
 30
0.0
 11
36.37183056916132
 21
214.5342475334622
 31
0.0
 11
36.32739823078151
 21
214.6300106980565
 31
0.0
 11
36.28175000928653
 21
214.7283925159025
 31
0.0
 11
36.23002494352207
 21
214.8398687930268
 31
0.0
 11
36.17708359534123
 21
214.9539635381022
 31
0.0
  0
SPLINE
  5
C6
330
2
100
AcDbEntity
  8
GAIKEI
  6
Continuous
 62
     1
100
AcDbSpline
210
0.0
220
0.0
230
1.0
 70
     8
 71
     3
 72
    11
 73
     7
 74
     5
 42
0.0000000001
 43
0.0000000001
 44
0.00000000001
 40
0.0
 40
0.0
 40
0.0
 40
0.0
 40
0.1042349638167233
 40
0.2113913969730893
 40
0.3331551768071528
 40
0.4578404259732436
 40
0.4578404259732436
 40
0.4578404259732436
 40
0.4578404259732436
 10
36.4505423368613
 20
214.5739331993823
 30
0.0
 10
36.43579823250052
 20
214.605394692886
 30
0.0
 10
36.40589678001456
 20
214.6691994741138
 30
0.0
 10
36.35877269289422
 20
214.769756951074
 30
0.0
 10
36.3087567202744
 20
214.8764873722387
 30
0.0
 10
36.27389846049815
 20
214.95087467658
 30
0.0
 10
36.25626272128128
 20
214.9885092317422
 30
0.0
 11
36.4505423368613
 21
214.5739331993823
 31
0.0
 11
36.40631016761023
 21
214.6683177472978
 31
0.0
 11
36.36083897915611
 21
214.7653480115836
 31
0.0
 11
36.30917016827263
 21
214.8756056737271
 31
0.0
 11
36.25626272128128
 21
214.9885092317422
 31
0.0
  0
SPLINE
  5
C7
330
2
100
AcDbEntity
  8
GAIKEI
  6
Continuous
 62
     1
100
AcDbSpline
210
0.0
220
0.0
230
1.0
 70
     8
 71
     3
 72
     9
 73
     5
 74
     3
 42
0.0000000001
 43
0.0000000001
 44
0.00000000001
 40
0.0
 40
0.0
 40
0.0
 40
0.0
 40
0.0233108624623555
 40
0.0466217249245537
 40
0.0466217249245537
 40
0.0466217249245537
 40
0.0466217249245537
 10
36.70932932048123
 20
195.2174190467223
 30
0.0
 10
36.70630693650011
 20
195.2102606556524
 30
0.0
 10
36.70026216853788
 20
195.1959438735129
 30
0.0
 10
36.6942173653668
 20
195.1816271062391
 30
0.0
 10
36.69119496378127
 20
195.1744687226022
 30
0.0
 11
36.70932932048123
 21
195.2174190467223
 31
0.0
 11
36.70026215973564
 21
195.1959438772293
 31
0.0
 11
36.69119496378127
 21
195.1744687226022
 31
0.0
  0
SPLINE
  5
C8
330
2
100
AcDbEntity
  8
GAIKEI
  6
Continuous
 62
     1
100
AcDbSpline
210
0.0
220
0.0
230
1.0
 70
    24
 71
     3
 72
     9
 73
     5
 74
     3
 42
0.0000000001
 43
0.0000000001
 44
0.00000000001
 40
0.0
 40
0.0
 40
0.0
 40
0.0
 40
0.0020559978524092
 40
0.0041119957048073
 40
0.0041119957048073
 40
0.0041119957048073
 40
0.0041119957048073
 10
36.77380902292128
 20
195.1440126044223
 30
0.0
 10
36.77354003571461
 20
195.1433822658789
 30
0.0
 10
36.77300206130126
 20
195.1421215887922
 30
0.0
 10
36.77246408688795
 20
195.1408609117056
 30
0.0
 10
36.77219509968129
 20
195.1402305731623
 30
0.0
 11
36.77380902292128
 21
195.1440126044223
 31
0.0
 11
36.77300206130127
 21
195.1421215887923
 31
0.0
 11
36.77219509968129
 21
195.1402305731623
 31
0.0
  0
SPLINE
  5
C9
330
2
100
AcDbEntity
  8
GAIKEI
  6
Continuous
 62
     1
100
AcDbSpline
210
0.0
220
0.0
230
1.0
 70
    24
 71
     3
 72
     9
 73
     5
 74
     3
 42
0.0000000001
 43
0.0000000001
 44
0.00000000001
 40
0.0
 40
0.0
 40
0.0
 40
0.0
 40
0.0179646519019992
 40
0.0359293038039239
 40
0.0359293038039239
 40
0.0359293038039239
 40
0.0359293038039239
 10
36.78791101422127
 20
195.1770587647622
 30
0.0
 10
36.78556068233792
 20
195.1715510713722
 30
0.0
 10
36.78086001857125
 20
195.1605356845922
 30
0.0
 10
36.7761593548046
 20
195.1495202978122
 30
0.0
 10
36.77380902292128
 20
195.1440126044223
 30
0.0
 11
36.78791101422127
 21
195.1770587647622
 31
0.0
 11
36.78086001857125
 21
195.1605356845922
 31
0.0
 11
36.77380902292128
 21
195.1440126044223
 31
0.0
  0
SPLINE
  5
CA
330
2
100
AcDbEntity
  8
GAIKEI
  6
Continuous
 62
     1
100
AcDbSpline
210
0.0
220
0.0
230
1.0
 70
     8
 71
     3
 72
     9
 73
     5
 74
     3
 42
0.0000000001
 43
0.0000000001
 44
0.00000000001
 40
0.0
 40
0.0
 40
0.0
 40
0.0
 40
0.0227932783365903
 40
0.0455865566731002
 40
0.0455865566731002
 40
0.0455865566731002
 40
0.0455865566731002
 10
36.37183056692126
 20
195.3684957724422
 30
0.0
 10
36.36863281332753
 20
195.3616037248113
 30
0.0
 10
36.36223730614005
 20
195.3478196295497
 30
0.0
 10
36.35584176575418
 20
195.3340355496914
 30
0.0
 10
36.35264399556124
 20
195.3271435097622
 30
0.0
 11
36.37183056692126
 21
195.3684957724422
 31
0.0
 11
36.36223729784044
 21
195.3478196334005
 31
0.0
 11
36.35264399556124
 21
195.3271435097622
 31
0.0
  0
SPLINE
  5
CB
330
2
100
AcDbEntity
  8
GAIKEI
  6
Continuous
 62
     1
100
AcDbSpline
210
0.0
220
0.0
230
1.0
 70
     8
 71
     3
 72
     9
 73
     5
 74
     3
 42
0.0000000001
 43
0.0000000001
 44
0.00000000001
 40
0.0
 40
0.0
 40
0.0
 40
0.0
 40
0.0214702183006894
 40
0.042940436601281
 40
0.042940436601281
 40
0.042940436601281
 40
0.042940436601281
 10
36.45054233478129
 20
195.3288101064222
 30
0.0
 10
36.44750534643969
 20
195.3223297035695
 30
0.0
 10
36.44143136975652
 20
195.3093688978642
 30
0.0
 10
36.43535742221303
 20
195.2964080785029
 30
0.0
 10
36.43232044844129
 20
195.2899276688222
 30
0.0
 11
36.45054233478129
 21
195.3288101064222
 31
0.0
 11
36.44143137704143
 21
195.3093688944502
 31
0.0
 11
36.43232044844129
 21
195.2899276688222
 31
0.0
  0
SPLINE
  5
CC
330
2
100
AcDbEntity
  8
GAIKEI
  6
Continuous
 62
     1
100
AcDbSpline
210
0.0
220
0.0
230
1.0
 70
     8
 71
     3
 72
     9
 73
     5
 74
     3
 42
0.0000000001
 43
0.0000000001
 44
0.00000000001
 40
0.0
 40
0.0
 40
0.0
 40
0.0
 40
0.0245368377267306
 40
0.0490736754534423
 40
0.0490736754534423
 40
0.0490736754534423
 40
0.0490736754534423
 10
36.04165821752125
 20
195.5349651520022
 30
0.0
 10
36.03795902385638
 20
195.5276705565774
 30
0.0
 10
36.03056063652666
 20
195.5130813657279
 30
0.0
 10
36.02316221142976
 20
195.4984921940308
 30
0.0
 10
36.0194629988813
 20
195.4911976081822
 30
0.0
 11
36.04165821752125
 21
195.5349651520022
 31
0.0
 11
36.03056062708487
 21
195.513081370516
 31
0.0
 11
36.0194629988813
 21
195.4911976081822
 31
0.0
  0
SPLINE
  5
CD
330
2
100
AcDbEntity
  8
GAIKEI
  6
Continuous
 62
     1
100
AcDbSpline
210
0.0
220
0.0
230
1.0
 70
     8
 71
     3
 72
     9
 73
     5
 74
     3
 42
0.0000000001
 43
0.0000000001
 44
0.00000000001
 40
0.0
 40
0.0
 40
0.0
 40
0.0
 40
0.0247296757216607
 40
0.0494593514433126
 40
0.0494593514433126
 40
0.0494593514433126
 40
0.0494593514433126
 10
36.12035042644127
 20
195.4952893793221
 30
0.0
 10
36.11659401474935
 20
195.4879517956894
 30
0.0
 10
36.10908119136553
 20
195.473276628424
 30
0.0
 10
36.10156840582934
 20
195.4586014417827
 30
0.0
 10
36.09781201306126
 20
195.4512638484622
 30
0.0
 11
36.12035042644127
 21
195.4952893793221
 31
0.0
 11
36.10908120082743
 21
195.47327662358
 31
0.0
 11
36.09781201306126
 21
195.4512638484622
 31
0.0
  0
SPLINE
  5
CE
330
2
100
AcDbEntity
  8
GAIKEI
  6
Continuous
 62
     1
100
AcDbSpline
210
0.0
220
0.0
230
1.0
 70
     8
 71
     3
 72
     9
 73
     5
 74
     3
 42
0.0000000001
 43
0.0000000001
 44
0.00000000001
 40
0.0
 40
0.0
 40
0.0
 40
0.0
 40
0.0201154490849279
 40
0.0402308981698247
 40
0.0402308981698247
 40
0.0402308981698247
 40
0.0402308981698247
 10
35.71173337968128
 20
195.7021698011023
 30
0.0
 10
35.70849389803703
 20
195.696299128985
 30
0.0
 10
35.70201493474856
 20
195.6845577847504
 30
0.0
 10
35.69553594654369
 20
195.672816454265
 30
0.0
 10
35.69229645244124
 20
195.6669457890222
 30
0.0
 11
35.71173337968128
 21
195.7021698011023
 31
0.0
 11
35.70201492851945
 21
195.6845577881877
 31
0.0
 11
35.69229645244124
 21
195.6669457890222
 31
0.0
  0
SPLINE
  5
CF
330
2
100
AcDbEntity
  8
GAIKEI
  6
Continuous
 62
     1
100
AcDbSpline
210
0.0
220
0.0
230
1.0
 70
     8
 71
     3
 72
     9
 73
     5
 74
     3
 42
0.0000000001
 43
0.0000000001
 44
0.00000000001
 40
0.0
 40
0.0
 40
0.0
 40
0.0
 40
0.0215083090535285
 40
0.0430166181070255
 40
0.0430166181070255
 40
0.0430166181070255
 40
0.0430166181070255
 10
35.79008646588131
 20
195.6618049794022
 30
0.0
 10
35.78659864861225
 20
195.655541118908
 30
0.0
 10
35.77962301407416
 20
195.6430133979195
 30
0.0
 10
35.77264740778557
 20
195.6304856612013
 30
0.0
 10
35.76915960464129
 20
195.6242217928422
 30
0.0
 11
35.79008646588131
 21
195.6618049794022
 31
0.0
 11
35.77962302113653
 21
195.6430133939871
 31
0.0
 11
35.76915960464129
 21
195.6242217928422
 31
0.0
  0
SPLINE
  5
D0
330
2
100
AcDbEntity
  8
GAIKEI
  6
Continuous
 62
     7
100
AcDbSpline
210
0.0
220
0.0
230
1.0
 70
     8
 71
     3
 72
    23
 73
    19
 74
    17
 42
0.0000000001
 43
0.0000000001
 44
0.00000000001
 40
0.0
 40
0.0
 40
0.0
 40
0.0
 40
0.0038208706993546
 40
0.0077700416473585
 40
0.0135217748117557
 40
0.0194486325730113
 40
0.0280238771878592
 40
0.036665062585185
 40
0.0478742248740801
 40
0.0590925836231405
 40
0.0724652838956648
 40
0.0858258930317822
 40
0.1006506798718616
 40
0.1149881725436307
 40
0.1326024933658928
 40
0.1508198050917714
 40
0.1749277642800777
 40
0.2001135239381214
 40
0.2001135239381214
 40
0.2001135239381214
 40
0.2001135239381214
 10
28.77586136492124
 20
204.3513716523822
 30
0.0
 10
28.77602485367982
 20
204.3526359596987
 30
0.0
 10
28.77635732095312
 20
204.3552070282525
 30
0.0
 10
28.77637598955013
 20
204.3597216098149
 30
0.0
 10
28.77623225546757
 20
204.3649267249224
 30
0.0
 10
28.77614920523676
 20
204.3716783743938
 30
0.0
 10
28.77601899109008
 20
204.3793914403718
 30
0.0
 10
28.77578703693544
 20
204.3888639620666
 30
0.0
 10
28.77549331781899
 20
204.3992159974158
 30
0.0
 10
28.77514417496433
 20
204.4111443094
 30
0.0
 10
28.77475493405907
 20
204.423788877111
 30
0.0
 10
28.77431363273993
 20
204.4376345473634
 30
0.0
 10
28.77385106300302
 20
204.4518012943084
 30
0.0
 10
28.7733367403724
 20
204.4673850096116
 30
0.0
 10
28.77278015339538
 20
204.4840987865856
 30
0.0
 10
28.7721140406842
 20
204.5040675435133
 30
0.0
 10
28.77136441720703
 20
204.5265587316501
 30
0.0
 10
28.77082117514781
 20
204.5429809886649
 30
0.0
 10
28.77054361516128
 20
204.5513716523823
 30
0.0
 11
28.77586136492124
 21
204.3513716523822
 31
0.0
 11
28.7762740306506
 21
204.3551701731334
 31
0.0
 11
28.7763564948537
 21
204.3591184830037
 31
0.0
 11
28.77624830431427
 21
204.3648691985419
 31
0.0
 11
28.77615636860921
 21
204.3707953432202
 31
0.0
 11
28.77600854052878
 21
204.3793693135411
 31
0.0
 11
28.77580312488129
 21
204.3880080570541
 31
0.0
 11
28.77549173149276
 21
204.3992128932142
 31
0.0
 11
28.77516260746273
 21
204.4104264230062
 31
0.0
 11
28.77475238398276
 21
204.4237928297513
 31
0.0
 11
28.77432753889741
 21
204.4371466824965
 31
0.0
 11
28.77384487918832
 21
204.4519636101287
 31
0.0
 11
28.77337213369134
 21
204.466293306839
 31
0.0
 11
28.77278667985022
 21
204.4838978954973
 31
0.0
 11
28.77217957714831
 21
204.5021050883844
 31
0.0
 11
28.77137736582998
 21
204.5261996967694
 31
0.0
 11
28.77054361516128
 21
204.5513716523823
 31
0.0
  0
SPLINE
  5
D1
330
2
100
AcDbEntity
  8
GAIKEI
  6
Continuous
 62
     7
100
AcDbSpline
210
0.0
220
0.0
230
1.0
 70
     8
 71
     3
 72
    23
 73
    19
 74
    17
 42
0.0000000001
 43
0.0000000001
 44
0.00000000001
 40
0.0
 40
0.0
 40
0.0
 40
0.0
 40
0.0271240826062171
 40
0.0530732035692732
 40
0.0725070044088149
 40
0.091279452533753
 40
0.1063272272296374
 40
0.1218890863175205
 40
0.1356805391658512
 40
0.1494668178315382
 40
0.160868374390155
 40
0.1722641745551424
 40
0.1809978007933151
 40
0.1896777549029814
 40
0.1956460062225402
 40
0.2014333933201911
 40
0.2053554353289246
 40
0.2091386775340841
 40
0.2091386775340841
 40
0.2091386775340841
 40
0.2091386775340841
 10
29.3107014814413
 20
208.5513716523823
 30
0.0
 10
29.31338696401279
 20
208.5600049826835
 30
0.0
 10
29.31864159935908
 20
208.5768976644824
 30
0.0
 10
29.32583176641676
 20
208.5999723728518
 30
0.0
 10
29.33219733693192
 20
208.6203881267535
 30
0.0
 10
29.33748211944991
 20
208.6373345479326
 30
0.0
 10
29.34237981858794
 20
208.6530497314214
 30
0.0
 10
29.34677991579443
 20
208.6671808982221
 30
0.0
 10
29.35104553195145
 20
208.6809135259485
 30
0.0
 10
29.35488717990138
 20
208.6933257091459
 30
0.0
 10
29.35847629549518
 20
208.7049801307661
 30
0.0
 10
29.36156237482478
 20
208.7150271325934
 30
0.0
 10
29.36434703302179
 20
208.7242178442669
 30
0.0
 10
29.36654884083352
 20
208.7316939982625
 30
0.0
 10
29.36844574260085
 20
208.7382374360286
 30
0.0
 10
29.36998380823244
 20
208.7432294284659
 30
0.0
 10
29.37117257930739
 20
208.7475750864601
 30
0.0
 10
29.37152803748887
 20
208.750121419941
 30
0.0
 10
29.37170256504126
 20
208.7513716523822
 30
0.0
 11
29.3107014814413
 21
208.5513716523823
 31
0.0
 11
29.31876011694519
 21
208.5772709622388
 31
0.0
 11
29.32647869031914
 21
208.6020455561573
 31
0.0
 11
29.33226311606151
 21
208.6205985352685
 31
0.0
 11
29.33785114597688
 21
208.638519995317
 31
0.0
 11
29.34232823400851
 21
208.652886317256
 31
0.0
 11
29.34695355029004
 21
208.6677449143488
 31
0.0
 11
29.35104381410972
 21
208.6809158639559
 31
0.0
 11
29.35511882083776
 21
208.6940861258977
 31
0.0
 11
29.35847553373762
 21
208.7049823624254
 31
0.0
 11
29.36181508579009
 21
208.7158778501836
 31
0.0
 11
29.36434131147525
 21
208.7242381379212
 31
0.0
 11
29.36679728209336
 21
208.732563389369
 31
0.0
 11
29.36847853570927
 21
208.7382899424415
 31
0.0
 11
29.37013231083017
 21
208.7438360110732
 31
0.0
 11
29.37110101521742
 21
208.7476365406848
 31
0.0
 11
29.37170256504126
 21
208.7513716523822
 31
0.0
  0
SPLINE
  5
D2
330
2
100
AcDbEntity
  8
GAIKEI
  6
Continuous
 62
     1
100
AcDbSpline
210
0.0
220
0.0
230
1.0
 70
     8
 71
     3
 72
     9
 73
     5
 74
     3
 42
0.0000000001
 43
0.0000000001
 44
0.00000000001
 40
0.0
 40
0.0
 40
0.0
 40
0.0
 40
0.0245983177327721
 40
0.0491966354656002
 40
0.0491966354656002
 40
0.0491966354656002
 40
0.0491966354656002
 10
35.39668128658124
 20
195.8961550541822
 30
0.0
 10
35.39247173760927
 20
195.889118684282
 30
0.0
 10
35.3840526396653
 20
195.8750459444816
 30
0.0
 10
35.37563350516928
 20
195.8609732265486
 30
0.0
 10
35.37142393792127
 20
195.8539368675821
 30
0.0
 11
35.39668128658124
 21
195.8961550541822
 31
0.0
 11
35.38405263052729
 21
195.8750459499484
 31
0.0
 11
35.37142393792127
 21
195.8539368675821
 31
0.0
  0
SPLINE
  5
D3
330
2
100
AcDbEntity
  8
GAIKEI
  6
Continuous
 62
     1
100
AcDbSpline
210
0.0
220
0.0
230
1.0
 70
     8
 71
     3
 72
     9
 73
     5
 74
     3
 42
0.0000000001
 43
0.0000000001
 44
0.00000000001
 40
0.0
 40
0.0
 40
0.0
 40
0.0
 40
0.0241735978809017
 40
0.0483471957617537
 40
0.0483471957617537
 40
0.0483471957617537
 40
0.0483471957617537
 10
35.47172727606128
 20
195.8499473947022
 30
0.0
 10
35.46756394265769
 20
195.8430484195026
 30
0.0
 10
35.45923727585055
 20
195.8292504691033
 30
0.0
 10
35.45091064391102
 20
195.8154524976626
 30
0.0
 10
35.44674732794127
 20
195.8085535119422
 30
0.0
 11
35.47172727606128
 21
195.8499473947022
 31
0.0
 11
35.45923728456745
 21
195.829250463843
 31
0.0
 11
35.44674732794127
 21
195.8085535119422
 31
0.0
  0
SPLINE
  5
D4
330
2
100
AcDbEntity
  8
GAIKEI
  6
Continuous
 62
     1
100
AcDbSpline
210
0.0
220
0.0
230
1.0
 70
     8
 71
     3
 72
     9
 73
     5
 74
     3
 42
0.0000000001
 43
0.0000000001
 44
0.00000000001
 40
0.0
 40
0.0
 40
0.0
 40
0.0
 40
0.0226297324799547
 40
0.0452594649601701
 40
0.0452594649601701
 40
0.0452594649601701
 40
0.0452594649601701
 10
35.08184318680125
 20
196.0900085429222
 30
0.0
 10
35.07774696918354
 20
196.0836743868075
 30
0.0
 10
35.06955453394808
 20
196.0710060745779
 30
0.0
 10
35.06136206843689
 20
196.0583377819274
 30
0.0
 10
35.05726583568128
 20
196.0520036356021
 30
0.0
 11
35.08184318680125
 21
196.0900085429222
 31
0.0
 11
35.0695545263792
 21
196.0710060794728
 31
0.0
 11
35.05726583568128
 21
196.0520036356021
 31
0.0
  0
SPLINE
  5
D5
330
2
100
AcDbEntity
  8
GAIKEI
  6
Continuous
 62
     1
100
AcDbSpline
210
0.0
220
0.0
230
1.0
 70
     8
 71
     3
 72
     9
 73
     5
 74
     3
 42
0.0000000001
 43
0.0000000001
 44
0.00000000001
 40
0.0
 40
0.0
 40
0.0
 40
0.0
 40
0.0236751703706882
 40
0.0473503407413
 40
0.0473503407413
 40
0.0473503407413
 40
0.0473503407413
 10
35.15689852374129
 20
196.0437951628822
 30
0.0
 10
35.15258771062972
 20
196.0371848535523
 30
0.0
 10
35.14396608440659
 20
196.0239642348925
 30
0.0
 10
35.13534449085636
 20
196.0107435949256
 30
0.0
 10
35.13103369408125
 20
196.0041332749421
 30
0.0
 11
35.15689852374129
 21
196.0437951628822
 31
0.0
 11
35.1439660925748
 21
196.0239642295657
 31
0.0
 11
35.13103369408125
 21
196.0041332749421
 31
0.0
  0
SPLINE
  5
D6
330
2
100
AcDbEntity
  8
GAIKEI
  6
Continuous
 62
     1
100
AcDbSpline
210
0.0
220
0.0
230
1.0
 70
     8
 71
     3
 72
    11
 73
     7
 74
     5
 42
0.0000000001
 43
0.0000000001
 44
0.00000000001
 40
0.0
 40
0.0
 40
0.0
 40
0.0
 40
0.1060678216403113
 40
0.2148135088387577
 40
0.3369485238081161
 40
0.4617614043281727
 40
0.4617614043281727
 40
0.4617614043281727
 40
0.4617614043281727
 10
34.77709811126127
 20
196.2994712408822
 30
0.0
 10
34.75687424853278
 20
196.2704705872982
 30
0.0
 10
34.71591593669231
 20
196.2117371084858
 30
0.0
 10
34.65166937273981
 20
196.119610553693
 30
0.0
 10
34.58384795461399
 20
196.0223593200757
 30
0.0
 10
34.536760667899
 20
195.9548411332616
 30
0.0
 10
34.51296172084127
 20
195.9207159613622
 30
0.0
 11
34.77709811126127
 21
196.2994712408822
 31
0.0
 11
34.71642638768051
 21
196.2124693745501
 31
0.0
 11
34.65422223831931
 21
196.1232714581703
 31
0.0
 11
34.58435835429194
 21
196.0230916219247
 31
0.0
 11
34.51296172084127
 21
195.9207159613622
 31
0.0
  0
SPLINE
  5
D7
330
2
100
AcDbEntity
  8
GAIKEI
  6
Continuous
 62
     1
100
AcDbSpline
210
0.0
220
0.0
230
1.0
 70
     8
 71
     3
 72
    11
 73
     7
 74
     5
 42
0.0000000001
 43
0.0000000001
 44
0.00000000001
 40
0.0
 40
0.0
 40
0.0
 40
0.0
 40
0.1050632903282164
 40
0.213081969681811
 40
0.335877594142473
 40
0.4616286076211276
 40
0.4616286076211276
 40
0.4616286076211276
 40
0.4616286076211276
 10
34.84796567050128
 20
196.2470578406222
 30
0.0
 10
34.82782352797608
 20
196.2184087339362
 30
0.0
 10
34.78697265238029
 20
196.1603046324636
 30
0.0
 10
34.72258093795078
 20
196.0687155002452
 30
0.0
 10
34.65422384460148
 20
195.9714846206047
 30
0.0
 10
34.60657583039527
 20
195.9037084924639
 30
0.0
 10
34.58246853960125
 20
195.8694174762022
 30
0.0
 11
34.84796567050128
 21
196.2470578406222
 31
0.0
 11
34.78753937355393
 21
196.161110428725
 31
0.0
 11
34.72541395303995
 21
196.072744896897
 31
0.0
 11
34.65479062479059
 21
195.9722903753777
 31
0.0
 11
34.58246853960125
 21
195.8694174762022
 31
0.0
  0
SPLINE
  5
D8
330
2
100
AcDbEntity
  8
GAIKEI
  6
Continuous
 62
     1
100
AcDbSpline
210
0.0
220
0.0
230
1.0
 70
     8
 71
     3
 72
     9
 73
     5
 74
     3
 42
0.0000000001
 43
0.0000000001
 44
0.00000000001
 40
0.0
 40
0.0
 40
0.0
 40
0.0
 40
0.0218681132291926
 40
0.0437362264582871
 40
0.0437362264582871
 40
0.0437362264582871
 40
0.0437362264582871
 10
51.41156140894125
 20
206.1989945242623
 30
0.0
 10
51.4187947310368
 20
206.1998967338563
 30
0.0
 10
51.43326137522787
 20
206.2017011530441
 30
0.0
 10
51.44772802359685
 20
206.2035055387362
 30
0.0
 10
51.45496134778131
 20
206.2044077315822
 30
0.0
 11
51.41156140894125
 21
206.1989945242623
 31
0.0
 11
51.43326137627238
 21
206.2017011446702
 31
0.0
 11
51.45496134778131
 21
206.2044077315822
 31
0.0
  0
SPLINE
  5
D9
330
2
100
AcDbEntity
  8
GAIKEI
  6
Continuous
 62
     1
100
AcDbSpline
210
0.0
220
0.0
230
1.0
 70
     8
 71
     3
 72
     9
 73
     5
 74
     3
 42
0.0000000001
 43
0.0000000001
 44
0.00000000001
 40
0.0
 40
0.0
 40
0.0
 40
0.0
 40
0.0201610526554958
 40
0.0403221053110359
 40
0.0403221053110359
 40
0.0403221053110359
 40
0.0403221053110359
 10
51.40408485610127
 20
206.2868379978422
 30
0.0
 10
51.41075667104208
 20
206.2876442244947
 30
0.0
 10
51.42410030092374
 20
206.2892566777999
 30
0.0
 10
51.4374439274021
 20
206.2908691592681
 30
0.0
 10
51.44411574064128
 20
206.2916754000022
 30
0.0
 11
51.40408485610127
 21
206.2868379978422
 31
0.0
 11
51.42410030007289
 21
206.2892566848406
 31
0.0
 11
51.44411574064128
 21
206.2916754000022
 31
0.0
  0
SPLINE
  5
DA
330
2
100
AcDbEntity
  8
GAIKEI
  6
Continuous
 62
     1
100
AcDbSpline
210
0.0
220
0.0
230
1.0
 70
     8
 71
     3
 72
     9
 73
     5
 74
     3
 42
0.0000000001
 43
0.0000000001
 44
0.00000000001
 40
0.0
 40
0.0
 40
0.0
 40
0.0
 40
0.0246448971035184
 40
0.0492897942070155
 40
0.0492897942070155
 40
0.0492897942070155
 40
0.0492897942070155
 10
51.44292602536132
 20
205.8304871165823
 30
0.0
 10
51.45110834373526
 20
205.8312187773635
 30
0.0
 10
51.46747298048317
 20
205.8326820989259
 30
0.0
 10
51.48383762104193
 20
205.8341453778702
 30
0.0
 10
51.4920199413213
 20
205.8348770173422
 30
0.0
 11
51.44292602536132
 21
205.8304871165823
 31
0.0
 11
51.46747298143589
 21
205.8326820882714
 31
0.0
 11
51.4920199413213
 21
205.8348770173422
 31
0.0
  0
SPLINE
  5
DB
330
2
100
AcDbEntity
  8
GAIKEI
  6
Continuous
 62
     1
100
AcDbSpline
210
0.0
220
0.0
230
1.0
 70
     8
 71
     3
 72
     9
 73
     5
 74
     3
 42
0.0000000001
 43
0.0000000001
 44
0.00000000001
 40
0.0
 40
0.0
 40
0.0
 40
0.0
 40
0.0245691097193627
 40
0.0491382194387125
 40
0.0491382194387125
 40
0.0491382194387125
 40
0.0491382194387125
 10
51.43545223452128
 20
205.9182978274022
 30
0.0
 10
51.44361212609021
 20
205.918995974048
 30
0.0
 10
51.45993190922808
 20
205.9203922673396
 30
0.0
 10
51.47625168878356
 20
205.9217886025014
 30
0.0
 10
51.48441157856129
 20
205.9224867700823
 30
0.0
 11
51.43545223452128
 21
205.9182978274022
 31
0.0
 11
51.45993190833249
 21
205.9203922778071
 31
0.0
 11
51.48441157856129
 21
205.9224867700823
 31
0.0
  0
SPLINE
  5
DC
330
2
100
AcDbEntity
  8
GAIKEI
  6
Continuous
 62
     1
100
AcDbSpline
210
0.0
220
0.0
230
1.0
 70
     8
 71
     3
 72
     9
 73
     5
 74
     3
 42
0.0000000001
 43
0.0000000001
 44
0.00000000001
 40
0.0
 40
0.0
 40
0.0
 40
0.0
 40
0.0211548959775244
 40
0.0423097919550372
 40
0.0423097919550372
 40
0.0423097919550372
 40
0.0423097919550372
 10
51.47428793180131
 20
205.4620115493823
 30
0.0
 10
51.48132917987919
 20
205.4623940925349
 30
0.0
 10
51.49541167603494
 20
205.46315917884
 30
0.0
 10
51.50949417390584
 20
205.4639242335748
 30
0.0
 10
51.51653542284129
 20
205.4643067609422
 30
0.0
 11
51.47428793180131
 21
205.4620115493823
 31
0.0
 11
51.49541167646373
 21
205.4631591709474
 31
0.0
 11
51.51653542284129
 21
205.4643067609422
 31
0.0
  0
SPLINE
  5
DD
330
2
100
AcDbEntity
  8
GAIKEI
  6
Continuous
 62
     1
100
AcDbSpline
210
0.0
220
0.0
230
1.0
 70
     8
 71
     3
 72
     9
 73
     5
 74
     3
 42
0.0000000001
 43
0.0000000001
 44
0.00000000001
 40
0.0
 40
0.0
 40
0.0
 40
0.0
 40
0.0225950317320735
 40
0.0451900634639625
 40
0.0451900634639625
 40
0.0451900634639625
 40
0.0451900634639625
 10
51.46681198870126
 20
205.5498472174822
 30
0.0
 10
51.47433408538685
 20
205.5502269852547
 30
0.0
 10
51.48937827875793
 20
205.5509865207997
 30
0.0
 10
51.50442247033351
 20
205.551746091908
 30
0.0
 10
51.51194456612126
 20
205.5521258774622
 30
0.0
 11
51.46681198870126
 21
205.5498472174822
 31
0.0
 11
51.48937827830912
 21
205.5509865296905
 31
0.0
 11
51.51194456612126
 21
205.5521258774622
 31
0.0
  0
SPLINE
  5
DE
330
2
100
AcDbEntity
  8
GAIKEI
  6
Continuous
 62
     1
100
AcDbSpline
210
0.0
220
0.0
230
1.0
 70
     8
 71
     3
 72
     9
 73
     5
 74
     3
 42
0.0000000001
 43
0.0000000001
 44
0.00000000001
 40
0.0
 40
0.0
 40
0.0
 40
0.0
 40
0.0242328898100485
 40
0.0484657796200326
 40
0.0484657796200326
 40
0.0484657796200326
 40
0.0484657796200326
 10
51.47945961714128
 20
205.0921595016222
 30
0.0
 10
51.48753573188129
 20
205.0923159500175
 30
0.0
 10
51.50368796136127
 20
205.0926288468081
 30
0.0
 10
51.51984019164127
 20
205.0929417022975
 30
0.0
 10
51.52791630678127
 20
205.0930981300422
 30
0.0
 11
51.47945961714128
 21
205.0921595016222
 31
0.0
 11
51.50368796156129
 21
205.0926288364828
 31
0.0
 11
51.52791630678127
 21
205.0930981300422
 31
0.0
  0
SPLINE
  5
DF
330
2
100
AcDbEntity
  8
GAIKEI
  6
Continuous
 62
     1
100
AcDbSpline
210
0.0
220
0.0
230
1.0
 70
     8
 71
     3
 72
     9
 73
     5
 74
     3
 42
0.0000000001
 43
0.0000000001
 44
0.00000000001
 40
0.0
 40
0.0
 40
0.0
 40
0.0
 40
0.0235154210927273
 40
0.0470308421854061
 40
0.0470308421854061
 40
0.0470308421854061
 40
0.0470308421854061
 10
51.47945963222125
 20
205.1802948035422
 30
0.0
 10
51.48729715978731
 20
205.1804165884295
 30
0.0
 10
51.50297221491943
 20
205.1806601582043
 30
0.0
 10
51.51864726945403
 20
205.1809037664296
 30
0.0
 10
51.52648479672132
 20
205.1810255705423
 30
0.0
 11
51.47945963222125
 21
205.1802948035422
 31
0.0
 11
51.50297221477007
 21
205.1806601678169
 31
0.0
 11
51.52648479672132
 21
205.1810255705423
 31
0.0
  0
SPLINE
  5
E0
330
2
100
AcDbEntity
  8
GAIKEI
  6
Continuous
 62
     1
100
AcDbSpline
210
0.0
220
0.0
230
1.0
 70
     8
 71
     3
 72
     9
 73
     5
 74
     3
 42
0.0000000001
 43
0.0000000001
 44
0.00000000001
 40
0.0
 40
0.0
 40
0.0
 40
0.0
 40
0.0234797882684348
 40
0.0469595765367531
 40
0.0469595765367531
 40
0.0469595765367531
 40
0.0469595765367531
 10
51.47945963222125
 20
204.7224484985822
 30
0.0
 10
51.48728528362191
 20
204.7223268988157
 30
0.0
 10
51.50293658642318
 20
204.7220836992825
 30
0.0
 10
51.51858788862193
 20
204.7218404609757
 30
0.0
 10
51.52641353972128
 20
204.7217188418223
 30
0.0
 11
51.47945963222125
 21
204.7224484985822
 31
0.0
 11
51.50293658627259
 21
204.7220836895891
 31
0.0
 11
51.52641353972128
 21
204.7217188418223
 31
0.0
  0
SPLINE
  5
E1
330
2
100
AcDbEntity
  8
GAIKEI
  6
Continuous
 62
     1
100
AcDbSpline
210
0.0
220
0.0
230
1.0
 70
     8
 71
     3
 72
     9
 73
     5
 74
     3
 42
0.0000000001
 43
0.0000000001
 44
0.00000000001
 40
0.0
 40
0.0
 40
0.0
 40
0.0
 40
0.0243022411867034
 40
0.0486044823733301
 40
0.0486044823733301
 40
0.0486044823733301
 40
0.0486044823733301
 10
51.47945961716129
 20
204.8105838004022
 30
0.0
 10
51.48755884470188
 20
204.8104269048569
 30
0.0
 10
51.50375729978303
 20
204.8101131137661
 30
0.0
 10
51.51995575566187
 20
204.8097993638568
 30
0.0
 10
51.52805498360129
 20
204.8096424889022
 30
0.0
 11
51.47945961716129
 21
204.8105838004022
 31
0.0
 11
51.50375729998248
 21
204.8101131240614
 31
0.0
 11
51.52805498360129
 21
204.8096424889022
 31
0.0
  0
SPLINE
  5
E2
330
2
100
AcDbEntity
  8
GAIKEI
  6
Continuous
 62
     1
100
AcDbSpline
210
0.0
220
0.0
230
1.0
 70
     8
 71
     3
 72
     9
 73
     5
 74
     3
 42
0.0000000001
 43
0.0000000001
 44
0.00000000001
 40
0.0
 40
0.0
 40
0.0
 40
0.0
 40
0.0226036287118168
 40
0.0452072574236831
 40
0.0452072574236831
 40
0.0452072574236831
 40
0.0452072574236831
 10
51.4668119884613
 20
204.3528960848022
 30
0.0
 10
51.47433694718838
 20
204.352516173066
 30
0.0
 10
51.48938686464252
 20
204.3517563495937
 30
0.0
 10
51.50443678028169
 20
204.3509964901728
 30
0.0
 10
51.51196173810129
 20
204.3506165604623
 30
0.0
 11
51.4668119884613
 21
204.3528960848022
 31
0.0
 11
51.48938686418876
 21
204.3517563406065
 31
0.0
 11
51.51196173810129
 21
204.3506165604623
 31
0.0
  0
SPLINE
  5
E3
330
2
100
AcDbEntity
  8
GAIKEI
  6
Continuous
 62
     1
100
AcDbSpline
210
0.0
220
0.0
230
1.0
 70
     8
 71
     3
 72
     9
 73
     5
 74
     3
 42
0.0000000001
 43
0.0000000001
 44
0.00000000001
 40
0.0
 40
0.0
 40
0.0
 40
0.0
 40
0.0211545627603727
 40
0.0423091255207697
 40
0.0423091255207697
 40
0.0423091255207697
 40
0.0423091255207697
 10
51.4742879315813
 20
204.4407317531022
 30
0.0
 10
51.48132906877825
 20
204.4403492164886
 30
0.0
 10
51.49541134317214
 20
204.4395841432612
 30
0.0
 10
51.50949361925823
 20
204.4388191011818
 30
0.0
 10
51.51653475730128
 20
204.4384365801422
 30
0.0
 11
51.4742879315813
 21
204.4407317531022
 31
0.0
 11
51.49541134359518
 21
204.4395841510481
 31
0.0
 11
51.51653475730128
 21
204.4384365801422
 31
0.0
  0
SPLINE
  5
E4
330
2
100
AcDbEntity
  8
GAIKEI
  6
Continuous
 62
     1
100
AcDbSpline
210
0.0
220
0.0
230
1.0
 70
     8
 71
     3
 72
    11
 73
     7
 74
     5
 42
0.0000000001
 43
0.0000000001
 44
0.00000000001
 40
0.0
 40
0.0
 40
0.0
 40
0.0
 40
0.1071403048819434
 40
0.216814978329791
 40
0.3391614945868924
 40
0.4640423794022535
 40
0.4640423794022535
 40
0.4640423794022535
 40
0.4640423794022535
 10
51.43545223428126
 20
203.9844454745622
 30
0.0
 10
51.47103566184973
 20
203.9814009517455
 30
0.0
 10
51.54304423122666
 20
203.9752398889294
 30
0.0
 10
51.65568642143399
 20
203.9656011229828
 30
0.0
 10
51.77422053305427
 20
203.9554573222302
 30
0.0
 10
51.856329470619
 20
203.9484296848054
 30
0.0
 10
51.89780479548128
 20
203.9448798453622
 30
0.0
 11
51.43545223428126
 21
203.9844454745622
 31
0.0
 11
51.54220250259848
 21
203.9753117379558
 31
0.0
 11
51.65147784301732
 21
203.9659611244871
 31
0.0
 11
51.77337879930371
 21
203.9555291114163
 31
0.0
 11
51.89780479548128
 21
203.9448798453622
 31
0.0
  0
SPLINE
  5
E5
330
2
100
AcDbEntity
  8
GAIKEI
  6
Continuous
 62
     1
100
AcDbSpline
210
0.0
220
0.0
230
1.0
 70
     8
 71
     3
 72
    11
 73
     7
 74
     5
 42
0.0000000001
 43
0.0000000001
 44
0.00000000001
 40
0.0
 40
0.0
 40
0.0
 40
0.0
 40
0.1073050485474211
 40
0.2172660957037217
 40
0.3405071358839901
 40
0.4664041746655492
 40
0.4664041746655492
 40
0.4664041746655492
 40
0.4664041746655492
 10
51.4429260251213
 20
204.0722561853822
 30
0.0
 10
51.47855223280777
 20
204.0690705688049
 30
0.0
 10
51.55068646277692
 20
204.0626204857421
 30
0.0
 10
51.66373788373336
 20
204.0525127573012
 30
0.0
 10
51.7829620898063
 20
204.0418540073195
 30
0.0
 10
51.86567830956225
 20
204.0344601262654
 30
0.0
 10
51.90747732788125
 20
204.0307237735822
 30
0.0
 11
51.4429260251213
 21
204.0722561853822
 31
0.0
 11
51.54980466308024
 21
204.0626995022858
 31
0.0
 11
51.65932881824821
 21
204.0529070906088
 31
0.0
 11
51.78208029608043
 21
204.0419330906672
 31
0.0
 11
51.90747732788125
 21
204.0307237735822
 31
0.0
  0
SPLINE
  5
E6
330
2
100
AcDbEntity
  8
GAIKEI
  6
Continuous
 62
     1
100
AcDbSpline
210
0.0
220
0.0
230
1.0
 70
     8
 71
     3
 72
    23
 73
    19
 74
    17
 42
0.0000000001
 43
0.0000000001
 44
0.00000000001
 40
0.0
 40
0.0
 40
0.0
 40
0.0
 40
0.0249287120423922
 40
0.0487814519322747
 40
0.0667899361245855
 40
0.0841988524908981
 40
0.098391525914214
 40
0.1130715783160745
 40
0.1263513112697995
 40
0.1396410069013045
 40
0.1508524557813472
 40
0.1620549134043067
 40
0.1707777426759689
 40
0.1794284093814458
 40
0.1855590528164813
 40
0.1915293563492539
 40
0.1958318667019745
 40
0.2000325028610063
 40
0.2000325028610063
 40
0.2000325028610063
 40
0.2000325028610063
 10
46.77743815816126
 20
194.3236286792822
 30
0.0
 10
46.7847026872404
 20
194.3276630027167
 30
0.0
 10
46.7989181940617
 20
194.3355575202661
 30
0.0
 10
46.81832631838157
 20
194.3464655007653
 30
0.0
 10
46.83551734793091
 20
194.356201861533
 30
0.0
 10
46.8498856838026
 20
194.3643880680896
 30
0.0
 10
46.86326627808364
 20
194.372066560256
 30
0.0
 10
46.87543335484111
 20
194.3790942452105
 30
0.0
 10
46.88731945700467
 20
194.3860064701575
 30
0.0
 10
46.89818568955315
 20
194.3923724012837
 30
0.0
 10
46.90843349900065
 20
194.3984239695059
 30
0.0
 10
46.9173547903175
 20
194.4037279817041
 30
0.0
 10
46.92551750087328
 20
194.4086375670083
 30
0.0
 10
46.93220078800192
 20
194.4127259645093
 30
0.0
 10
46.93808004220316
 20
194.4163713357097
 30
0.0
 10
46.94274941554989
 20
194.4192137926044
 30
0.0
 10
46.94680309762124
 20
194.4218390112777
 30
0.0
 10
46.94902118630044
 20
194.4236062800777
 30
0.0
 10
46.95011694344128
 20
194.4244793278623
 30
0.0
 11
46.77743815816126
 21
194.3236286792822
 31
0.0
 11
46.79922120277112
 21
194.3357505459544
 31
0.0
 11
46.82001724042282
 21
194.3474329266297
 31
0.0
 11
46.83568740400963
 21
194.3563071294709
 31
0.0
 11
46.85081226932195
 21
194.364927385751
 31
0.0
 11
46.86312210705898
 21
194.3719913700225
 31
0.0
 11
46.87583374971478
 21
194.3793342631521
 31
0.0
 11
46.88731300479432
 21
194.3860109397312
 31
0.0
 11
46.89877918361725
 21
194.3927297754323
 31
0.0
 11
46.90843324922886
 21
194.3984302669161
 31
0.0
 11
46.91805977235659
 21
194.404159587056
 31
0.0
 11
46.92553240090552
 21
194.4086593173892
 31
0.0
 11
46.93291213173558
 21
194.4131730306417
 31
0.0
 11
46.93812963826778
 21
194.4163921010842
 31
0.0
 11
46.94320827171006
 21
194.4195308917164
 31
0.0
 11
46.94678978326257
 21
194.4219150834734
 31
0.0
 11
46.95011694344128
 21
194.4244793278623
 31
0.0
  0
SPLINE
  5
E7
330
2
100
AcDbEntity
  8
GAIKEI
  6
Continuous
 62
     1
100
AcDbSpline
210
0.0
220
0.0
230
1.0
 70
     8
 71
     3
 72
    23
 73
    19
 74
    17
 42
0.0000000001
 43
0.0000000001
 44
0.00000000001
 40
0.0
 40
0.0
 40
0.0
 40
0.0
 40
0.0041703336207811
 40
0.0084443764845573
 40
0.0143969130569888
 40
0.0205106698438053
 40
0.0291575831742258
 40
0.037875906160867
 40
0.0490910037851102
 40
0.0603154778907247
 40
0.0736431328131888
 40
0.0869612053977367
 40
0.1017069561221616
 40
0.1159616688390311
 40
0.1334808094253385
 40
0.1516071099313869
 40
0.1756501174738616
 40
0.2007803193479742
 40
0.2007803193479742
 40
0.2007803193479742
 40
0.2007803193479742
 10
50.87610054262128
 20
198.0368574634022
 30
0.0
 10
50.87705611099597
 20
198.0378682236854
 30
0.0
 10
50.87899101113738
 20
198.0399148801744
 30
0.0
 10
50.88192818910663
 20
198.0437165147691
 30
0.0
 10
50.88513499044046
 20
198.0481175376521
 30
0.0
 10
50.88924875767187
 20
198.0536632171709
 30
0.0
 10
50.89387362461762
 20
198.0599767389511
 30
0.0
 10
50.89944503857369
 20
198.067704681991
 30
0.0
 10
50.90547560416403
 20
198.0761604904112
 30
0.0
 10
50.91236960342957
 20
198.0858876231389
 30
0.0
 10
50.91963309660194
 20
198.0962119918665
 30
0.0
 10
50.92753561034347
 20
198.1075218294254
 30
0.0
 10
50.93558094385108
 20
198.1191087821372
 30
0.0
 10
50.94438904929106
 20
198.1318708554512
 30
0.0
 10
50.95379466440405
 20
198.1455896307794
 30
0.0
 10
50.96500324552049
 20
198.1620281518235
 30
0.0
 10
50.97757997950122
 20
198.1806044064772
 30
0.0
 10
50.98669979267071
 20
198.1942241309694
 30
0.0
 10
50.99136051644129
 20
198.2011845557622
 30
0.0
 11
50.87610054262128
 21
198.0368574634022
 31
0.0
 11
50.87891551097385
 21
198.039934415739
 31
0.0
 11
50.88157188393466
 21
198.0432827175615
 31
0.0
 11
50.88511026742409
 21
198.0480694214303
 31
0.0
 11
50.888741537376
 21
198.0529879476918
 31
0.0
 11
50.8938507739683
 21
198.0599639645774
 31
0.0
 11
50.89895301956983
 21
198.0670333524944
 31
0.0
 11
50.90546929233003
 21
198.0761611454388
 31
0.0
 11
50.91195936589881
 21
198.0853190799231
 31
0.0
 11
50.91962907872852
 21
198.096218707937
 31
0.0
 11
50.92725793213464
 21
198.1071352849223
 31
0.0
 11
50.9356685093914
 21
198.1192472358236
 31
0.0
 11
50.94376550101035
 21
198.1309790541551
 31
0.0
 11
50.95367416045727
 21
198.1454268482721
 31
0.0
 11
50.96388510565936
 21
198.1604034756666
 31
0.0
 11
50.97736018517801
 21
198.1803154932353
 31
0.0
 11
50.99136051644129
 21
198.2011845557622
 31
0.0
  0
SPLINE
  5
E8
330
2
100
AcDbEntity
  8
GAIKEI
  6
Continuous
 62
     1
100
AcDbSpline
210
0.0
220
0.0
230
1.0
 70
     8
 71
     3
 72
    11
 73
     7
 74
     5
 42
0.0000000001
 43
0.0000000001
 44
0.00000000001
 40
0.0
 40
0.0
 40
0.0
 40
0.0
 40
0.0071137304688137
 40
0.0142282426427389
 40
0.0213466636054541
 40
0.0284658663788691
 40
0.0284658663788691
 40
0.0284658663788691
 40
0.0284658663788691
 10
50.84837125220127
 20
198.0304238070622
 30
0.0
 10
50.85068137524213
 20
198.0309587157403
 30
0.0
 10
50.8553018751759
 20
198.0320285918759
 30
0.0
 10
50.86223348785324
 20
198.0336360319213
 30
0.0
 10
50.86916652127157
 20
198.0352454193031
 30
0.0
 10
50.87378911755999
 20
198.0363200956984
 30
0.0
 10
50.87610054262128
 20
198.0368574634022
 30
0.0
 11
50.84837125220127
 21
198.0304238070622
 31
0.0
 11
50.85530153243571
 21
198.032028916733
 31
0.0
 11
50.86223215927773
 21
198.0336359932867
 31
0.0
 11
50.86916617824505
 21
198.0352457441877
 31
0.0
 11
50.87610054262128
 21
198.0368574634022
 31
0.0
  0
SPLINE
  5
E9
330
2
100
AcDbEntity
  8
GAIKEI
  6
Continuous
 62
     7
100
AcDbSpline
210
0.0
220
0.0
230
1.0
 70
     8
 71
     3
 72
    13
 73
     9
 74
     7
 42
0.0000000001
 43
0.0000000001
 44
0.00000000001
 40
0.0
 40
0.0
 40
0.0
 40
0.0
 40
0.0329367249148607
 40
0.0642609577379839
 40
0.0957764794933942
 40
0.1278769524683499
 40
0.1670541897187125
 40
0.2084288857237569
 40
0.2084288857237569
 40
0.2084288857237569
 40
0.2084288857237569
 10
29.37555681470127
 20
208.7501440983022
 30
0.0
 10
29.37222271875814
 20
208.7396836852336
 30
0.0
 10
29.36571775510285
 20
208.7192749723499
 30
0.0
 10
29.35605114827371
 20
208.6888481063878
 30
0.0
 10
29.34649798212434
 20
208.6586776959172
 30
0.0
 10
29.33618759934467
 20
208.6260013110269
 30
0.0
 10
29.32493849558823
 20
208.5901750263309
 30
0.0
 10
29.31695330794317
 20
208.5645392254615
 30
0.0
 10
29.31285179606127
 20
208.5513716523823
 30
0.0
 11
29.37555681470127
 21
208.7501440983022
 31
0.0
 11
29.36555956583987
 21
208.7187612548472
 31
0.0
 11
29.3560752307283
 21
208.6889073614755
 31
0.0
 11
29.3465618502222
 21
208.6588620007211
 31
0.0
 11
29.33690385308131
 21
208.6282488751629
 31
0.0
 11
29.32517175683549
 21
208.5908695515167
 31
0.0
 11
29.31285179606127
 21
208.5513716523823
 31
0.0
  0
SPLINE
  5
EA
330
2
100
AcDbEntity
  8
GAIKEI
  6
Continuous
 62
     7
100
AcDbSpline
210
0.0
220
0.0
230
1.0
 70
    24
 71
     3
 72
     9
 73
     5
 74
     3
 42
0.0000000001
 43
0.0000000001
 44
0.00000000001
 40
0.0
 40
0.0
 40
0.0
 40
0.0
 40
0.0023629924354353
 40
0.0047259848709247
 40
0.0047259848709247
 40
0.0047259848709247
 40
0.0047259848709247
 10
29.37699301482132
 20
208.7546465712022
 30
0.0
 10
29.37675364813464
 20
208.7538961590522
 30
0.0
 10
29.37627491476128
 20
208.7523953347522
 30
0.0
 10
29.37579618138795
 20
208.7508945104522
 30
0.0
 10
29.37555681470127
 20
208.7501440983022
 30
0.0
 11
29.37699301482132
 21
208.7546465712022
 31
0.0
 11
29.3762749147613
 21
208.7523953347522
 31
0.0
 11
29.37555681470127
 21
208.7501440983022
 31
0.0
  0
SPLINE
  5
EB
330
2
100
AcDbEntity
  8
GAIKEI
  6
Continuous
 62
     7
100
AcDbSpline
210
0.0
220
0.0
230
1.0
 70
     8
 71
     3
 72
    19
 73
    15
 74
    13
 42
0.0000000001
 43
0.0000000001
 44
0.00000000001
 40
0.0
 40
0.0
 40
0.0
 40
0.0
 40
0.0039297407431549
 40
0.0080128560379088
 40
0.0140578278749369
 40
0.0202970139666424
 40
0.0292911178854242
 40
0.0383209381079976
 40
0.0497345156080266
 40
0.0606167344049304
 40
0.0762224493778351
 40
0.092684405790542
 40
0.1171889531372181
 40
0.1430556610880591
 40
0.1430556610880591
 40
0.1430556610880591
 40
0.1430556610880591
 10
29.41884127386126
 20
208.8913716523822
 30
0.0
 10
29.41871211642104
 20
208.8900658881339
 30
0.0
 10
29.41844876063182
 20
208.8874033967318
 30
0.0
 10
29.41721872090153
 20
208.8828677427223
 30
0.0
 10
29.4155798019095
 20
208.8776682804287
 30
0.0
 10
29.41359618117057
 20
208.8708567475393
 30
0.0
 10
29.41129424640082
 20
208.8631041133243
 30
0.0
 10
29.40840643854731
 20
208.8537258486564
 30
0.0
 10
29.4052861232399
 20
208.8437611687429
 30
0.0
 10
29.40150092352919
 20
208.8317076738095
 30
0.0
 10
29.39718503752577
 20
208.8180570674203
 30
0.0
 10
29.39147821096561
 20
208.8000839191202
 30
0.0
 10
29.38471732406074
 20
208.7788568594677
 30
0.0
 10
29.37961378855012
 20
208.762860857488
 30
0.0
 10
29.37699301482132
 20
208.7546465712022
 30
0.0
 11
29.41884127386126
 21
208.8913716523822
 31
0.0
 11
29.41834851161735
 21
208.8874729285295
 31
0.0
 11
29.41736958150747
 21
208.8835088994744
 31
0.0
 11
29.41561980758482
 21
208.877722711115
 31
0.0
 11
29.4138487835867
 21
208.8717401600634
 31
0.0
 11
29.4112831572318
 21
208.8631197501712
 31
0.0
 11
29.40863426390703
 21
208.8544871945006
 31
0.0
 11
29.40523167422947
 21
208.8435926025011
 31
0.0
 11
29.40196989676471
 21
208.8332107195451
 31
0.0
 11
29.39726811416884
 21
208.8183301422633
 31
0.0
 11
29.39228764509716
 21
208.802639669461
 31
0.0
 11
29.38485323962024
 21
208.7792900986755
 31
0.0
 11
29.37699301482132
 21
208.7546465712022
 31
0.0
  0
SPLINE
  5
EC
330
2
100
AcDbEntity
  8
GAIKEI
  6
Continuous
 62
     7
100
AcDbSpline
210
0.0
220
0.0
230
1.0
 70
     8
 71
     3
 72
    19
 73
    15
 74
    13
 42
0.0000000001
 43
0.0000000001
 44
0.00000000001
 40
0.0
 40
0.0
 40
0.0
 40
0.0
 40
0.0198877717034827
 40
0.0394352484561169
 40
0.0558394881251534
 40
0.0720033004705949
 40
0.0849336263420808
 40
0.0979638743658167
 40
0.1079680546953573
 40
0.1179005966074473
 40
0.124731102868844
 40
0.1313600855567614
 40
0.1358897792376379
 40
0.1402722067760996
 40
0.1402722067760996
 40
0.1402722067760996
 40
0.1402722067760996
 10
28.77989604182128
 20
204.3515283228222
 30
0.0
 10
28.7801524505961
 20
204.3449040261789
 30
0.0
 10
28.78066088079594
 20
204.331768779663
 30
0.0
 10
28.78137974558963
 20
204.3131695038587
 30
0.0
 10
28.7820383967784
 20
204.2958101481624
 30
0.0
 10
28.78259534692262
 20
204.2806542510929
 30
0.0
 10
28.78308709412059
 20
204.2666213797462
 30
0.0
 10
28.78349667823588
 20
204.2546401884191
 30
0.0
 10
28.78382192031241
 20
204.2436557331564
 30
0.0
 10
28.78400393065719
 20
204.2347356357196
 30
0.0
 10
28.78412026789844
 20
204.2269376534618
 30
0.0
 10
28.78432157756456
 20
204.2209483073142
 30
0.0
 10
28.78429665935104
 20
204.2157555452443
 30
0.0
 10
28.78383467021614
 20
204.2128167629425
 30
0.0
 10
28.78360749266128
 20
204.2113716523823
 30
0.0
 11
28.77989604182128
 21
204.3515283228222
 31
0.0
 11
28.78066507743799
 21
204.3316554255108
 31
0.0
 11
28.78141770815617
 21
204.3121224432911
 31
0.0
 11
28.78203815350614
 21
204.2957299411426
 31
0.0
 11
28.78262983298725
 21
204.2795769616982
 31
0.0
 11
28.78308409084326
 21
204.266654617602
 31
0.0
 11
28.78351991603262
 21
204.2536316601819
 31
0.0
 11
28.78380723581228
 21
204.2436316066115
 31
0.0
 11
28.78401427496576
 21
204.2337012227506
 31
0.0
 11
28.78414282146548
 21
204.2268719261848
 31
0.0
 11
28.78429468658021
 21
204.2202446832842
 31
0.0
 11
28.78418076879965
 21
204.2157164222955
 31
0.0
 11
28.78360749266128
 21
204.2113716523823
 31
0.0
  0
SPLINE
  5
ED
330
2
100
AcDbEntity
  8
GAIKEI
  6
Continuous
 62
     7
100
AcDbSpline
210
0.0
220
0.0
230
1.0
 70
    24
 71
     3
 72
     9
 73
     5
 74
     3
 42
0.0000000001
 43
0.0000000001
 44
0.00000000001
 40
0.0
 40
0.0
 40
0.0
 40
0.0
 40
0.0079955491995104
 40
0.0159910983990776
 40
0.0159910983990776
 40
0.0159910983990776
 40
0.0159910983990776
 10
28.77927218402127
 20
204.3675072473622
 30
0.0
 10
28.77937616032127
 20
204.3648440932722
 30
0.0
 10
28.77958411292128
 20
204.3595177850922
 30
0.0
 10
28.77979206552127
 20
204.3541914769122
 30
0.0
 10
28.77989604182128
 20
204.3515283228222
 30
0.0
 11
28.77927218402127
 21
204.3675072473622
 31
0.0
 11
28.77958411292127
 21
204.3595177850922
 31
0.0
 11
28.77989604182128
 21
204.3515283228222
 31
0.0
  0
SPLINE
  5
EE
330
2
100
AcDbEntity
  8
GAIKEI
  6
Continuous
 62
     7
100
AcDbSpline
210
0.0
220
0.0
230
1.0
 70
     8
 71
     3
 72
    13
 73
     9
 74
     7
 42
0.0000000001
 43
0.0000000001
 44
0.00000000001
 40
0.0
 40
0.0
 40
0.0
 40
0.0
 40
0.0349324817577089
 40
0.0676384488187337
 40
0.0952354989136074
 40
0.12260470589053
 40
0.1522959051524537
 40
0.1839857678203572
 40
0.1839857678203572
 40
0.1839857678203572
 40
0.1839857678203572
 10
28.7725980669413
 20
204.5513716523823
 30
0.0
 10
28.77298628215543
 20
204.5397339632092
 30
0.0
 10
28.77373796865379
 20
204.5172003439558
 30
0.0
 10
28.7748520079825
 20
204.4854747159272
 30
0.0
 10
28.77591031852677
 20
204.4562698078789
 30
0.0
 10
28.77695347719326
 20
204.4280699405632
 30
0.0
 10
28.77807147774176
 20
204.3985076459721
 30
0.0
 10
28.7788633536882
 20
204.3780626208996
 30
0.0
 10
28.77927218402127
 20
204.3675072473622
 30
0.0
 11
28.7725980669413
 21
204.5513716523823
 31
0.0
 11
28.77377325639784
 21
204.5164589439297
 31
0.0
 11
28.77491839578053
 21
204.483773030493
 31
0.0
 11
28.7759165451873
 21
204.4561940371883
 31
0.0
 11
28.77692847598144
 21
204.428843543836
 31
0.0
 11
28.77805066395124
 21
204.3991735588719
 31
0.0
 11
28.77927218402127
 21
204.3675072473622
 31
0.0
  0
SPLINE
  5
EF
330
2
100
AcDbEntity
  8
GAIKEI
  6
Continuous
 62
     1
100
AcDbSpline
210
0.0
220
0.0
230
1.0
 70
     8
 71
     3
 72
    11
 73
     7
 74
     5
 42
0.0000000001
 43
0.0000000001
 44
0.00000000001
 40
0.0
 40
0.0
 40
0.0
 40
0.0
 40
0.0106863489933546
 40
0.0219875272008576
 40
0.0363607664068619
 40
0.0513481147449322
 40
0.0513481147449322
 40
0.0513481147449322
 40
0.0513481147449322
 10
94.43560199025876
 20
196.7824239174022
 30
0.0
 10
94.43507766225279
 20
196.7859472470862
 30
0.0
 10
94.43399883951354
 20
196.7931966179715
 30
0.0
 10
94.43211644002625
 20
196.8051699015958
 30
0.0
 10
94.42991770369401
 20
196.818544588762
 30
0.0
 10
94.42821025438684
 20
196.8281814432752
 30
0.0
 10
94.42733867313876
 20
196.8331006532622
 30
0.0
 11
94.43560199025876
 21
196.7824239174022
 31
0.0
 11
94.43401495784721
 21
196.7929917640576
 31
0.0
 11
94.43226402099943
 21
196.8041564785203
 31
0.0
 11
94.42992219812675
 21
196.8183376586865
 31
0.0
 11
94.42733867313876
 21
196.8331006532622
 31
0.0
  0
SPLINE
  5
F0
330
2
100
AcDbEntity
  8
GAIKEI
  6
Continuous
 62
     1
100
AcDbSpline
210
0.0
220
0.0
230
1.0
 70
     8
 71
     3
 72
     9
 73
     5
 74
     3
 42
0.0000000001
 43
0.0000000001
 44
0.00000000001
 40
0.0
 40
0.0
 40
0.0
 40
0.0
 40
0.0348281916412564
 40
0.0696582067362128
 40
0.0696582067362128
 40
0.0696582067362128
 40
0.0696582067362128
 10
94.42733867313876
 20
196.8331006532622
 30
0.0
 10
94.42522337016098
 20
196.8445165947881
 30
0.0
 10
94.42099265345733
 20
196.8673490755292
 30
0.0
 10
94.4160157270322
 20
196.8900305955187
 30
0.0
 10
94.41352719867877
 20
196.9013716523823
 30
0.0
 11
94.42733867313876
 21
196.8331006532622
 31
0.0
 11
94.42080622154179
 21
196.8673107396277
 31
0.0
 11
94.41352719867877
 21
196.9013716523823
 31
0.0
  0
SPLINE
  5
F1
330
2
100
AcDbEntity
  8
GAIKEI
  6
Continuous
 62
     1
100
AcDbSpline
210
0.0
220
0.0
230
1.0
 70
     8
 71
     3
 72
    13
 73
     9
 74
     7
 42
0.0000000001
 43
0.0000000001
 44
0.00000000001
 40
0.0
 40
0.0
 40
0.0
 40
0.0
 40
0.0363869378141679
 40
0.0703463800754405
 40
0.1000673804996487
 40
0.1297883809235136
 40
0.1637478231802942
 40
0.2001347609896018
 40
0.2001347609896018
 40
0.2001347609896018
 40
0.2001347609896018
 10
93.61762971041878
 20
196.5665752045221
 30
0.0
 10
93.61691898442948
 20
196.5544664791565
 30
0.0
 10
93.61554494738284
 20
196.5310568424032
 30
0.0
 10
93.61460462776866
 20
196.4977092544141
 30
0.0
 10
93.61438535514086
 20
196.4665752045175
 30
0.0
 10
93.61460462776831
 20
196.4354411546223
 30
0.0
 10
93.61554494738227
 20
196.4020935666363
 30
0.0
 10
93.61691898442931
 20
196.3786839298862
 30
0.0
 10
93.61762971041878
 20
196.3665752045223
 30
0.0
 11
93.61762971041878
 21
196.5665752045221
 31
0.0
 11
93.6156882971629
 21
196.5302400953567
 31
0.0
 11
93.61469246021854
 21
196.4962952573474
 31
0.0
 11
93.61445512924328
 21
196.4665752045173
 31
0.0
 11
93.61469246021826
 21
196.4368551516876
 31
0.0
 11
93.61568829716251
 21
196.4029103136828
 31
0.0
 11
93.61762971041878
 21
196.3665752045223
 31
0.0
  0
SPLINE
  5
F2
330
2
100
AcDbEntity
  8
GAIKEI
  6
Continuous
 62
     1
100
AcDbSpline
210
0.0
220
0.0
230
1.0
 70
     8
 71
     3
 72
    19
 73
    15
 74
    13
 42
0.0000000001
 43
0.0000000001
 44
0.00000000001
 40
0.0
 40
0.0
 40
0.0
 40
0.0
 40
0.0064710682419342
 40
0.0126526962112009
 40
0.0171084864181034
 40
0.0213884894683193
 40
0.0245979373224045
 40
0.0279286117635871
 40
0.03064347660284
 40
0.0333303278160093
 40
0.0353558433869801
 40
0.0373509584298126
 40
0.0388498300298679
 40
0.0403162158161874
 40
0.0403162158161874
 40
0.0403162158161874
 40
0.0403162158161874
 10
93.58487589939882
 20
196.6065752045222
 30
0.0
 10
93.58469378527718
 20
196.6044258450718
 30
0.0
 10
93.58433770270002
 20
196.6002232634951
 30
0.0
 10
93.58396453250312
 20
196.5945322884895
 30
0.0
 10
93.58370518390968
 20
196.5895665274672
 30
0.0
 10
93.58354111046708
 20
196.5855880241933
 30
0.0
 10
93.58344589929933
 20
196.5819824593719
 30
0.0
 10
93.58340031090355
 20
196.5788978010366
 30
0.0
 10
93.58341668523081
 20
196.5759863703157
 30
0.0
 10
93.58350780336019
 20
196.5735130307835
 30
0.0
 10
93.58365277985175
 20
196.5712783085223
 30
0.0
 10
93.58371032782395
 20
196.5694499182323
 30
0.0
 10
93.58398243729572
 20
196.5677777605745
 30
0.0
 10
93.58458026184916
 20
196.5669731181252
 30
0.0
 10
93.58487589939882
 20
196.5665752045221
 30
0.0
 11
93.58487589939882
 21
196.6065752045222
 31
0.0
 11
93.58435050922365
 21
196.6001254999278
 31
0.0
 11
93.58394278929489
 21
196.5939573325492
 31
0.0
 11
93.5837104235404
 21
196.5895076053077
 31
0.0
 11
93.58353847887491
 21
196.5852310575011
 31
0.0
 11
93.58345306691598
 21
196.5820227463682
 31
0.0
 11
93.5834097570766
 21
196.5786923535249
 31
0.0
 11
93.58343091870427
 21
196.5759775711614
 31
0.0
 11
93.58353023447168
 21
196.5732925561112
 31
0.0
 11
93.58364202068049
 21
196.571270127578
 31
0.0
 11
93.5837661185862
 21
196.5692788757748
 31
0.0
 11
93.5840954062198
 21
196.5678166221279
 31
0.0
 11
93.58487589939882
 21
196.5665752045221
 31
0.0
  0
SPLINE
  5
F3
330
2
100
AcDbEntity
  8
GAIKEI
  6
Continuous
 62
     1
100
AcDbSpline
210
0.0
220
0.0
230
1.0
 70
     8
 71
     3
 72
    17
 73
    13
 74
    11
 42
0.0000000001
 43
0.0000000001
 44
0.00000000001
 40
0.0
 40
0.0
 40
0.0
 40
0.0
 40
0.0307309651293851
 40
0.0600119916805588
 40
0.0815047921195688
 40
0.1021496694911016
 40
0.1185503016204798
 40
0.1351073567720553
 40
0.152368604440319
 40
0.1700259208812714
 40
0.1909404725857947
 40
0.2126952785933259
 40
0.2126952785933259
 40
0.2126952785933259
 40
0.2126952785933259
 10
93.61762971041878
 20
196.8165752045221
 30
0.0
 10
93.615428306489
 20
196.8065705454074
 30
0.0
 10
93.61112936456633
 20
196.7870332638078
 30
0.0
 10
93.60595919294087
 20
196.7603586618463
 30
0.0
 10
93.60178824444311
 20
196.7369203787835
 30
0.0
 10
93.59858474690931
 20
196.7176718046861
 30
0.0
 10
93.59586948310909
 20
196.7000114342369
 30
0.0
 10
93.59350972522801
 20
196.6834386122931
 30
0.0
 10
93.59127432908623
 20
196.6664259807616
 30
0.0
 10
93.5890309244584
 20
196.6479504396375
 30
0.0
 10
93.58683867025304
 20
196.6279603937791
 30
0.0
 10
93.58553868951831
 20
196.6137965732891
 30
0.0
 10
93.58487589939882
 20
196.6065752045222
 30
0.0
 11
93.61762971041878
 21
196.8165752045221
 31
0.0
 11
93.61115455167619
 21
196.7865341569865
 31
0.0
 11
93.60555013677544
 21
196.7577944797177
 31
0.0
 11
93.60177902923087
 21
196.736635103106
 31
0.0
 11
93.59839929921927
 21
196.7162687488241
 31
0.0
 11
93.59590732710515
 21
196.7000585418783
 31
0.0
 11
93.59357169779153
 21
196.6836670528977
 31
0.0
 11
93.59131922417745
 21
196.6665534023905
 31
0.0
 11
93.58919284772671
 21
196.6490245876249
 31
0.0
 11
93.58692941450383
 21
196.6282328742985
 31
0.0
 11
93.58487589939882
 21
196.6065752045222
 31
0.0
  0
SPLINE
  5
F4
330
2
100
AcDbEntity
  8
GAIKEI
  6
Continuous
 62
     1
100
AcDbSpline
210
0.0
220
0.0
230
1.0
 70
     8
 71
     3
 72
    17
 73
    13
 74
    11
 42
0.0000000001
 43
0.0000000001
 44
0.00000000001
 40
0.0
 40
0.0
 40
0.0
 40
0.0
 40
0.0217548060122547
 40
0.0426693577207802
 40
0.0603266741626285
 40
0.0775879218310176
 40
0.0941449769834649
 40
0.1105456091149219
 40
0.1311904864882972
 40
0.1526832869283006
 40
0.181964313472752
 40
0.2126952785935638
 40
0.2126952785935638
 40
0.2126952785935638
 40
0.2126952785935638
 10
93.58487589939882
 20
196.3265752045222
 30
0.0
 10
93.58553868951878
 20
196.3193538357537
 30
0.0
 10
93.58683867025439
 20
196.3051900152608
 30
0.0
 10
93.58903092445812
 20
196.2851999693993
 30
0.0
 10
93.59127432908435
 20
196.2667244282732
 30
0.0
 10
93.59350972522817
 20
196.2497117967414
 30
0.0
 10
93.59586948311124
 20
196.2331389747967
 30
0.0
 10
93.59858474691003
 20
196.2154786043457
 30
0.0
 10
93.60178824444171
 20
196.1962300302463
 30
0.0
 10
93.60595919293887
 20
196.1727917471847
 30
0.0
 10
93.6111293645643
 20
196.146117145228
 30
0.0
 10
93.61542830648836
 20
196.1265798636339
 30
0.0
 10
93.61762971041878
 20
196.1165752045223
 30
0.0
 11
93.58487589939882
 21
196.3265752045222
 31
0.0
 11
93.5869294145047
 21
196.3049175347412
 31
0.0
 11
93.58919284772644
 21
196.2841258214107
 31
0.0
 11
93.59131922417621
 21
196.2665970066441
 31
0.0
 11
93.59357169779167
 21
196.249483356137
 31
0.0
 11
93.59590732710669
 21
196.2330918671557
 31
0.0
 11
93.59839929922006
 21
196.2168816602076
 31
0.0
 11
93.60177902922989
 21
196.1965153059236
 31
0.0
 11
93.60555013677407
 21
196.1753559293108
 31
0.0
 11
93.61115455167468
 21
196.1466162520489
 31
0.0
 11
93.61762971041878
 21
196.1165752045223
 31
0.0
  0
SPLINE
  5
F5
330
2
100
AcDbEntity
  8
GAIKEI
  6
Continuous
 62
     1
100
AcDbSpline
210
0.0
220
0.0
230
1.0
 70
     8
 71
     3
 72
    19
 73
    15
 74
    13
 42
0.0000000001
 43
0.0000000001
 44
0.00000000001
 40
0.0
 40
0.0
 40
0.0
 40
0.0
 40
0.0014442868393111
 40
0.0029231299796764
 40
0.0049196509526938
 40
0.006948463707907
 40
0.0096719888683004
 40
0.0124277548050652
 40
0.0158240246307
 40
0.0191046686948484
 40
0.023413442979358
 40
0.0278819274473096
 40
0.0339649021667879
 40
0.0403178194295783
 40
0.0403178194295783
 40
0.0403178194295783
 40
0.0403178194295783
 10
93.58487589939882
 20
196.3665752045223
 30
0.0
 10
93.58458205402216
 20
196.3661850833901
 30
0.0
 10
93.58398733266453
 20
196.3653955070082
 30
0.0
 10
93.58371528164829
 20
196.3637366594485
 30
0.0
 10
93.58365657072305
 20
196.3619137178966
 30
0.0
 10
93.58350894088209
 20
196.3596652211782
 30
0.0
 10
93.58341612012516
 20
196.357165001855
 30
0.0
 10
93.58339993480848
 20
196.3542058139978
 30
0.0
 10
93.58344779561852
 20
196.351061953043
 30
0.0
 10
93.58354650068568
 20
196.3474012702015
 30
0.0
 10
93.58371431687704
 20
196.343385335809
 30
0.0
 10
93.58397573280656
 20
196.3384387701398
 30
0.0
 10
93.58434700697831
 20
196.3328158749933
 30
0.0
 10
93.58469706902459
 20
196.3286853149954
 30
0.0
 10
93.58487589939882
 20
196.3265752045222
 30
0.0
 11
93.58487589939882
 21
196.3665752045223
 31
0.0
 11
93.58410008747066
 21
196.3653569761667
 31
0.0
 11
93.58377199480434
 21
196.3639149871806
 31
0.0
 11
93.58364581624844
 21
196.3619224573896
 31
0.0
 11
93.58353237610998
 21
196.3598968185939
 31
0.0
 11
93.58343078609605
 21
196.3571751887939
 31
0.0
 11
93.58340961731022
 21
196.3544195041638
 31
0.0
 11
93.58345513861303
 21
196.3510235394202
 31
0.0
 11
93.58354425809755
 21
196.3477441060556
 31
0.0
 11
93.58371986554582
 21
196.3434389117674
 31
0.0
 11
93.58395560390547
 21
196.338976649912
 31
0.0
 11
93.58435948480968
 21
196.3329070978978
 31
0.0
 11
93.58487589939882
 21
196.3265752045222
 31
0.0
  0
SPLINE
  5
F6
330
2
100
AcDbEntity
  8
GAIKEI
  6
Continuous
 62
     1
100
AcDbSpline
210
0.0
220
0.0
230
1.0
 70
     8
 71
     3
 72
    21
 73
    17
 74
    15
 42
0.0000000001
 43
0.0000000001
 44
0.00000000001
 40
0.0
 40
0.0
 40
0.0
 40
0.0
 40
0.0483347742869654
 40
0.0944900124668122
 40
0.128242390150644
 40
0.1607412484775044
 40
0.1859023235491453
 40
0.2119889971603319
 40
0.2342705333082909
 40
0.2565537074947101
 40
0.2738335103008638
 40
0.2909942346385003
 40
0.3029174738522602
 40
0.3144823073773615
 40
0.3224579804349809
 40
0.3301807206521805
 40
0.3301807206521805
 40
0.3301807206521805
 40
0.3301807206521805
 10
94.28163731469879
 20
198.0322283533622
 30
0.0
 10
94.28180421010207
 20
198.0161176219894
 30
0.0
 10
94.28213047517663
 20
197.9846226324976
 30
0.0
 10
94.28247222722546
 20
197.9418764926448
 30
0.0
 10
94.282709671533
 20
197.9044084142669
 30
0.0
 10
94.28286245617654
 20
197.8739380105966
 30
0.0
 10
94.28294863738424
 20
197.8460225920653
 30
0.0
 10
94.2829764937108
 20
197.8215128299171
 30
0.0
 10
94.28295287731037
 20
197.7979623540139
 30
0.0
 10
94.28289835109078
 20
197.7773476243825
 30
0.0
 10
94.28277021926058
 20
197.7584398921515
 30
0.0
 10
94.28255324609342
 20
197.7429871910753
 30
0.0
 10
94.2823004121754
 20
197.7294386331217
 30
0.0
 10
94.28223742465775
 20
197.7189542003392
 30
0.0
 10
94.28192586698395
 20
197.7098604013395
 30
0.0
 10
94.28117931295423
 20
197.7046772899236
 30
0.0
 10
94.28081205017878
 20
197.7021274893623
 30
0.0
 11
94.28163731469879
 21
198.0322283533622
 31
0.0
 11
94.28211851738998
 21
197.9838959744704
 31
0.0
 11
94.28249054955285
 21
197.9377422356889
 31
0.0
 11
94.28270473634023
 21
197.9039905376082
 31
0.0
 11
94.28286295502587
 21
197.8714920644226
 31
0.0
 11
94.28293965245002
 21
197.8463311062479
 31
0.0
 11
94.28296790215583
 21
197.8202444479328
 31
0.0
 11
94.28294677963
 21
197.7979629217967
 31
0.0
 11
94.28287665494716
 21
197.775679857951
 31
0.0
 11
94.28274896141417
 21
197.7584005269634
 31
0.0
 11
94.28251314077369
 21
197.7412414230119
 31
0.0
 11
94.28232371304332
 21
197.7293196886379
 31
0.0
 11
94.28216572410409
 21
197.7177559343185
 31
0.0
 11
94.28177658160274
 21
197.7097897602785
 31
0.0
 11
94.28081205017878
 21
197.7021274893623
 31
0.0
  0
SPLINE
  5
F7
330
2
100
AcDbEntity
  8
GAIKEI
  6
Continuous
 62
     7
100
AcDbSpline
210
0.0
220
0.0
230
1.0
 70
     8
 71
     3
 72
    11
 73
     7
 74
     5
 42
0.0000000001
 43
0.0000000001
 44
0.00000000001
 40
0.0
 40
0.0
 40
0.0
 40
0.0
 40
0.1002268944205655
 40
0.2004566888486704
 40
0.3007009833142486
 40
0.4009481777872612
 40
0.4009481777872612
 40
0.4009481777872612
 40
0.4009481777872612
 10
86.91557845455875
 20
193.1617957482223
 30
0.0
 10
86.88724799459384
 20
193.1440885754485
 30
0.0
 10
86.8305862549384
 20
193.1086737175539
 30
0.0
 10
86.74558912713809
 20
193.0555486285268
 30
0.0
 10
86.66058625479994
 20
193.0024199634054
 30
0.0
 10
86.60391466121442
 20
192.9669989849054
 30
0.0
 10
86.57557845455874
 20
192.9492882394822
 30
0.0
 11
86.91557845455875
 21
193.1617957482223
 31
0.0
 11
86.83058707302633
 21
193.108674232521
 31
0.0
 11
86.74559322469011
 21
193.0555511919821
 31
0.0
 11
86.66058707293421
 21
193.0024204782982
 31
0.0
 11
86.57557845455874
 21
192.9492882394822
 31
0.0
  0
SPLINE
  5
F8
330
2
100
AcDbEntity
  8
GAIKEI
  6
Continuous
 62
     7
100
AcDbSpline
210
0.0
220
0.0
230
1.0
 70
     8
 71
     3
 72
    15
 73
    11
 74
     9
 42
0.0000000001
 43
0.0000000001
 44
0.00000000001
 40
0.0
 40
0.0
 40
0.0
 40
0.0
 40
0.016445628396517
 40
0.0321321327834193
 40
0.0446829691243529
 40
0.0571603146144277
 40
0.0672479584331064
 40
0.0774207409495036
 40
0.0852298228456058
 40
0.0924788908890794
 40
0.0924788908890794
 40
0.0924788908890794
 40
0.0924788908890794
 10
80.7755784545588
 20
194.3518433609821
 30
0.0
 10
80.77581163172101
 20
194.3463533864909
 30
0.0
 10
80.77626722267554
 20
194.3356268526622
 30
0.0
 10
80.78005760971668
 20
194.3211102530116
 30
0.0
 10
80.78526454557422
 20
194.3085579209715
 30
0.0
 10
80.79089135404823
 20
194.2982632040611
 30
0.0
 10
80.79718467573279
 20
194.2893180391952
 30
0.0
 10
80.80347773468139
 20
194.282370198772
 30
0.0
 10
80.80959015689428
 20
194.2765800953709
 30
0.0
 10
80.8135253643552
 20
194.2734609143375
 30
0.0
 10
80.81541979273877
 20
194.2719593251222
 30
0.0
 11
80.7755784545588
 21
194.3518433609821
 31
0.0
 11
80.77687265080333
 21
194.3354487353555
 31
0.0
 11
80.78069883743504
 21
194.3202360197617
 31
0.0
 11
80.78547753304491
 21
194.3086305227398
 31
0.0
 11
80.7914950395161
 21
194.2977001171504
 31
0.0
 11
80.79732883875255
 21
194.2894704546858
 31
0.0
 11
80.80411162125548
 21
194.281888939953
 31
0.0
 11
80.80980307429507
 21
194.2765420602687
 31
0.0
 11
80.81541979273877
 21
194.2719593251222
 31
0.0
  0
SPLINE
  5
F9
330
2
100
AcDbEntity
  8
GAIKEI
  6
Continuous
 62
     1
100
AcDbSpline
210
0.0
220
0.0
230
1.0
 70
    24
 71
     3
 72
     9
 73
     5
 74
     3
 42
0.0000000001
 43
0.0000000001
 44
0.00000000001
 40
0.0
 40
0.0
 40
0.0
 40
0.0
 40
0.0200002430132081
 40
0.0400004860263593
 40
0.0400004860263593
 40
0.0400004860263593
 40
0.0400004860263593
 10
93.91557845455876
 20
198.0304238070622
 30
0.0
 10
93.92224512131544
 20
198.0304566531455
 30
0.0
 10
93.93557845482877
 20
198.0305223453122
 30
0.0
 10
93.94891178834209
 20
198.0305880374789
 30
0.0
 10
93.95557845509873
 20
198.0306208835623
 30
0.0
 11
93.91557845455876
 21
198.0304238070622
 31
0.0
 11
93.93557845482877
 21
198.0305223453122
 31
0.0
 11
93.95557845509873
 21
198.0306208835623
 31
0.0
  0
SPLINE
  5
FA
330
2
100
AcDbEntity
  8
GAIKEI
  6
Continuous
 62
     1
100
AcDbSpline
210
0.0
220
0.0
230
1.0
 70
     8
 71
     3
 72
     9
 73
     5
 74
     3
 42
0.0000000001
 43
0.0000000001
 44
0.00000000001
 40
0.0
 40
0.0
 40
0.0
 40
0.0
 40
0.1000118766468129
 40
0.2000237532936086
 40
0.2000237532936086
 40
0.2000237532936086
 40
0.2000237532936086
 10
94.19557845379875
 20
194.9085594314023
 30
0.0
 10
94.22891178749244
 20
194.9080457027427
 30
0.0
 10
94.29557845487975
 20
194.9070182454236
 30
0.0
 10
94.36224512133245
 20
194.9059907274627
 30
0.0
 10
94.39557845455878
 20
194.9054769684823
 30
0.0
 11
94.19557845379875
 21
194.9085594314023
 31
0.0
 11
94.29557845464609
 21
194.9070182302632
 31
0.0
 11
94.39557845455878
 21
194.9054769684823
 31
0.0
  0
SPLINE
  5
FB
330
2
100
AcDbEntity
  8
GAIKEI
  6
Continuous
 62
     1
100
AcDbSpline
210
0.0
220
0.0
230
1.0
 70
    24
 71
     3
 72
     9
 73
     5
 74
     3
 42
0.0000000001
 43
0.0000000001
 44
0.00000000001
 40
0.0
 40
0.0
 40
0.0
 40
0.0
 40
0.0007848553381263
 40
0.0015697106762422
 40
0.0015697106762422
 40
0.0015697106762422
 40
0.0015697106762422
 10
87.51557845455881
 20
193.5361887275222
 30
0.0
 10
87.51580215080879
 20
193.5360530654455
 30
0.0
 10
87.51624954330877
 20
193.5357817412922
 30
0.0
 10
87.51669693580875
 20
193.5355104171388
 30
0.0
 10
87.51692063205878
 20
193.5353747550622
 30
0.0
 11
87.51557845455881
 21
193.5361887275222
 31
0.0
 11
87.51624954330877
 21
193.5357817412922
 31
0.0
 11
87.51692063205878
 21
193.5353747550622
 31
0.0
  0
SPLINE
  5
FC
330
2
100
AcDbEntity
  8
GAIKEI
  6
Continuous
 62
     7
100
AcDbSpline
210
0.0
220
0.0
230
1.0
 70
     8
 71
     3
 72
    11
 73
     7
 74
     5
 42
0.0000000001
 43
0.0000000001
 44
0.00000000001
 40
0.0
 40
0.0
 40
0.0
 40
0.0
 40
0.1002268944169685
 40
0.2004566888423499
 40
0.3007009833104707
 40
0.4009481777872132
 40
0.4009481777872132
 40
0.4009481777872132
 40
0.4009481777872132
 10
87.51557845455881
 20
193.1617957482223
 30
0.0
 10
87.54390891452024
 20
193.1440885754451
 30
0.0
 10
87.60057065416889
 20
193.1086737175438
 30
0.0
 10
87.68556778197217
 20
193.0555486285236
 30
0.0
 10
87.77057065431687
 20
193.0024199634107
 30
0.0
 10
87.82724224790277
 20
192.9669989849073
 30
0.0
 10
87.85557845455874
 20
192.9492882394822
 30
0.0
 11
87.51557845455881
 21
193.1617957482223
 31
0.0
 11
87.60056983608263
 21
193.108674232514
 31
0.0
 11
87.6855636844189
 21
193.0555511919803
 31
0.0
 11
87.77056983618098
 21
193.0024204783016
 31
0.0
 11
87.85557845455874
 21
192.9492882394822
 31
0.0
  0
ARC
  5
FD
330
2
100
AcDbEntity
  8
GAIKEI
  6
Continuous
 62
     1
100
AcDbCircle
 10
92.85909452859877
 20
196.5513716523822
 30
0.0
 40
1.59648392594
100
AcDbArc
 50
12.66391528419757
 51
16.96702655000164
  0
ARC
  5
FE
330
2
100
AcDbEntity
  8
GAIKEI
  6
Continuous
 62
     1
100
AcDbCircle
 10
92.85909452859877
 20
196.5513716523822
 30
0.0
 40
1.59648392594
100
AcDbArc
 50
337.6434605857014
 51
346.0445664732973
  0
ARC
  5
FF
330
2
100
AcDbEntity
  8
GAIKEI
  6
Continuous
 62
     1
100
AcDbCircle
 10
95.17206238049874
 20
196.4665752045222
 30
0.0
 40
1.59648392594
100
AcDbArc
 50
192.6639152841992
 51
202.3565394142987
  0
ARC
  5
100
330
2
100
AcDbEntity
  8
GAIKEI
  6
Continuous
 62
     1
100
AcDbCircle
 10
95.17206238049874
 20
196.4665752045222
 30
0.0
 40
1.59648392594
100
AcDbArc
 50
157.6434605857013
 51
167.3360847158008
  0
ARC
  5
101
330
2
100
AcDbEntity
  8
GAIKEI
  6
Continuous
 62
     1
100
AcDbCircle
 10
94.69557845455875
 20
195.6113716523822
 30
0.0
 40
0.2
100
AcDbArc
 50
270.0
 51
0.0
  0
ARC
  5
102
330
2
100
AcDbEntity
  8
GAIKEI
  6
Continuous
 62
     1
100
AcDbCircle
 10
94.27557845455877
 20
197.8019904428422
 30
0.0
 40
0.1
100
AcDbArc
 50
272.9999999999502
 51
0.0
  0
ARC
  5
103
330
2
100
AcDbEntity
  8
GAIKEI
  6
Continuous
 62
     7
100
AcDbCircle
 10
79.27557845455877
 20
204.9513716523823
 30
0.0
 40
11.0
100
AcDbArc
 50
91.04179885049992
 51
268.9582011495001
  0
ARC
  5
104
330
2
100
AcDbEntity
  8
GAIKEI
  6
Continuous
 62
     1
100
AcDbCircle
 10
95.21557845455877
 20
210.4557561242422
 30
0.0
 40
0.26
100
AcDbArc
 50
0.0
 51
39.42180653769848
  0
ARC
  5
105
330
2
100
AcDbEntity
  8
GAIKEI
  6
Continuous
 62
     1
100
AcDbCircle
 10
95.21557845455877
 20
208.6469871805022
 30
0.0
 40
0.26
100
AcDbArc
 50
320.5781934623015
 51
0.0
  0
ARC
  5
106
330
2
100
AcDbEntity
  8
GAIKEI
  6
Continuous
 62
     1
100
AcDbCircle
 10
95.21557845455877
 20
201.2557561242422
 30
0.0
 40
0.26
100
AcDbArc
 50
0.0
 51
39.42180653769848
  0
ARC
  5
107
330
2
100
AcDbEntity
  8
GAIKEI
  6
Continuous
 62
     1
100
AcDbCircle
 10
95.21557845455877
 20
199.4469871805022
 30
0.0
 40
0.26
100
AcDbArc
 50
320.5781934623015
 51
0.0
  0
LINE
  5
108
330
2
100
AcDbEntity
  8
GAIKEI
  6
Continuous
 62
     1
100
AcDbLine
 10
86.44742722555879
 20
192.9108648900822
 30
0.0
 11
86.44282198253876
 21
194.0483599183422
 31
0.0
  0
LINE
  5
109
330
2
100
AcDbEntity
  8
GAIKEI
  6
Continuous
 62
     1
100
AcDbLine
 10
85.30532695425875
 20
194.0437546753222
 30
0.0
 11
85.30953851685877
 21
192.9330142901022
 31
0.0
  0
LINE
  5
10A
330
2
100
AcDbEntity
  8
GAIKEI
  6
Continuous
 62
     1
100
AcDbLine
 10
87.99965839681878
 20
192.9068456697022
 30
0.0
 11
87.99732060361876
 21
194.0502414009222
 31
0.0
  0
LINE
  5
10B
330
2
100
AcDbEntity
  8
GAIKEI
  6
Continuous
 62
     1
100
AcDbLine
 10
90.20473322563876
 20
194.0547546889022
 30
0.0
 11
90.20714011093877
 21
192.8775665638622
 31
0.0
  0
LINE
  5
10C
330
2
100
AcDbEntity
  8
GAIKEI
  6
Continuous
 62
     1
100
AcDbLine
 10
86.44282198253876
 20
194.0483599183422
 30
0.0
 11
85.30532695425875
 21
194.0437546753222
 31
0.0
  0
LINE
  5
10D
330
2
100
AcDbEntity
  8
GAIKEI
  6
Continuous
 62
     1
100
AcDbLine
 10
87.99732060361876
 20
194.0502414009222
 30
0.0
 11
90.20473322563876
 21
194.0547546889022
 31
0.0
  0
LINE
  5
10E
330
2
100
AcDbEntity
  8
GAIKEI
  6
Continuous
 62
     7
100
AcDbLine
 10
86.91557845455879
 20
193.2113716523822
 30
0.0
 11
87.51557845455877
 21
193.2113716523822
 31
0.0
  0
LINE
  5
10F
330
2
100
AcDbEntity
  8
GAIKEI
  6
Continuous
 62
     7
100
AcDbLine
 10
87.91557845455878
 20
192.9113716523822
 30
0.0
 11
95.41557845455878
 21
192.8013716523822
 31
0.0
  0
LINE
  5
110
330
2
100
AcDbEntity
  8
GAIKEI
  6
Continuous
 62
     7
100
AcDbLine
 10
81.11557845455877
 20
193.0013716523822
 30
0.0
 11
86.51557845455878
 21
192.9113716523822
 31
0.0
  0
LINE
  5
111
330
2
100
AcDbEntity
  8
GAIKEI
  6
Continuous
 62
     7
100
AcDbLine
 10
79.07557845455875
 20
193.9113716523822
 30
0.0
 11
80.81557845455876
 21
193.9113716523822
 31
0.0
  0
LINE
  5
112
330
2
100
AcDbEntity
  8
GAIKEI
  6
Continuous
 62
     7
100
AcDbLine
 10
80.77557845455876
 20
194.3518433609822
 30
0.0
 11
80.81557845455876
 21
194.3518433609822
 31
0.0
  0
LINE
  5
113
330
2
100
AcDbEntity
  8
GAIKEI
  6
Continuous
 62
     1
100
AcDbLine
 10
94.33557845455874
 20
195.9441187049022
 30
0.0
 11
94.19557845455875
 21
195.9318702920022
 31
0.0
  0
LINE
  5
114
330
2
100
AcDbEntity
  8
GAIKEI
  6
Continuous
 62
     1
100
AcDbLine
 10
93.69557845455876
 20
197.0738281520022
 30
0.0
 11
93.95557845455877
 21
197.0965752045222
 31
0.0
  0
LINE
  5
115
330
2
100
AcDbEntity
  8
GAIKEI
  6
Continuous
 62
     1
100
AcDbLine
 10
93.95557845455877
 20
194.7596475561222
 30
0.0
 11
94.19557845455875
 21
194.7596475561222
 31
0.0
  0
LINE
  5
116
330
2
100
AcDbEntity
  8
GAIKEI
  6
Continuous
 62
     1
100
AcDbLine
 10
93.95557845455877
 20
195.0454174683622
 30
0.0
 11
94.19557845455875
 21
195.0454174683622
 31
0.0
  0
LINE
  5
117
330
2
100
AcDbEntity
  8
GAIKEI
  6
Continuous
 62
     1
100
AcDbLine
 10
94.43557845455876
 20
195.3621591781022
 30
0.0
 11
94.67557845455877
 21
195.3621591781022
 31
0.0
  0
LINE
  5
118
330
2
100
AcDbEntity
  8
GAIKEI
  6
Continuous
 62
     1
100
AcDbLine
 10
94.67557845455877
 20
195.4113716523822
 30
0.0
 11
94.69557845455875
 21
195.4113716523822
 31
0.0
  0
LINE
  5
119
330
2
100
AcDbEntity
  8
GAIKEI
  6
Continuous
 62
     1
100
AcDbLine
 10
94.43557845455876
 20
195.5050441342422
 30
0.0
 11
94.67557845455877
 21
195.5050441342422
 31
0.0
  0
LINE
  5
11A
330
2
100
AcDbEntity
  8
GAIKEI
  6
Continuous
 62
     1
100
AcDbLine
 10
94.67557845455877
 20
195.6113716523822
 30
0.0
 11
94.69557845455875
 21
195.6113716523822
 31
0.0
  0
LINE
  5
11B
330
2
100
AcDbEntity
  8
GAIKEI
  6
Continuous
 62
     1
100
AcDbLine
 10
94.67557845455877
 20
195.7113716523822
 30
0.0
 11
94.69557845455875
 21
195.7113716523822
 31
0.0
  0
LINE
  5
11C
330
2
100
AcDbEntity
  8
GAIKEI
  6
Continuous
 62
     1
100
AcDbLine
 10
94.69557845455875
 20
195.8113716523822
 30
0.0
 11
94.89557845455877
 21
195.8113716523822
 31
0.0
  0
LINE
  5
11D
330
2
100
AcDbEntity
  8
GAIKEI
  6
Continuous
 62
     1
100
AcDbLine
 10
94.19557845455875
 20
195.9113716523822
 30
0.0
 11
94.39557845455878
 21
195.9113716523822
 31
0.0
  0
LINE
  5
11E
330
2
100
AcDbEntity
  8
GAIKEI
  6
Continuous
 62
     1
100
AcDbLine
 10
94.15557845455879
 20
194.4472623800422
 30
0.0
 11
95.41557845455878
 21
194.4202695237335
 31
0.0
  0
LINE
  5
11F
330
2
100
AcDbEntity
  8
GAIKEI
  6
Continuous
 62
     7
100
AcDbLine
 10
80.81557845455876
 20
216.6013716523822
 30
0.0
 11
81.11557845455877
 21
216.9013716523823
 31
0.0
  0
LINE
  5
120
330
2
100
AcDbEntity
  8
GAIKEI
  6
Continuous
 62
     1
100
AcDbLine
 10
94.19827117695877
 20
197.6978017055022
 30
0.0
 11
94.28081205017878
 21
197.7021274893622
 31
0.0
  0
LINE
  5
121
330
2
100
AcDbEntity
  8
GAIKEI
  6
Continuous
 62
     1
100
AcDbLine
 10
94.91557845455877
 20
195.9765752045222
 30
0.0
 11
94.67557845455877
 21
195.9765752045222
 31
0.0
  0
LINE
  5
122
330
2
100
AcDbEntity
  8
GAIKEI
  6
Continuous
 62
     1
100
AcDbLine
 10
93.61762971041875
 20
196.1165752045222
 30
0.0
 11
93.61441642399876
 21
196.1165752045222
 31
0.0
  0
LINE
  5
123
330
2
100
AcDbEntity
  8
GAIKEI
  6
Continuous
 62
     1
100
AcDbLine
 10
94.19557845455875
 20
196.1665752045222
 30
0.0
 11
94.43557845455876
 21
196.1665752045222
 31
0.0
  0
LINE
  5
124
330
2
100
AcDbEntity
  8
GAIKEI
  6
Continuous
 62
     1
100
AcDbLine
 10
94.91557845455877
 20
196.1665752045222
 30
0.0
 11
95.15557845455878
 21
196.1665752045222
 31
0.0
  0
LINE
  5
125
330
2
100
AcDbEntity
  8
GAIKEI
  6
Continuous
 62
     1
100
AcDbLine
 10
94.43557845455876
 20
196.2710885773622
 30
0.0
 11
94.67557845455877
 21
196.2710885773622
 31
0.0
  0
LINE
  5
126
330
2
100
AcDbEntity
  8
GAIKEI
  6
Continuous
 62
     1
100
AcDbLine
 10
93.61762971041875
 20
196.3665752045222
 30
0.0
 11
93.58487589939878
 21
196.3665752045222
 31
0.0
  0
LINE
  5
127
330
2
100
AcDbEntity
  8
GAIKEI
  6
Continuous
 62
     1
100
AcDbLine
 10
93.58487589939878
 20
196.5665752045222
 30
0.0
 11
93.61762971041875
 21
196.5665752045222
 31
0.0
  0
LINE
  5
128
330
2
100
AcDbEntity
  8
GAIKEI
  6
Continuous
 62
     1
100
AcDbLine
 10
94.19557845455875
 20
196.7307152432222
 30
0.0
 11
93.95557845455877
 21
196.7307152432222
 31
0.0
  0
LINE
  5
129
330
2
100
AcDbEntity
  8
GAIKEI
  6
Continuous
 62
     1
100
AcDbLine
 10
94.19557845455875
 20
196.7665752045222
 30
0.0
 11
94.43557845455876
 21
196.7665752045222
 31
0.0
  0
LINE
  5
12A
330
2
100
AcDbEntity
  8
GAIKEI
  6
Continuous
 62
     1
100
AcDbLine
 10
94.91557845455877
 20
196.7665752045222
 30
0.0
 11
95.15557845455878
 21
196.7665752045222
 31
0.0
  0
LINE
  5
12B
330
2
100
AcDbEntity
  8
GAIKEI
  6
Continuous
 62
     1
100
AcDbLine
 10
93.61441642399876
 20
196.8165752045222
 30
0.0
 11
93.61762971041875
 21
196.8165752045222
 31
0.0
  0
LINE
  5
12C
330
2
100
AcDbEntity
  8
GAIKEI
  6
Continuous
 62
     1
100
AcDbLine
 10
94.43557845455876
 20
196.8346213984822
 30
0.0
 11
94.67557845455877
 21
196.8346213984822
 31
0.0
  0
LINE
  5
12D
330
2
100
AcDbEntity
  8
GAIKEI
  6
Continuous
 62
     1
100
AcDbLine
 10
94.41352719867877
 20
196.9013716523822
 30
0.0
 11
94.41674048509876
 21
196.9013716523822
 31
0.0
  0
LINE
  5
12E
330
2
100
AcDbEntity
  8
GAIKEI
  6
Continuous
 62
     1
100
AcDbLine
 10
94.91557845455877
 20
196.9565752045222
 30
0.0
 11
94.67557845455877
 21
196.9565752045222
 31
0.0
  0
LINE
  5
12F
330
2
100
AcDbEntity
  8
GAIKEI
  6
Continuous
 62
     1
100
AcDbLine
 10
93.69557845455876
 20
195.8593222570222
 30
0.0
 11
93.95557845455877
 21
195.8365752045222
 31
0.0
  0
LINE
  5
130
330
2
100
AcDbEntity
  8
GAIKEI
  6
Continuous
 62
     7
100
AcDbLine
 10
80.81557845455876
 20
193.3013716523822
 30
0.0
 11
81.11557845455877
 21
193.0013716523822
 31
0.0
  0
LINE
  5
131
330
2
100
AcDbEntity
  8
GAIKEI
  6
Continuous
 62
     1
100
AcDbLine
 10
94.19557845455875
 20
198.0449453309822
 30
0.0
 11
93.95557845455877
 21
198.0449453309822
 31
0.0
  0
LINE
  5
132
330
2
100
AcDbEntity
  8
GAIKEI
  6
Continuous
 62
     7
100
AcDbLine
 10
87.51557845455877
 20
216.7413716523822
 30
0.0
 11
87.91557845455878
 21
216.9913716523822
 31
0.0
  0
LINE
  5
133
330
2
100
AcDbEntity
  8
GAIKEI
  6
Continuous
 62
     7
100
AcDbLine
 10
87.85557845455878
 20
192.9488716523822
 30
0.0
 11
87.91557845455878
 21
192.9113716523822
 31
0.0
  0
LINE
  5
134
330
2
100
AcDbEntity
  8
GAIKEI
  6
Continuous
 62
     7
100
AcDbLine
 10
79.07557845455875
 20
193.9113716523822
 30
0.0
 11
79.07557845455875
 21
193.9531899844822
 31
0.0
  0
LINE
  5
135
330
2
100
AcDbEntity
  8
GAIKEI
  6
Continuous
 62
     1
100
AcDbLine
 10
79.07557845455875
 20
215.9495533202622
 30
0.0
 11
79.07557845455875
 21
215.9913716523822
 31
0.0
  0
LINE
  5
136
330
2
100
AcDbEntity
  8
GAIKEI
  6
Continuous
 62
     7
100
AcDbLine
 10
80.81557845455876
 20
216.6013716523822
 30
0.0
 11
80.81557845455876
 21
193.3013716523822
 31
0.0
  0
LINE
  5
137
330
2
100
AcDbEntity
  8
GAIKEI
  6
Continuous
 62
     1
100
AcDbLine
 10
81.11557845455877
 20
216.9013716523823
 30
0.0
 11
81.11557845455877
 21
193.0013716523822
 31
0.0
  0
LINE
  5
138
330
2
100
AcDbEntity
  8
GAIKEI
  6
Continuous
 62
     1
100
AcDbLine
 10
94.19557845455875
 20
197.0700560586622
 30
0.0
 11
94.33907132713875
 21
196.9755046037622
 31
0.0
  0
LINE
  5
139
330
2
100
AcDbEntity
  8
GAIKEI
  6
Continuous
 62
     1
100
AcDbLine
 10
94.20253619393875
 20
197.3079795102422
 30
0.0
 11
94.49557845455876
 21
197.1148857935222
 31
0.0
  0
LINE
  5
13A
330
2
100
AcDbEntity
  8
GAIKEI
  6
Continuous
 62
     1
100
AcDbLine
 10
94.20253619393875
 20
197.6936520760622
 30
0.0
 11
94.49557845455876
 21
197.5005583593422
 31
0.0
  0
LINE
  5
13B
330
2
100
AcDbEntity
  8
GAIKEI
  6
Continuous
 62
     1
100
AcDbLine
 10
94.19557845455875
 20
195.1171371933222
 30
0.0
 11
94.20253619393875
 21
195.1109408110422
 31
0.0
  0
LINE
  5
13C
330
2
100
AcDbEntity
  8
GAIKEI
  6
Continuous
 62
     1
100
AcDbLine
 10
94.33907132713875
 20
195.4434157175222
 30
0.0
 11
94.49557845455876
 21
195.3040345277622
 31
0.0
  0
LINE
  5
13D
330
2
100
AcDbEntity
  8
GAIKEI
  6
Continuous
 62
     1
100
AcDbLine
 10
94.33907132713875
 20
195.8290882833422
 30
0.0
 11
94.43557845455876
 21
195.7431415378822
 31
0.0
  0
LINE
  5
13E
330
2
100
AcDbEntity
  8
GAIKEI
  6
Continuous
 62
     1
100
AcDbLine
 10
86.51557845455878
 20
216.9913716523822
 30
0.0
 11
86.51557845455878
 21
192.9113716523822
 31
0.0
  0
LINE
  5
13F
330
2
100
AcDbEntity
  8
GAIKEI
  6
Continuous
 62
     7
100
AcDbLine
 10
86.57557845455874
 20
192.9492882394822
 30
0.0
 11
86.57557845455874
 21
192.9488716523822
 31
0.0
  0
LINE
  5
140
330
2
100
AcDbEntity
  8
GAIKEI
  6
Continuous
 62
     1
100
AcDbLine
 10
86.91557845455879
 20
216.7413716523822
 30
0.0
 11
86.91557845455879
 21
193.1617957482222
 31
0.0
  0
LINE
  5
141
330
2
100
AcDbEntity
  8
GAIKEI
  6
Continuous
 62
     1
100
AcDbLine
 10
87.51557845455877
 20
193.1617957482222
 30
0.0
 11
87.51557845455877
 21
216.7413716523822
 31
0.0
  0
LINE
  5
142
330
2
100
AcDbEntity
  8
GAIKEI
  6
Continuous
 62
     7
100
AcDbLine
 10
87.85557845455878
 20
192.9492882394822
 30
0.0
 11
87.85557845455878
 21
192.9488716523822
 31
0.0
  0
LINE
  5
143
330
2
100
AcDbEntity
  8
GAIKEI
  6
Continuous
 62
     1
100
AcDbLine
 10
87.91557845455878
 20
216.9913716523822
 30
0.0
 11
87.91557845455878
 21
192.9113716523822
 31
0.0
  0
LINE
  5
144
330
2
100
AcDbEntity
  8
GAIKEI
  6
Continuous
 62
     7
100
AcDbLine
 10
81.11557845455877
 20
216.9013716523823
 30
0.0
 11
86.51557845455878
 21
216.9913716523822
 31
0.0
  0
LINE
  5
145
330
2
100
AcDbEntity
  8
GAIKEI
  6
Continuous
 62
     7
100
AcDbLine
 10
87.91557845455878
 20
216.9913716523822
 30
0.0
 11
95.41557845455878
 21
217.1013716523822
 31
0.0
  0
LINE
  5
146
330
2
100
AcDbEntity
  8
GAIKEI
  6
Continuous
 62
     7
100
AcDbLine
 10
79.07557845455875
 20
215.9913716523822
 30
0.0
 11
80.81557845455876
 21
215.9913716523822
 31
0.0
  0
LINE
  5
147
330
2
100
AcDbEntity
  8
GAIKEI
  6
Continuous
 62
     7
100
AcDbLine
 10
86.91557845455879
 20
216.6913716523822
 30
0.0
 11
87.51557845455877
 21
216.6913716523822
 31
0.0
  0
LINE
  5
148
330
2
100
AcDbEntity
  8
GAIKEI
  6
Continuous
 62
     1
100
AcDbLine
 10
93.69557845455876
 20
195.8593222570222
 30
0.0
 11
93.69557845455876
 21
197.0738281520022
 31
0.0
  0
LINE
  5
149
330
2
100
AcDbEntity
  8
GAIKEI
  6
Continuous
 62
     1
100
AcDbLine
 10
93.91557845455878
 20
198.0304238070622
 30
0.0
 11
93.91557845455878
 21
197.0930756579822
 31
0.0
  0
LINE
  5
14A
330
2
100
AcDbEntity
  8
GAIKEI
  6
Continuous
 62
     1
100
AcDbLine
 10
93.95557845455877
 20
194.7596455534422
 30
0.0
 11
93.95557845455877
 21
198.0449473939422
 31
0.0
  0
LINE
  5
14B
330
2
100
AcDbEntity
  8
GAIKEI
  6
Continuous
 62
     1
100
AcDbLine
 10
94.15557845455879
 20
194.7596475561222
 30
0.0
 11
94.15557845455879
 21
194.4472623800422
 31
0.0
  0
LINE
  5
14C
330
2
100
AcDbEntity
  8
GAIKEI
  6
Continuous
 62
     1
100
AcDbLine
 10
94.19557845455875
 20
198.0449473541622
 30
0.0
 11
94.19557845455875
 21
194.7596455138622
 31
0.0
  0
LINE
  5
14D
330
2
100
AcDbEntity
  8
GAIKEI
  6
Continuous
 62
     1
100
AcDbLine
 10
94.20253619393875
 20
197.3079795102422
 30
0.0
 11
94.20253619393875
 21
197.6936520760622
 31
0.0
  0
LINE
  5
14E
330
2
100
AcDbEntity
  8
GAIKEI
  6
Continuous
 62
     1
100
AcDbLine
 10
94.28081205017878
 20
197.7021274893622
 30
0.0
 11
94.28081205017878
 21
197.6420739317222
 31
0.0
  0
LINE
  5
14F
330
2
100
AcDbEntity
  8
GAIKEI
  6
Continuous
 62
     1
100
AcDbLine
 10
94.33557845455874
 20
196.9778061549022
 30
0.0
 11
94.33557845455874
 21
196.7665752045222
 31
0.0
  0
LINE
  5
150
330
2
100
AcDbEntity
  8
GAIKEI
  6
Continuous
 62
     1
100
AcDbLine
 10
94.33557845455874
 20
196.1665752045222
 30
0.0
 11
94.33557845455874
 21
195.9441187049022
 31
0.0
  0
LINE
  5
151
330
2
100
AcDbEntity
  8
GAIKEI
  6
Continuous
 62
     1
100
AcDbLine
 10
94.33907132713875
 20
195.4434157175222
 30
0.0
 11
94.33907132713875
 21
195.8290882833422
 31
0.0
  0
LINE
  5
152
330
2
100
AcDbEntity
  8
GAIKEI
  6
Continuous
 62
     1
100
AcDbLine
 10
94.37557845455875
 20
198.0326916076022
 30
0.0
 11
94.37557845455875
 21
197.5796297054222
 31
0.0
  0
LINE
  5
153
330
2
100
AcDbEntity
  8
GAIKEI
  6
Continuous
 62
     1
100
AcDbLine
 10
94.39557845455878
 20
198.0327903218422
 30
0.0
 11
94.39557845455878
 21
197.5664511477422
 31
0.0
  0
LINE
  5
154
330
2
100
AcDbEntity
  8
GAIKEI
  6
Continuous
 62
     1
100
AcDbLine
 10
94.39557845455878
 20
197.0258283863222
 30
0.0
 11
94.39557845455878
 21
196.9818636437422
 31
0.0
  0
LINE
  5
155
330
2
100
AcDbEntity
  8
GAIKEI
  6
Continuous
 62
     1
100
AcDbLine
 10
94.39557845455878
 20
196.1208796610222
 30
0.0
 11
94.39557845455878
 21
195.7787645007622
 31
0.0
  0
LINE
  5
156
330
2
100
AcDbEntity
  8
GAIKEI
  6
Continuous
 62
     1
100
AcDbLine
 10
94.39557845455878
 20
194.7322718877222
 30
0.0
 11
94.39557845455878
 21
195.2381417393422
 31
0.0
  0
LINE
  5
157
330
2
100
AcDbEntity
  8
GAIKEI
  6
Continuous
 62
     1
100
AcDbLine
 10
94.43557845455876
 20
198.0329877503022
 30
0.0
 11
94.43557845455876
 21
197.5400940323822
 31
0.0
  0
LINE
  5
158
330
2
100
AcDbEntity
  8
GAIKEI
  6
Continuous
 62
     1
100
AcDbLine
 10
94.43557845455876
 20
195.2644988547022
 30
0.0
 11
94.43557845455876
 21
194.7298854463622
 31
0.0
  0
LINE
  5
159
330
2
100
AcDbEntity
  8
GAIKEI
  6
Continuous
 62
     1
100
AcDbLine
 10
94.43557845455876
 20
195.3621760394422
 30
0.0
 11
94.43557845455876
 21
197.0614513492022
 31
0.0
  0
LINE
  5
15A
330
2
100
AcDbEntity
  8
GAIKEI
  6
Continuous
 62
     1
100
AcDbLine
 10
94.49557845455876
 20
195.3040345277622
 30
0.0
 11
94.49557845455876
 21
195.3621591781022
 31
0.0
  0
LINE
  5
15B
330
2
100
AcDbEntity
  8
GAIKEI
  6
Continuous
 62
     1
100
AcDbLine
 10
94.49557845455876
 20
197.1148857935222
 30
0.0
 11
94.49557845455876
 21
197.5005583593422
 31
0.0
  0
LINE
  5
15C
330
2
100
AcDbEntity
  8
GAIKEI
  6
Continuous
 62
     7
100
AcDbLine
 10
86.51557845455878
 20
192.9113716523822
 30
0.0
 11
86.57557845455874
 21
192.9488716523822
 31
0.0
  0
LINE
  5
15D
330
2
100
AcDbEntity
  8
GAIKEI
  6
Continuous
 62
     7
100
AcDbLine
 10
86.51557845455878
 20
216.9913716523822
 30
0.0
 11
86.91557845455879
 21
216.7413716523822
 31
0.0
  0
LINE
  5
15E
330
2
100
AcDbEntity
  8
GAIKEI
  6
Continuous
 62
     1
100
AcDbLine
 10
94.67557845455877
 20
198.0341723210222
 30
0.0
 11
94.67557845455877
 21
194.7155667982422
 31
0.0
  0
LINE
  5
15F
330
2
100
AcDbEntity
  8
GAIKEI
  6
Continuous
 62
     1
100
AcDbLine
 10
94.69557845455875
 20
195.6113716523822
 30
0.0
 11
94.69557845455875
 21
195.9765752045222
 31
0.0
  0
LINE
  5
160
330
2
100
AcDbEntity
  8
GAIKEI
  6
Continuous
 62
     1
100
AcDbLine
 10
94.89557845455877
 20
195.9765752045222
 30
0.0
 11
94.89557845455877
 21
195.6113716523822
 31
0.0
  0
LINE
  5
161
330
2
100
AcDbEntity
  8
GAIKEI
  6
Continuous
 62
     1
100
AcDbLine
 10
94.91557845455877
 20
196.9565752045222
 30
0.0
 11
94.91557845455877
 21
195.9765752045222
 31
0.0
  0
LINE
  5
162
330
2
100
AcDbEntity
  8
GAIKEI
  6
Continuous
 62
     1
100
AcDbLine
 10
94.97588306603876
 20
195.9113716523822
 30
0.0
 11
94.97588306603876
 21
196.0113716523822
 31
0.0
  0
LINE
  5
163
330
2
100
AcDbEntity
  8
GAIKEI
  6
Continuous
 62
     1
100
AcDbLine
 10
95.15557845455878
 20
196.1665752045222
 30
0.0
 11
95.15557845455878
 21
196.7665752045222
 31
0.0
  0
LINE
  5
164
330
2
100
AcDbEntity
  8
GAIKEI
  6
Continuous
 62
     7
100
AcDbLine
 10
95.41557845455878
 20
217.1013716523822
 30
0.0
 11
95.41557845455878
 21
192.8013716523822
 31
0.0
  0
LINE
  5
165
330
2
100
AcDbEntity
  8
GAIKEI
  6
Continuous
 62
     1
100
AcDbLine
 10
95.47557845455875
 20
210.4557561242422
 30
0.0
 11
95.47557845455875
 21
208.6469871805022
 31
0.0
  0
LINE
  5
166
330
2
100
AcDbEntity
  8
GAIKEI
  6
Continuous
 62
     1
100
AcDbLine
 10
95.47557845455875
 20
201.2557561242422
 30
0.0
 11
95.47557845455875
 21
199.4469871805022
 31
0.0
  0
LINE
  5
167
330
2
100
AcDbEntity
  8
GAIKEI
  6
Continuous
 62
     1
100
AcDbLine
 10
94.19557845455875
 20
197.3017831279422
 30
0.0
 11
94.20253619393875
 21
197.3079795102422
 31
0.0
  0
LINE
  5
168
330
2
100
AcDbEntity
  8
GAIKEI
  6
Continuous
 62
     1
100
AcDbLine
 10
94.33907132713875
 20
196.9755046037622
 30
0.0
 11
94.49557845455876
 21
197.1148857935222
 31
0.0
  0
LINE
  5
169
330
2
100
AcDbEntity
  8
GAIKEI
  6
Continuous
 62
     1
100
AcDbLine
 10
94.33907132713875
 20
195.8290882833422
 30
0.0
 11
94.19557845455875
 21
195.7345368284422
 31
0.0
  0
LINE
  5
16A
330
2
100
AcDbEntity
  8
GAIKEI
  6
Continuous
 62
     1
100
AcDbLine
 10
94.33907132713875
 20
195.4434157175222
 30
0.0
 11
94.19557845455875
 21
195.3488642626222
 31
0.0
  0
LINE
  5
16B
330
2
100
AcDbEntity
  8
GAIKEI
  6
Continuous
 62
     1
100
AcDbLine
 10
94.49557845455876
 20
195.3040345277622
 30
0.0
 11
94.20253619393875
 21
195.1109408110422
 31
0.0
  0
LINE
  5
16C
330
2
100
AcDbEntity
  8
GAIKEI
  6
Continuous
 62
     1
100
AcDbLine
 10
94.89557845455877
 20
195.7129768518022
 30
0.0
 11
94.90836442087873
 21
195.7162651143022
 31
0.0
  0
LINE
  5
16D
330
2
100
AcDbEntity
  8
GAIKEI
  6
Continuous
 62
     1
100
AcDbLine
 10
94.90836442087873
 20
195.7162651143022
 30
0.0
 11
94.92690116689876
 21
195.7311927051022
 31
0.0
  0
LINE
  5
16E
330
2
100
AcDbEntity
  8
GAIKEI
  6
Continuous
 62
     1
100
AcDbLine
 10
94.92690116689876
 20
195.7311927051022
 30
0.0
 11
94.94341873265875
 21
195.7552291218822
 31
0.0
  0
LINE
  5
16F
330
2
100
AcDbEntity
  8
GAIKEI
  6
Continuous
 62
     1
100
AcDbLine
 10
94.94341873265875
 20
195.7552291218822
 30
0.0
 11
94.95692308549877
 21
195.7864470708022
 31
0.0
  0
LINE
  5
170
330
2
100
AcDbEntity
  8
GAIKEI
  6
Continuous
 62
     1
100
AcDbLine
 10
94.95692308549877
 20
195.7864470708022
 30
0.0
 11
94.96731296005879
 21
195.8245980886022
 31
0.0
  0
LINE
  5
171
330
2
100
AcDbEntity
  8
GAIKEI
  6
Continuous
 62
     1
100
AcDbLine
 10
94.96731296005879
 20
195.8245980886022
 30
0.0
 11
94.97376647689875
 21
195.8674106508822
 31
0.0
  0
LINE
  5
172
330
2
100
AcDbEntity
  8
GAIKEI
  6
Continuous
 62
     1
100
AcDbLine
 10
94.97376647689875
 20
195.8674106508822
 30
0.0
 11
94.97588306603876
 21
195.9113716523822
 31
0.0
  0
LINE
  5
173
330
2
100
AcDbEntity
  8
GAIKEI
  6
Continuous
 62
     1
100
AcDbLine
 10
94.20253619393875
 20
197.3079795102422
 30
0.0
 11
94.19877969659879
 21
197.3112802306622
 31
0.0
  0
LINE
  5
174
330
2
100
AcDbEntity
  8
GAIKEI
  6
Continuous
 62
     1
100
AcDbLine
 10
94.19877969659879
 20
197.3112802306622
 30
0.0
 11
94.19639539021877
 21
197.3152605277022
 31
0.0
  0
LINE
  5
175
330
2
100
AcDbEntity
  8
GAIKEI
  6
Continuous
 62
     1
100
AcDbLine
 10
94.19639539021877
 20
197.3152605277022
 30
0.0
 11
94.19557845455875
 21
197.3195946093822
 31
0.0
  0
LINE
  5
176
330
2
100
AcDbEntity
  8
GAIKEI
  6
Continuous
 62
     1
100
AcDbLine
 10
94.19557845455875
 20
197.7052671752022
 30
0.0
 11
94.19639539021877
 21
197.7009330935222
 31
0.0
  0
LINE
  5
177
330
2
100
AcDbEntity
  8
GAIKEI
  6
Continuous
 62
     1
100
AcDbLine
 10
94.19639539021877
 20
197.7009330935222
 30
0.0
 11
94.19877969659879
 21
197.6969527964822
 31
0.0
  0
LINE
  5
178
330
2
100
AcDbEntity
  8
GAIKEI
  6
Continuous
 62
     1
100
AcDbLine
 10
94.19877969659879
 20
197.6969527964822
 30
0.0
 11
94.20253619393875
 21
197.6936520760622
 31
0.0
  0
LINE
  5
179
330
2
100
AcDbEntity
  8
GAIKEI
  6
Continuous
 62
     1
100
AcDbLine
 10
94.97588306603876
 20
196.0113716523822
 30
0.0
 11
94.97376551303878
 21
196.0553425381822
 31
0.0
  0
LINE
  5
17A
330
2
100
AcDbEntity
  8
GAIKEI
  6
Continuous
 62
     1
100
AcDbLine
 10
94.97376551303878
 20
196.0553425381822
 30
0.0
 11
94.96730588073877
 21
196.0981791806022
 31
0.0
  0
LINE
  5
17B
330
2
100
AcDbEntity
  8
GAIKEI
  6
Continuous
 62
     1
100
AcDbLine
 10
94.96730588073877
 20
196.0981791806022
 30
0.0
 11
94.95690457643878
 21
196.1363496911422
 31
0.0
  0
LINE
  5
17C
330
2
100
AcDbEntity
  8
GAIKEI
  6
Continuous
 62
     1
100
AcDbLine
 10
94.95690457643878
 20
196.1363496911422
 30
0.0
 11
94.94382057969875
 21
196.1665752045222
 31
0.0
  0
LINE
  5
17D
330
2
100
AcDbEntity
  8
GAIKEI
  6
Continuous
 62
     1
100
AcDbLine
 10
94.19557845455875
 20
195.0993257118822
 30
0.0
 11
94.19639537695875
 21
195.1036597591422
 31
0.0
  0
LINE
  5
17E
330
2
100
AcDbEntity
  8
GAIKEI
  6
Continuous
 62
     1
100
AcDbLine
 10
94.19639537695875
 20
195.1036597591422
 30
0.0
 11
94.19877967117878
 21
195.1076400604622
 31
0.0
  0
LINE
  5
17F
330
2
100
AcDbEntity
  8
GAIKEI
  6
Continuous
 62
     1
100
AcDbLine
 10
94.19877967117878
 20
195.1076400604622
 30
0.0
 11
94.20253619393875
 21
195.1109408110422
 31
0.0
  0
POINT
  5
180
330
2
100
AcDbEntity
  8
GAIKEI
 62
     7
100
AcDbPoint
 10
95.51557845455878
 20
217.1013716523822
 30
0.0
  0
POINT
  5
181
330
2
100
AcDbEntity
  8
GAIKEI
 62
     7
100
AcDbPoint
 10
95.51557845455878
 20
192.8013716523822
 30
0.0
  0
POINT
  5
182
330
2
100
AcDbEntity
  8
GAIKEI
 62
     7
100
AcDbPoint
 10
95.41557845455878
 20
217.2013716523823
 30
0.0
  0
POINT
  5
183
330
2
100
AcDbEntity
  8
GAIKEI
 62
     7
100
AcDbPoint
 10
95.41557845455878
 20
217.2013716523823
 30
0.0
  0
POINT
  5
184
330
2
100
AcDbEntity
  8
GAIKEI
 62
     1
100
AcDbPoint
 10
95.47557845455875
 20
210.5557561242422
 30
0.0
  0
POINT
  5
185
330
2
100
AcDbEntity
  8
GAIKEI
 62
     7
100
AcDbPoint
 10
95.41557845455878
 20
217.2013716523823
 30
0.0
  0
LINE
  5
186
330
2
100
AcDbEntity
  8
GAIKEI
 62
     1
100
AcDbLine
 10
94.19564324617878
 20
198.0318041306822
 30
0.0
 11
95.41557845455878
 21
198.0378277614813
 31
0.0
  0
LINE
  5
187
330
2
100
AcDbEntity
  8
GAIKEI
 62
     1
100
AcDbLine
 10
94.39557845455878
 20
194.7322718877222
 30
0.0
 11
94.67557843889876
 21
194.7155665357422
 31
0.0
  0
TEXT
  5
188
330
2
100
AcDbEntity
  8
MOJI1
100
AcDbText
 10
44.63619560749077
 20
142.5623375316005
 30
0.0
 40
3.0
  1
ＯＦＦ、２、４、８、１６ＡＵＴＯ
  7
KANJI
100
AcDbText
  0
TEXT
  5
18A
330
2
100
AcDbEntity
  8
MOJI1
100
AcDbText
 10
44.63619560749077
 20
152.5623375316005
 30
0.0
 40
3.0
  1
水平：１１１．４°～８７．１°
  7
KANJI
100
AcDbText
  0
TEXT
  5
18B
330
2
100
AcDbEntity
  8
MOJI1
100
AcDbText
 10
4.705581230518077
 20
137.6277518339287
 30
0.0
 40
3.0
  1
画像解像度
  7
KANJI
100
AcDbText
  0
LINE
  5
18C
330
2
100
AcDbEntity
  8
WAKU
 62
     4
100
AcDbLine
 10
126.9999999999996
 20
171.4992141396418
 30
0.0
 11
1.999999999999658
 21
171.4992141396418
 31
0.0
  0
LINE
  5
18E
330
2
100
AcDbEntity
  8
WAKU
 62
     1
100
AcDbLine
 10
126.9999999999996
 20
166.4992141396418
 30
0.0
 11
1.999999999999658
 21
166.4992141396418
 31
0.0
  0
LINE
  5
18F
330
2
100
AcDbEntity
  8
WAKU
 62
     1
100
AcDbLine
 10
126.9999999999996
 20
161.4992141396418
 30
0.0
 11
1.999999999999658
 21
161.4992141396418
 31
0.0
  0
LINE
  5
190
330
2
100
AcDbEntity
  8
WAKU
 62
     1
100
AcDbLine
 10
126.9999999999996
 20
156.4992141396418
 30
0.0
 11
1.999999999999658
 21
156.4992141396418
 31
0.0
  0
LINE
  5
191
330
2
100
AcDbEntity
  8
WAKU
 62
     1
100
AcDbLine
 10
126.9999999999996
 20
151.4992141396418
 30
0.0
 11
1.999999999999658
 21
151.4992141396418
 31
0.0
  0
LINE
  5
192
330
2
100
AcDbEntity
  8
WAKU
 62
     1
100
AcDbLine
 10
126.9999999999996
 20
146.4992141396418
 30
0.0
 11
1.999999999999658
 21
146.4992141396418
 31
0.0
  0
LINE
  5
193
330
2
100
AcDbEntity
  8
WAKU
 62
     4
100
AcDbLine
 10
1.999999999999658
 20
131.499214139642
 30
0.0
 11
126.9999999999996
 21
131.499214139642
 31
0.0
  0
LINE
  5
194
330
2
100
AcDbEntity
  8
WAKU
 62
     1
100
AcDbLine
 10
126.9999999999996
 20
141.4992141396418
 30
0.0
 11
1.999999999999658
 21
141.4992141396418
 31
0.0
  0
LINE
  5
195
330
2
100
AcDbEntity
  8
WAKU
 62
     4
100
AcDbLine
 10
1.999999999999658
 20
171.4992141396418
 30
0.0
 11
1.999999999999658
 21
131.499214139642
 31
0.0
  0
TEXT
  5
196
330
2
100
AcDbEntity
  8
MOJI1
100
AcDbText
 10
4.705581230518077
 20
142.6311705771
 30
0.0
 40
3.0
  1
電子感度アップ
  7
KANJI
100
AcDbText
  0
TEXT
  5
197
330
2
100
AcDbEntity
  8
MOJI1
100
AcDbText
 10
4.705581230518077
 20
132.499214139642
 30
0.0
 40
3.0
  1
画像圧縮方式
100
AcDbText
  0
TEXT
  5
198
330
2
100
AcDbEntity
  8
MOJI1
100
AcDbText
 10
4.705581230518077
 20
157.6277518339287
 30
0.0
 40
3.0
  1
撮像素子
  7
KANJI
100
AcDbText
  0
TEXT
  5
199
330
2
100
AcDbEntity
  8
MOJI1
100
AcDbText
 10
4.705581230518077
 20
167.6243330907574
 30
0.0
 40
3.0
  1
電　源
  7
KANJI
100
AcDbText
  0
TEXT
  5
19A
330
2
100
AcDbEntity
  8
MOJI1
100
AcDbText
 10
4.705581230518077
 20
152.499214139642
 30
0.0
 40
3.0
  1
画  角
100
AcDbText
  0
TEXT
  5
19B
330
2
100
AcDbEntity
  8
MOJI1
100
AcDbText
 10
44.51430450521786
 20
132.4992141396422
 30
0.0
 40
3.0
  1
ＭＰＥＧ－４／ＪＰＥＧ  デュアルエンコーディング
 41
0.9517362071823143
 72
     5
 11
125.982923840024
 21
132.4992141396422
 31
0.0
100
AcDbText
  0
TEXT
  5
19C
330
2
100
AcDbEntity
  8
MOJI1
100
AcDbText
 10
44.70558123051808
 20
157.6550665345244
 30
0.0
 40
3.0
  1
１／４型　インターライン転送方式ＣＣＤ
  7
KANJI
100
AcDbText
  0
LINE
  5
19D
330
2
100
AcDbEntity
  8
WAKU
 62
     4
100
AcDbLine
 10
42.20558123051808
 20
131.499214139642
 30
0.0
 11
42.20558123051807
 21
171.4992141396418
 31
0.0
  0
TEXT
  5
19E
330
2
100
AcDbEntity
  8
MOJI1
100
AcDbText
 10
44.70558123051808
 20
137.6550665345245
 30
0.0
 40
3.0
  1
ＶＧＡ（６４０×４８０）／ＱＶＧＡ（３２０×２４０）
 41
0.85
  7
KANJI
100
AcDbText
  0
TEXT
  5
19F
330
2
100
AcDbEntity
  8
MOJI1
100
AcDbText
 10
44.63619560749077
 20
167.5555000452578
 30
0.0
 40
3.0
  1
ＤＣ１２Ｖ、ＰｏＥ（ＩＥＥＥ８０２．３ａｆ準拠)
 41
0.95
  7
KANJI
100
AcDbText
  0
LINE
  5
1A0
330
2
100
AcDbEntity
  8
WAKU
 62
     4
100
AcDbLine
 10
126.9999999999996
 20
131.499214139642
 30
0.0
 11
126.9999999999996
 21
171.4992141396418
 31
0.0
  0
LINE
  5
1A1
330
2
100
AcDbEntity
  8
WAKU
 62
     1
100
AcDbLine
 10
126.9999999999996
 20
136.4992141396418
 30
0.0
 11
1.999999999999658
 21
136.4992141396418
 31
0.0
  0
TEXT
  5
1A2
330
2
100
AcDbEntity
  8
MOJI1
100
AcDbText
 10
44.63619560749077
 20
162.5555000452578
 30
0.0
 40
3.0
  1
ＤＣ１２Ｖ：３５０ｍＡ、ＰｏＥ：約４．０Ｗ（クラス２機器)
 41
0.8
  7
KANJI
100
AcDbText
  0
TEXT
  5
1A3
330
2
100
AcDbEntity
  8
MOJI1
100
AcDbText
 10
4.705581230518077
 20
162.6243330907574
 30
0.0
 40
3.0
  1
消費電力
  7
KANJI
100
AcDbText
  0
TEXT
  5
1A4
330
2
100
AcDbEntity
  8
MOJI1
100
AcDbText
 10
44.63619560749077
 20
147.5623375316005
 30
0.0
 40
3.0
  1
１．５ルクス（Ｆ１．４）
  7
KANJI
100
AcDbText
  0
TEXT
  5
1A5
330
2
100
AcDbEntity
  8
MOJI1
100
AcDbText
 10
4.705581230518077
 20
147.6311705771
 30
0.0
 40
3.0
  1
最低照度
  7
KANJI
100
AcDbText
  0
ENDSEC
  0
SECTION
  2
OBJECTS
  0
DICTIONARY
  5
9
330
0
100
AcDbDictionary
281
     1
  3
ACAD_COLOR
350
32
  3
ACAD_GROUP
350
2E
  3
ACAD_LAYOUT
350
D
  3
ACAD_MATERIAL
350
31
  3
ACAD_MLINESTYLE
350
2F
  3
ACAD_PLOTSETTINGS
350
30
  3
ACAD_PLOTSTYLENAME
350
8
  3
ACDBHEADERROUNDTRIPXREC
350
1CA
  3
AcDbVariableDictionary
350
1B9
  3
ASE_INDEX_DICTIONARY
350
1AE
  0
DICTIONARY
  5
15
330
14
100
AcDbDictionary
280
     1
281
     1
  3
ACAD_LAYERFILTERS
360
16
  3
ACAD_LAYERSTATES
360
18
  0
DICTIONARY
  5
3
330
2
100
AcDbDictionary
280
     1
281
     1
  3
ACAD_LAYOUTSELFREF
360
4
  0
DICTIONARY
  5
F
330
E
100
AcDbDictionary
280
     1
281
     1
  3
ACAD_LAYOUTSELFREF
360
10
  0
DICTIONARY
  5
32
102
{ACAD_REACTORS
330
9
102
}
330
9
100
AcDbDictionary
281
     1
  0
DICTIONARY
  5
2E
102
{ACAD_REACTORS
330
9
102
}
330
9
100
AcDbDictionary
281
     1
  0
DICTIONARY
  5
D
102
{ACAD_REACTORS
330
9
102
}
330
9
100
AcDbDictionary
281
     1
  3
Model
350
C
  3
ﾚｲｱｳﾄ1
350
13
  0
DICTIONARY
  5
31
102
{ACAD_REACTORS
330
9
102
}
330
9
100
AcDbDictionary
281
     1
  0
DICTIONARY
  5
2F
102
{ACAD_REACTORS
330
9
102
}
330
9
100
AcDbDictionary
281
     1
  3
STANDARD
350
34
  0
DICTIONARY
  5
30
102
{ACAD_REACTORS
330
9
102
}
330
9
100
AcDbDictionary
281
     1
  0
ACDBDICTIONARYWDFLT
  5
8
102
{ACAD_REACTORS
330
9
102
}
330
9
100
AcDbDictionary
281
     1
  3
Normal
350
7
100
AcDbDictionaryWithDefault
340
7
  0
DICTIONARY
  5
1CA
102
{ACAD_REACTORS
330
9
102
}
330
9
100
AcDbDictionary
281
     1
  3
COLORDICT
350
1CC
  3
MATERIALDICT
350
1CB
  0
DICTIONARY
  5
1B9
102
{ACAD_REACTORS
330
9
102
}
330
9
100
AcDbDictionary
281
     1
  3
DIMASSOC
350
1BB
  3
HIDETEXT
350
1BA
  3
PROJECTNAME
350
1BC
  0
DICTIONARY
  5
1AE
102
{ACAD_REACTORS
330
9
102
}
330
9
100
AcDbDictionary
281
     1
  3
ASEBlockHierarchyIndexRecord
350
1B0
1001
DCO15
1040
1582970190.578
  0
DICTIONARY
  5
16
102
{ACAD_REACTORS
330
15
102
}
330
15
100
AcDbDictionary
280
     1
281
     1
  3
ロック画層
360
17
  0
DICTIONARY
  5
18
102
{ACAD_REACTORS
330
15
102
}
330
15
100
AcDbDictionary
281
     1
  0
XRECORD
  5
4
102
{ACAD_REACTORS
330
3
102
}
330
3
100
AcDbXrecord
280
     1
340
2
  0
XRECORD
  5
10
102
{ACAD_REACTORS
330
F
102
}
330
F
100
AcDbXrecord
280
     1
340
E
  0
LAYOUT
  5
C
102
{ACAD_XDICTIONARY
360
1CD
102
}
102
{ACAD_REACTORS
330
D
102
}
330
D
100
AcDbPlotSettings
  1

  2
8FPAM09-A4.pc3
  4
A4
  6

 40
4.349750041961669
 41
4.222751140594482
 42
4.3497314453125
 43
4.180419921875
 44
297.0106506347656
 45
210.0156707763672
 46
0.0
 47
6.099999999999999
 48
0.0
 49
0.0
140
0.0
141
0.0
142
1.0
143
1.367719688917462
 70
 11956
 72
     1
 73
     1
 74
     1
  7
tmsacad.ctb
 75
     0
147
0.7311439676586735
148
0.531503490873547
149
0.0985174452198408
100
AcDbLayout
  1
Model
 70
     1
 71
     0
 10
0.0
 20
0.0
 11
12.0
 21
9.0
 12
0.0
 22
0.0
 32
0.0
 14
0.0
 24
0.0
 34
0.0
 15
0.0
 25
0.0
 35
0.0
146
0.0
 13
0.0
 23
0.0
 33
0.0
 16
1.0
 26
0.0
 36
0.0
 17
0.0
 27
1.0
 37
0.0
 76
     0
330
2
  0
LAYOUT
  5
13
102
{ACAD_XDICTIONARY
360
1CF
102
}
102
{ACAD_REACTORS
330
D
102
}
330
D
100
AcDbPlotSettings
  1

  2
C:\Program Files\ACAD2000\plotters\DWF ePlot.pc3
  4

  6

 40
0.0
 41
0.0
 42
0.0
 43
0.0
 44
0.0
 45
0.0
 46
0.0
 47
0.0
 48
0.0
 49
0.0
140
0.0
141
0.0
142
1.0
143
1.0
 70
   688
 72
     0
 73
     0
 74
     5
  7
tmsacad.ctb
 75
    16
147
1.0
148
0.0
149
0.0
100
AcDbLayout
  1
ﾚｲｱｳﾄ1
 70
     1
 71
     1
 10
0.0
 20
0.0
 11
12.0
 21
9.0
 12
0.0
 22
0.0
 32
0.0
 14
1.000000000000000E+20
 24
1.000000000000000E+20
 34
1.000000000000000E+20
 15
-1.000000000000000E+20
 25
-1.000000000000000E+20
 35
-1.000000000000000E+20
146
0.0
 13
0.0
 23
0.0
 33
0.0
 16
1.0
 26
0.0
 36
0.0
 17
0.0
 27
1.0
 37
0.0
 76
     0
330
E
  0
MLINESTYLE
  5
34
102
{ACAD_REACTORS
330
2F
102
}
330
2F
100
AcDbMlineStyle
  2
STANDARD
 70
     0
  3

 62
   256
 51
90.0
 52
90.0
 71
     2
 49
0.5
 62
   256
  6
BYLAYER
 49
-0.5
 62
   256
  6
BYLAYER
  0
ACDBPLACEHOLDER
  5
7
102
{ACAD_REACTORS
330
8
102
}
330
8
  0
XRECORD
  5
1CC
102
{ACAD_REACTORS
330
1CA
102
}
330
1CA
100
AcDbXrecord
280
     1
340
32
  0
XRECORD
  5
1CB
102
{ACAD_REACTORS
330
1CA
102
}
330
1CA
100
AcDbXrecord
280
     1
340
31
  0
DICTIONARYVAR
  5
1BB
102
{ACAD_REACTORS
330
1B9
102
}
330
1B9
100
DictionaryVariables
280
     0
  1
1
  0
DICTIONARYVAR
  5
1BA
102
{ACAD_REACTORS
330
1B9
102
}
330
1B9
100
DictionaryVariables
280
     0
  1
1
  0
DICTIONARYVAR
  5
1BC
102
{ACAD_REACTORS
330
1B9
102
}
330
1B9
100
DictionaryVariables
280
     0
  1

  0
XRECORD
  5
1B0
102
{ACAD_REACTORS
330
1AE
102
}
330
1AE
100
AcDbXrecord
280
     1
330
4D
330
4E
330
3F
330
40
  0
XRECORD
  5
17
102
{ACAD_REACTORS
330
16
102
}
330
16
100
AcDbXrecord
280
     1
  1
ロック画層
  1
*
  1
*
  1
*
 70
   256
  1
*
  1
*
  0
DICTIONARY
  5
1CD
330
C
100
AcDbDictionary
280
     1
281
     1
  3
ACAD_XREC_ROUNDTRIP
360
1CE
  0
DICTIONARY
  5
1CF
330
13
100
AcDbDictionary
280
     1
281
     1
  3
ACAD_XREC_ROUNDTRIP
360
1D0
  0
XRECORD
  5
1CE
102
{ACAD_REACTORS
330
1CD
102
}
330
1CD
100
AcDbXrecord
280
     1
102
SHADEPLOT
 70
     0
102
SHADEPLOTRESLEVEL
 70
     2
102
SHADEPLOTCUSTOMDPI
 70
   300
  0
XRECORD
  5
1D0
102
{ACAD_REACTORS
330
1CF
102
}
330
1CF
100
AcDbXrecord
280
     1
102
SHADEPLOT
 70
     0
102
SHADEPLOTRESLEVEL
 70
     2
102
SHADEPLOTCUSTOMDPI
 70
   300
  0
ENDSEC
  0
EOF
