  0
SECTION
  2
HEADER
  9
$ACADVER
  1
AC1015
  9
$ACADMAINTVER
 70
    20
  9
$DWGCODEPAGE
  3
ANSI_932
  9
$INSBASE
 10
0.4999999440410648
 20
372.5008351249344
 30
0.0
  9
$EXTMIN
 10
-60.51086335036768
 20
-42.99375851381774
 30
-0.0015258207003583
  9
$EXTMAX
 10
64.52270564218372
 20
69.78158612034929
 30
0.0000000349246037
  9
$LIMMIN
 10
0.0
 20
0.0
  9
$LIMMAX
 10
420.0
 20
297.0
  9
$ORTHOMODE
 70
     1
  9
$REGENMODE
 70
     0
  9
$FILLMODE
 70
     1
  9
$QTEXTMODE
 70
     0
  9
$MIRRTEXT
 70
     0
  9
$LTSCALE
 40
1.0
  9
$ATTMODE
 70
     1
  9
$TEXTSIZE
 40
2.5
  9
$TRACEWID
 40
1.0
  9
$TEXTSTYLE
  7
Standard
  9
$CLAYER
  8
0
  9
$CELTYPE
  6
ByLayer
  9
$CECOLOR
 62
   256
  9
$CELTSCALE
 40
1.0
  9
$DISPSILH
 70
     0
  9
$DIMSCALE
 40
1.0
  9
$DIMASZ
 40
2.0
  9
$DIMEXO
 40
2.0
  9
$DIMDLI
 40
8.0
  9
$DIMRND
 40
0.0
  9
$DIMDLE
 40
0.0
  9
$DIMEXE
 40
2.0
  9
$DIMTP
 40
0.0
  9
$DIMTM
 40
0.0
  9
$DIMTXT
 40
2.5
  9
$DIMCEN
 40
0.0
  9
$DIMTSZ
 40
0.0
  9
$DIMTOL
 70
     0
  9
$DIMLIM
 70
     0
  9
$DIMTIH
 70
     0
  9
$DIMTOH
 70
     0
  9
$DIMSE1
 70
     0
  9
$DIMSE2
 70
     0
  9
$DIMTAD
 70
     3
  9
$DIMZIN
 70
     0
  9
$DIMBLK
  1

  9
$DIMASO
 70
     1
  9
$DIMSHO
 70
     1
  9
$DIMPOST
  1

  9
$DIMAPOST
  1

  9
$DIMALT
 70
     0
  9
$DIMALTD
 70
     2
  9
$DIMALTF
 40
25.4
  9
$DIMLFAC
 40
1.0
  9
$DIMTOFL
 70
     1
  9
$DIMTVP
 40
0.0
  9
$DIMTIX
 70
     0
  9
$DIMSOXD
 70
     0
  9
$DIMSAH
 70
     1
  9
$DIMBLK1
  1
OPEN30
  9
$DIMBLK2
  1
OPEN30
  9
$DIMSTYLE
  2
STANDARD
  9
$DIMCLRD
 70
     0
  9
$DIMCLRE
 70
     0
  9
$DIMCLRT
 70
     0
  9
$DIMTFAC
 40
1.0
  9
$DIMGAP
 40
0.5
  9
$DIMJUST
 70
     0
  9
$DIMSD1
 70
     0
  9
$DIMSD2
 70
     0
  9
$DIMTOLJ
 70
     1
  9
$DIMTZIN
 70
     0
  9
$DIMALTZ
 70
     0
  9
$DIMALTTZ
 70
     0
  9
$DIMUPT
 70
     0
  9
$DIMDEC
 70
     4
  9
$DIMTDEC
 70
     4
  9
$DIMALTU
 70
     2
  9
$DIMALTTD
 70
     2
  9
$DIMTXSTY
  7
Standard
  9
$DIMAUNIT
 70
     0
  9
$DIMADEC
 70
     0
  9
$DIMALTRND
 40
0.0
  9
$DIMAZIN
 70
     0
  9
$DIMDSEP
 70
    46
  9
$DIMATFIT
 70
     3
  9
$DIMFRAC
 70
     0
  9
$DIMLDRBLK
  1
OPEN30
  9
$DIMLUNIT
 70
     2
  9
$DIMLWD
 70
    -2
  9
$DIMLWE
 70
    -2
  9
$DIMTMOVE
 70
     0
  9
$LUNITS
 70
     2
  9
$LUPREC
 70
     4
  9
$SKETCHINC
 40
1.0
  9
$FILLETRAD
 40
0.0
  9
$AUNITS
 70
     0
  9
$AUPREC
 70
     0
  9
$MENU
  1
.
  9
$ELEVATION
 40
0.0
  9
$PELEVATION
 40
0.0
  9
$THICKNESS
 40
0.0
  9
$LIMCHECK
 70
     0
  9
$CHAMFERA
 40
0.0
  9
$CHAMFERB
 40
0.0
  9
$CHAMFERC
 40
0.0
  9
$CHAMFERD
 40
0.0
  9
$SKPOLY
 70
     0
  9
$TDCREATE
 40
2454349.434269746
  9
$TDUCREATE
 40
2454349.059269746
  9
$TDUPDATE
 40
2454657.407729572
  9
$TDUUPDATE
 40
2454657.032729572
  9
$TDINDWG
 40
0.2266503009
  9
$TDUSRTIMER
 40
0.2266503009
  9
$USRTIMER
 70
     1
  9
$ANGBASE
 50
0.0
  9
$ANGDIR
 70
     0
  9
$PDMODE
 70
     0
  9
$PDSIZE
 40
0.0
  9
$PLINEWID
 40
0.0
  9
$SPLFRAME
 70
     0
  9
$SPLINETYPE
 70
     6
  9
$SPLINESEGS
 70
     8
  9
$HANDSEED
  5
1C7
  9
$SURFTAB1
 70
     6
  9
$SURFTAB2
 70
     6
  9
$SURFTYPE
 70
     6
  9
$SURFU
 70
     6
  9
$SURFV
 70
     6
  9
$UCSBASE
  2

  9
$UCSNAME
  2

  9
$UCSORG
 10
0.0
 20
0.0
 30
0.0
  9
$UCSXDIR
 10
1.0
 20
0.0
 30
0.0
  9
$UCSYDIR
 10
0.0
 20
1.0
 30
0.0
  9
$UCSORTHOREF
  2

  9
$UCSORTHOVIEW
 70
     0
  9
$UCSORGTOP
 10
0.0
 20
0.0
 30
0.0
  9
$UCSORGBOTTOM
 10
0.0
 20
0.0
 30
0.0
  9
$UCSORGLEFT
 10
0.0
 20
0.0
 30
0.0
  9
$UCSORGRIGHT
 10
0.0
 20
0.0
 30
0.0
  9
$UCSORGFRONT
 10
0.0
 20
0.0
 30
0.0
  9
$UCSORGBACK
 10
0.0
 20
0.0
 30
0.0
  9
$PUCSBASE
  2

  9
$PUCSNAME
  2

  9
$PUCSORG
 10
0.0
 20
0.0
 30
0.0
  9
$PUCSXDIR
 10
1.0
 20
0.0
 30
0.0
  9
$PUCSYDIR
 10
0.0
 20
1.0
 30
0.0
  9
$PUCSORTHOREF
  2

  9
$PUCSORTHOVIEW
 70
     0
  9
$PUCSORGTOP
 10
0.0
 20
0.0
 30
0.0
  9
$PUCSORGBOTTOM
 10
0.0
 20
0.0
 30
0.0
  9
$PUCSORGLEFT
 10
0.0
 20
0.0
 30
0.0
  9
$PUCSORGRIGHT
 10
0.0
 20
0.0
 30
0.0
  9
$PUCSORGFRONT
 10
0.0
 20
0.0
 30
0.0
  9
$PUCSORGBACK
 10
0.0
 20
0.0
 30
0.0
  9
$USERI1
 70
     0
  9
$USERI2
 70
     0
  9
$USERI3
 70
     0
  9
$USERI4
 70
     0
  9
$USERI5
 70
     0
  9
$USERR1
 40
0.0
  9
$USERR2
 40
0.0
  9
$USERR3
 40
0.0
  9
$USERR4
 40
0.0
  9
$USERR5
 40
0.0
  9
$WORLDVIEW
 70
     1
  9
$SHADEDGE
 70
     3
  9
$SHADEDIF
 70
    70
  9
$TILEMODE
 70
     1
  9
$MAXACTVP
 70
    64
  9
$PINSBASE
 10
0.0
 20
0.0
 30
0.0
  9
$PLIMCHECK
 70
     0
  9
$PEXTMIN
 10
0.0
 20
0.0
 30
0.0
  9
$PEXTMAX
 10
0.0
 20
0.0
 30
0.0
  9
$PLIMMIN
 10
0.0
 20
0.0
  9
$PLIMMAX
 10
12.0
 20
9.0
  9
$UNITMODE
 70
     0
  9
$VISRETAIN
 70
     1
  9
$PLINEGEN
 70
     0
  9
$PSLTSCALE
 70
     1
  9
$TREEDEPTH
 70
  3020
  9
$CMLSTYLE
  2
Standard
  9
$CMLJUST
 70
     0
  9
$CMLSCALE
 40
20.0
  9
$PROXYGRAPHICS
 70
     1
  9
$MEASUREMENT
 70
     1
  9
$CELWEIGHT
370
    -1
  9
$ENDCAPS
280
     0
  9
$JOINSTYLE
280
     0
  9
$LWDISPLAY
290
     0
  9
$INSUNITS
 70
     4
  9
$HYPERLINKBASE
  1

  9
$STYLESHEET
  1

  9
$XEDIT
290
     1
  9
$CEPSNTYPE
380
     0
  9
$PSTYLEMODE
290
     1
  9
$FINGERPRINTGUID
  2
{FDEAD578-A652-11D2-9A35-0060089B3A3F}
  9
$VERSIONGUID
  2
{DE0B9DCF-ECAC-4F4D-8FF8-B995243FF2E7}
  9
$EXTNAMES
290
     1
  9
$PSVPSCALE
 40
0.0
  9
$OLESTARTUP
290
     0
  0
ENDSEC
  0
SECTION
  2
CLASSES
  0
CLASS
  1
ACDBDICTIONARYWDFLT
  2
AcDbDictionaryWithDefault
  3
ObjectDBX Classes
 90
        0
280
     0
281
     0
  0
CLASS
  1
ACDBPLACEHOLDER
  2
AcDbPlaceHolder
  3
ObjectDBX Classes
 90
        0
280
     0
281
     0
  0
CLASS
  1
LAYOUT
  2
AcDbLayout
  3
ObjectDBX Classes
 90
        0
280
     0
281
     0
  0
CLASS
  1
DICTIONARYVAR
  2
AcDbDictionaryVar
  3
ObjectDBX Classes
 90
        0
280
     0
281
     0
  0
ENDSEC
  0
SECTION
  2
TABLES
  0
TABLE
  2
VPORT
  5
1B
330
0
100
AcDbSymbolTable
 70
     3
  0
VPORT
  5
1BF
330
1B
100
AcDbSymbolTableRecord
100
AcDbViewportTableRecord
  2
*Active
 70
     0
 10
0.0
 20
0.0
 11
1.0
 21
1.0
 12
2.005921145908008
 22
13.39391380326577
 13
0.0
 23
0.0
 14
10.0
 24
10.0
 15
10.0
 25
10.0
 16
0.0
 26
0.0
 36
1.0
 17
0.0
 27
0.0
 37
0.0
 40
113.7138357129534
 41
1.491666666666666
 42
50.0
 43
0.0
 44
0.0
 50
0.0
 51
0.0
 71
     0
 72
  1000
 73
     1
 74
     2
 75
     0
 76
     0
 77
     0
 78
     0
281
     0
 65
     1
110
0.0
120
0.0
130
0.0
111
1.0
121
0.0
131
0.0
112
0.0
122
1.0
132
0.0
 79
     0
146
0.0
  0
ENDTAB
  0
TABLE
  2
LTYPE
  5
16
330
0
100
AcDbSymbolTable
 70
     1
  0
LTYPE
  5
17
330
16
100
AcDbSymbolTableRecord
100
AcDbLinetypeTableRecord
  2
ByBlock
 70
     0
  3

 72
    65
 73
     0
 40
0.0
  0
LTYPE
  5
18
330
16
100
AcDbSymbolTableRecord
100
AcDbLinetypeTableRecord
  2
ByLayer
 70
     0
  3

 72
    65
 73
     0
 40
0.0
  0
LTYPE
  5
8
330
16
100
AcDbSymbolTableRecord
100
AcDbLinetypeTableRecord
  2
Continuous
 70
     0
  3
Solid line
 72
    65
 73
     0
 40
0.0
  0
ENDTAB
  0
TABLE
  2
LAYER
  5
10
102
{ACAD_XDICTIONARY
360
11
102
}
330
0
100
AcDbSymbolTable
 70
     7
  0
LAYER
  5
4
330
10
100
AcDbSymbolTableRecord
100
AcDbLayerTableRecord
  2
0
 70
     0
 62
     7
  6
Continuous
370
    -3
390
5
  0
LAYER
  5
46
330
10
100
AcDbSymbolTableRecord
100
AcDbLayerTableRecord
  2
WAKU
 70
     0
 62
     4
  6
Continuous
370
    -3
390
5
  0
LAYER
  5
38
330
10
100
AcDbSymbolTableRecord
100
AcDbLayerTableRecord
  2
MOJI1
 70
     0
 62
     2
  6
Continuous
370
    -3
390
5
  0
LAYER
  5
36
330
10
100
AcDbSymbolTableRecord
100
AcDbLayerTableRecord
  2
TOUROKU
 70
     0
 62
     1
  6
Continuous
370
    -3
390
5
  0
LAYER
  5
68
330
10
100
AcDbSymbolTableRecord
100
AcDbLayerTableRecord
  2
DEFPOINTS
 70
     0
 62
     7
  6
Continuous
290
     0
370
    -3
390
5
  0
LAYER
  5
2F
330
10
100
AcDbSymbolTableRecord
100
AcDbLayerTableRecord
  2
GAIKEI
 70
     0
 62
     7
  6
Continuous
370
    -3
390
5
  0
LAYER
  5
5E
330
10
100
AcDbSymbolTableRecord
100
AcDbLayerTableRecord
  2
SUNPO
 70
     0
 62
     3
  6
Continuous
370
    -3
390
5
  0
ENDTAB
  0
TABLE
  2
STYLE
  5
13
330
0
100
AcDbSymbolTable
 70
     2
  0
STYLE
  5
14
330
13
100
AcDbSymbolTableRecord
100
AcDbTextStyleTableRecord
  2
Standard
 70
     0
 40
0.0
 41
1.0
 50
0.0
 71
     0
 42
2.5
  3
MONOTXT.shx
  4
BIGFONT.shx
  0
STYLE
  5
39
330
13
100
AcDbSymbolTableRecord
100
AcDbTextStyleTableRecord
  2
KANJI
 70
     0
 40
0.0
 41
1.0
 50
0.0
 71
     0
 42
3.5
  3
MONOTXT
  4
BIGFONT
  0
ENDTAB
  0
TABLE
  2
VIEW
  5
19
330
0
100
AcDbSymbolTable
 70
     0
  0
ENDTAB
  0
TABLE
  2
UCS
  5
1A
330
0
100
AcDbSymbolTable
 70
     0
  0
ENDTAB
  0
TABLE
  2
APPID
  5
1D
330
0
100
AcDbSymbolTable
 70
     1
  0
APPID
  5
1E
330
1D
100
AcDbSymbolTableRecord
100
AcDbRegAppTableRecord
  2
ACAD
 70
     0
  0
ENDTAB
  0
TABLE
  2
DIMSTYLE
  5
1F
330
0
100
AcDbSymbolTable
 70
     1
100
AcDbDimStyleTable
 71
     1
340
20
  0
DIMSTYLE
105
20
102
{ACAD_REACTORS
330
6C
330
5D
102
}
330
1F
100
AcDbSymbolTableRecord
100
AcDbDimStyleTableRecord
  2
STANDARD
 70
     0
 40
0.0
 41
2.0
 42
2.0
 43
8.0
 44
2.0
 73
     0
 74
     0
 77
     3
140
3.0
141
0.0
173
     1
279
     2
288
     1
340
14
341
21
343
21
344
21
  0
ENDTAB
  0
TABLE
  2
BLOCK_RECORD
  5
1
330
0
100
AcDbSymbolTable
 70
     5
  0
BLOCK_RECORD
  5
2
330
1
100
AcDbSymbolTableRecord
100
AcDbBlockTableRecord
  2
*Model_Space
340
A
  0
BLOCK_RECORD
  5
C
330
1
100
AcDbSymbolTableRecord
100
AcDbBlockTableRecord
  2
*Paper_Space
340
F
  0
BLOCK_RECORD
  5
21
330
1
100
AcDbSymbolTableRecord
100
AcDbBlockTableRecord
  2
_OPEN30
340
0
102
{BLKREFS
331
72
331
73
331
64
331
65
331
1A7
331
1A8
331
1B3
331
1B4
102
}
  0
BLOCK_RECORD
  5
6D
330
1
100
AcDbSymbolTableRecord
100
AcDbBlockTableRecord
  2
*D1
340
0
  0
BLOCK_RECORD
  5
5F
330
1
100
AcDbSymbolTableRecord
100
AcDbBlockTableRecord
  2
*D2
340
0
  0
BLOCK_RECORD
  5
1A3
330
1
100
AcDbSymbolTableRecord
100
AcDbBlockTableRecord
  2
*D3
340
0
  0
BLOCK_RECORD
  5
1AF
330
1
100
AcDbSymbolTableRecord
100
AcDbBlockTableRecord
  2
*D4
340
0
  0
ENDTAB
  0
ENDSEC
  0
SECTION
  2
BLOCKS
  0
BLOCK
  5
3
330
2
100
AcDbEntity
  8
0
100
AcDbBlockBegin
  2
*Model_Space
 70
     0
 10
0.0
 20
0.0
 30
0.0
  3
*Model_Space
  1

  0
ENDBLK
  5
9
330
2
100
AcDbEntity
  8
0
100
AcDbBlockEnd
  0
BLOCK
  5
D
330
C
100
AcDbEntity
 67
     1
  8
0
100
AcDbBlockBegin
  2
*Paper_Space
 70
     0
 10
0.0
 20
0.0
 30
0.0
  3
*Paper_Space
  1

  0
ENDBLK
  5
E
330
C
100
AcDbEntity
 67
     1
  8
0
100
AcDbBlockEnd
  0
BLOCK
  5
22
330
21
100
AcDbEntity
  8
0
100
AcDbBlockBegin
  2
_OPEN30
 70
     0
 10
0.0
 20
0.0
 30
0.0
  3
_OPEN30
  1

  0
LINE
  5
23
330
21
100
AcDbEntity
  8
0
  6
ByBlock
 62
     0
100
AcDbLine
 10
-1.0
 20
0.26794919
 30
0.0
 11
0.0
 21
0.0
 31
0.0
  0
LINE
  5
24
330
21
100
AcDbEntity
  8
0
  6
ByBlock
 62
     0
100
AcDbLine
 10
0.0
 20
0.0
 30
0.0
 11
-1.0
 21
-0.26794919
 31
0.0
  0
LINE
  5
25
330
21
100
AcDbEntity
  8
0
  6
ByBlock
 62
     0
100
AcDbLine
 10
0.0
 20
0.0
 30
0.0
 11
-1.0
 21
0.0
 31
0.0
  0
ENDBLK
  5
26
330
21
100
AcDbEntity
  8
0
100
AcDbBlockEnd
  0
BLOCK
  5
6E
330
6D
100
AcDbEntity
  8
0
100
AcDbBlockBegin
  2
*D1
 70
     1
 10
0.0
 20
0.0
 30
0.0
  3
*D1
  1

  0
LINE
  5
6F
330
6D
100
AcDbEntity
  8
SUNPO
 62
     0
370
    -2
100
AcDbLine
 10
69.10432172226828
 20
352.8549327932487
 30
0.0
 11
69.10432172226828
 21
360.8549327932487
 31
0.0
  0
LINE
  5
70
330
6D
100
AcDbEntity
  8
SUNPO
 62
     0
370
    -2
100
AcDbLine
 10
96.24432172226827
 20
352.8549327932487
 30
0.0
 11
96.24432172226827
 21
360.8549327932487
 31
0.0
  0
LINE
  5
71
330
6D
100
AcDbEntity
  8
SUNPO
 62
     0
370
    -2
100
AcDbLine
 10
71.10432172226828
 20
358.8549327932487
 30
0.0
 11
94.24432172226827
 21
358.8549327932487
 31
0.0
  0
INSERT
  5
72
330
6D
100
AcDbEntity
  8
SUNPO
 62
     0
370
    -2
100
AcDbBlockReference
  2
_OPEN30
 10
69.10432172226828
 20
358.8549327932487
 30
0.0
 41
2.0
 42
2.0
 43
2.0
 50
180.0
  0
INSERT
  5
73
330
6D
100
AcDbEntity
  8
SUNPO
 62
     0
370
    -2
100
AcDbBlockReference
  2
_OPEN30
 10
96.24432172226827
 20
358.8549327932487
 30
0.0
 41
2.0
 42
2.0
 43
2.0
  0
MTEXT
  5
74
330
6D
100
AcDbEntity
  8
SUNPO
 62
     0
100
AcDbMText
 10
82.67432172226827
 20
360.6049327932487
 30
0.0
 40
2.5
 41
0.0
 71
     5
 72
     1
  1
\A1;136
 73
     1
 44
1.0
1001
ACAD
1000
MTEXTBEGIN
1070
    73
1070
     1
1070
    44
1040
1.0
1070
    74
1070
     0
1000
MTEXTEND
  0
POINT
  5
75
330
6D
100
AcDbEntity
  8
DEFPOINTS
 62
     0
100
AcDbPoint
 10
69.10432172226828
 20
350.8549327932487
 30
0.0
  0
POINT
  5
76
330
6D
100
AcDbEntity
  8
DEFPOINTS
 62
     0
100
AcDbPoint
 10
96.24432172226827
 20
350.8549327932487
 30
0.0
  0
POINT
  5
77
330
6D
100
AcDbEntity
  8
DEFPOINTS
 62
     0
100
AcDbPoint
 10
96.24432172226827
 20
358.8549327932487
 30
0.0
  0
ENDBLK
  5
78
330
6D
100
AcDbEntity
  8
0
100
AcDbBlockEnd
  0
BLOCK
  5
60
330
5F
100
AcDbEntity
  8
0
100
AcDbBlockBegin
  2
*D2
 70
     1
 10
0.0
 20
0.0
 30
0.0
  3
*D2
  1

  0
LINE
  5
61
330
5F
100
AcDbEntity
  8
SUNPO
 62
     0
370
    -2
100
AcDbLine
 10
29.2390105279026
 20
352.8549327932487
 30
0.0
 11
29.2390105279026
 21
360.8549327932487
 31
0.0
  0
LINE
  5
62
330
5F
100
AcDbEntity
  8
SUNPO
 62
     0
370
    -2
100
AcDbLine
 10
53.53901052790255
 20
352.8549327932487
 30
0.0
 11
53.53901052790255
 21
360.8549327932487
 31
0.0
  0
LINE
  5
63
330
5F
100
AcDbEntity
  8
SUNPO
 62
     0
370
    -2
100
AcDbLine
 10
31.23901052790259
 20
358.8549327932487
 30
0.0
 11
51.53901052790255
 21
358.8549327932487
 31
0.0
  0
INSERT
  5
64
330
5F
100
AcDbEntity
  8
SUNPO
 62
     0
370
    -2
100
AcDbBlockReference
  2
_OPEN30
 10
29.2390105279026
 20
358.8549327932487
 30
0.0
 41
2.0
 42
2.0
 43
2.0
 50
180.0
  0
INSERT
  5
65
330
5F
100
AcDbEntity
  8
SUNPO
 62
     0
370
    -2
100
AcDbBlockReference
  2
_OPEN30
 10
53.53901052790255
 20
358.8549327932487
 30
0.0
 41
2.0
 42
2.0
 43
2.0
  0
MTEXT
  5
66
330
5F
100
AcDbEntity
  8
SUNPO
 62
     0
100
AcDbMText
 10
41.38901052790257
 20
360.6049327932487
 30
0.0
 40
2.5
 41
0.0
 71
     5
 72
     1
  1
\A1;φ122
 73
     1
 44
1.0
1001
ACAD
1000
MTEXTBEGIN
1070
    73
1070
     1
1070
    44
1040
1.0
1070
    74
1070
     0
1000
MTEXTEND
  0
POINT
  5
67
330
5F
100
AcDbEntity
  8
DEFPOINTS
 62
     0
100
AcDbPoint
 10
29.2390105279026
 20
350.8549327932487
 30
0.0
  0
POINT
  5
69
330
5F
100
AcDbEntity
  8
DEFPOINTS
 62
     0
100
AcDbPoint
 10
53.53901052790255
 20
350.8549327932487
 30
0.0
  0
POINT
  5
6A
330
5F
100
AcDbEntity
  8
DEFPOINTS
 62
     0
100
AcDbPoint
 10
53.53901052790255
 20
358.8549327932487
 30
0.0
  0
ENDBLK
  5
6B
330
5F
100
AcDbEntity
  8
0
100
AcDbBlockEnd
  0
BLOCK
  5
1AD
330
1A3
100
AcDbEntity
  8
0
100
AcDbBlockBegin
  2
*D3
 70
     1
 10
0.0
 20
0.0
 30
0.0
  3
*D3
  1

  0
LINE
  5
1A4
330
1A3
100
AcDbEntity
  8
SUNPO
 62
     0
370
    -2
100
AcDbLine
 10
6.09564933624992
 20
52.3824334445178
 30
0.0
 11
6.095649336249921
 21
60.3824334445178
 31
0.0
  0
LINE
  5
1A5
330
1A3
100
AcDbEntity
  8
SUNPO
 62
     0
370
    -2
100
AcDbLine
 10
33.23564933624991
 20
52.3824334445178
 30
0.0
 11
33.23564933624991
 21
60.3824334445178
 31
0.0
  0
LINE
  5
1A6
330
1A3
100
AcDbEntity
  8
SUNPO
 62
     0
370
    -2
100
AcDbLine
 10
8.09564933624992
 20
58.3824334445178
 30
0.0
 11
31.23564933624991
 21
58.3824334445178
 31
0.0
  0
INSERT
  5
1A7
330
1A3
100
AcDbEntity
  8
SUNPO
 62
     0
370
    -2
100
AcDbBlockReference
  2
_OPEN30
 10
6.095649336249921
 20
58.3824334445178
 30
0.0
 41
2.0
 42
2.0
 43
2.0
 50
180.0
  0
INSERT
  5
1A8
330
1A3
100
AcDbEntity
  8
SUNPO
 62
     0
370
    -2
100
AcDbBlockReference
  2
_OPEN30
 10
33.23564933624991
 20
58.3824334445178
 30
0.0
 41
2.0
 42
2.0
 43
2.0
  0
MTEXT
  5
1A9
330
1A3
100
AcDbEntity
  8
SUNPO
 62
     0
100
AcDbMText
 10
19.66564933624991
 20
60.1324334445178
 30
0.0
 40
2.5
 41
0.0
 71
     5
 72
     1
  1
\A1;136
 73
     1
 44
1.0
1001
ACAD
1000
MTEXTBEGIN
1070
    73
1070
     1
1070
    44
1040
1.0
1070
    74
1070
     0
1000
MTEXTEND
  0
POINT
  5
1AA
330
1A3
100
AcDbEntity
  8
DEFPOINTS
 62
     0
100
AcDbPoint
 10
6.09564933624992
 20
50.3824334445178
 30
0.0
  0
POINT
  5
1AB
330
1A3
100
AcDbEntity
  8
DEFPOINTS
 62
     0
100
AcDbPoint
 10
33.23564933624991
 20
50.3824334445178
 30
0.0
  0
POINT
  5
1AC
330
1A3
100
AcDbEntity
  8
DEFPOINTS
 62
     0
100
AcDbPoint
 10
33.23564933624991
 20
58.3824334445178
 30
0.0
  0
ENDBLK
  5
1AE
330
1A3
100
AcDbEntity
  8
0
100
AcDbBlockEnd
  0
BLOCK
  5
1B9
330
1AF
100
AcDbEntity
  8
0
100
AcDbBlockBegin
  2
*D4
 70
     1
 10
0.0
 20
0.0
 30
0.0
  3
*D4
  1

  0
LINE
  5
1B0
330
1AF
100
AcDbEntity
  8
SUNPO
 62
     0
370
    -2
100
AcDbLine
 10
-33.76966185811577
 20
52.3824334445178
 30
0.0
 11
-33.76966185811577
 21
60.3824334445178
 31
0.0
  0
LINE
  5
1B1
330
1AF
100
AcDbEntity
  8
SUNPO
 62
     0
370
    -2
100
AcDbLine
 10
-9.469661858115813
 20
52.3824334445178
 30
0.0
 11
-9.469661858115813
 21
60.3824334445178
 31
0.0
  0
LINE
  5
1B2
330
1AF
100
AcDbEntity
  8
SUNPO
 62
     0
370
    -2
100
AcDbLine
 10
-31.76966185811577
 20
58.3824334445178
 30
0.0
 11
-11.46966185811581
 21
58.3824334445178
 31
0.0
  0
INSERT
  5
1B3
330
1AF
100
AcDbEntity
  8
SUNPO
 62
     0
370
    -2
100
AcDbBlockReference
  2
_OPEN30
 10
-33.76966185811577
 20
58.3824334445178
 30
0.0
 41
2.0
 42
2.0
 43
2.0
 50
180.0
  0
INSERT
  5
1B4
330
1AF
100
AcDbEntity
  8
SUNPO
 62
     0
370
    -2
100
AcDbBlockReference
  2
_OPEN30
 10
-9.469661858115813
 20
58.3824334445178
 30
0.0
 41
2.0
 42
2.0
 43
2.0
  0
MTEXT
  5
1B5
330
1AF
100
AcDbEntity
  8
SUNPO
 62
     0
100
AcDbMText
 10
-21.61966185811579
 20
60.1324334445178
 30
0.0
 40
2.5
 41
0.0
 71
     5
 72
     1
  1
\A1;φ122
 73
     1
 44
1.0
1001
ACAD
1000
MTEXTBEGIN
1070
    73
1070
     1
1070
    44
1040
1.0
1070
    74
1070
     0
1000
MTEXTEND
  0
POINT
  5
1B6
330
1AF
100
AcDbEntity
  8
DEFPOINTS
 62
     0
100
AcDbPoint
 10
-33.76966185811577
 20
50.3824334445178
 30
0.0
  0
POINT
  5
1B7
330
1AF
100
AcDbEntity
  8
DEFPOINTS
 62
     0
100
AcDbPoint
 10
-9.469661858115813
 20
50.3824334445178
 30
0.0
  0
POINT
  5
1B8
330
1AF
100
AcDbEntity
  8
DEFPOINTS
 62
     0
100
AcDbPoint
 10
-9.469661858115813
 20
58.3824334445178
 30
0.0
  0
ENDBLK
  5
1BA
330
1AF
100
AcDbEntity
  8
0
100
AcDbBlockEnd
  0
ENDSEC
  0
SECTION
  2
ENTITIES
  0
ARC
  5
2E
330
2
100
AcDbEntity
  8
GAIKEI
  6
Continuous
 62
     1
100
AcDbCircle
 10
32.99213326218993
 20
29.74545567859639
 30
0.0
 40
1.59648392594
100
AcDbArc
 50
157.6434605857016
 51
176.4087761039743
  0
LINE
  5
30
330
2
100
AcDbEntity
  8
GAIKEI
  6
Continuous
 62
     1
100
AcDbLine
 10
31.43770059210996
 20
29.8454556785963
 30
0.0
 11
31.39878429671393
 21
29.8454556785963
 31
0.0
  0
ARC
  5
31
330
2
100
AcDbEntity
  8
GAIKEI
 62
     1
100
AcDbCircle
 10
33.01112421590702
 20
29.74545567861628
 30
0.0
 40
1.57659820497254
100
AcDbArc
 50
176.36341925484
 51
183.6365807451558
  0
LINE
  5
32
330
2
100
AcDbEntity
  8
GAIKEI
  6
Continuous
 62
     7
100
AcDbLine
 10
25.33564933624993
 20
26.44025212647637
 30
0.0
 11
25.73564933624997
 21
26.19025212647637
 31
0.0
  0
LINE
  5
33
330
2
100
AcDbEntity
  8
GAIKEI
  6
Continuous
 62
     7
100
AcDbLine
 10
24.73564933624996
 20
26.49025212647632
 30
0.0
 11
25.33564933624993
 21
26.49025212647632
 31
0.0
  0
LINE
  5
34
330
2
100
AcDbEntity
  8
GAIKEI
  6
Continuous
 62
     7
100
AcDbLine
 10
24.33564933624993
 20
26.19025212647637
 30
0.0
 11
24.73564933624996
 21
26.44025212647637
 31
0.0
  0
TEXT
  5
35
330
2
100
AcDbEntity
  8
TOUROKU
100
AcDbText
 10
48.4912775909502
 20
60.02833577620356
 30
0.0
 40
2.0
  1
ＤＧＮＦ３０２
 72
     2
 11
64.4912775909502
 21
60.02833577620356
 31
0.0
100
AcDbText
  0
TEXT
  5
37
330
2
100
AcDbEntity
  8
MOJI1
100
AcDbText
 10
-17.87247683448632
 20
-36.90854083183694
 30
0.0
 40
3.0
  1
簡易白黒切換、ＡＵＴＯ／ＯＦＦ、ＶＭＤ ＯＮ／ＯＦＦ
 41
0.88
  7
KANJI
100
AcDbText
  0
TEXT
  5
3A
330
2
100
AcDbEntity
  8
MOJI1
100
AcDbText
 10
-17.87247683448632
 20
-31.90854083183694
 30
0.0
 40
3.0
  1
ＳＤメモリーカードスロット、暗部補正ＯＮ／ＯＦＦ
 41
0.9
  7
KANJI
100
AcDbText
  0
TEXT
  5
3B
330
2
100
AcDbEntity
  8
MOJI1
100
AcDbText
 10
-57.80309121145902
 20
-31.83970778633739
 30
0.0
 40
3.0
  1
機　能
  7
KANJI
100
AcDbText
  0
TEXT
  5
3C
330
2
100
AcDbEntity
  8
MOJI1
100
AcDbText
 10
-17.87247683448632
 20
-21.90854083183717
 30
0.0
 40
3.0
  1
ＩＰｖ４／ＩＰｖ６
  7
KANJI
100
AcDbText
  0
TEXT
  5
3D
330
2
100
AcDbEntity
  8
MOJI1
100
AcDbText
 10
-57.80309121145902
 20
-21.83970778633761
 30
0.0
 40
3.0
  1
対応プロトコル
  7
KANJI
100
AcDbText
  0
TEXT
  5
3E
330
2
100
AcDbEntity
  8
MOJI1
100
AcDbText
 10
-17.87247683448632
 20
-6.908540831837171
 30
0.0
 40
3.0
  1
１０ＢＡＳＥ－Ｔ／１００ＢＡＳＥ－ＴＸ　ＲＪ－４５コネクタ
 41
0.7700000000000001
  7
KANJI
100
AcDbText
  0
TEXT
  5
3F
330
2
100
AcDbEntity
  8
MOJI1
100
AcDbText
 10
-57.80309121145902
 20
-6.839707786337612
 30
0.0
 40
3.0
  1
ネットワーク
  7
KANJI
100
AcDbText
  0
TEXT
  5
40
330
2
100
AcDbEntity
  8
MOJI1
100
AcDbText
 10
-57.80309121145902
 20
-1.839707786337612
 30
0.0
 40
3.0
  1
最低照度
  7
KANJI
100
AcDbText
  0
TEXT
  5
41
330
2
100
AcDbEntity
  8
MOJI1
100
AcDbText
 10
-18.00867244197744
 20
3.02833577620413
 30
0.0
 40
3.0
  1
プログレッシブ
 41
0.9
100
AcDbText
  0
TEXT
  5
42
330
2
100
AcDbEntity
  8
MOJI1
100
AcDbText
 10
-58.00867244197744
 20
3.02833577620413
 30
0.0
 40
3.0
  1
走査方式
100
AcDbText
  0
TEXT
  5
43
330
2
100
AcDbEntity
  8
MOJI1
100
AcDbText
 10
-58.00867244197744
 20
8.02833577620413
 30
0.0
 40
3.0
  1
有効画素数
100
AcDbText
  0
TEXT
  5
44
330
2
100
AcDbEntity
  8
MOJI1
100
AcDbText
 10
-18.00867244197744
 20
8.02833577620413
 30
0.0
 40
3.0
  1
１２９６（Ｈ）×９７６（Ｖ）
 41
0.9
100
AcDbText
  0
LINE
  5
45
330
2
100
AcDbEntity
  8
WAKU
 62
     4
100
AcDbLine
 10
-60.50867244197744
 20
-42.97166422379564
 30
0.0
 11
64.49132755802256
 21
-42.97166422379564
 31
0.0
  0
LINE
  5
47
330
2
100
AcDbEntity
  8
WAKU
 62
     1
100
AcDbLine
 10
-60.50867244197744
 20
-37.97166422379564
 30
0.0
 11
64.49132755802256
 21
-37.97166422379564
 31
0.0
  0
LINE
  5
48
330
2
100
AcDbEntity
  8
WAKU
 62
     1
100
AcDbLine
 10
-60.50867244197744
 20
-32.97166422379564
 30
0.0
 11
64.49132755802256
 21
-32.97166422379564
 31
0.0
  0
LINE
  5
49
330
2
100
AcDbEntity
  8
WAKU
 62
     1
100
AcDbLine
 10
64.49132755802256
 20
2.02833577620413
 30
0.0
 11
-60.50867244197744
 21
2.02833577620413
 31
0.0
  0
LINE
  5
4A
330
2
100
AcDbEntity
  8
WAKU
 62
     1
100
AcDbLine
 10
64.49132755802256
 20
-17.97166422379587
 30
0.0
 11
-60.50867244197744
 21
-17.97166422379587
 31
0.0
  0
LINE
  5
4B
330
2
100
AcDbEntity
  8
WAKU
 62
     4
100
AcDbLine
 10
64.49132755802256
 20
-42.97166422379564
 30
0.0
 11
64.49132755802256
 21
22.02833577620413
 31
0.0
  0
TEXT
  5
4C
330
2
100
AcDbEntity
  8
MOJI1
100
AcDbText
 10
-17.87247683448632
 20
18.08462168182018
 30
0.0
 40
3.0
  1
ＤＣ１２Ｖ、ＰｏＥ（ＩＥＥＥ８０２．３ａｆ準拠)
 41
0.95
  7
KANJI
100
AcDbText
  0
TEXT
  5
4D
330
2
100
AcDbEntity
  8
MOJI1
100
AcDbText
 10
-17.80309121145902
 20
-11.81581182891318
 30
0.0
 40
3.0
  1
１２８０×９６０／ＶＧＡ（６４０×４８０）／ＱＶＧＡ（３２０×２４０）
 41
0.65
  7
KANJI
100
AcDbText
  0
LINE
  5
4E
330
2
100
AcDbEntity
  8
WAKU
 62
     4
100
AcDbLine
 10
-20.30309121145902
 20
-42.97166422379564
 30
0.0
 11
-20.30309121145902
 21
22.02833577620413
 31
0.0
  0
TEXT
  5
4F
330
2
100
AcDbEntity
  8
MOJI1
100
AcDbText
 10
-17.80309121145902
 20
13.18418817108681
 30
0.0
 40
3.0
  1
１／３型　インターライン転送方式ＣＣＤ
  7
KANJI
100
AcDbText
  0
TEXT
  5
50
330
2
100
AcDbEntity
  8
MOJI1
100
AcDbText
 10
-57.80309121145902
 20
18.15345472731974
 30
0.0
 40
3.0
  1
電　源
  7
KANJI
100
AcDbText
  0
TEXT
  5
51
330
2
100
AcDbEntity
  8
MOJI1
100
AcDbText
 10
-57.80309121145902
 20
13.15687347049106
 30
0.0
 40
3.0
  1
撮像素子
  7
KANJI
100
AcDbText
  0
TEXT
  5
52
330
2
100
AcDbEntity
  8
MOJI1
100
AcDbText
 10
-57.80309121145902
 20
-16.97166422379564
 30
0.0
 40
3.0
  1
画像圧縮方式
100
AcDbText
  0
LINE
  5
53
330
2
100
AcDbEntity
  8
WAKU
 62
     4
100
AcDbLine
 10
-60.50867244197744
 20
22.02833577620413
 30
0.0
 11
-60.50867244197744
 21
-42.97166422379564
 31
0.0
  0
LINE
  5
54
330
2
100
AcDbEntity
  8
WAKU
 62
     1
100
AcDbLine
 10
64.49132755802256
 20
-12.97166422379587
 30
0.0
 11
-60.50867244197744
 21
-12.97166422379587
 31
0.0
  0
LINE
  5
55
330
2
100
AcDbEntity
  8
WAKU
 62
     1
100
AcDbLine
 10
-60.50867244197744
 20
-22.97166422379564
 30
0.0
 11
64.49132755802256
 21
-22.97166422379564
 31
0.0
  0
LINE
  5
56
330
2
100
AcDbEntity
  8
WAKU
 62
     1
100
AcDbLine
 10
64.49132755802256
 20
-7.971664223795869
 30
0.0
 11
-60.50867244197744
 21
-7.971664223795869
 31
0.0
  0
LINE
  5
57
330
2
100
AcDbEntity
  8
WAKU
 62
     1
100
AcDbLine
 10
64.49132755802256
 20
-2.971664223795869
 30
0.0
 11
-60.50867244197744
 21
-2.971664223795869
 31
0.0
  0
LINE
  5
58
330
2
100
AcDbEntity
  8
WAKU
 62
     1
100
AcDbLine
 10
64.49132755802256
 20
7.02833577620413
 30
0.0
 11
-60.50867244197744
 21
7.02833577620413
 31
0.0
  0
LINE
  5
59
330
2
100
AcDbEntity
  8
WAKU
 62
     1
100
AcDbLine
 10
64.49132755802256
 20
12.02833577620413
 30
0.0
 11
-60.50867244197744
 21
12.02833577620413
 31
0.0
  0
LINE
  5
5A
330
2
100
AcDbEntity
  8
WAKU
 62
     1
100
AcDbLine
 10
64.49132755802256
 20
17.02833577620413
 30
0.0
 11
-60.50867244197744
 21
17.02833577620413
 31
0.0
  0
LINE
  5
5B
330
2
100
AcDbEntity
  8
WAKU
 62
     4
100
AcDbLine
 10
64.49132755802256
 20
22.02833577620413
 30
0.0
 11
-60.50867244197744
 21
22.02833577620413
 31
0.0
  0
TEXT
  5
5C
330
2
100
AcDbEntity
  8
MOJI1
100
AcDbText
 10
-57.80309121145902
 20
-11.84312652950893
 30
0.0
 40
3.0
  1
画像解像度
  7
KANJI
100
AcDbText
  0
DIMENSION
  5
5D
330
2
100
AcDbEntity
  8
SUNPO
100
AcDbDimension
  2
*D4
 10
-9.469661858115813
 20
58.3824334445178
 30
0.0
 11
-21.61966185811579
 21
60.1324334445178
 31
0.0
 70
    33
  1
φ122
 71
     5
 42
24.29999999999996
  3
STANDARD
100
AcDbAlignedDimension
 13
-33.76966185811577
 23
50.3824334445178
 33
0.0
 14
-9.469661858115813
 24
50.3824334445178
 34
0.0
1001
ACAD
1000
DSTYLE
1002
{
1070
   287
1070
     3
1070
    40
1040
1.0
1070
   140
1040
2.5
1070
   147
1040
0.5
1070
   172
1070
     1
1070
   279
1070
     0
1070
   288
1070
     0
1002
}
  0
DIMENSION
  5
6C
330
2
100
AcDbEntity
  8
SUNPO
100
AcDbDimension
  2
*D3
 10
33.23564933624991
 20
58.3824334445178
 30
0.0
 11
19.66564933624991
 21
60.1324334445178
 31
0.0
 70
    33
  1
136
 71
     5
 42
27.13999999999999
  3
STANDARD
100
AcDbAlignedDimension
 13
6.09564933624992
 23
50.3824334445178
 33
0.0
 14
33.23564933624991
 24
50.3824334445178
 34
0.0
1001
ACAD
1000
DSTYLE
1002
{
1070
   287
1070
     3
1070
    40
1040
1.0
1070
   140
1040
2.5
1070
   147
1040
0.5
1070
   172
1070
     1
1070
   279
1070
     0
1070
   288
1070
     0
1002
}
  0
LINE
  5
79
330
2
100
AcDbEntity
  8
GAIKEI
 62
     1
100
AcDbLine
 10
32.21564933624993
 20
28.01115236181636
 30
0.0
 11
32.49564932058993
 21
27.99444700983634
 31
0.0
  0
LINE
  5
7A
330
2
100
AcDbEntity
  8
GAIKEI
 62
     1
100
AcDbLine
 10
32.01571412786993
 20
31.31068460477639
 30
0.0
 11
33.23564933624997
 21
31.31670823557545
 31
0.0
  0
POINT
  5
7B
330
2
100
AcDbEntity
  8
GAIKEI
 62
     7
100
AcDbPoint
 10
33.23564933624997
 20
50.48025212647633
 30
0.0
  0
POINT
  5
7C
330
2
100
AcDbEntity
  8
GAIKEI
 62
     1
100
AcDbPoint
 10
33.29564933624997
 20
43.83463659833637
 30
0.0
  0
POINT
  5
7D
330
2
100
AcDbEntity
  8
GAIKEI
 62
     7
100
AcDbPoint
 10
33.23564933624997
 20
50.48025212647633
 30
0.0
  0
POINT
  5
7E
330
2
100
AcDbEntity
  8
GAIKEI
 62
     7
100
AcDbPoint
 10
33.23564933624997
 20
50.48025212647633
 30
0.0
  0
POINT
  5
7F
330
2
100
AcDbEntity
  8
GAIKEI
 62
     7
100
AcDbPoint
 10
33.33564933624993
 20
26.08025212647635
 30
0.0
  0
POINT
  5
80
330
2
100
AcDbEntity
  8
GAIKEI
 62
     7
100
AcDbPoint
 10
33.33564933624993
 20
50.38025212647631
 30
0.0
  0
LINE
  5
81
330
2
100
AcDbEntity
  8
GAIKEI
  6
Continuous
 62
     1
100
AcDbLine
 10
32.01885055286997
 20
28.38652053455632
 30
0.0
 11
32.02260707562991
 21
28.38982128513635
 31
0.0
  0
LINE
  5
82
330
2
100
AcDbEntity
  8
GAIKEI
  6
Continuous
 62
     1
100
AcDbLine
 10
32.01646625864996
 20
28.38254023323634
 30
0.0
 11
32.01885055286997
 21
28.38652053455632
 31
0.0
  0
LINE
  5
83
330
2
100
AcDbEntity
  8
GAIKEI
  6
Continuous
 62
     1
100
AcDbLine
 10
32.01564933624994
 20
28.3782061859763
 30
0.0
 11
32.01646625864996
 21
28.38254023323634
 31
0.0
  0
LINE
  5
84
330
2
100
AcDbEntity
  8
GAIKEI
  6
Continuous
 62
     1
100
AcDbLine
 10
32.77697545812995
 20
29.41523016523638
 30
0.0
 11
32.76389146138993
 21
29.44545567861633
 31
0.0
  0
LINE
  5
85
330
2
100
AcDbEntity
  8
GAIKEI
  6
Continuous
 62
     1
100
AcDbLine
 10
32.78737676242994
 20
29.37705965469638
 30
0.0
 11
32.77697545812995
 21
29.41523016523638
 31
0.0
  0
LINE
  5
86
330
2
100
AcDbEntity
  8
GAIKEI
  6
Continuous
 62
     1
100
AcDbLine
 10
32.79383639472994
 20
29.33422301227631
 30
0.0
 11
32.78737676242994
 21
29.37705965469638
 31
0.0
  0
LINE
  5
87
330
2
100
AcDbEntity
  8
GAIKEI
  6
Continuous
 62
     1
100
AcDbLine
 10
32.79595394772994
 20
29.29025212647628
 30
0.0
 11
32.79383639472994
 21
29.33422301227631
 31
0.0
  0
LINE
  5
88
330
2
100
AcDbEntity
  8
GAIKEI
  6
Continuous
 62
     1
100
AcDbLine
 10
32.01885057828994
 20
30.97583327057634
 30
0.0
 11
32.02260707562991
 21
30.9725325501563
 31
0.0
  0
LINE
  5
89
330
2
100
AcDbEntity
  8
GAIKEI
  6
Continuous
 62
     1
100
AcDbLine
 10
32.01646627190994
 20
30.97981356761636
 30
0.0
 11
32.01885057828994
 21
30.97583327057634
 31
0.0
  0
LINE
  5
8A
330
2
100
AcDbEntity
  8
GAIKEI
  6
Continuous
 62
     1
100
AcDbLine
 10
32.01564933624994
 20
30.98414764929635
 30
0.0
 11
32.01646627190994
 21
30.97981356761636
 31
0.0
  0
LINE
  5
8B
330
2
100
AcDbEntity
  8
GAIKEI
  6
Continuous
 62
     1
100
AcDbLine
 10
32.01646627190994
 20
30.59414100179629
 30
0.0
 11
32.01564933624994
 21
30.59847508347639
 31
0.0
  0
LINE
  5
8C
330
2
100
AcDbEntity
  8
GAIKEI
  6
Continuous
 62
     1
100
AcDbLine
 10
32.01885057828994
 20
30.59016070475639
 30
0.0
 11
32.01646627190994
 21
30.59414100179629
 31
0.0
  0
LINE
  5
8D
330
2
100
AcDbEntity
  8
GAIKEI
  6
Continuous
 62
     1
100
AcDbLine
 10
32.02260707562991
 20
30.58685998433634
 30
0.0
 11
32.01885057828994
 21
30.59016070475639
 31
0.0
  0
LINE
  5
8E
330
2
100
AcDbEntity
  8
GAIKEI
  6
Continuous
 62
     1
100
AcDbLine
 10
32.79383735858991
 20
29.1462911249763
 30
0.0
 11
32.79595394772994
 21
29.19025212647637
 31
0.0
  0
LINE
  5
8F
330
2
100
AcDbEntity
  8
GAIKEI
  6
Continuous
 62
     1
100
AcDbLine
 10
32.78738384174997
 20
29.1034785626963
 30
0.0
 11
32.79383735858991
 21
29.1462911249763
 31
0.0
  0
LINE
  5
90
330
2
100
AcDbEntity
  8
GAIKEI
  6
Continuous
 62
     1
100
AcDbLine
 10
32.77699396718996
 20
29.06532754489638
 30
0.0
 11
32.78738384174997
 21
29.1034785626963
 31
0.0
  0
LINE
  5
91
330
2
100
AcDbEntity
  8
GAIKEI
  6
Continuous
 62
     1
100
AcDbLine
 10
32.76348961434994
 20
29.03410959597636
 30
0.0
 11
32.77699396718996
 21
29.06532754489638
 31
0.0
  0
LINE
  5
92
330
2
100
AcDbEntity
  8
GAIKEI
  6
Continuous
 62
     1
100
AcDbLine
 10
32.74697204858998
 20
29.0100731791963
 30
0.0
 11
32.76348961434994
 21
29.03410959597636
 31
0.0
  0
LINE
  5
93
330
2
100
AcDbEntity
  8
GAIKEI
  6
Continuous
 62
     1
100
AcDbLine
 10
32.72843530256992
 20
28.99514558839633
 30
0.0
 11
32.74697204858998
 21
29.0100731791963
 31
0.0
  0
LINE
  5
94
330
2
100
AcDbEntity
  8
GAIKEI
  6
Continuous
 62
     1
100
AcDbLine
 10
32.71564933624993
 20
28.99185732589638
 30
0.0
 11
32.72843530256992
 21
28.99514558839633
 31
0.0
  0
LINE
  5
95
330
2
100
AcDbEntity
  8
GAIKEI
  6
Continuous
 62
     1
100
AcDbLine
 10
32.31564933624995
 20
28.58291500185635
 30
0.0
 11
32.02260707562991
 21
28.38982128513635
 31
0.0
  0
LINE
  5
96
330
2
100
AcDbEntity
  8
GAIKEI
  6
Continuous
 62
     1
100
AcDbLine
 10
32.15914220882993
 20
28.72229619161635
 30
0.0
 11
32.01564933624994
 21
28.6277447367163
 31
0.0
  0
LINE
  5
97
330
2
100
AcDbEntity
  8
GAIKEI
  6
Continuous
 62
     1
100
AcDbLine
 10
32.15914220882993
 20
29.10796875743631
 30
0.0
 11
32.01564933624994
 21
29.01341730253637
 31
0.0
  0
LINE
  5
98
330
2
100
AcDbEntity
  8
GAIKEI
  6
Continuous
 62
     1
100
AcDbLine
 10
32.15914220882993
 20
30.25438507785634
 30
0.0
 11
32.31564933624995
 21
30.39376626761634
 31
0.0
  0
LINE
  5
99
330
2
100
AcDbEntity
  8
GAIKEI
  6
Continuous
 62
     1
100
AcDbLine
 10
32.01564933624994
 20
30.58066360203634
 30
0.0
 11
32.02260707562991
 21
30.58685998433634
 31
0.0
  0
LINE
  5
9A
330
2
100
AcDbEntity
  8
GAIKEI
  6
Continuous
 62
     1
100
AcDbLine
 10
33.29564933624997
 20
34.53463659833631
 30
0.0
 11
33.29564933624997
 21
32.7258676545963
 31
0.0
  0
LINE
  5
9B
330
2
100
AcDbEntity
  8
GAIKEI
  6
Continuous
 62
     1
100
AcDbLine
 10
33.29564933624997
 20
43.73463659833634
 30
0.0
 11
33.29564933624997
 21
41.92586765459634
 31
0.0
  0
LINE
  5
9C
330
2
100
AcDbEntity
  8
GAIKEI
  6
Continuous
 62
     7
100
AcDbLine
 10
33.23564933624997
 20
50.38025212647631
 30
0.0
 11
33.23564933624997
 21
26.08025212647635
 31
0.0
  0
LINE
  5
9D
330
2
100
AcDbEntity
  8
GAIKEI
  6
Continuous
 62
     1
100
AcDbLine
 10
32.97564933624997
 20
29.44545567861633
 30
0.0
 11
32.97564933624997
 21
30.04545567861635
 31
0.0
  0
LINE
  5
9E
330
2
100
AcDbEntity
  8
GAIKEI
  6
Continuous
 62
     1
100
AcDbLine
 10
32.79595394772994
 20
29.19025212647637
 30
0.0
 11
32.79595394772994
 21
29.29025212647628
 31
0.0
  0
LINE
  5
9F
330
2
100
AcDbEntity
  8
GAIKEI
  6
Continuous
 62
     1
100
AcDbLine
 10
32.73564933624996
 20
30.23545567861629
 30
0.0
 11
32.73564933624996
 21
29.25545567861639
 31
0.0
  0
LINE
  5
A0
330
2
100
AcDbEntity
  8
GAIKEI
  6
Continuous
 62
     1
100
AcDbLine
 10
32.71564933624993
 20
29.25545567861639
 30
0.0
 11
32.71564933624993
 21
28.8902521264763
 31
0.0
  0
LINE
  5
A1
330
2
100
AcDbEntity
  8
GAIKEI
  6
Continuous
 62
     1
100
AcDbLine
 10
32.51564933624994
 20
28.8902521264763
 30
0.0
 11
32.51564933624994
 21
29.25545567861639
 31
0.0
  0
LINE
  5
A2
330
2
100
AcDbEntity
  8
GAIKEI
  6
Continuous
 62
     1
100
AcDbLine
 10
32.49564933624995
 20
31.31305279511628
 30
0.0
 11
32.49564933624995
 21
27.99444727233629
 31
0.0
  0
LINE
  5
A3
330
2
100
AcDbEntity
  8
GAIKEI
  6
Continuous
 62
     7
100
AcDbLine
 10
24.33564933624993
 20
50.27025212647629
 30
0.0
 11
24.73564933624996
 21
50.02025212647629
 31
0.0
  0
LINE
  5
A4
330
2
100
AcDbEntity
  8
GAIKEI
  6
Continuous
 62
     1
100
AcDbLine
 10
32.31564933624995
 20
30.39376626761634
 30
0.0
 11
32.31564933624995
 21
30.77943883343631
 31
0.0
  0
LINE
  5
A5
330
2
100
AcDbEntity
  8
GAIKEI
  6
Continuous
 62
     1
100
AcDbLine
 10
32.31564933624995
 20
28.58291500185635
 30
0.0
 11
32.31564933624995
 21
28.64103965219636
 31
0.0
  0
LINE
  5
A6
330
2
100
AcDbEntity
  8
GAIKEI
  6
Continuous
 62
     1
100
AcDbLine
 10
32.25564933624994
 20
28.64105651353634
 30
0.0
 11
32.25564933624994
 21
30.34033182329631
 31
0.0
  0
LINE
  5
A7
330
2
100
AcDbEntity
  8
GAIKEI
  6
Continuous
 62
     1
100
AcDbLine
 10
32.25564933624994
 20
28.54337932879628
 30
0.0
 11
32.25564933624994
 21
28.00876592045631
 31
0.0
  0
LINE
  5
A8
330
2
100
AcDbEntity
  8
GAIKEI
  6
Continuous
 62
     1
100
AcDbLine
 10
32.25564933624994
 20
31.31186822439634
 30
0.0
 11
32.25564933624994
 21
30.81897450647637
 31
0.0
  0
LINE
  5
A9
330
2
100
AcDbEntity
  8
GAIKEI
  6
Continuous
 62
     1
100
AcDbLine
 10
32.21564933624993
 20
28.01115236181636
 30
0.0
 11
32.21564933624993
 21
28.51702221343635
 31
0.0
  0
LINE
  5
AA
330
2
100
AcDbEntity
  8
GAIKEI
  6
Continuous
 62
     1
100
AcDbLine
 10
32.21564933624993
 20
29.39976013511637
 30
0.0
 11
32.21564933624993
 21
29.05764497485632
 31
0.0
  0
LINE
  5
AB
330
2
100
AcDbEntity
  8
GAIKEI
  6
Continuous
 62
     1
100
AcDbLine
 10
32.21564933624993
 20
30.30470886041633
 30
0.0
 11
32.21564933624993
 21
30.26074411783634
 31
0.0
  0
LINE
  5
AC
330
2
100
AcDbEntity
  8
GAIKEI
  6
Continuous
 62
     1
100
AcDbLine
 10
32.21564933624993
 20
31.31167079593638
 30
0.0
 11
32.21564933624993
 21
30.8453316218363
 31
0.0
  0
LINE
  5
AD
330
2
100
AcDbEntity
  8
GAIKEI
  6
Continuous
 62
     1
100
AcDbLine
 10
32.19564933624994
 20
31.31157208169634
 30
0.0
 11
32.19564933624994
 21
30.85851017951632
 31
0.0
  0
LINE
  5
AE
330
2
100
AcDbEntity
  8
GAIKEI
  6
Continuous
 62
     1
100
AcDbLine
 10
32.15914220882993
 20
28.72229619161635
 30
0.0
 11
32.15914220882993
 21
29.10796875743631
 31
0.0
  0
LINE
  5
AF
330
2
100
AcDbEntity
  8
GAIKEI
  6
Continuous
 62
     1
100
AcDbLine
 10
32.15564933624992
 20
29.44545567861633
 30
0.0
 11
32.15564933624992
 21
29.22299917899636
 31
0.0
  0
LINE
  5
B0
330
2
100
AcDbEntity
  8
GAIKEI
  6
Continuous
 62
     1
100
AcDbLine
 10
32.15564933624992
 20
30.25668662899636
 30
0.0
 11
32.15564933624992
 21
30.04545567861635
 31
0.0
  0
LINE
  5
B1
330
2
100
AcDbEntity
  8
GAIKEI
  6
Continuous
 62
     1
100
AcDbLine
 10
32.10088293186996
 20
30.98100796345637
 30
0.0
 11
32.10088293186996
 21
30.92095440581636
 31
0.0
  0
LINE
  5
B2
330
2
100
AcDbEntity
  8
GAIKEI
  6
Continuous
 62
     1
100
AcDbLine
 10
32.02260707562991
 20
30.58685998433634
 30
0.0
 11
32.02260707562991
 21
30.9725325501563
 31
0.0
  0
LINE
  5
B3
330
2
100
AcDbEntity
  8
GAIKEI
  6
Continuous
 62
     1
100
AcDbLine
 10
32.01564933624994
 20
31.3238278282563
 30
0.0
 11
32.01564933624994
 21
28.03852598795629
 31
0.0
  0
LINE
  5
B4
330
2
100
AcDbEntity
  8
GAIKEI
  6
Continuous
 62
     1
100
AcDbLine
 10
31.97564933624998
 20
28.0385280302163
 30
0.0
 11
31.97564933624998
 21
27.72614285413636
 31
0.0
  0
LINE
  5
B5
330
2
100
AcDbEntity
  8
GAIKEI
  6
Continuous
 62
     1
100
AcDbLine
 10
31.77564933624998
 20
28.03852602753636
 30
0.0
 11
31.77564933624998
 21
31.32382786803635
 31
0.0
  0
LINE
  5
B6
330
2
100
AcDbEntity
  8
GAIKEI
  6
Continuous
 62
     1
100
AcDbLine
 10
31.73564933624997
 20
31.3093042811563
 30
0.0
 11
31.73564933624997
 21
30.37195613207632
 31
0.0
  0
LINE
  5
B7
330
2
100
AcDbEntity
  8
GAIKEI
  6
Continuous
 62
     1
100
AcDbLine
 10
31.51564933624994
 20
29.13820273111628
 30
0.0
 11
31.51564933624994
 21
30.35270862609639
 31
0.0
  0
LINE
  5
B8
330
2
100
AcDbEntity
  8
GAIKEI
  6
Continuous
 62
     7
100
AcDbLine
 10
24.73564933624996
 20
49.97025212647634
 30
0.0
 11
25.33564933624993
 21
49.97025212647634
 31
0.0
  0
LINE
  5
B9
330
2
100
AcDbEntity
  8
GAIKEI
  6
Continuous
 62
     7
100
AcDbLine
 10
16.89564933624993
 20
49.27025212647629
 30
0.0
 11
18.63564933624994
 21
49.27025212647629
 31
0.0
  0
LINE
  5
BA
330
2
100
AcDbEntity
  8
GAIKEI
  6
Continuous
 62
     7
100
AcDbLine
 10
25.73564933624997
 20
50.27025212647629
 30
0.0
 11
33.23564933624997
 21
50.38025212647631
 31
0.0
  0
LINE
  5
BB
330
2
100
AcDbEntity
  8
GAIKEI
  6
Continuous
 62
     7
100
AcDbLine
 10
18.93564933624995
 20
50.18025212647637
 30
0.0
 11
24.33564933624993
 21
50.27025212647629
 31
0.0
  0
LINE
  5
BC
330
2
100
AcDbEntity
  8
GAIKEI
  6
Continuous
 62
     1
100
AcDbLine
 10
25.73564933624997
 20
50.27025212647629
 30
0.0
 11
25.73564933624997
 21
26.19025212647637
 31
0.0
  0
LINE
  5
BD
330
2
100
AcDbEntity
  8
GAIKEI
  6
Continuous
 62
     1
100
AcDbLine
 10
25.33564933624993
 20
26.44067622231637
 30
0.0
 11
25.33564933624993
 21
50.02025212647629
 31
0.0
  0
LINE
  5
BE
330
2
100
AcDbEntity
  8
GAIKEI
  6
Continuous
 62
     1
100
AcDbLine
 10
24.73564933624996
 20
50.02025212647629
 30
0.0
 11
24.73564933624996
 21
26.44067622231637
 31
0.0
  0
LINE
  5
BF
330
2
100
AcDbEntity
  8
GAIKEI
  6
Continuous
 62
     1
100
AcDbLine
 10
24.33564933624993
 20
50.27025212647629
 30
0.0
 11
24.33564933624993
 21
26.19025212647637
 31
0.0
  0
LINE
  5
C0
330
2
100
AcDbEntity
  8
GAIKEI
  6
Continuous
 62
     1
100
AcDbLine
 10
32.15914220882993
 20
29.10796875743631
 30
0.0
 11
32.25564933624994
 21
29.02202201197633
 31
0.0
  0
LINE
  5
C1
330
2
100
AcDbEntity
  8
GAIKEI
  6
Continuous
 62
     1
100
AcDbLine
 10
32.15914220882993
 20
28.72229619161635
 30
0.0
 11
32.31564933624995
 21
28.58291500185635
 31
0.0
  0
LINE
  5
C2
330
2
100
AcDbEntity
  8
GAIKEI
  6
Continuous
 62
     1
100
AcDbLine
 10
32.01564933624994
 20
28.39601766741635
 30
0.0
 11
32.02260707562991
 21
28.38982128513635
 31
0.0
  0
LINE
  5
C3
330
2
100
AcDbEntity
  8
GAIKEI
  6
Continuous
 62
     1
100
AcDbLine
 10
32.02260707562991
 20
30.9725325501563
 30
0.0
 11
32.31564933624995
 21
30.77943883343631
 31
0.0
  0
LINE
  5
C4
330
2
100
AcDbEntity
  8
GAIKEI
  6
Continuous
 62
     1
100
AcDbLine
 10
32.02260707562991
 20
30.58685998433634
 30
0.0
 11
32.31564933624995
 21
30.39376626761634
 31
0.0
  0
LINE
  5
C5
330
2
100
AcDbEntity
  8
GAIKEI
  6
Continuous
 62
     1
100
AcDbLine
 10
32.01564933624994
 20
30.34893653275628
 30
0.0
 11
32.15914220882993
 21
30.25438507785634
 31
0.0
  0
LINE
  5
C6
330
2
100
AcDbEntity
  8
GAIKEI
  6
Continuous
 62
     1
100
AcDbLine
 10
18.93564933624995
 20
50.18025212647637
 30
0.0
 11
18.93564933624995
 21
26.28025212647628
 31
0.0
  0
LINE
  5
C7
330
2
100
AcDbEntity
  8
GAIKEI
  6
Continuous
 62
     7
100
AcDbLine
 10
18.63564933624994
 20
49.88025212647631
 30
0.0
 11
18.63564933624994
 21
26.58025212647635
 31
0.0
  0
LINE
  5
C8
330
2
100
AcDbEntity
  8
GAIKEI
  6
Continuous
 62
     1
100
AcDbLine
 10
16.89564933624993
 20
49.2284337943563
 30
0.0
 11
16.89564933624993
 21
49.27025212647629
 31
0.0
  0
LINE
  5
C9
330
2
100
AcDbEntity
  8
GAIKEI
  6
Continuous
 62
     7
100
AcDbLine
 10
16.89564933624993
 20
27.19025212647637
 30
0.0
 11
16.89564933624993
 21
27.23207045857634
 31
0.0
  0
LINE
  5
CA
330
2
100
AcDbEntity
  8
GAIKEI
  6
Continuous
 62
     7
100
AcDbLine
 10
25.33564933624993
 20
50.02025212647629
 30
0.0
 11
25.73564933624997
 21
50.27025212647629
 31
0.0
  0
LINE
  5
CB
330
2
100
AcDbEntity
  8
GAIKEI
  6
Continuous
 62
     1
100
AcDbLine
 10
32.01564933624994
 20
31.32382580507635
 30
0.0
 11
31.77564933624998
 21
31.32382580507635
 31
0.0
  0
LINE
  5
CC
330
2
100
AcDbEntity
  8
GAIKEI
  6
Continuous
 62
     7
100
AcDbLine
 10
18.63564933624994
 20
26.58025212647635
 30
0.0
 11
18.93564933624995
 21
26.28025212647628
 31
0.0
  0
LINE
  5
CD
330
2
100
AcDbEntity
  8
GAIKEI
  6
Continuous
 62
     1
100
AcDbLine
 10
31.51564933624994
 20
29.13820273111628
 30
0.0
 11
31.77564933624998
 21
29.11545567861629
 31
0.0
  0
LINE
  5
CE
330
2
100
AcDbEntity
  8
GAIKEI
  6
Continuous
 62
     1
100
AcDbLine
 10
32.73564933624996
 20
30.23545567861629
 30
0.0
 11
32.49564933624995
 21
30.23545567861629
 31
0.0
  0
LINE
  5
CF
330
2
100
AcDbEntity
  8
GAIKEI
  6
Continuous
 62
     1
100
AcDbLine
 10
32.23359808036994
 20
30.18025212647638
 30
0.0
 11
32.23681136678997
 21
30.18025212647638
 31
0.0
  0
LINE
  5
D0
330
2
100
AcDbEntity
  8
GAIKEI
  6
Continuous
 62
     1
100
AcDbLine
 10
32.25564933624994
 20
30.11350187257631
 30
0.0
 11
32.49564933624995
 21
30.11350187257631
 31
0.0
  0
LINE
  5
D1
330
2
100
AcDbEntity
  8
GAIKEI
  6
Continuous
 62
     1
100
AcDbLine
 10
32.73564933624996
 20
30.04545567861635
 30
0.0
 11
32.97564933624997
 21
30.04545567861635
 31
0.0
  0
LINE
  5
D2
330
2
100
AcDbEntity
  8
GAIKEI
  6
Continuous
 62
     1
100
AcDbLine
 10
32.01564933624994
 20
30.04545567861635
 30
0.0
 11
32.25564933624994
 21
30.04545567861635
 31
0.0
  0
LINE
  5
D3
330
2
100
AcDbEntity
  8
GAIKEI
  6
Continuous
 62
     1
100
AcDbLine
 10
32.01564933624994
 20
30.0095957173163
 30
0.0
 11
31.77564933624998
 21
30.0095957173163
 31
0.0
  0
LINE
  5
D4
330
2
100
AcDbEntity
  8
GAIKEI
  6
Continuous
 62
     1
100
AcDbLine
 10
31.43770059210996
 20
29.64545567861637
 30
0.0
 11
31.39878429671393
 21
29.64545567861637
 31
0.0
  0
LINE
  5
D5
330
2
100
AcDbEntity
  8
GAIKEI
  6
Continuous
 62
     1
100
AcDbLine
 10
32.25564933624994
 20
29.54996905145629
 30
0.0
 11
32.49564933624995
 21
29.54996905145629
 31
0.0
  0
LINE
  5
D6
330
2
100
AcDbEntity
  8
GAIKEI
  6
Continuous
 62
     1
100
AcDbLine
 10
32.73564933624996
 20
29.44545567861633
 30
0.0
 11
32.97564933624997
 21
29.44545567861633
 31
0.0
  0
LINE
  5
D7
330
2
100
AcDbEntity
  8
GAIKEI
  6
Continuous
 62
     1
100
AcDbLine
 10
32.01564933624994
 20
29.44545567861633
 30
0.0
 11
32.25564933624994
 21
29.44545567861633
 31
0.0
  0
LINE
  5
D8
330
2
100
AcDbEntity
  8
GAIKEI
  6
Continuous
 62
     1
100
AcDbLine
 10
32.73564933624996
 20
29.25545567861639
 30
0.0
 11
32.49564933624995
 21
29.25545567861639
 31
0.0
  0
LINE
  5
D9
330
2
100
AcDbEntity
  8
GAIKEI
  6
Continuous
 62
     1
100
AcDbLine
 10
32.01834205864995
 20
30.97668217959631
 30
0.0
 11
32.10088293186996
 21
30.98100796345637
 31
0.0
  0
LINE
  5
DA
330
2
100
AcDbEntity
  8
GAIKEI
  6
Continuous
 62
     7
100
AcDbLine
 10
18.63564933624994
 20
49.88025212647631
 30
0.0
 11
18.93564933624995
 21
50.18025212647637
 31
0.0
  0
LINE
  5
DB
330
2
100
AcDbEntity
  8
GAIKEI
  6
Continuous
 62
     1
100
AcDbLine
 10
31.97564933624998
 20
27.72614285413636
 30
0.0
 11
33.23564933624997
 21
27.6991499978277
 31
0.0
  0
LINE
  5
DC
330
2
100
AcDbEntity
  8
GAIKEI
  6
Continuous
 62
     1
100
AcDbLine
 10
32.01564933624994
 20
29.19025212647637
 30
0.0
 11
32.21564933624993
 21
29.19025212647637
 31
0.0
  0
LINE
  5
DD
330
2
100
AcDbEntity
  8
GAIKEI
  6
Continuous
 62
     1
100
AcDbLine
 10
32.51564933624994
 20
29.09025212647634
 30
0.0
 11
32.71564933624993
 21
29.09025212647634
 31
0.0
  0
LINE
  5
DE
330
2
100
AcDbEntity
  8
GAIKEI
  6
Continuous
 62
     1
100
AcDbLine
 10
32.49564933624995
 20
28.99025212647632
 30
0.0
 11
32.51564933624994
 21
28.99025212647632
 31
0.0
  0
LINE
  5
DF
330
2
100
AcDbEntity
  8
GAIKEI
  6
Continuous
 62
     1
100
AcDbLine
 10
32.49564933624995
 20
28.8902521264763
 30
0.0
 11
32.51564933624994
 21
28.8902521264763
 31
0.0
  0
LINE
  5
E0
330
2
100
AcDbEntity
  8
GAIKEI
  6
Continuous
 62
     1
100
AcDbLine
 10
32.25564933624994
 20
28.78392460833629
 30
0.0
 11
32.49564933624995
 21
28.78392460833629
 31
0.0
  0
LINE
  5
E1
330
2
100
AcDbEntity
  8
GAIKEI
  6
Continuous
 62
     1
100
AcDbLine
 10
32.49564933624995
 20
28.69025212647637
 30
0.0
 11
32.51564933624994
 21
28.69025212647637
 31
0.0
  0
LINE
  5
E2
330
2
100
AcDbEntity
  8
GAIKEI
  6
Continuous
 62
     1
100
AcDbLine
 10
32.25564933624994
 20
28.64103965219636
 30
0.0
 11
32.49564933624995
 21
28.64103965219636
 31
0.0
  0
LINE
  5
E3
330
2
100
AcDbEntity
  8
GAIKEI
  6
Continuous
 62
     1
100
AcDbLine
 10
31.77564933624998
 20
28.32429794245638
 30
0.0
 11
32.01564933624994
 21
28.32429794245638
 31
0.0
  0
LINE
  5
E4
330
2
100
AcDbEntity
  8
GAIKEI
  6
Continuous
 62
     1
100
AcDbLine
 10
31.77564933624998
 20
28.0385280302163
 30
0.0
 11
32.01564933624994
 21
28.0385280302163
 31
0.0
  0
LINE
  5
E5
330
2
100
AcDbEntity
  8
GAIKEI
  6
Continuous
 62
     1
100
AcDbLine
 10
31.51564933624994
 20
30.35270862609639
 30
0.0
 11
31.77564933624998
 21
30.37545567861628
 31
0.0
  0
LINE
  5
E6
330
2
100
AcDbEntity
  8
GAIKEI
  6
Continuous
 62
     1
100
AcDbLine
 10
32.15564933624992
 20
29.22299917899636
 30
0.0
 11
32.01564933624994
 21
29.21075076609634
 31
0.0
  0
LINE
  5
E7
330
2
100
AcDbEntity
  8
GAIKEI
  6
Continuous
 62
     7
100
AcDbLine
 10
16.89564933624993
 20
27.19025212647637
 30
0.0
 11
18.63564933624994
 21
27.19025212647637
 31
0.0
  0
LINE
  5
E8
330
2
100
AcDbEntity
  8
GAIKEI
  6
Continuous
 62
     7
100
AcDbLine
 10
18.93564933624995
 20
26.28025212647628
 30
0.0
 11
24.33564933624993
 21
26.19025212647637
 31
0.0
  0
LINE
  5
E9
330
2
100
AcDbEntity
  8
GAIKEI
  6
Continuous
 62
     7
100
AcDbLine
 10
25.73564933624997
 20
26.19025212647637
 30
0.0
 11
33.23564933624997
 21
26.08025212647635
 31
0.0
  0
LINE
  5
EA
330
2
100
AcDbEntity
  8
GAIKEI
  6
Continuous
 62
     1
100
AcDbLine
 10
-10.11136883949578
 20
30.0095957173163
 30
0.0
 11
-11.5255015807958
 21
28.32429794245638
 31
0.0
  0
LINE
  5
EB
330
2
100
AcDbEntity
  8
GAIKEI
  6
Continuous
 62
     1
100
AcDbLine
 10
-11.84424504139579
 20
28.72229619161635
 30
0.0
 11
-12.13297083821581
 21
28.3782061859763
 31
0.0
  0
LINE
  5
EC
330
2
100
AcDbEntity
  8
GAIKEI
  6
Continuous
 62
     1
100
AcDbLine
 10
-10.26994402519577
 20
30.59847508347639
 30
0.0
 11
-10.55866982201578
 21
30.25438507785634
 31
0.0
  0
LINE
  5
ED
330
2
100
AcDbEntity
  8
GAIKEI
  6
Continuous
 62
     1
100
AcDbLine
 10
-12.30387170725581
 20
29.10796875743631
 30
0.0
 11
-12.59259750407582
 21
28.76387875179637
 31
0.0
  0
LINE
  5
EE
330
2
100
AcDbEntity
  8
GAIKEI
  6
Continuous
 62
     1
100
AcDbLine
 10
-10.72957069107579
 20
30.98414764929635
 30
0.0
 11
-11.01829648789581
 21
30.64005764365629
 31
0.0
  0
LINE
  5
EF
330
2
100
AcDbEntity
  8
GAIKEI
  6
Continuous
 62
     1
100
AcDbLine
 10
-12.30359473123579
 20
43.49341593613632
 30
0.0
 11
-12.4035947569358
 21
43.66662106045635
 31
0.0
  0
LINE
  5
F0
330
2
100
AcDbEntity
  8
GAIKEI
  6
Continuous
 62
     1
100
AcDbLine
 10
-11.1578752089558
 20
29.8454556786163
 30
0.0
 11
-11.1578752089558
 21
29.64545567861637
 31
0.0
  0
LINE
  5
F1
330
2
100
AcDbEntity
  8
GAIKEI
  6
Continuous
 62
     1
100
AcDbLine
 10
-11.4078752089558
 20
29.60545567861629
 30
0.0
 11
-11.4078752089558
 21
29.39545567861637
 31
0.0
  0
LINE
  5
F2
330
2
100
AcDbEntity
  8
GAIKEI
  6
Continuous
 62
     1
100
AcDbLine
 10
-11.4078752089558
 20
30.09545567861631
 30
0.0
 11
-11.4078752089558
 21
29.88545567861638
 31
0.0
  0
LINE
  5
F3
330
2
100
AcDbEntity
  8
GAIKEI
  6
Continuous
 62
     1
100
AcDbLine
 10
-11.60787520895579
 20
29.88545567861638
 30
0.0
 11
-11.60787520895579
 21
30.09545567861631
 31
0.0
  0
LINE
  5
F4
330
2
100
AcDbEntity
  8
GAIKEI
  6
Continuous
 62
     1
100
AcDbLine
 10
-11.60787520895579
 20
29.39545567861637
 30
0.0
 11
-11.60787520895579
 21
29.60545567861629
 31
0.0
  0
LINE
  5
F5
330
2
100
AcDbEntity
  8
GAIKEI
  6
Continuous
 62
     1
100
AcDbLine
 10
-11.85787520895579
 20
29.64545567861637
 30
0.0
 11
-11.85787520895579
 21
29.8454556786163
 31
0.0
  0
LINE
  5
F6
330
2
100
AcDbEntity
  8
GAIKEI
  6
Continuous
 62
     1
100
AcDbLine
 10
-13.07471181905581
 20
29.6187710494363
 30
0.0
 11
-13.07443393107579
 21
29.62400650629638
 31
0.0
  0
LINE
  5
F7
330
2
100
AcDbEntity
  8
GAIKEI
  6
Continuous
 62
     1
100
AcDbLine
 10
-25.92634737661584
 20
28.05085399623635
 30
0.0
 11
-25.74847639577584
 21
28.35893557223631
 31
0.0
  0
LINE
  5
F8
330
2
100
AcDbEntity
  8
GAIKEI
  6
Continuous
 62
     1
100
AcDbLine
 10
-25.69806365233584
 20
28.44625300519636
 30
0.0
 11
-25.74842816969582
 21
28.35901910223629
 31
0.0
  0
LINE
  5
F9
330
2
100
AcDbEntity
  8
GAIKEI
  6
Continuous
 62
     1
100
AcDbLine
 10
-26.11514706839583
 20
48.32727722527636
 30
0.0
 11
-25.93010286425581
 21
47.91166113797635
 31
0.0
  0
LINE
  5
FA
330
2
100
AcDbEntity
  8
GAIKEI
  6
Continuous
 62
     1
100
AcDbLine
 10
-26.46720506433579
 20
48.16918858439635
 30
0.0
 11
-26.2626141218158
 21
47.74971498899629
 31
0.0
  0
LINE
  5
FB
330
2
100
AcDbEntity
  8
GAIKEI
  6
Continuous
 62
     1
100
AcDbLine
 10
-25.84635959185582
 20
47.9511073495363
 30
0.0
 11
-26.0739250716558
 21
48.34526232259634
 31
0.0
  0
LINE
  5
FC
330
2
100
AcDbEntity
  8
GAIKEI
  6
Continuous
 62
     1
100
AcDbLine
 10
-10.26994402519577
 20
30.59847508347639
 30
0.0
 11
-10.72957069107579
 21
30.98414764929635
 31
0.0
  0
LINE
  5
FD
330
2
100
AcDbEntity
  8
GAIKEI
  6
Continuous
 62
     1
100
AcDbLine
 10
-10.39664495553577
 20
30.44747879457634
 30
0.0
 11
-10.8562716214158
 21
30.83315136037629
 31
0.0
  0
LINE
  5
FE
330
2
100
AcDbEntity
  8
GAIKEI
  6
Continuous
 62
     1
100
AcDbLine
 10
-27.25800231807582
 20
29.2070212019363
 30
0.0
 11
-27.23186720193579
 21
29.24884613071629
 31
0.0
  0
LINE
  5
FF
330
2
100
AcDbEntity
  8
GAIKEI
  6
Continuous
 62
     1
100
AcDbLine
 10
-25.97047512385578
 20
28.52046201923633
 30
0.0
 11
-26.17817004613582
 21
28.16072386137637
 31
0.0
  0
LINE
  5
100
330
2
100
AcDbEntity
  8
GAIKEI
  6
Continuous
 62
     1
100
AcDbLine
 10
-26.37959345205579
 20
28.71433644687636
 30
0.0
 11
-26.58720723231582
 21
28.35473883111638
 31
0.0
  0
LINE
  5
101
330
2
100
AcDbEntity
  8
GAIKEI
  6
Continuous
 62
     1
100
AcDbLine
 10
-26.93961462807582
 20
29.01582363505634
 30
0.0
 11
-26.91700792839581
 21
29.05497958747628
 31
0.0
  0
LINE
  5
102
330
2
100
AcDbEntity
  8
GAIKEI
  6
Continuous
 62
     1
100
AcDbLine
 10
-26.61478067197581
 20
28.83579997571633
 30
0.0
 11
-26.59274722093582
 21
28.87723887021627
 31
0.0
  0
LINE
  5
103
330
2
100
AcDbEntity
  8
GAIKEI
  6
Continuous
 62
     1
100
AcDbLine
 10
-26.28383357101578
 20
28.66728294575637
 30
0.0
 11
-26.2626141218158
 21
28.71078926393636
 31
0.0
  0
LINE
  5
104
330
2
100
AcDbEntity
  8
GAIKEI
  6
Continuous
 62
     1
100
AcDbLine
 10
-25.94732746899584
 20
28.51015601929635
 30
0.0
 11
-25.93010286425581
 21
28.5488431149563
 31
0.0
  0
LINE
  5
105
330
2
100
AcDbEntity
  8
GAIKEI
  6
Continuous
 62
     1
100
AcDbLine
 10
-21.51966185811582
 20
27.17399376633637
 30
0.0
 11
-21.51966185811582
 21
27.63072383507631
 31
0.0
  0
LINE
  5
106
330
2
100
AcDbEntity
  8
GAIKEI
  6
Continuous
 62
     1
100
AcDbLine
 10
-21.71966185811581
 20
27.17399376633637
 30
0.0
 11
-21.71966185811581
 21
27.63072383507631
 31
0.0
  0
LINE
  5
107
330
2
100
AcDbEntity
  8
GAIKEI
  6
Continuous
 62
     1
100
AcDbLine
 10
-27.48072077995582
 20
47.11043164689636
 30
0.0
 11
-27.68832870887579
 21
47.47001912785629
 31
0.0
  0
LINE
  5
108
330
2
100
AcDbEntity
  8
GAIKEI
  6
Continuous
 62
     1
100
AcDbLine
 10
-27.8531801235358
 20
46.85306199533636
 30
0.0
 11
-28.06088078119584
 21
47.2128100871563
 31
0.0
  0
LINE
  5
109
330
2
100
AcDbEntity
  8
GAIKEI
  6
Continuous
 62
     1
100
AcDbLine
 10
-28.05365275063579
 20
46.65425124773628
 30
0.0
 11
-28.1040327701958
 21
46.74151200129631
 31
0.0
  0
LINE
  5
10A
330
2
100
AcDbEntity
  8
GAIKEI
  6
Continuous
 62
     1
100
AcDbLine
 10
-28.28194177311579
 20
47.04965943349634
 30
0.0
 11
-28.10406549405579
 21
46.74156868069633
 31
0.0
  0
LINE
  5
10B
330
2
100
AcDbEntity
  8
GAIKEI
  6
Continuous
 62
     1
100
AcDbLine
 10
-11.47792315375582
 20
31.02573020947636
 30
0.0
 11
-11.71993592459583
 21
31.22880303621628
 31
0.0
  0
LINE
  5
10C
330
2
100
AcDbEntity
  8
GAIKEI
  6
Continuous
 62
     1
100
AcDbLine
 10
-10.55866982201578
 20
30.25438507785634
 30
0.0
 11
-11.01829648789581
 21
30.64005764365629
 31
0.0
  0
LINE
  5
10D
330
2
100
AcDbEntity
  8
GAIKEI
  6
Continuous
 62
     1
100
AcDbLine
 10
-28.11620606351582
 20
29.28852613661638
 30
0.0
 11
-27.84479601463582
 21
29.66209002093638
 31
0.0
  0
LINE
  5
10E
330
2
100
AcDbEntity
  8
GAIKEI
  6
Continuous
 62
     1
100
AcDbLine
 10
-27.8032549590358
 20
29.06269834991633
 30
0.0
 11
-27.54687173357579
 21
29.4428021129363
 31
0.0
  0
LINE
  5
10F
330
2
100
AcDbEntity
  8
GAIKEI
  6
Continuous
 62
     1
100
AcDbLine
 10
-27.56646372231583
 20
29.40726240711638
 30
0.0
 11
-27.77547554089577
 21
29.04524331795631
 31
0.0
  0
LINE
  5
110
330
2
100
AcDbEntity
  8
GAIKEI
  6
Continuous
 62
     1
100
AcDbLine
 10
-28.15239159515582
 20
29.31523230983635
 30
0.0
 11
-27.92482056093579
 21
29.70939690341629
 31
0.0
  0
LINE
  5
111
330
2
100
AcDbEntity
  8
GAIKEI
  6
Continuous
 62
     1
100
AcDbLine
 10
-11.84424504139579
 20
28.72229619161635
 30
0.0
 11
-12.30387170725581
 21
29.10796875743631
 31
0.0
  0
LINE
  5
112
330
2
100
AcDbEntity
  8
GAIKEI
  6
Continuous
 62
     1
100
AcDbLine
 10
-13.00551114395583
 20
29.69671414997629
 30
0.0
 11
-12.76349837313583
 21
29.49364132323637
 31
0.0
  0
LINE
  5
113
330
2
100
AcDbEntity
  8
GAIKEI
  6
Continuous
 62
     1
100
AcDbLine
 10
-12.0062699078758
 20
28.52920247489635
 30
0.0
 11
-12.46589657373582
 21
28.91487504071631
 31
0.0
  0
LINE
  5
114
330
2
100
AcDbEntity
  8
GAIKEI
  6
Continuous
 62
     1
100
AcDbLine
 10
-12.13297083821581
 20
28.3782061859763
 30
0.0
 11
-12.59259750407582
 21
28.76387875179637
 31
0.0
  0
LINE
  5
115
330
2
100
AcDbEntity
  8
GAIKEI
  6
Continuous
 62
     1
100
AcDbLine
 10
-30.74912262659578
 20
43.61661881253633
 30
0.0
 11
-31.14465793781576
 21
43.84498123095636
 31
0.0
  0
LINE
  5
116
330
2
100
AcDbEntity
  8
GAIKEI
  6
Continuous
 62
     1
100
AcDbLine
 10
-30.8491226265958
 20
43.44341373179633
 30
0.0
 11
-31.24466677475581
 21
43.6717812521963
 31
0.0
  0
LINE
  5
117
330
2
100
AcDbEntity
  8
GAIKEI
  6
Continuous
 62
     1
100
AcDbLine
 10
-12.39020108965579
 20
43.44341373179633
 30
0.0
 11
-11.99465694149583
 21
43.6717812521963
 31
0.0
  0
LINE
  5
118
330
2
100
AcDbEntity
  8
GAIKEI
  6
Continuous
 62
     1
100
AcDbLine
 10
-12.4902011185558
 20
43.61661886155639
 30
0.0
 11
-12.0946657933558
 21
43.84498125469633
 31
0.0
  0
LINE
  5
119
330
2
100
AcDbEntity
  8
GAIKEI
  6
Continuous
 62
     1
100
AcDbLine
 10
-10.62763559435578
 20
37.07494361199633
 30
0.0
 11
-11.08516102755581
 21
37.12303147277635
 31
0.0
  0
LINE
  5
11A
330
2
100
AcDbEntity
  8
GAIKEI
  6
Continuous
 62
     1
100
AcDbLine
 10
-10.58852383017577
 20
37.45887981207636
 30
0.0
 11
-11.05380691965578
 21
37.49141557515634
 31
0.0
  0
LINE
  5
11B
330
2
100
AcDbEntity
  8
GAIKEI
  6
Continuous
 62
     1
100
AcDbLine
 10
-11.10726917139581
 20
39.59025212647635
 30
0.0
 11
-11.00649964447578
 21
39.59025212647635
 31
0.0
  0
LINE
  5
11C
330
2
100
AcDbEntity
  8
GAIKEI
  6
Continuous
 62
     1
100
AcDbLine
 10
-10.65069927217578
 20
39.59025212647635
 30
0.0
 11
-11.00644368453581
 21
39.59025212647635
 31
0.0
  0
LINE
  5
11D
330
2
100
AcDbEntity
  8
GAIKEI
  6
Continuous
 62
     1
100
AcDbLine
 10
-11.03533032697581
 20
39.31723236483629
 30
0.0
 11
-10.61993668423579
 21
39.31723236483629
 31
0.0
  0
LINE
  5
11E
330
2
100
AcDbEntity
  8
GAIKEI
  6
Continuous
 62
     1
100
AcDbLine
 10
-10.99867134235583
 20
38.86598828563638
 30
0.0
 11
-10.5834488140558
 21
38.86598828563638
 31
0.0
  0
LINE
  5
11F
330
2
100
AcDbEntity
  8
GAIKEI
  6
Continuous
 62
     1
100
AcDbLine
 10
-10.98614442329577
 20
37.85892151523638
 30
0.0
 11
-11.02921281635579
 21
37.86042549667639
 31
0.0
  0
LINE
  5
120
330
2
100
AcDbEntity
  8
GAIKEI
  6
Continuous
 62
     1
100
AcDbLine
 10
-10.97975631823581
 20
38.23025212647633
 30
0.0
 11
-11.02921281635579
 21
38.23025212647633
 31
0.0
  0
LINE
  5
121
330
2
100
AcDbEntity
  8
GAIKEI
  6
Continuous
 62
     1
100
AcDbLine
 10
-11.0053276917358
 20
37.49166550049631
 30
0.0
 11
-10.5872971078758
 21
37.49166550049631
 31
0.0
  0
LINE
  5
122
330
2
100
AcDbEntity
  8
GAIKEI
  6
Continuous
 62
     1
100
AcDbLine
 10
-11.08780542157584
 20
37.03025212647629
 30
0.0
 11
-10.63267122161576
 21
37.03025212647629
 31
0.0
  0
LINE
  5
123
330
2
100
AcDbEntity
  8
GAIKEI
  6
Continuous
 62
     1
100
AcDbLine
 10
-10.98626823401579
 20
38.60157841413638
 30
0.0
 11
-11.02921281635579
 21
38.60007875627639
 31
0.0
  0
LINE
  5
124
330
2
100
AcDbEntity
  8
GAIKEI
  6
Continuous
 62
     1
100
AcDbLine
 10
-11.00580175557579
 20
38.9724455258563
 30
0.0
 11
-11.05380691965578
 21
38.96908867777631
 31
0.0
  0
LINE
  5
125
330
2
100
AcDbEntity
  8
GAIKEI
  6
Continuous
 62
     1
100
AcDbLine
 10
-11.03794999867583
 20
39.34243485925629
 30
0.0
 11
-11.08516102755581
 21
39.33747278017631
 31
0.0
  0
LINE
  5
126
330
2
100
AcDbEntity
  8
GAIKEI
  6
Continuous
 62
     1
100
AcDbLine
 10
-30.81840771905584
 20
43.65662057931638
 30
0.0
 11
-30.91840771905581
 21
43.48341549855638
 31
0.0
  0
LINE
  5
127
330
2
100
AcDbEntity
  8
GAIKEI
  6
Continuous
 62
     1
100
AcDbLine
 10
-11.60787520895579
 20
30.09545567861631
 30
0.0
 11
-11.4078752089558
 21
30.09545567861631
 31
0.0
  0
LINE
  5
128
330
2
100
AcDbEntity
  8
GAIKEI
  6
Continuous
 62
     1
100
AcDbLine
 10
-11.36787520895578
 20
29.8454556786163
 30
0.0
 11
-11.1578752089558
 21
29.8454556786163
 31
0.0
  0
LINE
  5
129
330
2
100
AcDbEntity
  8
GAIKEI
  6
Continuous
 62
     1
100
AcDbLine
 10
-11.85787520895579
 20
29.8454556786163
 30
0.0
 11
-11.64787520895581
 21
29.8454556786163
 31
0.0
  0
LINE
  5
12A
330
2
100
AcDbEntity
  8
GAIKEI
  6
Continuous
 62
     1
100
AcDbLine
 10
-11.64787520895581
 20
29.64545567861637
 30
0.0
 11
-11.85787520895579
 21
29.64545567861637
 31
0.0
  0
LINE
  5
12B
330
2
100
AcDbEntity
  8
GAIKEI
  6
Continuous
 62
     1
100
AcDbLine
 10
-11.1578752089558
 20
29.64545567861637
 30
0.0
 11
-11.36787520895578
 21
29.64545567861637
 31
0.0
  0
LINE
  5
12C
330
2
100
AcDbEntity
  8
GAIKEI
  6
Continuous
 62
     1
100
AcDbLine
 10
-11.4078752089558
 20
29.39545567861637
 30
0.0
 11
-11.60787520895579
 21
29.39545567861637
 31
0.0
  0
LINE
  5
12D
330
2
100
AcDbEntity
  8
GAIKEI
  6
Continuous
 62
     1
100
AcDbLine
 10
-21.71966185811581
 20
27.53071942639633
 30
0.0
 11
-21.51966185811582
 21
27.53071942639633
 31
0.0
  0
LINE
  5
12E
330
2
100
AcDbEntity
  8
GAIKEI
  6
Continuous
 62
     1
100
AcDbLine
 10
25.81739148530991
 20
27.32912187501631
 30
0.0
 11
28.02480410732992
 21
27.3336351629963
 31
0.0
  0
LINE
  5
12F
330
2
100
AcDbEntity
  8
GAIKEI
  6
Continuous
 62
     1
100
AcDbLine
 10
24.26289286422994
 20
27.32724039243635
 30
0.0
 11
23.12539783594994
 21
27.32263514941633
 31
0.0
  0
LINE
  5
130
330
2
100
AcDbEntity
  8
GAIKEI
  6
Continuous
 62
     1
100
AcDbLine
 10
28.02480410732992
 20
27.3336351629963
 30
0.0
 11
28.02721099262996
 21
26.15644703795636
 31
0.0
  0
LINE
  5
131
330
2
100
AcDbEntity
  8
GAIKEI
  6
Continuous
 62
     1
100
AcDbLine
 10
25.81972927850993
 20
26.18572614379627
 30
0.0
 11
25.81739148530991
 21
27.32912187501631
 31
0.0
  0
LINE
  5
132
330
2
100
AcDbEntity
  8
GAIKEI
  6
Continuous
 62
     1
100
AcDbLine
 10
23.12539783594994
 20
27.32263514941633
 30
0.0
 11
23.12960939854995
 21
26.21189476419636
 31
0.0
  0
LINE
  5
133
330
2
100
AcDbEntity
  8
GAIKEI
  6
Continuous
 62
     1
100
AcDbLine
 10
24.26749810724996
 20
26.18974536417636
 30
0.0
 11
24.26289286422994
 21
27.32724039243635
 31
0.0
  0
ARC
  5
134
330
2
100
AcDbEntity
  8
GAIKEI
  6
Continuous
 62
     1
100
AcDbCircle
 10
-11.24871171947578
 20
29.54227437085638
 30
0.0
 40
0.025
100
AcDbArc
 50
0.0
 51
180.0
  0
ARC
  5
135
330
2
100
AcDbEntity
  8
GAIKEI
  6
Continuous
 62
     1
100
AcDbCircle
 10
-11.24871171947578
 20
29.54227437085638
 30
0.0
 40
0.025
100
AcDbArc
 50
180.0
 51
0.0
  0
ARC
  5
136
330
2
100
AcDbEntity
  8
GAIKEI
  6
Continuous
 62
     1
100
AcDbCircle
 10
33.03564933624997
 20
32.7258676545963
 30
0.0
 40
0.26
100
AcDbArc
 50
320.5781934623017
 51
0.0
  0
ARC
  5
137
330
2
100
AcDbEntity
  8
GAIKEI
  6
Continuous
 62
     1
100
AcDbCircle
 10
33.03564933624997
 20
34.53463659833631
 30
0.0
 40
0.26
100
AcDbArc
 50
0.0
 51
39.42180653769834
  0
ARC
  5
138
330
2
100
AcDbEntity
  8
GAIKEI
  6
Continuous
 62
     1
100
AcDbCircle
 10
33.03564933624997
 20
41.92586765459634
 30
0.0
 40
0.26
100
AcDbArc
 50
320.5781934623017
 51
0.0
  0
ARC
  5
139
330
2
100
AcDbEntity
  8
GAIKEI
  6
Continuous
 62
     1
100
AcDbCircle
 10
33.03564933624997
 20
43.73463659833634
 30
0.0
 40
0.26
100
AcDbArc
 50
0.0
 51
39.42180653769834
  0
ARC
  5
13A
330
2
100
AcDbEntity
  8
GAIKEI
  6
Continuous
 62
     7
100
AcDbCircle
 10
17.09564933624992
 20
38.23025212647633
 30
0.0
 40
11.0
100
AcDbArc
 50
91.04179885049987
 51
268.9582011495001
  0
ARC
  5
13B
330
2
100
AcDbEntity
  8
GAIKEI
  6
Continuous
 62
     1
100
AcDbCircle
 10
32.09564933624992
 20
31.08087091693631
 30
0.0
 40
0.1
100
AcDbArc
 50
272.99999999995
 51
0.0
  0
ARC
  5
13C
330
2
100
AcDbEntity
  8
GAIKEI
  6
Continuous
 62
     1
100
AcDbCircle
 10
32.51564933624994
 20
28.8902521264763
 30
0.0
 40
0.2
100
AcDbArc
 50
270.0
 51
0.0
  0
ARC
  5
13D
330
2
100
AcDbEntity
  8
GAIKEI
  6
Continuous
 62
     1
100
AcDbCircle
 10
32.99213326218993
 20
29.74545567861628
 30
0.0
 40
1.59648392594
100
AcDbArc
 50
183.5912238960257
 51
202.3565394142984
  0
ARC
  5
13E
330
2
100
AcDbEntity
  8
GAIKEI
  6
Continuous
 62
     1
100
AcDbCircle
 10
30.67916541028998
 20
29.83025212647635
 30
0.0
 40
1.59648392594
100
AcDbArc
 50
337.6434605857016
 51
346.0445664732958
  0
ARC
  5
13F
330
2
100
AcDbEntity
  8
GAIKEI
  6
Continuous
 62
     1
100
AcDbCircle
 10
30.67916541028998
 20
29.83025212647635
 30
0.0
 40
1.59648392594
100
AcDbArc
 50
12.66391528419723
 51
16.96702655000297
  0
ARC
  5
140
330
2
100
AcDbEntity
  8
GAIKEI
  6
Continuous
 62
     1
100
AcDbCircle
 10
-21.61966185811579
 20
38.23025212647633
 30
0.0
 40
10.7
100
AcDbArc
 50
7.302206308900043
 51
29.46451762970101
  0
ARC
  5
141
330
2
100
AcDbEntity
  8
GAIKEI
  6
Continuous
 62
     1
100
AcDbCircle
 10
-21.61966185811579
 20
38.23025212647633
 30
0.0
 40
10.7
100
AcDbArc
 50
30.5354826410981
 51
113.5607584057988
  0
ARC
  5
142
330
2
100
AcDbEntity
  8
GAIKEI
  6
Continuous
 62
     1
100
AcDbCircle
 10
-21.61966185811579
 20
38.23025212647633
 30
0.0
 40
10.7
100
AcDbArc
 50
270.5354823703009
 51
353.5607584058015
  0
ARC
  5
143
330
2
100
AcDbEntity
  8
GAIKEI
  6
Continuous
 62
     1
100
AcDbCircle
 10
-21.61966185811579
 20
38.23025212647633
 30
0.0
 40
10.7
100
AcDbArc
 50
247.3022063089007
 51
269.4645176296991
  0
ARC
  5
144
330
2
100
AcDbEntity
  8
GAIKEI
  6
Continuous
 62
     1
100
AcDbCircle
 10
-21.61966185811579
 20
38.23025212647633
 30
0.0
 40
10.7
100
AcDbArc
 50
127.3022063088997
 51
149.4645176296995
  0
ARC
  5
145
330
2
100
AcDbEntity
  8
GAIKEI
  6
Continuous
 62
     1
100
AcDbCircle
 10
-21.61966185811579
 20
38.23025212647633
 30
0.0
 40
10.7
100
AcDbArc
 50
150.535482370299
 51
233.5607584057986
  0
ARC
  5
146
330
2
100
AcDbEntity
  8
GAIKEI
  6
Continuous
 62
     1
100
AcDbCircle
 10
-21.61966185811579
 20
38.23025212647633
 30
0.0
 40
10.64
100
AcDbArc
 50
116.0195530278986
 51
127.3436104917017
  0
ARC
  5
147
330
2
100
AcDbEntity
  8
GAIKEI
  6
Continuous
 62
     1
100
AcDbCircle
 10
-21.61966185811579
 20
38.23025212647633
 30
0.0
 40
10.64
100
AcDbArc
 50
236.0195530279005
 51
247.3436104917019
  0
ARC
  5
148
330
2
100
AcDbEntity
  8
GAIKEI
  6
Continuous
 62
     1
100
AcDbCircle
 10
-21.61966185811579
 20
38.23025212647633
 30
0.0
 40
10.64
100
AcDbArc
 50
356.0195530279017
 51
7.343610491701817
  0
ARC
  5
149
330
2
100
AcDbEntity
  8
GAIKEI
  6
Continuous
 62
     1
100
AcDbCircle
 10
-21.61966185811579
 20
38.23025212647633
 30
0.0
 40
10.7
100
AcDbArc
 50
29.46451762970101
 51
30.5354826410981
  0
ARC
  5
14A
330
2
100
AcDbEntity
  8
GAIKEI
  6
Continuous
 62
     1
100
AcDbCircle
 10
-21.61966185811579
 20
38.23025212647633
 30
0.0
 40
10.68
100
AcDbArc
 50
149.4635148245027
 51
150.5364851754981
  0
ARC
  5
14B
330
2
100
AcDbEntity
  8
GAIKEI
  6
Continuous
 62
     1
100
AcDbCircle
 10
-21.61966185811579
 20
38.23025212647633
 30
0.0
 40
10.7
100
AcDbArc
 50
269.4645176296991
 51
270.5354823703009
  0
ARC
  5
14C
330
2
100
AcDbEntity
  8
GAIKEI
  6
Continuous
 62
     7
100
AcDbCircle
 10
-21.61966185811579
 20
38.23025212647633
 30
0.0
 40
12.13152
100
AcDbArc
 50
300.0197851858033
 51
314.7778134304979
  0
ARC
  5
14D
330
2
100
AcDbEntity
  8
GAIKEI
  6
Continuous
 62
     7
100
AcDbCircle
 10
-21.61966185811579
 20
38.23025212647633
 30
0.0
 40
12.128
100
AcDbArc
 50
314.7961666948013
 51
325.2038333051996
  0
ARC
  5
14E
330
2
100
AcDbEntity
  8
GAIKEI
  6
Continuous
 62
     7
100
AcDbCircle
 10
-21.47856585314812
 20
38.51225148503619
 30
0.0
 40
12.30791536767539
100
AcDbArc
 50
184.1094037149522
 51
298.7941999428678
  0
ARC
  5
14F
330
2
100
AcDbEntity
  8
GAIKEI
  6
Continuous
 62
     7
100
AcDbCircle
 10
-21.64798513400051
 20
38.17214930628074
 30
0.0
 40
12.14143861409339
100
AcDbArc
 50
326.5521878789306
 51
161.4722913315717
  0
ARC
  5
150
330
2
100
AcDbEntity
  8
GAIKEI
  6
Continuous
 62
     7
100
AcDbCircle
 10
-21.61966185811579
 20
38.23025212647633
 30
0.0
 40
12.15
100
AcDbArc
 50
161.7745289238996
 51
182.8305724703004
  0
ARC
  5
151
330
2
100
AcDbEntity
  8
GAIKEI
  6
Continuous
 62
     1
100
AcDbCircle
 10
-12.13833713529581
 20
28.83852803021637
 30
0.0
 40
0.8
100
AcDbArc
 50
140.0000000000045
 51
320.0000000000045
  0
ARC
  5
152
330
2
100
AcDbEntity
  8
GAIKEI
  6
Continuous
 62
     1
100
AcDbCircle
 10
-10.72420439399579
 20
30.52382580507629
 30
0.0
 40
0.8
100
AcDbArc
 50
320.0000000000045
 51
140.0000000000045
  0
ARC
  5
153
330
2
100
AcDbEntity
  8
GAIKEI
  6
Continuous
 62
     1
100
AcDbCircle
 10
-12.82777713409578
 20
29.4170368789363
 30
0.0
 40
0.0999999999998
100
AcDbArc
 50
319.9999999999875
 51
49.99999999998894
  0
ARC
  5
154
330
2
100
AcDbEntity
  8
GAIKEI
  6
Continuous
 62
     1
100
AcDbCircle
 10
-11.41364439279581
 20
31.10233465379633
 30
0.0
 40
0.1
100
AcDbArc
 50
230.0000000000602
 51
320.000000000064
  0
ARC
  5
155
330
2
100
AcDbEntity
  8
GAIKEI
  6
Continuous
 62
     1
100
AcDbCircle
 10
-11.36787520895578
 20
29.60545567861629
 30
0.0
 40
0.04
100
AcDbArc
 50
90.0
 51
180.0
  0
ARC
  5
156
330
2
100
AcDbEntity
  8
GAIKEI
  6
Continuous
 62
     1
100
AcDbCircle
 10
-11.36787520895578
 20
29.88545567861638
 30
0.0
 40
0.04
100
AcDbArc
 50
180.0
 51
270.0
  0
ARC
  5
157
330
2
100
AcDbEntity
  8
GAIKEI
  6
Continuous
 62
     1
100
AcDbCircle
 10
-11.64787520895581
 20
29.60545567861629
 30
0.0
 40
0.04
100
AcDbArc
 50
0.0
 51
90.0
  0
ARC
  5
158
330
2
100
AcDbEntity
  8
GAIKEI
  6
Continuous
 62
     1
100
AcDbCircle
 10
-11.64787520895581
 20
29.88545567861638
 30
0.0
 40
0.04
100
AcDbArc
 50
270.0
 51
0.0
  0
CIRCLE
  5
159
330
2
100
AcDbEntity
  8
GAIKEI
  6
Continuous
 62
     1
100
AcDbCircle
 10
-21.61966185811579
 20
38.23025212647633
 30
0.0
 40
10.09007433052
  0
CIRCLE
  5
15A
330
2
100
AcDbEntity
  8
GAIKEI
  6
Continuous
 62
     1
100
AcDbCircle
 10
-21.61966185811579
 20
38.23025212647633
 30
0.0
 40
10.2841142217
  0
CIRCLE
  5
15B
330
2
100
AcDbEntity
  8
GAIKEI
  6
Continuous
 62
     1
100
AcDbCircle
 10
-21.61966185811579
 20
38.23025212647633
 30
0.0
 40
10.6
  0
CIRCLE
  5
15C
330
2
100
AcDbEntity
  8
GAIKEI
  6
Continuous
 62
     1
100
AcDbCircle
 10
-21.61966185811579
 20
38.23025212647633
 30
0.0
 40
11.65
  0
CIRCLE
  5
15D
330
2
100
AcDbEntity
  8
GAIKEI
  6
Continuous
 62
     1
100
AcDbCircle
 10
-21.61966185811579
 20
38.23025212647633
 30
0.0
 40
11.95
  0
CIRCLE
  5
15E
330
2
100
AcDbEntity
  8
GAIKEI
  6
Continuous
 62
     1
100
AcDbCircle
 10
-21.61966185811579
 20
38.23025212647633
 30
0.0
 40
11.06
  0
CIRCLE
  5
15F
330
2
100
AcDbEntity
  8
GAIKEI
  6
Continuous
 62
     1
100
AcDbCircle
 10
-11.50787520895576
 20
29.74545567861628
 30
0.0
 40
0.6072529474800002
  0
CIRCLE
  5
160
330
2
100
AcDbEntity
  8
GAIKEI
  6
Continuous
 62
     1
100
AcDbCircle
 10
-11.50787520895576
 20
29.74545567861628
 30
0.0
 40
0.63
  0
SPLINE
  5
161
330
2
100
AcDbEntity
  8
GAIKEI
  6
Continuous
 62
     1
100
AcDbSpline
210
0.0
220
0.0
230
1.0
 70
    24
 71
     3
 72
     9
 73
     5
 74
     3
 42
0.0000000001
 43
0.0000000001
 44
0.00000000001
 40
0.0
 40
0.0
 40
0.0
 40
0.0
 40
0.0007848553380725
 40
0.0015697106762422
 40
0.0015697106762422
 40
0.0015697106762422
 40
0.0015697106762422
 10
25.33564933624999
 20
26.81506920161633
 30
0.0
 10
25.33587303249996
 20
26.81493353953965
 30
0.0
 10
25.33632042499993
 20
26.81466221538619
 30
0.0
 10
25.33676781749995
 20
26.81439089123302
 30
0.0
 10
25.33699151374995
 20
26.81425522915629
 30
0.0
 11
25.33564933624999
 21
26.81506920161633
 31
0.0
 11
25.33632042499991
 21
26.81466221538631
 31
0.0
 11
25.33699151374995
 21
26.81425522915629
 31
0.0
  0
SPLINE
  5
162
330
2
100
AcDbEntity
  8
GAIKEI
  6
Continuous
 62
     1
100
AcDbSpline
210
0.0
220
0.0
230
1.0
 70
     8
 71
     3
 72
     9
 73
     5
 74
     3
 42
0.0000000001
 43
0.0000000001
 44
0.00000000001
 40
0.0
 40
0.0
 40
0.0
 40
0.0
 40
0.1000118766468121
 40
0.2000237532935802
 40
0.2000237532935802
 40
0.2000237532935802
 40
0.2000237532935802
 10
32.01564933548994
 20
28.18743990549638
 30
0.0
 10
32.0489826691836
 20
28.18692617683689
 30
0.0
 10
32.11564933657093
 20
28.18589871951781
 30
0.0
 10
32.18231600302357
 20
28.18487120155675
 30
0.0
 10
32.21564933624993
 20
28.18435744257636
 30
0.0
 11
32.01564933548994
 21
28.18743990549638
 31
0.0
 11
32.11564933633727
 21
28.18589870435733
 31
0.0
 11
32.21564933624993
 21
28.18435744257636
 31
0.0
  0
SPLINE
  5
163
330
2
100
AcDbEntity
  8
GAIKEI
  6
Continuous
 62
     1
100
AcDbSpline
210
0.0
220
0.0
230
1.0
 70
    24
 71
     3
 72
     9
 73
     5
 74
     3
 42
0.0000000001
 43
0.0000000001
 44
0.00000000001
 40
0.0
 40
0.0
 40
0.0
 40
0.0
 40
0.0200002430132368
 40
0.0400004860263593
 40
0.0400004860263593
 40
0.0400004860263593
 40
0.0400004860263593
 10
31.73564933624991
 20
31.3093042811563
 30
0.0
 10
31.7423160030066
 20
31.3093371272397
 30
0.0
 10
31.75564933651991
 20
31.30940281940639
 30
0.0
 10
31.76898267003326
 20
31.30946851157307
 30
0.0
 10
31.77564933678989
 20
31.30950135765636
 30
0.0
 11
31.73564933624991
 21
31.3093042811563
 31
0.0
 11
31.75564933651995
 21
31.30940281940639
 31
0.0
 11
31.77564933678989
 21
31.30950135765636
 31
0.0
  0
SPLINE
  5
164
330
2
100
AcDbEntity
  8
GAIKEI
  6
Continuous
 62
     1
100
AcDbSpline
210
0.0
220
0.0
230
1.0
 70
     8
 71
     3
 72
    21
 73
    17
 74
    15
 42
0.0000000001
 43
0.0000000001
 44
0.00000000001
 40
0.0
 40
0.0
 40
0.0
 40
0.0
 40
0.0483347742869657
 40
0.094490012466869
 40
0.128242390150644
 40
0.1607412484775612
 40
0.1859023235492021
 40
0.211988997160332
 40
0.2342705333083479
 40
0.2565537074947104
 40
0.2738335103008636
 40
0.2909942346385006
 40
0.3029174738523178
 40
0.3144823073774191
 40
0.3224579804350371
 40
0.3301807206522367
 40
0.3301807206522367
 40
0.3301807206522367
 40
0.3301807206522367
 10
32.10170819638998
 20
31.31110882745634
 30
0.0
 10
32.10187509179327
 20
31.29499809608353
 30
0.0
 10
32.10220135686791
 20
31.26350310659166
 30
0.0
 10
32.10254310891662
 20
31.22075696673903
 30
0.0
 10
32.10278055322422
 20
31.18328888836101
 30
0.0
 10
32.10293333786763
 20
31.15281848469073
 30
0.0
 10
32.10301951907545
 20
31.12490306615939
 30
0.0
 10
32.10304737540196
 20
31.10039330401122
 30
0.0
 10
32.10302375900162
 20
31.07684282810806
 30
0.0
 10
32.10296923278193
 20
31.05622809847671
 30
0.0
 10
32.10284110095178
 20
31.03732036624564
 30
0.0
 10
32.10262412778462
 20
31.02186766516946
 30
0.0
 10
32.10237129386654
 20
31.00831910721581
 30
0.0
 10
32.1023083063489
 20
30.99783467443325
 30
0.0
 10
32.10199674867509
 20
30.98874087543356
 30
0.0
 10
32.10125019464542
 20
30.98355776401775
 30
0.0
 10
32.10088293186996
 20
30.98100796345637
 30
0.0
 11
32.10170819638998
 21
31.31110882745634
 31
0.0
 11
32.1021893990812
 21
31.26277644856453
 31
0.0
 11
32.10256143124403
 21
31.216622709783
 31
0.0
 11
32.10277561803142
 21
31.18287101170233
 31
0.0
 11
32.10293383671703
 21
31.15037253851665
 31
0.0
 11
32.10301053414119
 21
31.12521158034201
 31
0.0
 11
32.10303878384704
 21
31.09912492202693
 31
0.0
 11
32.10301766132122
 21
31.07684339589082
 31
0.0
 11
32.10294753663831
 21
31.05456033204518
 31
0.0
 11
32.10281984310538
 21
31.03728100105752
 31
0.0
 11
32.10258402246487
 21
31.02012189710604
 31
0.0
 11
32.10239459473448
 21
31.00820016273201
 31
0.0
 11
32.10223660579524
 21
30.99663640841266
 31
0.0
 11
32.10184746329392
 21
30.98867023437265
 31
0.0
 11
32.10088293186996
 21
30.98100796345637
 31
0.0
  0
SPLINE
  5
165
330
2
100
AcDbEntity
  8
GAIKEI
  6
Continuous
 62
     1
100
AcDbSpline
210
0.0
220
0.0
230
1.0
 70
     8
 71
     3
 72
     9
 73
     5
 74
     3
 42
0.0000000001
 43
0.0000000001
 44
0.00000000001
 40
0.0
 40
0.0
 40
0.0
 40
0.0
 40
0.0348281916413122
 40
0.0696582067362131
 40
0.0696582067362131
 40
0.0696582067362131
 40
0.0696582067362131
 10
32.24740955482995
 20
30.11198112735633
 30
0.0
 10
32.24529425185219
 20
30.12339706888224
 30
0.0
 10
32.24106353514853
 20
30.14622954962329
 30
0.0
 10
32.2360866087234
 20
30.16891106961276
 30
0.0
 10
32.23359808036994
 20
30.18025212647638
 30
0.0
 11
32.24740955482995
 21
30.11198112735633
 31
0.0
 11
32.24087710323298
 21
30.14619121372187
 31
0.0
 11
32.23359808036994
 21
30.18025212647638
 31
0.0
  0
SPLINE
  5
166
330
2
100
AcDbEntity
  8
GAIKEI
  6
Continuous
 62
     1
100
AcDbSpline
210
0.0
220
0.0
230
1.0
 70
     8
 71
     3
 72
    11
 73
     7
 74
     5
 42
0.0000000001
 43
0.0000000001
 44
0.00000000001
 40
0.0
 40
0.0
 40
0.0
 40
0.0
 40
0.0106863489932942
 40
0.0219875272007972
 40
0.0363607664068622
 40
0.0513481147448764
 40
0.0513481147448764
 40
0.0513481147448764
 40
0.0513481147448764
 10
32.25567287194994
 20
30.06130439149638
 30
0.0
 10
32.25514854394396
 20
30.06482772118022
 30
0.0
 10
32.25406972120474
 20
30.07207709206557
 30
0.0
 10
32.2521873217175
 20
30.08405037569003
 30
0.0
 10
32.24998858538518
 20
30.09742506285614
 30
0.0
 10
32.24828113607802
 20
30.10706191736932
 30
0.0
 10
32.24740955482995
 20
30.11198112735633
 30
0.0
 11
32.25567287194994
 21
30.06130439149638
 31
0.0
 11
32.25408583953842
 21
30.07187223815174
 31
0.0
 11
32.25233490269065
 21
30.08303695261441
 31
0.0
 11
32.24999307981793
 21
30.09721813278066
 31
0.0
 11
32.24740955482995
 21
30.11198112735633
 31
0.0
  0
SPLINE
  5
167
330
2
100
AcDbEntity
  8
GAIKEI
  6
Continuous
 62
     1
100
AcDbSpline
210
0.0
220
0.0
230
1.0
 70
     8
 71
     3
 72
    11
 73
     7
 74
     5
 42
0.0000000001
 43
0.0000000001
 44
0.00000000001
 40
0.0
 40
0.0
 40
0.0
 40
0.0
 40
0.1055690124373729
 40
0.2140251888790869
 40
0.3369171853223519
 40
0.4626963457625443
 40
0.4626963457625443
 40
0.4626963457625443
 40
0.4626963457625443
 10
-26.13684187281578
 20
47.81312800755631
 30
0.0
 10
-26.15165260347719
 20
47.84504908506278
 30
0.0
 10
-26.18167911745187
 20
47.90976423664784
 30
0.0
 10
-26.22894762519951
 20
48.01163800567678
 30
0.0
 10
-26.27905234031556
 20
48.1196223614993
 30
0.0
 10
-26.31394165193015
 20
48.19481246699661
 30
0.0
 10
-26.33158884663587
 20
48.23284401219632
 30
0.0
 11
-26.13684187281578
 21
47.81312800755631
 31
0.0
 11
-26.18127421119559
 21
47.90889117215056
 31
0.0
 11
-26.2269224326906
 21
48.00727298999664
 31
0.0
 11
-26.27864749845506
 21
48.11874926712085
 31
0.0
 11
-26.33158884663587
 21
48.23284401219632
 31
0.0
  0
SPLINE
  5
168
330
2
100
AcDbEntity
  8
GAIKEI
  6
Continuous
 62
     1
100
AcDbSpline
210
0.0
220
0.0
230
1.0
 70
     8
 71
     3
 72
    11
 73
     7
 74
     5
 42
0.0000000001
 43
0.0000000001
 44
0.00000000001
 40
0.0
 40
0.0
 40
0.0
 40
0.0
 40
0.1042349638167233
 40
0.2113913969730772
 40
0.3331551768071408
 40
0.4578404259732558
 40
0.4578404259732558
 40
0.4578404259732558
 40
0.4578404259732558
 10
-26.05813010511579
 20
47.85281367347636
 30
0.0
 10
-26.07287420947657
 20
47.8842751669801
 30
0.0
 10
-26.10277566196254
 20
47.94807994820786
 30
0.0
 10
-26.14989974908286
 20
48.04863742516812
 30
0.0
 10
-26.19991572170267
 20
48.15536784633287
 30
0.0
 10
-26.23477398147896
 20
48.22975515067412
 30
0.0
 10
-26.25240972069585
 20
48.2673897058363
 30
0.0
 11
-26.05813010511579
 21
47.85281367347636
 31
0.0
 11
-26.10236227436687
 21
47.94719822139188
 31
0.0
 11
-26.14783346282095
 21
48.04422848567765
 31
0.0
 11
-26.19950227370444
 21
48.15448614782122
 31
0.0
 11
-26.25240972069585
 21
48.2673897058363
 31
0.0
  0
SPLINE
  5
169
330
2
100
AcDbEntity
  8
GAIKEI
  6
Continuous
 62
     1
100
AcDbSpline
210
0.0
220
0.0
230
1.0
 70
     8
 71
     3
 72
     9
 73
     5
 74
     3
 42
0.0000000001
 43
0.0000000001
 44
0.00000000001
 40
0.0
 40
0.0
 40
0.0
 40
0.0
 40
0.0233108624623555
 40
0.0466217249245426
 40
0.0466217249245426
 40
0.0466217249245426
 40
0.0466217249245426
 10
-25.79934312149587
 20
28.49629952081637
 30
0.0
 10
-25.80236550547699
 20
28.48914112974649
 30
0.0
 10
-25.80841027343922
 20
28.47482434760696
 30
0.0
 10
-25.81445507661028
 20
28.46050758033323
 30
0.0
 10
-25.8174774781958
 20
28.45334919669631
 30
0.0
 11
-25.79934312149587
 21
28.49629952081637
 31
0.0
 11
-25.80841028224146
 21
28.47482435132338
 31
0.0
 11
-25.8174774781958
 21
28.45334919669631
 31
0.0
  0
SPLINE
  5
16A
330
2
100
AcDbEntity
  8
GAIKEI
  6
Continuous
 62
     1
100
AcDbSpline
210
0.0
220
0.0
230
1.0
 70
    24
 71
     3
 72
     9
 73
     5
 74
     3
 42
0.0000000001
 43
0.0000000001
 44
0.00000000001
 40
0.0
 40
0.0
 40
0.0
 40
0.0
 40
0.0020559978524092
 40
0.0041119957047961
 40
0.0041119957047961
 40
0.0041119957047961
 40
0.0041119957047961
 10
-25.73486341905582
 20
28.42289307851638
 30
0.0
 10
-25.7351324062625
 20
28.42226273997307
 30
0.0
 10
-25.73567038067584
 20
28.42100206288638
 30
0.0
 10
-25.73620835508914
 20
28.41974138579974
 30
0.0
 10
-25.73647734229579
 20
28.41911104725637
 30
0.0
 11
-25.73486341905582
 21
28.42289307851638
 31
0.0
 11
-25.73567038067583
 21
28.42100206288638
 31
0.0
 11
-25.73647734229579
 21
28.41911104725637
 31
0.0
  0
SPLINE
  5
16B
330
2
100
AcDbEntity
  8
GAIKEI
  6
Continuous
 62
     1
100
AcDbSpline
210
0.0
220
0.0
230
1.0
 70
    24
 71
     3
 72
     9
 73
     5
 74
     3
 42
0.0000000001
 43
0.0000000001
 44
0.00000000001
 40
0.0
 40
0.0
 40
0.0
 40
0.0
 40
0.0179646519020404
 40
0.0359293038039762
 40
0.0359293038039762
 40
0.0359293038039762
 40
0.0359293038039762
 10
-25.72076142775583
 20
28.45593923885633
 30
0.0
 10
-25.72311175963915
 20
28.4504315454663
 30
0.0
 10
-25.7278124234058
 20
28.4394161586863
 30
0.0
 10
-25.73251308717248
 20
28.42840077190635
 30
0.0
 10
-25.73486341905582
 20
28.42289307851638
 30
0.0
 11
-25.72076142775583
 21
28.45593923885633
 31
0.0
 11
-25.72781242340582
 21
28.4394161586863
 31
0.0
 11
-25.73486341905582
 21
28.42289307851638
 31
0.0
  0
SPLINE
  5
16C
330
2
100
AcDbEntity
  8
GAIKEI
  6
Continuous
 62
     1
100
AcDbSpline
210
0.0
220
0.0
230
1.0
 70
     8
 71
     3
 72
     9
 73
     5
 74
     3
 42
0.0000000001
 43
0.0000000001
 44
0.00000000001
 40
0.0
 40
0.0
 40
0.0
 40
0.0
 40
0.0227932783365903
 40
0.0455865566731002
 40
0.0455865566731002
 40
0.0455865566731002
 40
0.0455865566731002
 10
-26.13684187505581
 20
28.64737624653628
 30
0.0
 10
-26.14003962864955
 20
28.64048419890543
 30
0.0
 10
-26.14643513583702
 20
28.62670010364377
 30
0.0
 10
-26.1528306762229
 20
28.61291602378549
 30
0.0
 10
-26.15602844641583
 20
28.60602398385629
 30
0.0
 11
-26.13684187505581
 21
28.64737624653628
 31
0.0
 11
-26.14643514413663
 21
28.62670010749457
 31
0.0
 11
-26.15602844641583
 21
28.60602398385629
 31
0.0
  0
SPLINE
  5
16D
330
2
100
AcDbEntity
  8
GAIKEI
  6
Continuous
 62
     1
100
AcDbSpline
210
0.0
220
0.0
230
1.0
 70
     8
 71
     3
 72
     9
 73
     5
 74
     3
 42
0.0000000001
 43
0.0000000001
 44
0.00000000001
 40
0.0
 40
0.0
 40
0.0
 40
0.0
 40
0.0214702183006259
 40
0.042940436601293
 40
0.042940436601293
 40
0.042940436601293
 40
0.042940436601293
 10
-26.05813010719581
 20
28.6076905805163
 30
0.0
 10
-26.0611670955374
 20
28.60121017766363
 30
0.0
 10
-26.06724107222057
 20
28.58824937195829
 30
0.0
 10
-26.07331501976407
 20
28.57528855259705
 30
0.0
 10
-26.07635199353584
 20
28.56880814291628
 30
0.0
 11
-26.05813010719581
 21
28.6076905805163
 31
0.0
 11
-26.06724106493564
 21
28.58824936854432
 31
0.0
 11
-26.07635199353584
 21
28.56880814291628
 31
0.0
  0
SPLINE
  5
16E
330
2
100
AcDbEntity
  8
GAIKEI
  6
Continuous
 62
     1
100
AcDbSpline
210
0.0
220
0.0
230
1.0
 70
     8
 71
     3
 72
     9
 73
     5
 74
     3
 42
0.0000000001
 43
0.0000000001
 44
0.00000000001
 40
0.0
 40
0.0
 40
0.0
 40
0.0
 40
0.0245368377267178
 40
0.0490736754534295
 40
0.0490736754534295
 40
0.0490736754534295
 40
0.0490736754534295
 10
-26.46701422445588
 20
28.81384562609628
 30
0.0
 10
-26.47071341812072
 20
28.80655103067153
 30
0.0
 10
-26.47811180545043
 20
28.79196183982197
 30
0.0
 10
-26.48551023054735
 20
28.77737266812488
 30
0.0
 10
-26.4892094430958
 20
28.77007808227631
 30
0.0
 11
-26.46701422445588
 21
28.81384562609628
 31
0.0
 11
-26.47811181489223
 21
28.79196184461012
 31
0.0
 11
-26.4892094430958
 21
28.77007808227631
 31
0.0
  0
SPLINE
  5
16F
330
2
100
AcDbEntity
  8
GAIKEI
  6
Continuous
 62
     1
100
AcDbSpline
210
0.0
220
0.0
230
1.0
 70
     8
 71
     3
 72
     9
 73
     5
 74
     3
 42
0.0000000001
 43
0.0000000001
 44
0.00000000001
 40
0.0
 40
0.0
 40
0.0
 40
0.0
 40
0.0247296757216866
 40
0.0494593514433891
 40
0.0494593514433891
 40
0.0494593514433891
 40
0.0494593514433891
 10
-26.38832201553581
 20
28.77416985341631
 30
0.0
 10
-26.39207842722774
 20
28.76683226978355
 30
0.0
 10
-26.39959125061162
 20
28.75215710251814
 30
0.0
 10
-26.40710403614779
 20
28.73748191587686
 30
0.0
 10
-26.41086042891587
 20
28.73014432255627
 30
0.0
 11
-26.38832201553581
 21
28.77416985341631
 31
0.0
 11
-26.3995912411497
 21
28.75215709767417
 31
0.0
 11
-26.41086042891587
 21
28.73014432255627
 31
0.0
  0
SPLINE
  5
170
330
2
100
AcDbEntity
  8
GAIKEI
  6
Continuous
 62
     1
100
AcDbSpline
210
0.0
220
0.0
230
1.0
 70
     8
 71
     3
 72
     9
 73
     5
 74
     3
 42
0.0000000001
 43
0.0000000001
 44
0.00000000001
 40
0.0
 40
0.0
 40
0.0
 40
0.0
 40
0.0201154490849142
 40
0.0402308981697613
 40
0.0402308981697613
 40
0.0402308981697613
 40
0.0402308981697613
 10
-26.79693906229582
 20
28.98105027519637
 30
0.0
 10
-26.80017854394005
 20
28.97517960307903
 30
0.0
 10
-26.80665750722851
 20
28.96343825884446
 30
0.0
 10
-26.81313649543339
 20
28.95169692835913
 30
0.0
 10
-26.81637598953583
 20
28.94582626311637
 30
0.0
 11
-26.79693906229582
 21
28.98105027519637
 31
0.0
 11
-26.80665751345762
 21
28.96343826228179
 31
0.0
 11
-26.81637598953583
 21
28.94582626311637
 31
0.0
  0
SPLINE
  5
171
330
2
100
AcDbEntity
  8
GAIKEI
  6
Continuous
 62
     1
100
AcDbSpline
210
0.0
220
0.0
230
1.0
 70
     8
 71
     3
 72
     9
 73
     5
 74
     3
 42
0.0000000001
 43
0.0000000001
 44
0.00000000001
 40
0.0
 40
0.0
 40
0.0
 40
0.0
 40
0.0215083090535643
 40
0.0430166181070255
 40
0.0430166181070255
 40
0.0430166181070255
 40
0.0430166181070255
 10
-26.7185859760958
 20
28.94068545349637
 30
0.0
 10
-26.72207379336483
 20
28.93442159300207
 30
0.0
 10
-26.72904942790288
 20
28.92189387201359
 30
0.0
 10
-26.7360250341915
 20
28.90936613529544
 30
0.0
 10
-26.73951283733581
 20
28.90310226693634
 30
0.0
 11
-26.7185859760958
 21
28.94068545349637
 31
0.0
 11
-26.72904942084054
 21
28.92189386808116
 31
0.0
 11
-26.73951283733581
 21
28.90310226693634
 31
0.0
  0
SPLINE
  5
172
330
2
100
AcDbEntity
  8
GAIKEI
  6
Continuous
 62
     1
100
AcDbSpline
210
0.0
220
0.0
230
1.0
 70
     8
 71
     3
 72
     9
 73
     5
 74
     3
 42
0.0000000001
 43
0.0000000001
 44
0.00000000001
 40
0.0
 40
0.0
 40
0.0
 40
0.0
 40
0.0245983177327721
 40
0.0491966354655806
 40
0.0491966354655806
 40
0.0491966354655806
 40
0.0491966354655806
 10
-27.11199115539583
 20
29.17503552827634
 30
0.0
 10
-27.1162007043678
 20
29.16799915837612
 30
0.0
 10
-27.12461980231176
 20
29.15392641857568
 30
0.0
 10
-27.13303893680782
 20
29.13985370064279
 30
0.0
 10
-27.13724850405586
 20
29.13281734167629
 30
0.0
 11
-27.11199115539583
 21
29.17503552827634
 31
0.0
 11
-27.12461981144978
 21
29.15392642404254
 31
0.0
 11
-27.13724850405586
 21
29.13281734167629
 31
0.0
  0
SPLINE
  5
173
330
2
100
AcDbEntity
  8
GAIKEI
  6
Continuous
 62
     1
100
AcDbSpline
210
0.0
220
0.0
230
1.0
 70
     8
 71
     3
 72
     9
 73
     5
 74
     3
 42
0.0000000001
 43
0.0000000001
 44
0.00000000001
 40
0.0
 40
0.0
 40
0.0
 40
0.0
 40
0.0241735978809164
 40
0.0483471957617831
 40
0.0483471957617831
 40
0.0483471957617831
 40
0.0483471957617831
 10
-27.0369451659158
 20
29.1288278687963
 30
0.0
 10
-27.04110849931938
 20
29.1219288935967
 30
0.0
 10
-27.04943516612654
 20
29.10813094319741
 30
0.0
 10
-27.05776179806608
 20
29.09433297175679
 30
0.0
 10
-27.06192511403586
 20
29.08743398603633
 30
0.0
 11
-27.0369451659158
 21
29.1288278687963
 31
0.0
 11
-27.04943515740965
 21
29.10813093793706
 31
0.0
 11
-27.06192511403586
 21
29.08743398603633
 31
0.0
  0
SPLINE
  5
174
330
2
100
AcDbEntity
  8
GAIKEI
  6
Continuous
 62
     1
100
AcDbSpline
210
0.0
220
0.0
230
1.0
 70
     8
 71
     3
 72
     9
 73
     5
 74
     3
 42
0.0000000001
 43
0.0000000001
 44
0.00000000001
 40
0.0
 40
0.0
 40
0.0
 40
0.0
 40
0.0226297324799701
 40
0.0452594649601378
 40
0.0452594649601378
 40
0.0452594649601378
 40
0.0452594649601378
 10
-27.42682925517582
 20
29.36888901701627
 30
0.0
 10
-27.43092547279354
 20
29.36255486090158
 30
0.0
 10
-27.43911790802901
 20
29.34988654867209
 30
0.0
 10
-27.44731037354021
 20
29.33721825602157
 30
0.0
 10
-27.45140660629582
 20
29.33088410969629
 30
0.0
 11
-27.42682925517582
 21
29.36888901701627
 31
0.0
 11
-27.43911791559791
 21
29.34988655356688
 31
0.0
 11
-27.45140660629582
 21
29.33088410969629
 31
0.0
  0
SPLINE
  5
175
330
2
100
AcDbEntity
  8
GAIKEI
  6
Continuous
 62
     1
100
AcDbSpline
210
0.0
220
0.0
230
1.0
 70
     8
 71
     3
 72
     9
 73
     5
 74
     3
 42
0.0000000001
 43
0.0000000001
 44
0.00000000001
 40
0.0
 40
0.0
 40
0.0
 40
0.0
 40
0.023675170370625
 40
0.047350340741268
 40
0.047350340741268
 40
0.047350340741268
 40
0.047350340741268
 10
-27.35177391823581
 20
29.32267563697633
 30
0.0
 10
-27.35608473134737
 20
29.31606532764642
 30
0.0
 10
-27.36470635757048
 20
29.3028447089867
 30
0.0
 10
-27.37332795112074
 20
29.28962406901974
 30
0.0
 10
-27.37763874789588
 20
29.28301374903629
 30
0.0
 11
-27.35177391823581
 21
29.32267563697633
 31
0.0
 11
-27.36470634940227
 21
29.30284470365985
 31
0.0
 11
-27.37763874789588
 21
29.28301374903629
 31
0.0
  0
SPLINE
  5
176
330
2
100
AcDbEntity
  8
GAIKEI
  6
Continuous
 62
     1
100
AcDbSpline
210
0.0
220
0.0
230
1.0
 70
     8
 71
     3
 72
    11
 73
     7
 74
     5
 42
0.0000000001
 43
0.0000000001
 44
0.00000000001
 40
0.0
 40
0.0
 40
0.0
 40
0.0
 40
0.1060678216402647
 40
0.2148135088387252
 40
0.3369485238081162
 40
0.4617614043280936
 40
0.4617614043280936
 40
0.4617614043280936
 40
0.4617614043280936
 10
-27.73157433071586
 20
29.5783517149763
 30
0.0
 10
-27.75179819344437
 20
29.54935106139237
 30
0.0
 10
-27.79275650528486
 20
29.49061758258
 30
0.0
 10
-27.85700306923722
 20
29.39849102778703
 30
0.0
 10
-27.92482448736314
 20
29.30123979416999
 30
0.0
 10
-27.97191177407809
 20
29.23372160735567
 30
0.0
 10
-27.99571072113579
 20
29.19959643545633
 30
0.0
 11
-27.73157433071586
 21
29.5783517149763
 31
0.0
 11
-27.79224605429661
 21
29.49134984864429
 31
0.0
 11
-27.85445020365776
 21
29.40215193226436
 31
0.0
 11
-27.92431408768519
 21
29.30197209601886
 31
0.0
 11
-27.99571072113579
 21
29.19959643545633
 31
0.0
  0
SPLINE
  5
177
330
2
100
AcDbEntity
  8
GAIKEI
  6
Continuous
 62
     1
100
AcDbSpline
210
0.0
220
0.0
230
1.0
 70
     8
 71
     3
 72
    11
 73
     7
 74
     5
 42
0.0000000001
 43
0.0000000001
 44
0.00000000001
 40
0.0
 40
0.0
 40
0.0
 40
0.0
 40
0.1050632903281372
 40
0.2130819696817946
 40
0.3358775941424403
 40
0.4616286076211276
 40
0.4616286076211276
 40
0.4616286076211276
 40
0.4616286076211276
 10
-27.66070677147585
 20
29.52593831471631
 30
0.0
 10
-27.68084891400103
 20
29.49728920803034
 30
0.0
 10
-27.72169978959681
 20
29.43918510655777
 30
0.0
 10
-27.78609150402632
 20
29.34759597433924
 30
0.0
 10
-27.85444859737558
 20
29.2503650946988
 30
0.0
 10
-27.90209661158183
 20
29.18258896655806
 30
0.0
 10
-27.92620390237587
 20
29.1482979502963
 30
0.0
 11
-27.66070677147585
 21
29.52593831471631
 31
0.0
 11
-27.72113306842314
 21
29.4399909028192
 31
0.0
 11
-27.78325848893715
 21
29.35162537099109
 31
0.0
 11
-27.85388181718648
 21
29.25117084947181
 31
0.0
 11
-27.92620390237587
 21
29.1482979502963
 31
0.0
  0
SPLINE
  5
178
330
2
100
AcDbEntity
  8
GAIKEI
  6
Continuous
 62
     1
100
AcDbSpline
210
0.0
220
0.0
230
1.0
 70
     8
 71
     3
 72
     9
 73
     5
 74
     3
 42
0.0000000001
 43
0.0000000001
 44
0.00000000001
 40
0.0
 40
0.0
 40
0.0
 40
0.0
 40
0.021868113229249
 40
0.0437362264583153
 40
0.0437362264583153
 40
0.0437362264583153
 40
0.0437362264583153
 10
-11.09711103303587
 20
39.47787499835636
 30
0.0
 10
-11.0898777109403
 20
39.47877720795032
 30
0.0
 10
-11.07541106674921
 20
39.48058162713824
 30
0.0
 10
-11.06094441838024
 20
39.48238601283032
 30
0.0
 10
-11.05371109419579
 20
39.48328820567633
 30
0.0
 11
-11.09711103303587
 21
39.47787499835636
 31
0.0
 11
-11.07541106570468
 21
39.48058161876429
 31
0.0
 11
-11.05371109419579
 21
39.48328820567633
 31
0.0
  0
SPLINE
  5
179
330
2
100
AcDbEntity
  8
GAIKEI
  6
Continuous
 62
     1
100
AcDbSpline
210
0.0
220
0.0
230
1.0
 70
     8
 71
     3
 72
     9
 73
     5
 74
     3
 42
0.0000000001
 43
0.0000000001
 44
0.00000000001
 40
0.0
 40
0.0
 40
0.0
 40
0.0
 40
0.0201610526555308
 40
0.0403221053110642
 40
0.0403221053110642
 40
0.0403221053110642
 40
0.0403221053110642
 10
-11.10458758587586
 20
39.56571847193629
 30
0.0
 10
-11.09791577093503
 20
39.56652469858886
 30
0.0
 10
-11.08457214105338
 20
39.56813715189389
 30
0.0
 10
-11.071228514575
 20
39.56974963336217
 30
0.0
 10
-11.06455670133581
 20
39.57055587409627
 30
0.0
 11
-11.10458758587586
 21
39.56571847193629
 31
0.0
 11
-11.0845721419042
 21
39.56813715893474
 31
0.0
 11
-11.06455670133581
 21
39.57055587409627
 31
0.0
  0
SPLINE
  5
17A
330
2
100
AcDbEntity
  8
GAIKEI
  6
Continuous
 62
     1
100
AcDbSpline
210
0.0
220
0.0
230
1.0
 70
     8
 71
     3
 72
     9
 73
     5
 74
     3
 42
0.0000000001
 43
0.0000000001
 44
0.00000000001
 40
0.0
 40
0.0
 40
0.0
 40
0.0
 40
0.0246448971035235
 40
0.0492897942070206
 40
0.0492897942070206
 40
0.0492897942070206
 40
0.0492897942070206
 10
-11.06574641661578
 20
39.10936759067636
 30
0.0
 10
-11.05756409824182
 20
39.11009925145766
 30
0.0
 10
-11.04119946149392
 20
39.1115625730202
 30
0.0
 10
-11.02483482093517
 20
39.11302585196427
 30
0.0
 10
-11.01665250065579
 20
39.11375749143633
 30
0.0
 11
-11.06574641661578
 21
39.10936759067636
 31
0.0
 11
-11.04119946054121
 21
39.11156256236552
 31
0.0
 11
-11.01665250065579
 21
39.11375749143633
 31
0.0
  0
SPLINE
  5
17B
330
2
100
AcDbEntity
  8
GAIKEI
  6
Continuous
 62
     1
100
AcDbSpline
210
0.0
220
0.0
230
1.0
 70
     8
 71
     3
 72
     9
 73
     5
 74
     3
 42
0.0000000001
 43
0.0000000001
 44
0.00000000001
 40
0.0
 40
0.0
 40
0.0
 40
0.0
 40
0.0245691097193344
 40
0.049138219438736
 40
0.049138219438736
 40
0.049138219438736
 40
0.049138219438736
 10
-11.07322020745582
 20
39.19717830149636
 30
0.0
 10
-11.06506031588688
 20
39.19787644814221
 30
0.0
 10
-11.04874053274901
 20
39.19927274143385
 30
0.0
 10
-11.03242075319353
 20
39.20066907659555
 30
0.0
 10
-11.02426086341577
 20
39.20136724417637
 30
0.0
 11
-11.07322020745582
 21
39.19717830149636
 31
0.0
 11
-11.04874053364463
 21
39.19927275190128
 31
0.0
 11
-11.02426086341577
 21
39.20136724417637
 31
0.0
  0
SPLINE
  5
17C
330
2
100
AcDbEntity
  8
GAIKEI
  6
Continuous
 62
     1
100
AcDbSpline
210
0.0
220
0.0
230
1.0
 70
     8
 71
     3
 72
     9
 73
     5
 74
     3
 42
0.0000000001
 43
0.0000000001
 44
0.00000000001
 40
0.0
 40
0.0
 40
0.0
 40
0.0
 40
0.0211548959775275
 40
0.0423097919550372
 40
0.0423097919550372
 40
0.0423097919550372
 40
0.0423097919550372
 10
-11.03438451017578
 20
38.74089202347636
 30
0.0
 10
-11.0273432620979
 20
38.74127456662899
 30
0.0
 10
-11.01326076594215
 20
38.74203965293418
 30
0.0
 10
-10.99917826807125
 20
38.742804707669
 30
0.0
 10
-10.99213701913581
 20
38.74318723503632
 30
0.0
 11
-11.03438451017578
 21
38.74089202347636
 31
0.0
 11
-11.01326076551336
 21
38.74203964504159
 31
0.0
 11
-10.99213701913581
 21
38.74318723503632
 31
0.0
  0
SPLINE
  5
17D
330
2
100
AcDbEntity
  8
GAIKEI
  6
Continuous
 62
     1
100
AcDbSpline
210
0.0
220
0.0
230
1.0
 70
     8
 71
     3
 72
     9
 73
     5
 74
     3
 42
0.0000000001
 43
0.0000000001
 44
0.00000000001
 40
0.0
 40
0.0
 40
0.0
 40
0.0
 40
0.0225950317321048
 40
0.0451900634639938
 40
0.0451900634639938
 40
0.0451900634639938
 40
0.0451900634639938
 10
-11.04186045327586
 20
38.82872769157632
 30
0.0
 10
-11.03433835659027
 20
38.82910745934885
 30
0.0
 10
-11.01929416321918
 20
38.82986699489385
 30
0.0
 10
-11.00424997164359
 20
38.8306265660022
 30
0.0
 10
-10.99672787585584
 20
38.83100635155631
 30
0.0
 11
-11.04186045327586
 21
38.82872769157632
 31
0.0
 11
-11.01929416366798
 21
38.82986700378467
 31
0.0
 11
-10.99672787585584
 21
38.83100635155631
 31
0.0
  0
SPLINE
  5
17E
330
2
100
AcDbEntity
  8
GAIKEI
  6
Continuous
 62
     1
100
AcDbSpline
210
0.0
220
0.0
230
1.0
 70
     8
 71
     3
 72
     9
 73
     5
 74
     3
 42
0.0000000001
 43
0.0000000001
 44
0.00000000001
 40
0.0
 40
0.0
 40
0.0
 40
0.0
 40
0.0242328898100485
 40
0.0484657796200315
 40
0.0484657796200315
 40
0.0484657796200315
 40
0.0484657796200315
 10
-11.02921282483581
 20
38.37103997571637
 30
0.0
 10
-11.02113671009581
 20
38.37119642411165
 30
0.0
 10
-11.00498448061582
 20
38.37150932090219
 30
0.0
 10
-10.98883225033582
 20
38.37182217639156
 30
0.0
 10
-10.98075613519583
 20
38.3719786041363
 30
0.0
 11
-11.02921282483581
 21
38.37103997571637
 31
0.0
 11
-11.0049844804158
 21
38.37150931057692
 31
0.0
 11
-10.98075613519583
 21
38.3719786041363
 31
0.0
  0
SPLINE
  5
17F
330
2
100
AcDbEntity
  8
GAIKEI
  6
Continuous
 62
     1
100
AcDbSpline
210
0.0
220
0.0
230
1.0
 70
     8
 71
     3
 72
     9
 73
     5
 74
     3
 42
0.0000000001
 43
0.0000000001
 44
0.00000000001
 40
0.0
 40
0.0
 40
0.0
 40
0.0
 40
0.0235154210926989
 40
0.0470308421853768
 40
0.0470308421853768
 40
0.0470308421853768
 40
0.0470308421853768
 10
-11.02921280975582
 20
38.45917527763629
 30
0.0
 10
-11.02137528218976
 20
38.45929706252366
 30
0.0
 10
-11.00570022705766
 20
38.45954063229846
 30
0.0
 10
-10.99002517252307
 20
38.45978424052373
 30
0.0
 10
-10.98218764525578
 20
38.45990604463634
 30
0.0
 11
-11.02921280975582
 21
38.45917527763629
 31
0.0
 11
-11.00570022720703
 21
38.45954064191108
 31
0.0
 11
-10.98218764525578
 21
38.45990604463634
 31
0.0
  0
SPLINE
  5
180
330
2
100
AcDbEntity
  8
GAIKEI
  6
Continuous
 62
     1
100
AcDbSpline
210
0.0
220
0.0
230
1.0
 70
     8
 71
     3
 72
     9
 73
     5
 74
     3
 42
0.0000000001
 43
0.0000000001
 44
0.00000000001
 40
0.0
 40
0.0
 40
0.0
 40
0.0
 40
0.0234797882684064
 40
0.0469595765366963
 40
0.0469595765366963
 40
0.0469595765366963
 40
0.0469595765366963
 10
-11.02921280975582
 20
38.00132897267634
 30
0.0
 10
-11.02138715835516
 20
38.00120737290979
 30
0.0
 10
-11.00573585555391
 20
38.00096417337659
 30
0.0
 10
-10.99008455335519
 20
38.00072093506975
 30
0.0
 10
-10.98225890225583
 20
38.00059931591636
 30
0.0
 11
-11.02921280975582
 21
38.00132897267634
 31
0.0
 11
-11.0057358557045
 21
38.00096416368319
 31
0.0
 11
-10.98225890225583
 21
38.00059931591636
 31
0.0
  0
SPLINE
  5
181
330
2
100
AcDbEntity
  8
GAIKEI
  6
Continuous
 62
     1
100
AcDbSpline
210
0.0
220
0.0
230
1.0
 70
     8
 71
     3
 72
     9
 73
     5
 74
     3
 42
0.0000000001
 43
0.0000000001
 44
0.00000000001
 40
0.0
 40
0.0
 40
0.0
 40
0.0
 40
0.024302241186675
 40
0.0486044823733301
 40
0.0486044823733301
 40
0.0486044823733301
 40
0.0486044823733301
 10
-11.0292128248158
 20
38.08946427449632
 30
0.0
 10
-11.02111359727522
 20
38.08930737895094
 30
0.0
 10
-11.00491514219408
 20
38.0889935878601
 30
0.0
 10
-10.98871668631523
 20
38.08867983795091
 30
0.0
 10
-10.9806174583758
 20
38.08852296299631
 30
0.0
 11
-11.0292128248158
 21
38.08946427449632
 31
0.0
 11
-11.00491514199464
 21
38.08899359815553
 31
0.0
 11
-10.9806174583758
 21
38.08852296299631
 31
0.0
  0
SPLINE
  5
182
330
2
100
AcDbEntity
  8
GAIKEI
  6
Continuous
 62
     1
100
AcDbSpline
210
0.0
220
0.0
230
1.0
 70
     8
 71
     3
 72
     9
 73
     5
 74
     3
 42
0.0000000001
 43
0.0000000001
 44
0.00000000001
 40
0.0
 40
0.0
 40
0.0
 40
0.0
 40
0.022603628711814
 40
0.0452072574236547
 40
0.0452072574236547
 40
0.0452072574236547
 40
0.0452072574236547
 10
-11.04186045351579
 20
37.63177655889626
 30
0.0
 10
-11.03433549478872
 20
37.6313966471601
 30
0.0
 10
-11.01928557733458
 20
37.63063682368772
 30
0.0
 10
-11.00423566169542
 20
37.62987696426689
 30
0.0
 10
-10.99671070387583
 20
37.62949703455638
 30
0.0
 11
-11.04186045351579
 21
37.63177655889626
 31
0.0
 11
-11.01928557778834
 21
37.63063681470067
 31
0.0
 11
-10.99671070387583
 21
37.62949703455638
 31
0.0
  0
SPLINE
  5
183
330
2
100
AcDbEntity
  8
GAIKEI
  6
Continuous
 62
     1
100
AcDbSpline
210
0.0
220
0.0
230
1.0
 70
     8
 71
     3
 72
     9
 73
     5
 74
     3
 42
0.0000000001
 43
0.0000000001
 44
0.00000000001
 40
0.0
 40
0.0
 40
0.0
 40
0.0
 40
0.0211545627603159
 40
0.0423091255207666
 40
0.0423091255207666
 40
0.0423091255207666
 40
0.0423091255207666
 10
-11.03438451039576
 20
37.71961222719631
 30
0.0
 10
-11.02734337319884
 20
37.71922969058255
 30
0.0
 10
-11.01326109880496
 20
37.71846461735516
 30
0.0
 10
-10.99917882271885
 20
37.71769957527596
 30
0.0
 10
-10.99213768467578
 20
37.71731705423633
 30
0.0
 11
-11.03438451039576
 21
37.71961222719631
 31
0.0
 11
-11.01326109838194
 21
37.71846462514225
 31
0.0
 11
-10.99213768467578
 21
37.71731705423633
 31
0.0
  0
SPLINE
  5
184
330
2
100
AcDbEntity
  8
GAIKEI
  6
Continuous
 62
     1
100
AcDbSpline
210
0.0
220
0.0
230
1.0
 70
     8
 71
     3
 72
    11
 73
     7
 74
     5
 42
0.0000000001
 43
0.0000000001
 44
0.00000000001
 40
0.0
 40
0.0
 40
0.0
 40
0.0
 40
0.1071403048819385
 40
0.2168149783298428
 40
0.3391614945869207
 40
0.4640423794023102
 40
0.4640423794023102
 40
0.4640423794023102
 40
0.4640423794023102
 10
-11.07322020769587
 20
37.2633259486563
 30
0.0
 10
-11.0376367801274
 20
37.2602814258396
 30
0.0
 10
-10.96562821075043
 20
37.2541203630235
 30
0.0
 10
-10.85298602054312
 20
37.24448159707691
 30
0.0
 10
-10.73445190892281
 20
37.23433779632421
 30
0.0
 10
-10.65234297135806
 20
37.22731015889952
 30
0.0
 10
-10.61086764649579
 20
37.22376031945635
 30
0.0
 11
-11.07322020769587
 21
37.2633259486563
 31
0.0
 11
-10.96646993937864
 21
37.25419221204993
 31
0.0
 11
-10.85719459895975
 21
37.24484159858127
 31
0.0
 11
-10.73529364267338
 21
37.23440958551032
 31
0.0
 11
-10.61086764649579
 21
37.22376031945635
 31
0.0
  0
SPLINE
  5
185
330
2
100
AcDbEntity
  8
GAIKEI
  6
Continuous
 62
     1
100
AcDbSpline
210
0.0
220
0.0
230
1.0
 70
     8
 71
     3
 72
    11
 73
     7
 74
     5
 42
0.0000000001
 43
0.0000000001
 44
0.00000000001
 40
0.0
 40
0.0
 40
0.0
 40
0.0
 40
0.1073050485473928
 40
0.2172660957037165
 40
0.3405071358839617
 40
0.4664041746654874
 40
0.4664041746654874
 40
0.4664041746654874
 40
0.4664041746654874
 10
-11.06574641685577
 20
37.35113665947631
 30
0.0
 10
-11.03012020916931
 20
37.3479510428989
 30
0.0
 10
-10.95798597920014
 20
37.34150095983626
 30
0.0
 10
-10.84493455824373
 20
37.33139323139534
 30
0.0
 10
-10.72571035217082
 20
37.32073448141341
 30
0.0
 10
-10.64299413241485
 20
37.31334060035948
 30
0.0
 10
-10.60119511409587
 20
37.30960424767636
 30
0.0
 11
-11.06574641685577
 21
37.35113665947631
 31
0.0
 11
-10.95886777889686
 21
37.34157997637988
 31
0.0
 11
-10.84934362372885
 21
37.33178756470295
 31
0.0
 11
-10.72659214589666
 21
37.32081356476124
 31
0.0
 11
-10.60119511409587
 21
37.30960424767636
 31
0.0
  0
SPLINE
  5
186
330
2
100
AcDbEntity
  8
GAIKEI
  6
Continuous
 62
     1
100
AcDbSpline
210
0.0
220
0.0
230
1.0
 70
     8
 71
     3
 72
    23
 73
    19
 74
    17
 42
0.0000000001
 43
0.0000000001
 44
0.00000000001
 40
0.0
 40
0.0
 40
0.0
 40
0.0
 40
0.0041703336207619
 40
0.0084443764845381
 40
0.0143969130569866
 40
0.0205106698437862
 40
0.0291575831742234
 40
0.0378759061608479
 40
0.0490910037851539
 40
0.060315477890722
 40
0.0736431328131698
 40
0.0869612053977643
 40
0.1017069561221892
 40
0.115961668839028
 40
0.1334808094253033
 40
0.1516071099314147
 40
0.1756501174738264
 40
0.2007803193479706
 40
0.2007803193479706
 40
0.2007803193479706
 40
0.2007803193479706
 10
-11.63257189935578
 20
31.31573793749635
 30
0.0
 10
-11.6316163309811
 20
31.31674869777948
 30
0.0
 10
-11.62968143083969
 20
31.31879535426845
 30
0.0
 10
-11.62674425287048
 20
31.32259698886315
 30
0.0
 10
-11.62353745153658
 20
31.32699801174636
 30
0.0
 10
-11.61942368430527
 20
31.3325436912649
 30
0.0
 10
-11.61479881735942
 20
31.33885721304523
 30
0.0
 10
-11.60922740340338
 20
31.34658515608527
 30
0.0
 10
-11.60319683781306
 20
31.35504096450541
 30
0.0
 10
-11.59630283854749
 20
31.36476809723297
 30
0.0
 10
-11.58903934537513
 20
31.37509246596068
 30
0.0
 10
-11.58113683163364
 20
31.38640230351939
 30
0.0
 10
-11.57309149812604
 20
31.39798925623137
 30
0.0
 10
-11.56428339268597
 20
31.41075132954535
 30
0.0
 10
-11.5548777775731
 20
31.42447010487354
 30
0.0
 10
-11.54366919645662
 20
31.4409086259177
 30
0.0
 10
-11.53109246247592
 20
31.45948488057127
 30
0.0
 10
-11.52197264930638
 20
31.47310460506356
 30
0.0
 10
-11.51731192553578
 20
31.48006502985629
 30
0.0
 11
-11.63257189935578
 21
31.31573793749635
 31
0.0
 11
-11.62975693100324
 21
31.31881488983311
 31
0.0
 11
-11.62710055804243
 21
31.32216319165559
 31
0.0
 11
-11.62356217455297
 21
31.32694989552442
 31
0.0
 11
-11.61993090460109
 21
31.33186842178588
 31
0.0
 11
-11.61482166800877
 21
31.33884443867146
 31
0.0
 11
-11.60971942240726
 21
31.34591382658846
 31
0.0
 11
-11.60320314964704
 21
31.35504161953293
 31
0.0
 11
-11.59671307607826
 21
31.3641995540172
 31
0.0
 11
-11.58904336324858
 21
31.37509918203114
 31
0.0
 11
-11.58141450984246
 21
31.38601575901646
 31
0.0
 11
-11.57300393258569
 21
31.39812770991773
 31
0.0
 11
-11.56490694096672
 21
31.40985952824917
 31
0.0
 11
-11.55499828151985
 21
31.42430732236619
 31
0.0
 11
-11.54478733631774
 21
31.43928394976081
 31
0.0
 11
-11.53131225679911
 21
31.45919596732938
 31
0.0
 11
-11.51731192553578
 21
31.48006502985629
 31
0.0
  0
SPLINE
  5
187
330
2
100
AcDbEntity
  8
GAIKEI
  6
Continuous
 62
     1
100
AcDbSpline
210
0.0
220
0.0
230
1.0
 70
     8
 71
     3
 72
    11
 73
     7
 74
     5
 42
0.0000000001
 43
0.0000000001
 44
0.00000000001
 40
0.0
 40
0.0
 40
0.0
 40
0.0
 40
0.0071137304688137
 40
0.0142282426427112
 40
0.0213466636054541
 40
0.0284658663788968
 40
0.0284658663788968
 40
0.0284658663788968
 40
0.0284658663788968
 10
-11.66030118977582
 20
31.3093042811563
 30
0.0
 10
-11.65799106673495
 20
31.30983918983446
 30
0.0
 10
-11.6533705668012
 20
31.31090906597012
 30
0.0
 10
-11.64643895412387
 20
31.31251650601541
 30
0.0
 10
-11.63950592070553
 20
31.31412589339709
 30
0.0
 10
-11.63488332441708
 20
31.31520056979264
 30
0.0
 10
-11.63257189935578
 20
31.31573793749635
 30
0.0
 11
-11.66030118977582
 21
31.3093042811563
 31
0.0
 11
-11.65337090954139
 21
31.31090939082708
 31
0.0
 11
-11.64644028269939
 21
31.31251646738076
 31
0.0
 11
-11.63950626373204
 21
31.31412621828179
 31
0.0
 11
-11.63257189935578
 21
31.31573793749635
 31
0.0
  0
TEXT
  5
188
330
2
100
AcDbEntity
  8
MOJI1
100
AcDbText
 10
-17.87247683448632
 20
-16.90854083183717
 30
0.0
 40
3.0
  1
ＭＰＥＧ－４（３種類）／ＪＰＥＧ（４種類１０段階）
 41
0.9
  7
KANJI
100
AcDbText
  0
TEXT
  5
189
330
2
100
AcDbEntity
  8
MOJI1
100
AcDbText
 10
-18.00867244197744
 20
-1.971664223795869
 30
0.0
 40
3.0
  1
カラー：１．５ルクス、簡易白黒：０．９ルクス（Ｆ１．３)
 41
0.8199999999999999
100
AcDbText
  0
TEXT
  5
18A
330
2
100
AcDbEntity
  8
MOJI1
100
AcDbText
 10
-17.87247683448632
 20
-41.90854083183706
 30
0.0
 40
3.0
  1
ｆ＝２．８～１０ｍｍ（３．５倍バリフォーカル）
  7
KANJI
100
AcDbText
  0
TEXT
  5
18B
330
2
100
AcDbEntity
  8
MOJI1
100
AcDbText
 10
-57.80309121145902
 20
-41.83970778633749
 30
0.0
 40
3.0
  1
レンズ部
  7
KANJI
100
AcDbText
  0
LINE
  5
18C
330
2
100
AcDbEntity
  8
WAKU
 62
     1
100
AcDbLine
 10
-60.50867244197744
 20
-27.97166422379564
 30
0.0
 11
64.49132755802256
 21
-27.97166422379564
 31
0.0
  0
TEXT
  5
18D
330
2
100
AcDbEntity
  8
MOJI1
100
AcDbText
 10
-57.80309121145902
 20
-26.83970778633739
 30
0.0
 40
3.0
  1
最大接続数
  7
KANJI
100
AcDbText
  0
TEXT
  5
18E
330
2
100
AcDbEntity
  8
MOJI1
100
AcDbText
 10
-17.87247683448632
 20
-26.90854083183694
 30
0.0
 40
3.0
  1
１６（条件による）
  7
KANJI
100
AcDbText
  0
TEXT
  5
18F
330
2
100
AcDbEntity
  8
MOJI1
100
AcDbText
 10
-33.50867244197744
 20
66.02833577620379
 30
0.0
 40
4.0
  1
ネットワークカメラ
100
AcDbText
  0
ENDSEC
  0
SECTION
  2
OBJECTS
  0
DICTIONARY
  5
7
330
0
100
AcDbDictionary
281
     1
  3
ACAD_COLOR
350
2C
  3
ACAD_GROUP
350
28
  3
ACAD_LAYOUT
350
B
  3
ACAD_MATERIAL
350
2B
  3
ACAD_MLINESTYLE
350
29
  3
ACAD_PLOTSETTINGS
350
2A
  3
ACAD_PLOTSTYLENAME
350
6
  3
ACDBHEADERROUNDTRIPXREC
350
1C0
  3
AcDbVariableDictionary
350
1BB
  0
DICTIONARY
  5
11
330
10
100
AcDbDictionary
280
     1
281
     1
  3
ACAD_LAYERSTATES
360
12
  0
DICTIONARY
  5
2C
102
{ACAD_REACTORS
330
7
102
}
330
7
100
AcDbDictionary
281
     1
  0
DICTIONARY
  5
28
102
{ACAD_REACTORS
330
7
102
}
330
7
100
AcDbDictionary
281
     1
  0
DICTIONARY
  5
B
102
{ACAD_REACTORS
330
7
102
}
330
7
100
AcDbDictionary
281
     1
  3
Model
350
A
  3
レイアウト1
350
F
  0
DICTIONARY
  5
2B
102
{ACAD_REACTORS
330
7
102
}
330
7
100
AcDbDictionary
281
     1
  0
DICTIONARY
  5
29
102
{ACAD_REACTORS
330
7
102
}
330
7
100
AcDbDictionary
281
     1
  3
Standard
350
2D
  0
DICTIONARY
  5
2A
102
{ACAD_REACTORS
330
7
102
}
330
7
100
AcDbDictionary
281
     1
  0
ACDBDICTIONARYWDFLT
  5
6
102
{ACAD_REACTORS
330
7
102
}
330
7
100
AcDbDictionary
281
     1
  3
Normal
350
5
100
AcDbDictionaryWithDefault
340
5
  0
DICTIONARY
  5
1C0
102
{ACAD_REACTORS
330
7
102
}
330
7
100
AcDbDictionary
281
     1
  3
COLORDICT
350
1C2
  3
MATERIALDICT
350
1C1
  0
DICTIONARY
  5
1BB
102
{ACAD_REACTORS
330
7
102
}
330
7
100
AcDbDictionary
281
     1
  3
DIMASSOC
350
1BD
  3
HIDETEXT
350
1BC
  3
PROJECTNAME
350
1BE
  0
DICTIONARY
  5
12
102
{ACAD_REACTORS
330
11
102
}
330
11
100
AcDbDictionary
281
     1
  0
LAYOUT
  5
A
102
{ACAD_XDICTIONARY
360
1C3
102
}
102
{ACAD_REACTORS
330
B
102
}
330
B
100
AcDbPlotSettings
  1

  2
Ａ４－縦3FRIM01.pc3
  4
A4
  6

 40
5.873749732971191
 41
5.873747825622558
 42
5.873748779296875
 43
5.873748779296875
 44
209.9733276367187
 45
296.9259948730469
 46
5.419999999999999
 47
0.0
 48
0.0
 49
0.0
140
0.0
141
0.0
142
1.0
143
1.382430990074067
 70
 11956
 72
     1
 73
     0
 74
     1
  7
tmsacad.ctb
 75
     0
147
0.7233634135664325
148
0.0128164608993302
149
0.0120295854767392
100
AcDbLayout
  1
Model
 70
     1
 71
     0
 10
0.0
 20
0.0
 11
12.0
 21
9.0
 12
0.0
 22
0.0
 32
0.0
 14
0.0
 24
0.0
 34
0.0
 15
0.0
 25
0.0
 35
0.0
146
0.0
 13
0.0
 23
0.0
 33
0.0
 16
1.0
 26
0.0
 36
0.0
 17
0.0
 27
1.0
 37
0.0
 76
     0
330
2
  0
LAYOUT
  5
F
102
{ACAD_XDICTIONARY
360
1C5
102
}
102
{ACAD_REACTORS
330
B
102
}
330
B
100
AcDbPlotSettings
  1

  2
None
  4

  6

 40
0.0
 41
0.0
 42
0.0
 43
0.0
 44
0.0
 45
0.0
 46
0.0
 47
0.0
 48
0.0
 49
0.0
140
0.0
141
0.0
142
1.0
143
1.0
 70
   688
 72
     0
 73
     0
 74
     5
  7
tmsacad.ctb
 75
    16
147
1.0
148
0.0
149
0.0
100
AcDbLayout
  1
レイアウト1
 70
     1
 71
     1
 10
0.0
 20
0.0
 11
12.0
 21
9.0
 12
0.0
 22
0.0
 32
0.0
 14
0.0
 24
0.0
 34
0.0
 15
0.0
 25
0.0
 35
0.0
146
0.0
 13
0.0
 23
0.0
 33
0.0
 16
1.0
 26
0.0
 36
0.0
 17
0.0
 27
1.0
 37
0.0
 76
     0
330
C
  0
MLINESTYLE
  5
2D
102
{ACAD_REACTORS
330
29
102
}
330
29
100
AcDbMlineStyle
  2
STANDARD
 70
     0
  3

 62
   256
 51
90.0
 52
90.0
 71
     2
 49
0.5
 62
   256
  6
BYLAYER
 49
-0.5
 62
   256
  6
BYLAYER
  0
ACDBPLACEHOLDER
  5
5
102
{ACAD_REACTORS
330
6
102
}
330
6
  0
XRECORD
  5
1C2
102
{ACAD_REACTORS
330
1C0
102
}
330
1C0
100
AcDbXrecord
280
     1
340
2C
  0
XRECORD
  5
1C1
102
{ACAD_REACTORS
330
1C0
102
}
330
1C0
100
AcDbXrecord
280
     1
340
2B
  0
DICTIONARYVAR
  5
1BD
102
{ACAD_REACTORS
330
1BB
102
}
330
1BB
100
DictionaryVariables
280
     0
  1
1
  0
DICTIONARYVAR
  5
1BC
102
{ACAD_REACTORS
330
1BB
102
}
330
1BB
100
DictionaryVariables
280
     0
  1
1
  0
DICTIONARYVAR
  5
1BE
102
{ACAD_REACTORS
330
1BB
102
}
330
1BB
100
DictionaryVariables
280
     0
  1

  0
DICTIONARY
  5
1C3
330
A
100
AcDbDictionary
280
     1
281
     1
  3
ACAD_XREC_ROUNDTRIP
360
1C4
  0
DICTIONARY
  5
1C5
330
F
100
AcDbDictionary
280
     1
281
     1
  3
ACAD_XREC_ROUNDTRIP
360
1C6
  0
XRECORD
  5
1C4
102
{ACAD_REACTORS
330
1C3
102
}
330
1C3
100
AcDbXrecord
280
     1
102
SHADEPLOT
 70
     0
102
SHADEPLOTRESLEVEL
 70
     2
102
SHADEPLOTCUSTOMDPI
 70
   300
  0
XRECORD
  5
1C6
102
{ACAD_REACTORS
330
1C5
102
}
330
1C5
100
AcDbXrecord
280
     1
102
SHADEPLOT
 70
     0
102
SHADEPLOTRESLEVEL
 70
     2
102
SHADEPLOTCUSTOMDPI
 70
   300
  0
ENDSEC
  0
EOF
