  0
SECTION
  2
HEADER
  9
$ACADVER
  1
AC1015
  9
$ACADMAINTVER
 70
    20
  9
$DWGCODEPAGE
  3
ANSI_932
  9
$INSBASE
 10
0.4999999440410648
 20
372.5008351249344
 30
0.0
  9
$EXTMIN
 10
-59.61364655244813
 20
-58.94590696988848
 30
-0.0015258207003583
  9
$EXTMAX
 10
65.41992244010316
 20
54.07868998390473
 30
0.0000000349246037
  9
$LIMMIN
 10
0.0
 20
0.0
  9
$LIMMAX
 10
420.0
 20
297.0
  9
$ORTHOMODE
 70
     1
  9
$REGENMODE
 70
     0
  9
$FILLMODE
 70
     1
  9
$QTEXTMODE
 70
     0
  9
$MIRRTEXT
 70
     0
  9
$LTSCALE
 40
1.0
  9
$ATTMODE
 70
     1
  9
$TEXTSIZE
 40
2.5
  9
$TRACEWID
 40
1.0
  9
$TEXTSTYLE
  7
Standard
  9
$CLAYER
  8
WAKU
  9
$CELTYPE
  6
ByLayer
  9
$CECOLOR
 62
   256
  9
$CELTSCALE
 40
1.0
  9
$DISPSILH
 70
     0
  9
$DIMSCALE
 40
1.0
  9
$DIMASZ
 40
2.5
  9
$DIMEXO
 40
0.625
  9
$DIMDLI
 40
3.75
  9
$DIMRND
 40
0.0
  9
$DIMDLE
 40
0.0
  9
$DIMEXE
 40
1.25
  9
$DIMTP
 40
0.0
  9
$DIMTM
 40
0.0
  9
$DIMTXT
 40
2.5
  9
$DIMCEN
 40
2.5
  9
$DIMTSZ
 40
0.0
  9
$DIMTOL
 70
     0
  9
$DIMLIM
 70
     0
  9
$DIMTIH
 70
     0
  9
$DIMTOH
 70
     0
  9
$DIMSE1
 70
     0
  9
$DIMSE2
 70
     0
  9
$DIMTAD
 70
     1
  9
$DIMZIN
 70
     8
  9
$DIMBLK
  1

  9
$DIMASO
 70
     1
  9
$DIMSHO
 70
     1
  9
$DIMPOST
  1

  9
$DIMAPOST
  1

  9
$DIMALT
 70
     0
  9
$DIMALTD
 70
     3
  9
$DIMALTF
 40
0.03937007874016
  9
$DIMLFAC
 40
1.0
  9
$DIMTOFL
 70
     1
  9
$DIMTVP
 40
0.0
  9
$DIMTIX
 70
     0
  9
$DIMSOXD
 70
     0
  9
$DIMSAH
 70
     0
  9
$DIMBLK1
  1

  9
$DIMBLK2
  1

  9
$DIMSTYLE
  2
ISO-25
  9
$DIMCLRD
 70
     0
  9
$DIMCLRE
 70
     0
  9
$DIMCLRT
 70
     0
  9
$DIMTFAC
 40
1.0
  9
$DIMGAP
 40
0.625
  9
$DIMJUST
 70
     0
  9
$DIMSD1
 70
     0
  9
$DIMSD2
 70
     0
  9
$DIMTOLJ
 70
     0
  9
$DIMTZIN
 70
     8
  9
$DIMALTZ
 70
     0
  9
$DIMALTTZ
 70
     0
  9
$DIMUPT
 70
     0
  9
$DIMDEC
 70
     2
  9
$DIMTDEC
 70
     2
  9
$DIMALTU
 70
     2
  9
$DIMALTTD
 70
     3
  9
$DIMTXSTY
  7
Standard
  9
$DIMAUNIT
 70
     0
  9
$DIMADEC
 70
     0
  9
$DIMALTRND
 40
0.0
  9
$DIMAZIN
 70
     0
  9
$DIMDSEP
 70
    44
  9
$DIMATFIT
 70
     3
  9
$DIMFRAC
 70
     0
  9
$DIMLDRBLK
  1

  9
$DIMLUNIT
 70
     2
  9
$DIMLWD
 70
    -2
  9
$DIMLWE
 70
    -2
  9
$DIMTMOVE
 70
     0
  9
$LUNITS
 70
     2
  9
$LUPREC
 70
     4
  9
$SKETCHINC
 40
1.0
  9
$FILLETRAD
 40
0.0
  9
$AUNITS
 70
     0
  9
$AUPREC
 70
     0
  9
$MENU
  1
.
  9
$ELEVATION
 40
0.0
  9
$PELEVATION
 40
0.0
  9
$THICKNESS
 40
0.0
  9
$LIMCHECK
 70
     0
  9
$CHAMFERA
 40
0.0
  9
$CHAMFERB
 40
0.0
  9
$CHAMFERC
 40
0.0
  9
$CHAMFERD
 40
0.0
  9
$SKPOLY
 70
     0
  9
$TDCREATE
 40
2454349.434269746
  9
$TDUCREATE
 40
2454349.059269746
  9
$TDUPDATE
 40
2454375.347892072
  9
$TDUUPDATE
 40
2454374.972892072
  9
$TDINDWG
 40
0.0439641088
  9
$TDUSRTIMER
 40
0.0439641088
  9
$USRTIMER
 70
     1
  9
$ANGBASE
 50
0.0
  9
$ANGDIR
 70
     0
  9
$PDMODE
 70
     0
  9
$PDSIZE
 40
0.0
  9
$PLINEWID
 40
0.0
  9
$SPLFRAME
 70
     0
  9
$SPLINETYPE
 70
     6
  9
$SPLINESEGS
 70
     8
  9
$HANDSEED
  5
340
  9
$SURFTAB1
 70
     6
  9
$SURFTAB2
 70
     6
  9
$SURFTYPE
 70
     6
  9
$SURFU
 70
     6
  9
$SURFV
 70
     6
  9
$UCSBASE
  2

  9
$UCSNAME
  2

  9
$UCSORG
 10
0.0
 20
0.0
 30
0.0
  9
$UCSXDIR
 10
1.0
 20
0.0
 30
0.0
  9
$UCSYDIR
 10
0.0
 20
1.0
 30
0.0
  9
$UCSORTHOREF
  2

  9
$UCSORTHOVIEW
 70
     0
  9
$UCSORGTOP
 10
0.0
 20
0.0
 30
0.0
  9
$UCSORGBOTTOM
 10
0.0
 20
0.0
 30
0.0
  9
$UCSORGLEFT
 10
0.0
 20
0.0
 30
0.0
  9
$UCSORGRIGHT
 10
0.0
 20
0.0
 30
0.0
  9
$UCSORGFRONT
 10
0.0
 20
0.0
 30
0.0
  9
$UCSORGBACK
 10
0.0
 20
0.0
 30
0.0
  9
$PUCSBASE
  2

  9
$PUCSNAME
  2

  9
$PUCSORG
 10
0.0
 20
0.0
 30
0.0
  9
$PUCSXDIR
 10
1.0
 20
0.0
 30
0.0
  9
$PUCSYDIR
 10
0.0
 20
1.0
 30
0.0
  9
$PUCSORTHOREF
  2

  9
$PUCSORTHOVIEW
 70
     0
  9
$PUCSORGTOP
 10
0.0
 20
0.0
 30
0.0
  9
$PUCSORGBOTTOM
 10
0.0
 20
0.0
 30
0.0
  9
$PUCSORGLEFT
 10
0.0
 20
0.0
 30
0.0
  9
$PUCSORGRIGHT
 10
0.0
 20
0.0
 30
0.0
  9
$PUCSORGFRONT
 10
0.0
 20
0.0
 30
0.0
  9
$PUCSORGBACK
 10
0.0
 20
0.0
 30
0.0
  9
$USERI1
 70
     0
  9
$USERI2
 70
     0
  9
$USERI3
 70
     0
  9
$USERI4
 70
     0
  9
$USERI5
 70
     0
  9
$USERR1
 40
0.0
  9
$USERR2
 40
0.0
  9
$USERR3
 40
0.0
  9
$USERR4
 40
0.0
  9
$USERR5
 40
0.0
  9
$WORLDVIEW
 70
     1
  9
$SHADEDGE
 70
     3
  9
$SHADEDIF
 70
    70
  9
$TILEMODE
 70
     1
  9
$MAXACTVP
 70
    64
  9
$PINSBASE
 10
0.0
 20
0.0
 30
0.0
  9
$PLIMCHECK
 70
     0
  9
$PEXTMIN
 10
0.0
 20
0.0
 30
0.0
  9
$PEXTMAX
 10
0.0
 20
0.0
 30
0.0
  9
$PLIMMIN
 10
0.0
 20
0.0
  9
$PLIMMAX
 10
12.0
 20
9.0
  9
$UNITMODE
 70
     0
  9
$VISRETAIN
 70
     1
  9
$PLINEGEN
 70
     0
  9
$PSLTSCALE
 70
     1
  9
$TREEDEPTH
 70
  3020
  9
$CMLSTYLE
  2
Standard
  9
$CMLJUST
 70
     0
  9
$CMLSCALE
 40
20.0
  9
$PROXYGRAPHICS
 70
     1
  9
$MEASUREMENT
 70
     1
  9
$CELWEIGHT
370
    -1
  9
$ENDCAPS
280
     0
  9
$JOINSTYLE
280
     0
  9
$LWDISPLAY
290
     0
  9
$INSUNITS
 70
     4
  9
$HYPERLINKBASE
  1

  9
$STYLESHEET
  1

  9
$XEDIT
290
     1
  9
$CEPSNTYPE
380
     0
  9
$PSTYLEMODE
290
     1
  9
$FINGERPRINTGUID
  2
{FDEAD578-A652-11D2-9A35-0060089B3A3F}
  9
$VERSIONGUID
  2
{4F69818A-AF00-43AF-ABA1-8081A1F40DD5}
  9
$EXTNAMES
290
     1
  9
$PSVPSCALE
 40
0.0
  9
$OLESTARTUP
290
     0
  0
ENDSEC
  0
SECTION
  2
CLASSES
  0
CLASS
  1
ACDBDICTIONARYWDFLT
  2
AcDbDictionaryWithDefault
  3
ObjectDBX Classes
 90
        0
280
     0
281
     0
  0
CLASS
  1
ACDBPLACEHOLDER
  2
AcDbPlaceHolder
  3
ObjectDBX Classes
 90
        0
280
     0
281
     0
  0
CLASS
  1
LAYOUT
  2
AcDbLayout
  3
ObjectDBX Classes
 90
        0
280
     0
281
     0
  0
CLASS
  1
DICTIONARYVAR
  2
AcDbDictionaryVar
  3
ObjectDBX Classes
 90
        0
280
     0
281
     0
  0
ENDSEC
  0
SECTION
  2
TABLES
  0
TABLE
  2
VPORT
  5
1B
330
0
100
AcDbSymbolTable
 70
     3
  0
VPORT
  5
338
330
1B
100
AcDbSymbolTableRecord
100
AcDbViewportTableRecord
  2
*Active
 70
     0
 10
0.0
 20
0.0
 11
1.0
 21
1.0
 12
2.903137943827509
 22
-2.433608492991879
 13
0.0
 23
0.0
 14
10.0
 24
10.0
 15
10.0
 25
10.0
 16
0.0
 26
0.0
 36
1.0
 17
0.0
 27
0.0
 37
0.0
 40
113.8940169303608
 41
1.430038510911424
 42
50.0
 43
0.0
 44
0.0
 50
0.0
 51
0.0
 71
     0
 72
  1000
 73
     1
 74
     2
 75
     0
 76
     0
 77
     0
 78
     0
281
     0
 65
     1
110
0.0
120
0.0
130
0.0
111
1.0
121
0.0
131
0.0
112
0.0
122
1.0
132
0.0
 79
     0
146
0.0
  0
ENDTAB
  0
TABLE
  2
LTYPE
  5
16
330
0
100
AcDbSymbolTable
 70
     4
  0
LTYPE
  5
17
330
16
100
AcDbSymbolTableRecord
100
AcDbLinetypeTableRecord
  2
ByBlock
 70
     0
  3

 72
    65
 73
     0
 40
0.0
  0
LTYPE
  5
18
330
16
100
AcDbSymbolTableRecord
100
AcDbLinetypeTableRecord
  2
ByLayer
 70
     0
  3

 72
    65
 73
     0
 40
0.0
  0
LTYPE
  5
8
330
16
100
AcDbSymbolTableRecord
100
AcDbLinetypeTableRecord
  2
Continuous
 70
     0
  3
Solid line
 72
    65
 73
     0
 40
0.0
  0
LTYPE
  5
292
330
16
100
AcDbSymbolTableRecord
100
AcDbLinetypeTableRecord
  2
Phantom
 70
     0
  3
Phantom
 72
    65
 73
     6
 40
45.0
 49
40.0
 74
     0
 49
-1.0
 74
     0
 49
1.0
 74
     0
 49
-1.0
 74
     0
 49
1.0
 74
     0
 49
-1.0
 74
     0
  0
LTYPE
  5
42
330
16
100
AcDbSymbolTableRecord
100
AcDbLinetypeTableRecord
  2
HIDDEN2
 70
     0
  3
Hidden (.5x) _ _ _ _ _ _ _ _ _ _ _ _ _ _ _ _ _
 72
    65
 73
     2
 40
1.399999999999999
 49
0.7
 74
     0
 49
-0.7
 74
     0
  0
LTYPE
  5
4E
330
16
100
AcDbSymbolTableRecord
100
AcDbLinetypeTableRecord
  2
S10
 70
     0
  3
- - - - - - - - - 1,-1,1,-1
 72
    65
 73
     4
 40
4.0
 49
1.0
 74
     0
 49
-1.0
 74
     0
 49
1.0
 74
     0
 49
-1.0
 74
     0
  0
ENDTAB
  0
TABLE
  2
LAYER
  5
10
102
{ACAD_XDICTIONARY
360
11
102
}
330
0
100
AcDbSymbolTable
 70
     7
  0
LAYER
  5
4
330
10
100
AcDbSymbolTableRecord
100
AcDbLayerTableRecord
  2
0
 70
     0
 62
     7
  6
Continuous
370
    -3
390
5
  0
LAYER
  5
26
330
10
100
AcDbSymbolTableRecord
100
AcDbLayerTableRecord
  2
WAKU
 70
     0
 62
     4
  6
Continuous
370
    -3
390
5
  0
LAYER
  5
2DA
330
10
100
AcDbSymbolTableRecord
100
AcDbLayerTableRecord
  2
MOJI1
 70
     0
 62
     2
  6
Continuous
370
    -3
390
5
  0
LAYER
  5
2FB
330
10
100
AcDbSymbolTableRecord
100
AcDbLayerTableRecord
  2
TOUROKU
 70
     0
 62
     1
  6
Continuous
370
    -3
390
5
  0
LAYER
  5
3B
330
10
100
AcDbSymbolTableRecord
100
AcDbLayerTableRecord
  2
DEFPOINTS
 70
     0
 62
     7
  6
Continuous
290
     0
370
    -3
390
5
  0
LAYER
  5
40
330
10
100
AcDbSymbolTableRecord
100
AcDbLayerTableRecord
  2
GAIKEI
 70
     0
 62
     7
  6
Continuous
370
    -3
390
5
  0
LAYER
  5
2A
330
10
100
AcDbSymbolTableRecord
100
AcDbLayerTableRecord
  2
SUNPO
 70
     0
 62
     3
  6
Continuous
370
    -3
390
5
  0
ENDTAB
  0
TABLE
  2
STYLE
  5
13
330
0
100
AcDbSymbolTable
 70
     1
  0
STYLE
  5
14
330
13
100
AcDbSymbolTableRecord
100
AcDbTextStyleTableRecord
  2
Standard
 70
     0
 40
0.0
 41
1.0
 50
0.0
 71
     0
 42
2.5
  3
MONOTXT.shx
  4
BIGFONT.shx
  0
ENDTAB
  0
TABLE
  2
VIEW
  5
19
330
0
100
AcDbSymbolTable
 70
     0
  0
ENDTAB
  0
TABLE
  2
UCS
  5
1A
330
0
100
AcDbSymbolTable
 70
     0
  0
ENDTAB
  0
TABLE
  2
APPID
  5
1D
330
0
100
AcDbSymbolTable
 70
     1
  0
APPID
  5
1E
330
1D
100
AcDbSymbolTableRecord
100
AcDbRegAppTableRecord
  2
ACAD
 70
     0
  0
ENDTAB
  0
TABLE
  2
DIMSTYLE
  5
1F
330
0
100
AcDbSymbolTable
 70
     2
100
AcDbDimStyleTable
 71
     0
  0
DIMSTYLE
105
28
330
1F
100
AcDbSymbolTableRecord
100
AcDbDimStyleTableRecord
  2
ISO-25
 70
     0
 41
2.5
 42
0.625
 43
3.75
 44
1.25
 73
     0
 74
     0
 77
     1
 78
     8
140
2.5
141
2.5
143
0.03937007874016
147
0.625
171
     3
172
     1
271
     2
272
     2
274
     3
278
    44
283
     0
284
     8
340
14
  0
DIMSTYLE
105
31
102
{ACAD_REACTORS
330
29
330
235
330
242
102
}
330
1F
100
AcDbSymbolTableRecord
100
AcDbDimStyleTableRecord
  2
STANDARD
 70
     0
 40
0.0
 41
2.0
 42
2.0
 43
8.0
 44
2.0
 73
     0
 74
     0
 77
     3
140
3.0
141
0.0
173
     1
279
     2
288
     1
340
14
341
2B
343
2B
344
2B
  0
ENDTAB
  0
TABLE
  2
BLOCK_RECORD
  5
1
330
0
100
AcDbSymbolTable
 70
     7
  0
BLOCK_RECORD
  5
2
330
1
100
AcDbSymbolTableRecord
100
AcDbBlockTableRecord
  2
*Model_Space
340
A
  0
BLOCK_RECORD
  5
C
330
1
100
AcDbSymbolTableRecord
100
AcDbBlockTableRecord
  2
*Paper_Space
340
F
  0
BLOCK_RECORD
  5
2B
330
1
100
AcDbSymbolTableRecord
100
AcDbBlockTableRecord
  2
_OPEN30
340
0
102
{BLKREFS
331
37
331
38
331
23B
331
23C
331
248
331
249
331
314
331
315
331
320
331
321
331
32C
331
32D
102
}
  0
BLOCK_RECORD
  5
32
330
1
100
AcDbSymbolTableRecord
100
AcDbBlockTableRecord
  2
*D1
340
0
  0
BLOCK_RECORD
  5
236
330
1
100
AcDbSymbolTableRecord
100
AcDbBlockTableRecord
  2
*D2
340
0
  0
BLOCK_RECORD
  5
243
330
1
100
AcDbSymbolTableRecord
100
AcDbBlockTableRecord
  2
*D3
340
0
  0
BLOCK_RECORD
  5
310
330
1
100
AcDbSymbolTableRecord
100
AcDbBlockTableRecord
  2
*D4
340
0
  0
BLOCK_RECORD
  5
31C
330
1
100
AcDbSymbolTableRecord
100
AcDbBlockTableRecord
  2
*D5
340
0
  0
BLOCK_RECORD
  5
328
330
1
100
AcDbSymbolTableRecord
100
AcDbBlockTableRecord
  2
*D6
340
0
  0
ENDTAB
  0
ENDSEC
  0
SECTION
  2
BLOCKS
  0
BLOCK
  5
3
330
2
100
AcDbEntity
  8
0
100
AcDbBlockBegin
  2
*Model_Space
 70
     0
 10
0.0
 20
0.0
 30
0.0
  3
*Model_Space
  1

  0
ENDBLK
  5
9
330
2
100
AcDbEntity
  8
0
100
AcDbBlockEnd
  0
BLOCK
  5
D
330
C
100
AcDbEntity
 67
     1
  8
0
100
AcDbBlockBegin
  2
*Paper_Space
 70
     0
 10
0.0
 20
0.0
 30
0.0
  3
*Paper_Space
  1

  0
ENDBLK
  5
E
330
C
100
AcDbEntity
 67
     1
  8
0
100
AcDbBlockEnd
  0
BLOCK
  5
2C
330
2B
100
AcDbEntity
  8
0
100
AcDbBlockBegin
  2
_OPEN30
 70
     0
 10
0.0
 20
0.0
 30
0.0
  3
_OPEN30
  1

  0
LINE
  5
2D
330
2B
100
AcDbEntity
  8
0
  6
ByBlock
 62
     0
100
AcDbLine
 10
-1.0
 20
0.26794919
 30
0.0
 11
0.0
 21
0.0
 31
0.0
  0
LINE
  5
2E
330
2B
100
AcDbEntity
  8
0
  6
ByBlock
 62
     0
100
AcDbLine
 10
0.0
 20
0.0
 30
0.0
 11
-1.0
 21
-0.26794919
 31
0.0
  0
LINE
  5
2F
330
2B
100
AcDbEntity
  8
0
  6
ByBlock
 62
     0
100
AcDbLine
 10
0.0
 20
0.0
 30
0.0
 11
-1.0
 21
0.0
 31
0.0
  0
ENDBLK
  5
30
330
2B
100
AcDbEntity
  8
0
100
AcDbBlockEnd
  0
BLOCK
  5
33
330
32
100
AcDbEntity
  8
0
100
AcDbBlockBegin
  2
*D1
 70
     1
 10
0.0
 20
0.0
 30
0.0
  3
*D1
  1

  0
LINE
  5
34
330
32
100
AcDbEntity
  8
SUNPO
 62
     0
370
    -2
100
AcDbLine
 10
79.81075582747568
 20
341.2843131832961
 30
0.0
 11
79.81075582747568
 21
349.2843131832962
 31
0.0
  0
LINE
  5
35
330
32
100
AcDbEntity
  8
SUNPO
 62
     0
370
    -2
100
AcDbLine
 10
119.3105519731287
 20
341.2843131832961
 30
0.0
 11
119.3105519731287
 21
349.2843131832962
 31
0.0
  0
LINE
  5
36
330
32
100
AcDbEntity
  8
SUNPO
 62
     0
370
    -2
100
AcDbLine
 10
81.81075582747567
 20
347.2843131832962
 30
0.0
 11
117.3105519731287
 21
347.2843131832962
 31
0.0
  0
INSERT
  5
37
330
32
100
AcDbEntity
  8
SUNPO
 62
     0
370
    -2
100
AcDbBlockReference
  2
_OPEN30
 10
79.81075582747568
 20
347.2843131832962
 30
0.0
 41
2.0
 42
2.0
 43
2.0
 50
180.0
  0
INSERT
  5
38
330
32
100
AcDbEntity
  8
SUNPO
 62
     0
370
    -2
100
AcDbBlockReference
  2
_OPEN30
 10
119.3105519731287
 20
347.2843131832962
 30
0.0
 41
2.0
 42
2.0
 43
2.0
  0
MTEXT
  5
39
330
32
100
AcDbEntity
  8
SUNPO
 62
     0
100
AcDbMText
 10
99.56065390030218
 20
349.0343131832962
 30
0.0
 40
2.5
 41
0.0
 71
     5
 72
     1
  1
\A1;197.5
 73
     1
 44
1.0
1001
ACAD
1000
MTEXTBEGIN
1070
    73
1070
     1
1070
    44
1040
1.0
1070
    74
1070
     0
1000
MTEXTEND
  0
POINT
  5
3A
330
32
100
AcDbEntity
  8
DEFPOINTS
 62
     0
100
AcDbPoint
 10
79.81075582747568
 20
339.2843131832961
 30
0.0
  0
POINT
  5
3C
330
32
100
AcDbEntity
  8
DEFPOINTS
 62
     0
100
AcDbPoint
 10
119.3105519731287
 20
339.2843131832961
 30
0.0
  0
POINT
  5
3D
330
32
100
AcDbEntity
  8
DEFPOINTS
 62
     0
100
AcDbPoint
 10
119.3105519731287
 20
347.2843131832962
 30
0.0
  0
ENDBLK
  5
3E
330
32
100
AcDbEntity
  8
0
100
AcDbBlockEnd
  0
BLOCK
  5
237
330
236
100
AcDbEntity
  8
0
100
AcDbBlockBegin
  2
*D2
 70
     1
 10
0.0
 20
0.0
 30
0.0
  3
*D2
  1

  0
LINE
  5
238
330
236
100
AcDbEntity
  8
SUNPO
 62
     0
370
    -2
100
AcDbLine
 10
42.42995942704857
 20
339.2910136481317
 30
0.0
 11
50.42995942704858
 21
339.2910136481317
 31
0.0
  0
LINE
  5
239
330
236
100
AcDbEntity
  8
SUNPO
 62
     0
370
    -2
100
AcDbLine
 10
42.42995942704857
 20
322.691012896609
 30
0.0
 11
50.42995942704857
 21
322.691012896609
 31
0.0
  0
LINE
  5
23A
330
236
100
AcDbEntity
  8
SUNPO
 62
     0
370
    -2
100
AcDbLine
 10
48.42995942704858
 20
337.2910136481317
 30
0.0
 11
48.42995942704857
 21
324.691012896609
 31
0.0
  0
INSERT
  5
23B
330
236
100
AcDbEntity
  8
SUNPO
 62
     0
370
    -2
100
AcDbBlockReference
  2
_OPEN30
 10
48.42995942704858
 20
339.2910136481317
 30
0.0
 41
2.0
 42
2.0
 43
2.0
 50
90.0
  0
INSERT
  5
23C
330
236
100
AcDbEntity
  8
SUNPO
 62
     0
370
    -2
100
AcDbBlockReference
  2
_OPEN30
 10
48.42995942704857
 20
322.691012896609
 30
0.0
 41
2.0
 42
2.0
 43
2.0
 50
270.0
  0
MTEXT
  5
23D
330
236
100
AcDbEntity
  8
SUNPO
 62
     0
100
AcDbMText
 10
46.67995942704852
 20
330.9910132723704
 30
0.0
 40
2.5
 41
0.0
 71
     5
 72
     1
  1
\A1;83
 11
0.0000000000000001
 21
1.0
 31
0.0
 73
     1
 44
1.0
1001
ACAD
1000
MTEXTBEGIN
1070
    73
1070
     1
1070
    44
1040
1.0
1070
    74
1070
     0
1000
MTEXTEND
  0
POINT
  5
23E
330
236
100
AcDbEntity
  8
DEFPOINTS
 62
     0
100
AcDbPoint
 10
40.42995942704857
 20
339.2910136481317
 30
0.0
  0
POINT
  5
23F
330
236
100
AcDbEntity
  8
DEFPOINTS
 62
     0
100
AcDbPoint
 10
40.42995942704857
 20
322.691012896609
 30
0.0
  0
POINT
  5
240
330
236
100
AcDbEntity
  8
DEFPOINTS
 62
     0
100
AcDbPoint
 10
48.42995942704857
 20
322.691012896609
 30
0.0
  0
ENDBLK
  5
241
330
236
100
AcDbEntity
  8
0
100
AcDbBlockEnd
  0
BLOCK
  5
244
330
243
100
AcDbEntity
  8
0
100
AcDbBlockBegin
  2
*D3
 70
     1
 10
0.0
 20
0.0
 30
0.0
  3
*D3
  1

  0
LINE
  5
245
330
243
100
AcDbEntity
  8
SUNPO
 62
     0
370
    -2
100
AcDbLine
 10
23.62995942705115
 20
341.2843131832961
 30
0.0
 11
23.62995942705115
 21
349.2843131832962
 31
0.0
  0
LINE
  5
246
330
243
100
AcDbEntity
  8
SUNPO
 62
     0
370
    -2
100
AcDbLine
 10
40.42995942704857
 20
341.2843131832961
 30
0.0
 11
40.42995942704857
 21
349.2843131832962
 31
0.0
  0
LINE
  5
247
330
243
100
AcDbEntity
  8
SUNPO
 62
     0
370
    -2
100
AcDbLine
 10
25.62995942705115
 20
347.2843131832962
 30
0.0
 11
38.42995942704857
 21
347.2843131832962
 31
0.0
  0
INSERT
  5
248
330
243
100
AcDbEntity
  8
SUNPO
 62
     0
370
    -2
100
AcDbBlockReference
  2
_OPEN30
 10
23.62995942705115
 20
347.2843131832962
 30
0.0
 41
2.0
 42
2.0
 43
2.0
 50
180.0
  0
INSERT
  5
249
330
243
100
AcDbEntity
  8
SUNPO
 62
     0
370
    -2
100
AcDbBlockReference
  2
_OPEN30
 10
40.42995942704857
 20
347.2843131832962
 30
0.0
 41
2.0
 42
2.0
 43
2.0
  0
MTEXT
  5
24A
330
243
100
AcDbEntity
  8
SUNPO
 62
     0
100
AcDbMText
 10
32.02995942704986
 20
349.0343131832962
 30
0.0
 40
2.5
 41
0.0
 71
     5
 72
     1
  1
\A1;84
 73
     1
 44
1.0
1001
ACAD
1000
MTEXTBEGIN
1070
    73
1070
     1
1070
    44
1040
1.0
1070
    74
1070
     0
1000
MTEXTEND
  0
POINT
  5
24B
330
243
100
AcDbEntity
  8
DEFPOINTS
 62
     0
100
AcDbPoint
 10
23.62995942705115
 20
339.2843131832961
 30
0.0
  0
POINT
  5
24C
330
243
100
AcDbEntity
  8
DEFPOINTS
 62
     0
100
AcDbPoint
 10
40.42995942704857
 20
339.2843131832961
 30
0.0
  0
POINT
  5
24D
330
243
100
AcDbEntity
  8
DEFPOINTS
 62
     0
100
AcDbPoint
 10
40.42995942704857
 20
347.2843131832962
 30
0.0
  0
ENDBLK
  5
24E
330
243
100
AcDbEntity
  8
0
100
AcDbBlockEnd
  0
BLOCK
  5
31A
330
310
100
AcDbEntity
  8
0
100
AcDbBlockBegin
  2
*D4
 70
     1
 10
0.0
 20
0.0
 30
0.0
  3
*D4
  1

  0
LINE
  5
311
330
310
100
AcDbEntity
  8
SUNPO
 62
     0
370
    -2
100
AcDbLine
 10
-38.46938492971995
 20
24.84924783146039
 30
0.0
 11
-38.46938492971995
 21
32.84924783146039
 31
0.0
  0
LINE
  5
312
330
310
100
AcDbEntity
  8
SUNPO
 62
     0
370
    -2
100
AcDbLine
 10
-21.66938492972253
 20
24.84924783146039
 30
0.0
 11
-21.66938492972253
 21
32.84924783146039
 31
0.0
  0
LINE
  5
313
330
310
100
AcDbEntity
  8
SUNPO
 62
     0
370
    -2
100
AcDbLine
 10
-36.46938492971995
 20
30.84924783146039
 30
0.0
 11
-23.66938492972253
 21
30.84924783146039
 31
0.0
  0
INSERT
  5
314
330
310
100
AcDbEntity
  8
SUNPO
 62
     0
370
    -2
100
AcDbBlockReference
  2
_OPEN30
 10
-38.46938492971995
 20
30.84924783146039
 30
0.0
 41
2.0
 42
2.0
 43
2.0
 50
180.0
  0
INSERT
  5
315
330
310
100
AcDbEntity
  8
SUNPO
 62
     0
370
    -2
100
AcDbBlockReference
  2
_OPEN30
 10
-21.66938492972253
 20
30.84924783146039
 30
0.0
 41
2.0
 42
2.0
 43
2.0
  0
MTEXT
  5
316
330
310
100
AcDbEntity
  8
SUNPO
 62
     0
100
AcDbMText
 10
-30.06938492972124
 20
32.59924783146039
 30
0.0
 40
2.5
 41
0.0
 71
     5
 72
     1
  1
\A1;84
 73
     1
 44
1.0
1001
ACAD
1000
MTEXTBEGIN
1070
    73
1070
     1
1070
    44
1040
1.0
1070
    74
1070
     0
1000
MTEXTEND
  0
POINT
  5
317
330
310
100
AcDbEntity
  8
DEFPOINTS
 62
     0
100
AcDbPoint
 10
-38.46938492971995
 20
22.84924783146039
 30
0.0
  0
POINT
  5
318
330
310
100
AcDbEntity
  8
DEFPOINTS
 62
     0
100
AcDbPoint
 10
-21.66938492972253
 20
22.84924783146039
 30
0.0
  0
POINT
  5
319
330
310
100
AcDbEntity
  8
DEFPOINTS
 62
     0
100
AcDbPoint
 10
-21.66938492972253
 20
30.84924783146039
 30
0.0
  0
ENDBLK
  5
31B
330
310
100
AcDbEntity
  8
0
100
AcDbBlockEnd
  0
BLOCK
  5
326
330
31C
100
AcDbEntity
  8
0
100
AcDbBlockBegin
  2
*D5
 70
     1
 10
0.0
 20
0.0
 30
0.0
  3
*D5
  1

  0
LINE
  5
31D
330
31C
100
AcDbEntity
  8
SUNPO
 62
     0
370
    -2
100
AcDbLine
 10
-19.66938492972252
 20
22.85594829629599
 30
0.0
 11
-11.66938492972252
 21
22.85594829629599
 31
0.0
  0
LINE
  5
31E
330
31C
100
AcDbEntity
  8
SUNPO
 62
     0
370
    -2
100
AcDbLine
 10
-19.66938492972252
 20
6.255947544773221
 30
0.0
 11
-11.66938492972252
 21
6.255947544773218
 31
0.0
  0
LINE
  5
31F
330
31C
100
AcDbEntity
  8
SUNPO
 62
     0
370
    -2
100
AcDbLine
 10
-13.66938492972252
 20
20.85594829629599
 30
0.0
 11
-13.66938492972252
 21
8.255947544773219
 31
0.0
  0
INSERT
  5
320
330
31C
100
AcDbEntity
  8
SUNPO
 62
     0
370
    -2
100
AcDbBlockReference
  2
_OPEN30
 10
-13.66938492972252
 20
22.85594829629599
 30
0.0
 41
2.0
 42
2.0
 43
2.0
 50
90.0
  0
INSERT
  5
321
330
31C
100
AcDbEntity
  8
SUNPO
 62
     0
370
    -2
100
AcDbBlockReference
  2
_OPEN30
 10
-13.66938492972252
 20
6.255947544773218
 30
0.0
 41
2.0
 42
2.0
 43
2.0
 50
270.0
  0
MTEXT
  5
322
330
31C
100
AcDbEntity
  8
SUNPO
 62
     0
100
AcDbMText
 10
-15.41938492972252
 20
14.5559479205346
 30
0.0
 40
2.5
 41
0.0
 71
     5
 72
     1
  1
\A1;83
 11
0.0000000000000001
 21
1.0
 31
0.0
 73
     1
 44
1.0
1001
ACAD
1000
MTEXTBEGIN
1070
    73
1070
     1
1070
    44
1040
1.0
1070
    74
1070
     0
1000
MTEXTEND
  0
POINT
  5
323
330
31C
100
AcDbEntity
  8
DEFPOINTS
 62
     0
100
AcDbPoint
 10
-21.66938492972253
 20
22.85594829629599
 30
0.0
  0
POINT
  5
324
330
31C
100
AcDbEntity
  8
DEFPOINTS
 62
     0
100
AcDbPoint
 10
-21.66938492972253
 20
6.255947544773221
 30
0.0
  0
POINT
  5
325
330
31C
100
AcDbEntity
  8
DEFPOINTS
 62
     0
100
AcDbPoint
 10
-13.66938492972252
 20
6.255947544773218
 30
0.0
  0
ENDBLK
  5
327
330
31C
100
AcDbEntity
  8
0
100
AcDbBlockEnd
  0
BLOCK
  5
332
330
328
100
AcDbEntity
  8
0
100
AcDbBlockBegin
  2
*D6
 70
     1
 10
0.0
 20
0.0
 30
0.0
  3
*D6
  1

  0
LINE
  5
329
330
328
100
AcDbEntity
  8
SUNPO
 62
     0
370
    -2
100
AcDbLine
 10
17.71141147070457
 20
24.84924783146039
 30
0.0
 11
17.71141147070457
 21
32.84924783146039
 31
0.0
  0
LINE
  5
32A
330
328
100
AcDbEntity
  8
SUNPO
 62
     0
370
    -2
100
AcDbLine
 10
57.21120761635759
 20
24.84924783146039
 30
0.0
 11
57.21120761635759
 21
32.84924783146039
 31
0.0
  0
LINE
  5
32B
330
328
100
AcDbEntity
  8
SUNPO
 62
     0
370
    -2
100
AcDbLine
 10
19.71141147070457
 20
30.84924783146039
 30
0.0
 11
55.2112076163576
 21
30.84924783146039
 31
0.0
  0
INSERT
  5
32C
330
328
100
AcDbEntity
  8
SUNPO
 62
     0
370
    -2
100
AcDbBlockReference
  2
_OPEN30
 10
17.71141147070457
 20
30.84924783146039
 30
0.0
 41
2.0
 42
2.0
 43
2.0
 50
180.0
  0
INSERT
  5
32D
330
328
100
AcDbEntity
  8
SUNPO
 62
     0
370
    -2
100
AcDbBlockReference
  2
_OPEN30
 10
57.21120761635759
 20
30.84924783146039
 30
0.0
 41
2.0
 42
2.0
 43
2.0
  0
MTEXT
  5
32E
330
328
100
AcDbEntity
  8
SUNPO
 62
     0
100
AcDbMText
 10
37.46130954353109
 20
32.59924783146039
 30
0.0
 40
2.5
 41
0.0
 71
     5
 72
     1
  1
\A1;197.5
 73
     1
 44
1.0
1001
ACAD
1000
MTEXTBEGIN
1070
    73
1070
     1
1070
    44
1040
1.0
1070
    74
1070
     0
1000
MTEXTEND
  0
POINT
  5
32F
330
328
100
AcDbEntity
  8
DEFPOINTS
 62
     0
100
AcDbPoint
 10
17.71141147070457
 20
22.84924783146039
 30
0.0
  0
POINT
  5
330
330
328
100
AcDbEntity
  8
DEFPOINTS
 62
     0
100
AcDbPoint
 10
57.21120761635759
 20
22.84924783146039
 30
0.0
  0
POINT
  5
331
330
328
100
AcDbEntity
  8
DEFPOINTS
 62
     0
100
AcDbPoint
 10
57.21120761635759
 20
30.84924783146039
 30
0.0
  0
ENDBLK
  5
333
330
328
100
AcDbEntity
  8
0
100
AcDbBlockEnd
  0
ENDSEC
  0
SECTION
  2
ENTITIES
  0
DIMENSION
  5
29
330
2
100
AcDbEntity
  8
SUNPO
100
AcDbDimension
  2
*D6
 10
57.21120761635759
 20
30.84924783146039
 30
0.0
 11
37.46130954353109
 21
32.59924783146039
 31
0.0
 70
    33
  1
197.5
 71
     5
 42
39.49979614565302
  3
STANDARD
100
AcDbAlignedDimension
 13
17.71141147070457
 23
22.84924783146039
 33
0.0
 14
57.21120761635759
 24
22.84924783146039
 34
0.0
1001
ACAD
1000
DSTYLE
1002
{
1070
   287
1070
     3
1070
    40
1040
1.0
1070
   140
1040
2.5
1070
   147
1040
0.5
1070
   172
1070
     1
1070
   279
1070
     0
1070
   288
1070
     0
1070
   341
1005
0
1002
}
  0
ARC
  5
3F
330
2
100
AcDbEntity
  8
GAIKEI
  6
Continuous
100
AcDbCircle
 10
-35.55054763668633
 20
7.055947544773232
 30
0.0
 40
0.8
100
AcDbArc
 50
259.9492941888138
 51
270.0
  0
LINE
  5
41
330
2
100
AcDbEntity
  8
GAIKEI
  6
HIDDEN2
 62
     1
100
AcDbLine
 10
-38.22715668199851
 20
10.17260510249428
 30
0.0
 11
-37.97922863744219
 21
10.22445672503755
 31
0.0
  0
LINE
  5
43
330
2
100
AcDbEntity
  8
GAIKEI
  6
HIDDEN2
 62
     1
100
AcDbLine
 10
-39.16302606662205
 20
9.97687756320721
 30
0.0
 11
-39.01073073617457
 21
10.00872857870479
 31
0.0
  0
LINE
  5
44
330
2
100
AcDbEntity
  8
GAIKEI
  6
HIDDEN2
 62
     1
100
AcDbLine
 10
-38.26381820257458
 20
11.67069915182901
 30
0.0
 11
-39.46474374914414
 21
11.41953781889248
 31
0.0
  0
LINE
  5
45
330
2
100
AcDbEntity
  8
GAIKEI
  6
HIDDEN2
 62
     1
100
AcDbLine
 10
-39.46474374914414
 20
11.41953781889248
 30
0.0
 11
-39.16302606662205
 21
9.97687756320721
 31
0.0
  0
ARC
  5
46
330
2
100
AcDbEntity
  8
GAIKEI
  6
Continuous
 62
     1
100
AcDbCircle
 10
-17.27261379240454
 20
15.32593932418302
 30
0.0
 40
20.7
100
AcDbArc
 50
200.7480688588698
 51
201.5585139883886
  0
ARC
  5
47
330
2
100
AcDbEntity
  8
GAIKEI
  6
HIDDEN2
 62
     1
100
AcDbCircle
 10
-36.39789380442989
 20
9.985239776588912
 30
0.0
 40
2.0
100
AcDbArc
 50
272.2187195370537
 51
315.0
  0
ARC
  5
48
330
2
100
AcDbEntity
  8
GAIKEI
  6
HIDDEN2
 62
     1
100
AcDbCircle
 10
-36.42357064685049
 20
10.64798206534556
 30
0.0
 40
2.663239505420146
100
AcDbArc
 50
233.8650269124419
 51
272.2187195370537
  0
ARC
  5
49
330
2
100
AcDbEntity
  8
GAIKEI
  6
HIDDEN2
 62
     1
100
AcDbCircle
 10
-36.42357064685049
 20
10.64798206534556
 30
0.0
 40
1.863239505420146
100
AcDbArc
 50
233.8650269124419
 51
289.8633644857902
  0
ARC
  5
4A
330
2
100
AcDbEntity
  8
GAIKEI
  6
HIDDEN2
 62
     1
100
AcDbCircle
 10
-38.66932190644195
 20
10.87161230260767
 30
0.0
 40
0.4
100
AcDbArc
 50
353.5172037169405
 51
173.5172037169404
  0
ARC
  5
4B
330
2
100
AcDbEntity
  8
GAIKEI
  6
HIDDEN2
 62
     1
100
AcDbCircle
 10
-36.46750768216185
 20
10.62141693897081
 30
0.0
 40
2.615983663799756
100
AcDbArc
 50
173.5172037169372
 51
237.9304954258882
  0
ARC
  5
4C
330
2
100
AcDbEntity
  8
GAIKEI
  6
HIDDEN2
 62
     1
100
AcDbCircle
 10
-36.46750768216185
 20
10.62141693897081
 30
0.0
 40
1.815983663799756
100
AcDbArc
 50
173.5172037169372
 51
234.4903670925365
  0
LINE
  5
4D
330
2
100
AcDbEntity
  8
GAIKEI
  6
S10
 62
     1
100
AcDbLine
 10
-39.04690930202642
 20
10.15440755216661
 30
0.0
 11
-39.04166688773938
 21
10.1555039496609
 31
0.0
  0
ARC
  5
4F
330
2
100
AcDbEntity
  8
GAIKEI
  6
Continuous
 62
     1
100
AcDbCircle
 10
-35.62363230707891
 20
6.727356949940599
 30
0.0
 40
0.3
100
AcDbArc
 50
217.2875502362192
 51
270.0
  0
LINE
  5
50
330
2
100
AcDbEntity
  8
GAIKEI
  6
HIDDEN2
 62
     1
100
AcDbLine
 10
5.667754923304613
 20
13.62660818233263
 30
0.0
 11
5.668061841304592
 21
13.60630678173271
 31
0.0
  0
LINE
  5
51
330
2
100
AcDbEntity
  8
GAIKEI
  6
HIDDEN2
 62
     1
100
AcDbLine
 10
5.668061841304592
 20
14.23569666773261
 30
0.0
 11
5.667754923304613
 21
14.21539526713269
 31
0.0
  0
LINE
  5
52
330
2
100
AcDbEntity
  8
GAIKEI
  6
HIDDEN2
 62
     1
100
AcDbLine
 10
5.668061841304592
 20
13.60630678173271
 30
0.0
 11
5.668389571104597
 21
13.58600570633263
 31
0.0
  0
LINE
  5
53
330
2
100
AcDbEntity
  8
GAIKEI
  6
HIDDEN2
 62
     1
100
AcDbLine
 10
5.668389571104597
 20
14.25599774313269
 30
0.0
 11
5.668061841304592
 21
14.23569666773261
 31
0.0
  0
LINE
  5
54
330
2
100
AcDbEntity
  8
GAIKEI
  6
HIDDEN2
 62
     1
100
AcDbLine
 10
5.668389571104597
 20
13.58600570633263
 30
0.0
 11
5.668738141504604
 21
13.5657049781326
 31
0.0
  0
LINE
  5
55
330
2
100
AcDbEntity
  8
GAIKEI
  6
HIDDEN2
 62
     1
100
AcDbLine
 10
5.668738141504604
 20
14.27629847133249
 30
0.0
 11
5.668389571104597
 21
14.25599774313269
 31
0.0
  0
LINE
  5
56
330
2
100
AcDbEntity
  8
GAIKEI
  6
HIDDEN2
 62
     1
100
AcDbLine
 10
5.668738141504604
 20
13.5657049781326
 30
0.0
 11
5.669107544704587
 21
13.5454046183325
 31
0.0
  0
LINE
  5
57
330
2
100
AcDbEntity
  8
GAIKEI
  6
HIDDEN2
 62
     1
100
AcDbLine
 10
5.669107544704587
 20
14.2965988311326
 30
0.0
 11
5.668738141504604
 21
14.27629847133249
 31
0.0
  0
LINE
  5
58
330
2
100
AcDbEntity
  8
GAIKEI
  6
HIDDEN2
 62
     1
100
AcDbLine
 10
5.669107544704587
 20
13.5454046183325
 30
0.0
 11
5.669497839304597
 21
13.52510464933272
 31
0.0
  0
LINE
  5
59
330
2
100
AcDbEntity
  8
GAIKEI
  6
HIDDEN2
 62
     1
100
AcDbLine
 10
5.669497839304597
 20
14.3168988001326
 30
0.0
 11
5.669107544704587
 21
14.2965988311326
 31
0.0
  0
LINE
  5
5A
330
2
100
AcDbEntity
  8
GAIKEI
  6
HIDDEN2
 62
     1
100
AcDbLine
 10
5.669497839304597
 20
13.52510464933272
 30
0.0
 11
5.669909118304616
 21
13.50480509453274
 31
0.0
  0
LINE
  5
5B
330
2
100
AcDbEntity
  8
GAIKEI
  6
HIDDEN2
 62
     1
100
AcDbLine
 10
5.669909118304616
 20
14.33719835493258
 30
0.0
 11
5.669497839304597
 21
14.3168988001326
 31
0.0
  0
LINE
  5
5C
330
2
100
AcDbEntity
  8
GAIKEI
  6
HIDDEN2
 62
     1
100
AcDbLine
 10
5.669909118304616
 20
13.50480509453274
 30
0.0
 11
5.67034148690459
 21
13.48450597813263
 31
0.0
  0
LINE
  5
5D
330
2
100
AcDbEntity
  8
GAIKEI
  6
HIDDEN2
 62
     1
100
AcDbLine
 10
5.67034148690459
 20
14.35749747133246
 30
0.0
 11
5.669909118304616
 21
14.33719835493258
 31
0.0
  0
LINE
  5
5E
330
2
100
AcDbEntity
  8
GAIKEI
  6
HIDDEN2
 62
     1
100
AcDbLine
 10
5.67034148690459
 20
13.48450597813263
 30
0.0
 11
5.670795052704619
 21
13.46420732413259
 31
0.0
  0
LINE
  5
5F
330
2
100
AcDbEntity
  8
GAIKEI
  6
HIDDEN2
 62
     1
100
AcDbLine
 10
5.670795052704619
 20
14.37779612533251
 30
0.0
 11
5.67034148690459
 21
14.35749747133246
 31
0.0
  0
LINE
  5
60
330
2
100
AcDbEntity
  8
GAIKEI
  6
HIDDEN2
 62
     1
100
AcDbLine
 10
5.670795052704619
 20
13.46420732413259
 30
0.0
 11
5.671269905904608
 21
13.44390915713262
 31
0.0
  0
LINE
  5
61
330
2
100
AcDbEntity
  8
GAIKEI
  6
HIDDEN2
 62
     1
100
AcDbLine
 10
5.671269905904608
 20
14.3980942923327
 30
0.0
 11
5.670795052704619
 21
14.37779612533251
 31
0.0
  0
LINE
  5
62
330
2
100
AcDbEntity
  8
GAIKEI
  6
HIDDEN2
 62
     1
100
AcDbLine
 10
5.671269905904608
 20
13.44390915713262
 30
0.0
 11
5.671766122104571
 21
13.42361150093262
 31
0.0
  0
LINE
  5
63
330
2
100
AcDbEntity
  8
GAIKEI
  6
HIDDEN2
 62
     1
100
AcDbLine
 10
5.671766122104571
 20
14.4183919485327
 30
0.0
 11
5.671269905904608
 21
14.3980942923327
 31
0.0
  0
LINE
  5
64
330
2
100
AcDbEntity
  8
GAIKEI
  6
HIDDEN2
 62
     1
100
AcDbLine
 10
5.671766122104571
 20
13.42361150093262
 30
0.0
 11
5.672283734504588
 21
13.40331437913261
 31
0.0
  0
LINE
  5
65
330
2
100
AcDbEntity
  8
GAIKEI
  6
HIDDEN2
 62
     1
100
AcDbLine
 10
5.667754923304613
 20
14.21539526713269
 30
0.0
 11
5.667468705104596
 21
14.19509356393251
 31
0.0
  0
LINE
  5
66
330
2
100
AcDbEntity
  8
GAIKEI
  6
HIDDEN2
 62
     1
100
AcDbLine
 10
5.667468705104596
 20
13.64690988553258
 30
0.0
 11
5.667754923304613
 21
13.62660818233263
 31
0.0
  0
LINE
  5
67
330
2
100
AcDbEntity
  8
GAIKEI
  6
HIDDEN2
 62
     1
100
AcDbLine
 10
5.667468705104596
 20
14.19509356393251
 30
0.0
 11
5.66720310990459
 21
14.17479158073257
 31
0.0
  0
LINE
  5
68
330
2
100
AcDbEntity
  8
GAIKEI
  6
HIDDEN2
 62
     1
100
AcDbLine
 10
5.66720310990459
 20
13.66721186873252
 30
0.0
 11
5.667468705104596
 21
13.64690988553258
 31
0.0
  0
LINE
  5
69
330
2
100
AcDbEntity
  8
GAIKEI
  6
HIDDEN2
 62
     1
100
AcDbLine
 10
5.66720310990459
 20
14.17479158073257
 30
0.0
 11
5.6669581379046
 21
14.15448933813269
 31
0.0
  0
LINE
  5
6A
330
2
100
AcDbEntity
  8
GAIKEI
  6
HIDDEN2
 62
     1
100
AcDbLine
 10
5.6669581379046
 20
13.68751411133263
 30
0.0
 11
5.66720310990459
 21
13.66721186873252
 31
0.0
  0
LINE
  5
6B
330
2
100
AcDbEntity
  8
GAIKEI
  6
HIDDEN2
 62
     1
100
AcDbLine
 10
5.6669581379046
 20
14.15448933813269
 30
0.0
 11
5.666733771504596
 21
14.13418685733251
 31
0.0
  0
LINE
  5
6C
330
2
100
AcDbEntity
  8
GAIKEI
  6
HIDDEN2
 62
     1
100
AcDbLine
 10
5.666733771504596
 20
13.70781659213259
 30
0.0
 11
5.6669581379046
 21
13.68751411133263
 31
0.0
  0
LINE
  5
6D
330
2
100
AcDbEntity
  8
GAIKEI
  6
HIDDEN2
 62
     1
100
AcDbLine
 10
5.666733771504596
 20
14.13418685733251
 30
0.0
 11
5.666529953104571
 21
14.11388415993252
 31
0.0
  0
LINE
  5
6E
330
2
100
AcDbEntity
  8
GAIKEI
  6
HIDDEN2
 62
     1
100
AcDbLine
 10
5.666529953104571
 20
13.72811928953257
 30
0.0
 11
5.666733771504596
 21
13.70781659213259
 31
0.0
  0
LINE
  5
6F
330
2
100
AcDbEntity
  8
GAIKEI
  6
HIDDEN2
 62
     1
100
AcDbLine
 10
5.666529953104571
 20
14.11388415993252
 30
0.0
 11
5.666346617304583
 21
14.0935812671326
 31
0.0
  0
LINE
  5
70
330
2
100
AcDbEntity
  8
GAIKEI
  6
HIDDEN2
 62
     1
100
AcDbLine
 10
5.666346617304583
 20
13.74842218233249
 30
0.0
 11
5.666529953104571
 21
13.72811928953257
 31
0.0
  0
LINE
  5
71
330
2
100
AcDbEntity
  8
GAIKEI
  6
HIDDEN2
 62
     1
100
AcDbLine
 10
5.666346617304583
 20
14.0935812671326
 30
0.0
 11
5.666183695104592
 21
14.07327820013262
 31
0.0
  0
LINE
  5
72
330
2
100
AcDbEntity
  8
GAIKEI
  6
HIDDEN2
 62
     1
100
AcDbLine
 10
5.666183695104592
 20
13.76872524933247
 30
0.0
 11
5.666346617304583
 21
13.74842218233249
 31
0.0
  0
LINE
  5
73
330
2
100
AcDbEntity
  8
GAIKEI
  6
HIDDEN2
 62
     1
100
AcDbLine
 10
5.666183695104592
 20
14.07327820013262
 30
0.0
 11
5.666041159304597
 21
14.05297497993257
 31
0.0
  0
LINE
  5
74
330
2
100
AcDbEntity
  8
GAIKEI
  6
HIDDEN2
 62
     1
100
AcDbLine
 10
5.666041159304597
 20
13.78902846953275
 30
0.0
 11
5.666183695104592
 21
13.76872524933247
 31
0.0
  0
LINE
  5
75
330
2
100
AcDbEntity
  8
GAIKEI
  6
HIDDEN2
 62
     1
100
AcDbLine
 10
5.666041159304597
 20
14.05297497993257
 30
0.0
 11
5.665919038104618
 21
14.03267162753269
 31
0.0
  0
LINE
  5
76
330
2
100
AcDbEntity
  8
GAIKEI
  6
HIDDEN2
 62
     1
100
AcDbLine
 10
5.665919038104618
 20
13.80933182193263
 30
0.0
 11
5.666041159304597
 21
13.78902846953275
 31
0.0
  0
LINE
  5
77
330
2
100
AcDbEntity
  8
GAIKEI
  6
HIDDEN2
 62
     1
100
AcDbLine
 10
5.665919038104618
 20
14.03267162753269
 30
0.0
 11
5.665817324304583
 21
14.0123681623325
 31
0.0
  0
LINE
  5
78
330
2
100
AcDbEntity
  8
GAIKEI
  6
HIDDEN2
 62
     1
100
AcDbLine
 10
5.665817324304583
 20
13.82963528713259
 30
0.0
 11
5.665919038104618
 21
13.80933182193263
 31
0.0
  0
LINE
  5
79
330
2
100
AcDbEntity
  8
GAIKEI
  6
HIDDEN2
 62
     1
100
AcDbLine
 10
5.665817324304583
 20
14.0123681623325
 30
0.0
 11
5.665735960704608
 21
13.99206460213264
 31
0.0
  0
LINE
  5
7A
330
2
100
AcDbEntity
  8
GAIKEI
  6
HIDDEN2
 62
     1
100
AcDbLine
 10
5.665735960704608
 20
13.84993884733245
 30
0.0
 11
5.665817324304583
 21
13.82963528713259
 31
0.0
  0
LINE
  5
7B
330
2
100
AcDbEntity
  8
GAIKEI
  6
HIDDEN2
 62
     1
100
AcDbLine
 10
5.665735960704608
 20
13.99206460213264
 30
0.0
 11
5.665674940704604
 21
13.97176097133257
 31
0.0
  0
LINE
  5
7C
330
2
100
AcDbEntity
  8
GAIKEI
  6
HIDDEN2
 62
     1
100
AcDbLine
 10
5.665674940704604
 20
13.87024247813275
 30
0.0
 11
5.665735960704608
 21
13.84993884733245
 31
0.0
  0
LINE
  5
7D
330
2
100
AcDbEntity
  8
GAIKEI
  6
HIDDEN2
 62
     1
100
AcDbLine
 10
5.665674940704604
 20
13.97176097133257
 30
0.0
 11
5.66563431630459
 21
13.95145730273253
 31
0.0
  0
LINE
  5
7E
330
2
100
AcDbEntity
  8
GAIKEI
  6
HIDDEN2
 62
     1
100
AcDbLine
 10
5.66563431630459
 20
13.89054614673256
 30
0.0
 11
5.665674940704604
 21
13.87024247813275
 31
0.0
  0
LINE
  5
7F
330
2
100
AcDbEntity
  8
GAIKEI
  6
HIDDEN2
 62
     1
100
AcDbLine
 10
5.66563431630459
 20
13.95145730273253
 30
0.0
 11
5.665614035104596
 21
13.93115359913264
 31
0.0
  0
LINE
  5
80
330
2
100
AcDbEntity
  8
GAIKEI
  6
HIDDEN2
 62
     1
100
AcDbLine
 10
5.665614035104596
 20
13.91084985033245
 30
0.0
 11
5.66563431630459
 21
13.89054614673256
 31
0.0
  0
LINE
  5
81
330
2
100
AcDbEntity
  8
GAIKEI
  6
HIDDEN2
 62
     1
100
AcDbLine
 10
5.665614035104596
 20
13.93115359913264
 30
0.0
 11
5.66561147070459
 21
13.92100172473266
 31
0.0
  0
LINE
  5
82
330
2
100
AcDbEntity
  8
GAIKEI
  6
HIDDEN2
 62
     1
100
AcDbLine
 10
5.66561147070459
 20
13.92100172473266
 30
0.0
 11
5.665614035104596
 21
13.91084985033245
 31
0.0
  0
LINE
  5
83
330
2
100
AcDbEntity
  8
GAIKEI
  6
HIDDEN2
 62
     1
100
AcDbLine
 10
6.115022279704589
 20
8.261001724732579
 30
0.0
 11
6.175036818704597
 21
8.261001724732579
 31
0.0
  0
LINE
  5
84
330
2
100
AcDbEntity
  8
GAIKEI
  6
HIDDEN2
 62
     1
100
AcDbLine
 10
6.175036818704597
 20
19.58100172473274
 30
0.0
 11
6.115022279704589
 21
19.58100172473274
 31
0.0
  0
LINE
  5
85
330
2
100
AcDbEntity
  8
GAIKEI
  6
HIDDEN2
 62
     1
100
AcDbLine
 10
6.115022279704589
 20
19.58100172473274
 30
0.0
 11
6.015022279704595
 21
19.4810017247326
 31
0.0
  0
LINE
  5
86
330
2
100
AcDbEntity
  8
GAIKEI
  6
HIDDEN2
 62
     1
100
AcDbLine
 10
6.015022279704595
 20
8.361001724732489
 30
0.0
 11
6.115022279704589
 21
8.261001724732579
 31
0.0
  0
ARC
  5
87
330
2
100
AcDbEntity
  8
GAIKEI
  6
HIDDEN2
 62
     1
100
AcDbCircle
 10
11.89503681870459
 20
8.02100172473257
 30
0.0
 40
0.1
100
AcDbArc
 50
270.0
 51
0.0
  0
ARC
  5
88
330
2
100
AcDbEntity
  8
GAIKEI
  6
HIDDEN2
 62
     1
100
AcDbCircle
 10
11.89503681870459
 20
19.82100172473252
 30
0.0
 40
0.1
100
AcDbArc
 50
0.0
 51
90.0
  0
LINE
  5
89
330
2
100
AcDbEntity
  8
GAIKEI
  6
HIDDEN2
 62
     1
100
AcDbLine
 10
6.315036818704584
 20
7.921001724732661
 30
0.0
 11
11.89503681870459
 21
7.921001724732661
 31
0.0
  0
LINE
  5
8A
330
2
100
AcDbEntity
  8
GAIKEI
  6
HIDDEN2
 62
     1
100
AcDbLine
 10
11.89503681870459
 20
19.92100172473266
 30
0.0
 11
6.315036818704584
 21
19.92100172473266
 31
0.0
  0
LINE
  5
8B
330
2
100
AcDbEntity
  8
GAIKEI
  6
HIDDEN2
 62
     1
100
AcDbLine
 10
6.315036818704584
 20
19.92100172473266
 30
0.0
 11
6.175036818704597
 21
19.78100172473256
 31
0.0
  0
LINE
  5
8C
330
2
100
AcDbEntity
  8
GAIKEI
  6
HIDDEN2
 62
     1
100
AcDbLine
 10
6.175036818704597
 20
8.061001724732534
 30
0.0
 11
6.315036818704584
 21
7.921001724732661
 31
0.0
  0
LINE
  5
8D
330
2
100
AcDbEntity
  8
GAIKEI
  6
HIDDEN2
 62
     1
100
AcDbLine
 10
11.99503681870459
 20
8.081001724732743
 30
0.0
 11
12.08341147070459
 21
8.081001724732743
 31
0.0
  0
LINE
  5
8E
330
2
100
AcDbEntity
  8
GAIKEI
  6
HIDDEN2
 62
     1
100
AcDbLine
 10
12.08341147070459
 20
19.76100172473258
 30
0.0
 11
11.99503681870459
 21
19.76100172473258
 31
0.0
  0
LINE
  5
8F
330
2
100
AcDbEntity
  8
GAIKEI
  6
HIDDEN2
 62
     1
100
AcDbLine
 10
17.51141147070458
 20
19.92100172453257
 30
0.0
 11
12.18341147070458
 21
19.92100172453257
 31
0.0
  0
LINE
  5
90
330
2
100
AcDbEntity
  8
GAIKEI
  6
HIDDEN2
 62
     1
100
AcDbLine
 10
17.2875694139046
 20
7.921001724732661
 30
0.0
 11
17.51141147070458
 21
7.921001724732661
 31
0.0
  0
LINE
  5
91
330
2
100
AcDbEntity
  8
GAIKEI
  6
HIDDEN2
 62
     1
100
AcDbLine
 10
12.18341147070458
 20
7.921001724732661
 30
0.0
 11
16.81939568870459
 21
7.921001724732661
 31
0.0
  0
ARC
  5
92
330
2
100
AcDbEntity
  8
GAIKEI
  6
HIDDEN2
 62
     1
100
AcDbCircle
 10
12.18341147070458
 20
8.02100172473257
 30
0.0
 40
0.1
100
AcDbArc
 50
180.0
 51
270.0
  0
ARC
  5
93
330
2
100
AcDbEntity
  8
GAIKEI
  6
HIDDEN2
 62
     1
100
AcDbCircle
 10
12.18341147070458
 20
19.82100172453266
 30
0.0
 40
0.1
100
AcDbArc
 50
90.0
 51
180.0
  0
LINE
  5
94
330
2
100
AcDbEntity
  8
GAIKEI
  6
HIDDEN2
 62
     1
100
AcDbLine
 10
17.51141147070458
 20
7.921001724732661
 30
0.0
 11
17.61141147070461
 21
8.02100172473257
 31
0.0
  0
LINE
  5
95
330
2
100
AcDbEntity
  8
GAIKEI
  6
HIDDEN2
 62
     1
100
AcDbLine
 10
17.61141147070461
 20
19.82100172453266
 30
0.0
 11
17.51141147070458
 21
19.92100172453257
 31
0.0
  0
LINE
  5
96
330
2
100
AcDbEntity
  8
GAIKEI
  6
HIDDEN2
 62
     1
100
AcDbLine
 10
17.71141147070457
 20
16.82100172473252
 30
0.0
 11
17.61141147070461
 21
16.92100172473266
 31
0.0
  0
LINE
  5
97
330
2
100
AcDbEntity
  8
GAIKEI
  6
HIDDEN2
 62
     1
100
AcDbLine
 10
16.46152523370458
 20
19.96006401713254
 30
0.0
 11
16.38801010310462
 21
20.01204706453274
 31
0.0
  0
LINE
  5
98
330
2
100
AcDbEntity
  8
GAIKEI
  6
HIDDEN2
 62
     1
100
AcDbLine
 10
15.73481283830458
 20
20.01204706453274
 30
0.0
 11
15.67616346390457
 21
19.9705756941326
 31
0.0
  0
LINE
  5
99
330
2
100
AcDbEntity
  8
GAIKEI
  6
HIDDEN2
 62
     1
100
AcDbLine
 10
6.010579233904593
 20
10.79296865793259
 30
0.0
 11
6.010579233904593
 21
17.04903479153273
 31
0.0
  0
LINE
  5
9A
330
2
100
AcDbEntity
  8
GAIKEI
  6
HIDDEN2
 62
     1
100
AcDbLine
 10
6.004809793104612
 20
10.81243545133253
 30
0.0
 11
6.004809793104612
 21
17.02956799813256
 31
0.0
  0
LINE
  5
9B
330
2
100
AcDbEntity
  8
GAIKEI
  6
HIDDEN2
 62
     1
100
AcDbLine
 10
5.999112640104584
 20
10.83192352273255
 30
0.0
 11
5.999112640104584
 21
17.01007992673254
 31
0.0
  0
LINE
  5
9C
330
2
100
AcDbEntity
  8
GAIKEI
  6
HIDDEN2
 62
     1
100
AcDbLine
 10
5.993487132704586
 20
10.85143239513269
 30
0.0
 11
5.993487132704586
 21
16.99057105433263
 31
0.0
  0
LINE
  5
9D
330
2
100
AcDbEntity
  8
GAIKEI
  6
HIDDEN2
 62
     1
100
AcDbLine
 10
5.987932648504596
 20
10.87096160673269
 30
0.0
 11
5.987932648504596
 21
16.97104184273263
 31
0.0
  0
LINE
  5
9E
330
2
100
AcDbEntity
  8
GAIKEI
  6
HIDDEN2
 62
     1
100
AcDbLine
 10
5.982448584104616
 20
10.89051070933266
 30
0.0
 11
5.982448584104616
 21
16.95149274013266
 31
0.0
  0
LINE
  5
9F
330
2
100
AcDbEntity
  8
GAIKEI
  6
HIDDEN2
 62
     1
100
AcDbLine
 10
5.977034327704586
 20
10.91007925973264
 30
0.0
 11
5.977034327704586
 21
16.93192418973268
 31
0.0
  0
LINE
  5
A0
330
2
100
AcDbEntity
  8
GAIKEI
  6
HIDDEN2
 62
     1
100
AcDbLine
 10
5.9716892571046
 20
10.92966682053253
 30
0.0
 11
5.9716892571046
 21
16.91233662893256
 31
0.0
  0
LINE
  5
A1
330
2
100
AcDbEntity
  8
GAIKEI
  6
HIDDEN2
 62
     1
100
AcDbLine
 10
5.966412750504588
 20
10.94927296133261
 30
0.0
 11
5.966412750504588
 21
16.89273048813271
 31
0.0
  0
LINE
  5
A2
330
2
100
AcDbEntity
  8
GAIKEI
  6
HIDDEN2
 62
     1
100
AcDbLine
 10
5.961204184304591
 20
10.96889725993247
 30
0.0
 11
5.961204184304591
 21
16.87310618953262
 31
0.0
  0
LINE
  5
A3
330
2
100
AcDbEntity
  8
GAIKEI
  6
HIDDEN2
 62
     1
100
AcDbLine
 10
5.956062934304583
 20
10.98853930053252
 30
0.0
 11
5.956062934304583
 21
16.85346414893257
 31
0.0
  0
LINE
  5
A4
330
2
100
AcDbEntity
  8
GAIKEI
  6
HIDDEN2
 62
     1
100
AcDbLine
 10
5.9509883735046
 20
11.00819867593265
 30
0.0
 11
5.9509883735046
 21
16.83380477353267
 31
0.0
  0
LINE
  5
A5
330
2
100
AcDbEntity
  8
GAIKEI
  6
HIDDEN2
 62
     1
100
AcDbLine
 10
5.945979875304573
 20
11.02787498413255
 30
0.0
 11
5.945979875304573
 21
16.81412846533254
 31
0.0
  0
LINE
  5
A6
330
2
100
AcDbEntity
  8
GAIKEI
  6
HIDDEN2
 62
     1
100
AcDbLine
 10
5.941036811904581
 20
11.04756783233262
 30
0.0
 11
5.941036811904581
 21
16.7944356171327
 31
0.0
  0
LINE
  5
A7
330
2
100
AcDbEntity
  8
GAIKEI
  6
HIDDEN2
 62
     1
100
AcDbLine
 10
5.936158555904597
 20
11.06727683333253
 30
0.0
 11
5.936158555904597
 21
16.77472661613257
 31
0.0
  0
LINE
  5
A8
330
2
100
AcDbEntity
  8
GAIKEI
  6
HIDDEN2
 62
     1
100
AcDbLine
 10
5.931344479904595
 20
11.08700160873269
 30
0.0
 11
5.931344479904595
 21
16.75500184073263
 31
0.0
  0
LINE
  5
A9
330
2
100
AcDbEntity
  8
GAIKEI
  6
HIDDEN2
 62
     1
100
AcDbLine
 10
5.9265939579046
 20
11.10674178593268
 30
0.0
 11
5.9265939579046
 21
16.73526166353264
 31
0.0
  0
LINE
  5
AA
330
2
100
AcDbEntity
  8
GAIKEI
  6
HIDDEN2
 62
     1
100
AcDbLine
 10
5.921906364304589
 20
11.12649700053276
 30
0.0
 11
5.921906364304589
 21
16.71550644893256
 31
0.0
  0
LINE
  5
AB
330
2
100
AcDbEntity
  8
GAIKEI
  6
HIDDEN2
 62
     1
100
AcDbLine
 10
5.917281075504604
 20
11.14626689453263
 30
0.0
 11
5.917281075504604
 21
16.69573655493246
 31
0.0
  0
LINE
  5
AC
330
2
100
AcDbEntity
  8
GAIKEI
  6
HIDDEN2
 62
     1
100
AcDbLine
 10
5.912717469104592
 20
11.16605111773248
 30
0.0
 11
5.912717469104592
 21
16.67595233173261
 31
0.0
  0
LINE
  5
AD
330
2
100
AcDbEntity
  8
GAIKEI
  6
HIDDEN2
 62
     1
100
AcDbLine
 10
5.908214925504609
 20
11.18584932613254
 30
0.0
 11
5.908214925504609
 21
16.65615412333255
 31
0.0
  0
LINE
  5
AE
330
2
100
AcDbEntity
  8
GAIKEI
  6
HIDDEN2
 62
     1
100
AcDbLine
 10
5.9037728285046
 20
11.20566118413268
 30
0.0
 11
5.9037728285046
 21
16.63634226533264
 31
0.0
  0
LINE
  5
AF
330
2
100
AcDbEntity
  8
GAIKEI
  6
HIDDEN2
 62
     1
100
AcDbLine
 10
5.899390562904585
 20
11.22548636153266
 30
0.0
 11
5.899390562904585
 21
16.61651708793266
 31
0.0
  0
LINE
  5
B0
330
2
100
AcDbEntity
  8
GAIKEI
  6
HIDDEN2
 62
     1
100
AcDbLine
 10
5.895067514304599
 20
11.24532453573266
 30
0.0
 11
5.895067514304599
 21
16.59667891373266
 31
0.0
  0
LINE
  5
B1
330
2
100
AcDbEntity
  8
GAIKEI
  6
HIDDEN2
 62
     1
100
AcDbLine
 10
5.890803076104589
 20
11.26517539033267
 30
0.0
 11
5.890803076104589
 21
16.57682805913265
 31
0.0
  0
LINE
  5
B2
330
2
100
AcDbEntity
  8
GAIKEI
  6
HIDDEN2
 62
     1
100
AcDbLine
 10
5.886596658304569
 20
11.2850386203325
 30
0.0
 11
5.886596658304569
 21
16.55696482913259
 31
0.0
  0
LINE
  5
B3
330
2
100
AcDbEntity
  8
GAIKEI
  6
HIDDEN2
 62
     1
100
AcDbLine
 10
5.882447655504591
 20
11.30491392153277
 30
0.0
 11
5.882447655504591
 21
16.53708952793255
 31
0.0
  0
LINE
  5
B4
330
2
100
AcDbEntity
  8
GAIKEI
  6
HIDDEN2
 62
     1
100
AcDbLine
 10
5.878355422504597
 20
11.32480098893262
 30
0.0
 11
5.878355422504597
 21
16.5172024605327
 31
0.0
  0
LINE
  5
B5
330
2
100
AcDbEntity
  8
GAIKEI
  6
HIDDEN2
 62
     1
100
AcDbLine
 10
5.874319346304588
 20
11.34469952833257
 30
0.0
 11
5.874319346304588
 21
16.49730392113275
 31
0.0
  0
LINE
  5
B6
330
2
100
AcDbEntity
  8
GAIKEI
  6
HIDDEN2
 62
     1
100
AcDbLine
 10
5.870338900304602
 20
11.36460927033255
 30
0.0
 11
5.870338900304602
 21
16.47739417913254
 31
0.0
  0
LINE
  5
B7
330
2
100
AcDbEntity
  8
GAIKEI
  6
HIDDEN2
 62
     1
100
AcDbLine
 10
5.866413532504594
 20
11.38452994373261
 30
0.0
 11
5.866413532504594
 21
16.45747350573271
 31
0.0
  0
LINE
  5
B8
330
2
100
AcDbEntity
  8
GAIKEI
  6
HIDDEN2
 62
     1
100
AcDbLine
 10
5.862542602504589
 20
11.40446126693251
 30
0.0
 11
5.862542602504589
 21
16.43754218253258
 31
0.0
  0
LINE
  5
B9
330
2
100
AcDbEntity
  8
GAIKEI
  6
HIDDEN2
 62
     1
100
AcDbLine
 10
5.858725472304598
 20
11.42440296233263
 30
0.0
 11
5.858725472304598
 21
16.41760048713269
 31
0.0
  0
LINE
  5
BA
330
2
100
AcDbEntity
  8
GAIKEI
  6
HIDDEN2
 62
     1
100
AcDbLine
 10
5.854961539104607
 20
11.44435476693257
 30
0.0
 11
5.854961539104607
 21
16.39764868253275
 31
0.0
  0
LINE
  5
BB
330
2
100
AcDbEntity
  8
GAIKEI
  6
HIDDEN2
 62
     1
100
AcDbLine
 10
5.85125023930459
 20
11.46431642853264
 30
0.0
 11
5.85125023930459
 21
16.37768702093268
 31
0.0
  0
LINE
  5
BC
330
2
100
AcDbEntity
  8
GAIKEI
  6
HIDDEN2
 62
     1
100
AcDbLine
 10
5.84759109430459
 20
11.48428771593268
 30
0.0
 11
5.84759109430459
 21
16.35771573353264
 31
0.0
  0
LINE
  5
BD
330
2
100
AcDbEntity
  8
GAIKEI
  6
HIDDEN2
 62
     1
100
AcDbLine
 10
5.843983581504602
 20
11.50426839373273
 30
0.0
 11
5.843983581504602
 21
16.33773505573259
 31
0.0
  0
LINE
  5
BE
330
2
100
AcDbEntity
  8
GAIKEI
  6
HIDDEN2
 62
     1
100
AcDbLine
 10
5.840427040304604
 20
11.52425820753257
 30
0.0
 11
5.840427040304604
 21
16.31774524193253
 31
0.0
  0
LINE
  5
BF
330
2
100
AcDbEntity
  8
GAIKEI
  6
HIDDEN2
 62
     1
100
AcDbLine
 10
5.836920850104604
 20
11.54425691353259
 30
0.0
 11
5.836920850104604
 21
16.2977465359325
 31
0.0
  0
LINE
  5
C0
330
2
100
AcDbEntity
  8
GAIKEI
  6
HIDDEN2
 62
     1
100
AcDbLine
 10
5.833464540704596
 20
11.56426430013272
 30
0.0
 11
5.833464540704596
 21
16.2777391493326
 31
0.0
  0
LINE
  5
C1
330
2
100
AcDbEntity
  8
GAIKEI
  6
HIDDEN2
 62
     1
100
AcDbLine
 10
5.830057613104571
 20
11.5842801543327
 30
0.0
 11
5.830057613104571
 21
16.25772329513262
 31
0.0
  0
LINE
  5
C2
330
2
100
AcDbEntity
  8
GAIKEI
  6
HIDDEN2
 62
     1
100
AcDbLine
 10
5.826699439104601
 20
11.60430424593261
 30
0.0
 11
5.826699439104601
 21
16.23769920353271
 31
0.0
  0
LINE
  5
C3
330
2
100
AcDbEntity
  8
GAIKEI
  6
HIDDEN2
 62
     1
100
AcDbLine
 10
5.823389429304569
 20
11.62433635493249
 30
0.0
 11
5.823389429304569
 21
16.2176670945326
 31
0.0
  0
LINE
  5
C4
330
2
100
AcDbEntity
  8
GAIKEI
  6
HIDDEN2
 62
     1
100
AcDbLine
 10
5.820127137104577
 20
11.64437628973252
 30
0.0
 11
5.820127137104577
 21
16.19762715973257
 31
0.0
  0
LINE
  5
C5
330
2
100
AcDbEntity
  8
GAIKEI
  6
HIDDEN2
 62
     1
100
AcDbLine
 10
5.816912097104591
 20
11.66442385913257
 30
0.0
 11
5.816912097104591
 21
16.17757959033253
 31
0.0
  0
LINE
  5
C6
330
2
100
AcDbEntity
  8
GAIKEI
  6
HIDDEN2
 62
     1
100
AcDbLine
 10
5.813743744704595
 20
11.68447886013251
 30
0.0
 11
5.813743744704595
 21
16.15752458933258
 31
0.0
  0
LINE
  5
C7
330
2
100
AcDbEntity
  8
GAIKEI
  6
HIDDEN2
 62
     1
100
AcDbLine
 10
5.8106215151046
 20
11.70454109273265
 30
0.0
 11
5.8106215151046
 21
16.13746235673267
 31
0.0
  0
LINE
  5
C8
330
2
100
AcDbEntity
  8
GAIKEI
  6
HIDDEN2
 62
     1
100
AcDbLine
 10
5.807544879504604
 20
11.72461036773262
 30
0.0
 11
5.807544879504604
 21
16.1173930817327
 31
0.0
  0
LINE
  5
C9
330
2
100
AcDbEntity
  8
GAIKEI
  6
HIDDEN2
 62
     1
100
AcDbLine
 10
5.804513323504608
 20
11.74468650133263
 30
0.0
 11
5.804513323504608
 21
16.09731694813268
 31
0.0
  0
LINE
  5
CA
330
2
100
AcDbEntity
  8
GAIKEI
  6
HIDDEN2
 62
     1
100
AcDbLine
 10
5.801526357304595
 20
11.76476931733265
 30
0.0
 11
5.801526357304595
 21
16.07723413213267
 31
0.0
  0
LINE
  5
CB
330
2
100
AcDbEntity
  8
GAIKEI
  6
HIDDEN2
 62
     1
100
AcDbLine
 10
5.798583508304602
 20
11.78485864493251
 30
0.0
 11
5.798583508304602
 21
16.05714480453258
 31
0.0
  0
LINE
  5
CC
330
2
100
AcDbEntity
  8
GAIKEI
  6
HIDDEN2
 62
     1
100
AcDbLine
 10
5.795684336304589
 20
11.80495432213257
 30
0.0
 11
5.795684336304589
 21
16.03704912733252
 31
0.0
  0
LINE
  5
CD
330
2
100
AcDbEntity
  8
GAIKEI
  6
HIDDEN2
 62
     1
100
AcDbLine
 10
5.792828369304601
 20
11.82505618473266
 30
0.0
 11
5.792828369304601
 21
16.01694726473266
 31
0.0
  0
LINE
  5
CE
330
2
100
AcDbEntity
  8
GAIKEI
  6
HIDDEN2
 62
     1
100
AcDbLine
 10
5.790015054504578
 20
11.84516406093263
 30
0.0
 11
5.790015054504578
 21
15.99683938853269
 31
0.0
  0
LINE
  5
CF
330
2
100
AcDbEntity
  8
GAIKEI
  6
HIDDEN2
 62
     1
100
AcDbLine
 10
5.787243865504592
 20
11.86527778533269
 30
0.0
 11
5.787243865504592
 21
15.97672566413263
 31
0.0
  0
LINE
  5
D0
330
2
100
AcDbEntity
  8
GAIKEI
  6
HIDDEN2
 62
     1
100
AcDbLine
 10
5.784514356904594
 20
11.88539720833256
 30
0.0
 11
5.784514356904594
 21
15.95660624113276
 31
0.0
  0
LINE
  5
D1
330
2
100
AcDbEntity
  8
GAIKEI
  6
HIDDEN2
 62
     1
100
AcDbLine
 10
5.781826101904584
 20
11.90552218453268
 30
0.0
 11
5.781826101904584
 21
15.93648126493263
 31
0.0
  0
LINE
  5
D2
330
2
100
AcDbEntity
  8
GAIKEI
  6
HIDDEN2
 62
     1
100
AcDbLine
 10
5.779178691704572
 20
11.92565257453276
 30
0.0
 11
5.779178691704572
 21
15.91635087493256
 31
0.0
  0
LINE
  5
D3
330
2
100
AcDbEntity
  8
GAIKEI
  6
HIDDEN2
 62
     1
100
AcDbLine
 10
5.776571683104606
 20
11.94578823613261
 30
0.0
 11
5.776571683104606
 21
15.89621521333271
 31
0.0
  0
LINE
  5
D4
330
2
100
AcDbEntity
  8
GAIKEI
  6
HIDDEN2
 62
     1
100
AcDbLine
 10
5.774004558304596
 20
11.96592902133267
 30
0.0
 11
5.774004558304596
 21
15.87607442813265
 31
0.0
  0
LINE
  5
D5
330
2
100
AcDbEntity
  8
GAIKEI
  6
HIDDEN2
 62
     1
100
AcDbLine
 10
5.771476829704596
 20
11.98607478853279
 30
0.0
 11
5.771476829704596
 21
15.85592866093253
 31
0.0
  0
LINE
  5
D6
330
2
100
AcDbEntity
  8
GAIKEI
  6
HIDDEN2
 62
     1
100
AcDbLine
 10
5.768988086304602
 20
12.00622540873252
 30
0.0
 11
5.768988086304602
 21
15.83577804073257
 31
0.0
  0
LINE
  5
D7
330
2
100
AcDbEntity
  8
GAIKEI
  6
HIDDEN2
 62
     1
100
AcDbLine
 10
5.766537941504594
 20
12.02638075853252
 30
0.0
 11
5.766537941504594
 21
15.81562269093257
 31
0.0
  0
LINE
  5
D8
330
2
100
AcDbEntity
  8
GAIKEI
  6
HIDDEN2
 62
     1
100
AcDbLine
 10
5.764126038304596
 20
12.04654071993269
 30
0.0
 11
5.764126038304596
 21
15.79546272953263
 31
0.0
  0
LINE
  5
D9
330
2
100
AcDbEntity
  8
GAIKEI
  6
HIDDEN2
 62
     1
100
AcDbLine
 10
5.7617519591046
 20
12.06670517033268
 30
0.0
 11
5.7617519591046
 21
15.77529827913264
 31
0.0
  0
LINE
  5
DA
330
2
100
AcDbEntity
  8
GAIKEI
  6
HIDDEN2
 62
     1
100
AcDbLine
 10
5.759415170104574
 20
12.08687397613272
 30
0.0
 11
5.759415170104574
 21
15.7551294733326
 31
0.0
  0
LINE
  5
DB
330
2
100
AcDbEntity
  8
GAIKEI
  6
HIDDEN2
 62
     1
100
AcDbLine
 10
5.757115211104604
 20
12.1070470147327
 30
0.0
 11
5.757115211104604
 21
15.73495643473262
 31
0.0
  0
LINE
  5
DC
330
2
100
AcDbEntity
  8
GAIKEI
  6
HIDDEN2
 62
     1
100
AcDbLine
 10
5.754851771104597
 20
12.12722418313257
 30
0.0
 11
5.754851771104597
 21
15.71477926633253
 31
0.0
  0
LINE
  5
DD
330
2
100
AcDbEntity
  8
GAIKEI
  6
HIDDEN2
 62
     1
100
AcDbLine
 10
5.752624528304608
 20
12.1474053793325
 30
0.0
 11
5.752624528304608
 21
15.6945980701326
 31
0.0
  0
LINE
  5
DE
330
2
100
AcDbEntity
  8
GAIKEI
  6
HIDDEN2
 62
     1
100
AcDbLine
 10
5.750433119104599
 20
12.16759049753278
 30
0.0
 11
5.750433119104599
 21
15.67441295193254
 31
0.0
  0
LINE
  5
DF
330
2
100
AcDbEntity
  8
GAIKEI
  6
HIDDEN2
 62
     1
100
AcDbLine
 10
5.748277125504586
 20
12.18777942913272
 30
0.0
 11
5.748277125504586
 21
15.6542240203326
 31
0.0
  0
LINE
  5
E0
330
2
100
AcDbEntity
  8
GAIKEI
  6
HIDDEN2
 62
     1
100
AcDbLine
 10
5.746156052904581
 20
12.20797205953255
 30
0.0
 11
5.746156052904581
 21
15.63403138993254
 31
0.0
  0
LINE
  5
E1
330
2
100
AcDbEntity
  8
GAIKEI
  6
HIDDEN2
 62
     1
100
AcDbLine
 10
5.744069511504619
 20
12.22816828693254
 30
0.0
 11
5.744069511504619
 21
15.61383516253278
 31
0.0
  0
LINE
  5
E2
330
2
100
AcDbEntity
  8
GAIKEI
  6
HIDDEN2
 62
     1
100
AcDbLine
 10
5.742017275904601
 20
12.24836802873261
 30
0.0
 11
5.742017275904601
 21
15.59363542073248
 31
0.0
  0
LINE
  5
E3
330
2
100
AcDbEntity
  8
GAIKEI
  6
HIDDEN2
 62
     1
100
AcDbLine
 10
5.73999902010459
 20
12.26857119413267
 30
0.0
 11
5.73999902010459
 21
15.57343225533265
 31
0.0
  0
LINE
  5
E4
330
2
100
AcDbEntity
  8
GAIKEI
  6
HIDDEN2
 62
     1
100
AcDbLine
 10
5.738014256104605
 20
12.28877767713271
 30
0.0
 11
5.738014256104605
 21
15.55322577233261
 31
0.0
  0
LINE
  5
E5
330
2
100
AcDbEntity
  8
GAIKEI
  6
HIDDEN2
 62
     1
100
AcDbLine
 10
5.736062586504601
 20
12.30898738313255
 30
0.0
 11
5.736062586504601
 21
15.53301606633255
 31
0.0
  0
LINE
  5
E6
330
2
100
AcDbEntity
  8
GAIKEI
  6
HIDDEN2
 62
     1
100
AcDbLine
 10
5.734143751504603
 20
12.32920023293269
 30
0.0
 11
5.734143751504603
 21
15.51280321653263
 31
0.0
  0
LINE
  5
E7
330
2
100
AcDbEntity
  8
GAIKEI
  6
HIDDEN2
 62
     1
100
AcDbLine
 10
5.732257449504601
 20
12.34941614453265
 30
0.0
 11
5.732257449504601
 21
15.49258730493244
 31
0.0
  0
LINE
  5
E8
330
2
100
AcDbEntity
  8
GAIKEI
  6
HIDDEN2
 62
     1
100
AcDbLine
 10
5.730403313504609
 20
12.36963503173257
 30
0.0
 11
5.730403313504609
 21
15.47236841773252
 31
0.0
  0
LINE
  5
E9
330
2
100
AcDbEntity
  8
GAIKEI
  6
HIDDEN2
 62
     1
100
AcDbLine
 10
5.728581004704608
 20
12.38985681213268
 30
0.0
 11
5.728581004704608
 21
15.45214663733264
 31
0.0
  0
LINE
  5
EA
330
2
100
AcDbEntity
  8
GAIKEI
  6
HIDDEN2
 62
     1
100
AcDbLine
 10
5.7267902239046
 20
12.41008140873265
 30
0.0
 11
5.7267902239046
 21
15.43192204073267
 31
0.0
  0
LINE
  5
EB
330
2
100
AcDbEntity
  8
GAIKEI
  6
HIDDEN2
 62
     1
100
AcDbLine
 10
5.725030657304586
 20
12.43030874473248
 30
0.0
 11
5.725030657304586
 21
15.41169470473261
 31
0.0
  0
LINE
  5
EC
330
2
100
AcDbEntity
  8
GAIKEI
  6
HIDDEN2
 62
     1
100
AcDbLine
 10
5.7233019725046
 20
12.45053874333263
 30
0.0
 11
5.7233019725046
 21
15.39146470613269
 31
0.0
  0
LINE
  5
ED
330
2
100
AcDbEntity
  8
GAIKEI
  6
HIDDEN2
 62
     1
100
AcDbLine
 10
5.721603866504608
 20
12.47077133173258
 30
0.0
 11
5.721603866504608
 21
15.37123211773274
 31
0.0
  0
LINE
  5
EE
330
2
100
AcDbEntity
  8
GAIKEI
  6
HIDDEN2
 62
     1
100
AcDbLine
 10
5.71993606750459
 20
12.49100644053266
 30
0.0
 11
5.71993606750459
 21
15.35099700893266
 31
0.0
  0
LINE
  5
EF
330
2
100
AcDbEntity
  8
GAIKEI
  6
HIDDEN2
 62
     1
100
AcDbLine
 10
5.718298266904582
 20
12.51124399933252
 30
0.0
 11
5.718298266904582
 21
15.33075945013257
 31
0.0
  0
LINE
  5
F0
330
2
100
AcDbEntity
  8
GAIKEI
  6
HIDDEN2
 62
     1
100
AcDbLine
 10
5.716690120304605
 20
12.53148393633256
 30
0.0
 11
5.716690120304605
 21
15.31051951313253
 31
0.0
  0
LINE
  5
F1
330
2
100
AcDbEntity
  8
GAIKEI
  6
HIDDEN2
 62
     1
100
AcDbLine
 10
5.715111324704594
 20
12.55172618353259
 30
0.0
 11
5.715111324704594
 21
15.2902772659325
 31
0.0
  0
LINE
  5
F2
330
2
100
AcDbEntity
  8
GAIKEI
  6
HIDDEN2
 62
     1
100
AcDbLine
 10
5.713561619904595
 20
12.57197067873272
 30
0.0
 11
5.713561619904595
 21
15.2700327707326
 31
0.0
  0
LINE
  5
F3
330
2
100
AcDbEntity
  8
GAIKEI
  6
HIDDEN2
 62
     1
100
AcDbLine
 10
5.712040759504589
 20
12.59221736113255
 30
0.0
 11
5.712040759504589
 21
15.24978608833254
 31
0.0
  0
LINE
  5
F4
330
2
100
AcDbEntity
  8
GAIKEI
  6
HIDDEN2
 62
     1
100
AcDbLine
 10
5.710548507504597
 20
12.61246617213265
 30
0.0
 11
5.710548507504597
 21
15.22953727733266
 31
0.0
  0
LINE
  5
F5
330
2
100
AcDbEntity
  8
GAIKEI
  6
HIDDEN2
 62
     1
100
AcDbLine
 10
5.7090846063046
 20
12.63271705233256
 30
0.0
 11
5.7090846063046
 21
15.20928639713253
 31
0.0
  0
LINE
  5
F6
330
2
100
AcDbEntity
  8
GAIKEI
  6
HIDDEN2
 62
     1
100
AcDbLine
 10
5.707648779104573
 20
12.6529699423325
 30
0.0
 11
5.707648779104573
 21
15.18903350713259
 31
0.0
  0
LINE
  5
F7
330
2
100
AcDbEntity
  8
GAIKEI
  6
HIDDEN2
 62
     1
100
AcDbLine
 10
5.7062407391046
 20
12.67322478313264
 30
0.0
 11
5.7062407391046
 21
15.16877866633246
 31
0.0
  0
LINE
  5
F8
330
2
100
AcDbEntity
  8
GAIKEI
  6
HIDDEN2
 62
     1
100
AcDbLine
 10
5.704860196704601
 20
12.69348151653258
 30
0.0
 11
5.704860196704601
 21
15.14852193293251
 31
0.0
  0
LINE
  5
F9
330
2
100
AcDbEntity
  8
GAIKEI
  6
HIDDEN2
 62
     1
100
AcDbLine
 10
5.703506919304601
 20
12.71374008973254
 30
0.0
 11
5.703506919304601
 21
15.12826335973256
 31
0.0
  0
LINE
  5
FA
330
2
100
AcDbEntity
  8
GAIKEI
  6
HIDDEN2
 62
     1
100
AcDbLine
 10
5.702180712104592
 20
12.73400045273257
 30
0.0
 11
5.702180712104592
 21
15.10800299673252
 31
0.0
  0
LINE
  5
FB
330
2
100
AcDbEntity
  8
GAIKEI
  6
HIDDEN2
 62
     1
100
AcDbLine
 10
5.700881327304585
 20
12.75426255373264
 30
0.0
 11
5.700881327304585
 21
15.08774089573268
 31
0.0
  0
LINE
  5
FC
330
2
100
AcDbEntity
  8
GAIKEI
  6
HIDDEN2
 62
     1
100
AcDbLine
 10
5.69960848510459
 20
12.77452633933268
 30
0.0
 11
5.69960848510459
 21
15.06747711013264
 31
0.0
  0
LINE
  5
FD
330
2
100
AcDbEntity
  8
GAIKEI
  6
HIDDEN2
 62
     1
100
AcDbLine
 10
5.69836197550461
 20
12.7947917617326
 30
0.0
 11
5.69836197550461
 21
15.04721168773272
 31
0.0
  0
LINE
  5
FE
330
2
100
AcDbEntity
  8
GAIKEI
  6
HIDDEN2
 62
     1
100
AcDbLine
 10
5.697141629304582
 20
12.81505877653268
 30
0.0
 11
5.697141629304582
 21
15.02694467293264
 31
0.0
  0
LINE
  5
FF
330
2
100
AcDbEntity
  8
GAIKEI
  6
HIDDEN2
 62
     1
100
AcDbLine
 10
5.695947226304582
 20
12.83532733653266
 30
0.0
 11
5.695947226304582
 21
15.00667611293244
 31
0.0
  0
LINE
  5
100
330
2
100
AcDbEntity
  8
GAIKEI
  6
HIDDEN2
 62
     1
100
AcDbLine
 10
5.694778519304577
 20
12.85559739453271
 30
0.0
 11
5.694778519304577
 21
14.98640605493261
 31
0.0
  0
LINE
  5
101
330
2
100
AcDbEntity
  8
GAIKEI
  6
HIDDEN2
 62
     1
100
AcDbLine
 10
5.693635302504588
 20
12.87586890593258
 30
0.0
 11
5.693635302504588
 21
14.96613454353274
 31
0.0
  0
LINE
  5
102
330
2
100
AcDbEntity
  8
GAIKEI
  6
HIDDEN2
 62
     1
100
AcDbLine
 10
5.692517389904594
 20
12.89614182833253
 30
0.0
 11
5.692517389904594
 21
14.94586162113256
 31
0.0
  0
LINE
  5
103
330
2
100
AcDbEntity
  8
GAIKEI
  6
HIDDEN2
 62
     1
100
AcDbLine
 10
5.691424574304591
 20
12.91641611933261
 30
0.0
 11
5.691424574304591
 21
14.92558733013271
 31
0.0
  0
LINE
  5
104
330
2
100
AcDbEntity
  8
GAIKEI
  6
HIDDEN2
 62
     1
100
AcDbLine
 10
5.690356643104593
 20
12.93669173613267
 30
0.0
 11
5.690356643104593
 21
14.90531171333265
 31
0.0
  0
LINE
  5
105
330
2
100
AcDbEntity
  8
GAIKEI
  6
HIDDEN2
 62
     1
100
AcDbLine
 10
5.6893134259046
 20
12.95696863953259
 30
0.0
 11
5.6893134259046
 21
14.8850348099325
 31
0.0
  0
LINE
  5
106
330
2
100
AcDbEntity
  8
GAIKEI
  6
HIDDEN2
 62
     1
100
AcDbLine
 10
5.688294765504593
 20
12.97724679113258
 30
0.0
 11
5.688294765504593
 21
14.86475665833251
 31
0.0
  0
LINE
  5
107
330
2
100
AcDbEntity
  8
GAIKEI
  6
HIDDEN2
 62
     1
100
AcDbLine
 10
5.687300449304615
 20
12.99752615113272
 30
0.0
 11
5.687300449304615
 21
14.8444772983326
 31
0.0
  0
LINE
  5
108
330
2
100
AcDbEntity
  8
GAIKEI
  6
HIDDEN2
 62
     1
100
AcDbLine
 10
5.686330251504585
 20
13.01780667933263
 30
0.0
 11
5.686330251504585
 21
14.82419677013268
 31
0.0
  0
LINE
  5
109
330
2
100
AcDbEntity
  8
GAIKEI
  6
HIDDEN2
 62
     1
100
AcDbLine
 10
5.685384025904596
 20
13.03808833993258
 30
0.0
 11
5.685384025904596
 21
14.80391510953274
 31
0.0
  0
LINE
  5
10A
330
2
100
AcDbEntity
  8
GAIKEI
  6
HIDDEN2
 62
     1
100
AcDbLine
 10
5.684461648704598
 20
13.05837109913255
 30
0.0
 11
5.684461648704598
 21
14.78363235033254
 31
0.0
  0
LINE
  5
10B
330
2
100
AcDbEntity
  8
GAIKEI
  6
HIDDEN2
 62
     1
100
AcDbLine
 10
5.683562930704596
 20
13.07865492053275
 30
0.0
 11
5.683562930704596
 21
14.76334852893257
 31
0.0
  0
LINE
  5
10C
330
2
100
AcDbEntity
  8
GAIKEI
  6
HIDDEN2
 62
     1
100
AcDbLine
 10
5.682687671704599
 20
13.09893976753261
 30
0.0
 11
5.682687671704599
 21
14.74306368193248
 31
0.0
  0
LINE
  5
10D
330
2
100
AcDbEntity
  8
GAIKEI
  6
HIDDEN2
 62
     1
100
AcDbLine
 10
5.6818357503046
 20
13.1192256079326
 30
0.0
 11
5.6818357503046
 21
14.72277784153272
 31
0.0
  0
LINE
  5
10E
330
2
100
AcDbEntity
  8
GAIKEI
  6
HIDDEN2
 62
     1
100
AcDbLine
 10
5.681007063704583
 20
13.13951241093269
 30
0.0
 11
5.681007063704583
 21
14.70249103853262
 31
0.0
  0
LINE
  5
10F
330
2
100
AcDbEntity
  8
GAIKEI
  6
HIDDEN2
 62
     1
100
AcDbLine
 10
5.68020146230458
 20
13.15980014353278
 30
0.0
 11
5.68020146230458
 21
14.68220330593254
 31
0.0
  0
LINE
  5
110
330
2
100
AcDbEntity
  8
GAIKEI
  6
HIDDEN2
 62
     1
100
AcDbLine
 10
5.679418782104619
 20
13.18008877353264
 30
0.0
 11
5.679418782104619
 21
14.66191467593268
 31
0.0
  0
LINE
  5
111
330
2
100
AcDbEntity
  8
GAIKEI
  6
HIDDEN2
 62
     1
100
AcDbLine
 10
5.678658862304587
 20
13.20037826853269
 30
0.0
 11
5.678658862304587
 21
14.64162518093263
 31
0.0
  0
LINE
  5
112
330
2
100
AcDbEntity
  8
GAIKEI
  6
HIDDEN2
 62
     1
100
AcDbLine
 10
5.677921550904585
 20
13.22066859773264
 30
0.0
 11
5.677921550904585
 21
14.62133485173268
 31
0.0
  0
LINE
  5
113
330
2
100
AcDbEntity
  8
GAIKEI
  6
HIDDEN2
 62
     1
100
AcDbLine
 10
5.677206726904586
 20
13.24095973153277
 30
0.0
 11
5.677206726904586
 21
14.60104371793255
 31
0.0
  0
LINE
  5
114
330
2
100
AcDbEntity
  8
GAIKEI
  6
HIDDEN2
 62
     1
100
AcDbLine
 10
5.676514271504601
 20
13.26125164093247
 30
0.0
 11
5.676514271504601
 21
14.58075180853262
 31
0.0
  0
LINE
  5
115
330
2
100
AcDbEntity
  8
GAIKEI
  6
HIDDEN2
 62
     1
100
AcDbLine
 10
5.675844038704582
 20
13.28154429653256
 30
0.0
 11
5.675844038704582
 21
14.56045915293254
 31
0.0
  0
LINE
  5
116
330
2
100
AcDbEntity
  8
GAIKEI
  6
HIDDEN2
 62
     1
100
AcDbLine
 10
5.675195895904579
 20
13.30183766973261
 30
0.0
 11
5.675195895904579
 21
14.54016577973249
 31
0.0
  0
LINE
  5
117
330
2
100
AcDbEntity
  8
GAIKEI
  6
HIDDEN2
 62
     1
100
AcDbLine
 10
5.674569787104587
 20
13.32213173453266
 30
0.0
 11
5.674569787104587
 21
14.51987171493243
 31
0.0
  0
LINE
  5
118
330
2
100
AcDbEntity
  8
GAIKEI
  6
HIDDEN2
 62
     1
100
AcDbLine
 10
5.673965652704595
 20
13.34242646553258
 30
0.0
 11
5.673965652704595
 21
14.49957698393251
 31
0.0
  0
LINE
  5
119
330
2
100
AcDbEntity
  8
GAIKEI
  6
HIDDEN2
 62
     1
100
AcDbLine
 10
5.673383363904605
 20
13.36272183493253
 30
0.0
 11
5.673383363904605
 21
14.47928161453279
 31
0.0
  0
LINE
  5
11A
330
2
100
AcDbEntity
  8
GAIKEI
  6
HIDDEN2
 62
     1
100
AcDbLine
 10
5.672822774904602
 20
13.38301781513252
 30
0.0
 11
5.672822774904602
 21
14.45898563433258
 31
0.0
  0
LINE
  5
11B
330
2
100
AcDbEntity
  8
GAIKEI
  6
HIDDEN2
 62
     1
100
AcDbLine
 10
5.672283734504588
 20
13.40331437913261
 30
0.0
 11
5.672283734504588
 21
14.43868907033271
 31
0.0
  0
LINE
  5
11C
330
2
100
AcDbEntity
  8
GAIKEI
  6
HIDDEN2
 62
     1
100
AcDbLine
 10
5.671766122104571
 20
13.42361150093262
 30
0.0
 11
5.671766122104571
 21
14.4183919485327
 31
0.0
  0
LINE
  5
11D
330
2
100
AcDbEntity
  8
GAIKEI
  6
HIDDEN2
 62
     1
100
AcDbLine
 10
5.671269905904608
 20
13.44390915713262
 30
0.0
 11
5.671269905904608
 21
14.3980942923327
 31
0.0
  0
LINE
  5
11E
330
2
100
AcDbEntity
  8
GAIKEI
  6
HIDDEN2
 62
     1
100
AcDbLine
 10
5.670795052704619
 20
13.46420732413259
 30
0.0
 11
5.670795052704619
 21
14.37779612533251
 31
0.0
  0
LINE
  5
11F
330
2
100
AcDbEntity
  8
GAIKEI
  6
HIDDEN2
 62
     1
100
AcDbLine
 10
5.67034148690459
 20
13.48450597813263
 30
0.0
 11
5.67034148690459
 21
14.35749747133246
 31
0.0
  0
LINE
  5
120
330
2
100
AcDbEntity
  8
GAIKEI
  6
HIDDEN2
 62
     1
100
AcDbLine
 10
5.669909118304616
 20
13.50480509453274
 30
0.0
 11
5.669909118304616
 21
14.33719835493258
 31
0.0
  0
LINE
  5
121
330
2
100
AcDbEntity
  8
GAIKEI
  6
HIDDEN2
 62
     1
100
AcDbLine
 10
5.669497839304597
 20
13.52510464933272
 30
0.0
 11
5.669497839304597
 21
14.3168988001326
 31
0.0
  0
LINE
  5
122
330
2
100
AcDbEntity
  8
GAIKEI
  6
HIDDEN2
 62
     1
100
AcDbLine
 10
5.669107544704587
 20
13.5454046183325
 30
0.0
 11
5.669107544704587
 21
14.2965988311326
 31
0.0
  0
LINE
  5
123
330
2
100
AcDbEntity
  8
GAIKEI
  6
HIDDEN2
 62
     1
100
AcDbLine
 10
5.668738141504604
 20
13.5657049781326
 30
0.0
 11
5.668738141504604
 21
14.27629847133249
 31
0.0
  0
LINE
  5
124
330
2
100
AcDbEntity
  8
GAIKEI
  6
HIDDEN2
 62
     1
100
AcDbLine
 10
5.668389571104597
 20
13.58600570633263
 30
0.0
 11
5.668389571104597
 21
14.25599774313269
 31
0.0
  0
LINE
  5
125
330
2
100
AcDbEntity
  8
GAIKEI
  6
HIDDEN2
 62
     1
100
AcDbLine
 10
5.668061841304592
 20
13.60630678173271
 30
0.0
 11
5.668061841304592
 21
14.23569666773261
 31
0.0
  0
LINE
  5
126
330
2
100
AcDbEntity
  8
GAIKEI
  6
HIDDEN2
 62
     1
100
AcDbLine
 10
5.667754923304613
 20
13.62660818233263
 30
0.0
 11
5.667754923304613
 21
14.21539526713269
 31
0.0
  0
LINE
  5
127
330
2
100
AcDbEntity
  8
GAIKEI
  6
HIDDEN2
 62
     1
100
AcDbLine
 10
5.667468705104596
 20
13.64690988553258
 30
0.0
 11
5.667468705104596
 21
14.19509356393251
 31
0.0
  0
LINE
  5
128
330
2
100
AcDbEntity
  8
GAIKEI
  6
HIDDEN2
 62
     1
100
AcDbLine
 10
5.66720310990459
 20
13.66721186873252
 30
0.0
 11
5.66720310990459
 21
14.17479158073257
 31
0.0
  0
LINE
  5
129
330
2
100
AcDbEntity
  8
GAIKEI
  6
HIDDEN2
 62
     1
100
AcDbLine
 10
5.6669581379046
 20
13.68751411133263
 30
0.0
 11
5.6669581379046
 21
14.15448933813269
 31
0.0
  0
LINE
  5
12A
330
2
100
AcDbEntity
  8
GAIKEI
  6
HIDDEN2
 62
     1
100
AcDbLine
 10
5.666733771504596
 20
13.70781659213259
 30
0.0
 11
5.666733771504596
 21
14.13418685733251
 31
0.0
  0
LINE
  5
12B
330
2
100
AcDbEntity
  8
GAIKEI
  6
HIDDEN2
 62
     1
100
AcDbLine
 10
5.666529953104571
 20
13.72811928953257
 30
0.0
 11
5.666529953104571
 21
14.11388415993252
 31
0.0
  0
LINE
  5
12C
330
2
100
AcDbEntity
  8
GAIKEI
  6
HIDDEN2
 62
     1
100
AcDbLine
 10
5.666346617304583
 20
13.74842218233249
 30
0.0
 11
5.666346617304583
 21
14.0935812671326
 31
0.0
  0
LINE
  5
12D
330
2
100
AcDbEntity
  8
GAIKEI
  6
HIDDEN2
 62
     1
100
AcDbLine
 10
5.666183695104592
 20
13.76872524933247
 30
0.0
 11
5.666183695104592
 21
14.07327820013262
 31
0.0
  0
LINE
  5
12E
330
2
100
AcDbEntity
  8
GAIKEI
  6
HIDDEN2
 62
     1
100
AcDbLine
 10
5.666041159304597
 20
13.78902846953275
 30
0.0
 11
5.666041159304597
 21
14.05297497993257
 31
0.0
  0
LINE
  5
12F
330
2
100
AcDbEntity
  8
GAIKEI
  6
HIDDEN2
 62
     1
100
AcDbLine
 10
5.665919038104618
 20
13.80933182193263
 30
0.0
 11
5.665919038104618
 21
14.03267162753269
 31
0.0
  0
LINE
  5
130
330
2
100
AcDbEntity
  8
GAIKEI
  6
HIDDEN2
 62
     1
100
AcDbLine
 10
5.665817324304583
 20
13.82963528713259
 30
0.0
 11
5.665817324304583
 21
14.0123681623325
 31
0.0
  0
LINE
  5
131
330
2
100
AcDbEntity
  8
GAIKEI
  6
HIDDEN2
 62
     1
100
AcDbLine
 10
5.665735960704608
 20
13.84993884733245
 30
0.0
 11
5.665735960704608
 21
13.99206460213264
 31
0.0
  0
LINE
  5
132
330
2
100
AcDbEntity
  8
GAIKEI
  6
HIDDEN2
 62
     1
100
AcDbLine
 10
5.665674940704604
 20
13.87024247813275
 30
0.0
 11
5.665674940704604
 21
13.97176097133257
 31
0.0
  0
LINE
  5
133
330
2
100
AcDbEntity
  8
GAIKEI
  6
HIDDEN2
 62
     1
100
AcDbLine
 10
5.66563431630459
 20
13.89054614673256
 30
0.0
 11
5.66563431630459
 21
13.95145730273253
 31
0.0
  0
LINE
  5
134
330
2
100
AcDbEntity
  8
GAIKEI
  6
HIDDEN2
 62
     1
100
AcDbLine
 10
5.665614035104596
 20
13.91084985033245
 30
0.0
 11
5.665614035104596
 21
13.93115359913264
 31
0.0
  0
LINE
  5
135
330
2
100
AcDbEntity
  8
GAIKEI
  6
HIDDEN2
 62
     1
100
AcDbLine
 10
6.115022279704589
 20
9.019297939132741
 30
0.0
 11
6.115022279704589
 21
19.58100172473274
 31
0.0
  0
LINE
  5
136
330
2
100
AcDbEntity
  8
GAIKEI
  6
HIDDEN2
 62
     1
100
AcDbLine
 10
6.115022279704589
 20
8.261001724732579
 30
0.0
 11
6.115022279704589
 21
9.019297939132741
 31
0.0
  0
LINE
  5
137
330
2
100
AcDbEntity
  8
GAIKEI
  6
HIDDEN2
 62
     1
100
AcDbLine
 10
6.015022279704595
 20
9.105900479532749
 30
0.0
 11
6.015022279704595
 21
19.4810017247326
 31
0.0
  0
LINE
  5
138
330
2
100
AcDbEntity
  8
GAIKEI
  6
HIDDEN2
 62
     1
100
AcDbLine
 10
6.015022279704595
 20
8.361001724732489
 30
0.0
 11
6.015022279704595
 21
9.105900479532749
 31
0.0
  0
LINE
  5
139
330
2
100
AcDbEntity
  8
GAIKEI
  6
HIDDEN2
 62
     1
100
AcDbLine
 10
11.99503681870459
 20
8.02100172473257
 30
0.0
 11
11.99503681870459
 21
19.82100172473252
 31
0.0
  0
LINE
  5
13A
330
2
100
AcDbEntity
  8
GAIKEI
  6
HIDDEN2
 62
     1
100
AcDbLine
 10
6.315036818704584
 20
7.921001724732661
 30
0.0
 11
6.315036818704584
 21
19.92100172473266
 31
0.0
  0
LINE
  5
13B
330
2
100
AcDbEntity
  8
GAIKEI
  6
HIDDEN2
 62
     1
100
AcDbLine
 10
6.175036818704597
 20
8.061001724732534
 30
0.0
 11
6.175036818704597
 21
19.78100172473256
 31
0.0
  0
LWPOLYLINE
  5
13C
330
2
100
AcDbEntity
  8
GAIKEI
  6
HIDDEN2
 62
     1
100
AcDbPolyline
 90
       11
 70
     0
 43
0.0
 10
17.31341147070461
 20
7.921915553732617
 10
17.29877099410456
 20
7.924033231532632
 10
17.25650729450459
 20
7.926944734332721
 10
17.19133893930458
 20
7.929810809132561
 10
17.1105829565046
 20
7.931704651132633
 10
17.02342386870461
 20
7.931983022532733
 10
16.93970239110459
 20
7.930553108332617
 10
16.86876349550462
 20
7.927902431332597
 10
16.81858041450462
 20
7.92490102413268
 10
16.79487592610459
 20
7.922459756332557
 10
16.7965855825046
 20
7.922055170732676
  0
LWPOLYLINE
  5
13D
330
2
100
AcDbEntity
  8
GAIKEI
  6
HIDDEN2
 62
     1
100
AcDbPolyline
 90
       10
 70
     0
 43
0.0
 10
16.80031801750456
 20
7.921171900132605
 10
16.83424205750461
 20
7.921104784332612
 10
16.89286407110458
 20
7.921832213532582
 10
16.96963058090458
 20
7.922669718332656
 10
17.05582802630457
 20
7.923012758932657
 10
17.14168452430456
 20
7.9226327561326
 10
17.21759499130459
 20
7.921784517532671
 10
17.2750642055046
 20
7.92108282613259
 10
17.30756044990463
 20
7.921208983732697
 10
17.31341147070461
 20
7.921915553732617
  0
LINE
  5
13E
330
2
100
AcDbEntity
  8
GAIKEI
  6
HIDDEN2
 62
     1
100
AcDbLine
 10
17.51141147070458
 20
7.921001724732661
 30
0.0
 11
17.51141147070458
 21
19.92100172453257
 31
0.0
  0
LWPOLYLINE
  5
13F
330
2
100
AcDbEntity
  8
GAIKEI
  6
HIDDEN2
 62
     1
100
AcDbPolyline
 90
       20
 70
     0
 43
0.0
 10
17.31341147070461
 20
10.92100172473266
 10
17.29877099410456
 20
11.00701744573263
 10
17.25650729450459
 20
11.08333498173266
 10
17.19133893930458
 20
11.14140139213265
 10
17.1105829565046
 20
11.17463812033253
 10
17.02342386870461
 20
11.17926659593246
 10
16.93970239110459
 20
11.15481841613251
 10
16.86876349550462
 20
11.10404577733248
 10
16.81858041450462
 20
11.03260089613269
 10
16.79487592610459
 20
10.94855843293254
 10
16.80031801750456
 20
10.86147270713269
 10
16.83424205750461
 20
10.78112760873256
 10
16.89286407110458
 20
10.71649125433265
 10
16.96963058090458
 20
10.67487012873249
 10
17.05582802630457
 20
10.66101295513255
 10
17.14168452430456
 20
10.67644525253268
 10
17.21759499130459
 20
10.71939871973251
 10
17.2750642055046
 20
10.78509710693248
 10
17.30756044990463
 20
10.86615378593257
 10
17.31341147070461
 20
10.92100172473266
  0
LINE
  5
140
330
2
100
AcDbEntity
  8
GAIKEI
  6
HIDDEN2
 62
     1
100
AcDbLine
 10
12.08341147070459
 20
8.02100172473257
 30
0.0
 11
12.08341147070459
 21
19.82100172453266
 31
0.0
  0
LINE
  5
141
330
2
100
AcDbEntity
  8
GAIKEI
  6
HIDDEN2
 62
     1
100
AcDbLine
 10
17.61141147070461
 20
19.82100172453266
 30
0.0
 11
17.61141147070461
 21
8.02100172473257
 31
0.0
  0
LINE
  5
142
330
2
100
AcDbEntity
  8
GAIKEI
  6
HIDDEN2
 62
     1
100
AcDbLine
 10
17.71141147070457
 20
14.88110755073268
 30
0.0
 11
17.71141147070457
 21
11.0711075507325
 31
0.0
  0
LINE
  5
143
330
2
100
AcDbEntity
  8
GAIKEI
  6
HIDDEN2
 62
     1
100
AcDbLine
 10
17.71141147070457
 20
11.0711075507325
 30
0.0
 11
17.61141147070461
 21
10.99603848993257
 31
0.0
  0
LINE
  5
144
330
2
100
AcDbEntity
  8
GAIKEI
  6
HIDDEN2
 62
     1
100
AcDbLine
 10
17.61141147070461
 20
14.80603848993252
 30
0.0
 11
17.71141147070457
 21
14.88110755073268
 31
0.0
  0
LINE
  5
145
330
2
100
AcDbEntity
  8
GAIKEI
  6
HIDDEN2
 62
     1
100
AcDbLine
 10
17.61141147070461
 20
15.19100172473264
 30
0.0
 11
17.71141147070457
 21
15.19100172473264
 31
0.0
  0
LINE
  5
146
330
2
100
AcDbEntity
  8
GAIKEI
  6
HIDDEN2
 62
     1
100
AcDbLine
 10
17.71141147070457
 20
14.88110755073268
 30
0.0
 11
17.71141147070457
 21
15.19100172473264
 31
0.0
  0
LINE
  5
147
330
2
100
AcDbEntity
  8
GAIKEI
  6
HIDDEN2
 62
     1
100
AcDbLine
 10
17.71141147070457
 20
15.19100172473264
 30
0.0
 11
17.71141147070457
 21
15.81079007253271
 31
0.0
  0
LINE
  5
148
330
2
100
AcDbEntity
  8
GAIKEI
  6
HIDDEN2
 62
     1
100
AcDbLine
 10
17.71141147070457
 20
15.81079007253271
 30
0.0
 11
17.61141147070461
 21
15.96092819393249
 31
0.0
  0
LINE
  5
149
330
2
100
AcDbEntity
  8
GAIKEI
  6
HIDDEN2
 62
     1
100
AcDbLine
 10
17.71141147070457
 20
16.82100172473252
 30
0.0
 11
17.71141147070457
 21
15.81079007253271
 31
0.0
  0
LINE
  5
14A
330
2
100
AcDbEntity
  8
GAIKEI
  6
HIDDEN2
 62
     1
100
AcDbLine
 10
16.09750285770459
 20
19.92100172453257
 30
0.0
 11
16.09750285770459
 21
20.07073904633267
 31
0.0
  0
LINE
  5
14B
330
2
100
AcDbEntity
  8
GAIKEI
  6
HIDDEN2
 62
     1
100
AcDbLine
 10
16.03451520850461
 20
19.92100172453257
 30
0.0
 11
16.03451520850461
 21
20.05961250393244
 31
0.0
  0
LINE
  5
14C
330
2
100
AcDbEntity
  8
GAIKEI
  6
HIDDEN2
 62
     1
100
AcDbLine
 10
16.09750285770459
 20
20.07073904633267
 30
0.0
 11
16.03451520850461
 21
20.05961250393244
 31
0.0
  0
LINE
  5
14D
330
2
100
AcDbEntity
  8
GAIKEI
  6
HIDDEN2
 62
     1
100
AcDbLine
 10
16.16465383150461
 20
19.92100172453257
 30
0.0
 11
16.16465383150461
 21
20.05458692653275
 31
0.0
  0
LINE
  5
14E
330
2
100
AcDbEntity
  8
GAIKEI
  6
HIDDEN2
 62
     1
100
AcDbLine
 10
16.16465383150461
 20
20.05458692653275
 30
0.0
 11
16.09750285770459
 21
20.07073904633267
 31
0.0
  0
LINE
  5
14F
330
2
100
AcDbEntity
  8
GAIKEI
  6
HIDDEN2
 62
     1
100
AcDbLine
 10
15.97532747770458
 20
19.92100172453257
 30
0.0
 11
15.97532747770458
 21
20.06744822053275
 31
0.0
  0
LINE
  5
150
330
2
100
AcDbEntity
  8
GAIKEI
  6
HIDDEN2
 62
     1
100
AcDbLine
 10
15.90620952150459
 20
19.92100172453257
 30
0.0
 11
15.90620952150459
 21
20.04762566173264
 31
0.0
  0
LINE
  5
151
330
2
100
AcDbEntity
  8
GAIKEI
  6
HIDDEN2
 62
     1
100
AcDbLine
 10
15.97532747770458
 20
20.06744822053275
 30
0.0
 11
15.90620952150459
 21
20.04762566173264
 31
0.0
  0
LWPOLYLINE
  5
152
330
2
100
AcDbEntity
  8
GAIKEI
  6
HIDDEN2
 62
     1
100
AcDbPolyline
 90
        3
 70
     0
 43
0.0
 10
16.03451520850461
 20
20.05961250393244
 10
16.0184523751046
 20
20.06243810853272
 10
15.97532747770458
 20
20.06744822053275
  0
LINE
  5
153
330
2
100
AcDbEntity
  8
GAIKEI
  6
HIDDEN2
 62
     1
100
AcDbLine
 10
16.2172186693046
 20
19.92100172453257
 30
0.0
 11
16.2172186693046
 21
20.05810708233259
 31
0.0
  0
LINE
  5
154
330
2
100
AcDbEntity
  8
GAIKEI
  6
HIDDEN2
 62
     1
100
AcDbLine
 10
16.2172186693046
 20
20.05810708233259
 30
0.0
 11
16.16465383150461
 21
20.05458692653275
 31
0.0
  0
LINE
  5
155
330
2
100
AcDbEntity
  8
GAIKEI
  6
HIDDEN2
 62
     1
100
AcDbLine
 10
16.28775665790459
 20
19.92100172453257
 30
0.0
 11
16.28775665790459
 21
20.03289141453257
 31
0.0
  0
LINE
  5
156
330
2
100
AcDbEntity
  8
GAIKEI
  6
HIDDEN2
 62
     1
100
AcDbLine
 10
16.28775665790459
 20
20.03289141453257
 30
0.0
 11
16.2172186693046
 21
20.05810708233259
 31
0.0
  0
LINE
  5
157
330
2
100
AcDbEntity
  8
GAIKEI
  6
HIDDEN2
 62
     1
100
AcDbLine
 10
15.8590185795046
 20
19.92100172453257
 30
0.0
 11
15.8590185795046
 21
20.04845886953268
 31
0.0
  0
LINE
  5
158
330
2
100
AcDbEntity
  8
GAIKEI
  6
HIDDEN2
 62
     1
100
AcDbLine
 10
15.90620952150459
 20
20.04762566173264
 30
0.0
 11
15.8590185795046
 21
20.04845886953268
 31
0.0
  0
LINE
  5
159
330
2
100
AcDbEntity
  8
GAIKEI
  6
HIDDEN2
 62
     1
100
AcDbLine
 10
15.78848059090458
 20
19.92100172453257
 30
0.0
 11
15.78848059090458
 21
20.01944328353267
 31
0.0
  0
LINE
  5
15A
330
2
100
AcDbEntity
  8
GAIKEI
  6
HIDDEN2
 62
     1
100
AcDbLine
 10
15.8590185795046
 20
20.04845886953268
 30
0.0
 11
15.78848059090458
 21
20.01944328353267
 31
0.0
  0
LINE
  5
15B
330
2
100
AcDbEntity
  8
GAIKEI
  6
HIDDEN2
 62
     1
100
AcDbLine
 10
16.32631647790458
 20
19.92100172453257
 30
0.0
 11
16.32631647790458
 21
20.03041317593266
 31
0.0
  0
LWPOLYLINE
  5
15C
330
2
100
AcDbEntity
  8
GAIKEI
  6
HIDDEN2
 62
     1
100
AcDbPolyline
 90
        4
 70
     0
 43
0.0
 10
16.32631647790458
 20
20.03041317593266
 10
16.32105240110459
 20
20.03118446573268
 10
16.29822132610459
 20
20.03291793673253
 10
16.28775665790459
 20
20.03289141453257
  0
LINE
  5
15D
330
2
100
AcDbEntity
  8
GAIKEI
  6
HIDDEN2
 62
     1
100
AcDbLine
 10
15.75650242230458
 20
19.92100172453257
 30
0.0
 11
15.75650242230458
 21
20.01506508573271
 31
0.0
  0
LINE
  5
15E
330
2
100
AcDbEntity
  8
GAIKEI
  6
HIDDEN2
 62
     1
100
AcDbLine
 10
15.78848059090458
 20
20.01944328353267
 30
0.0
 11
15.75650242230458
 21
20.01506508573271
 31
0.0
  0
LINE
  5
15F
330
2
100
AcDbEntity
  8
GAIKEI
  6
HIDDEN2
 62
     1
100
AcDbLine
 10
16.3954344341046
 20
19.92100172453257
 30
0.0
 11
16.3954344341046
 21
19.99600448133248
 31
0.0
  0
LINE
  5
160
330
2
100
AcDbEntity
  8
GAIKEI
  6
HIDDEN2
 62
     1
100
AcDbLine
 10
16.3954344341046
 20
19.99600448133248
 30
0.0
 11
16.32631647790458
 21
20.03041317593266
 31
0.0
  0
LINE
  5
161
330
2
100
AcDbEntity
  8
GAIKEI
  6
HIDDEN2
 62
     1
100
AcDbLine
 10
16.4173614481046
 20
19.92100172453257
 30
0.0
 11
16.4173614481046
 21
19.98954462133253
 31
0.0
  0
LINE
  5
162
330
2
100
AcDbEntity
  8
GAIKEI
  6
HIDDEN2
 62
     1
100
AcDbLine
 10
16.4173614481046
 20
19.98954462133253
 30
0.0
 11
16.3954344341046
 21
19.99600448133248
 31
0.0
  0
LINE
  5
163
330
2
100
AcDbEntity
  8
GAIKEI
  6
HIDDEN2
 62
     1
100
AcDbLine
 10
15.6893514487046
 20
19.92100172453257
 30
0.0
 11
15.6893514487046
 21
19.97698595193248
 31
0.0
  0
LINE
  5
164
330
2
100
AcDbEntity
  8
GAIKEI
  6
HIDDEN2
 62
     1
100
AcDbLine
 10
15.75650242230458
 20
20.01506508573271
 30
0.0
 11
15.6893514487046
 21
19.97698595193248
 31
0.0
  0
LINE
  5
165
330
2
100
AcDbEntity
  8
GAIKEI
  6
HIDDEN2
 62
     1
100
AcDbLine
 10
15.67476531310461
 20
19.92100172453257
 30
0.0
 11
15.67476531310461
 21
19.96954260073249
 31
0.0
  0
LINE
  5
166
330
2
100
AcDbEntity
  8
GAIKEI
  6
HIDDEN2
 62
     1
100
AcDbLine
 10
15.6893514487046
 20
19.97698595193248
 30
0.0
 11
15.67476531310461
 21
19.96954260073249
 31
0.0
  0
LINE
  5
167
330
2
100
AcDbEntity
  8
GAIKEI
  6
HIDDEN2
 62
     1
100
AcDbLine
 10
16.4803490971046
 20
19.92100172453257
 30
0.0
 11
16.4803490971046
 21
19.9464399101326
 31
0.0
  0
LINE
  5
168
330
2
100
AcDbEntity
  8
GAIKEI
  6
HIDDEN2
 62
     1
100
AcDbLine
 10
16.4803490971046
 20
19.9464399101326
 30
0.0
 11
16.4173614481046
 21
19.98954462133253
 31
0.0
  0
LINE
  5
169
330
2
100
AcDbEntity
  8
GAIKEI
  6
HIDDEN2
 62
     1
100
AcDbLine
 10
16.48414901530461
 20
19.92100172453257
 30
0.0
 11
16.48414901530461
 21
19.93828654273267
 31
0.0
  0
LINE
  5
16A
330
2
100
AcDbEntity
  8
GAIKEI
  6
HIDDEN2
 62
     1
100
AcDbLine
 10
16.48414901530461
 20
19.93828654273267
 30
0.0
 11
16.4803490971046
 21
19.9464399101326
 31
0.0
  0
LINE
  5
16B
330
2
100
AcDbEntity
  8
GAIKEI
  6
HIDDEN2
 62
     1
100
AcDbLine
 10
15.61557758210458
 20
19.92100172453257
 30
0.0
 11
15.61557758210458
 21
19.9231470639325
 31
0.0
  0
LWPOLYLINE
  5
16C
330
2
100
AcDbEntity
  8
GAIKEI
  6
HIDDEN2
 62
     1
100
AcDbPolyline
 90
        3
 70
     0
 43
0.0
 10
15.67476531310461
 20
19.96954260073249
 10
15.65648582730458
 20
19.95598933573257
 10
15.61557758210458
 20
19.9231470639325
  0
LINE
  5
16D
330
2
100
AcDbEntity
  8
GAIKEI
  6
HIDDEN2
 62
     1
100
AcDbLine
 10
16.50206567870461
 20
19.92100172453257
 30
0.0
 11
16.48414901530461
 21
19.93828654273267
 31
0.0
  0
LWPOLYLINE
  5
16E
330
2
100
AcDbEntity
  8
GAIKEI
  6
HIDDEN2
 62
     1
100
AcDbPolyline
 90
        9
 70
     0
 43
0.0
 10
15.73481283830458
 20
20.01204706453274
 10
15.76376345310459
 20
20.03018619613255
 10
15.8430667669046
 20
20.06415206133266
 10
15.93724991150461
 20
20.08669796373266
 10
16.03989446110458
 20
20.0962874375328
 10
16.1440053593046
 20
20.09226697573268
 10
16.24248762050459
 20
20.07491056613259
 10
16.3286298413046
 20
20.04540101953268
 10
16.38801010310462
 20
20.01204706453274
  0
CIRCLE
  5
16F
330
2
100
AcDbEntity
  8
GAIKEI
  6
HIDDEN2
 62
     1
100
AcDbCircle
 10
17.05141147070461
 20
10.92100172473266
 30
0.0
 40
0.2045978868
  0
LINE
  5
170
330
2
100
AcDbEntity
  8
GAIKEI
  6
HIDDEN2
 62
     1
100
AcDbLine
 10
16.92443192810461
 20
10.81575821753273
 30
0.0
 11
16.98889705410457
 21
10.76838472773266
 31
0.0
  0
LINE
  5
171
330
2
100
AcDbEntity
  8
GAIKEI
  6
HIDDEN2
 62
     1
100
AcDbLine
 10
16.98889705410457
 20
10.76838472773266
 30
0.0
 11
17.05995728870462
 21
10.8650824167326
 31
0.0
  0
LINE
  5
172
330
2
100
AcDbEntity
  8
GAIKEI
  6
HIDDEN2
 62
     1
100
AcDbLine
 10
17.05995728870462
 20
10.8650824167326
 30
0.0
 11
17.15665497770456
 21
10.79402218213255
 31
0.0
  0
LINE
  5
173
330
2
100
AcDbEntity
  8
GAIKEI
  6
HIDDEN2
 62
     1
100
AcDbLine
 10
17.15665497770456
 20
10.79402218213255
 30
0.0
 11
17.20402846750463
 21
10.85848730813274
 31
0.0
  0
LINE
  5
174
330
2
100
AcDbEntity
  8
GAIKEI
  6
HIDDEN2
 62
     1
100
AcDbLine
 10
17.20402846750463
 20
10.85848730813274
 30
0.0
 11
17.10733077850457
 21
10.92954754273256
 31
0.0
  0
LINE
  5
175
330
2
100
AcDbEntity
  8
GAIKEI
  6
HIDDEN2
 62
     1
100
AcDbLine
 10
17.10733077850457
 20
10.92954754273256
 30
0.0
 11
17.1783910133046
 21
11.0262452317325
 31
0.0
  0
LINE
  5
176
330
2
100
AcDbEntity
  8
GAIKEI
  6
HIDDEN2
 62
     1
100
AcDbLine
 10
17.1783910133046
 20
11.0262452317325
 30
0.0
 11
17.11392588730459
 21
11.07361872153257
 31
0.0
  0
LINE
  5
177
330
2
100
AcDbEntity
  8
GAIKEI
  6
HIDDEN2
 62
     1
100
AcDbLine
 10
17.11392588730459
 20
11.07361872153257
 30
0.0
 11
17.04286565270459
 21
10.97692103253263
 31
0.0
  0
LINE
  5
178
330
2
100
AcDbEntity
  8
GAIKEI
  6
HIDDEN2
 62
     1
100
AcDbLine
 10
17.04286565270459
 20
10.97692103253263
 30
0.0
 11
16.94616796370459
 21
11.04798126713268
 31
0.0
  0
LINE
  5
179
330
2
100
AcDbEntity
  8
GAIKEI
  6
HIDDEN2
 62
     1
100
AcDbLine
 10
16.94616796370459
 20
11.04798126713268
 30
0.0
 11
16.89879447390459
 21
10.98351614113272
 31
0.0
  0
LINE
  5
17A
330
2
100
AcDbEntity
  8
GAIKEI
  6
HIDDEN2
 62
     1
100
AcDbLine
 10
16.89879447390459
 20
10.98351614113272
 30
0.0
 11
16.99549216290458
 21
10.91245590653267
 31
0.0
  0
LINE
  5
17B
330
2
100
AcDbEntity
  8
GAIKEI
  6
HIDDEN2
 62
     1
100
AcDbLine
 10
16.99549216290458
 20
10.91245590653267
 30
0.0
 11
16.92443192810461
 21
10.81575821753273
 31
0.0
  0
CIRCLE
  5
17C
330
2
100
AcDbEntity
  8
GAIKEI
  6
HIDDEN2
 62
     1
100
AcDbCircle
 10
17.05141147070461
 20
10.92100172473266
 30
0.0
 40
0.2444456748
  0
LINE
  5
17D
330
2
100
AcDbEntity
  8
GAIKEI
  6
HIDDEN2
 62
     1
100
AcDbLine
 10
11.89503681870459
 20
7.921001724732661
 30
0.0
 11
11.89503681870459
 21
19.92100172473266
 31
0.0
  0
LINE
  5
17E
330
2
100
AcDbEntity
  8
GAIKEI
  6
HIDDEN2
 62
     1
100
AcDbLine
 10
12.18341147070458
 20
19.92100172453257
 30
0.0
 11
12.18341147070458
 21
7.921001724732661
 31
0.0
  0
ARC
  5
17F
330
2
100
AcDbEntity
  8
GAIKEI
  6
HIDDEN2
 62
     1
100
AcDbCircle
 10
-33.96808617295469
 20
9.586620283318097
 30
0.0
 40
0.4
100
AcDbArc
 50
225.0000000000046
 51
289.6019535739991
  0
ARC
  5
180
330
2
100
AcDbEntity
  8
GAIKEI
  6
HIDDEN2
 62
     1
100
AcDbCircle
 10
-34.53377159795468
 20
10.15230570831795
 30
0.0
 40
0.4
100
AcDbArc
 50
160.5418625369997
 51
225.0000000000046
  0
LINE
  5
181
330
2
100
AcDbEntity
  8
GAIKEI
  6
HIDDEN2
 62
     1
100
AcDbLine
 10
-34.81661431035468
 20
9.869462995917956
 30
0.0
 11
-34.25092888535469
 21
9.303777570917873
 31
0.0
  0
LINE
  5
182
330
2
100
AcDbEntity
  8
GAIKEI
  6
HIDDEN2
 62
     1
100
AcDbLine
 10
-35.79048238703399
 20
8.895594919238646
 30
0.0
 11
-34.81661431035468
 21
9.869462995917956
 31
0.0
  0
LINE
  5
183
330
2
100
AcDbEntity
  8
GAIKEI
  6
HIDDEN2
 62
     1
100
AcDbLine
 10
-34.25092888535469
 20
9.303777570917873
 30
0.0
 11
-34.98368024205675
 21
8.571026214215748
 31
0.0
  0
ARC
  5
184
330
2
100
AcDbEntity
  8
GAIKEI
  6
HIDDEN2
 62
     1
100
AcDbCircle
 10
-30.16654978535468
 20
13.95854865631804
 30
0.0
 40
4.3700000912
100
AcDbArc
 50
3.894520997010282
 51
116.024535017006
  0
CIRCLE
  5
185
330
2
100
AcDbEntity
  8
GAIKEI
  6
HIDDEN2
 62
     1
100
AcDbCircle
 10
-30.16654978535468
 20
13.95854865631804
 30
0.0
 40
5.679999999999999
  0
ARC
  5
186
330
2
100
AcDbEntity
  8
GAIKEI
  6
HIDDEN2
 62
     1
100
AcDbCircle
 10
-36.07114878435468
 20
12.42697517011811
 30
0.0
 40
0.7000000000000001
100
AcDbArc
 50
194.5412701509917
 51
240.6015072450037
  0
CIRCLE
  5
187
330
2
100
AcDbEntity
  8
GAIKEI
  6
HIDDEN2
 62
     1
100
AcDbCircle
 10
-30.16654978535468
 20
13.95854865631804
 30
0.0
 40
4.01
  0
LINE
  5
188
330
2
100
AcDbEntity
  8
GAIKEI
  6
S10
 62
     1
100
AcDbLine
 10
-33.14327912715467
 20
20.07084974751797
 30
0.0
 11
-33.25013961795469
 21
20.09948292971808
 31
0.0
  0
LINE
  5
189
330
2
100
AcDbEntity
  8
GAIKEI
  6
HIDDEN2
 62
     1
100
AcDbLine
 10
-33.94295994095467
 20
19.69948292971799
 30
0.0
 11
-33.97159312315469
 21
19.59262243911803
 31
0.0
  0
LINE
  5
18A
330
2
100
AcDbEntity
  8
GAIKEI
  6
S10
 62
     1
100
AcDbLine
 10
-33.81921793915467
 20
19.77092540791796
 30
0.0
 11
-33.25013961795469
 21
20.09948292971808
 31
0.0
  0
LINE
  5
18B
330
2
100
AcDbEntity
  8
GAIKEI
  6
S10
 62
     1
100
AcDbLine
 10
-33.94295994095467
 20
19.69948292971799
 30
0.0
 11
-33.81921793915467
 21
19.77092540791796
 31
0.0
  0
LINE
  5
18C
330
2
100
AcDbEntity
  8
GAIKEI
  6
S10
 62
     1
100
AcDbLine
 10
-33.15410699595469
 20
20.03945733611795
 30
0.0
 11
-33.21987487275467
 21
20.03764040371789
 31
0.0
  0
LINE
  5
18D
330
2
100
AcDbEntity
  8
GAIKEI
  6
S10
 62
     1
100
AcDbLine
 10
-33.21987487275467
 20
20.03764040371789
 30
0.0
 11
-33.21484280535469
 21
20.00439150011812
 31
0.0
  0
LINE
  5
18E
330
2
100
AcDbEntity
  8
GAIKEI
  6
S10
 62
     1
100
AcDbLine
 10
-33.21484280535469
 20
20.00439150011812
 30
0.0
 11
-33.28798490455466
 21
19.99831705851784
 31
0.0
  0
LINE
  5
18F
330
2
100
AcDbEntity
  8
GAIKEI
  6
S10
 62
     1
100
AcDbLine
 10
-33.28798490455466
 20
19.99831705851784
 30
0.0
 11
-33.29818389695467
 21
19.95627449851781
 31
0.0
  0
LINE
  5
190
330
2
100
AcDbEntity
  8
GAIKEI
  6
S10
 62
     1
100
AcDbLine
 10
-33.29818389695467
 20
19.95627449851781
 30
0.0
 11
-33.37478258235467
 21
19.94820439591785
 31
0.0
  0
LWPOLYLINE
  5
191
330
2
100
AcDbEntity
  8
GAIKEI
  6
S10
 62
     1
100
AcDbPolyline
 90
        4
 70
     0
 43
0.0
 10
-33.37478258235467
 20
19.94820439591785
 10
-33.37826366215467
 20
19.94183621971797
 10
-33.39243108655467
 20
19.91260477671812
 10
-33.39845071315469
 20
19.89838542531788
  0
LINE
  5
192
330
2
100
AcDbEntity
  8
GAIKEI
  6
S10
 62
     1
100
AcDbLine
 10
-33.39845071315469
 20
19.89838542531788
 30
0.0
 11
-33.47435278755467
 21
19.89071751111805
 31
0.0
  0
LINE
  5
193
330
2
100
AcDbEntity
  8
GAIKEI
  6
S10
 62
     1
100
AcDbLine
 10
-33.47435278755467
 20
19.89071751111805
 30
0.0
 11
-33.50881023575468
 21
19.83466932511806
 31
0.0
  0
LINE
  5
194
330
2
100
AcDbEntity
  8
GAIKEI
  6
S10
 62
     1
100
AcDbLine
 10
-33.50881023575468
 20
19.83466932511806
 30
0.0
 11
-33.57990997555467
 21
19.82977404011808
 31
0.0
  0
LINE
  5
195
330
2
100
AcDbEntity
  8
GAIKEI
  6
S10
 62
     1
100
AcDbLine
 10
-33.57990997555467
 20
19.82977404011808
 30
0.0
 11
-33.62174164595467
 21
19.76946834491809
 31
0.0
  0
LWPOLYLINE
  5
196
330
2
100
AcDbEntity
  8
GAIKEI
  6
S10
 62
     1
100
AcDbPolyline
 90
        3
 70
     0
 43
0.0
 10
-33.62174164595467
 20
19.76946834491809
 10
-33.66540003115469
 20
19.77028450051784
 10
-33.68426059835468
 20
19.76952718011807
  0
LINE
  5
197
330
2
100
AcDbEntity
  8
GAIKEI
  6
S10
 62
     1
100
AcDbLine
 10
-33.68426059835468
 20
19.76952718011807
 30
0.0
 11
-33.72954885475468
 21
19.70722582391795
 31
0.0
  0
LINE
  5
198
330
2
100
AcDbEntity
  8
GAIKEI
  6
S10
 62
     1
100
AcDbLine
 10
-33.72954885475468
 20
19.70722582391795
 30
0.0
 11
-33.78029333335468
 21
19.71408265471791
 31
0.0
  0
CIRCLE
  5
199
330
2
100
AcDbEntity
  8
GAIKEI
  6
HIDDEN2
 62
     1
100
AcDbCircle
 10
-30.16654978535468
 20
13.95854865631804
 30
0.0
 40
5.66
  0
LINE
  5
19A
330
2
100
AcDbEntity
  8
GAIKEI
  6
S10
 62
     1
100
AcDbLine
 10
-33.78029333335468
 20
19.71408265471791
 30
0.0
 11
-33.82488497915469
 21
19.65218348691792
 31
0.0
  0
LINE
  5
19B
330
2
100
AcDbEntity
  8
GAIKEI
  6
S10
 62
     1
100
AcDbLine
 10
-33.82488497915469
 20
19.65218348691792
 30
0.0
 11
-33.86146370835468
 21
19.66721891671795
 31
0.0
  0
CIRCLE
  5
19C
330
2
100
AcDbEntity
  8
GAIKEI
  6
HIDDEN2
 62
     1
100
AcDbCircle
 10
-30.16654978535468
 20
13.95854865631804
 30
0.0
 40
4.8700000912
  0
LINE
  5
19D
330
2
100
AcDbEntity
  8
GAIKEI
  6
S10
 62
     1
100
AcDbLine
 10
-33.86146370835468
 20
19.66721891671795
 30
0.0
 11
-33.90125301935467
 21
19.6080923783179
 31
0.0
  0
LINE
  5
19E
330
2
100
AcDbEntity
  8
GAIKEI
  6
S10
 62
     1
100
AcDbLine
 10
-33.90125301935467
 20
19.6080923783179
 30
0.0
 11
-33.92224009675468
 21
19.63212965271805
 31
0.0
  0
LWPOLYLINE
  5
19F
330
2
100
AcDbEntity
  8
GAIKEI
  6
HIDDEN2
 62
     1
100
AcDbPolyline
 90
        4
 70
     0
 43
0.0
 10
-33.92224009675468
 20
19.63212965271805
 10
-33.92675056935468
 20
19.62516715611809
 10
-33.94538262235469
 20
19.59335805871797
 10
-33.95344862015469
 20
19.577957234118
  0
LINE
  5
1A0
330
2
100
AcDbEntity
  8
GAIKEI
  6
HIDDEN2
 62
     1
100
AcDbLine
 10
-33.95344862015469
 20
19.577957234118
 30
0.0
 11
-33.95848068755467
 21
19.611206137718
 31
0.0
  0
LINE
  5
1A1
330
2
100
AcDbEntity
  8
GAIKEI
  6
HIDDEN2
 62
     1
100
AcDbLine
 10
-33.95848068755467
 20
19.611206137718
 30
0.0
 11
-33.97791473735467
 21
19.56383171491802
 31
0.0
  0
LINE
  5
1A2
330
2
100
AcDbEntity
  8
GAIKEI
  6
HIDDEN2
 62
     1
100
AcDbLine
 10
-33.97791473735467
 20
19.56383171491802
 30
0.0
 11
-33.97097091655468
 21
19.59245571931797
 31
0.0
  0
LINE
  5
1A3
330
2
100
AcDbEntity
  8
GAIKEI
  6
S10
 62
     1
100
AcDbLine
 10
-33.14344584695468
 20
20.07022754091804
 30
0.0
 11
-33.15669424275467
 21
20.07411775751803
 31
0.0
  0
LINE
  5
1A4
330
2
100
AcDbEntity
  8
GAIKEI
  6
S10
 62
     1
100
AcDbLine
 10
-33.15669424275467
 20
20.07411775751803
 30
0.0
 11
-33.12011551355468
 21
20.05908232771799
 31
0.0
  0
LWPOLYLINE
  5
1A5
330
2
100
AcDbEntity
  8
GAIKEI
  6
S10
 62
     1
100
AcDbPolyline
 90
        3
 70
     0
 43
0.0
 10
-33.12011551355468
 20
20.05908232771799
 10
-33.15856227395469
 20
20.06290741591783
 10
-33.17509407315467
 20
20.06349461051787
  0
LINE
  5
1A6
330
2
100
AcDbEntity
  8
GAIKEI
  6
S10
 62
     1
100
AcDbLine
 10
-33.17509407315467
 20
20.06349461051787
 30
0.0
 11
-33.15410699595469
 21
20.03945733611795
 31
0.0
  0
LINE
  5
1A7
330
2
100
AcDbEntity
  8
GAIKEI
  6
HIDDEN2
 62
     1
100
AcDbLine
 10
-33.18423734575467
 20
19.144448943518
 30
0.0
 11
-33.57990997555467
 21
19.82977404011808
 31
0.0
  0
LINE
  5
1A8
330
2
100
AcDbEntity
  8
GAIKEI
  6
HIDDEN2
 62
     1
100
AcDbLine
 10
-33.24142752815467
 20
19.1107449713179
 30
0.0
 11
-33.62174164595467
 21
19.76946834491809
 31
0.0
  0
LINE
  5
1A9
330
2
100
AcDbEntity
  8
GAIKEI
  6
HIDDEN2
 62
     1
100
AcDbLine
 10
-33.12873110795468
 20
19.17635296591788
 30
0.0
 11
-33.50881023575468
 21
19.83466932511806
 31
0.0
  0
LINE
  5
1AA
330
2
100
AcDbEntity
  8
GAIKEI
  6
HIDDEN2
 62
     1
100
AcDbLine
 10
-33.07826876355469
 20
19.20467985871801
 30
0.0
 11
-33.47435278755467
 21
19.89071751111805
 31
0.0
  0
LINE
  5
1AB
330
2
100
AcDbEntity
  8
GAIKEI
  6
HIDDEN2
 62
     1
100
AcDbLine
 10
-33.01723194635469
 20
19.23809515371795
 30
0.0
 11
-33.39845071315469
 21
19.89838542531788
 31
0.0
  0
LINE
  5
1AC
330
2
100
AcDbEntity
  8
GAIKEI
  6
HIDDEN2
 62
     1
100
AcDbLine
 10
-33.28777762655469
 20
19.08279852971805
 30
0.0
 11
-33.68426059835468
 21
19.76952718011807
 31
0.0
  0
LINE
  5
1AD
330
2
100
AcDbEntity
  8
GAIKEI
  6
HIDDEN2
 62
     1
100
AcDbLine
 10
-33.34768779595467
 20
19.04582306991801
 30
0.0
 11
-33.72954885475468
 21
19.70722582391795
 31
0.0
  0
LINE
  5
1AE
330
2
100
AcDbEntity
  8
GAIKEI
  6
HIDDEN2
 62
     1
100
AcDbLine
 10
-32.97717522315469
 20
19.25952824971796
 30
0.0
 11
-33.37478258235467
 21
19.94820439591785
 31
0.0
  0
LINE
  5
1AF
330
2
100
AcDbEntity
  8
GAIKEI
  6
HIDDEN2
 62
     1
100
AcDbLine
 10
-33.38199459135467
 20
19.02420899831804
 30
0.0
 11
-33.78029333335468
 21
19.71408265471791
 31
0.0
  0
LINE
  5
1B0
330
2
100
AcDbEntity
  8
GAIKEI
  6
HIDDEN2
 62
     1
100
AcDbLine
 10
-32.91475495835468
 20
19.29215609671792
 30
0.0
 11
-33.29818389695467
 21
19.95627449851781
 31
0.0
  0
LINE
  5
1B1
330
2
100
AcDbEntity
  8
GAIKEI
  6
HIDDEN2
 62
     1
100
AcDbLine
 10
-33.44057797135469
 20
18.98654422491791
 30
0.0
 11
-33.82488497915469
 21
19.65218348691792
 31
0.0
  0
LINE
  5
1B2
330
2
100
AcDbEntity
  8
GAIKEI
  6
HIDDEN2
 62
     1
100
AcDbLine
 10
-32.88814918455467
 20
19.30578127811805
 30
0.0
 11
-33.28798490455466
 21
19.99831705851784
 31
0.0
  0
LINE
  5
1B3
330
2
100
AcDbEntity
  8
GAIKEI
  6
HIDDEN2
 62
     1
100
AcDbLine
 10
-33.4608290401547
 20
18.97329931731792
 30
0.0
 11
-33.86146370835468
 21
19.66721891671795
 31
0.0
  0
LINE
  5
1B4
330
2
100
AcDbEntity
  8
GAIKEI
  6
HIDDEN2
 62
     1
100
AcDbLine
 10
-32.82872381335469
 20
19.33561378951799
 30
0.0
 11
-33.21484280535469
 21
20.00439150011812
 31
0.0
  0
LINE
  5
1B5
330
2
100
AcDbEntity
  8
GAIKEI
  6
HIDDEN2
 62
     1
100
AcDbLine
 10
-33.51425516915469
 20
18.93779244071811
 30
0.0
 11
-33.90125301935467
 21
19.6080923783179
 31
0.0
  0
LINE
  5
1B6
330
2
100
AcDbEntity
  8
GAIKEI
  6
HIDDEN2
 62
     1
100
AcDbLine
 10
-32.81770202715467
 20
19.34105660271803
 30
0.0
 11
-33.21987487275467
 21
20.03764040371789
 31
0.0
  0
LINE
  5
1B7
330
2
100
AcDbEntity
  8
GAIKEI
  6
HIDDEN2
 62
     1
100
AcDbLine
 10
-33.51937481355469
 20
18.93434651511802
 30
0.0
 11
-33.92224009675468
 21
19.63212965271805
 31
0.0
  0
LINE
  5
1B8
330
2
100
AcDbEntity
  8
GAIKEI
  6
HIDDEN2
 62
     1
100
AcDbLine
 10
-32.76553857315469
 20
19.36643708731799
 30
0.0
 11
-33.15410699595469
 21
20.03945733611795
 31
0.0
  0
LINE
  5
1B9
330
2
100
AcDbEntity
  8
GAIKEI
  6
HIDDEN2
 62
     1
100
AcDbLine
 10
-33.56423632735468
 20
18.90382176951789
 30
0.0
 11
-33.95344862015469
 21
19.577957234118
 31
0.0
  0
LINE
  5
1BA
330
2
100
AcDbEntity
  8
GAIKEI
  6
HIDDEN2
 62
     1
100
AcDbLine
 10
-32.72999587915467
 20
19.38337530111812
 30
0.0
 11
-33.12011551355468
 21
20.05908232771799
 31
0.0
  0
LINE
  5
1BB
330
2
100
AcDbEntity
  8
GAIKEI
  6
HIDDEN2
 62
     1
100
AcDbLine
 10
-33.58755932415468
 20
18.88771630771794
 30
0.0
 11
-33.97791473735467
 21
19.56383171491802
 31
0.0
  0
LINE
  5
1BC
330
2
100
AcDbEntity
  8
GAIKEI
  6
HIDDEN2
 62
     1
100
AcDbLine
 10
-32.72482940795467
 20
19.38581365571804
 30
0.0
 11
-33.11518482155469
 21
20.06192906391789
 31
0.0
  0
ARC
  5
1BD
330
2
100
AcDbEntity
  8
GAIKEI
  6
HIDDEN2
 62
     1
100
AcDbCircle
 10
-37.33598932695469
 20
9.581433549517896
 30
0.0
 40
2.4
100
AcDbArc
 50
31.40506817500484
 51
60.60157653599677
  0
LINE
  5
1BE
330
2
100
AcDbEntity
  8
GAIKEI
  6
HIDDEN2
 62
     1
100
AcDbLine
 10
-36.15787785175468
 20
11.67237911371808
 30
0.0
 11
-36.41476450715467
 21
11.817118054518
 31
0.0
  0
LINE
  5
1BF
330
2
100
AcDbEntity
  8
GAIKEI
  6
HIDDEN2
 62
     1
100
AcDbLine
 10
-36.15787785175468
 20
16.2447181991181
 30
0.0
 11
-36.41476406375469
 21
16.09997853371806
 31
0.0
  0
ARC
  5
1C0
330
2
100
AcDbEntity
  8
GAIKEI
  6
HIDDEN2
 62
     1
100
AcDbCircle
 10
-30.16654978535468
 20
13.95854865631804
 30
0.0
 40
6.0
100
AcDbArc
 50
211.4050681739978
 51
148.5949318260022
  0
ARC
  5
1C1
330
2
100
AcDbEntity
  8
GAIKEI
  6
HIDDEN2
 62
     1
100
AcDbCircle
 10
-30.16654978535468
 20
13.95854865631804
 30
0.0
 40
6.8
100
AcDbArc
 50
165.4587137939949
 51
194.541286206005
  0
ARC
  5
1C2
330
2
100
AcDbEntity
  8
GAIKEI
  6
HIDDEN2
 62
     1
100
AcDbCircle
 10
-36.07114878435468
 20
15.49012214271806
 30
0.0
 40
0.7000000000000001
100
AcDbArc
 50
119.3984927529925
 51
165.4587298480126
  0
ARC
  5
1C3
330
2
100
AcDbEntity
  8
GAIKEI
  6
HIDDEN2
 62
     1
100
AcDbCircle
 10
-37.33598932695469
 20
18.33566376331805
 30
0.0
 40
2.4
100
AcDbArc
 50
299.3984234640032
 51
328.5949318249952
  0
ARC
  5
1C4
330
2
100
AcDbEntity
  8
GAIKEI
  6
HIDDEN2
 62
     1
100
AcDbCircle
 10
-26.11314754195467
 20
12.87166088051799
 30
0.0
 40
0.06
100
AcDbArc
 50
345.0000000000056
 51
165.0000000000055
  0
ARC
  5
1C5
330
2
100
AcDbEntity
  8
GAIKEI
  6
HIDDEN2
 62
     1
100
AcDbCircle
 10
-30.17003601235467
 20
13.95870086991795
 30
0.0
 40
4.139999999999999
100
AcDbArc
 50
314.9999999999954
 51
345.0000000000056
  0
ARC
  5
1C6
330
2
100
AcDbEntity
  8
GAIKEI
  6
HIDDEN2
 62
     1
100
AcDbCircle
 10
-27.20018753135469
 20
10.98885238891807
 30
0.0
 40
0.06
100
AcDbArc
 50
134.9999999999954
 51
314.9999999999954
  0
ARC
  5
1C7
330
2
100
AcDbEntity
  8
GAIKEI
  6
HIDDEN2
 62
     1
100
AcDbCircle
 10
-30.17003601235467
 20
13.95870086991795
 30
0.0
 40
4.26
100
AcDbArc
 50
314.9999999999954
 51
345.0000000000056
  0
ARC
  5
1C8
330
2
100
AcDbEntity
  8
GAIKEI
  6
HIDDEN2
 62
     1
100
AcDbCircle
 10
-26.11314754195467
 20
12.87166088051799
 30
0.0
 40
0.03
100
AcDbArc
 50
345.0000000000056
 51
165.0000000000055
  0
LINE
  5
1C9
330
2
100
AcDbEntity
  8
GAIKEI
  6
HIDDEN2
 62
     1
100
AcDbLine
 10
-26.14212531675469
 20
12.87942545191799
 30
0.0
 11
-26.17110309155467
 21
12.88719002311791
 31
0.0
  0
LINE
  5
1CA
330
2
100
AcDbEntity
  8
GAIKEI
  6
HIDDEN2
 62
     1
100
AcDbLine
 10
-26.05519199235468
 20
12.85613173771799
 30
0.0
 11
-26.08416976715469
 21
12.86389630911799
 31
0.0
  0
LINE
  5
1CB
330
2
100
AcDbEntity
  8
GAIKEI
  6
HIDDEN2
 62
     1
100
AcDbLine
 10
-27.15776112435469
 20
10.94642598211794
 30
0.0
 11
-27.17897432795468
 21
10.96763918551801
 31
0.0
  0
ARC
  5
1CC
330
2
100
AcDbEntity
  8
GAIKEI
  6
HIDDEN2
 62
     1
100
AcDbCircle
 10
-30.17003601235467
 20
13.95870086991795
 30
0.0
 40
4.229999999999999
100
AcDbArc
 50
314.9999999999954
 51
345.0000000000056
  0
ARC
  5
1CD
330
2
100
AcDbEntity
  8
GAIKEI
  6
HIDDEN2
 62
     1
100
AcDbCircle
 10
-30.17003601235467
 20
13.95870086991795
 30
0.0
 40
4.17
100
AcDbArc
 50
314.9999999999954
 51
345.0000000000056
  0
LINE
  5
1CE
330
2
100
AcDbEntity
  8
GAIKEI
  6
HIDDEN2
 62
     1
100
AcDbLine
 10
-27.2214007347547
 20
11.01006559231791
 30
0.0
 11
-27.24261393815468
 21
11.03127879571798
 31
0.0
  0
ARC
  5
1CF
330
2
100
AcDbEntity
  8
GAIKEI
  6
HIDDEN2
 62
     1
100
AcDbCircle
 10
-27.20018753135469
 20
10.98885238891807
 30
0.0
 40
0.03
100
AcDbArc
 50
134.9999999999954
 51
314.9999999999954
  0
ARC
  5
1D0
330
2
100
AcDbEntity
  8
GAIKEI
  6
HIDDEN2
 62
     1
100
AcDbCircle
 10
-29.07789850335467
 20
9.898564918118154
 30
0.0
 40
0.06
100
AcDbArc
 50
285.0000000000031
 51
105.0000000000031
  0
ARC
  5
1D1
330
2
100
AcDbEntity
  8
GAIKEI
  6
HIDDEN2
 62
     1
100
AcDbCircle
 10
-30.16493849275469
 20
13.95545338851798
 30
0.0
 40
4.139999999999999
100
AcDbArc
 50
254.9999999999969
 51
285.0000000000031
  0
ARC
  5
1D2
330
2
100
AcDbEntity
  8
GAIKEI
  6
HIDDEN2
 62
     1
100
AcDbCircle
 10
-31.25197848215467
 20
9.898564918118154
 30
0.0
 40
0.06
100
AcDbArc
 50
74.99999999999684
 51
254.9999999999969
  0
ARC
  5
1D3
330
2
100
AcDbEntity
  8
GAIKEI
  6
HIDDEN2
 62
     1
100
AcDbCircle
 10
-30.16493849275469
 20
13.95545338851798
 30
0.0
 40
4.26
100
AcDbArc
 50
254.9999999999969
 51
285.0000000000031
  0
ARC
  5
1D4
330
2
100
AcDbEntity
  8
GAIKEI
  6
HIDDEN2
 62
     1
100
AcDbCircle
 10
-29.07789850335467
 20
9.898564918118154
 30
0.0
 40
0.03
100
AcDbArc
 50
285.0000000000031
 51
105.0000000000031
  0
LINE
  5
1D5
330
2
100
AcDbEntity
  8
GAIKEI
  6
HIDDEN2
 62
     1
100
AcDbLine
 10
-29.08566307455468
 20
9.927542692917995
 30
0.0
 11
-29.09342764595468
 21
9.956520467718064
 31
0.0
  0
LINE
  5
1D6
330
2
100
AcDbEntity
  8
GAIKEI
  6
HIDDEN2
 62
     1
100
AcDbLine
 10
-29.06236936055467
 20
9.840609368518016
 30
0.0
 11
-29.07013393195467
 21
9.869587143317858
 31
0.0
  0
LINE
  5
1D7
330
2
100
AcDbEntity
  8
GAIKEI
  6
HIDDEN2
 62
     1
100
AcDbLine
 10
-31.26750762475467
 20
9.840609368518016
 30
0.0
 11
-31.25974305355467
 21
9.869587143317858
 31
0.0
  0
ARC
  5
1D8
330
2
100
AcDbEntity
  8
GAIKEI
  6
HIDDEN2
 62
     1
100
AcDbCircle
 10
-30.16493849275469
 20
13.95545338851798
 30
0.0
 40
4.229999999999999
100
AcDbArc
 50
254.9999999999969
 51
285.0000000000031
  0
ARC
  5
1D9
330
2
100
AcDbEntity
  8
GAIKEI
  6
HIDDEN2
 62
     1
100
AcDbCircle
 10
-30.16493849275469
 20
13.95545338851798
 30
0.0
 40
4.17
100
AcDbArc
 50
254.9999999999969
 51
285.0000000000031
  0
LINE
  5
1DA
330
2
100
AcDbEntity
  8
GAIKEI
  6
HIDDEN2
 62
     1
100
AcDbLine
 10
-31.2442139107547
 20
9.927542692917995
 30
0.0
 11
-31.23644933935469
 21
9.956520467718064
 31
0.0
  0
ARC
  5
1DB
330
2
100
AcDbEntity
  8
GAIKEI
  6
HIDDEN2
 62
     1
100
AcDbCircle
 10
-31.25197848215467
 20
9.898564918118154
 30
0.0
 40
0.03
100
AcDbArc
 50
74.99999999999684
 51
254.9999999999969
  0
ARC
  5
1DC
330
2
100
AcDbEntity
  8
GAIKEI
  6
HIDDEN2
 62
     1
100
AcDbCircle
 10
-33.12942581255467
 20
10.988395748318
 30
0.0
 40
0.06
100
AcDbArc
 50
225.0000000000046
 51
45.0000000000046
  0
ARC
  5
1DD
330
2
100
AcDbEntity
  8
GAIKEI
  6
HIDDEN2
 62
     1
100
AcDbCircle
 10
-30.15957733155469
 20
13.95824422931809
 30
0.0
 40
4.139999999999999
100
AcDbArc
 50
194.9999999999944
 51
225.0000000000046
  0
ARC
  5
1DE
330
2
100
AcDbEntity
  8
GAIKEI
  6
HIDDEN2
 62
     1
100
AcDbCircle
 10
-34.21646580195468
 20
12.87120423991791
 30
0.0
 40
0.06
100
AcDbArc
 50
14.99999999999445
 51
194.9999999999944
  0
ARC
  5
1DF
330
2
100
AcDbEntity
  8
GAIKEI
  6
HIDDEN2
 62
     1
100
AcDbCircle
 10
-30.15957733155469
 20
13.95824422931809
 30
0.0
 40
4.26
100
AcDbArc
 50
194.9999999999944
 51
225.0000000000046
  0
ARC
  5
1E0
330
2
100
AcDbEntity
  8
GAIKEI
  6
HIDDEN2
 62
     1
100
AcDbCircle
 10
-33.12942581255467
 20
10.988395748318
 30
0.0
 40
0.03
100
AcDbArc
 50
225.0000000000046
 51
45.0000000000046
  0
LINE
  5
1E1
330
2
100
AcDbEntity
  8
GAIKEI
  6
HIDDEN2
 62
     1
100
AcDbLine
 10
-33.10821260915469
 20
11.00960895171806
 30
0.0
 11
-33.08699940555468
 21
11.03082215531799
 31
0.0
  0
LINE
  5
1E2
330
2
100
AcDbEntity
  8
GAIKEI
  6
HIDDEN2
 62
     1
100
AcDbLine
 10
-33.17185221935466
 20
10.94596934151786
 30
0.0
 11
-33.15063901595468
 21
10.96718254491793
 31
0.0
  0
LINE
  5
1E3
330
2
100
AcDbEntity
  8
GAIKEI
  6
HIDDEN2
 62
     1
100
AcDbLine
 10
-34.27442135155468
 20
12.85567509711791
 30
0.0
 11
-34.24544357675467
 21
12.86343966851791
 31
0.0
  0
ARC
  5
1E4
330
2
100
AcDbEntity
  8
GAIKEI
  6
HIDDEN2
 62
     1
100
AcDbCircle
 10
-30.15957733155469
 20
13.95824422931809
 30
0.0
 40
4.229999999999999
100
AcDbArc
 50
194.9999999999944
 51
225.0000000000046
  0
ARC
  5
1E5
330
2
100
AcDbEntity
  8
GAIKEI
  6
HIDDEN2
 62
     1
100
AcDbCircle
 10
-30.15957733155469
 20
13.95824422931809
 30
0.0
 40
4.17
100
AcDbArc
 50
194.9999999999944
 51
225.0000000000046
  0
LINE
  5
1E6
330
2
100
AcDbEntity
  8
GAIKEI
  6
HIDDEN2
 62
     1
100
AcDbLine
 10
-34.18748802715467
 20
12.87896881131792
 30
0.0
 11
-34.15851025235469
 21
12.88673338251783
 31
0.0
  0
ARC
  5
1E7
330
2
100
AcDbEntity
  8
GAIKEI
  6
HIDDEN2
 62
     1
100
AcDbCircle
 10
-34.21646580195468
 20
12.87120423991791
 30
0.0
 40
0.03
100
AcDbArc
 50
14.99999999999445
 51
194.9999999999944
  0
ARC
  5
1E8
330
2
100
AcDbEntity
  8
GAIKEI
  6
HIDDEN2
 62
     1
100
AcDbCircle
 10
-34.21136828235467
 20
15.04203673731808
 30
0.0
 40
0.06
100
AcDbArc
 50
165.0000000000055
 51
345.0000000000056
  0
ARC
  5
1E9
330
2
100
AcDbEntity
  8
GAIKEI
  6
HIDDEN2
 62
     1
100
AcDbCircle
 10
-30.15447981195467
 20
13.9549967479179
 30
0.0
 40
4.139999999999999
100
AcDbArc
 50
134.9999999999954
 51
165.0000000000055
  0
ARC
  5
1EA
330
2
100
AcDbEntity
  8
GAIKEI
  6
HIDDEN2
 62
     1
100
AcDbCircle
 10
-33.12432829295469
 20
16.924845228918
 30
0.0
 40
0.06
100
AcDbArc
 50
314.9999999999954
 51
134.9999999999954
  0
ARC
  5
1EB
330
2
100
AcDbEntity
  8
GAIKEI
  6
HIDDEN2
 62
     1
100
AcDbCircle
 10
-30.15447981195467
 20
13.9549967479179
 30
0.0
 40
4.26
100
AcDbArc
 50
134.9999999999954
 51
165.0000000000055
  0
ARC
  5
1EC
330
2
100
AcDbEntity
  8
GAIKEI
  6
HIDDEN2
 62
     1
100
AcDbCircle
 10
-34.21136828235467
 20
15.04203673731808
 30
0.0
 40
0.03
100
AcDbArc
 50
165.0000000000055
 51
345.0000000000056
  0
LINE
  5
1ED
330
2
100
AcDbEntity
  8
GAIKEI
  6
HIDDEN2
 62
     1
100
AcDbLine
 10
-34.18239050755469
 20
15.03427216611817
 30
0.0
 11
-34.15341273275468
 21
15.02650759471794
 31
0.0
  0
LINE
  5
1EE
330
2
100
AcDbEntity
  8
GAIKEI
  6
HIDDEN2
 62
     1
100
AcDbLine
 10
-34.26932383195469
 20
15.05756588011809
 30
0.0
 11
-34.24034605715468
 21
15.04980130871809
 31
0.0
  0
LINE
  5
1EF
330
2
100
AcDbEntity
  8
GAIKEI
  6
HIDDEN2
 62
     1
100
AcDbLine
 10
-33.16675469975468
 20
16.96727163591799
 30
0.0
 11
-33.14554149635467
 21
16.94605843231807
 31
0.0
  0
ARC
  5
1F0
330
2
100
AcDbEntity
  8
GAIKEI
  6
HIDDEN2
 62
     1
100
AcDbCircle
 10
-30.15447981195467
 20
13.9549967479179
 30
0.0
 40
4.229999999999999
100
AcDbArc
 50
134.9999999999954
 51
165.0000000000055
  0
ARC
  5
1F1
330
2
100
AcDbEntity
  8
GAIKEI
  6
HIDDEN2
 62
     1
100
AcDbCircle
 10
-30.15447981195467
 20
13.9549967479179
 30
0.0
 40
4.17
100
AcDbArc
 50
134.9999999999954
 51
165.0000000000055
  0
LINE
  5
1F2
330
2
100
AcDbEntity
  8
GAIKEI
  6
HIDDEN2
 62
     1
100
AcDbLine
 10
-33.10311508955468
 20
16.90363202551793
 30
0.0
 11
-33.08190188595466
 21
16.8824188221181
 31
0.0
  0
ARC
  5
1F3
330
2
100
AcDbEntity
  8
GAIKEI
  6
HIDDEN2
 62
     1
100
AcDbCircle
 10
-33.12432829295469
 20
16.924845228918
 30
0.0
 40
0.03
100
AcDbArc
 50
314.9999999999954
 51
134.9999999999954
  0
ARC
  5
1F4
330
2
100
AcDbEntity
  8
GAIKEI
  6
HIDDEN2
 62
     1
100
AcDbCircle
 10
-31.24688096255468
 20
18.00909437751807
 30
0.0
 40
0.06
100
AcDbArc
 50
105.0000000000031
 51
285.0000000000031
  0
ARC
  5
1F5
330
2
100
AcDbEntity
  8
GAIKEI
  6
HIDDEN2
 62
     1
100
AcDbCircle
 10
-30.15984097315467
 20
13.95220590711801
 30
0.0
 40
4.139999999999999
100
AcDbArc
 50
74.99999999999684
 51
105.0000000000031
  0
ARC
  5
1F6
330
2
100
AcDbEntity
  8
GAIKEI
  6
HIDDEN2
 62
     1
100
AcDbCircle
 10
-29.07280098375469
 20
18.00909437751807
 30
0.0
 40
0.06
100
AcDbArc
 50
254.9999999999969
 51
74.99999999999684
  0
ARC
  5
1F7
330
2
100
AcDbEntity
  8
GAIKEI
  6
HIDDEN2
 62
     1
100
AcDbCircle
 10
-30.15984097315467
 20
13.95220590711801
 30
0.0
 40
4.26
100
AcDbArc
 50
74.99999999999684
 51
105.0000000000031
  0
ARC
  5
1F8
330
2
100
AcDbEntity
  8
GAIKEI
  6
HIDDEN2
 62
     1
100
AcDbCircle
 10
-31.24688096255468
 20
18.00909437751807
 30
0.0
 40
0.03
100
AcDbArc
 50
105.0000000000031
 51
285.0000000000031
  0
LINE
  5
1F9
330
2
100
AcDbEntity
  8
GAIKEI
  6
HIDDEN2
 62
     1
100
AcDbLine
 10
-31.23911639115468
 20
17.980116602718
 30
0.0
 11
-31.23135181975468
 21
17.95113882791793
 31
0.0
  0
LINE
  5
1FA
330
2
100
AcDbEntity
  8
GAIKEI
  6
HIDDEN2
 62
     1
100
AcDbLine
 10
-31.26241010515469
 20
18.06704992711798
 30
0.0
 11
-31.25464553395469
 21
18.03807215231791
 31
0.0
  0
LINE
  5
1FB
330
2
100
AcDbEntity
  8
GAIKEI
  6
HIDDEN2
 62
     1
100
AcDbLine
 10
-29.05727184095468
 20
18.06704992711798
 30
0.0
 11
-29.06503641235469
 21
18.03807215231791
 31
0.0
  0
ARC
  5
1FC
330
2
100
AcDbEntity
  8
GAIKEI
  6
HIDDEN2
 62
     1
100
AcDbCircle
 10
-30.15984097315467
 20
13.95220590711801
 30
0.0
 40
4.229999999999999
100
AcDbArc
 50
74.99999999999684
 51
105.0000000000031
  0
ARC
  5
1FD
330
2
100
AcDbEntity
  8
GAIKEI
  6
HIDDEN2
 62
     1
100
AcDbCircle
 10
-30.15984097315467
 20
13.95220590711801
 30
0.0
 40
4.17
100
AcDbArc
 50
74.99999999999684
 51
105.0000000000031
  0
LINE
  5
1FE
330
2
100
AcDbEntity
  8
GAIKEI
  6
HIDDEN2
 62
     1
100
AcDbLine
 10
-29.08056555495469
 20
17.980116602718
 30
0.0
 11
-29.08833012635469
 21
17.95113882791793
 31
0.0
  0
ARC
  5
1FF
330
2
100
AcDbEntity
  8
GAIKEI
  6
HIDDEN2
 62
     1
100
AcDbCircle
 10
-29.07280098375469
 20
18.00909437751807
 30
0.0
 40
0.03
100
AcDbArc
 50
254.9999999999969
 51
74.99999999999684
  0
ARC
  5
200
330
2
100
AcDbEntity
  8
GAIKEI
  6
HIDDEN2
 62
     1
100
AcDbCircle
 10
-30.16654978535468
 20
13.95854865631804
 30
0.0
 40
4.3700000912
100
AcDbArc
 50
243.9243500470018
 51
356.0245350169994
  0
ARC
  5
201
330
2
100
AcDbEntity
  8
GAIKEI
  6
HIDDEN2
 62
     1
100
AcDbCircle
 10
-30.16654978535468
 20
13.95854865631804
 30
0.0
 40
4.3700000912
100
AcDbArc
 50
123.8945209970038
 51
236.0624177210031
  0
ARC
  5
202
330
2
100
AcDbEntity
  8
GAIKEI
  6
HIDDEN2
 62
     1
100
AcDbCircle
 10
-30.17003601235467
 20
13.95352335591792
 30
0.0
 40
4.51
100
AcDbArc
 50
236.185584325001
 51
243.8152682139954
  0
LINE
  5
203
330
2
100
AcDbEntity
  8
GAIKEI
  6
HIDDEN2
 62
     1
100
AcDbLine
 10
-32.60824107615468
 20
10.13042830631798
 30
0.0
 11
-32.26183091455468
 21
9.930428306317935
 31
0.0
  0
LINE
  5
204
330
2
100
AcDbEntity
  8
GAIKEI
  6
HIDDEN2
 62
     1
100
AcDbLine
 10
-32.60824107615468
 20
10.13042830631798
 30
0.0
 11
-32.59602270695467
 21
10.15159114231801
 31
0.0
  0
LINE
  5
205
330
2
100
AcDbEntity
  8
GAIKEI
  6
HIDDEN2
 62
     1
100
AcDbLine
 10
-32.26183091455468
 20
9.930428306317935
 30
0.0
 11
-32.24961254555467
 21
9.951591142317965
 31
0.0
  0
LINE
  5
206
330
2
100
AcDbEntity
  8
GAIKEI
  6
HIDDEN2
 62
     1
100
AcDbLine
 10
-32.6260518605547
 20
10.09957912271807
 30
0.0
 11
-32.60824107615468
 21
10.13042830631798
 31
0.0
  0
LINE
  5
207
330
2
100
AcDbEntity
  8
GAIKEI
  6
HIDDEN2
 62
     1
100
AcDbLine
 10
-32.27964169895467
 20
9.899579122718023
 30
0.0
 11
-32.26183091455468
 21
9.930428306317935
 31
0.0
  0
ARC
  5
208
330
2
100
AcDbEntity
  8
GAIKEI
  6
HIDDEN2
 62
     1
100
AcDbCircle
 10
-30.17003601235467
 20
13.95352335591792
 30
0.0
 40
4.5
100
AcDbArc
 50
236.176946476003
 51
243.8244355549977
  0
LINE
  5
209
330
2
100
AcDbEntity
  8
GAIKEI
  6
HIDDEN2
 62
     1
100
AcDbLine
 10
-32.60968885715468
 20
10.3279206757179
 30
0.0
 11
-32.70991490435466
 21
10.15432407011803
 31
0.0
  0
ARC
  5
20A
330
2
100
AcDbEntity
  8
GAIKEI
  6
HIDDEN2
 62
     1
100
AcDbCircle
 10
-30.17003601235467
 20
13.95352335591792
 30
0.0
 40
4.57
100
AcDbArc
 50
236.2360824539988
 51
243.7639175459955
  0
LINE
  5
20B
330
2
100
AcDbEntity
  8
GAIKEI
  6
HIDDEN2
 62
     1
100
AcDbLine
 10
-32.19029966195467
 20
9.854324070118082
 30
0.0
 11
-32.09007361495469
 21
10.02792067571795
 31
0.0
  0
ARC
  5
20C
330
2
100
AcDbEntity
  8
GAIKEI
  6
HIDDEN2
 62
     1
100
AcDbCircle
 10
-30.17003601235467
 20
13.95352335591792
 30
0.0
 40
4.549999999999999
100
AcDbArc
 50
236.2195137619913
 51
237.4806924790008
  0
ARC
  5
20D
330
2
100
AcDbEntity
  8
GAIKEI
  6
HIDDEN2
 62
     1
100
AcDbCircle
 10
-30.17003601235467
 20
13.95352335591792
 30
0.0
 40
4.549999999999999
100
AcDbArc
 50
242.5193075209956
 51
243.7804862379978
  0
ARC
  5
20E
330
2
100
AcDbEntity
  8
GAIKEI
  6
HIDDEN2
 62
     1
100
AcDbCircle
 10
-30.17003601235467
 20
13.95352335591792
 30
0.0
 40
4.389999999999999
100
AcDbArc
 50
236.0815169690058
 51
243.9184830309946
  0
ARC
  5
20F
330
2
100
AcDbEntity
  8
GAIKEI
  6
HIDDEN2
 62
     1
100
AcDbCircle
 10
-30.16467485115467
 20
13.96149171071806
 30
0.0
 40
4.51
100
AcDbArc
 50
116.1855843250061
 51
123.8152682140036
  0
LINE
  5
210
330
2
100
AcDbEntity
  8
GAIKEI
  6
HIDDEN2
 62
     1
100
AcDbLine
 10
-32.25646975335468
 20
17.98458676031805
 30
0.0
 11
-32.60287991495469
 21
17.78458676031801
 31
0.0
  0
LINE
  5
211
330
2
100
AcDbEntity
  8
GAIKEI
  6
HIDDEN2
 62
     1
100
AcDbLine
 10
-32.25646975335468
 20
17.98458676031805
 30
0.0
 11
-32.24425138435467
 21
17.96342392431802
 31
0.0
  0
LINE
  5
212
330
2
100
AcDbEntity
  8
GAIKEI
  6
HIDDEN2
 62
     1
100
AcDbLine
 10
-32.60287991495469
 20
17.78458676031801
 30
0.0
 11
-32.59066154575467
 21
17.76342392431797
 31
0.0
  0
LINE
  5
213
330
2
100
AcDbEntity
  8
GAIKEI
  6
HIDDEN2
 62
     1
100
AcDbLine
 10
-32.27428053775469
 20
18.01543594391796
 30
0.0
 11
-32.25646975335468
 21
17.98458676031805
 31
0.0
  0
LINE
  5
214
330
2
100
AcDbEntity
  8
GAIKEI
  6
HIDDEN2
 62
     1
100
AcDbLine
 10
-32.62069069935467
 20
17.81543594391792
 30
0.0
 11
-32.60287991495469
 21
17.78458676031801
 31
0.0
  0
ARC
  5
215
330
2
100
AcDbEntity
  8
GAIKEI
  6
HIDDEN2
 62
     1
100
AcDbCircle
 10
-30.16467485115467
 20
13.96149171071806
 30
0.0
 40
4.5
100
AcDbArc
 50
116.1769464760043
 51
123.8244355550066
  0
LINE
  5
216
330
2
100
AcDbEntity
  8
GAIKEI
  6
HIDDEN2
 62
     1
100
AcDbLine
 10
-32.08471245375466
 20
17.88709439091803
 30
0.0
 11
-32.18493850075467
 21
18.06069099671799
 31
0.0
  0
ARC
  5
217
330
2
100
AcDbEntity
  8
GAIKEI
  6
HIDDEN2
 62
     1
100
AcDbCircle
 10
-30.16467485115467
 20
13.96149171071806
 30
0.0
 40
4.57
100
AcDbArc
 50
116.2360824540044
 51
123.7639175460012
  0
LINE
  5
218
330
2
100
AcDbEntity
  8
GAIKEI
  6
HIDDEN2
 62
     1
100
AcDbLine
 10
-32.70455374315469
 20
17.76069099671804
 30
0.0
 11
-32.60432769615468
 21
17.58709439091808
 31
0.0
  0
ARC
  5
219
330
2
100
AcDbEntity
  8
GAIKEI
  6
HIDDEN2
 62
     1
100
AcDbCircle
 10
-30.16467485115467
 20
13.96149171071806
 30
0.0
 40
4.549999999999999
100
AcDbArc
 50
116.2195137620021
 51
117.4806924790043
  0
ARC
  5
21A
330
2
100
AcDbEntity
  8
GAIKEI
  6
HIDDEN2
 62
     1
100
AcDbCircle
 10
-30.16467485115467
 20
13.96149171071806
 30
0.0
 40
4.549999999999999
100
AcDbArc
 50
122.5193075209992
 51
123.7804862380087
  0
ARC
  5
21B
330
2
100
AcDbEntity
  8
GAIKEI
  6
HIDDEN2
 62
     1
100
AcDbCircle
 10
-30.16467485115467
 20
13.96149171071806
 30
0.0
 40
4.389999999999999
100
AcDbArc
 50
116.0815169690054
 51
123.9184830309941
  0
ARC
  5
21C
330
2
100
AcDbEntity
  8
GAIKEI
  6
HIDDEN2
 62
     1
100
AcDbCircle
 10
-26.10805002235469
 20
15.04249337791793
 30
0.0
 40
0.03
100
AcDbArc
 50
194.9999999999944
 51
14.99999999999445
  0
LINE
  5
21D
330
2
100
AcDbEntity
  8
GAIKEI
  6
HIDDEN2
 62
     1
100
AcDbLine
 10
-26.13702779715467
 20
15.03472880671802
 30
0.0
 11
-26.16600557195468
 21
15.02696423531802
 31
0.0
  0
ARC
  5
21E
330
2
100
AcDbEntity
  8
GAIKEI
  6
HIDDEN2
 62
     1
100
AcDbCircle
 10
-30.16493849275469
 20
13.95545338851798
 30
0.0
 40
4.17
100
AcDbArc
 50
14.99999999999445
 51
45.0000000000046
  0
ARC
  5
21F
330
2
100
AcDbEntity
  8
GAIKEI
  6
HIDDEN2
 62
     1
100
AcDbCircle
 10
-30.16493849275469
 20
13.95545338851798
 30
0.0
 40
4.229999999999999
100
AcDbArc
 50
14.99999999999445
 51
45.0000000000046
  0
LINE
  5
220
330
2
100
AcDbEntity
  8
GAIKEI
  6
HIDDEN2
 62
     1
100
AcDbLine
 10
-26.05009447275467
 20
15.05802252071794
 30
0.0
 11
-26.07907224755468
 21
15.05025794931794
 31
0.0
  0
LINE
  5
221
330
2
100
AcDbEntity
  8
GAIKEI
  6
HIDDEN2
 62
     1
100
AcDbLine
 10
-27.15266360475468
 20
16.96772827631798
 30
0.0
 11
-27.17387680835469
 21
16.94651507291792
 31
0.0
  0
LINE
  5
222
330
2
100
AcDbEntity
  8
GAIKEI
  6
HIDDEN2
 62
     1
100
AcDbLine
 10
-27.21630321515468
 20
16.90408866611801
 30
0.0
 11
-27.23751641855467
 21
16.88287546271794
 31
0.0
  0
ARC
  5
223
330
2
100
AcDbEntity
  8
GAIKEI
  6
HIDDEN2
 62
     1
100
AcDbCircle
 10
-27.19509001175467
 20
16.92530186951785
 30
0.0
 40
0.03
100
AcDbArc
 50
45.0000000000046
 51
225.0000000000046
  0
ARC
  5
224
330
2
100
AcDbEntity
  8
GAIKEI
  6
HIDDEN2
 62
     1
100
AcDbCircle
 10
-30.16493849275469
 20
13.95545338851798
 30
0.0
 40
4.26
100
AcDbArc
 50
14.99999999999445
 51
45.0000000000046
  0
ARC
  5
225
330
2
100
AcDbEntity
  8
GAIKEI
  6
HIDDEN2
 62
     1
100
AcDbCircle
 10
-26.10805002235469
 20
15.04249337791793
 30
0.0
 40
0.06
100
AcDbArc
 50
194.9999999999944
 51
14.99999999999445
  0
ARC
  5
226
330
2
100
AcDbEntity
  8
GAIKEI
  6
HIDDEN2
 62
     1
100
AcDbCircle
 10
-30.16493849275469
 20
13.95545338851798
 30
0.0
 40
4.139999999999999
100
AcDbArc
 50
14.99999999999445
 51
45.0000000000046
  0
ARC
  5
227
330
2
100
AcDbEntity
  8
GAIKEI
  6
HIDDEN2
 62
     1
100
AcDbCircle
 10
-27.19509001175467
 20
16.92530186951785
 30
0.0
 40
0.06
100
AcDbArc
 50
45.0000000000046
 51
225.0000000000046
  0
ARC
  5
228
330
2
100
AcDbEntity
  8
GAIKEI
  6
HIDDEN2
 62
     1
100
AcDbCircle
 10
-30.16493849275469
 20
13.95545338851798
 30
0.0
 40
4.389999999999999
100
AcDbArc
 50
356.0815169689922
 51
3.918483031007742
  0
ARC
  5
229
330
2
100
AcDbEntity
  8
GAIKEI
  6
HIDDEN2
 62
     1
100
AcDbCircle
 10
-30.16493849275469
 20
13.95545338851798
 30
0.0
 40
4.549999999999999
100
AcDbArc
 50
2.519307520997304
 51
3.780486238009709
  0
ARC
  5
22A
330
2
100
AcDbEntity
  8
GAIKEI
  6
HIDDEN2
 62
     1
100
AcDbCircle
 10
-30.16493849275469
 20
13.95545338851798
 30
0.0
 40
4.549999999999999
100
AcDbArc
 50
356.2195137619903
 51
357.4806924790027
  0
LINE
  5
22B
330
2
100
AcDbEntity
  8
GAIKEI
  6
HIDDEN2
 62
     1
100
AcDbLine
 10
-25.60479595115467
 20
14.25545338851793
 30
0.0
 11
-25.80524804515468
 21
14.25545338851793
 31
0.0
  0
ARC
  5
22C
330
2
100
AcDbEntity
  8
GAIKEI
  6
HIDDEN2
 62
     1
100
AcDbCircle
 10
-30.16493849275469
 20
13.95545338851798
 30
0.0
 40
4.57
100
AcDbArc
 50
356.2360824540078
 51
3.76391754599216
  0
LINE
  5
22D
330
2
100
AcDbEntity
  8
GAIKEI
  6
HIDDEN2
 62
     1
100
AcDbLine
 10
-25.80524804515468
 20
13.65545338851802
 30
0.0
 11
-25.60479595115467
 21
13.65545338851802
 31
0.0
  0
ARC
  5
22E
330
2
100
AcDbEntity
  8
GAIKEI
  6
HIDDEN2
 62
     1
100
AcDbCircle
 10
-30.16493849275469
 20
13.95545338851798
 30
0.0
 40
4.5
100
AcDbArc
 50
356.1769464759878
 51
3.824435554996905
  0
LINE
  5
22F
330
2
100
AcDbEntity
  8
GAIKEI
  6
HIDDEN2
 62
     1
100
AcDbLine
 10
-25.59931695775467
 20
14.15545338851802
 30
0.0
 11
-25.63493852675467
 21
14.15545338851802
 31
0.0
  0
LINE
  5
230
330
2
100
AcDbEntity
  8
GAIKEI
  6
HIDDEN2
 62
     1
100
AcDbLine
 10
-25.59931695775467
 20
13.75545338851793
 30
0.0
 11
-25.63493852675467
 21
13.75545338851793
 31
0.0
  0
LINE
  5
231
330
2
100
AcDbEntity
  8
GAIKEI
  6
HIDDEN2
 62
     1
100
AcDbLine
 10
-25.63493852675467
 20
14.15545338851802
 30
0.0
 11
-25.65937526495469
 21
14.15545338851802
 31
0.0
  0
LINE
  5
232
330
2
100
AcDbEntity
  8
GAIKEI
  6
HIDDEN2
 62
     1
100
AcDbLine
 10
-25.63493852675467
 20
13.75545338851793
 30
0.0
 11
-25.65937526495469
 21
13.75545338851793
 31
0.0
  0
LINE
  5
233
330
2
100
AcDbEntity
  8
GAIKEI
  6
HIDDEN2
 62
     1
100
AcDbLine
 10
-25.63493852675467
 20
13.75545338851793
 30
0.0
 11
-25.63493852675467
 21
14.15545338851802
 31
0.0
  0
ARC
  5
234
330
2
100
AcDbEntity
  8
GAIKEI
  6
HIDDEN2
 62
     1
100
AcDbCircle
 10
-30.16493849275469
 20
13.95545338851798
 30
0.0
 40
4.51
100
AcDbArc
 50
356.1855843250067
 51
3.81526821399603
  0
DIMENSION
  5
235
330
2
100
AcDbEntity
  8
SUNPO
100
AcDbDimension
  2
*D5
 10
-13.66938492972252
 20
6.255947544773218
 30
0.0
 11
-15.41938492972252
 21
14.5559479205346
 31
0.0
 70
    33
  1
83
 71
     5
 42
16.60000075152277
  3
STANDARD
100
AcDbAlignedDimension
 13
-21.66938492972253
 23
22.85594829629599
 33
0.0
 14
-21.66938492972253
 24
6.255947544773221
 34
0.0
1001
ACAD
1000
DSTYLE
1002
{
1070
   287
1070
     3
1070
    40
1040
1.0
1070
   140
1040
2.5
1070
   147
1040
0.5
1070
   172
1070
     1
1070
   279
1070
     0
1070
   288
1070
     0
1070
   341
1005
0
1002
}
  0
DIMENSION
  5
242
330
2
100
AcDbEntity
  8
SUNPO
100
AcDbDimension
  2
*D4
 10
-21.66938492972253
 20
30.84924783146039
 30
0.0
 11
-30.06938492972124
 21
32.59924783146039
 31
0.0
 70
    33
  1
84
 71
     5
 42
16.79999999999742
  3
STANDARD
100
AcDbAlignedDimension
 13
-38.46938492971995
 23
22.84924783146039
 33
0.0
 14
-21.66938492972253
 24
22.84924783146039
 34
0.0
1001
ACAD
1000
DSTYLE
1002
{
1070
   287
1070
     3
1070
    40
1040
1.0
1070
   140
1040
2.5
1070
   147
1040
0.5
1070
   172
1070
     1
1070
   279
1070
     0
1070
   288
1070
     0
1070
   341
1005
0
1002
}
  0
ARC
  5
24F
330
2
100
AcDbEntity
  8
GAIKEI
  6
Continuous
 62
     1
100
AcDbCircle
 10
-35.62363230707894
 20
6.727356949940599
 30
0.0
 40
0.3
100
AcDbArc
 50
217.2875502362227
 51
270.0
  0
ARC
  5
250
330
2
100
AcDbEntity
  8
GAIKEI
  6
Continuous
 62
     1
100
AcDbCircle
 10
-24.51513755236357
 20
6.727356949940599
 30
0.0
 40
0.3
100
AcDbArc
 50
270.0
 51
322.7124497637809
  0
ARC
  5
251
330
2
100
AcDbEntity
  8
GAIKEI
  6
Continuous
100
AcDbCircle
 10
-36.56067554274836
 20
20.35594830771259
 30
0.0
 40
0.5
100
AcDbArc
 50
90.0
 51
137.1701220195253
  0
ARC
  5
252
330
2
100
AcDbEntity
  8
GAIKEI
  6
Continuous
100
AcDbCircle
 10
-23.57809431669415
 20
20.35594830771259
 30
0.0
 40
0.5
100
AcDbArc
 50
42.82987798048738
 51
90.0
  0
ARC
  5
253
330
2
100
AcDbEntity
  8
GAIKEI
  6
Continuous
100
AcDbCircle
 10
-35.52501117731342
 20
7.11992156482654
 30
0.0
 40
0.8675615115162987
100
AcDbArc
 50
237.4532815784563
 51
259.0259927231449
  0
ARC
  5
254
330
2
100
AcDbEntity
  8
GAIKEI
  6
Continuous
100
AcDbCircle
 10
-24.58822222275614
 20
7.055947544773232
 30
0.0
 40
0.8
100
AcDbArc
 50
270.0
 51
303.470019887257
  0
ARC
  5
255
330
2
100
AcDbEntity
  8
GAIKEI
  6
Continuous
 62
     1
100
AcDbCircle
 10
-36.21412237897298
 20
20.1845395701178
 30
0.0
 40
0.5
100
AcDbArc
 50
90.0
 51
145.7904993465525
  0
ARC
  5
256
330
2
100
AcDbEntity
  8
GAIKEI
  6
Continuous
 62
     1
100
AcDbCircle
 10
-23.92464748046933
 20
20.1845395701178
 30
0.0
 40
0.4999999999998
100
AcDbArc
 50
34.20950065345558
 51
90.0
  0
ARC
  5
257
330
2
100
AcDbEntity
  8
GAIKEI
  6
Continuous
100
AcDbCircle
 10
-25.60410969960174
 20
22.75594829629603
 30
0.0
 40
0.1
100
AcDbArc
 50
51.44765873675704
 51
90.0
  0
ARC
  5
258
330
2
100
AcDbEntity
  8
GAIKEI
  6
Continuous
100
AcDbCircle
 10
-34.53466015984077
 20
22.75594829629603
 30
0.0
 40
0.1
100
AcDbArc
 50
90.0
 51
128.5523412632371
  0
ARC
  5
259
330
2
100
AcDbEntity
  8
GAIKEI
  6
Continuous
100
AcDbCircle
 10
-29.61938492972115
 20
21.75594829629603
 30
0.0
 40
0.1
100
AcDbArc
 50
270.0
 51
0.0
  0
ARC
  5
25A
330
2
100
AcDbEntity
  8
GAIKEI
  6
Continuous
100
AcDbCircle
 10
-30.51938492972116
 20
21.75594829629603
 30
0.0
 40
0.1
100
AcDbArc
 50
180.0
 51
270.0
  0
ARC
  5
25B
330
2
100
AcDbEntity
  8
GAIKEI
  6
Continuous
 62
     1
100
AcDbCircle
 10
-38.59760640631194
 20
14.20594973822403
 30
0.0
 40
0.1
100
AcDbArc
 50
90.0
 51
149.2222468774711
  0
ARC
  5
25C
330
2
100
AcDbEntity
  8
GAIKEI
  6
Continuous
 62
     1
100
AcDbCircle
 10
-37.12130331567477
 20
7.505948212345231
 30
0.0
 40
0.0999999999998
100
AcDbArc
 50
240.8500852311691
 51
270.0
  0
ARC
  5
25D
330
2
100
AcDbEntity
  8
GAIKEI
  6
Continuous
100
AcDbCircle
 10
57.01120801796301
 20
20.65594835995819
 30
0.0
 40
0.2
100
AcDbArc
 50
359.8851787271993
 51
90.00000013733481
  0
ARC
  5
25E
330
2
100
AcDbEntity
  8
GAIKEI
  6
Continuous
100
AcDbCircle
 10
54.70627339603002
 20
6.45594821234539
 30
0.0
 40
0.2
100
AcDbArc
 50
270.0
 51
334.2482405878986
  0
ARC
  5
25F
330
2
100
AcDbEntity
  8
GAIKEI
  6
Continuous
100
AcDbCircle
 10
18.21141147070457
 20
6.820435855186588
 30
0.0
 40
0.4
100
AcDbArc
 50
180.0
 51
268.9999999999917
  0
ARC
  5
260
330
2
100
AcDbEntity
  8
GAIKEI
  6
Continuous
100
AcDbCircle
 10
18.21141147070457
 20
20.29146066487141
 30
0.0
 40
0.4000000000002001
100
AcDbArc
 50
91.00000000000827
 51
180.0
  0
ARC
  5
261
330
2
100
AcDbEntity
  8
GAIKEI
  6
Continuous
 62
     1
100
AcDbCircle
 10
26.63141147070439
 20
13.05594830771258
 30
0.0
 40
0.1
100
AcDbArc
 50
0.0
 51
90.0
  0
ARC
  5
262
330
2
100
AcDbEntity
  8
GAIKEI
  6
Continuous
 62
     1
100
AcDbCircle
 10
26.63141147070439
 20
11.85594830771259
 30
0.0
 40
0.1
100
AcDbArc
 50
270.0
 51
0.0
  0
ARC
  5
263
330
2
100
AcDbEntity
  8
GAIKEI
  6
Continuous
 62
     1
100
AcDbCircle
 10
19.13141147070439
 20
11.85594830771259
 30
0.0
 40
0.1
100
AcDbArc
 50
180.0
 51
270.0
  0
ARC
  5
264
330
2
100
AcDbEntity
  8
GAIKEI
  6
Continuous
 62
     1
100
AcDbCircle
 10
19.13141147070439
 20
13.05594830771258
 30
0.0
 40
0.1
100
AcDbArc
 50
90.0
 51
180.0
  0
ARC
  5
265
330
2
100
AcDbEntity
  8
GAIKEI
  6
Continuous
 62
     1
100
AcDbCircle
 10
26.6514114707044
 20
13.21594830771261
 30
0.0
 40
0.24
100
AcDbArc
 50
0.0
 51
90.0
  0
ARC
  5
266
330
2
100
AcDbEntity
  8
GAIKEI
  6
Continuous
 62
     1
100
AcDbCircle
 10
26.6514114707044
 20
11.69594830771262
 30
0.0
 40
0.24
100
AcDbArc
 50
270.0
 51
0.0
  0
ARC
  5
267
330
2
100
AcDbEntity
  8
GAIKEI
  6
Continuous
 62
     1
100
AcDbCircle
 10
19.11141147070438
 20
11.69594830771262
 30
0.0
 40
0.24
100
AcDbArc
 50
180.0
 51
270.0
  0
ARC
  5
268
330
2
100
AcDbEntity
  8
GAIKEI
  6
Continuous
 62
     1
100
AcDbCircle
 10
19.11141147070438
 20
13.21594830771261
 30
0.0
 40
0.24
100
AcDbArc
 50
90.0
 51
180.0
  0
ARC
  5
269
330
2
100
AcDbEntity
  8
GAIKEI
  6
Continuous
100
AcDbCircle
 10
35.00608157981918
 20
22.75594829629603
 30
0.0
 40
0.1000000000002
100
AcDbArc
 50
61.60814684342165
 51
90.0
  0
ARC
  5
26A
330
2
100
AcDbEntity
  8
GAIKEI
  6
Continuous
100
AcDbCircle
 10
-42.7885915810534
 20
20.85594835039501
 30
0.0
 40
99.99999999999982
100
AcDbArc
 50
357.7075572296916
 51
359.8851787272026
  0
ARC
  5
26B
330
2
100
AcDbEntity
  8
GAIKEI
  6
Continuous
 62
     1
100
AcDbCircle
 10
-36.96520497354416
 20
13.23370205255003
 30
0.0
 40
2.0000000000002
100
AcDbArc
 50
149.2222468774711
 51
180.0
  0
ARC
  5
26C
330
2
100
AcDbEntity
  8
GAIKEI
  6
Continuous
 62
     1
100
AcDbCircle
 10
-27.38202526301754
 20
17.83406988757144
 30
0.0
 40
4.680689998054
100
AcDbArc
 50
20.04199584276559
 51
34.20950065345919
  0
ARC
  5
26D
330
2
100
AcDbEntity
  8
GAIKEI
  6
Continuous
100
AcDbCircle
 10
-24.47151719753174
 20
14.81161461759063
 30
0.0
 40
13.9999999999986
100
AcDbArc
 50
160.7027427004915
 51
182.0699119001426
  0
ARC
  5
26E
330
2
100
AcDbEntity
  8
GAIKEI
  6
Continuous
 62
     7
100
AcDbCircle
 10
-17.27261379240454
 20
15.32593932418302
 30
0.0
 40
21.19999999999981
100
AcDbArc
 50
199.923934704091
 51
201.0255933150848
  0
ARC
  5
26F
330
2
100
AcDbEntity
  8
GAIKEI
  6
Continuous
100
AcDbCircle
 10
-34.28721162577156
 20
18.24849443675742
 30
0.0
 40
3.6
100
AcDbArc
 50
137.1701220195172
 51
160.7027427004915
  0
ARC
  5
270
330
2
100
AcDbEntity
  8
GAIKEI
  6
Continuous
100
AcDbCircle
 10
-34.44754648144914
 20
8.724296564476617
 30
0.0
 40
2.8
100
AcDbArc
 50
201.0255933150848
 51
236.5299801127443
  0
ARC
  5
271
330
2
100
AcDbEntity
  8
GAIKEI
  6
Continuous
100
AcDbCircle
 10
-25.85155823367097
 20
18.24849443675742
 30
0.0
 40
3.5999999999998
100
AcDbArc
 50
19.29725729950845
 51
42.82987798048278
  0
ARC
  5
272
330
2
100
AcDbEntity
  8
GAIKEI
  6
Continuous
100
AcDbCircle
 10
-35.66725266191077
 20
14.81161461759063
 30
0.0
 40
13.9999999999988
100
AcDbArc
 50
1.000000000001761
 51
19.29725729950538
  0
ARC
  5
273
330
2
100
AcDbEntity
  8
GAIKEI
  6
Continuous
100
AcDbCircle
 10
-42.86615606703813
 20
15.32593932418302
 30
0.0
 40
21.2000000000002
100
AcDbArc
 50
349.0025272711242
 51
358.9999999999982
  0
ARC
  5
274
330
2
100
AcDbEntity
  8
GAIKEI
  6
Continuous
100
AcDbCircle
 10
-25.69122337799337
 20
8.724296564476617
 30
0.0
 40
2.8
100
AcDbArc
 50
303.4700198872557
 51
338.9744066849152
  0
ARC
  5
275
330
2
100
AcDbEntity
  8
GAIKEI
  6
Continuous
 62
     1
100
AcDbCircle
 10
-10.86333138208232
 20
16.55785682235307
 30
0.0
 40
27.15308833300862
100
AcDbArc
 50
183.3728754779872
 51
196.4993840796273
  0
ARC
  5
276
330
2
100
AcDbEntity
  8
GAIKEI
  6
Continuous
 62
     1
100
AcDbCircle
 10
-31.94348367169454
 20
9.52961540974843
 30
0.0
 40
4.9255968754406
100
AcDbArc
 50
201.5585139883886
 51
217.2875502362273
  0
ARC
  5
277
330
2
100
AcDbEntity
  8
GAIKEI
  6
Continuous
 62
     1
100
AcDbCircle
 10
-42.86615606703813
 20
15.32593932418302
 30
0.0
 40
20.7000000000002
100
AcDbArc
 50
349.0025272711274
 51
358.9758449801707
  0
ARC
  5
278
330
2
100
AcDbEntity
  8
GAIKEI
  6
Continuous
 62
     1
100
AcDbCircle
 10
-28.19528618774797
 20
9.52961540974843
 30
0.0
 40
4.9255968754406
100
AcDbArc
 50
322.7124497637773
 51
338.4414860116114
  0
ARC
  5
279
330
2
100
AcDbEntity
  8
GAIKEI
  6
Continuous
 62
     1
100
AcDbCircle
 10
-24.47151719753174
 20
14.81161461759063
 30
0.0
 40
13.4999999999986
100
AcDbArc
 50
159.9580041572344
 51
178.9816493668135
  0
ARC
  5
27A
330
2
100
AcDbEntity
  8
GAIKEI
  6
Continuous
 62
     1
100
AcDbCircle
 10
-35.66725266191077
 20
14.81161461759063
 30
0.0
 40
13.4999999999986
100
AcDbArc
 50
1.037044248323902
 51
20.04199584276559
  0
ARC
  5
27B
330
2
100
AcDbEntity
  8
GAIKEI
  6
Continuous
100
AcDbCircle
 10
-42.86615606703813
 20
15.32593932418302
 30
0.0
 40
21.2000000000002
100
AcDbArc
 50
338.9744066849152
 51
349.0025272711242
  0
ARC
  5
27C
330
2
100
AcDbEntity
  8
GAIKEI
  6
Continuous
 62
     1
100
AcDbCircle
 10
-42.86615606703813
 20
15.32593932418302
 30
0.0
 40
20.7
100
AcDbArc
 50
338.4414860116114
 51
349.0025272711274
  0
ARC
  5
27D
330
2
100
AcDbEntity
  8
GAIKEI
  6
Continuous
 62
     1
100
AcDbCircle
 10
-32.75674459642477
 20
17.83406988757144
 30
0.0
 40
4.680689998053799
100
AcDbArc
 50
145.7904993465408
 51
159.9580041572344
  0
ARC
  5
27E
330
2
100
AcDbEntity
  8
GAIKEI
  6
Continuous
100
AcDbCircle
 10
-28.03470401157216
 20
19.7059956260702
 30
0.0
 40
4.0
100
AcDbArc
 50
19.72391335348841
 51
51.44765873675704
  0
ARC
  5
27F
330
2
100
AcDbEntity
  8
GAIKEI
  6
Continuous
100
AcDbCircle
 10
-32.10406584787035
 20
19.7059956260702
 30
0.0
 40
4.0
100
AcDbArc
 50
128.0486074449316
 51
128.5523412632429
  0
ARC
  5
280
330
2
100
AcDbEntity
  8
GAIKEI
  6
Continuous
100
AcDbCircle
 10
-32.10406584787035
 20
19.7059956260702
 30
0.0
 40
4.0
100
AcDbArc
 50
128.5523412632429
 51
160.2760866465116
  0
ARC
  5
281
330
2
100
AcDbEntity
  8
GAIKEI
  6
Continuous
 62
     7
100
AcDbCircle
 10
-17.29919684510395
 20
15.35420300565323
 30
0.0
 40
21.1799999999998
100
AcDbArc
 50
182.8368760633004
 51
192.7133438141909
  0
ARC
  5
282
330
2
100
AcDbEntity
  8
GAIKEI
  6
Continuous
 62
     1
100
AcDbCircle
 10
-17.29919684510395
 20
15.35420300565323
 30
0.0
 40
21.2799999999998
100
AcDbArc
 50
190.6773130258525
 51
192.7133438141909
  0
ARC
  5
283
330
2
100
AcDbEntity
  8
GAIKEI
  6
Continuous
 62
     1
100
AcDbCircle
 10
-39.37805099614676
 20
10.16704584811719
 30
0.0
 40
1.4000000000002
100
AcDbArc
 50
341.7308809797196
 51
13.22117321123666
  0
ARC
  5
284
330
2
100
AcDbEntity
  8
GAIKEI
  6
Continuous
 62
     1
100
AcDbCircle
 10
-17.29919684510395
 20
15.35420300565323
 30
0.0
 40
21.28
100
AcDbArc
 50
192.7133438141909
 51
193.2211732112497
  0
ARC
  5
285
330
2
100
AcDbEntity
  8
GAIKEI
  6
Continuous
 62
     1
100
AcDbCircle
 10
-39.58652068914015
 20
11.15210878121604
 30
0.0
 40
1.4
100
AcDbArc
 50
10.67731302585253
 51
59.30370771322646
  0
ARC
  5
286
330
2
100
AcDbEntity
  8
GAIKEI
  6
Continuous
 62
     7
100
AcDbCircle
 10
9.217190117113062
 20
23.05385513284273
 30
0.0
 40
48.76956563581479
100
AcDbArc
 50
194.6819543305993
 51
196.5681930927909
  0
ARC
  5
287
330
2
100
AcDbEntity
  8
GAIKEI
  6
Continuous
 62
     1
100
AcDbCircle
 10
-36.96520497354416
 20
13.23370205255003
 30
0.0
 40
2.0000000000002
100
AcDbArc
 50
180.0
 51
186.1541803442948
  0
ARC
  5
288
330
2
100
AcDbEntity
  8
GAIKEI
  6
Continuous
 62
     1
100
AcDbCircle
 10
-36.39065870653155
 20
8.81597052327379
 30
0.0
 40
1.6000000000002
100
AcDbArc
 50
198.904738651722
 51
240.8500852310218
  0
ARC
  5
289
330
2
100
AcDbEntity
  8
GAIKEI
  6
Continuous
 62
     1
100
AcDbCircle
 10
-17.29919684510395
 20
15.35420300565323
 30
0.0
 40
21.78
100
AcDbArc
 50
198.4087315133261
 51
198.9047386517323
  0
ARC
  5
28A
330
2
100
AcDbEntity
  8
GAIKEI
  6
Continuous
 62
     1
100
AcDbCircle
 10
-17.29919684510395
 20
15.35420300565323
 30
0.0
 40
21.78
100
AcDbArc
 50
187.9125161715321
 51
190.0071439004701
  0
ARC
  5
28B
330
2
100
AcDbEntity
  8
GAIKEI
  6
Continuous
 62
     1
100
AcDbCircle
 10
-17.29919684510395
 20
15.35420300565323
 30
0.0
 40
21.78
100
AcDbArc
 50
186.154180344298
 51
187.9125161715321
  0
ARC
  5
28C
330
2
100
AcDbEntity
  8
GAIKEI
  6
Continuous
100
AcDbCircle
 10
-42.7885915810534
 20
20.85594835039501
 30
0.0
 40
100.0
100
AcDbArc
 50
359.9206634616126
 51
0.0000000057549211
  0
ARC
  5
28D
330
2
100
AcDbEntity
  8
GAIKEI
  6
Continuous
100
AcDbCircle
 10
17.16338920380778
 20
18.45594835630584
 30
0.0
 40
40.0
100
AcDbArc
 50
355.1239751345069
 51
357.7075572296916
  0
ARC
  5
28E
330
2
100
AcDbEntity
  8
GAIKEI
  6
Continuous
100
AcDbCircle
 10
36.87271241255098
 20
15.05851193768581
 30
0.0
 40
20.0000000000002
100
AcDbArc
 50
334.2482405879132
 51
350.219631561631
  0
ARC
  5
28F
330
2
100
AcDbEntity
  8
GAIKEI
  6
Continuous
100
AcDbCircle
 10
17.16338920380801
 20
18.45594900896503
 30
0.0
 40
39.9999999999998
100
AcDbArc
 50
350.219631561631
 51
354.9801988599826
  0
ARC
  5
290
330
2
100
AcDbEntity
  8
GAIKEI
  6
Continuous
100
AcDbCircle
 10
44.56361404657937
 20
40.43824376794861
 30
0.0
 40
20.0
100
AcDbArc
 50
241.6081468434158
 51
255.7229926802862
  0
ARC
  5
291
330
2
100
AcDbEntity
  8
GAIKEI
  6
Phantom
100
AcDbCircle
 10
44.56361404657937
 20
40.43824376794861
 30
0.0
 40
20.0
100
AcDbArc
 50
241.5357627809448
 51
241.6081468434158
  0
LINE
  5
293
330
2
100
AcDbEntity
  8
GAIKEI
  6
Continuous
100
AcDbLine
 10
57.01120801748359
 20
20.85594835995824
 30
0.0
 11
27.73140841894659
 21
20.8559482897698
 31
0.0
  0
LINE
  5
294
330
2
100
AcDbEntity
  8
GAIKEI
  6
Continuous
100
AcDbLine
 10
-37.96938492971995
 20
15.05154519988542
 30
0.0
 11
-37.96938492971995
 21
14.96033777934662
 31
0.0
  0
LINE
  5
295
330
2
100
AcDbEntity
  8
GAIKEI
  6
Continuous
100
AcDbLine
 10
-22.16938492972253
 20
14.95594830771262
 30
0.0
 11
-22.16938492972253
 21
15.05594830771258
 31
0.0
  0
LINE
  5
296
330
2
100
AcDbEntity
  8
GAIKEI
  6
Continuous
 62
     1
100
AcDbLine
 10
-35.62363230707894
 20
6.427356949940644
 30
0.0
 11
-24.51513755236357
 21
6.427356949940644
 31
0.0
  0
LINE
  5
297
330
2
100
AcDbEntity
  8
GAIKEI
  6
Continuous
100
AcDbLine
 10
-36.56067554274836
 20
20.8559483077126
 30
0.0
 11
-30.06938492972137
 21
20.8559483077126
 31
0.0
  0
LINE
  5
298
330
2
100
AcDbEntity
  8
GAIKEI
  6
Continuous
100
AcDbLine
 10
-35.55054763668633
 20
6.255947544773164
 30
0.0
 11
-30.06938492972137
 21
6.255947544773221
 31
0.0
  0
LINE
  5
299
330
2
100
AcDbEntity
  8
GAIKEI
  6
Continuous
100
AcDbLine
 10
-30.06938492972137
 20
20.8559483077126
 30
0.0
 11
-23.57809431669415
 21
20.8559483077126
 31
0.0
  0
LINE
  5
29A
330
2
100
AcDbEntity
  8
GAIKEI
  6
Continuous
100
AcDbLine
 10
-30.06938492972137
 20
6.255947544773221
 30
0.0
 11
-24.58822222275614
 21
6.255947544773221
 31
0.0
  0
LINE
  5
29B
330
2
100
AcDbEntity
  8
GAIKEI
  6
Continuous
100
AcDbLine
 10
-38.46938492971995
 20
15.05594830771258
 30
0.0
 11
-38.46938492971995
 21
14.95594830771262
 31
0.0
  0
LINE
  5
29C
330
2
100
AcDbEntity
  8
GAIKEI
  6
Continuous
100
AcDbLine
 10
-21.66938492972253
 20
14.95594830771262
 30
0.0
 11
-21.66938492972253
 21
15.05594830771258
 31
0.0
  0
LINE
  5
29D
330
2
100
AcDbEntity
  8
GAIKEI
  6
Continuous
100
AcDbLine
 10
-36.66938492972136
 20
20.68453957011781
 30
0.0
 11
-36.66938302815777
 21
20.68453957011781
 31
0.0
  0
LINE
  5
29E
330
2
100
AcDbEntity
  8
GAIKEI
  6
Continuous
 62
     1
100
AcDbLine
 10
-36.21412237897298
 20
20.68453957011781
 30
0.0
 11
-23.92464748046933
 21
20.68453957011781
 31
0.0
  0
LINE
  5
29F
330
2
100
AcDbEntity
  8
GAIKEI
  6
Continuous
100
AcDbLine
 10
-34.53466015984077
 20
22.85594829629599
 30
0.0
 11
-34.56938492972114
 21
22.85594829629599
 31
0.0
  0
LINE
  5
2A0
330
2
100
AcDbEntity
  8
GAIKEI
  6
Continuous
100
AcDbLine
 10
-24.26938492972116
 20
20.85594829629599
 30
0.0
 11
-24.26938492972116
 21
21.05594829629604
 31
0.0
  0
LINE
  5
2A1
330
2
100
AcDbEntity
  8
GAIKEI
  6
Continuous
100
AcDbLine
 10
-29.61938492972115
 20
21.65594829629601
 30
0.0
 11
-30.51938492972116
 21
21.65594829629601
 31
0.0
  0
LINE
  5
2A2
330
2
100
AcDbEntity
  8
GAIKEI
  6
Continuous
100
AcDbLine
 10
-30.61938492972115
 20
22.85594829629599
 30
0.0
 11
-30.61938492972115
 21
21.75594829629603
 31
0.0
  0
LINE
  5
2A3
330
2
100
AcDbEntity
  8
GAIKEI
  6
Continuous
100
AcDbLine
 10
-29.51938492972116
 20
22.85594829629599
 30
0.0
 11
-29.51938492972116
 21
21.75594829629603
 31
0.0
  0
LINE
  5
2A4
330
2
100
AcDbEntity
  8
GAIKEI
  6
Continuous
100
AcDbLine
 10
-35.86938492972115
 20
21.05594829629604
 30
0.0
 11
-35.86938492972115
 21
20.85594829629599
 31
0.0
  0
LINE
  5
2A5
330
2
100
AcDbEntity
  8
GAIKEI
  6
Continuous
100
AcDbLine
 10
-24.26938492972116
 20
21.05594829629604
 30
0.0
 11
-35.86938492972115
 21
21.05594829629604
 31
0.0
  0
LINE
  5
2A6
330
2
100
AcDbEntity
  8
GAIKEI
  6
Continuous
100
AcDbLine
 10
-25.60410969960174
 20
22.85594829629599
 30
0.0
 11
-34.53466015984077
 21
22.85594829629599
 31
0.0
  0
LINE
  5
2A7
330
2
100
AcDbEntity
  8
GAIKEI
  6
Continuous
100
AcDbLine
 10
-24.26938492972116
 20
20.85594829629599
 30
0.0
 11
-35.86938492972115
 21
20.85594829629599
 31
0.0
  0
LINE
  5
2A8
330
2
100
AcDbEntity
  8
GAIKEI
  6
Phantom
100
AcDbLine
 10
-30.61938492972115
 20
21.7542030556524
 30
0.0
 11
-30.61938492972115
 21
21.65594829629601
 31
0.0
  0
LINE
  5
2A9
330
2
100
AcDbEntity
  8
GAIKEI
  6
Phantom
100
AcDbLine
 10
-29.51938492972116
 20
21.7542030556524
 30
0.0
 11
-29.51938492972116
 21
21.65594829629601
 31
0.0
  0
LINE
  5
2AA
330
2
100
AcDbEntity
  8
GAIKEI
  6
Phantom
100
AcDbLine
 10
-29.51938492972116
 20
21.65594829629601
 30
0.0
 11
-29.61765465603276
 21
21.65594829629601
 31
0.0
  0
LINE
  5
2AB
330
2
100
AcDbEntity
  8
GAIKEI
  6
Phantom
100
AcDbLine
 10
-30.52111520340958
 20
21.65594829629601
 30
0.0
 11
-30.61938492972115
 21
21.65594829629601
 31
0.0
  0
LINE
  5
2AC
330
2
100
AcDbEntity
  8
GAIKEI
  6
Continuous
 62
     1
100
AcDbLine
 10
-37.12130331567477
 20
7.405948212345208
 30
0.0
 11
-36.93125342969654
 21
7.405948212345208
 31
0.0
  0
LINE
  5
2AD
330
2
100
AcDbEntity
  8
GAIKEI
  6
Continuous
 62
     1
100
AcDbLine
 10
-38.59760640631194
 20
14.305949738224
 30
0.0
 11
-38.45324055044116
 21
14.305949738224
 31
0.0
  0
LINE
  5
2AE
330
2
100
AcDbEntity
  8
GAIKEI
  6
Continuous
 62
     1
100
AcDbLine
 10
57.01862725377421
 20
15.05594835917139
 30
0.0
 11
42.53141156607139
 21
15.0559483312544
 31
0.0
  0
LINE
  5
2AF
330
2
100
AcDbEntity
  8
GAIKEI
  6
Continuous
100
AcDbLine
 10
57.2114084189466
 20
20.85594836043822
 30
0.0
 11
57.08145578940801
 21
20.8559483601266
 31
0.0
  0
LINE
  5
2B0
330
2
100
AcDbEntity
  8
GAIKEI
  6
Continuous
 62
     1
100
AcDbLine
 10
42.53141156607139
 20
15.05594833132238
 30
0.0
 11
27.73140841894639
 21
15.055948307883
 31
0.0
  0
LINE
  5
2B1
330
2
100
AcDbEntity
  8
GAIKEI
  6
Continuous
 62
     1
100
AcDbLine
 10
27.73140841894659
 20
20.8559483077126
 30
0.0
 11
27.73140841894639
 21
15.055948307883
 31
0.0
  0
LINE
  5
2B2
330
2
100
AcDbEntity
  8
GAIKEI
  6
Continuous
100
AcDbLine
 10
54.70627339603002
 20
6.255948212345401
 30
0.0
 11
27.73140841894679
 21
6.255948212345401
 31
0.0
  0
LINE
  5
2B3
330
2
100
AcDbEntity
  8
GAIKEI
  6
Continuous
 62
     1
100
AcDbLine
 10
28.4314114707046
 20
14.95594830771262
 30
0.0
 11
28.4314114707046
 21
15.05594830899162
 31
0.0
  0
LINE
  5
2B4
330
2
100
AcDbEntity
  8
GAIKEI
  6
Continuous
 62
     1
100
AcDbLine
 10
27.73140841894679
 20
14.95594830771262
 30
0.0
 11
57.00996992400579
 21
14.95594830771262
 31
0.0
  0
LINE
  5
2B5
330
2
100
AcDbEntity
  8
GAIKEI
  6
Continuous
 62
     1
100
AcDbLine
 10
27.73140841894679
 20
6.255947544773391
 30
0.0
 11
27.73140841894679
 21
14.95594830771262
 31
0.0
  0
LINE
  5
2B6
330
2
100
AcDbEntity
  8
GAIKEI
  6
Continuous
 62
     1
100
AcDbLine
 10
56.91141147070459
 20
14.95594830771262
 30
0.0
 11
56.91141147070459
 21
15.05594830771258
 31
0.0
  0
LINE
  5
2B7
330
2
100
AcDbEntity
  8
GAIKEI
  6
Continuous
 62
     1
100
AcDbLine
 10
56.67141147070438
 20
15.05594830771258
 30
0.0
 11
56.91141147070459
 21
15.05594830771258
 31
0.0
  0
LINE
  5
2B8
330
2
100
AcDbEntity
  8
GAIKEI
  6
HIDDEN2
 62
     1
100
AcDbLine
 10
17.71141147070457
 20
10.35594830771259
 30
0.0
 11
17.71141147070457
 21
17.55594830771258
 31
0.0
  0
LINE
  5
2B9
330
2
100
AcDbEntity
  8
GAIKEI
  6
HIDDEN2
 62
     1
100
AcDbLine
 10
17.71141147070457
 20
17.55594830771258
 30
0.0
 11
17.8114114707046
 21
17.55594830771258
 31
0.0
  0
LINE
  5
2BA
330
2
100
AcDbEntity
  8
GAIKEI
  6
Continuous
 62
     1
100
AcDbLine
 10
18.8714114707044
 20
11.69594830771262
 30
0.0
 11
18.8714114707044
 21
13.21594830771261
 31
0.0
  0
LINE
  5
2BB
330
2
100
AcDbEntity
  8
GAIKEI
  6
Continuous
 62
     1
100
AcDbLine
 10
26.6514114707044
 20
11.45594830771262
 30
0.0
 11
19.11141147070438
 21
11.45594830771262
 31
0.0
  0
LINE
  5
2BC
330
2
100
AcDbEntity
  8
GAIKEI
  6
Continuous
 62
     1
100
AcDbLine
 10
19.11141147070438
 20
13.45594830771261
 30
0.0
 11
26.6514114707044
 21
13.45594830771261
 31
0.0
  0
LINE
  5
2BD
330
2
100
AcDbEntity
  8
GAIKEI
  6
Continuous
 62
     1
100
AcDbLine
 10
26.89141147070441
 20
13.21594830771261
 30
0.0
 11
26.89141147070441
 21
11.69594830771262
 31
0.0
  0
LINE
  5
2BE
330
2
100
AcDbEntity
  8
GAIKEI
  6
Continuous
 62
     1
100
AcDbLine
 10
19.0314114707044
 20
11.85594830771259
 30
0.0
 11
19.0314114707044
 21
13.05594830771258
 31
0.0
  0
LINE
  5
2BF
330
2
100
AcDbEntity
  8
GAIKEI
  6
Continuous
 62
     1
100
AcDbLine
 10
19.13141147070439
 20
13.1559483077126
 30
0.0
 11
26.63141147070439
 21
13.1559483077126
 31
0.0
  0
LINE
  5
2C0
330
2
100
AcDbEntity
  8
GAIKEI
  6
Continuous
 62
     1
100
AcDbLine
 10
26.73141147070439
 20
13.05594830771258
 30
0.0
 11
26.73141147070439
 21
11.85594830771259
 31
0.0
  0
LINE
  5
2C1
330
2
100
AcDbEntity
  8
GAIKEI
  6
Continuous
 62
     1
100
AcDbLine
 10
26.63141147070439
 20
11.75594830771263
 30
0.0
 11
19.13141147070439
 21
11.75594830771263
 31
0.0
  0
LINE
  5
2C2
330
2
100
AcDbEntity
  8
GAIKEI
  6
Continuous
 62
     1
100
AcDbLine
 10
27.63141147070439
 20
13.95594830771262
 30
0.0
 11
27.63141147070439
 21
6.255948212345401
 31
0.0
  0
LINE
  5
2C3
330
2
100
AcDbEntity
  8
GAIKEI
  6
Continuous
100
AcDbLine
 10
27.63141147070439
 20
6.45594821234539
 30
0.0
 11
27.73140841894679
 21
6.457693665569649
 31
0.0
  0
LINE
  5
2C4
330
2
100
AcDbEntity
  8
GAIKEI
  6
Continuous
 62
     1
100
AcDbLine
 10
27.63141147070439
 20
20.85594830771254
 30
0.0
 11
27.63141147070439
 21
13.95594830771262
 31
0.0
  0
LINE
  5
2C5
330
2
100
AcDbEntity
  8
GAIKEI
  6
HIDDEN2
 62
     1
100
AcDbLine
 10
17.71141147070457
 20
11.31594830771263
 30
0.0
 11
17.71141147070457
 21
16.6010919069526
 31
0.0
  0
LINE
  5
2C6
330
2
100
AcDbEntity
  8
GAIKEI
  6
Continuous
 62
     1
100
AcDbLine
 10
27.73140841894659
 20
20.65245633733241
 30
0.0
 11
27.63141147070439
 21
20.65594830771261
 31
0.0
  0
LINE
  5
2C7
330
2
100
AcDbEntity
  8
GAIKEI
  6
HIDDEN2
 62
     1
100
AcDbLine
 10
17.71141147070457
 20
17.55594830771258
 30
0.0
 11
17.8114114707046
 21
17.55594830771258
 31
0.0
  0
LINE
  5
2C8
330
2
100
AcDbEntity
  8
GAIKEI
  6
Continuous
100
AcDbLine
 10
17.8114114707046
 20
20.29146066487141
 30
0.0
 11
17.8114114707046
 21
13.95594830771262
 31
0.0
  0
LINE
  5
2C9
330
2
100
AcDbEntity
  8
GAIKEI
  6
HIDDEN2
 62
     1
100
AcDbLine
 10
17.8114114707046
 20
10.35594830771259
 30
0.0
 11
17.71141147070457
 21
10.35594830771259
 31
0.0
  0
LINE
  5
2CA
330
2
100
AcDbEntity
  8
GAIKEI
  6
Continuous
100
AcDbLine
 10
17.8114114707046
 20
13.95594830771262
 30
0.0
 11
17.8114114707046
 21
6.820435855186588
 31
0.0
  0
LINE
  5
2CB
330
2
100
AcDbEntity
  8
GAIKEI
  6
Continuous
100
AcDbLine
 10
18.2044305081296
 20
6.420496777124185
 30
0.0
 11
27.63141147070439
 21
6.255948212345401
 31
0.0
  0
LINE
  5
2CC
330
2
100
AcDbEntity
  8
GAIKEI
  6
Continuous
100
AcDbLine
 10
18.2044305081296
 20
20.69139974293398
 30
0.0
 11
27.63141147070439
 21
20.8559483077126
 31
0.0
  0
LINE
  5
2CD
330
2
100
AcDbEntity
  8
GAIKEI
  6
Continuous
100
AcDbLine
 10
35.00608157981918
 20
22.85594829629599
 30
0.0
 11
28.73141147069541
 21
22.85594829629559
 31
0.0
  0
LINE
  5
2CE
330
2
100
AcDbEntity
  8
GAIKEI
  6
Continuous
100
AcDbLine
 10
25.23141147069518
 20
20.85594829629599
 30
0.0
 11
25.23141147069518
 21
21.05594829629604
 31
0.0
  0
LINE
  5
2CF
330
2
100
AcDbEntity
  8
GAIKEI
  6
Continuous
100
AcDbLine
 10
25.63141147070479
 20
22.85594829629599
 30
0.0
 11
25.23141147069518
 21
21.05594829629604
 31
0.0
  0
LINE
  5
2D0
330
2
100
AcDbEntity
  8
GAIKEI
  6
Continuous
100
AcDbLine
 10
28.73141147069541
 20
22.85594829629559
 30
0.0
 11
26.5384793200266
 21
22.85594829629639
 31
0.0
  0
LINE
  5
2D1
330
2
100
AcDbEntity
  8
GAIKEI
  6
Continuous
100
AcDbLine
 10
26.5384793200266
 20
22.85594829629599
 30
0.0
 11
25.63141147070479
 21
22.85594829629599
 31
0.0
  0
LINE
  5
2D2
330
2
100
AcDbEntity
  8
GAIKEI
  6
Continuous
100
AcDbLine
 10
39.63141147069521
 20
20.85594829629599
 30
0.0
 11
39.63141147069521
 21
21.05594829629604
 31
0.0
  0
LINE
  5
2D3
330
2
100
AcDbEntity
  8
GAIKEI
  6
Continuous
100
AcDbLine
 10
34.84642282654298
 20
22.85594829629599
 30
0.0
 11
33.21640011486639
 21
22.85594829629599
 31
0.0
  0
LINE
  5
2D4
330
2
100
AcDbEntity
  8
GAIKEI
  6
Continuous
 62
     1
100
AcDbLine
 10
25.23141147069518
 20
21.05594829629604
 30
0.0
 11
39.63141147069521
 21
21.05594829629604
 31
0.0
  0
LINE
  5
2D5
330
2
100
AcDbEntity
  8
GAIKEI
  6
Continuous
100
AcDbLine
 10
39.63141147069521
 20
20.85594829629599
 30
0.0
 11
25.23141147069518
 21
20.85594829629599
 31
0.0
  0
LINE
  5
2D6
330
2
100
AcDbEntity
  8
GAIKEI
  6
Continuous
 62
     1
100
AcDbLine
 10
26.23141147070439
 20
20.85594829629599
 30
0.0
 11
26.23141147070439
 21
21.05594829629604
 31
0.0
  0
LINE
  5
2D7
330
2
100
AcDbEntity
  8
GAIKEI
  6
Phantom
100
AcDbLine
 10
35.0314114707052
 20
22.85594829629599
 30
0.0
 11
35.00608157981918
 21
22.85594829629599
 31
0.0
  0
LINE
  5
2D8
330
2
100
AcDbEntity
  8
GAIKEI
  6
Continuous
 62
     1
100
AcDbLine
 10
26.263115668251
 20
22.85594829629599
 30
0.0
 11
26.23141147070439
 21
21.05594829629604
 31
0.0
  0
TEXT
  5
2D9
330
2
100
AcDbEntity
  8
MOJI1
 62
     2
100
AcDbText
 10
-17.09934441273003
 20
-42.93423022690137
 30
0.0
 40
3.0
  1
１２８０×９６０
100
AcDbText
  0
TEXT
  5
2DB
330
2
100
AcDbEntity
  8
MOJI1
 62
     2
100
AcDbText
 10
-57.09934441273003
 20
-42.93423022690137
 30
0.0
 40
3.0
  1
最大画像サイズ
100
AcDbText
  0
TEXT
  5
2DC
330
2
100
AcDbEntity
  8
MOJI1
 62
     2
100
AcDbText
 10
-17.09934441273003
 20
-37.93423022690138
 30
0.0
 40
3.0
  1
垂直：４５０ＴＶ本以上（フルスキャンモード）
100
AcDbText
  0
TEXT
  5
2DD
330
2
100
AcDbEntity
  8
MOJI1
 62
     2
100
AcDbText
 10
-57.09934441273003
 20
-52.93423022690138
 30
0.0
 40
3.0
  1
機　能
100
AcDbText
  0
TEXT
  5
2DE
330
2
100
AcDbEntity
  8
MOJI1
 62
     2
100
AcDbText
 10
-17.09934441273003
 20
-47.93423022690137
 30
0.0
 40
3.0
  1
１０ＢＡＳＥ－Ｔ／１００ＢＡＳＥ－Ｔｘ、ＲＪ４５コネクター
 41
0.7800000000000001
100
AcDbText
  0
TEXT
  5
2DF
330
2
100
AcDbEntity
  8
MOJI1
 62
     2
100
AcDbText
 10
-17.09934441273003
 20
-57.93423022690138
 30
0.0
 40
3.0
  1
画ゆれ補正、ＶＭＤアラーム、オートバックフォーカス
 41
0.9
100
AcDbText
  0
TEXT
  5
2E0
330
2
100
AcDbEntity
  8
MOJI1
 62
     2
100
AcDbText
 10
-17.09934441273003
 20
-32.93423022690138
 30
0.0
 40
3.0
  1
水平：６００ＴＶ本（カラー）、７８０ＴＶ本（白黒）
 41
0.9
100
AcDbText
  0
TEXT
  5
2E1
330
2
100
AcDbEntity
  8
MOJI1
 62
     2
100
AcDbText
 10
-57.09934441273003
 20
-32.93423022690138
 30
0.0
 40
3.0
  1
解像度
100
AcDbText
  0
LINE
  5
2E2
330
2
100
AcDbEntity
  8
WAKU
 62
     1
100
AcDbLine
 10
-59.59934441273003
 20
-33.93423022690138
 30
0.0
 11
65.40065558726997
 21
-33.93423022690138
 31
0.0
  0
TEXT
  5
2E3
330
2
100
AcDbEntity
  8
MOJI1
 62
     2
100
AcDbText
 10
-17.09934441273003
 20
-27.93423022690138
 30
0.0
 40
3.0
  1
ＪＰＥＧ／ＭＰＥＧ４（同時圧縮機能）
 41
0.95
100
AcDbText
  0
TEXT
  5
2E4
330
2
100
AcDbEntity
  8
MOJI1
 62
     2
100
AcDbText
 10
-57.09934441273003
 20
-27.93423022690138
 30
0.0
 40
3.0
  1
画像圧縮方式
100
AcDbText
  0
LINE
  5
2E5
330
2
100
AcDbEntity
  8
WAKU
 62
     1
100
AcDbLine
 10
-59.59934441273003
 20
-53.93423022690126
 30
0.0
 11
65.40065558726997
 21
-53.93423022690138
 31
0.0
  0
LINE
  5
2E6
330
2
100
AcDbEntity
  8
WAKU
 62
     4
100
AcDbLine
 10
65.40065558726997
 20
-8.934230226901377
 30
0.0
 11
65.40065558726997
 21
-58.93423022690138
 31
0.0
  0
TEXT
  5
2E7
330
2
100
AcDbEntity
  8
MOJI1
 62
     2
100
AcDbText
 10
-57.09934441273003
 20
-12.93423022690137
 30
0.0
 40
3.0
  1
電　源
100
AcDbText
  0
TEXT
  5
2E8
330
2
100
AcDbEntity
  8
MOJI1
 62
     2
100
AcDbText
 10
-57.09934441273003
 20
-22.93423022690138
 30
0.0
 40
3.0
  1
最低照度
100
AcDbText
  0
TEXT
  5
2E9
330
2
100
AcDbEntity
  8
MOJI1
 62
     2
100
AcDbText
 10
-57.09934441273003
 20
-47.93423022690137
 30
0.0
 40
3.0
  1
ネットワーク
100
AcDbText
  0
TEXT
  5
2EA
330
2
100
AcDbEntity
  8
MOJI1
 62
     2
100
AcDbText
 10
-57.09934441273003
 20
-17.93423022690137
 30
0.0
 40
3.0
  1
撮像素子
100
AcDbText
  0
TEXT
  5
2EB
330
2
100
AcDbEntity
  8
MOJI1
 62
     2
100
AcDbText
 10
-17.09934441273003
 20
-12.93423022690137
 30
0.0
 40
3.0
  1
ＡＣ１００Ｖ　５０／６０Ｈｚ
 41
0.95
100
AcDbText
  0
TEXT
  5
2EC
330
2
100
AcDbEntity
  8
MOJI1
 62
     2
100
AcDbText
 10
-17.09934441273003
 20
-22.93423022690138
 30
0.0
 40
3.0
  1
１．０ｌｘ（カラー）、０．０６ｌｘ（白黒）
100
AcDbText
  0
LINE
  5
2ED
330
2
100
AcDbEntity
  8
WAKU
 62
     4
100
AcDbLine
 10
-19.59934441273003
 20
-8.934230226901377
 30
0.0
 11
-19.59934441273003
 21
-58.93423022690138
 31
0.0
  0
LINE
  5
2EE
330
2
100
AcDbEntity
  8
WAKU
 62
     4
100
AcDbLine
 10
-59.59934441273003
 20
-8.934230226901377
 30
0.0
 11
-59.59934441273003
 21
-58.93423022690138
 31
0.0
  0
TEXT
  5
2EF
330
2
100
AcDbEntity
  8
MOJI1
 62
     2
100
AcDbText
 10
-17.09934441273003
 20
-52.93423022690138
 30
0.0
 40
3.0
  1
アナログ映像出力、集音（マイク）、ＳＤカードスロット
 41
0.85
100
AcDbText
  0
TEXT
  5
2F0
330
2
100
AcDbEntity
  8
MOJI1
 62
     2
100
AcDbText
 10
-17.09934441273003
 20
-17.93423022690137
 30
0.0
 40
3.0
  1
１／３型インターライン転送方式ＣＣＤ
 41
0.9
100
AcDbText
  0
LINE
  5
2F1
330
2
100
AcDbEntity
  8
WAKU
 62
     4
100
AcDbLine
 10
65.40065558726997
 20
-58.93423022690138
 30
0.0
 11
-59.59934441273003
 21
-58.93423022690138
 31
0.0
  0
LINE
  5
2F2
330
2
100
AcDbEntity
  8
WAKU
 62
     1
100
AcDbLine
 10
-59.59934441273003
 20
-43.93423022690138
 30
0.0
 11
65.40065558726997
 21
-43.93423022690138
 31
0.0
  0
LINE
  5
2F3
330
2
100
AcDbEntity
  8
WAKU
 62
     1
100
AcDbLine
 10
-59.59934441273003
 20
-38.93423022690138
 30
0.0
 11
65.40065558726997
 21
-38.93423022690138
 31
0.0
  0
LINE
  5
2F4
330
2
100
AcDbEntity
  8
WAKU
 62
     1
100
AcDbLine
 10
-59.59934441273003
 20
-18.93423022690138
 30
0.0
 11
65.40065558726997
 21
-18.93423022690138
 31
0.0
  0
LINE
  5
2F5
330
2
100
AcDbEntity
  8
WAKU
 62
     1
100
AcDbLine
 10
-59.59934441273003
 20
-13.93423022690138
 30
0.0
 11
65.40065558726997
 21
-13.93423022690138
 31
0.0
  0
LINE
  5
2F6
330
2
100
AcDbEntity
  8
WAKU
 62
     4
100
AcDbLine
 10
-59.59934441273003
 20
-8.934230226901377
 30
0.0
 11
65.40065558726997
 21
-8.934230226901377
 31
0.0
  0
LINE
  5
2F7
330
2
100
AcDbEntity
  8
WAKU
 62
     1
100
AcDbLine
 10
-59.59934441273003
 20
-28.93423022690138
 30
0.0
 11
65.40065558726997
 21
-28.93423022690138
 31
0.0
  0
LINE
  5
2F8
330
2
100
AcDbEntity
  8
WAKU
 62
     1
100
AcDbLine
 10
-59.59934441273003
 20
-23.93423022690138
 30
0.0
 11
65.40065558726997
 21
-23.93423022690138
 31
0.0
  0
LINE
  5
2F9
330
2
100
AcDbEntity
  8
WAKU
 62
     1
100
AcDbLine
 10
-59.59934441273003
 20
-48.93423022690138
 30
0.0
 11
65.40065558726997
 21
-48.93423022690138
 31
0.0
  0
TEXT
  5
2FA
330
2
100
AcDbEntity
  8
TOUROKU
100
AcDbText
 10
47.1339389535306
 20
44.06576977309862
 30
0.0
 40
2.0
  1
ＤＧＮＰ１０００
 72
     2
 11
65.40060562019727
 21
44.06576977309862
 31
0.0
100
AcDbText
  0
TEXT
  5
2FC
330
2
100
AcDbEntity
  8
MOJI1
100
AcDbText
 10
-32.59934441273003
 20
50.06576977309862
 30
0.0
 40
4.0
  1
ネットワークカメラ（メガピクセル）
100
AcDbText
  0
ENDSEC
  0
SECTION
  2
OBJECTS
  0
DICTIONARY
  5
7
330
0
100
AcDbDictionary
281
     1
  3
ACAD_COLOR
350
25
  3
ACAD_GROUP
350
21
  3
ACAD_LAYOUT
350
B
  3
ACAD_MATERIAL
350
24
  3
ACAD_MLINESTYLE
350
22
  3
ACAD_PLOTSETTINGS
350
23
  3
ACAD_PLOTSTYLENAME
350
6
  3
ACDBHEADERROUNDTRIPXREC
350
339
  3
AcDbVariableDictionary
350
334
  0
DICTIONARY
  5
11
330
10
100
AcDbDictionary
280
     1
281
     1
  3
ACAD_LAYERSTATES
360
12
  0
DICTIONARY
  5
25
102
{ACAD_REACTORS
330
7
102
}
330
7
100
AcDbDictionary
281
     1
  0
DICTIONARY
  5
21
102
{ACAD_REACTORS
330
7
102
}
330
7
100
AcDbDictionary
281
     1
  0
DICTIONARY
  5
B
102
{ACAD_REACTORS
330
7
102
}
330
7
100
AcDbDictionary
281
     1
  3
Model
350
A
  3
レイアウト1
350
F
  0
DICTIONARY
  5
24
102
{ACAD_REACTORS
330
7
102
}
330
7
100
AcDbDictionary
281
     1
  0
DICTIONARY
  5
22
102
{ACAD_REACTORS
330
7
102
}
330
7
100
AcDbDictionary
281
     1
  3
Standard
350
27
  0
DICTIONARY
  5
23
102
{ACAD_REACTORS
330
7
102
}
330
7
100
AcDbDictionary
281
     1
  0
ACDBDICTIONARYWDFLT
  5
6
102
{ACAD_REACTORS
330
7
102
}
330
7
100
AcDbDictionary
281
     1
  3
Normal
350
5
100
AcDbDictionaryWithDefault
340
5
  0
DICTIONARY
  5
339
102
{ACAD_REACTORS
330
7
102
}
330
7
100
AcDbDictionary
281
     1
  3
COLORDICT
350
33B
  3
MATERIALDICT
350
33A
  0
DICTIONARY
  5
334
102
{ACAD_REACTORS
330
7
102
}
330
7
100
AcDbDictionary
281
     1
  3
DIMASSOC
350
336
  3
HIDETEXT
350
335
  3
PROJECTNAME
350
337
  0
DICTIONARY
  5
12
102
{ACAD_REACTORS
330
11
102
}
330
11
100
AcDbDictionary
281
     1
  0
LAYOUT
  5
A
102
{ACAD_XDICTIONARY
360
33C
102
}
102
{ACAD_REACTORS
330
B
102
}
330
B
100
AcDbPlotSettings
  1

  2
FX78BC34-A4縦.pc3
  4
A4
  6

 40
4.900083065032958
 41
4.900057315826416
 42
4.90008544921875
 43
4.90008544921875
 44
210.0156707763672
 45
297.0106506347656
 46
5.75
 47
0.0
 48
0.0
 49
0.0
140
0.0
141
0.0
142
1.0
143
1.372688602116311
 70
 11956
 72
     1
 73
     0
 74
     1
  7
tmsacad.ctb
 75
     0
147
0.7284973434311852
148
0.0256268442936971
149
0.0210865248282062
100
AcDbLayout
  1
Model
 70
     1
 71
     0
 10
0.0
 20
0.0
 11
12.0
 21
9.0
 12
0.0
 22
0.0
 32
0.0
 14
0.0
 24
0.0
 34
0.0
 15
0.0
 25
0.0
 35
0.0
146
0.0
 13
0.0
 23
0.0
 33
0.0
 16
1.0
 26
0.0
 36
0.0
 17
0.0
 27
1.0
 37
0.0
 76
     0
330
2
  0
LAYOUT
  5
F
102
{ACAD_XDICTIONARY
360
33E
102
}
102
{ACAD_REACTORS
330
B
102
}
330
B
100
AcDbPlotSettings
  1

  2
None
  4

  6

 40
0.0
 41
0.0
 42
0.0
 43
0.0
 44
0.0
 45
0.0
 46
0.0
 47
0.0
 48
0.0
 49
0.0
140
0.0
141
0.0
142
1.0
143
1.0
 70
   688
 72
     0
 73
     0
 74
     5
  7
tmsacad.ctb
 75
    16
147
1.0
148
0.0
149
0.0
100
AcDbLayout
  1
レイアウト1
 70
     1
 71
     1
 10
0.0
 20
0.0
 11
12.0
 21
9.0
 12
0.0
 22
0.0
 32
0.0
 14
0.0
 24
0.0
 34
0.0
 15
0.0
 25
0.0
 35
0.0
146
0.0
 13
0.0
 23
0.0
 33
0.0
 16
1.0
 26
0.0
 36
0.0
 17
0.0
 27
1.0
 37
0.0
 76
     0
330
C
  0
MLINESTYLE
  5
27
102
{ACAD_REACTORS
330
22
102
}
330
22
100
AcDbMlineStyle
  2
STANDARD
 70
     0
  3

 62
   256
 51
90.0
 52
90.0
 71
     2
 49
0.5
 62
   256
  6
BYLAYER
 49
-0.5
 62
   256
  6
BYLAYER
  0
ACDBPLACEHOLDER
  5
5
102
{ACAD_REACTORS
330
6
102
}
330
6
  0
XRECORD
  5
33B
102
{ACAD_REACTORS
330
339
102
}
330
339
100
AcDbXrecord
280
     1
340
25
  0
XRECORD
  5
33A
102
{ACAD_REACTORS
330
339
102
}
330
339
100
AcDbXrecord
280
     1
340
24
  0
DICTIONARYVAR
  5
336
102
{ACAD_REACTORS
330
334
102
}
330
334
100
DictionaryVariables
280
     0
  1
2
  0
DICTIONARYVAR
  5
335
102
{ACAD_REACTORS
330
334
102
}
330
334
100
DictionaryVariables
280
     0
  1
1
  0
DICTIONARYVAR
  5
337
102
{ACAD_REACTORS
330
334
102
}
330
334
100
DictionaryVariables
280
     0
  1

  0
DICTIONARY
  5
33C
330
A
100
AcDbDictionary
280
     1
281
     1
  3
ACAD_XREC_ROUNDTRIP
360
33D
  0
DICTIONARY
  5
33E
330
F
100
AcDbDictionary
280
     1
281
     1
  3
ACAD_XREC_ROUNDTRIP
360
33F
  0
XRECORD
  5
33D
102
{ACAD_REACTORS
330
33C
102
}
330
33C
100
AcDbXrecord
280
     1
102
SHADEPLOT
 70
     0
102
SHADEPLOTRESLEVEL
 70
     2
102
SHADEPLOTCUSTOMDPI
 70
   300
  0
XRECORD
  5
33F
102
{ACAD_REACTORS
330
33E
102
}
330
33E
100
AcDbXrecord
280
     1
102
SHADEPLOT
 70
     0
102
SHADEPLOTRESLEVEL
 70
     2
102
SHADEPLOTCUSTOMDPI
 70
   300
  0
ENDSEC
  0
EOF
