  0
SECTION
  2
HEADER
  9
$ACADVER
  1
AC1015
  9
$ACADMAINTVER
 70
    20
  9
$DWGCODEPAGE
  3
ANSI_932
  9
$INSBASE
 10
0.4999999440410648
 20
246.5008351249344
 30
0.0
  9
$EXTMIN
 10
-60.79925446398465
 20
-55.97753843615942
 30
-0.0015258207003583
  9
$EXTMAX
 10
64.23431452856675
 20
56.77514689622353
 30
0.0000000349246037
  9
$LIMMIN
 10
0.0
 20
0.0
  9
$LIMMAX
 10
420.0
 20
297.0
  9
$ORTHOMODE
 70
     1
  9
$REGENMODE
 70
     0
  9
$FILLMODE
 70
     1
  9
$QTEXTMODE
 70
     0
  9
$MIRRTEXT
 70
     0
  9
$LTSCALE
 40
1.0
  9
$ATTMODE
 70
     1
  9
$TEXTSIZE
 40
2.5
  9
$TRACEWID
 40
1.0
  9
$TEXTSTYLE
  7
Standard
  9
$CLAYER
  8
WAKU
  9
$CELTYPE
  6
ByLayer
  9
$CECOLOR
 62
   256
  9
$CELTSCALE
 40
1.0
  9
$DISPSILH
 70
     0
  9
$DIMSCALE
 40
1.0
  9
$DIMASZ
 40
2.5
  9
$DIMEXO
 40
0.625
  9
$DIMDLI
 40
3.75
  9
$DIMRND
 40
0.0
  9
$DIMDLE
 40
0.0
  9
$DIMEXE
 40
1.25
  9
$DIMTP
 40
0.0
  9
$DIMTM
 40
0.0
  9
$DIMTXT
 40
2.5
  9
$DIMCEN
 40
2.5
  9
$DIMTSZ
 40
0.0
  9
$DIMTOL
 70
     0
  9
$DIMLIM
 70
     0
  9
$DIMTIH
 70
     0
  9
$DIMTOH
 70
     0
  9
$DIMSE1
 70
     0
  9
$DIMSE2
 70
     0
  9
$DIMTAD
 70
     1
  9
$DIMZIN
 70
     8
  9
$DIMBLK
  1

  9
$DIMASO
 70
     1
  9
$DIMSHO
 70
     1
  9
$DIMPOST
  1

  9
$DIMAPOST
  1

  9
$DIMALT
 70
     0
  9
$DIMALTD
 70
     3
  9
$DIMALTF
 40
0.03937007874016
  9
$DIMLFAC
 40
1.0
  9
$DIMTOFL
 70
     1
  9
$DIMTVP
 40
0.0
  9
$DIMTIX
 70
     0
  9
$DIMSOXD
 70
     0
  9
$DIMSAH
 70
     0
  9
$DIMBLK1
  1

  9
$DIMBLK2
  1

  9
$DIMSTYLE
  2
ISO-25
  9
$DIMCLRD
 70
     0
  9
$DIMCLRE
 70
     0
  9
$DIMCLRT
 70
     0
  9
$DIMTFAC
 40
1.0
  9
$DIMGAP
 40
0.625
  9
$DIMJUST
 70
     0
  9
$DIMSD1
 70
     0
  9
$DIMSD2
 70
     0
  9
$DIMTOLJ
 70
     0
  9
$DIMTZIN
 70
     8
  9
$DIMALTZ
 70
     0
  9
$DIMALTTZ
 70
     0
  9
$DIMUPT
 70
     0
  9
$DIMDEC
 70
     2
  9
$DIMTDEC
 70
     2
  9
$DIMALTU
 70
     2
  9
$DIMALTTD
 70
     3
  9
$DIMTXSTY
  7
Standard
  9
$DIMAUNIT
 70
     0
  9
$DIMADEC
 70
     0
  9
$DIMALTRND
 40
0.0
  9
$DIMAZIN
 70
     0
  9
$DIMDSEP
 70
    44
  9
$DIMATFIT
 70
     3
  9
$DIMFRAC
 70
     0
  9
$DIMLDRBLK
  1

  9
$DIMLUNIT
 70
     2
  9
$DIMLWD
 70
    -2
  9
$DIMLWE
 70
    -2
  9
$DIMTMOVE
 70
     0
  9
$LUNITS
 70
     2
  9
$LUPREC
 70
     4
  9
$SKETCHINC
 40
1.0
  9
$FILLETRAD
 40
0.0
  9
$AUNITS
 70
     0
  9
$AUPREC
 70
     0
  9
$MENU
  1
.
  9
$ELEVATION
 40
0.0
  9
$PELEVATION
 40
0.0
  9
$THICKNESS
 40
0.0
  9
$LIMCHECK
 70
     0
  9
$CHAMFERA
 40
0.0
  9
$CHAMFERB
 40
0.0
  9
$CHAMFERC
 40
0.0
  9
$CHAMFERD
 40
0.0
  9
$SKPOLY
 70
     0
  9
$TDCREATE
 40
2454349.434269746
  9
$TDUCREATE
 40
2454349.059269746
  9
$TDUPDATE
 40
2454375.348138380
  9
$TDUUPDATE
 40
2454374.973138380
  9
$TDINDWG
 40
0.0441979398
  9
$TDUSRTIMER
 40
0.0441979398
  9
$USRTIMER
 70
     1
  9
$ANGBASE
 50
0.0
  9
$ANGDIR
 70
     0
  9
$PDMODE
 70
     0
  9
$PDSIZE
 40
0.0
  9
$PLINEWID
 40
0.0
  9
$SPLFRAME
 70
     0
  9
$SPLINETYPE
 70
     6
  9
$SPLINESEGS
 70
     8
  9
$HANDSEED
  5
33D
  9
$SURFTAB1
 70
     6
  9
$SURFTAB2
 70
     6
  9
$SURFTYPE
 70
     6
  9
$SURFU
 70
     6
  9
$SURFV
 70
     6
  9
$UCSBASE
  2

  9
$UCSNAME
  2

  9
$UCSORG
 10
0.0
 20
0.0
 30
0.0
  9
$UCSXDIR
 10
1.0
 20
0.0
 30
0.0
  9
$UCSYDIR
 10
0.0
 20
1.0
 30
0.0
  9
$UCSORTHOREF
  2

  9
$UCSORTHOVIEW
 70
     0
  9
$UCSORGTOP
 10
0.0
 20
0.0
 30
0.0
  9
$UCSORGBOTTOM
 10
0.0
 20
0.0
 30
0.0
  9
$UCSORGLEFT
 10
0.0
 20
0.0
 30
0.0
  9
$UCSORGRIGHT
 10
0.0
 20
0.0
 30
0.0
  9
$UCSORGFRONT
 10
0.0
 20
0.0
 30
0.0
  9
$UCSORGBACK
 10
0.0
 20
0.0
 30
0.0
  9
$PUCSBASE
  2

  9
$PUCSNAME
  2

  9
$PUCSORG
 10
0.0
 20
0.0
 30
0.0
  9
$PUCSXDIR
 10
1.0
 20
0.0
 30
0.0
  9
$PUCSYDIR
 10
0.0
 20
1.0
 30
0.0
  9
$PUCSORTHOREF
  2

  9
$PUCSORTHOVIEW
 70
     0
  9
$PUCSORGTOP
 10
0.0
 20
0.0
 30
0.0
  9
$PUCSORGBOTTOM
 10
0.0
 20
0.0
 30
0.0
  9
$PUCSORGLEFT
 10
0.0
 20
0.0
 30
0.0
  9
$PUCSORGRIGHT
 10
0.0
 20
0.0
 30
0.0
  9
$PUCSORGFRONT
 10
0.0
 20
0.0
 30
0.0
  9
$PUCSORGBACK
 10
0.0
 20
0.0
 30
0.0
  9
$USERI1
 70
     0
  9
$USERI2
 70
     0
  9
$USERI3
 70
     0
  9
$USERI4
 70
     0
  9
$USERI5
 70
     0
  9
$USERR1
 40
0.0
  9
$USERR2
 40
0.0
  9
$USERR3
 40
0.0
  9
$USERR4
 40
0.0
  9
$USERR5
 40
0.0
  9
$WORLDVIEW
 70
     1
  9
$SHADEDGE
 70
     3
  9
$SHADEDIF
 70
    70
  9
$TILEMODE
 70
     1
  9
$MAXACTVP
 70
    64
  9
$PINSBASE
 10
0.0
 20
0.0
 30
0.0
  9
$PLIMCHECK
 70
     0
  9
$PEXTMIN
 10
0.0
 20
0.0
 30
0.0
  9
$PEXTMAX
 10
0.0
 20
0.0
 30
0.0
  9
$PLIMMIN
 10
0.0
 20
0.0
  9
$PLIMMAX
 10
12.0
 20
9.0
  9
$UNITMODE
 70
     0
  9
$VISRETAIN
 70
     1
  9
$PLINEGEN
 70
     0
  9
$PSLTSCALE
 70
     1
  9
$TREEDEPTH
 70
  3020
  9
$CMLSTYLE
  2
Standard
  9
$CMLJUST
 70
     0
  9
$CMLSCALE
 40
20.0
  9
$PROXYGRAPHICS
 70
     1
  9
$MEASUREMENT
 70
     1
  9
$CELWEIGHT
370
    -1
  9
$ENDCAPS
280
     0
  9
$JOINSTYLE
280
     0
  9
$LWDISPLAY
290
     0
  9
$INSUNITS
 70
     4
  9
$HYPERLINKBASE
  1

  9
$STYLESHEET
  1

  9
$XEDIT
290
     1
  9
$CEPSNTYPE
380
     0
  9
$PSTYLEMODE
290
     1
  9
$FINGERPRINTGUID
  2
{FDEAD578-A652-11D2-9A35-0060089B3A3F}
  9
$VERSIONGUID
  2
{DF74B32D-912C-40C5-8A5B-2DA6A9EDA039}
  9
$EXTNAMES
290
     1
  9
$PSVPSCALE
 40
0.0
  9
$OLESTARTUP
290
     0
  0
ENDSEC
  0
SECTION
  2
CLASSES
  0
CLASS
  1
ACDBDICTIONARYWDFLT
  2
AcDbDictionaryWithDefault
  3
ObjectDBX Classes
 90
        0
280
     0
281
     0
  0
CLASS
  1
ACDBPLACEHOLDER
  2
AcDbPlaceHolder
  3
ObjectDBX Classes
 90
        0
280
     0
281
     0
  0
CLASS
  1
LAYOUT
  2
AcDbLayout
  3
ObjectDBX Classes
 90
        0
280
     0
281
     0
  0
CLASS
  1
DICTIONARYVAR
  2
AcDbDictionaryVar
  3
ObjectDBX Classes
 90
        0
280
     0
281
     0
  0
ENDSEC
  0
SECTION
  2
TABLES
  0
TABLE
  2
VPORT
  5
1B
330
0
100
AcDbSymbolTable
 70
     3
  0
VPORT
  5
335
330
1B
100
AcDbSymbolTableRecord
100
AcDbViewportTableRecord
  2
*Active
 70
     0
 10
0.0
 20
0.0
 11
1.0
 21
1.0
 12
1.717530032291044
 22
0.3988042300320558
 13
0.0
 23
0.0
 14
10.0
 24
10.0
 15
10.0
 25
10.0
 16
0.0
 26
0.0
 36
1.0
 17
0.0
 27
0.0
 37
0.0
 40
113.6200136810936
 41
1.430038510911424
 42
50.0
 43
0.0
 44
0.0
 50
0.0
 51
0.0
 71
     0
 72
  1000
 73
     1
 74
     2
 75
     0
 76
     0
 77
     0
 78
     0
281
     0
 65
     1
110
0.0
120
0.0
130
0.0
111
1.0
121
0.0
131
0.0
112
0.0
122
1.0
132
0.0
 79
     0
146
0.0
  0
ENDTAB
  0
TABLE
  2
LTYPE
  5
16
330
0
100
AcDbSymbolTable
 70
     4
  0
LTYPE
  5
17
330
16
100
AcDbSymbolTableRecord
100
AcDbLinetypeTableRecord
  2
ByBlock
 70
     0
  3

 72
    65
 73
     0
 40
0.0
  0
LTYPE
  5
18
330
16
100
AcDbSymbolTableRecord
100
AcDbLinetypeTableRecord
  2
ByLayer
 70
     0
  3

 72
    65
 73
     0
 40
0.0
  0
LTYPE
  5
8
330
16
100
AcDbSymbolTableRecord
100
AcDbLinetypeTableRecord
  2
Continuous
 70
     0
  3
Solid line
 72
    65
 73
     0
 40
0.0
  0
LTYPE
  5
273
330
16
100
AcDbSymbolTableRecord
100
AcDbLinetypeTableRecord
  2
Phantom
 70
     0
  3
Phantom
 72
    65
 73
     6
 40
45.0
 49
40.0
 74
     0
 49
-1.0
 74
     0
 49
1.0
 74
     0
 49
-1.0
 74
     0
 49
1.0
 74
     0
 49
-1.0
 74
     0
  0
LTYPE
  5
30
330
16
100
AcDbSymbolTableRecord
100
AcDbLinetypeTableRecord
  2
HIDDEN2
 70
     0
  3
Hidden (.5x) _ _ _ _ _ _ _ _ _ _ _ _ _ _ _ _ _
 72
    65
 73
     2
 40
1.399999999999999
 49
0.7
 74
     0
 49
-0.7
 74
     0
  0
LTYPE
  5
E1
330
16
100
AcDbSymbolTableRecord
100
AcDbLinetypeTableRecord
  2
S10
 70
     0
  3
- - - - - - - - - 1,-1,1,-1
 72
    65
 73
     4
 40
4.0
 49
1.0
 74
     0
 49
-1.0
 74
     0
 49
1.0
 74
     0
 49
-1.0
 74
     0
  0
ENDTAB
  0
TABLE
  2
LAYER
  5
10
102
{ACAD_XDICTIONARY
360
11
102
}
330
0
100
AcDbSymbolTable
 70
     7
  0
LAYER
  5
4
330
10
100
AcDbSymbolTableRecord
100
AcDbLayerTableRecord
  2
0
 70
     0
 62
     7
  6
Continuous
370
    -3
390
5
  0
LAYER
  5
26
330
10
100
AcDbSymbolTableRecord
100
AcDbLayerTableRecord
  2
WAKU
 70
     0
 62
     4
  6
Continuous
370
    -3
390
5
  0
LAYER
  5
2A
330
10
100
AcDbSymbolTableRecord
100
AcDbLayerTableRecord
  2
MOJI1
 70
     0
 62
     2
  6
Continuous
370
    -3
390
5
  0
LAYER
  5
2C
330
10
100
AcDbSymbolTableRecord
100
AcDbLayerTableRecord
  2
TOUROKU
 70
     0
 62
     1
  6
Continuous
370
    -3
390
5
  0
LAYER
  5
4B
330
10
100
AcDbSymbolTableRecord
100
AcDbLayerTableRecord
  2
DEFPOINTS
 70
     0
 62
     7
  6
Continuous
290
     0
370
    -3
390
5
  0
LAYER
  5
2E
330
10
100
AcDbSymbolTableRecord
100
AcDbLayerTableRecord
  2
GAIKEI
 70
     0
 62
     7
  6
Continuous
370
    -3
390
5
  0
LAYER
  5
3A
330
10
100
AcDbSymbolTableRecord
100
AcDbLayerTableRecord
  2
SUNPO
 70
     0
 62
     3
  6
Continuous
370
    -3
390
5
  0
ENDTAB
  0
TABLE
  2
STYLE
  5
13
330
0
100
AcDbSymbolTable
 70
     1
  0
STYLE
  5
14
330
13
100
AcDbSymbolTableRecord
100
AcDbTextStyleTableRecord
  2
Standard
 70
     0
 40
0.0
 41
1.0
 50
0.0
 71
     0
 42
2.5
  3
MONOTXT.shx
  4
BIGFONT.shx
  0
ENDTAB
  0
TABLE
  2
VIEW
  5
19
330
0
100
AcDbSymbolTable
 70
     0
  0
ENDTAB
  0
TABLE
  2
UCS
  5
1A
330
0
100
AcDbSymbolTable
 70
     0
  0
ENDTAB
  0
TABLE
  2
APPID
  5
1D
330
0
100
AcDbSymbolTable
 70
     1
  0
APPID
  5
1E
330
1D
100
AcDbSymbolTableRecord
100
AcDbRegAppTableRecord
  2
ACAD
 70
     0
  0
ENDTAB
  0
TABLE
  2
DIMSTYLE
  5
1F
330
0
100
AcDbSymbolTable
 70
     2
100
AcDbDimStyleTable
 71
     0
  0
DIMSTYLE
105
28
330
1F
100
AcDbSymbolTableRecord
100
AcDbDimStyleTableRecord
  2
ISO-25
 70
     0
 41
2.5
 42
0.625
 43
3.75
 44
1.25
 73
     0
 74
     0
 77
     1
 78
     8
140
2.5
141
2.5
143
0.03937007874016
147
0.625
171
     3
172
     1
271
     2
272
     2
274
     3
278
    44
283
     0
284
     8
340
14
  0
DIMSTYLE
105
41
102
{ACAD_REACTORS
330
39
330
204
330
216
102
}
330
1F
100
AcDbSymbolTableRecord
100
AcDbDimStyleTableRecord
  2
STANDARD
 70
     0
 40
0.0
 41
2.0
 42
2.0
 43
8.0
 44
2.0
 73
     0
 74
     0
 77
     3
140
3.0
141
0.0
173
     1
279
     2
288
     1
340
14
341
3B
343
3B
344
3B
  0
ENDTAB
  0
TABLE
  2
BLOCK_RECORD
  5
1
330
0
100
AcDbSymbolTable
 70
     7
  0
BLOCK_RECORD
  5
2
330
1
100
AcDbSymbolTableRecord
100
AcDbBlockTableRecord
  2
*Model_Space
340
A
  0
BLOCK_RECORD
  5
C
330
1
100
AcDbSymbolTableRecord
100
AcDbBlockTableRecord
  2
*Paper_Space
340
F
  0
BLOCK_RECORD
  5
3B
330
1
100
AcDbSymbolTableRecord
100
AcDbBlockTableRecord
  2
_OPEN30
340
0
102
{BLKREFS
331
47
331
48
331
20A
331
20B
331
21C
331
21D
331
311
331
312
331
31D
331
31E
331
329
331
32A
102
}
  0
BLOCK_RECORD
  5
42
330
1
100
AcDbSymbolTableRecord
100
AcDbBlockTableRecord
  2
*D1
340
0
  0
BLOCK_RECORD
  5
205
330
1
100
AcDbSymbolTableRecord
100
AcDbBlockTableRecord
  2
*D2
340
0
  0
BLOCK_RECORD
  5
217
330
1
100
AcDbSymbolTableRecord
100
AcDbBlockTableRecord
  2
*D3
340
0
  0
BLOCK_RECORD
  5
30D
330
1
100
AcDbSymbolTableRecord
100
AcDbBlockTableRecord
  2
*D4
340
0
  0
BLOCK_RECORD
  5
319
330
1
100
AcDbSymbolTableRecord
100
AcDbBlockTableRecord
  2
*D5
340
0
  0
BLOCK_RECORD
  5
325
330
1
100
AcDbSymbolTableRecord
100
AcDbBlockTableRecord
  2
*D6
340
0
  0
ENDTAB
  0
ENDSEC
  0
SECTION
  2
BLOCKS
  0
BLOCK
  5
3
330
2
100
AcDbEntity
  8
0
100
AcDbBlockBegin
  2
*Model_Space
 70
     0
 10
0.0
 20
0.0
 30
0.0
  3
*Model_Space
  1

  0
ENDBLK
  5
9
330
2
100
AcDbEntity
  8
0
100
AcDbBlockEnd
  0
BLOCK
  5
D
330
C
100
AcDbEntity
 67
     1
  8
0
100
AcDbBlockBegin
  2
*Paper_Space
 70
     0
 10
0.0
 20
0.0
 30
0.0
  3
*Paper_Space
  1

  0
ENDBLK
  5
E
330
C
100
AcDbEntity
 67
     1
  8
0
100
AcDbBlockEnd
  0
BLOCK
  5
3C
330
3B
100
AcDbEntity
  8
0
100
AcDbBlockBegin
  2
_OPEN30
 70
     0
 10
0.0
 20
0.0
 30
0.0
  3
_OPEN30
  1

  0
LINE
  5
3D
330
3B
100
AcDbEntity
  8
0
  6
ByBlock
 62
     0
100
AcDbLine
 10
-1.0
 20
0.26794919
 30
0.0
 11
0.0
 21
0.0
 31
0.0
  0
LINE
  5
3E
330
3B
100
AcDbEntity
  8
0
  6
ByBlock
 62
     0
100
AcDbLine
 10
0.0
 20
0.0
 30
0.0
 11
-1.0
 21
-0.26794919
 31
0.0
  0
LINE
  5
3F
330
3B
100
AcDbEntity
  8
0
  6
ByBlock
 62
     0
100
AcDbLine
 10
0.0
 20
0.0
 30
0.0
 11
-1.0
 21
0.0
 31
0.0
  0
ENDBLK
  5
40
330
3B
100
AcDbEntity
  8
0
100
AcDbBlockEnd
  0
BLOCK
  5
43
330
42
100
AcDbEntity
  8
0
100
AcDbBlockBegin
  2
*D1
 70
     1
 10
0.0
 20
0.0
 30
0.0
  3
*D1
  1

  0
LINE
  5
44
330
42
100
AcDbEntity
  8
SUNPO
 62
     0
370
    -2
100
AcDbLine
 10
42.42995942704857
 20
213.2910136481318
 30
0.0
 11
50.42995942704858
 21
213.2910136481318
 31
0.0
  0
LINE
  5
45
330
42
100
AcDbEntity
  8
SUNPO
 62
     0
370
    -2
100
AcDbLine
 10
42.42995942704857
 20
196.6910128966091
 30
0.0
 11
50.42995942704857
 21
196.6910128966091
 31
0.0
  0
LINE
  5
46
330
42
100
AcDbEntity
  8
SUNPO
 62
     0
370
    -2
100
AcDbLine
 10
48.42995942704858
 20
211.2910136481318
 30
0.0
 11
48.42995942704857
 21
198.6910128966091
 31
0.0
  0
INSERT
  5
47
330
42
100
AcDbEntity
  8
SUNPO
 62
     0
370
    -2
100
AcDbBlockReference
  2
_OPEN30
 10
48.42995942704858
 20
213.2910136481318
 30
0.0
 41
2.0
 42
2.0
 43
2.0
 50
90.0
  0
INSERT
  5
48
330
42
100
AcDbEntity
  8
SUNPO
 62
     0
370
    -2
100
AcDbBlockReference
  2
_OPEN30
 10
48.42995942704857
 20
196.6910128966091
 30
0.0
 41
2.0
 42
2.0
 43
2.0
 50
270.0
  0
MTEXT
  5
49
330
42
100
AcDbEntity
  8
SUNPO
 62
     0
100
AcDbMText
 10
46.67995942704854
 20
204.9910132723705
 30
0.0
 40
2.5
 41
0.0
 71
     5
 72
     1
  1
\A1;83
 11
0.0000000000000001
 21
1.0
 31
0.0
 73
     1
 44
1.0
1001
ACAD
1000
MTEXTBEGIN
1070
    73
1070
     1
1070
    44
1040
1.0
1070
    74
1070
     0
1000
MTEXTEND
  0
POINT
  5
4A
330
42
100
AcDbEntity
  8
DEFPOINTS
 62
     0
100
AcDbPoint
 10
40.42995942704857
 20
213.2910136481318
 30
0.0
  0
POINT
  5
4C
330
42
100
AcDbEntity
  8
DEFPOINTS
 62
     0
100
AcDbPoint
 10
40.42995942704857
 20
196.6910128966091
 30
0.0
  0
POINT
  5
4D
330
42
100
AcDbEntity
  8
DEFPOINTS
 62
     0
100
AcDbPoint
 10
48.42995942704857
 20
196.6910128966091
 30
0.0
  0
ENDBLK
  5
4E
330
42
100
AcDbEntity
  8
0
100
AcDbBlockEnd
  0
BLOCK
  5
206
330
205
100
AcDbEntity
  8
0
100
AcDbBlockBegin
  2
*D2
 70
     1
 10
0.0
 20
0.0
 30
0.0
  3
*D2
  1

  0
LINE
  5
207
330
205
100
AcDbEntity
  8
SUNPO
 62
     0
370
    -2
100
AcDbLine
 10
76.47941434928284
 20
215.2843131832963
 30
0.0
 11
76.47941434928284
 21
223.2843131832963
 31
0.0
  0
LINE
  5
208
330
205
100
AcDbEntity
  8
SUNPO
 62
     0
370
    -2
100
AcDbLine
 10
115.9792104949358
 20
215.2843131832963
 30
0.0
 11
115.9792104949358
 21
223.2843131832963
 31
0.0
  0
LINE
  5
209
330
205
100
AcDbEntity
  8
SUNPO
 62
     0
370
    -2
100
AcDbLine
 10
78.47941434928284
 20
221.2843131832963
 30
0.0
 11
113.9792104949358
 21
221.2843131832963
 31
0.0
  0
INSERT
  5
20A
330
205
100
AcDbEntity
  8
SUNPO
 62
     0
370
    -2
100
AcDbBlockReference
  2
_OPEN30
 10
76.47941434928284
 20
221.2843131832963
 30
0.0
 41
2.0
 42
2.0
 43
2.0
 50
180.0
  0
INSERT
  5
20B
330
205
100
AcDbEntity
  8
SUNPO
 62
     0
370
    -2
100
AcDbBlockReference
  2
_OPEN30
 10
115.9792104949358
 20
221.2843131832963
 30
0.0
 41
2.0
 42
2.0
 43
2.0
  0
MTEXT
  5
20C
330
205
100
AcDbEntity
  8
SUNPO
 62
     0
100
AcDbMText
 10
96.22931242210936
 20
223.0343131832963
 30
0.0
 40
2.5
 41
0.0
 71
     5
 72
     1
  1
\A1;197.5
 73
     1
 44
1.0
1001
ACAD
1000
MTEXTBEGIN
1070
    73
1070
     1
1070
    44
1040
1.0
1070
    74
1070
     0
1000
MTEXTEND
  0
POINT
  5
20D
330
205
100
AcDbEntity
  8
DEFPOINTS
 62
     0
100
AcDbPoint
 10
76.47941434928284
 20
213.2843131832963
 30
0.0
  0
POINT
  5
20E
330
205
100
AcDbEntity
  8
DEFPOINTS
 62
     0
100
AcDbPoint
 10
115.9792104949358
 20
213.2843131832963
 30
0.0
  0
POINT
  5
20F
330
205
100
AcDbEntity
  8
DEFPOINTS
 62
     0
100
AcDbPoint
 10
115.9792104949358
 20
221.2843131832963
 30
0.0
  0
ENDBLK
  5
210
330
205
100
AcDbEntity
  8
0
100
AcDbBlockEnd
  0
BLOCK
  5
218
330
217
100
AcDbEntity
  8
0
100
AcDbBlockBegin
  2
*D3
 70
     1
 10
0.0
 20
0.0
 30
0.0
  3
*D3
  1

  0
LINE
  5
219
330
217
100
AcDbEntity
  8
SUNPO
 62
     0
370
    -2
100
AcDbLine
 10
23.62995942705115
 20
215.2843131832963
 30
0.0
 11
23.62995942705115
 21
223.2843131832963
 31
0.0
  0
LINE
  5
21A
330
217
100
AcDbEntity
  8
SUNPO
 62
     0
370
    -2
100
AcDbLine
 10
40.42995942704857
 20
215.2843131832963
 30
0.0
 11
40.42995942704857
 21
223.2843131832963
 31
0.0
  0
LINE
  5
21B
330
217
100
AcDbEntity
  8
SUNPO
 62
     0
370
    -2
100
AcDbLine
 10
25.62995942705115
 20
221.2843131832963
 30
0.0
 11
38.42995942704857
 21
221.2843131832963
 31
0.0
  0
INSERT
  5
21C
330
217
100
AcDbEntity
  8
SUNPO
 62
     0
370
    -2
100
AcDbBlockReference
  2
_OPEN30
 10
23.62995942705115
 20
221.2843131832963
 30
0.0
 41
2.0
 42
2.0
 43
2.0
 50
180.0
  0
INSERT
  5
21D
330
217
100
AcDbEntity
  8
SUNPO
 62
     0
370
    -2
100
AcDbBlockReference
  2
_OPEN30
 10
40.42995942704857
 20
221.2843131832963
 30
0.0
 41
2.0
 42
2.0
 43
2.0
  0
MTEXT
  5
21E
330
217
100
AcDbEntity
  8
SUNPO
 62
     0
100
AcDbMText
 10
32.02995942704986
 20
223.0343131832963
 30
0.0
 40
2.5
 41
0.0
 71
     5
 72
     1
  1
\A1;84
 73
     1
 44
1.0
1001
ACAD
1000
MTEXTBEGIN
1070
    73
1070
     1
1070
    44
1040
1.0
1070
    74
1070
     0
1000
MTEXTEND
  0
POINT
  5
21F
330
217
100
AcDbEntity
  8
DEFPOINTS
 62
     0
100
AcDbPoint
 10
23.62995942705115
 20
213.2843131832963
 30
0.0
  0
POINT
  5
220
330
217
100
AcDbEntity
  8
DEFPOINTS
 62
     0
100
AcDbPoint
 10
40.42995942704857
 20
213.2843131832963
 30
0.0
  0
POINT
  5
221
330
217
100
AcDbEntity
  8
DEFPOINTS
 62
     0
100
AcDbPoint
 10
40.42995942704857
 20
221.2843131832963
 30
0.0
  0
ENDBLK
  5
222
330
217
100
AcDbEntity
  8
0
100
AcDbBlockEnd
  0
BLOCK
  5
317
330
30D
100
AcDbEntity
  8
0
100
AcDbBlockBegin
  2
*D4
 70
     1
 10
0.0
 20
0.0
 30
0.0
  3
*D4
  1

  0
LINE
  5
30E
330
30D
100
AcDbEntity
  8
SUNPO
 62
     0
370
    -2
100
AcDbLine
 10
-39.64460526370695
 20
27.82469900214528
 30
0.0
 11
-39.64460526370695
 21
35.82469900214528
 31
0.0
  0
LINE
  5
30F
330
30D
100
AcDbEntity
  8
SUNPO
 62
     0
370
    -2
100
AcDbLine
 10
-22.84460526370953
 20
27.82469900214528
 30
0.0
 11
-22.84460526370953
 21
35.82469900214528
 31
0.0
  0
LINE
  5
310
330
30D
100
AcDbEntity
  8
SUNPO
 62
     0
370
    -2
100
AcDbLine
 10
-37.64460526370695
 20
33.82469900214528
 30
0.0
 11
-24.84460526370952
 21
33.82469900214528
 31
0.0
  0
INSERT
  5
311
330
30D
100
AcDbEntity
  8
SUNPO
 62
     0
370
    -2
100
AcDbBlockReference
  2
_OPEN30
 10
-39.64460526370695
 20
33.82469900214528
 30
0.0
 41
2.0
 42
2.0
 43
2.0
 50
180.0
  0
INSERT
  5
312
330
30D
100
AcDbEntity
  8
SUNPO
 62
     0
370
    -2
100
AcDbBlockReference
  2
_OPEN30
 10
-22.84460526370953
 20
33.82469900214528
 30
0.0
 41
2.0
 42
2.0
 43
2.0
  0
MTEXT
  5
313
330
30D
100
AcDbEntity
  8
SUNPO
 62
     0
100
AcDbMText
 10
-31.24460526370824
 20
35.57469900214528
 30
0.0
 40
2.5
 41
0.0
 71
     5
 72
     1
  1
\A1;84
 73
     1
 44
1.0
1001
ACAD
1000
MTEXTBEGIN
1070
    73
1070
     1
1070
    44
1040
1.0
1070
    74
1070
     0
1000
MTEXTEND
  0
POINT
  5
314
330
30D
100
AcDbEntity
  8
DEFPOINTS
 62
     0
100
AcDbPoint
 10
-39.64460526370695
 20
25.82469900214528
 30
0.0
  0
POINT
  5
315
330
30D
100
AcDbEntity
  8
DEFPOINTS
 62
     0
100
AcDbPoint
 10
-22.84460526370953
 20
25.82469900214528
 30
0.0
  0
POINT
  5
316
330
30D
100
AcDbEntity
  8
DEFPOINTS
 62
     0
100
AcDbPoint
 10
-22.84460526370953
 20
33.82469900214528
 30
0.0
  0
ENDBLK
  5
318
330
30D
100
AcDbEntity
  8
0
100
AcDbBlockEnd
  0
BLOCK
  5
323
330
319
100
AcDbEntity
  8
0
100
AcDbBlockBegin
  2
*D5
 70
     1
 10
0.0
 20
0.0
 30
0.0
  3
*D5
  1

  0
LINE
  5
31A
330
319
100
AcDbEntity
  8
SUNPO
 62
     0
370
    -2
100
AcDbLine
 10
13.20484965852475
 20
27.82469900214528
 30
0.0
 11
13.20484965852475
 21
35.82469900214528
 31
0.0
  0
LINE
  5
31B
330
319
100
AcDbEntity
  8
SUNPO
 62
     0
370
    -2
100
AcDbLine
 10
52.70464580417777
 20
27.82469900214528
 30
0.0
 11
52.70464580417777
 21
35.82469900214528
 31
0.0
  0
LINE
  5
31C
330
319
100
AcDbEntity
  8
SUNPO
 62
     0
370
    -2
100
AcDbLine
 10
15.20484965852475
 20
33.82469900214528
 30
0.0
 11
50.70464580417777
 21
33.82469900214528
 31
0.0
  0
INSERT
  5
31D
330
319
100
AcDbEntity
  8
SUNPO
 62
     0
370
    -2
100
AcDbBlockReference
  2
_OPEN30
 10
13.20484965852475
 20
33.82469900214528
 30
0.0
 41
2.0
 42
2.0
 43
2.0
 50
180.0
  0
INSERT
  5
31E
330
319
100
AcDbEntity
  8
SUNPO
 62
     0
370
    -2
100
AcDbBlockReference
  2
_OPEN30
 10
52.70464580417777
 20
33.82469900214528
 30
0.0
 41
2.0
 42
2.0
 43
2.0
  0
MTEXT
  5
31F
330
319
100
AcDbEntity
  8
SUNPO
 62
     0
100
AcDbMText
 10
32.95474773135126
 20
35.57469900214528
 30
0.0
 40
2.5
 41
0.0
 71
     5
 72
     1
  1
\A1;197.5
 73
     1
 44
1.0
1001
ACAD
1000
MTEXTBEGIN
1070
    73
1070
     1
1070
    44
1040
1.0
1070
    74
1070
     0
1000
MTEXTEND
  0
POINT
  5
320
330
319
100
AcDbEntity
  8
DEFPOINTS
 62
     0
100
AcDbPoint
 10
13.20484965852475
 20
25.82469900214528
 30
0.0
  0
POINT
  5
321
330
319
100
AcDbEntity
  8
DEFPOINTS
 62
     0
100
AcDbPoint
 10
52.70464580417777
 20
25.82469900214528
 30
0.0
  0
POINT
  5
322
330
319
100
AcDbEntity
  8
DEFPOINTS
 62
     0
100
AcDbPoint
 10
52.70464580417777
 20
33.82469900214528
 30
0.0
  0
ENDBLK
  5
324
330
319
100
AcDbEntity
  8
0
100
AcDbBlockEnd
  0
BLOCK
  5
32F
330
325
100
AcDbEntity
  8
0
100
AcDbBlockBegin
  2
*D6
 70
     1
 10
0.0
 20
0.0
 30
0.0
  3
*D6
  1

  0
LINE
  5
326
330
325
100
AcDbEntity
  8
SUNPO
 62
     0
370
    -2
100
AcDbLine
 10
-20.84460526370953
 20
25.83139946698088
 30
0.0
 11
-12.84460526370952
 21
25.83139946698088
 31
0.0
  0
LINE
  5
327
330
325
100
AcDbEntity
  8
SUNPO
 62
     0
370
    -2
100
AcDbLine
 10
-20.84460526370953
 20
9.231398715458112
 30
0.0
 11
-12.84460526370952
 21
9.23139871545811
 31
0.0
  0
LINE
  5
328
330
325
100
AcDbEntity
  8
SUNPO
 62
     0
370
    -2
100
AcDbLine
 10
-14.84460526370952
 20
23.83139946698088
 30
0.0
 11
-14.84460526370952
 21
11.23139871545811
 31
0.0
  0
INSERT
  5
329
330
325
100
AcDbEntity
  8
SUNPO
 62
     0
370
    -2
100
AcDbBlockReference
  2
_OPEN30
 10
-14.84460526370952
 20
25.83139946698088
 30
0.0
 41
2.0
 42
2.0
 43
2.0
 50
90.0
  0
INSERT
  5
32A
330
325
100
AcDbEntity
  8
SUNPO
 62
     0
370
    -2
100
AcDbBlockReference
  2
_OPEN30
 10
-14.84460526370952
 20
9.23139871545811
 30
0.0
 41
2.0
 42
2.0
 43
2.0
 50
270.0
  0
MTEXT
  5
32B
330
325
100
AcDbEntity
  8
SUNPO
 62
     0
100
AcDbMText
 10
-16.59460526370952
 20
17.53139909121949
 30
0.0
 40
2.5
 41
0.0
 71
     5
 72
     1
  1
\A1;83
 11
0.0000000000000001
 21
1.0
 31
0.0
 73
     1
 44
1.0
1001
ACAD
1000
MTEXTBEGIN
1070
    73
1070
     1
1070
    44
1040
1.0
1070
    74
1070
     0
1000
MTEXTEND
  0
POINT
  5
32C
330
325
100
AcDbEntity
  8
DEFPOINTS
 62
     0
100
AcDbPoint
 10
-22.84460526370953
 20
25.83139946698088
 30
0.0
  0
POINT
  5
32D
330
325
100
AcDbEntity
  8
DEFPOINTS
 62
     0
100
AcDbPoint
 10
-22.84460526370953
 20
9.231398715458112
 30
0.0
  0
POINT
  5
32E
330
325
100
AcDbEntity
  8
DEFPOINTS
 62
     0
100
AcDbPoint
 10
-14.84460526370952
 20
9.23139871545811
 30
0.0
  0
ENDBLK
  5
330
330
325
100
AcDbEntity
  8
0
100
AcDbBlockEnd
  0
ENDSEC
  0
SECTION
  2
ENTITIES
  0
TEXT
  5
29
330
2
100
AcDbEntity
  8
MOJI1
100
AcDbText
 10
-33.77456474671703
 20
53.04122094378351
 30
0.0
 40
4.0
  1
ネットワークカメラ
100
AcDbText
  0
TEXT
  5
2B
330
2
100
AcDbEntity
  8
TOUROKU
100
AcDbText
 10
45.82538528621028
 20
47.04122094378351
 30
0.0
 40
2.0
  1
ＤＧＮＰ１００４
 72
     2
 11
64.22538528621027
 21
47.04122094378351
 31
0.0
100
AcDbText
  0
LINE
  5
2D
330
2
100
AcDbEntity
  8
GAIKEI
  6
Continuous
100
AcDbLine
 10
13.30484965852477
 20
23.2669118355563
 30
0.0
 11
13.30484965852477
 21
16.93139947839751
 31
0.0
  0
LINE
  5
2F
330
2
100
AcDbEntity
  8
GAIKEI
  6
HIDDEN2
 62
     1
100
AcDbLine
 10
13.20484965852475
 20
14.29139947839752
 30
0.0
 11
13.20484965852475
 21
19.57654307763749
 31
0.0
  0
LINE
  5
31
330
2
100
AcDbEntity
  8
GAIKEI
  6
Continuous
 62
     1
100
AcDbLine
 10
23.12484965852457
 20
23.83139947839743
 30
0.0
 11
23.12484965852457
 21
16.93139947839751
 31
0.0
  0
LINE
  5
32
330
2
100
AcDbEntity
  8
GAIKEI
  6
HIDDEN2
 62
     1
100
AcDbLine
 10
13.20484965852475
 20
13.33139947839748
 30
0.0
 11
13.20484965852475
 21
20.53139947839747
 31
0.0
  0
LINE
  5
33
330
2
100
AcDbEntity
  8
GAIKEI
  6
Continuous
 62
     1
100
AcDbLine
 10
23.22484660676676
 20
23.83139947839749
 30
0.0
 11
23.22484660676656
 21
18.03139947856789
 31
0.0
  0
ARC
  5
34
330
2
100
AcDbEntity
  8
GAIKEI
  6
Continuous
100
AcDbCircle
 10
12.65682739162796
 20
21.43139952699073
 30
0.0
 40
40.0
100
AcDbArc
 50
355.1239751345069
 51
357.7075572296916
  0
ARC
  5
35
330
2
100
AcDbEntity
  8
GAIKEI
  6
Continuous
 62
     1
100
AcDbCircle
 10
-36.84247299589777
 20
17.78706578827552
 30
0.0
 40
13.4999999999986
100
AcDbArc
 50
1.037044248323902
 51
20.04199584276559
  0
ARC
  5
36
330
2
100
AcDbEntity
  8
GAIKEI
  6
Continuous
 62
     1
100
AcDbCircle
 10
-25.64673753151874
 20
17.78706578827552
 30
0.0
 40
13.4999999999986
100
AcDbArc
 50
159.9580041572344
 51
178.9816493668135
  0
ARC
  5
37
330
2
100
AcDbEntity
  8
GAIKEI
  6
Continuous
100
AcDbCircle
 10
-36.84247299589777
 20
17.78706578827552
 30
0.0
 40
13.9999999999988
100
AcDbArc
 50
1.000000000001761
 51
19.29725729950538
  0
ARC
  5
38
330
2
100
AcDbEntity
  8
GAIKEI
  6
Continuous
100
AcDbCircle
 10
-25.64673753151874
 20
17.78706578827552
 30
0.0
 40
13.9999999999986
100
AcDbArc
 50
160.7027427004915
 51
182.0699119001426
  0
DIMENSION
  5
39
330
2
100
AcDbEntity
  8
SUNPO
100
AcDbDimension
  2
*D6
 10
-14.84460526370952
 20
9.23139871545811
 30
0.0
 11
-16.59460526370952
 21
17.53139909121949
 31
0.0
 70
    33
  1
83
 71
     5
 42
16.60000075152277
  3
STANDARD
100
AcDbAlignedDimension
 13
-22.84460526370953
 23
25.83139946698088
 33
0.0
 14
-22.84460526370953
 24
9.231398715458112
 34
0.0
1001
ACAD
1000
DSTYLE
1002
{
1070
   287
1070
     3
1070
   287
1070
     3
1070
    40
1040
1.0
1070
   140
1040
2.5
1070
   147
1040
0.5
1070
   172
1070
     1
1070
   279
1070
     0
1070
   288
1070
     0
1070
   341
1005
0
1002
}
  0
ARC
  5
4F
330
2
100
AcDbEntity
  8
GAIKEI
  6
HIDDEN2
 62
     1
100
AcDbCircle
 10
-31.34015882674169
 20
16.93090455920287
 30
0.0
 40
4.139999999999999
100
AcDbArc
 50
14.99999999999445
 51
45.0000000000046
  0
ARC
  5
50
330
2
100
AcDbEntity
  8
GAIKEI
  6
HIDDEN2
 62
     1
100
AcDbCircle
 10
-31.34015882674169
 20
16.93090455920287
 30
0.0
 40
4.26
100
AcDbArc
 50
14.99999999999445
 51
45.0000000000046
  0
ARC
  5
51
330
2
100
AcDbEntity
  8
GAIKEI
  6
HIDDEN2
 62
     1
100
AcDbCircle
 10
-31.34015882674169
 20
16.93090455920287
 30
0.0
 40
4.229999999999999
100
AcDbArc
 50
14.99999999999445
 51
45.0000000000046
  0
ARC
  5
52
330
2
100
AcDbEntity
  8
GAIKEI
  6
HIDDEN2
 62
     1
100
AcDbCircle
 10
-31.34015882674169
 20
16.93090455920287
 30
0.0
 40
4.17
100
AcDbArc
 50
14.99999999999445
 51
45.0000000000046
  0
ARC
  5
53
330
2
100
AcDbEntity
  8
GAIKEI
  6
HIDDEN2
 62
     1
100
AcDbCircle
 10
-31.34177011934168
 20
16.93399982700293
 30
0.0
 40
4.3700000912
100
AcDbArc
 50
123.8945209970038
 51
236.0624177210031
  0
ARC
  5
54
330
2
100
AcDbEntity
  8
GAIKEI
  6
HIDDEN2
 62
     1
100
AcDbCircle
 10
-31.32970014594167
 20
16.93044791860279
 30
0.0
 40
4.17
100
AcDbArc
 50
134.9999999999954
 51
165.0000000000055
  0
ARC
  5
55
330
2
100
AcDbEntity
  8
GAIKEI
  6
HIDDEN2
 62
     1
100
AcDbCircle
 10
-31.32970014594167
 20
16.93044791860279
 30
0.0
 40
4.229999999999999
100
AcDbArc
 50
134.9999999999954
 51
165.0000000000055
  0
ARC
  5
56
330
2
100
AcDbEntity
  8
GAIKEI
  6
HIDDEN2
 62
     1
100
AcDbCircle
 10
-31.32970014594167
 20
16.93044791860279
 30
0.0
 40
4.26
100
AcDbArc
 50
134.9999999999954
 51
165.0000000000055
  0
ARC
  5
57
330
2
100
AcDbEntity
  8
GAIKEI
  6
HIDDEN2
 62
     1
100
AcDbCircle
 10
-31.32970014594167
 20
16.93044791860279
 30
0.0
 40
4.139999999999999
100
AcDbArc
 50
134.9999999999954
 51
165.0000000000055
  0
ARC
  5
58
330
2
100
AcDbEntity
  8
GAIKEI
  6
HIDDEN2
 62
     1
100
AcDbCircle
 10
-37.24636911834168
 20
18.46557331340295
 30
0.0
 40
0.7000000000000001
100
AcDbArc
 50
119.3984927529925
 51
165.4587298480126
  0
ARC
  5
59
330
2
100
AcDbEntity
  8
GAIKEI
  6
HIDDEN2
 62
     1
100
AcDbCircle
 10
-31.34177011934168
 20
16.93399982700293
 30
0.0
 40
6.0
100
AcDbArc
 50
211.4050681739978
 51
148.5949318260022
  0
LINE
  5
5A
330
2
100
AcDbEntity
  8
GAIKEI
  6
HIDDEN2
 62
     1
100
AcDbLine
 10
-37.33309818574168
 20
19.22016936980299
 30
0.0
 11
-37.58998439774169
 21
19.07542970440295
 31
0.0
  0
CIRCLE
  5
5B
330
2
100
AcDbEntity
  8
GAIKEI
  6
HIDDEN2
 62
     1
100
AcDbCircle
 10
-31.34177011934168
 20
16.93399982700293
 30
0.0
 40
4.8700000912
  0
CIRCLE
  5
5C
330
2
100
AcDbEntity
  8
GAIKEI
  6
HIDDEN2
 62
     1
100
AcDbCircle
 10
-31.34177011934168
 20
16.93399982700293
 30
0.0
 40
5.66
  0
CIRCLE
  5
5D
330
2
100
AcDbEntity
  8
GAIKEI
  6
HIDDEN2
 62
     1
100
AcDbCircle
 10
-31.34177011934168
 20
16.93399982700293
 30
0.0
 40
4.01
  0
CIRCLE
  5
5E
330
2
100
AcDbEntity
  8
GAIKEI
  6
HIDDEN2
 62
     1
100
AcDbCircle
 10
-31.34177011934168
 20
16.93399982700293
 30
0.0
 40
5.679999999999999
  0
ARC
  5
5F
330
2
100
AcDbEntity
  8
GAIKEI
  6
HIDDEN2
 62
     1
100
AcDbCircle
 10
-31.34177011934168
 20
16.93399982700293
 30
0.0
 40
4.3700000912
100
AcDbArc
 50
3.894520997010282
 51
116.0245350170074
  0
LINE
  5
60
330
2
100
AcDbEntity
  8
GAIKEI
  6
HIDDEN2
 62
     1
100
AcDbLine
 10
7.676849658524758
 20
22.89645289521747
 30
0.0
 11
7.676849658524758
 21
10.89645289541755
 31
0.0
  0
LINE
  5
61
330
2
100
AcDbEntity
  8
GAIKEI
  6
HIDDEN2
 62
     1
100
AcDbLine
 10
7.388475006524771
 20
10.89645289541755
 30
0.0
 11
7.388475006524771
 21
22.89645289541756
 31
0.0
  0
LINE
  5
62
330
2
100
AcDbEntity
  8
GAIKEI
  6
HIDDEN2
 62
     1
100
AcDbLine
 10
13.20484965852475
 20
19.79645289541742
 30
0.0
 11
13.20484965852475
 21
18.7862412432176
 31
0.0
  0
LINE
  5
63
330
2
100
AcDbEntity
  8
GAIKEI
  6
HIDDEN2
 62
     1
100
AcDbLine
 10
13.10484965852478
 20
22.79645289521756
 30
0.0
 11
13.10484965852478
 21
10.99645289541746
 31
0.0
  0
LINE
  5
64
330
2
100
AcDbEntity
  8
GAIKEI
  6
HIDDEN2
 62
     1
100
AcDbLine
 10
7.576849658524764
 20
10.99645289541746
 30
0.0
 11
7.576849658524764
 21
22.79645289521756
 31
0.0
  0
LINE
  5
65
330
2
100
AcDbEntity
  8
GAIKEI
  6
HIDDEN2
 62
     1
100
AcDbLine
 10
13.00484965852476
 20
10.89645289541755
 30
0.0
 11
13.00484965852476
 21
22.89645289521747
 31
0.0
  0
LINE
  5
66
330
2
100
AcDbEntity
  8
GAIKEI
  6
HIDDEN2
 62
     1
100
AcDbLine
 10
1.668475006524772
 20
11.03645289541742
 30
0.0
 11
1.668475006524772
 21
22.75645289541746
 31
0.0
  0
LINE
  5
67
330
2
100
AcDbEntity
  8
GAIKEI
  6
HIDDEN2
 62
     1
100
AcDbLine
 10
1.808475006524759
 20
10.89645289541755
 30
0.0
 11
1.808475006524759
 21
22.89645289541756
 31
0.0
  0
LINE
  5
68
330
2
100
AcDbEntity
  8
GAIKEI
  6
HIDDEN2
 62
     1
100
AcDbLine
 10
7.488475006524765
 20
10.99645289541746
 30
0.0
 11
7.488475006524765
 21
22.79645289541742
 31
0.0
  0
LINE
  5
69
330
2
100
AcDbEntity
  8
GAIKEI
  6
HIDDEN2
 62
     1
100
AcDbLine
 10
1.50846046752477
 20
12.08135165021764
 30
0.0
 11
1.50846046752477
 21
22.4564528954175
 31
0.0
  0
LINE
  5
6A
330
2
100
AcDbEntity
  8
GAIKEI
  6
HIDDEN2
 62
     1
100
AcDbLine
 10
1.608460467524764
 20
11.99474910981763
 30
0.0
 11
1.608460467524764
 21
22.55645289541764
 31
0.0
  0
LINE
  5
6B
330
2
100
AcDbEntity
  8
GAIKEI
  6
HIDDEN2
 62
     1
100
AcDbLine
 10
1.300983067324779
 20
14.70006153841751
 30
0.0
 11
1.300983067324779
 21
19.09284425241759
 31
0.0
  0
LINE
  5
6C
330
2
100
AcDbEntity
  8
GAIKEI
  6
HIDDEN2
 62
     1
100
AcDbLine
 10
1.304059702924774
 20
14.67999226341754
 30
0.0
 11
1.304059702924774
 21
19.11291352741756
 31
0.0
  0
LINE
  5
6D
330
2
100
AcDbEntity
  8
GAIKEI
  6
HIDDEN2
 62
     1
100
AcDbLine
 10
1.30718193252477
 20
14.65993003081741
 30
0.0
 11
1.30718193252477
 21
19.13297576001747
 31
0.0
  0
LINE
  5
6E
330
2
100
AcDbEntity
  8
GAIKEI
  6
HIDDEN2
 62
     1
100
AcDbLine
 10
1.310350284924766
 20
14.63987502981746
 30
0.0
 11
1.310350284924766
 21
19.15303076101742
 31
0.0
  0
LINE
  5
6F
330
2
100
AcDbEntity
  8
GAIKEI
  6
HIDDEN2
 62
     1
100
AcDbLine
 10
1.313565324924752
 20
14.61982746041741
 30
0.0
 11
1.313565324924752
 21
19.17307833041746
 31
0.0
  0
LINE
  5
70
330
2
100
AcDbEntity
  8
GAIKEI
  6
HIDDEN2
 62
     1
100
AcDbLine
 10
1.316827617124744
 20
14.59978752561738
 30
0.0
 11
1.316827617124744
 21
19.19311826521749
 31
0.0
  0
LINE
  5
71
330
2
100
AcDbEntity
  8
GAIKEI
  6
HIDDEN2
 62
     1
100
AcDbLine
 10
1.320137626924775
 20
14.5797554166175
 30
0.0
 11
1.320137626924775
 21
19.2131503742176
 31
0.0
  0
LINE
  5
72
330
2
100
AcDbEntity
  8
GAIKEI
  6
HIDDEN2
 62
     1
100
AcDbLine
 10
1.323495800924746
 20
14.55973132501759
 30
0.0
 11
1.323495800924746
 21
19.23317446581751
 31
0.0
  0
LINE
  5
73
330
2
100
AcDbEntity
  8
GAIKEI
  6
HIDDEN2
 62
     1
100
AcDbLine
 10
1.326902728524771
 20
14.53971547081761
 30
0.0
 11
1.326902728524771
 21
19.25319032001749
 31
0.0
  0
LINE
  5
74
330
2
100
AcDbEntity
  8
GAIKEI
  6
HIDDEN2
 62
     1
100
AcDbLine
 10
1.330359037924779
 20
14.51970808421748
 30
0.0
 11
1.330359037924779
 21
19.27319770661739
 31
0.0
  0
LINE
  5
75
330
2
100
AcDbEntity
  8
GAIKEI
  6
HIDDEN2
 62
     1
100
AcDbLine
 10
1.333865228124778
 20
14.49970937821746
 30
0.0
 11
1.333865228124778
 21
19.29319641261742
 31
0.0
  0
LINE
  5
76
330
2
100
AcDbEntity
  8
GAIKEI
  6
HIDDEN2
 62
     1
100
AcDbLine
 10
1.337421769324777
 20
14.47971956441762
 30
0.0
 11
1.337421769324777
 21
19.31318622641748
 31
0.0
  0
LINE
  5
77
330
2
100
AcDbEntity
  8
GAIKEI
  6
HIDDEN2
 62
     1
100
AcDbLine
 10
1.341029282124765
 20
14.45973888661757
 30
0.0
 11
1.341029282124765
 21
19.33316690421753
 31
0.0
  0
LINE
  5
78
330
2
100
AcDbEntity
  8
GAIKEI
  6
HIDDEN2
 62
     1
100
AcDbLine
 10
1.344688427124765
 20
14.43976759921753
 30
0.0
 11
1.344688427124765
 21
19.35313819161757
 31
0.0
  0
LINE
  5
79
330
2
100
AcDbEntity
  8
GAIKEI
  6
HIDDEN2
 62
     1
100
AcDbLine
 10
1.348399726924782
 20
14.41980593761747
 30
0.0
 11
1.348399726924782
 21
19.37309985321764
 31
0.0
  0
LINE
  5
7A
330
2
100
AcDbEntity
  8
GAIKEI
  6
HIDDEN2
 62
     1
100
AcDbLine
 10
1.352163660124773
 20
14.39985413301753
 30
0.0
 11
1.352163660124773
 21
19.39305165781758
 31
0.0
  0
LINE
  5
7B
330
2
100
AcDbEntity
  8
GAIKEI
  6
HIDDEN2
 62
     1
100
AcDbLine
 10
1.355980790324764
 20
14.3799124376174
 30
0.0
 11
1.355980790324764
 21
19.41299335321747
 31
0.0
  0
LINE
  5
7C
330
2
100
AcDbEntity
  8
GAIKEI
  6
HIDDEN2
 62
     1
100
AcDbLine
 10
1.359851720324769
 20
14.35998111441751
 30
0.0
 11
1.359851720324769
 21
19.4329246764176
 31
0.0
  0
LINE
  5
7D
330
2
100
AcDbEntity
  8
GAIKEI
  6
HIDDEN2
 62
     1
100
AcDbLine
 10
1.363777088124777
 20
14.34006044101744
 30
0.0
 11
1.363777088124777
 21
19.45284534981744
 31
0.0
  0
LINE
  5
7E
330
2
100
AcDbEntity
  8
GAIKEI
  6
HIDDEN2
 62
     1
100
AcDbLine
 10
1.367757534124763
 20
14.32015069901746
 30
0.0
 11
1.367757534124763
 21
19.47275509181764
 31
0.0
  0
LINE
  5
7F
330
2
100
AcDbEntity
  8
GAIKEI
  6
HIDDEN2
 62
     1
100
AcDbLine
 10
1.371793610324772
 20
14.30025215961751
 30
0.0
 11
1.371793610324772
 21
19.49265363121759
 31
0.0
  0
LINE
  5
80
330
2
100
AcDbEntity
  8
GAIKEI
  6
HIDDEN2
 62
     1
100
AcDbLine
 10
1.375885843324766
 20
14.28036509221766
 30
0.0
 11
1.375885843324766
 21
19.51254069861744
 31
0.0
  0
LINE
  5
81
330
2
100
AcDbEntity
  8
GAIKEI
  6
HIDDEN2
 62
     1
100
AcDbLine
 10
1.380034846124743
 20
14.26048979101739
 30
0.0
 11
1.380034846124743
 21
19.53241599981749
 31
0.0
  0
LINE
  5
82
330
2
100
AcDbEntity
  8
GAIKEI
  6
HIDDEN2
 62
     1
100
AcDbLine
 10
1.384241263924764
 20
14.24062656101756
 30
0.0
 11
1.384241263924764
 21
19.55227922981754
 31
0.0
  0
LINE
  5
83
330
2
100
AcDbEntity
  8
GAIKEI
  6
HIDDEN2
 62
     1
100
AcDbLine
 10
1.388505702124774
 20
14.22077570641755
 30
0.0
 11
1.388505702124774
 21
19.57213008441755
 31
0.0
  0
LINE
  5
84
330
2
100
AcDbEntity
  8
GAIKEI
  6
HIDDEN2
 62
     1
100
AcDbLine
 10
1.39282875072476
 20
14.20093753221755
 30
0.0
 11
1.39282875072476
 21
19.59196825861755
 31
0.0
  0
LINE
  5
85
330
2
100
AcDbEntity
  8
GAIKEI
  6
HIDDEN2
 62
     1
100
AcDbLine
 10
1.397211016324774
 20
14.18111235481757
 30
0.0
 11
1.397211016324774
 21
19.61179343601753
 31
0.0
  0
LINE
  5
86
330
2
100
AcDbEntity
  8
GAIKEI
  6
HIDDEN2
 62
     1
100
AcDbLine
 10
1.401653113324783
 20
14.16130049681743
 30
0.0
 11
1.401653113324783
 21
19.63160529401745
 31
0.0
  0
LINE
  5
87
330
2
100
AcDbEntity
  8
GAIKEI
  6
HIDDEN2
 62
     1
100
AcDbLine
 10
1.406155656924767
 20
14.14150228841737
 30
0.0
 11
1.406155656924767
 21
19.65140350241751
 31
0.0
  0
LINE
  5
88
330
2
100
AcDbEntity
  8
GAIKEI
  6
HIDDEN2
 62
     1
100
AcDbLine
 10
1.410719263324779
 20
14.12171806521752
 30
0.0
 11
1.410719263324779
 21
19.67118772561736
 31
0.0
  0
LINE
  5
89
330
2
100
AcDbEntity
  8
GAIKEI
  6
HIDDEN2
 62
     1
100
AcDbLine
 10
1.415344552124764
 20
14.10194817121765
 30
0.0
 11
1.415344552124764
 21
19.69095761961745
 31
0.0
  0
LINE
  5
8A
330
2
100
AcDbEntity
  8
GAIKEI
  6
HIDDEN2
 62
     1
100
AcDbLine
 10
1.420032145724775
 20
14.08219295661757
 30
0.0
 11
1.420032145724775
 21
19.71071283421753
 31
0.0
  0
LINE
  5
8B
330
2
100
AcDbEntity
  8
GAIKEI
  6
HIDDEN2
 62
     1
100
AcDbLine
 10
1.42478266772477
 20
14.06245277941758
 30
0.0
 11
1.42478266772477
 21
19.73045301141752
 31
0.0
  0
LINE
  5
8C
330
2
100
AcDbEntity
  8
GAIKEI
  6
HIDDEN2
 62
     1
100
AcDbLine
 10
1.429596743724772
 20
14.04272800401742
 30
0.0
 11
1.429596743724772
 21
19.75017778681746
 31
0.0
  0
LINE
  5
8D
330
2
100
AcDbEntity
  8
GAIKEI
  6
HIDDEN2
 62
     1
100
AcDbLine
 10
1.434474999724756
 20
14.02301900301751
 30
0.0
 11
1.434474999724756
 21
19.7698867878176
 31
0.0
  0
LINE
  5
8E
330
2
100
AcDbEntity
  8
GAIKEI
  6
HIDDEN2
 62
     1
100
AcDbLine
 10
1.439418063124747
 20
14.00332615481744
 30
0.0
 11
1.439418063124747
 21
19.78957963601743
 31
0.0
  0
LINE
  5
8F
330
2
100
AcDbEntity
  8
GAIKEI
  6
HIDDEN2
 62
     1
100
AcDbLine
 10
1.444426561324775
 20
13.98364984661754
 30
0.0
 11
1.444426561324775
 21
19.80925594421757
 31
0.0
  0
LINE
  5
90
330
2
100
AcDbEntity
  8
GAIKEI
  6
HIDDEN2
 62
     1
100
AcDbLine
 10
1.449501122124758
 20
13.96399047121741
 30
0.0
 11
1.449501122124758
 21
19.82891531961746
 31
0.0
  0
LINE
  5
91
330
2
100
AcDbEntity
  8
GAIKEI
  6
HIDDEN2
 62
     1
100
AcDbLine
 10
1.454642372124766
 20
13.94434843061737
 30
0.0
 11
1.454642372124766
 21
19.84855736021751
 31
0.0
  0
LINE
  5
92
330
2
100
AcDbEntity
  8
GAIKEI
  6
HIDDEN2
 62
     1
100
AcDbLine
 10
1.459850938324763
 20
13.9247241320175
 30
0.0
 11
1.459850938324763
 21
19.8681816588176
 31
0.0
  0
LINE
  5
93
330
2
100
AcDbEntity
  8
GAIKEI
  6
HIDDEN2
 62
     1
100
AcDbLine
 10
1.465127444924775
 20
13.90511799121742
 30
0.0
 11
1.465127444924775
 21
19.88778779961745
 31
0.0
  0
LINE
  5
94
330
2
100
AcDbEntity
  8
GAIKEI
  6
HIDDEN2
 62
     1
100
AcDbLine
 10
1.470472515524761
 20
13.88553043041753
 30
0.0
 11
1.470472515524761
 21
19.90737536041757
 31
0.0
  0
LINE
  5
95
330
2
100
AcDbEntity
  8
GAIKEI
  6
HIDDEN2
 62
     1
100
AcDbLine
 10
1.475886771924791
 20
13.86596188001755
 30
0.0
 11
1.475886771924791
 21
19.92694391081755
 31
0.0
  0
LINE
  5
96
330
2
100
AcDbEntity
  8
GAIKEI
  6
HIDDEN2
 62
     1
100
AcDbLine
 10
1.481370836324771
 20
13.84641277741758
 30
0.0
 11
1.481370836324771
 21
19.94649301341752
 31
0.0
  0
LINE
  5
97
330
2
100
AcDbEntity
  8
GAIKEI
  6
HIDDEN2
 62
     1
100
AcDbLine
 10
1.486925320524761
 20
13.82688356581758
 30
0.0
 11
1.486925320524761
 21
19.96602222501752
 31
0.0
  0
LINE
  5
98
330
2
100
AcDbEntity
  8
GAIKEI
  6
HIDDEN2
 62
     1
100
AcDbLine
 10
1.492550827924759
 20
13.80737469341744
 30
0.0
 11
1.492550827924759
 21
19.98553109741743
 31
0.0
  0
LINE
  5
99
330
2
100
AcDbEntity
  8
GAIKEI
  6
HIDDEN2
 62
     1
100
AcDbLine
 10
1.498247980924787
 20
13.78788662201742
 30
0.0
 11
1.498247980924787
 21
20.00501916881745
 31
0.0
  0
LINE
  5
9A
330
2
100
AcDbEntity
  8
GAIKEI
  6
HIDDEN2
 62
     1
100
AcDbLine
 10
1.504017421724768
 20
13.76841982861748
 30
0.0
 11
1.504017421724768
 21
20.02448596221762
 31
0.0
  0
LINE
  5
9B
330
2
100
AcDbEntity
  8
GAIKEI
  6
Continuous
 62
     1
100
AcDbLine
 10
23.22484660676696
 20
17.93139947839751
 30
0.0
 11
52.50340811182596
 21
17.93139947839751
 31
0.0
  0
LINE
  5
9C
330
2
100
AcDbEntity
  8
GAIKEI
  6
Continuous
100
AcDbLine
 10
50.19971158385018
 20
9.231399383030293
 30
0.0
 11
23.22484660676696
 21
9.231399383030293
 31
0.0
  0
LINE
  5
9D
330
2
100
AcDbEntity
  8
GAIKEI
  6
Continuous
 62
     1
100
AcDbLine
 10
52.51206544159439
 20
18.03139952985629
 30
0.0
 11
38.02484975389157
 21
18.03139950193929
 31
0.0
  0
LINE
  5
9E
330
2
100
AcDbEntity
  8
GAIKEI
  6
Continuous
100
AcDbLine
 10
-36.72576797067333
 20
9.231398715458055
 30
0.0
 11
-31.24460526370837
 21
9.231398715458112
 31
0.0
  0
LINE
  5
9F
330
2
100
AcDbEntity
  8
GAIKEI
  6
Continuous
 62
     1
100
AcDbLine
 10
-36.79885264106594
 20
9.402808120625536
 30
0.0
 11
-25.69035788635057
 21
9.402808120625536
 31
0.0
  0
ARC
  5
A0
330
2
100
AcDbEntity
  8
GAIKEI
  6
HIDDEN2
 62
     1
100
AcDbCircle
 10
-31.34177011934168
 20
16.93399982700293
 30
0.0
 40
4.3700000912
100
AcDbArc
 50
243.9243500470033
 51
356.0245350169994
  0
LINE
  5
A1
330
2
100
AcDbEntity
  8
GAIKEI
  6
Continuous
 62
     1
100
AcDbLine
 10
-39.77282674029894
 20
17.28140090890889
 30
0.0
 11
-39.62846088442816
 21
17.28140090890889
 31
0.0
  0
LINE
  5
A2
330
2
100
AcDbEntity
  8
GAIKEI
  6
Continuous
 62
     1
100
AcDbLine
 10
-38.29652364966177
 20
10.3813993830301
 30
0.0
 11
-38.10647376368354
 21
10.3813993830301
 31
0.0
  0
LINE
  5
A3
330
2
100
AcDbEntity
  8
GAIKEI
  6
Continuous
100
AcDbLine
 10
-39.64460526370695
 20
18.03139947839747
 30
0.0
 11
-39.64460526370695
 21
17.93139947839751
 31
0.0
  0
LINE
  5
A4
330
2
100
AcDbEntity
  8
GAIKEI
  6
Continuous
100
AcDbLine
 10
-39.14460526370695
 20
18.02699637057031
 30
0.0
 11
-39.14460526370695
 21
17.9357889500315
 31
0.0
  0
ARC
  5
A5
330
2
100
AcDbEntity
  8
GAIKEI
  6
Continuous
 62
     1
100
AcDbCircle
 10
-18.47441717909095
 20
18.32965417633812
 30
0.0
 40
21.78
100
AcDbArc
 50
186.154180344298
 51
187.9125161715321
  0
ARC
  5
A6
330
2
100
AcDbEntity
  8
GAIKEI
  6
Continuous
 62
     1
100
AcDbCircle
 10
-18.47441717909095
 20
18.32965417633812
 30
0.0
 40
21.78
100
AcDbArc
 50
187.9125161715321
 51
190.0071439004701
  0
ARC
  5
A7
330
2
100
AcDbEntity
  8
GAIKEI
  6
Continuous
 62
     1
100
AcDbCircle
 10
-18.47441717909095
 20
18.32965417633812
 30
0.0
 40
21.78
100
AcDbArc
 50
198.4087315133261
 51
198.9047386517323
  0
ARC
  5
A8
330
2
100
AcDbEntity
  8
GAIKEI
  6
Continuous
 62
     1
100
AcDbCircle
 10
-37.56587904051855
 20
11.79142169395868
 30
0.0
 40
1.6000000000002
100
AcDbArc
 50
198.904738651722
 51
240.8500852310218
  0
ARC
  5
A9
330
2
100
AcDbEntity
  8
GAIKEI
  6
Continuous
 62
     1
100
AcDbCircle
 10
-38.14042530753116
 20
16.20915322323492
 30
0.0
 40
2.0000000000002
100
AcDbArc
 50
180.0
 51
186.1541803442948
  0
ARC
  5
AA
330
2
100
AcDbEntity
  8
GAIKEI
  6
Continuous
 62
     7
100
AcDbCircle
 10
8.041969783126063
 20
26.02930630352762
 30
0.0
 40
48.76956563581479
100
AcDbArc
 50
194.6819543305993
 51
196.5681930927909
  0
ARC
  5
AB
330
2
100
AcDbEntity
  8
GAIKEI
  6
Continuous
 62
     1
100
AcDbCircle
 10
-40.76174102312714
 20
14.12755995190093
 30
0.0
 40
1.4
100
AcDbArc
 50
10.67731302585253
 51
59.30370771322507
  0
ARC
  5
AC
330
2
100
AcDbEntity
  8
GAIKEI
  6
Continuous
 62
     1
100
AcDbCircle
 10
-18.47441717909095
 20
18.32965417633812
 30
0.0
 40
21.28
100
AcDbArc
 50
192.7133438141909
 51
193.2211732112497
  0
ARC
  5
AD
330
2
100
AcDbEntity
  8
GAIKEI
  6
Continuous
 62
     1
100
AcDbCircle
 10
-40.55327133013375
 20
13.14249701880209
 30
0.0
 40
1.4000000000002
100
AcDbArc
 50
341.7308809797196
 51
13.22117321123666
  0
ARC
  5
AE
330
2
100
AcDbEntity
  8
GAIKEI
  6
Continuous
 62
     1
100
AcDbCircle
 10
-18.47441717909095
 20
18.32965417633812
 30
0.0
 40
21.2799999999998
100
AcDbArc
 50
190.6773130258525
 51
192.7133438141909
  0
ARC
  5
AF
330
2
100
AcDbEntity
  8
GAIKEI
  6
Continuous
 62
     7
100
AcDbCircle
 10
-18.47441717909095
 20
18.32965417633812
 30
0.0
 40
21.1799999999998
100
AcDbArc
 50
182.8368760633004
 51
192.7133438141909
  0
ARC
  5
B0
330
2
100
AcDbEntity
  8
GAIKEI
  6
Continuous
 62
     1
100
AcDbCircle
 10
-33.11870400568154
 20
12.50506658043332
 30
0.0
 40
4.9255968754406
100
AcDbArc
 50
201.5585139883886
 51
217.2875502362273
  0
ARC
  5
B1
330
2
100
AcDbEntity
  8
GAIKEI
  6
Continuous
 62
     1
100
AcDbCircle
 10
-12.03855171606932
 20
19.53330799303796
 30
0.0
 40
27.15308833300862
100
AcDbArc
 50
183.3728754779872
 51
196.4993840796273
  0
ARC
  5
B2
330
2
100
AcDbEntity
  8
GAIKEI
  6
Continuous
100
AcDbCircle
 10
-35.62276681543614
 20
11.69974773516151
 30
0.0
 40
2.8
100
AcDbArc
 50
201.0255933150848
 51
236.5299801127443
  0
ARC
  5
B3
330
2
100
AcDbEntity
  8
GAIKEI
  6
Continuous
 62
     7
100
AcDbCircle
 10
-18.44783412639154
 20
18.30139049486792
 30
0.0
 40
21.19999999999981
100
AcDbArc
 50
199.923934704091
 51
201.0255933150848
  0
ARC
  5
B4
330
2
100
AcDbEntity
  8
GAIKEI
  6
Continuous
 62
     1
100
AcDbCircle
 10
-38.14042530753116
 20
16.20915322323492
 30
0.0
 40
2.0000000000002
100
AcDbArc
 50
149.2222468774711
 51
180.0
  0
ARC
  5
B5
330
2
100
AcDbEntity
  8
GAIKEI
  6
Continuous
 62
     1
100
AcDbCircle
 10
-38.29652364966177
 20
10.48139938303012
 30
0.0
 40
0.0999999999998
100
AcDbArc
 50
240.8500852311691
 51
270.0
  0
ARC
  5
B6
330
2
100
AcDbEntity
  8
GAIKEI
  6
Continuous
 62
     1
100
AcDbCircle
 10
-39.77282674029894
 20
17.18140090890893
 30
0.0
 40
0.1
100
AcDbArc
 50
90.0
 51
149.2222468774711
  0
ARC
  5
B7
330
2
100
AcDbEntity
  8
GAIKEI
  6
Continuous
100
AcDbCircle
 10
-36.70023151130042
 20
10.09537273551143
 30
0.0
 40
0.8675615115162987
100
AcDbArc
 50
237.4532815784577
 51
259.0259927231436
  0
ARC
  5
B8
330
2
100
AcDbEntity
  8
GAIKEI
  6
Continuous
 62
     1
100
AcDbCircle
 10
-36.79885264106594
 20
9.702808120625491
 30
0.0
 40
0.3
100
AcDbArc
 50
217.2875502362227
 51
270.0
  0
ARC
  5
B9
330
2
100
AcDbEntity
  8
GAIKEI
  6
HIDDEN2
 62
     1
100
AcDbCircle
 10
-31.34525634634167
 20
16.92897452660281
 30
0.0
 40
4.389999999999999
100
AcDbArc
 50
236.0815169690058
 51
243.9184830309946
  0
ARC
  5
BA
330
2
100
AcDbEntity
  8
GAIKEI
  6
HIDDEN2
 62
     1
100
AcDbCircle
 10
-31.34525634634167
 20
16.92897452660281
 30
0.0
 40
4.549999999999999
100
AcDbArc
 50
242.5193075209956
 51
243.7804862379978
  0
ARC
  5
BB
330
2
100
AcDbEntity
  8
GAIKEI
  6
HIDDEN2
 62
     1
100
AcDbCircle
 10
-31.34525634634167
 20
16.92897452660281
 30
0.0
 40
4.549999999999999
100
AcDbArc
 50
236.2195137619913
 51
237.4806924790008
  0
LINE
  5
BC
330
2
100
AcDbEntity
  8
GAIKEI
  6
HIDDEN2
 62
     1
100
AcDbLine
 10
-33.36551999594167
 20
12.82977524080297
 30
0.0
 11
-33.26529394894169
 21
13.00337184640284
 31
0.0
  0
ARC
  5
BD
330
2
100
AcDbEntity
  8
GAIKEI
  6
HIDDEN2
 62
     1
100
AcDbCircle
 10
-31.34525634634167
 20
16.92897452660281
 30
0.0
 40
4.57
100
AcDbArc
 50
236.2360824539988
 51
243.7639175459955
  0
LINE
  5
BE
330
2
100
AcDbEntity
  8
GAIKEI
  6
HIDDEN2
 62
     1
100
AcDbLine
 10
-33.78490919114168
 20
13.3033718464028
 30
0.0
 11
-33.88513523834166
 21
13.12977524080293
 31
0.0
  0
ARC
  5
BF
330
2
100
AcDbEntity
  8
GAIKEI
  6
HIDDEN2
 62
     1
100
AcDbCircle
 10
-31.34525634634167
 20
16.92897452660281
 30
0.0
 40
4.5
100
AcDbArc
 50
236.176946476003
 51
243.8244355549991
  0
LINE
  5
C0
330
2
100
AcDbEntity
  8
GAIKEI
  6
HIDDEN2
 62
     1
100
AcDbLine
 10
-33.45486203294167
 20
12.87503029340291
 30
0.0
 11
-33.43705124854168
 21
12.90587947700283
 31
0.0
  0
LINE
  5
C1
330
2
100
AcDbEntity
  8
GAIKEI
  6
HIDDEN2
 62
     1
100
AcDbLine
 10
-33.8012721945417
 20
13.07503029340296
 30
0.0
 11
-33.78346141014168
 21
13.10587947700287
 31
0.0
  0
LINE
  5
C2
330
2
100
AcDbEntity
  8
GAIKEI
  6
HIDDEN2
 62
     1
100
AcDbLine
 10
-33.43705124854168
 20
12.90587947700283
 30
0.0
 11
-33.42483287954167
 21
12.92704231300286
 31
0.0
  0
LINE
  5
C3
330
2
100
AcDbEntity
  8
GAIKEI
  6
HIDDEN2
 62
     1
100
AcDbLine
 10
-33.78346141014168
 20
13.10587947700287
 30
0.0
 11
-33.77124304094167
 21
13.1270423130029
 31
0.0
  0
LINE
  5
C4
330
2
100
AcDbEntity
  8
GAIKEI
  6
HIDDEN2
 62
     1
100
AcDbLine
 10
-33.78346141014168
 20
13.10587947700287
 30
0.0
 11
-33.43705124854168
 21
12.90587947700283
 31
0.0
  0
ARC
  5
C5
330
2
100
AcDbEntity
  8
GAIKEI
  6
HIDDEN2
 62
     1
100
AcDbCircle
 10
-31.34525634634167
 20
16.92897452660281
 30
0.0
 40
4.51
100
AcDbArc
 50
236.185584325001
 51
243.8152682139954
  0
LINE
  5
C6
330
2
100
AcDbEntity
  8
GAIKEI
  6
HIDDEN2
 62
     1
100
AcDbLine
 10
-35.44454416594169
 20
18.03301705080298
 30
0.0
 11
-35.41556639114168
 21
18.02525247940298
 31
0.0
  0
LINE
  5
C7
330
2
100
AcDbEntity
  8
GAIKEI
  6
HIDDEN2
 62
     1
100
AcDbLine
 10
-35.35761084154169
 20
18.00972333680306
 30
0.0
 11
-35.32863306674168
 21
18.00195876540283
 31
0.0
  0
ARC
  5
C8
330
2
100
AcDbEntity
  8
GAIKEI
  6
HIDDEN2
 62
     1
100
AcDbCircle
 10
-35.38658861634167
 20
18.01748790800298
 30
0.0
 40
0.03
100
AcDbArc
 50
165.0000000000055
 51
345.0000000000056
  0
ARC
  5
C9
330
2
100
AcDbEntity
  8
GAIKEI
  6
HIDDEN2
 62
     1
100
AcDbCircle
 10
-35.38658861634167
 20
18.01748790800298
 30
0.0
 40
0.06
100
AcDbArc
 50
165.0000000000055
 51
345.0000000000056
  0
ARC
  5
CA
330
2
100
AcDbEntity
  8
GAIKEI
  6
HIDDEN2
 62
     1
100
AcDbCircle
 10
-35.39168613594168
 20
15.84665541060281
 30
0.0
 40
0.03
100
AcDbArc
 50
14.99999999999445
 51
194.9999999999944
  0
LINE
  5
CB
330
2
100
AcDbEntity
  8
GAIKEI
  6
HIDDEN2
 62
     1
100
AcDbLine
 10
-35.36270836114167
 20
15.85441998200281
 30
0.0
 11
-35.33373058634169
 21
15.86218455320272
 31
0.0
  0
ARC
  5
CC
330
2
100
AcDbEntity
  8
GAIKEI
  6
HIDDEN2
 62
     1
100
AcDbCircle
 10
-31.33479766554169
 20
16.93369540000299
 30
0.0
 40
4.17
100
AcDbArc
 50
194.9999999999944
 51
225.0000000000046
  0
ARC
  5
CD
330
2
100
AcDbEntity
  8
GAIKEI
  6
HIDDEN2
 62
     1
100
AcDbCircle
 10
-31.33479766554169
 20
16.93369540000299
 30
0.0
 40
4.229999999999999
100
AcDbArc
 50
194.9999999999944
 51
225.0000000000046
  0
LINE
  5
CE
330
2
100
AcDbEntity
  8
GAIKEI
  6
HIDDEN2
 62
     1
100
AcDbLine
 10
-35.44964168554168
 20
15.8311262678028
 30
0.0
 11
-35.42066391074167
 21
15.8388908392028
 31
0.0
  0
LINE
  5
CF
330
2
100
AcDbEntity
  8
GAIKEI
  6
HIDDEN2
 62
     1
100
AcDbLine
 10
-34.34707255334166
 20
13.92142051220276
 30
0.0
 11
-34.32585934994168
 21
13.94263371560282
 31
0.0
  0
LINE
  5
D0
330
2
100
AcDbEntity
  8
GAIKEI
  6
HIDDEN2
 62
     1
100
AcDbLine
 10
-34.28343294314169
 20
13.98506012240295
 30
0.0
 11
-34.26221973954168
 21
14.00627332600288
 31
0.0
  0
ARC
  5
D1
330
2
100
AcDbEntity
  8
GAIKEI
  6
HIDDEN2
 62
     1
100
AcDbCircle
 10
-34.30464614654167
 20
13.96384691900289
 30
0.0
 40
0.03
100
AcDbArc
 50
225.0000000000046
 51
45.0000000000046
  0
ARC
  5
D2
330
2
100
AcDbEntity
  8
GAIKEI
  6
HIDDEN2
 62
     1
100
AcDbCircle
 10
-31.33479766554169
 20
16.93369540000299
 30
0.0
 40
4.26
100
AcDbArc
 50
194.9999999999944
 51
225.0000000000046
  0
ARC
  5
D3
330
2
100
AcDbEntity
  8
GAIKEI
  6
HIDDEN2
 62
     1
100
AcDbCircle
 10
-35.39168613594168
 20
15.84665541060281
 30
0.0
 40
0.06
100
AcDbArc
 50
14.99999999999445
 51
194.9999999999944
  0
ARC
  5
D4
330
2
100
AcDbEntity
  8
GAIKEI
  6
HIDDEN2
 62
     1
100
AcDbCircle
 10
-31.33479766554169
 20
16.93369540000299
 30
0.0
 40
4.139999999999999
100
AcDbArc
 50
194.9999999999944
 51
225.0000000000046
  0
ARC
  5
D5
330
2
100
AcDbEntity
  8
GAIKEI
  6
HIDDEN2
 62
     1
100
AcDbCircle
 10
-34.30464614654167
 20
13.96384691900289
 30
0.0
 40
0.06
100
AcDbArc
 50
225.0000000000046
 51
45.0000000000046
  0
ARC
  5
D6
330
2
100
AcDbEntity
  8
GAIKEI
  6
HIDDEN2
 62
     1
100
AcDbCircle
 10
-31.34177011934168
 20
16.93399982700293
 30
0.0
 40
6.8
100
AcDbArc
 50
165.4587137939949
 51
194.541286206005
  0
LINE
  5
D7
330
2
100
AcDbEntity
  8
GAIKEI
  6
HIDDEN2
 62
     1
100
AcDbLine
 10
-37.33309818574168
 20
14.64783028440297
 30
0.0
 11
-37.58998484114167
 21
14.7925692252029
 31
0.0
  0
ARC
  5
D8
330
2
100
AcDbEntity
  8
GAIKEI
  6
HIDDEN2
 62
     1
100
AcDbCircle
 10
-38.51120966094169
 20
12.55688472020279
 30
0.0
 40
2.4
100
AcDbArc
 50
31.40506817500484
 51
60.60157653599677
  0
ARC
  5
D9
330
2
100
AcDbEntity
  8
GAIKEI
  6
HIDDEN2
 62
     1
100
AcDbCircle
 10
-37.24636911834168
 20
15.402426340803
 30
0.0
 40
0.7000000000000001
100
AcDbArc
 50
194.5412701509917
 51
240.6015072450037
  0
LINE
  5
DA
330
2
100
AcDbEntity
  8
GAIKEI
  6
HIDDEN2
 62
     1
100
AcDbLine
 10
-35.42614921934168
 20
12.27922874160276
 30
0.0
 11
-36.15890057604375
 21
11.54647738490064
 31
0.0
  0
LINE
  5
DB
330
2
100
AcDbEntity
  8
GAIKEI
  6
HIDDEN2
 62
     1
100
AcDbLine
 10
-36.96570272102099
 20
11.87104608992354
 30
0.0
 11
-35.99183464434168
 21
12.84491416660285
 31
0.0
  0
LINE
  5
DC
330
2
100
AcDbEntity
  8
GAIKEI
  6
HIDDEN2
 62
     1
100
AcDbLine
 10
-35.99183464434168
 20
12.84491416660285
 30
0.0
 11
-35.42614921934168
 21
12.27922874160276
 31
0.0
  0
ARC
  5
DD
330
2
100
AcDbEntity
  8
GAIKEI
  6
HIDDEN2
 62
     1
100
AcDbCircle
 10
-35.70899193194168
 20
13.12775687900284
 30
0.0
 40
0.4
100
AcDbArc
 50
160.5418625369997
 51
225.0000000000046
  0
ARC
  5
DE
330
2
100
AcDbEntity
  8
GAIKEI
  6
HIDDEN2
 62
     1
100
AcDbCircle
 10
-35.14330650694168
 20
12.56207145400299
 30
0.0
 40
0.4
100
AcDbArc
 50
225.0000000000046
 51
289.6019535739986
  0
ARC
  5
DF
330
2
100
AcDbEntity
  8
GAIKEI
  6
Continuous
 62
     1
100
AcDbCircle
 10
-36.79885264106591
 20
9.702808120625491
 30
0.0
 40
0.3
100
AcDbArc
 50
217.2875502362192
 51
270.0
  0
LINE
  5
E0
330
2
100
AcDbEntity
  8
GAIKEI
  6
S10
 62
     1
100
AcDbLine
 10
-40.22212963601342
 20
13.12985872285151
 30
0.0
 11
-40.21688722172638
 21
13.13095512034579
 31
0.0
  0
ARC
  5
E2
330
2
100
AcDbEntity
  8
GAIKEI
  6
HIDDEN2
 62
     1
100
AcDbCircle
 10
-37.64272801614885
 20
13.5968681096557
 30
0.0
 40
1.815983663799756
100
AcDbArc
 50
173.5172037169372
 51
234.4903670925365
  0
ARC
  5
E3
330
2
100
AcDbEntity
  8
GAIKEI
  6
HIDDEN2
 62
     1
100
AcDbCircle
 10
-37.64272801614885
 20
13.5968681096557
 30
0.0
 40
2.615983663799756
100
AcDbArc
 50
173.5172037169372
 51
237.9304954258882
  0
ARC
  5
E4
330
2
100
AcDbEntity
  8
GAIKEI
  6
HIDDEN2
 62
     1
100
AcDbCircle
 10
-39.84454224042895
 20
13.84706347329256
 30
0.0
 40
0.4
100
AcDbArc
 50
353.5172037169405
 51
173.5172037169404
  0
ARC
  5
E5
330
2
100
AcDbEntity
  8
GAIKEI
  6
HIDDEN2
 62
     1
100
AcDbCircle
 10
-37.59879098083749
 20
13.62343323603045
 30
0.0
 40
1.863239505420146
100
AcDbArc
 50
233.8650269124419
 51
289.8633644857902
  0
ARC
  5
E6
330
2
100
AcDbEntity
  8
GAIKEI
  6
HIDDEN2
 62
     1
100
AcDbCircle
 10
-37.59879098083749
 20
13.62343323603045
 30
0.0
 40
2.663239505420146
100
AcDbArc
 50
233.8650269124419
 51
272.2187195370537
  0
ARC
  5
E7
330
2
100
AcDbEntity
  8
GAIKEI
  6
HIDDEN2
 62
     1
100
AcDbCircle
 10
-37.57311413841688
 20
12.9606909472738
 30
0.0
 40
2.0
100
AcDbArc
 50
272.2187195370537
 51
315.0
  0
ARC
  5
E8
330
2
100
AcDbEntity
  8
GAIKEI
  6
Continuous
 62
     1
100
AcDbCircle
 10
-18.44783412639154
 20
18.30139049486792
 30
0.0
 40
20.7
100
AcDbArc
 50
200.7480688588698
 51
201.5585139883886
  0
LINE
  5
E9
330
2
100
AcDbEntity
  8
GAIKEI
  6
HIDDEN2
 62
     1
100
AcDbLine
 10
-40.63996408313113
 20
14.39498898957737
 30
0.0
 11
-40.33824640060905
 21
12.9523287338921
 31
0.0
  0
LINE
  5
EA
330
2
100
AcDbEntity
  8
GAIKEI
  6
HIDDEN2
 62
     1
100
AcDbLine
 10
-39.43903853656158
 20
14.6461503225139
 30
0.0
 11
-40.63996408313113
 21
14.39498898957737
 31
0.0
  0
LINE
  5
EB
330
2
100
AcDbEntity
  8
GAIKEI
  6
HIDDEN2
 62
     1
100
AcDbLine
 10
-40.33824640060905
 20
12.9523287338921
 30
0.0
 11
-40.18595107016156
 21
12.98417974938968
 31
0.0
  0
LINE
  5
EC
330
2
100
AcDbEntity
  8
GAIKEI
  6
HIDDEN2
 62
     1
100
AcDbLine
 10
-39.40237701598551
 20
13.14805627317918
 30
0.0
 11
-39.15444897142919
 21
13.19990789572244
 31
0.0
  0
ARC
  5
ED
330
2
100
AcDbEntity
  8
GAIKEI
  6
Continuous
100
AcDbCircle
 10
-36.72576797067333
 20
10.03139871545812
 30
0.0
 40
0.8
100
AcDbArc
 50
259.9492941888125
 51
270.0
  0
LINE
  5
EE
330
2
100
AcDbEntity
  8
GAIKEI
  6
Continuous
100
AcDbLine
 10
-22.84460526370953
 20
17.93139947839751
 30
0.0
 11
-22.84460526370953
 21
18.03139947839747
 31
0.0
  0
LINE
  5
EF
330
2
100
AcDbEntity
  8
GAIKEI
  6
Continuous
100
AcDbLine
 10
-31.24460526370837
 20
9.231398715458112
 30
0.0
 11
-25.76344255674314
 21
9.231398715458112
 31
0.0
  0
LINE
  5
F0
330
2
100
AcDbEntity
  8
GAIKEI
  6
Continuous
100
AcDbLine
 10
-23.34460526370953
 20
17.93139947839751
 30
0.0
 11
-23.34460526370953
 21
18.03139947839747
 31
0.0
  0
ARC
  5
F1
330
2
100
AcDbEntity
  8
GAIKEI
  6
Continuous
 62
     1
100
AcDbCircle
 10
-44.04137640102513
 20
18.30139049486792
 30
0.0
 40
20.7
100
AcDbArc
 50
338.4414860116114
 51
349.0025272711274
  0
ARC
  5
F2
330
2
100
AcDbEntity
  8
GAIKEI
  6
Continuous
100
AcDbCircle
 10
-44.04137640102513
 20
18.30139049486792
 30
0.0
 40
21.2000000000002
100
AcDbArc
 50
338.9744066849152
 51
349.0025272711242
  0
ARC
  5
F3
330
2
100
AcDbEntity
  8
GAIKEI
  6
Continuous
 62
     1
100
AcDbCircle
 10
-29.37050652173497
 20
12.50506658043332
 30
0.0
 40
4.9255968754406
100
AcDbArc
 50
322.7124497637773
 51
338.4414860116114
  0
ARC
  5
F4
330
2
100
AcDbEntity
  8
GAIKEI
  6
Continuous
 62
     1
100
AcDbCircle
 10
-44.04137640102513
 20
18.30139049486792
 30
0.0
 40
20.7000000000002
100
AcDbArc
 50
349.0025272711274
 51
358.9758449801707
  0
ARC
  5
F5
330
2
100
AcDbEntity
  8
GAIKEI
  6
Continuous
100
AcDbCircle
 10
-26.86644371198037
 20
11.69974773516151
 30
0.0
 40
2.8
100
AcDbArc
 50
303.4700198872557
 51
338.9744066849152
  0
ARC
  5
F6
330
2
100
AcDbEntity
  8
GAIKEI
  6
Continuous
100
AcDbCircle
 10
-44.04137640102513
 20
18.30139049486792
 30
0.0
 40
21.2000000000002
100
AcDbArc
 50
349.0025272711242
 51
358.9999999999982
  0
ARC
  5
F7
330
2
100
AcDbEntity
  8
GAIKEI
  6
Continuous
100
AcDbCircle
 10
-25.76344255674314
 20
10.03139871545812
 30
0.0
 40
0.8
100
AcDbArc
 50
270.0
 51
303.4700198872557
  0
ARC
  5
F8
330
2
100
AcDbEntity
  8
GAIKEI
  6
Continuous
 62
     1
100
AcDbCircle
 10
-25.69035788635057
 20
9.702808120625491
 30
0.0
 40
0.3
100
AcDbArc
 50
270.0
 51
322.7124497637809
  0
ARC
  5
F9
330
2
100
AcDbEntity
  8
GAIKEI
  6
HIDDEN2
 62
     1
100
AcDbCircle
 10
-31.34015882674169
 20
16.93090455920287
 30
0.0
 40
4.51
100
AcDbArc
 50
356.1855843250067
 51
3.81526821399603
  0
LINE
  5
FA
330
2
100
AcDbEntity
  8
GAIKEI
  6
HIDDEN2
 62
     1
100
AcDbLine
 10
-26.81015886074167
 20
16.73090455920283
 30
0.0
 11
-26.81015886074167
 21
17.13090455920292
 31
0.0
  0
LINE
  5
FB
330
2
100
AcDbEntity
  8
GAIKEI
  6
HIDDEN2
 62
     1
100
AcDbLine
 10
-26.81015886074167
 20
16.73090455920283
 30
0.0
 11
-26.83459559894169
 21
16.73090455920283
 31
0.0
  0
LINE
  5
FC
330
2
100
AcDbEntity
  8
GAIKEI
  6
HIDDEN2
 62
     1
100
AcDbLine
 10
-26.81015886074167
 20
17.13090455920292
 30
0.0
 11
-26.83459559894169
 21
17.13090455920292
 31
0.0
  0
LINE
  5
FD
330
2
100
AcDbEntity
  8
GAIKEI
  6
HIDDEN2
 62
     1
100
AcDbLine
 10
-26.77453729174167
 20
16.73090455920283
 30
0.0
 11
-26.81015886074167
 21
16.73090455920283
 31
0.0
  0
LINE
  5
FE
330
2
100
AcDbEntity
  8
GAIKEI
  6
HIDDEN2
 62
     1
100
AcDbLine
 10
-26.77453729174167
 20
17.13090455920292
 30
0.0
 11
-26.81015886074167
 21
17.13090455920292
 31
0.0
  0
ARC
  5
FF
330
2
100
AcDbEntity
  8
GAIKEI
  6
HIDDEN2
 62
     1
100
AcDbCircle
 10
-31.34015882674169
 20
16.93090455920287
 30
0.0
 40
4.5
100
AcDbArc
 50
356.1769464759878
 51
3.824435554996905
  0
LINE
  5
100
330
2
100
AcDbEntity
  8
GAIKEI
  6
HIDDEN2
 62
     1
100
AcDbLine
 10
-26.98046837914168
 20
16.63090455920292
 30
0.0
 11
-26.78001628514167
 21
16.63090455920292
 31
0.0
  0
ARC
  5
101
330
2
100
AcDbEntity
  8
GAIKEI
  6
HIDDEN2
 62
     1
100
AcDbCircle
 10
-31.34015882674169
 20
16.93090455920287
 30
0.0
 40
4.57
100
AcDbArc
 50
356.2360824540078
 51
3.76391754599216
  0
LINE
  5
102
330
2
100
AcDbEntity
  8
GAIKEI
  6
HIDDEN2
 62
     1
100
AcDbLine
 10
-26.78001628514167
 20
17.23090455920283
 30
0.0
 11
-26.98046837914168
 21
17.23090455920283
 31
0.0
  0
ARC
  5
103
330
2
100
AcDbEntity
  8
GAIKEI
  6
HIDDEN2
 62
     1
100
AcDbCircle
 10
-31.34015882674169
 20
16.93090455920287
 30
0.0
 40
4.549999999999999
100
AcDbArc
 50
356.2195137619903
 51
357.4806924790027
  0
ARC
  5
104
330
2
100
AcDbEntity
  8
GAIKEI
  6
HIDDEN2
 62
     1
100
AcDbCircle
 10
-31.34015882674169
 20
16.93090455920287
 30
0.0
 40
4.549999999999999
100
AcDbArc
 50
2.519307520997304
 51
3.780486238009709
  0
ARC
  5
105
330
2
100
AcDbEntity
  8
GAIKEI
  6
HIDDEN2
 62
     1
100
AcDbCircle
 10
-31.34015882674169
 20
16.93090455920287
 30
0.0
 40
4.389999999999999
100
AcDbArc
 50
356.0815169689922
 51
3.918483031007742
  0
ARC
  5
106
330
2
100
AcDbEntity
  8
GAIKEI
  6
HIDDEN2
 62
     1
100
AcDbCircle
 10
-27.28327035634169
 20
18.01794454860283
 30
0.0
 40
0.06
100
AcDbArc
 50
194.9999999999944
 51
14.99999999999445
  0
LINE
  5
107
330
2
100
AcDbEntity
  8
GAIKEI
  6
HIDDEN2
 62
     1
100
AcDbLine
 10
-27.22531480674167
 20
18.03347369140283
 30
0.0
 11
-27.25429258154168
 21
18.02570912000283
 31
0.0
  0
LINE
  5
108
330
2
100
AcDbEntity
  8
GAIKEI
  6
HIDDEN2
 62
     1
100
AcDbLine
 10
-27.31224813114167
 20
18.01017997740291
 30
0.0
 11
-27.34122590594168
 21
18.00241540600291
 31
0.0
  0
ARC
  5
109
330
2
100
AcDbEntity
  8
GAIKEI
  6
HIDDEN2
 62
     1
100
AcDbCircle
 10
-27.28327035634169
 20
18.01794454860283
 30
0.0
 40
0.03
100
AcDbArc
 50
194.9999999999944
 51
14.99999999999445
  0
ARC
  5
10A
330
2
100
AcDbEntity
  8
GAIKEI
  6
HIDDEN2
 62
     1
100
AcDbCircle
 10
-32.42719881614167
 20
12.87401608880304
 30
0.0
 40
0.03
100
AcDbArc
 50
74.99999999999727
 51
254.9999999999973
  0
LINE
  5
10B
330
2
100
AcDbEntity
  8
GAIKEI
  6
HIDDEN2
 62
     1
100
AcDbLine
 10
-32.4194342447417
 20
12.90299386360288
 30
0.0
 11
-32.41166967334169
 21
12.93197163840295
 31
0.0
  0
ARC
  5
10C
330
2
100
AcDbEntity
  8
GAIKEI
  6
HIDDEN2
 62
     1
100
AcDbCircle
 10
-31.34015882674169
 20
16.93090455920287
 30
0.0
 40
4.17
100
AcDbArc
 50
254.9999999999973
 51
285.0000000000027
  0
ARC
  5
10D
330
2
100
AcDbEntity
  8
GAIKEI
  6
HIDDEN2
 62
     1
100
AcDbCircle
 10
-31.34015882674169
 20
16.93090455920287
 30
0.0
 40
4.229999999999999
100
AcDbArc
 50
254.9999999999973
 51
285.0000000000027
  0
LINE
  5
10E
330
2
100
AcDbEntity
  8
GAIKEI
  6
HIDDEN2
 62
     1
100
AcDbLine
 10
-32.44272795874167
 20
12.81606053920291
 30
0.0
 11
-32.43496338754167
 21
12.84503831400275
 31
0.0
  0
LINE
  5
10F
330
2
100
AcDbEntity
  8
GAIKEI
  6
HIDDEN2
 62
     1
100
AcDbLine
 10
-30.23758969454167
 20
12.81606053920291
 30
0.0
 11
-30.24535426594167
 21
12.84503831400275
 31
0.0
  0
LINE
  5
110
330
2
100
AcDbEntity
  8
GAIKEI
  6
HIDDEN2
 62
     1
100
AcDbLine
 10
-30.26088340854168
 20
12.90299386360288
 30
0.0
 11
-30.26864797994168
 21
12.93197163840295
 31
0.0
  0
ARC
  5
111
330
2
100
AcDbEntity
  8
GAIKEI
  6
HIDDEN2
 62
     1
100
AcDbCircle
 10
-30.25311883734167
 20
12.87401608880304
 30
0.0
 40
0.03
100
AcDbArc
 50
285.0000000000027
 51
105.0000000000027
  0
ARC
  5
112
330
2
100
AcDbEntity
  8
GAIKEI
  6
HIDDEN2
 62
     1
100
AcDbCircle
 10
-31.34015882674169
 20
16.93090455920287
 30
0.0
 40
4.26
100
AcDbArc
 50
254.9999999999973
 51
285.0000000000027
  0
ARC
  5
113
330
2
100
AcDbEntity
  8
GAIKEI
  6
HIDDEN2
 62
     1
100
AcDbCircle
 10
-32.42719881614167
 20
12.87401608880304
 30
0.0
 40
0.06
100
AcDbArc
 50
74.99999999999727
 51
254.9999999999973
  0
ARC
  5
114
330
2
100
AcDbEntity
  8
GAIKEI
  6
HIDDEN2
 62
     1
100
AcDbCircle
 10
-31.34015882674169
 20
16.93090455920287
 30
0.0
 40
4.139999999999999
100
AcDbArc
 50
254.9999999999973
 51
285.0000000000027
  0
ARC
  5
115
330
2
100
AcDbEntity
  8
GAIKEI
  6
HIDDEN2
 62
     1
100
AcDbCircle
 10
-30.25311883734167
 20
12.87401608880304
 30
0.0
 40
0.06
100
AcDbArc
 50
285.0000000000027
 51
105.0000000000027
  0
ARC
  5
116
330
2
100
AcDbEntity
  8
GAIKEI
  6
HIDDEN2
 62
     1
100
AcDbCircle
 10
-28.37540786534169
 20
13.96430355960297
 30
0.0
 40
0.03
100
AcDbArc
 50
134.9999999999954
 51
314.9999999999954
  0
LINE
  5
117
330
2
100
AcDbEntity
  8
GAIKEI
  6
HIDDEN2
 62
     1
100
AcDbLine
 10
-28.3966210687417
 20
13.9855167630028
 30
0.0
 11
-28.41783427214167
 21
14.00672996640287
 31
0.0
  0
ARC
  5
118
330
2
100
AcDbEntity
  8
GAIKEI
  6
HIDDEN2
 62
     1
100
AcDbCircle
 10
-31.34525634634167
 20
16.93415204060284
 30
0.0
 40
4.17
100
AcDbArc
 50
314.9999999999954
 51
345.0000000000056
  0
ARC
  5
119
330
2
100
AcDbEntity
  8
GAIKEI
  6
HIDDEN2
 62
     1
100
AcDbCircle
 10
-31.34525634634167
 20
16.93415204060284
 30
0.0
 40
4.229999999999999
100
AcDbArc
 50
314.9999999999954
 51
345.0000000000056
  0
LINE
  5
11A
330
2
100
AcDbEntity
  8
GAIKEI
  6
HIDDEN2
 62
     1
100
AcDbLine
 10
-28.33298145834169
 20
13.92187715280283
 30
0.0
 11
-28.35419466194167
 21
13.9430903562029
 31
0.0
  0
LINE
  5
11B
330
2
100
AcDbEntity
  8
GAIKEI
  6
HIDDEN2
 62
     1
100
AcDbLine
 10
-27.23041232634168
 20
15.83158290840288
 30
0.0
 11
-27.25939010114169
 21
15.83934747980288
 31
0.0
  0
LINE
  5
11C
330
2
100
AcDbEntity
  8
GAIKEI
  6
HIDDEN2
 62
     1
100
AcDbLine
 10
-27.31734565074169
 20
15.85487662260289
 30
0.0
 11
-27.34632342554167
 21
15.8626411938028
 31
0.0
  0
ARC
  5
11D
330
2
100
AcDbEntity
  8
GAIKEI
  6
HIDDEN2
 62
     1
100
AcDbCircle
 10
-27.28836787594167
 20
15.84711205120288
 30
0.0
 40
0.03
100
AcDbArc
 50
345.0000000000056
 51
165.0000000000055
  0
ARC
  5
11E
330
2
100
AcDbEntity
  8
GAIKEI
  6
HIDDEN2
 62
     1
100
AcDbCircle
 10
-31.34525634634167
 20
16.93415204060284
 30
0.0
 40
4.26
100
AcDbArc
 50
314.9999999999954
 51
345.0000000000056
  0
ARC
  5
11F
330
2
100
AcDbEntity
  8
GAIKEI
  6
HIDDEN2
 62
     1
100
AcDbCircle
 10
-28.37540786534169
 20
13.96430355960297
 30
0.0
 40
0.06
100
AcDbArc
 50
134.9999999999954
 51
314.9999999999954
  0
ARC
  5
120
330
2
100
AcDbEntity
  8
GAIKEI
  6
HIDDEN2
 62
     1
100
AcDbCircle
 10
-31.34525634634167
 20
16.93415204060284
 30
0.0
 40
4.139999999999999
100
AcDbArc
 50
314.9999999999954
 51
345.0000000000056
  0
ARC
  5
121
330
2
100
AcDbEntity
  8
GAIKEI
  6
HIDDEN2
 62
     1
100
AcDbCircle
 10
-27.28836787594167
 20
15.84711205120288
 30
0.0
 40
0.06
100
AcDbArc
 50
345.0000000000056
 51
165.0000000000055
  0
LINE
  5
122
330
2
100
AcDbEntity
  8
GAIKEI
  6
Continuous
100
AcDbLine
 10
13.69786869594978
 20
9.395947947809077
 30
0.0
 11
23.12484965852457
 21
9.231399383030293
 31
0.0
  0
LINE
  5
123
330
2
100
AcDbEntity
  8
GAIKEI
  6
Continuous
 62
     1
100
AcDbLine
 10
22.12484965852457
 20
14.73139947839752
 30
0.0
 11
14.62484965852457
 21
14.73139947839752
 31
0.0
  0
LINE
  5
124
330
2
100
AcDbEntity
  8
GAIKEI
  6
Continuous
 62
     1
100
AcDbLine
 10
14.62484965852457
 20
16.1313994783975
 30
0.0
 11
22.12484965852457
 21
16.1313994783975
 31
0.0
  0
LINE
  5
125
330
2
100
AcDbEntity
  8
GAIKEI
  6
Continuous
 62
     1
100
AcDbLine
 10
14.60484965852456
 20
16.43139947839751
 30
0.0
 11
22.14484965852458
 21
16.43139947839751
 31
0.0
  0
LINE
  5
126
330
2
100
AcDbEntity
  8
GAIKEI
  6
Continuous
 62
     1
100
AcDbLine
 10
22.14484965852458
 20
14.43139947839751
 30
0.0
 11
14.60484965852456
 21
14.43139947839751
 31
0.0
  0
LINE
  5
127
330
2
100
AcDbEntity
  8
GAIKEI
  6
HIDDEN2
 62
     1
100
AcDbLine
 10
1.808475006524759
 20
10.89645289541755
 30
0.0
 11
7.388475006524771
 21
10.89645289541755
 31
0.0
  0
LINE
  5
128
330
2
100
AcDbEntity
  8
GAIKEI
  6
HIDDEN2
 62
     1
100
AcDbLine
 10
1.50846046752477
 20
11.33645289541738
 30
0.0
 11
1.50846046752477
 21
12.08135165021764
 31
0.0
  0
LINE
  5
129
330
2
100
AcDbEntity
  8
GAIKEI
  6
HIDDEN2
 62
     1
100
AcDbLine
 10
1.608460467524764
 20
11.23645289541747
 30
0.0
 11
1.608460467524764
 21
11.99474910981763
 31
0.0
  0
LINE
  5
12A
330
2
100
AcDbEntity
  8
GAIKEI
  6
HIDDEN2
 62
     1
100
AcDbLine
 10
1.159052222924771
 20
16.88630102101734
 30
0.0
 11
1.159052222924771
 21
16.90660476981753
 31
0.0
  0
LINE
  5
12B
330
2
100
AcDbEntity
  8
GAIKEI
  6
HIDDEN2
 62
     1
100
AcDbLine
 10
1.159072504124765
 20
16.86599731741745
 30
0.0
 11
1.159072504124765
 21
16.92690847341743
 31
0.0
  0
LINE
  5
12C
330
2
100
AcDbEntity
  8
GAIKEI
  6
HIDDEN2
 62
     1
100
AcDbLine
 10
1.159113128524779
 20
16.84569364881764
 30
0.0
 11
1.159113128524779
 21
16.94721214201746
 31
0.0
  0
LINE
  5
12D
330
2
100
AcDbEntity
  8
GAIKEI
  6
HIDDEN2
 62
     1
100
AcDbLine
 10
1.159174148524783
 20
16.82539001801734
 30
0.0
 11
1.159174148524783
 21
16.96751577281753
 31
0.0
  0
LINE
  5
12E
330
2
100
AcDbEntity
  8
GAIKEI
  6
HIDDEN2
 62
     1
100
AcDbLine
 10
1.159255512124758
 20
16.80508645781748
 30
0.0
 11
1.159255512124758
 21
16.9878193330174
 31
0.0
  0
LINE
  5
12F
330
2
100
AcDbEntity
  8
GAIKEI
  6
HIDDEN2
 62
     1
100
AcDbLine
 10
1.159357225924793
 20
16.78478299261752
 30
0.0
 11
1.159357225924793
 21
17.00812279821758
 31
0.0
  0
LINE
  5
130
330
2
100
AcDbEntity
  8
GAIKEI
  6
HIDDEN2
 62
     1
100
AcDbLine
 10
1.159479347124772
 20
16.76447964021764
 30
0.0
 11
1.159479347124772
 21
17.02842615061746
 31
0.0
  0
LINE
  5
131
330
2
100
AcDbEntity
  8
GAIKEI
  6
HIDDEN2
 62
     1
100
AcDbLine
 10
1.159621882924767
 20
16.74417642001737
 30
0.0
 11
1.159621882924767
 21
17.04872937081751
 31
0.0
  0
LINE
  5
132
330
2
100
AcDbEntity
  8
GAIKEI
  6
HIDDEN2
 62
     1
100
AcDbLine
 10
1.159784805124758
 20
16.72387335301738
 30
0.0
 11
1.159784805124758
 21
17.0690324378175
 31
0.0
  0
LINE
  5
133
330
2
100
AcDbEntity
  8
GAIKEI
  6
HIDDEN2
 62
     1
100
AcDbLine
 10
1.159968140924746
 20
16.70357046021746
 30
0.0
 11
1.159968140924746
 21
17.08933533061741
 31
0.0
  0
LINE
  5
134
330
2
100
AcDbEntity
  8
GAIKEI
  6
HIDDEN2
 62
     1
100
AcDbLine
 10
1.16017195932477
 20
16.68326776281748
 30
0.0
 11
1.16017195932477
 21
17.1096380280174
 31
0.0
  0
LINE
  5
135
330
2
100
AcDbEntity
  8
GAIKEI
  6
HIDDEN2
 62
     1
100
AcDbLine
 10
1.160396325724775
 20
16.66296528201752
 30
0.0
 11
1.160396325724775
 21
17.12994050881758
 31
0.0
  0
LINE
  5
136
330
2
100
AcDbEntity
  8
GAIKEI
  6
HIDDEN2
 62
     1
100
AcDbLine
 10
1.160641297724765
 20
16.64266303941741
 30
0.0
 11
1.160641297724765
 21
17.15024275141746
 31
0.0
  0
LINE
  5
137
330
2
100
AcDbEntity
  8
GAIKEI
  6
HIDDEN2
 62
     1
100
AcDbLine
 10
1.160906892924771
 20
16.62236105621747
 30
0.0
 11
1.160906892924771
 21
17.17054473461741
 31
0.0
  0
LINE
  5
138
330
2
100
AcDbEntity
  8
GAIKEI
  6
HIDDEN2
 62
     1
100
AcDbLine
 10
1.161193111124788
 20
16.60205935301752
 30
0.0
 11
1.161193111124788
 21
17.19084643781758
 31
0.0
  0
LINE
  5
139
330
2
100
AcDbEntity
  8
GAIKEI
  6
HIDDEN2
 62
     1
100
AcDbLine
 10
1.161500029124766
 20
16.5817579524176
 30
0.0
 11
1.161500029124766
 21
17.2111478384175
 31
0.0
  0
LINE
  5
13A
330
2
100
AcDbEntity
  8
GAIKEI
  6
HIDDEN2
 62
     1
100
AcDbLine
 10
1.161827758924772
 20
16.56145687701752
 30
0.0
 11
1.161827758924772
 21
17.23144891381759
 31
0.0
  0
LINE
  5
13B
330
2
100
AcDbEntity
  8
GAIKEI
  6
HIDDEN2
 62
     1
100
AcDbLine
 10
1.162176329324779
 20
16.54115614881749
 30
0.0
 11
1.162176329324779
 21
17.25174964201739
 31
0.0
  0
LINE
  5
13C
330
2
100
AcDbEntity
  8
GAIKEI
  6
HIDDEN2
 62
     1
100
AcDbLine
 10
1.162545732524762
 20
16.52085578901739
 30
0.0
 11
1.162545732524762
 21
17.27205000181749
 31
0.0
  0
LINE
  5
13D
330
2
100
AcDbEntity
  8
GAIKEI
  6
HIDDEN2
 62
     1
100
AcDbLine
 10
1.162936027124771
 20
16.50055582001761
 30
0.0
 11
1.162936027124771
 21
17.29234997081749
 31
0.0
  0
LINE
  5
13E
330
2
100
AcDbEntity
  8
GAIKEI
  6
HIDDEN2
 62
     1
100
AcDbLine
 10
1.163347306124791
 20
16.48025626521763
 30
0.0
 11
1.163347306124791
 21
17.31264952561747
 31
0.0
  0
LINE
  5
13F
330
2
100
AcDbEntity
  8
GAIKEI
  6
HIDDEN2
 62
     1
100
AcDbLine
 10
1.163779674724764
 20
16.45995714881752
 30
0.0
 11
1.163779674724764
 21
17.33294864201736
 31
0.0
  0
LINE
  5
140
330
2
100
AcDbEntity
  8
GAIKEI
  6
HIDDEN2
 62
     1
100
AcDbLine
 10
1.164233240524794
 20
16.43965849481748
 30
0.0
 11
1.164233240524794
 21
17.3532472960174
 31
0.0
  0
LINE
  5
141
330
2
100
AcDbEntity
  8
GAIKEI
  6
HIDDEN2
 62
     1
100
AcDbLine
 10
1.164708093724783
 20
16.41936032781751
 30
0.0
 11
1.164708093724783
 21
17.37354546301759
 31
0.0
  0
LINE
  5
142
330
2
100
AcDbEntity
  8
GAIKEI
  6
HIDDEN2
 62
     1
100
AcDbLine
 10
1.165204309924746
 20
16.39906267161751
 30
0.0
 11
1.165204309924746
 21
17.39384311921759
 31
0.0
  0
LINE
  5
143
330
2
100
AcDbEntity
  8
GAIKEI
  6
HIDDEN2
 62
     1
100
AcDbLine
 10
1.165721922324763
 20
16.3787655498175
 30
0.0
 11
1.165721922324763
 21
17.4141402410176
 31
0.0
  0
LINE
  5
144
330
2
100
AcDbEntity
  8
GAIKEI
  6
HIDDEN2
 62
     1
100
AcDbLine
 10
1.166260962724777
 20
16.35846898581741
 30
0.0
 11
1.166260962724777
 21
17.43443680501747
 31
0.0
  0
LINE
  5
145
330
2
100
AcDbEntity
  8
GAIKEI
  6
HIDDEN2
 62
     1
100
AcDbLine
 10
1.16682155172478
 20
16.33817300561742
 30
0.0
 11
1.16682155172478
 21
17.45473278521768
 31
0.0
  0
LINE
  5
146
330
2
100
AcDbEntity
  8
GAIKEI
  6
HIDDEN2
 62
     1
100
AcDbLine
 10
1.167403840524769
 20
16.31787763621747
 30
0.0
 11
1.167403840524769
 21
17.4750281546174
 31
0.0
  0
LINE
  5
147
330
2
100
AcDbEntity
  8
GAIKEI
  6
HIDDEN2
 62
     1
100
AcDbLine
 10
1.168007974924762
 20
16.29758290521755
 30
0.0
 11
1.168007974924762
 21
17.49532288561733
 31
0.0
  0
LINE
  5
148
330
2
100
AcDbEntity
  8
GAIKEI
  6
HIDDEN2
 62
     1
100
AcDbLine
 10
1.168634083724754
 20
16.2772888404175
 30
0.0
 11
1.168634083724754
 21
17.51561695041738
 31
0.0
  0
LINE
  5
149
330
2
100
AcDbEntity
  8
GAIKEI
  6
HIDDEN2
 62
     1
100
AcDbLine
 10
1.169282226524757
 20
16.25699546721745
 30
0.0
 11
1.169282226524757
 21
17.53591032361743
 31
0.0
  0
LINE
  5
14A
330
2
100
AcDbEntity
  8
GAIKEI
  6
HIDDEN2
 62
     1
100
AcDbLine
 10
1.169952459324775
 20
16.23670281161736
 30
0.0
 11
1.169952459324775
 21
17.55620297921751
 31
0.0
  0
LINE
  5
14B
330
2
100
AcDbEntity
  8
GAIKEI
  6
HIDDEN2
 62
     1
100
AcDbLine
 10
1.170644914724761
 20
16.21641090221766
 30
0.0
 11
1.170644914724761
 21
17.57649488861744
 31
0.0
  0
LINE
  5
14C
330
2
100
AcDbEntity
  8
GAIKEI
  6
HIDDEN2
 62
     1
100
AcDbLine
 10
1.17135973872476
 20
16.19611976841753
 30
0.0
 11
1.17135973872476
 21
17.59678602241757
 31
0.0
  0
LINE
  5
14D
330
2
100
AcDbEntity
  8
GAIKEI
  6
HIDDEN2
 62
     1
100
AcDbLine
 10
1.172097050124762
 20
16.17582943921758
 30
0.0
 11
1.172097050124762
 21
17.61707635161753
 31
0.0
  0
LINE
  5
14E
330
2
100
AcDbEntity
  8
GAIKEI
  6
HIDDEN2
 62
     1
100
AcDbLine
 10
1.172856969924794
 20
16.15553994421754
 30
0.0
 11
1.172856969924794
 21
17.63736584661757
 31
0.0
  0
LINE
  5
14F
330
2
100
AcDbEntity
  8
GAIKEI
  6
HIDDEN2
 62
     1
100
AcDbLine
 10
1.173639650124755
 20
16.13525131421767
 30
0.0
 11
1.173639650124755
 21
17.65765447661744
 31
0.0
  0
LINE
  5
150
330
2
100
AcDbEntity
  8
GAIKEI
  6
HIDDEN2
 62
     1
100
AcDbLine
 10
1.174445251524758
 20
16.11496358161758
 30
0.0
 11
1.174445251524758
 21
17.67794220921752
 31
0.0
  0
LINE
  5
151
330
2
100
AcDbEntity
  8
GAIKEI
  6
HIDDEN2
 62
     1
100
AcDbLine
 10
1.175273938124774
 20
16.0946767786175
 30
0.0
 11
1.175273938124774
 21
17.69822901221761
 31
0.0
  0
LINE
  5
152
330
2
100
AcDbEntity
  8
GAIKEI
  6
HIDDEN2
 62
     1
100
AcDbLine
 10
1.176125859524773
 20
16.0743909382175
 30
0.0
 11
1.176125859524773
 21
17.71851485261737
 31
0.0
  0
LINE
  5
153
330
2
100
AcDbEntity
  8
GAIKEI
  6
HIDDEN2
 62
     1
100
AcDbLine
 10
1.177001118524771
 20
16.05410609121765
 30
0.0
 11
1.177001118524771
 21
17.73879969961746
 31
0.0
  0
LINE
  5
154
330
2
100
AcDbEntity
  8
GAIKEI
  6
HIDDEN2
 62
     1
100
AcDbLine
 10
1.177899836524773
 20
16.03382226981745
 30
0.0
 11
1.177899836524773
 21
17.75908352101743
 31
0.0
  0
LINE
  5
155
330
2
100
AcDbEntity
  8
GAIKEI
  6
HIDDEN2
 62
     1
100
AcDbLine
 10
1.178822213724771
 20
16.01353951061748
 30
0.0
 11
1.178822213724771
 21
17.77936628021763
 31
0.0
  0
LINE
  5
156
330
2
100
AcDbEntity
  8
GAIKEI
  6
HIDDEN2
 62
     1
100
AcDbLine
 10
1.17976843932476
 20
15.99325785001752
 30
0.0
 11
1.17976843932476
 21
17.79964794081758
 31
0.0
  0
LINE
  5
157
330
2
100
AcDbEntity
  8
GAIKEI
  6
HIDDEN2
 62
     1
100
AcDbLine
 10
1.18073863712479
 20
15.97297732181761
 30
0.0
 11
1.18073863712479
 21
17.8199284690175
 31
0.0
  0
LINE
  5
158
330
2
100
AcDbEntity
  8
GAIKEI
  6
HIDDEN2
 62
     1
100
AcDbLine
 10
1.181732953324768
 20
15.95269796181748
 30
0.0
 11
1.181732953324768
 21
17.8402078290174
 31
0.0
  0
LINE
  5
159
330
2
100
AcDbEntity
  8
GAIKEI
  6
HIDDEN2
 62
     1
100
AcDbLine
 10
1.182751613724775
 20
15.93241981021748
 30
0.0
 11
1.182751613724775
 21
17.86048598061739
 31
0.0
  0
LINE
  5
15A
330
2
100
AcDbEntity
  8
GAIKEI
  6
HIDDEN2
 62
     1
100
AcDbLine
 10
1.183794830924767
 20
15.91214290681756
 30
0.0
 11
1.183794830924767
 21
17.88076288401754
 31
0.0
  0
LINE
  5
15B
330
2
100
AcDbEntity
  8
GAIKEI
  6
HIDDEN2
 62
     1
100
AcDbLine
 10
1.184862762124765
 20
15.8918672900175
 30
0.0
 11
1.184862762124765
 21
17.9010385008176
 31
0.0
  0
LINE
  5
15C
330
2
100
AcDbEntity
  8
GAIKEI
  6
HIDDEN2
 62
     1
100
AcDbLine
 10
1.185955577724769
 20
15.87159299901742
 30
0.0
 11
1.185955577724769
 21
17.92131279181745
 31
0.0
  0
LINE
  5
15D
330
2
100
AcDbEntity
  8
GAIKEI
  6
HIDDEN2
 62
     1
100
AcDbLine
 10
1.187073490324763
 20
15.85132007661747
 30
0.0
 11
1.187073490324763
 21
17.94158571421764
 31
0.0
  0
LINE
  5
15E
330
2
100
AcDbEntity
  8
GAIKEI
  6
HIDDEN2
 62
     1
100
AcDbLine
 10
1.188216707124752
 20
15.8310485652176
 30
0.0
 11
1.188216707124752
 21
17.96185722561751
 31
0.0
  0
LINE
  5
15F
330
2
100
AcDbEntity
  8
GAIKEI
  6
HIDDEN2
 62
     1
100
AcDbLine
 10
1.189385414124757
 20
15.81077850721755
 30
0.0
 11
1.189385414124757
 21
17.98212728361733
 31
0.0
  0
LINE
  5
160
330
2
100
AcDbEntity
  8
GAIKEI
  6
HIDDEN2
 62
     1
100
AcDbLine
 10
1.190579817124756
 20
15.79050994721757
 30
0.0
 11
1.190579817124756
 21
18.00239584361753
 31
0.0
  0
LINE
  5
161
330
2
100
AcDbEntity
  8
GAIKEI
  6
HIDDEN2
 62
     1
100
AcDbLine
 10
1.191800163324785
 20
15.77024293241749
 30
0.0
 11
1.191800163324785
 21
18.02266285841762
 31
0.0
  0
LINE
  5
162
330
2
100
AcDbEntity
  8
GAIKEI
  6
HIDDEN2
 62
     1
100
AcDbLine
 10
1.193046672924765
 20
15.74997751001757
 30
0.0
 11
1.193046672924765
 21
18.04292828081753
 31
0.0
  0
LINE
  5
163
330
2
100
AcDbEntity
  8
GAIKEI
  6
HIDDEN2
 62
     1
100
AcDbLine
 10
1.19431951512476
 20
15.72971372441753
 30
0.0
 11
1.19431951512476
 21
18.06319206641757
 31
0.0
  0
LINE
  5
164
330
2
100
AcDbEntity
  8
GAIKEI
  6
HIDDEN2
 62
     1
100
AcDbLine
 10
1.195618899924767
 20
15.70945162341746
 30
0.0
 11
1.195618899924767
 21
18.08345416741741
 31
0.0
  0
LINE
  5
165
330
2
100
AcDbEntity
  8
GAIKEI
  6
HIDDEN2
 62
     1
100
AcDbLine
 10
1.196945107124776
 20
15.68919126041743
 30
0.0
 11
1.196945107124776
 21
18.10371453041745
 31
0.0
  0
LINE
  5
166
330
2
100
AcDbEntity
  8
GAIKEI
  6
HIDDEN2
 62
     1
100
AcDbLine
 10
1.198298384524775
 20
15.66893268721748
 30
0.0
 11
1.198298384524775
 21
18.1239731036174
 31
0.0
  0
LINE
  5
167
330
2
100
AcDbEntity
  8
GAIKEI
  6
HIDDEN2
 62
     1
100
AcDbLine
 10
1.199678926924775
 20
15.64867595381753
 30
0.0
 11
1.199678926924775
 21
18.14422983701735
 31
0.0
  0
LINE
  5
168
330
2
100
AcDbEntity
  8
GAIKEI
  6
HIDDEN2
 62
     1
100
AcDbLine
 10
1.201086966924748
 20
15.62842111301739
 30
0.0
 11
1.201086966924748
 21
18.16448467781748
 31
0.0
  0
LINE
  5
169
330
2
100
AcDbEntity
  8
GAIKEI
  6
HIDDEN2
 62
     1
100
AcDbLine
 10
1.202522794124774
 20
15.60816822301745
 30
0.0
 11
1.202522794124774
 21
18.18473756781742
 31
0.0
  0
LINE
  5
16A
330
2
100
AcDbEntity
  8
GAIKEI
  6
HIDDEN2
 62
     1
100
AcDbLine
 10
1.203986695324772
 20
15.58791734281754
 30
0.0
 11
1.203986695324772
 21
18.20498844801756
 31
0.0
  0
LINE
  5
16B
330
2
100
AcDbEntity
  8
GAIKEI
  6
HIDDEN2
 62
     1
100
AcDbLine
 10
1.205478947324763
 20
15.56766853181744
 30
0.0
 11
1.205478947324763
 21
18.22523725901743
 31
0.0
  0
LINE
  5
16C
330
2
100
AcDbEntity
  8
GAIKEI
  6
HIDDEN2
 62
     1
100
AcDbLine
 10
1.20699980772477
 20
15.54742184941761
 30
0.0
 11
1.20699980772477
 21
18.24548394141749
 31
0.0
  0
LINE
  5
16D
330
2
100
AcDbEntity
  8
GAIKEI
  6
HIDDEN2
 62
     1
100
AcDbLine
 10
1.208549512524768
 20
15.52717735421748
 30
0.0
 11
1.208549512524768
 21
18.26572843661739
 31
0.0
  0
LINE
  5
16E
330
2
100
AcDbEntity
  8
GAIKEI
  6
HIDDEN2
 62
     1
100
AcDbLine
 10
1.21012830812478
 20
15.50693510701745
 30
0.0
 11
1.21012830812478
 21
18.28597068381742
 31
0.0
  0
LINE
  5
16F
330
2
100
AcDbEntity
  8
GAIKEI
  6
HIDDEN2
 62
     1
100
AcDbLine
 10
1.211736454724757
 20
15.48669517001741
 30
0.0
 11
1.211736454724757
 21
18.30621062081746
 31
0.0
  0
LINE
  5
170
330
2
100
AcDbEntity
  8
GAIKEI
  6
HIDDEN2
 62
     1
100
AcDbLine
 10
1.213374255324765
 20
15.46645761121755
 30
0.0
 11
1.213374255324765
 21
18.32644817961756
 31
0.0
  0
LINE
  5
171
330
2
100
AcDbEntity
  8
GAIKEI
  6
HIDDEN2
 62
     1
100
AcDbLine
 10
1.215042054324783
 20
15.44622250241747
 30
0.0
 11
1.215042054324783
 21
18.34668328841764
 31
0.0
  0
LINE
  5
172
330
2
100
AcDbEntity
  8
GAIKEI
  6
HIDDEN2
 62
     1
100
AcDbLine
 10
1.216740160324775
 20
15.42598991401752
 30
0.0
 11
1.216740160324775
 21
18.36691587681758
 31
0.0
  0
LINE
  5
173
330
2
100
AcDbEntity
  8
GAIKEI
  6
HIDDEN2
 62
     1
100
AcDbLine
 10
1.21846884512476
 20
15.40575991541738
 30
0.0
 11
1.21846884512476
 21
18.3871458754175
 31
0.0
  0
LINE
  5
174
330
2
100
AcDbEntity
  8
GAIKEI
  6
HIDDEN2
 62
     1
100
AcDbLine
 10
1.220228411724775
 20
15.38553257941754
 30
0.0
 11
1.220228411724775
 21
18.40737321141756
 31
0.0
  0
LINE
  5
175
330
2
100
AcDbEntity
  8
GAIKEI
  6
HIDDEN2
 62
     1
100
AcDbLine
 10
1.222019192524783
 20
15.36530798281757
 30
0.0
 11
1.222019192524783
 21
18.42759780801754
 31
0.0
  0
LINE
  5
176
330
2
100
AcDbEntity
  8
GAIKEI
  6
HIDDEN2
 62
     1
100
AcDbLine
 10
1.223841501324784
 20
15.34508620241746
 30
0.0
 11
1.223841501324784
 21
18.44781958841742
 31
0.0
  0
LINE
  5
177
330
2
100
AcDbEntity
  8
GAIKEI
  6
HIDDEN2
 62
     1
100
AcDbLine
 10
1.225695637324776
 20
15.32486731521754
 30
0.0
 11
1.225695637324776
 21
18.46803847561733
 31
0.0
  0
LINE
  5
178
330
2
100
AcDbEntity
  8
GAIKEI
  6
HIDDEN2
 62
     1
100
AcDbLine
 10
1.227581939324778
 20
15.30465140361758
 30
0.0
 11
1.227581939324778
 21
18.48825438721752
 31
0.0
  0
LINE
  5
179
330
2
100
AcDbEntity
  8
GAIKEI
  6
HIDDEN2
 62
     1
100
AcDbLine
 10
1.229500774324776
 20
15.28443855381744
 30
0.0
 11
1.229500774324776
 21
18.50846723701744
 31
0.0
  0
LINE
  5
17A
330
2
100
AcDbEntity
  8
GAIKEI
  6
HIDDEN2
 62
     1
100
AcDbLine
 10
1.23145244392478
 20
15.2642288478176
 30
0.0
 11
1.23145244392478
 21
18.5286769430175
 31
0.0
  0
LINE
  5
17B
330
2
100
AcDbEntity
  8
GAIKEI
  6
HIDDEN2
 62
     1
100
AcDbLine
 10
1.233437207924765
 20
15.24402236481757
 30
0.0
 11
1.233437207924765
 21
18.54888342601754
 31
0.0
  0
LINE
  5
17C
330
2
100
AcDbEntity
  8
GAIKEI
  6
HIDDEN2
 62
     1
100
AcDbLine
 10
1.235455463724775
 20
15.2238191994175
 30
0.0
 11
1.235455463724775
 21
18.56908659141737
 31
0.0
  0
LINE
  5
17D
330
2
100
AcDbEntity
  8
GAIKEI
  6
HIDDEN2
 62
     1
100
AcDbLine
 10
1.237507699324794
 20
15.20361945761743
 30
0.0
 11
1.237507699324794
 21
18.58928633321767
 31
0.0
  0
LINE
  5
17E
330
2
100
AcDbEntity
  8
GAIKEI
  6
HIDDEN2
 62
     1
100
AcDbLine
 10
1.239594240724755
 20
15.18342323021744
 30
0.0
 11
1.239594240724755
 21
18.60948256061744
 31
0.0
  0
LINE
  5
17F
330
2
100
AcDbEntity
  8
GAIKEI
  6
HIDDEN2
 62
     1
100
AcDbLine
 10
1.24171531332476
 20
15.16323059981761
 30
0.0
 11
1.24171531332476
 21
18.6296751910175
 31
0.0
  0
LINE
  5
180
330
2
100
AcDbEntity
  8
GAIKEI
  6
HIDDEN2
 62
     1
100
AcDbLine
 10
1.243871306924773
 20
15.14304166821768
 30
0.0
 11
1.243871306924773
 21
18.64986412261743
 31
0.0
  0
LINE
  5
181
330
2
100
AcDbEntity
  8
GAIKEI
  6
HIDDEN2
 62
     1
100
AcDbLine
 10
1.246062716124782
 20
15.12285655001739
 30
0.0
 11
1.246062716124782
 21
18.67004924081749
 31
0.0
  0
LINE
  5
182
330
2
100
AcDbEntity
  8
GAIKEI
  6
HIDDEN2
 62
     1
100
AcDbLine
 10
1.248289958924772
 20
15.10267535381746
 30
0.0
 11
1.248289958924772
 21
18.69023043701742
 31
0.0
  0
LINE
  5
183
330
2
100
AcDbEntity
  8
GAIKEI
  6
HIDDEN2
 62
     1
100
AcDbLine
 10
1.250553398924779
 20
15.08249818541759
 30
0.0
 11
1.250553398924779
 21
18.71040760541751
 31
0.0
  0
LINE
  5
184
330
2
100
AcDbEntity
  8
GAIKEI
  6
HIDDEN2
 62
     1
100
AcDbLine
 10
1.252853357924749
 20
15.06232514681761
 30
0.0
 11
1.252853357924749
 21
18.73058064401749
 31
0.0
  0
LINE
  5
185
330
2
100
AcDbEntity
  8
GAIKEI
  6
HIDDEN2
 62
     1
100
AcDbLine
 10
1.255190146924775
 20
15.04215634101757
 30
0.0
 11
1.255190146924775
 21
18.75074944981753
 31
0.0
  0
LINE
  5
186
330
2
100
AcDbEntity
  8
GAIKEI
  6
HIDDEN2
 62
     1
100
AcDbLine
 10
1.25756422612477
 20
15.02199189061758
 30
0.0
 11
1.25756422612477
 21
18.77091390021752
 31
0.0
  0
LINE
  5
187
330
2
100
AcDbEntity
  8
GAIKEI
  6
HIDDEN2
 62
     1
100
AcDbLine
 10
1.259976129324769
 20
15.00183192921741
 30
0.0
 11
1.259976129324769
 21
18.79107386161746
 31
0.0
  0
LINE
  5
188
330
2
100
AcDbEntity
  8
GAIKEI
  6
HIDDEN2
 62
     1
100
AcDbLine
 10
1.262426274124777
 20
14.98167657941741
 30
0.0
 11
1.262426274124777
 21
18.81122921141747
 31
0.0
  0
LINE
  5
189
330
2
100
AcDbEntity
  8
GAIKEI
  6
HIDDEN2
 62
     1
100
AcDbLine
 10
1.264915017524771
 20
14.96152595921768
 30
0.0
 11
1.264915017524771
 21
18.83137983161742
 31
0.0
  0
LINE
  5
18A
330
2
100
AcDbEntity
  8
GAIKEI
  6
HIDDEN2
 62
     1
100
AcDbLine
 10
1.267442746124771
 20
14.94138019201756
 30
0.0
 11
1.267442746124771
 21
18.85152559881754
 31
0.0
  0
LINE
  5
18B
330
2
100
AcDbEntity
  8
GAIKEI
  6
HIDDEN2
 62
     1
100
AcDbLine
 10
1.270009870924781
 20
14.9212394068175
 30
0.0
 11
1.270009870924781
 21
18.8716663840176
 31
0.0
  0
LINE
  5
18C
330
2
100
AcDbEntity
  8
GAIKEI
  6
HIDDEN2
 62
     1
100
AcDbLine
 10
1.272616879524747
 20
14.90110374521765
 30
0.0
 11
1.272616879524747
 21
18.89180204561745
 31
0.0
  0
LINE
  5
18D
330
2
100
AcDbEntity
  8
GAIKEI
  6
HIDDEN2
 62
     1
100
AcDbLine
 10
1.275264289724759
 20
14.88097335521757
 30
0.0
 11
1.275264289724759
 21
18.91193243561753
 31
0.0
  0
LINE
  5
18E
330
2
100
AcDbEntity
  8
GAIKEI
  6
HIDDEN2
 62
     1
100
AcDbLine
 10
1.277952544724769
 20
14.86084837901745
 30
0.0
 11
1.277952544724769
 21
18.93205741181765
 31
0.0
  0
LINE
  5
18F
330
2
100
AcDbEntity
  8
GAIKEI
  6
HIDDEN2
 62
     1
100
AcDbLine
 10
1.280682053324767
 20
14.84072895601758
 30
0.0
 11
1.280682053324767
 21
18.95217683481752
 31
0.0
  0
LINE
  5
190
330
2
100
AcDbEntity
  8
GAIKEI
  6
HIDDEN2
 62
     1
100
AcDbLine
 10
1.283453242324753
 20
14.82061523161752
 30
0.0
 11
1.283453242324753
 21
18.97229055921758
 31
0.0
  0
LINE
  5
191
330
2
100
AcDbEntity
  8
GAIKEI
  6
HIDDEN2
 62
     1
100
AcDbLine
 10
1.286266557124775
 20
14.80050735541755
 30
0.0
 11
1.286266557124775
 21
18.99239843541755
 31
0.0
  0
LINE
  5
192
330
2
100
AcDbEntity
  8
GAIKEI
  6
HIDDEN2
 62
     1
100
AcDbLine
 10
1.289122524124763
 20
14.78040549281746
 30
0.0
 11
1.289122524124763
 21
19.01250029801741
 31
0.0
  0
LINE
  5
193
330
2
100
AcDbEntity
  8
GAIKEI
  6
HIDDEN2
 62
     1
100
AcDbLine
 10
1.292021696124777
 20
14.7603098156174
 30
0.0
 11
1.292021696124777
 21
19.03259597521747
 31
0.0
  0
LINE
  5
194
330
2
100
AcDbEntity
  8
GAIKEI
  6
HIDDEN2
 62
     1
100
AcDbLine
 10
1.29496454512477
 20
14.74022048801754
 30
0.0
 11
1.29496454512477
 21
19.05268530281756
 31
0.0
  0
LINE
  5
195
330
2
100
AcDbEntity
  8
GAIKEI
  6
HIDDEN2
 62
     1
100
AcDbLine
 10
1.297951511324782
 20
14.72013767201753
 30
0.0
 11
1.297951511324782
 21
19.07276811881757
 31
0.0
  0
LINE
  5
196
330
2
100
AcDbEntity
  8
GAIKEI
  6
HIDDEN2
 62
     1
100
AcDbLine
 10
1.668475006524772
 20
11.03645289541742
 30
0.0
 11
1.808475006524759
 21
10.89645289541755
 31
0.0
  0
LINE
  5
197
330
2
100
AcDbEntity
  8
GAIKEI
  6
HIDDEN2
 62
     1
100
AcDbLine
 10
1.50846046752477
 20
11.33645289541738
 30
0.0
 11
1.608460467524764
 21
11.23645289541747
 31
0.0
  0
LINE
  5
198
330
2
100
AcDbEntity
  8
GAIKEI
  6
HIDDEN2
 62
     1
100
AcDbLine
 10
1.608460467524764
 20
11.23645289541747
 30
0.0
 11
1.668475006524772
 21
11.23645289541747
 31
0.0
  0
LINE
  5
199
330
2
100
AcDbEntity
  8
GAIKEI
  6
HIDDEN2
 62
     1
100
AcDbLine
 10
1.159049658524764
 20
16.89645289541755
 30
0.0
 11
1.159052222924771
 21
16.88630102101734
 31
0.0
  0
LINE
  5
19A
330
2
100
AcDbEntity
  8
GAIKEI
  6
HIDDEN2
 62
     1
100
AcDbLine
 10
1.159052222924771
 20
16.90660476981753
 30
0.0
 11
1.159049658524764
 21
16.89645289541755
 31
0.0
  0
LINE
  5
19B
330
2
100
AcDbEntity
  8
GAIKEI
  6
HIDDEN2
 62
     1
100
AcDbLine
 10
1.159052222924771
 20
16.88630102101734
 30
0.0
 11
1.159072504124765
 21
16.86599731741745
 31
0.0
  0
LINE
  5
19C
330
2
100
AcDbEntity
  8
GAIKEI
  6
HIDDEN2
 62
     1
100
AcDbLine
 10
1.159072504124765
 20
16.92690847341743
 30
0.0
 11
1.159052222924771
 21
16.90660476981753
 31
0.0
  0
LINE
  5
19D
330
2
100
AcDbEntity
  8
GAIKEI
  6
HIDDEN2
 62
     1
100
AcDbLine
 10
1.159072504124765
 20
16.86599731741745
 30
0.0
 11
1.159113128524779
 21
16.84569364881764
 31
0.0
  0
LINE
  5
19E
330
2
100
AcDbEntity
  8
GAIKEI
  6
HIDDEN2
 62
     1
100
AcDbLine
 10
1.159113128524779
 20
16.94721214201746
 30
0.0
 11
1.159072504124765
 21
16.92690847341743
 31
0.0
  0
LINE
  5
19F
330
2
100
AcDbEntity
  8
GAIKEI
  6
HIDDEN2
 62
     1
100
AcDbLine
 10
1.159113128524779
 20
16.84569364881764
 30
0.0
 11
1.159174148524783
 21
16.82539001801734
 31
0.0
  0
LINE
  5
1A0
330
2
100
AcDbEntity
  8
GAIKEI
  6
HIDDEN2
 62
     1
100
AcDbLine
 10
1.159174148524783
 20
16.96751577281753
 30
0.0
 11
1.159113128524779
 21
16.94721214201746
 31
0.0
  0
LINE
  5
1A1
330
2
100
AcDbEntity
  8
GAIKEI
  6
HIDDEN2
 62
     1
100
AcDbLine
 10
1.159174148524783
 20
16.82539001801734
 30
0.0
 11
1.159255512124758
 21
16.80508645781748
 31
0.0
  0
LINE
  5
1A2
330
2
100
AcDbEntity
  8
GAIKEI
  6
HIDDEN2
 62
     1
100
AcDbLine
 10
1.159255512124758
 20
16.9878193330174
 30
0.0
 11
1.159174148524783
 21
16.96751577281753
 31
0.0
  0
LINE
  5
1A3
330
2
100
AcDbEntity
  8
GAIKEI
  6
HIDDEN2
 62
     1
100
AcDbLine
 10
1.159255512124758
 20
16.80508645781748
 30
0.0
 11
1.159357225924793
 21
16.78478299261752
 31
0.0
  0
LINE
  5
1A4
330
2
100
AcDbEntity
  8
GAIKEI
  6
HIDDEN2
 62
     1
100
AcDbLine
 10
1.159357225924793
 20
17.00812279821758
 30
0.0
 11
1.159255512124758
 21
16.9878193330174
 31
0.0
  0
LINE
  5
1A5
330
2
100
AcDbEntity
  8
GAIKEI
  6
HIDDEN2
 62
     1
100
AcDbLine
 10
1.159357225924793
 20
16.78478299261752
 30
0.0
 11
1.159479347124772
 21
16.76447964021764
 31
0.0
  0
LINE
  5
1A6
330
2
100
AcDbEntity
  8
GAIKEI
  6
HIDDEN2
 62
     1
100
AcDbLine
 10
1.159479347124772
 20
17.02842615061746
 30
0.0
 11
1.159357225924793
 21
17.00812279821758
 31
0.0
  0
LINE
  5
1A7
330
2
100
AcDbEntity
  8
GAIKEI
  6
HIDDEN2
 62
     1
100
AcDbLine
 10
1.159479347124772
 20
16.76447964021764
 30
0.0
 11
1.159621882924767
 21
16.74417642001737
 31
0.0
  0
LINE
  5
1A8
330
2
100
AcDbEntity
  8
GAIKEI
  6
HIDDEN2
 62
     1
100
AcDbLine
 10
1.159621882924767
 20
17.04872937081751
 30
0.0
 11
1.159479347124772
 21
17.02842615061746
 31
0.0
  0
LINE
  5
1A9
330
2
100
AcDbEntity
  8
GAIKEI
  6
HIDDEN2
 62
     1
100
AcDbLine
 10
1.159621882924767
 20
16.74417642001737
 30
0.0
 11
1.159784805124758
 21
16.72387335301738
 31
0.0
  0
LINE
  5
1AA
330
2
100
AcDbEntity
  8
GAIKEI
  6
HIDDEN2
 62
     1
100
AcDbLine
 10
1.159784805124758
 20
17.0690324378175
 30
0.0
 11
1.159621882924767
 21
17.04872937081751
 31
0.0
  0
LINE
  5
1AB
330
2
100
AcDbEntity
  8
GAIKEI
  6
HIDDEN2
 62
     1
100
AcDbLine
 10
1.159784805124758
 20
16.72387335301738
 30
0.0
 11
1.159968140924746
 21
16.70357046021746
 31
0.0
  0
LINE
  5
1AC
330
2
100
AcDbEntity
  8
GAIKEI
  6
HIDDEN2
 62
     1
100
AcDbLine
 10
1.159968140924746
 20
17.08933533061741
 30
0.0
 11
1.159784805124758
 21
17.0690324378175
 31
0.0
  0
LINE
  5
1AD
330
2
100
AcDbEntity
  8
GAIKEI
  6
HIDDEN2
 62
     1
100
AcDbLine
 10
1.159968140924746
 20
16.70357046021746
 30
0.0
 11
1.16017195932477
 21
16.68326776281748
 31
0.0
  0
LINE
  5
1AE
330
2
100
AcDbEntity
  8
GAIKEI
  6
HIDDEN2
 62
     1
100
AcDbLine
 10
1.16017195932477
 20
17.1096380280174
 30
0.0
 11
1.159968140924746
 21
17.08933533061741
 31
0.0
  0
LINE
  5
1AF
330
2
100
AcDbEntity
  8
GAIKEI
  6
HIDDEN2
 62
     1
100
AcDbLine
 10
1.16017195932477
 20
16.68326776281748
 30
0.0
 11
1.160396325724775
 21
16.66296528201752
 31
0.0
  0
LINE
  5
1B0
330
2
100
AcDbEntity
  8
GAIKEI
  6
HIDDEN2
 62
     1
100
AcDbLine
 10
1.160396325724775
 20
17.12994050881758
 30
0.0
 11
1.16017195932477
 21
17.1096380280174
 31
0.0
  0
LINE
  5
1B1
330
2
100
AcDbEntity
  8
GAIKEI
  6
HIDDEN2
 62
     1
100
AcDbLine
 10
1.160396325724775
 20
16.66296528201752
 30
0.0
 11
1.160641297724765
 21
16.64266303941741
 31
0.0
  0
LINE
  5
1B2
330
2
100
AcDbEntity
  8
GAIKEI
  6
HIDDEN2
 62
     1
100
AcDbLine
 10
1.160641297724765
 20
17.15024275141746
 30
0.0
 11
1.160396325724775
 21
17.12994050881758
 31
0.0
  0
LINE
  5
1B3
330
2
100
AcDbEntity
  8
GAIKEI
  6
HIDDEN2
 62
     1
100
AcDbLine
 10
1.160641297724765
 20
16.64266303941741
 30
0.0
 11
1.160906892924771
 21
16.62236105621747
 31
0.0
  0
LINE
  5
1B4
330
2
100
AcDbEntity
  8
GAIKEI
  6
HIDDEN2
 62
     1
100
AcDbLine
 10
1.160906892924771
 20
17.17054473461741
 30
0.0
 11
1.160641297724765
 21
17.15024275141746
 31
0.0
  0
LINE
  5
1B5
330
2
100
AcDbEntity
  8
GAIKEI
  6
HIDDEN2
 62
     1
100
AcDbLine
 10
1.160906892924771
 20
16.62236105621747
 30
0.0
 11
1.161193111124788
 21
16.60205935301752
 31
0.0
  0
LINE
  5
1B6
330
2
100
AcDbEntity
  8
GAIKEI
  6
HIDDEN2
 62
     1
100
AcDbLine
 10
1.161193111124788
 20
17.19084643781758
 30
0.0
 11
1.160906892924771
 21
17.17054473461741
 31
0.0
  0
LINE
  5
1B7
330
2
100
AcDbEntity
  8
GAIKEI
  6
HIDDEN2
 62
     1
100
AcDbLine
 10
1.165204309924746
 20
16.39906267161751
 30
0.0
 11
1.165721922324763
 21
16.3787655498175
 31
0.0
  0
LINE
  5
1B8
330
2
100
AcDbEntity
  8
GAIKEI
  6
HIDDEN2
 62
     1
100
AcDbLine
 10
1.165204309924746
 20
17.39384311921759
 30
0.0
 11
1.164708093724783
 21
17.37354546301759
 31
0.0
  0
LINE
  5
1B9
330
2
100
AcDbEntity
  8
GAIKEI
  6
HIDDEN2
 62
     1
100
AcDbLine
 10
1.164708093724783
 20
16.41936032781751
 30
0.0
 11
1.165204309924746
 21
16.39906267161751
 31
0.0
  0
LINE
  5
1BA
330
2
100
AcDbEntity
  8
GAIKEI
  6
HIDDEN2
 62
     1
100
AcDbLine
 10
1.164708093724783
 20
17.37354546301759
 30
0.0
 11
1.164233240524794
 21
17.3532472960174
 31
0.0
  0
LINE
  5
1BB
330
2
100
AcDbEntity
  8
GAIKEI
  6
HIDDEN2
 62
     1
100
AcDbLine
 10
1.164233240524794
 20
16.43965849481748
 30
0.0
 11
1.164708093724783
 21
16.41936032781751
 31
0.0
  0
LINE
  5
1BC
330
2
100
AcDbEntity
  8
GAIKEI
  6
HIDDEN2
 62
     1
100
AcDbLine
 10
1.164233240524794
 20
17.3532472960174
 30
0.0
 11
1.163779674724764
 21
17.33294864201736
 31
0.0
  0
LINE
  5
1BD
330
2
100
AcDbEntity
  8
GAIKEI
  6
HIDDEN2
 62
     1
100
AcDbLine
 10
1.163779674724764
 20
16.45995714881752
 30
0.0
 11
1.164233240524794
 21
16.43965849481748
 31
0.0
  0
LINE
  5
1BE
330
2
100
AcDbEntity
  8
GAIKEI
  6
HIDDEN2
 62
     1
100
AcDbLine
 10
1.163779674724764
 20
17.33294864201736
 30
0.0
 11
1.163347306124791
 21
17.31264952561747
 31
0.0
  0
LINE
  5
1BF
330
2
100
AcDbEntity
  8
GAIKEI
  6
HIDDEN2
 62
     1
100
AcDbLine
 10
1.163347306124791
 20
16.48025626521763
 30
0.0
 11
1.163779674724764
 21
16.45995714881752
 31
0.0
  0
LINE
  5
1C0
330
2
100
AcDbEntity
  8
GAIKEI
  6
HIDDEN2
 62
     1
100
AcDbLine
 10
1.163347306124791
 20
17.31264952561747
 30
0.0
 11
1.162936027124771
 21
17.29234997081749
 31
0.0
  0
LINE
  5
1C1
330
2
100
AcDbEntity
  8
GAIKEI
  6
HIDDEN2
 62
     1
100
AcDbLine
 10
1.162936027124771
 20
16.50055582001761
 30
0.0
 11
1.163347306124791
 21
16.48025626521763
 31
0.0
  0
LINE
  5
1C2
330
2
100
AcDbEntity
  8
GAIKEI
  6
HIDDEN2
 62
     1
100
AcDbLine
 10
1.162936027124771
 20
17.29234997081749
 30
0.0
 11
1.162545732524762
 21
17.27205000181749
 31
0.0
  0
LINE
  5
1C3
330
2
100
AcDbEntity
  8
GAIKEI
  6
HIDDEN2
 62
     1
100
AcDbLine
 10
1.162545732524762
 20
16.52085578901739
 30
0.0
 11
1.162936027124771
 21
16.50055582001761
 31
0.0
  0
LINE
  5
1C4
330
2
100
AcDbEntity
  8
GAIKEI
  6
HIDDEN2
 62
     1
100
AcDbLine
 10
1.162545732524762
 20
17.27205000181749
 30
0.0
 11
1.162176329324779
 21
17.25174964201739
 31
0.0
  0
LINE
  5
1C5
330
2
100
AcDbEntity
  8
GAIKEI
  6
HIDDEN2
 62
     1
100
AcDbLine
 10
1.162176329324779
 20
16.54115614881749
 30
0.0
 11
1.162545732524762
 21
16.52085578901739
 31
0.0
  0
LINE
  5
1C6
330
2
100
AcDbEntity
  8
GAIKEI
  6
HIDDEN2
 62
     1
100
AcDbLine
 10
1.162176329324779
 20
17.25174964201739
 30
0.0
 11
1.161827758924772
 21
17.23144891381759
 31
0.0
  0
LINE
  5
1C7
330
2
100
AcDbEntity
  8
GAIKEI
  6
HIDDEN2
 62
     1
100
AcDbLine
 10
1.161827758924772
 20
16.56145687701752
 30
0.0
 11
1.162176329324779
 21
16.54115614881749
 31
0.0
  0
LINE
  5
1C8
330
2
100
AcDbEntity
  8
GAIKEI
  6
HIDDEN2
 62
     1
100
AcDbLine
 10
1.161827758924772
 20
17.23144891381759
 30
0.0
 11
1.161500029124766
 21
17.2111478384175
 31
0.0
  0
LINE
  5
1C9
330
2
100
AcDbEntity
  8
GAIKEI
  6
HIDDEN2
 62
     1
100
AcDbLine
 10
1.161500029124766
 20
16.5817579524176
 30
0.0
 11
1.161827758924772
 21
16.56145687701752
 31
0.0
  0
LINE
  5
1CA
330
2
100
AcDbEntity
  8
GAIKEI
  6
HIDDEN2
 62
     1
100
AcDbLine
 10
1.161500029124766
 20
17.2111478384175
 30
0.0
 11
1.161193111124788
 21
17.19084643781758
 31
0.0
  0
LINE
  5
1CB
330
2
100
AcDbEntity
  8
GAIKEI
  6
HIDDEN2
 62
     1
100
AcDbLine
 10
1.161193111124788
 20
16.60205935301752
 30
0.0
 11
1.161500029124766
 21
16.5817579524176
 31
0.0
  0
LINE
  5
1CC
330
2
100
AcDbEntity
  8
GAIKEI
  6
Continuous
100
AcDbLine
 10
13.30484965852477
 20
16.93139947839751
 30
0.0
 11
13.30484965852477
 21
9.795887025871479
 31
0.0
  0
LINE
  5
1CD
330
2
100
AcDbEntity
  8
GAIKEI
  6
HIDDEN2
 62
     1
100
AcDbLine
 10
13.30484965852477
 20
13.33139947839748
 30
0.0
 11
13.20484965852475
 21
13.33139947839748
 31
0.0
  0
LINE
  5
1CE
330
2
100
AcDbEntity
  8
GAIKEI
  6
Continuous
 62
     1
100
AcDbLine
 10
14.52484965852457
 20
14.83139947839748
 30
0.0
 11
14.52484965852457
 21
16.03139947839747
 31
0.0
  0
LINE
  5
1CF
330
2
100
AcDbEntity
  8
GAIKEI
  6
Continuous
 62
     1
100
AcDbLine
 10
14.36484965852457
 20
14.67139947839752
 30
0.0
 11
14.36484965852457
 21
16.1913994783975
 31
0.0
  0
ARC
  5
1D0
330
2
100
AcDbEntity
  8
GAIKEI
  6
Continuous
 62
     1
100
AcDbCircle
 10
14.60484965852456
 20
16.1913994783975
 30
0.0
 40
0.24
100
AcDbArc
 50
90.0
 51
180.0
  0
ARC
  5
1D1
330
2
100
AcDbEntity
  8
GAIKEI
  6
Continuous
 62
     1
100
AcDbCircle
 10
14.60484965852456
 20
14.67139947839752
 30
0.0
 40
0.24
100
AcDbArc
 50
180.0
 51
270.0
  0
ARC
  5
1D2
330
2
100
AcDbEntity
  8
GAIKEI
  6
Continuous
 62
     1
100
AcDbCircle
 10
14.62484965852457
 20
16.03139947839747
 30
0.0
 40
0.1
100
AcDbArc
 50
90.0
 51
180.0
  0
ARC
  5
1D3
330
2
100
AcDbEntity
  8
GAIKEI
  6
Continuous
 62
     1
100
AcDbCircle
 10
14.62484965852457
 20
14.83139947839748
 30
0.0
 40
0.1
100
AcDbArc
 50
180.0
 51
270.0
  0
ARC
  5
1D4
330
2
100
AcDbEntity
  8
GAIKEI
  6
Continuous
100
AcDbCircle
 10
13.70484965852475
 20
9.795887025871479
 30
0.0
 40
0.4
100
AcDbArc
 50
180.0
 51
268.9999999999917
  0
CIRCLE
  5
1D5
330
2
100
AcDbEntity
  8
GAIKEI
  6
HIDDEN2
 62
     1
100
AcDbCircle
 10
12.54484965852478
 20
13.89645289541755
 30
0.0
 40
0.2444456748
  0
LINE
  5
1D6
330
2
100
AcDbEntity
  8
GAIKEI
  6
HIDDEN2
 62
     1
100
AcDbLine
 10
12.48893035072476
 20
13.88790707721756
 30
0.0
 11
12.41787011592478
 21
13.79120938821762
 31
0.0
  0
LINE
  5
1D7
330
2
100
AcDbEntity
  8
GAIKEI
  6
HIDDEN2
 62
     1
100
AcDbLine
 10
12.39223266172476
 20
13.95896731181762
 30
0.0
 11
12.48893035072476
 21
13.88790707721756
 31
0.0
  0
LINE
  5
1D8
330
2
100
AcDbEntity
  8
GAIKEI
  6
HIDDEN2
 62
     1
100
AcDbLine
 10
12.43960615152477
 20
14.02343243781757
 30
0.0
 11
12.39223266172476
 21
13.95896731181762
 31
0.0
  0
LINE
  5
1D9
330
2
100
AcDbEntity
  8
GAIKEI
  6
HIDDEN2
 62
     1
100
AcDbLine
 10
12.53630384052476
 20
13.95237220321752
 30
0.0
 11
12.43960615152477
 21
14.02343243781757
 31
0.0
  0
LINE
  5
1DA
330
2
100
AcDbEntity
  8
GAIKEI
  6
HIDDEN2
 62
     1
100
AcDbLine
 10
12.60736407512476
 20
14.04906989221746
 30
0.0
 11
12.53630384052476
 21
13.95237220321752
 31
0.0
  0
LINE
  5
1DB
330
2
100
AcDbEntity
  8
GAIKEI
  6
HIDDEN2
 62
     1
100
AcDbLine
 10
12.67182920112478
 20
14.00169640241739
 30
0.0
 11
12.60736407512476
 21
14.04906989221746
 31
0.0
  0
LINE
  5
1DC
330
2
100
AcDbEntity
  8
GAIKEI
  6
HIDDEN2
 62
     1
100
AcDbLine
 10
12.60076896632475
 20
13.90499871341745
 30
0.0
 11
12.67182920112478
 21
14.00169640241739
 31
0.0
  0
LINE
  5
1DD
330
2
100
AcDbEntity
  8
GAIKEI
  6
HIDDEN2
 62
     1
100
AcDbLine
 10
12.6974666553248
 20
13.83393847881763
 30
0.0
 11
12.60076896632475
 21
13.90499871341745
 31
0.0
  0
LINE
  5
1DE
330
2
100
AcDbEntity
  8
GAIKEI
  6
HIDDEN2
 62
     1
100
AcDbLine
 10
12.65009316552474
 20
13.76947335281744
 30
0.0
 11
12.6974666553248
 21
13.83393847881763
 31
0.0
  0
LINE
  5
1DF
330
2
100
AcDbEntity
  8
GAIKEI
  6
HIDDEN2
 62
     1
100
AcDbLine
 10
12.5533954765248
 20
13.8405335874175
 30
0.0
 11
12.65009316552474
 21
13.76947335281744
 31
0.0
  0
LINE
  5
1E0
330
2
100
AcDbEntity
  8
GAIKEI
  6
HIDDEN2
 62
     1
100
AcDbLine
 10
12.48233524192474
 20
13.74383589841756
 30
0.0
 11
12.5533954765248
 21
13.8405335874175
 31
0.0
  0
LINE
  5
1E1
330
2
100
AcDbEntity
  8
GAIKEI
  6
HIDDEN2
 62
     1
100
AcDbLine
 10
12.41787011592478
 20
13.79120938821762
 30
0.0
 11
12.48233524192474
 21
13.74383589841756
 31
0.0
  0
CIRCLE
  5
1E2
330
2
100
AcDbEntity
  8
GAIKEI
  6
HIDDEN2
 62
     1
100
AcDbCircle
 10
12.54484965852478
 20
13.89645289541755
 30
0.0
 40
0.2045978868
  0
LINE
  5
1E3
330
2
100
AcDbEntity
  8
GAIKEI
  6
HIDDEN2
 62
     1
100
AcDbLine
 10
13.20484965852475
 20
18.7862412432176
 30
0.0
 11
13.10484965852478
 21
18.93637936461738
 31
0.0
  0
LINE
  5
1E4
330
2
100
AcDbEntity
  8
GAIKEI
  6
HIDDEN2
 62
     1
100
AcDbLine
 10
13.20484965852475
 20
18.16645289541753
 30
0.0
 11
13.20484965852475
 21
18.7862412432176
 31
0.0
  0
LINE
  5
1E5
330
2
100
AcDbEntity
  8
GAIKEI
  6
HIDDEN2
 62
     1
100
AcDbLine
 10
13.20484965852475
 20
17.85655872141757
 30
0.0
 11
13.20484965852475
 21
18.16645289541753
 31
0.0
  0
LINE
  5
1E6
330
2
100
AcDbEntity
  8
GAIKEI
  6
HIDDEN2
 62
     1
100
AcDbLine
 10
13.10484965852478
 20
18.16645289541753
 30
0.0
 11
13.20484965852475
 21
18.16645289541753
 31
0.0
  0
LINE
  5
1E7
330
2
100
AcDbEntity
  8
GAIKEI
  6
HIDDEN2
 62
     1
100
AcDbLine
 10
13.10484965852478
 20
17.78148966061741
 30
0.0
 11
13.20484965852475
 21
17.85655872141757
 31
0.0
  0
LINE
  5
1E8
330
2
100
AcDbEntity
  8
GAIKEI
  6
HIDDEN2
 62
     1
100
AcDbLine
 10
13.20484965852475
 20
14.0465587214174
 30
0.0
 11
13.10484965852478
 21
13.97148966061746
 31
0.0
  0
LINE
  5
1E9
330
2
100
AcDbEntity
  8
GAIKEI
  6
HIDDEN2
 62
     1
100
AcDbLine
 10
13.20484965852475
 20
17.85655872141757
 30
0.0
 11
13.20484965852475
 21
14.0465587214174
 31
0.0
  0
LWPOLYLINE
  5
1EA
330
2
100
AcDbEntity
  8
GAIKEI
  6
HIDDEN2
 62
     1
100
AcDbPolyline
 90
       20
 70
     0
 43
0.0
 10
12.80684965852478
 20
13.89645289541755
 10
12.79220918192473
 20
13.98246861641752
 10
12.74994548232476
 20
14.05878615241755
 10
12.68477712712476
 20
14.11685256281754
 10
12.60402114432477
 20
14.15008929101742
 10
12.51686205652478
 20
14.15471776661735
 10
12.43314057892476
 20
14.1302695868174
 10
12.3622016833248
 20
14.07949694801738
 10
12.3120186023248
 20
14.00805206681758
 10
12.28831411392477
 20
13.92400960361743
 10
12.29375620532474
 20
13.83692387781758
 10
12.32768024532478
 20
13.75657877941745
 10
12.38630225892476
 20
13.69194242501754
 10
12.46306876872475
 20
13.65032129941738
 10
12.54926621412474
 20
13.63646412581744
 10
12.63512271212474
 20
13.65189642321758
 10
12.71103317912477
 20
13.6948498904174
 10
12.76850239332478
 20
13.76054827761737
 10
12.8009986377248
 20
13.84160495661746
 10
12.80684965852478
 20
13.89645289541755
  0
LWPOLYLINE
  5
1EB
330
2
100
AcDbEntity
  8
GAIKEI
  6
HIDDEN2
 62
     1
100
AcDbPolyline
 90
       10
 70
     0
 43
0.0
 10
12.29375620532474
 20
10.89662307081749
 10
12.32768024532478
 20
10.8965559550175
 10
12.38630225892476
 20
10.89728338421747
 10
12.46306876872475
 20
10.89812088901755
 10
12.54926621412474
 20
10.89846392961755
 10
12.63512271212474
 20
10.89808392681749
 10
12.71103317912477
 20
10.89723568821756
 10
12.76850239332478
 20
10.89653399681748
 10
12.8009986377248
 20
10.89666015441759
 10
12.80684965852478
 20
10.89736672441751
  0
LWPOLYLINE
  5
1EC
330
2
100
AcDbEntity
  8
GAIKEI
  6
HIDDEN2
 62
     1
100
AcDbPolyline
 90
       11
 70
     0
 43
0.0
 10
12.80684965852478
 20
10.89736672441751
 10
12.79220918192473
 20
10.89948440221752
 10
12.74994548232476
 20
10.90239590501761
 10
12.68477712712476
 20
10.90526197981745
 10
12.60402114432477
 20
10.90715582181752
 10
12.51686205652478
 20
10.90743419321762
 10
12.43314057892476
 20
10.90600427901751
 10
12.3622016833248
 20
10.90335360201749
 10
12.3120186023248
 20
10.90035219481757
 10
12.28831411392477
 20
10.89791092701745
 10
12.29002377032478
 20
10.89750634141757
  0
LINE
  5
1ED
330
2
100
AcDbEntity
  8
GAIKEI
  6
HIDDEN2
 62
     1
100
AcDbLine
 10
13.00484965852476
 20
10.89645289541755
 30
0.0
 11
13.10484965852478
 21
10.99645289541746
 31
0.0
  0
ARC
  5
1EE
330
2
100
AcDbEntity
  8
GAIKEI
  6
HIDDEN2
 62
     1
100
AcDbCircle
 10
7.676849658524758
 20
10.99645289541746
 30
0.0
 40
0.1
100
AcDbArc
 50
180.0
 51
270.0
  0
LINE
  5
1EF
330
2
100
AcDbEntity
  8
GAIKEI
  6
HIDDEN2
 62
     1
100
AcDbLine
 10
7.676849658524758
 20
10.89645289541755
 30
0.0
 11
12.31283387652476
 21
10.89645289541755
 31
0.0
  0
LINE
  5
1F0
330
2
100
AcDbEntity
  8
GAIKEI
  6
HIDDEN2
 62
     1
100
AcDbLine
 10
12.78100760172478
 20
10.89645289541755
 30
0.0
 11
13.00484965852476
 21
10.89645289541755
 31
0.0
  0
LINE
  5
1F1
330
2
100
AcDbEntity
  8
GAIKEI
  6
HIDDEN2
 62
     1
100
AcDbLine
 10
7.488475006524765
 20
11.05645289541763
 30
0.0
 11
7.576849658524764
 21
11.05645289541763
 31
0.0
  0
ARC
  5
1F2
330
2
100
AcDbEntity
  8
GAIKEI
  6
HIDDEN2
 62
     1
100
AcDbCircle
 10
7.388475006524771
 20
10.99645289541746
 30
0.0
 40
0.1
100
AcDbArc
 50
270.0
 51
0.0
  0
LINE
  5
1F3
330
2
100
AcDbEntity
  8
GAIKEI
  6
Continuous
 62
     1
100
AcDbLine
 10
38.02484975389157
 20
18.03139950200727
 30
0.0
 11
23.22484660676656
 21
18.03139947856789
 31
0.0
  0
LINE
  5
1F4
330
2
100
AcDbEntity
  8
GAIKEI
  6
Continuous
100
AcDbLine
 10
23.12484965852457
 20
9.431399383030282
 30
0.0
 11
23.22484660676696
 21
9.433144836254541
 31
0.0
  0
LINE
  5
1F5
330
2
100
AcDbEntity
  8
GAIKEI
  6
Continuous
 62
     1
100
AcDbLine
 10
23.12484965852457
 20
16.93139947839751
 30
0.0
 11
23.12484965852457
 21
9.231399383030293
 31
0.0
  0
LINE
  5
1F6
330
2
100
AcDbEntity
  8
GAIKEI
  6
Continuous
 62
     1
100
AcDbLine
 10
22.22484965852456
 20
16.03139947839747
 30
0.0
 11
22.22484965852456
 21
14.83139947839748
 31
0.0
  0
LINE
  5
1F7
330
2
100
AcDbEntity
  8
GAIKEI
  6
Continuous
 62
     1
100
AcDbLine
 10
22.38484965852459
 20
16.1913994783975
 30
0.0
 11
22.38484965852459
 21
14.67139947839752
 31
0.0
  0
LINE
  5
1F8
330
2
100
AcDbEntity
  8
GAIKEI
  6
Continuous
 62
     1
100
AcDbLine
 10
23.22484660676696
 20
9.231398715458283
 30
0.0
 11
23.22484660676696
 21
17.93139947839751
 31
0.0
  0
LINE
  5
1F9
330
2
100
AcDbEntity
  8
GAIKEI
  6
Continuous
 62
     1
100
AcDbLine
 10
23.92484965852478
 20
17.93139947839751
 30
0.0
 11
23.92484965852478
 21
18.03139947967651
 31
0.0
  0
ARC
  5
1FA
330
2
100
AcDbEntity
  8
GAIKEI
  6
Continuous
 62
     1
100
AcDbCircle
 10
22.14484965852458
 20
14.67139947839752
 30
0.0
 40
0.24
100
AcDbArc
 50
270.0
 51
0.0
  0
ARC
  5
1FB
330
2
100
AcDbEntity
  8
GAIKEI
  6
Continuous
 62
     1
100
AcDbCircle
 10
22.14484965852458
 20
16.1913994783975
 30
0.0
 40
0.24
100
AcDbArc
 50
0.0
 51
90.0
  0
ARC
  5
1FC
330
2
100
AcDbEntity
  8
GAIKEI
  6
Continuous
 62
     1
100
AcDbCircle
 10
22.12484965852457
 20
14.83139947839748
 30
0.0
 40
0.1
100
AcDbArc
 50
270.0
 51
0.0
  0
ARC
  5
1FD
330
2
100
AcDbEntity
  8
GAIKEI
  6
Continuous
 62
     1
100
AcDbCircle
 10
22.12484965852457
 20
16.03139947839747
 30
0.0
 40
0.1
100
AcDbArc
 50
0.0
 51
90.0
  0
LINE
  5
1FE
330
2
100
AcDbEntity
  8
GAIKEI
  6
Continuous
 62
     1
100
AcDbLine
 10
52.16484965852456
 20
18.03139947839747
 30
0.0
 11
52.40484965852477
 21
18.03139947839747
 31
0.0
  0
LINE
  5
1FF
330
2
100
AcDbEntity
  8
GAIKEI
  6
Continuous
 62
     1
100
AcDbLine
 10
52.40484965852477
 20
17.93139947839751
 30
0.0
 11
52.40484965852477
 21
18.03139947839747
 31
0.0
  0
ARC
  5
200
330
2
100
AcDbEntity
  8
GAIKEI
  6
Continuous
100
AcDbCircle
 10
12.65682739162818
 20
21.43140017964993
 30
0.0
 40
39.9999999999998
100
AcDbArc
 50
350.219631561631
 51
354.9801988599826
  0
ARC
  5
201
330
2
100
AcDbEntity
  8
GAIKEI
  6
Continuous
100
AcDbCircle
 10
32.36615060037116
 20
18.0339631083707
 30
0.0
 40
20.0000000000002
100
AcDbArc
 50
334.2482405879132
 51
350.219631561631
  0
ARC
  5
202
330
2
100
AcDbEntity
  8
GAIKEI
  6
Continuous
100
AcDbCircle
 10
50.19971158385018
 20
9.431399383030282
 30
0.0
 40
0.2
100
AcDbArc
 50
270.0
 51
334.2482405878986
  0
LINE
  5
203
330
2
100
AcDbEntity
  8
GAIKEI
  6
Continuous
100
AcDbLine
 10
52.50464620530377
 20
23.83139953064313
 30
0.0
 11
23.22484660676676
 21
23.83139946045469
 31
0.0
  0
DIMENSION
  5
204
330
2
100
AcDbEntity
  8
SUNPO
100
AcDbDimension
  2
*D5
 10
52.70464580417777
 20
33.82469900214528
 30
0.0
 11
32.95474773135126
 21
35.57469900214528
 31
0.0
 70
    33
  1
197.5
 71
     5
 42
39.49979614565302
  3
STANDARD
100
AcDbAlignedDimension
 13
13.20484965852475
 23
25.82469900214528
 33
0.0
 14
52.70464580417777
 24
25.82469900214528
 34
0.0
1001
ACAD
1000
DSTYLE
1002
{
1070
   287
1070
     3
1070
   287
1070
     3
1070
    40
1040
1.0
1070
   140
1040
2.5
1070
   147
1040
0.5
1070
   172
1070
     1
1070
   279
1070
     0
1070
   288
1070
     0
1070
   341
1005
0
1002
}
  0
LINE
  5
211
330
2
100
AcDbEntity
  8
GAIKEI
  6
Continuous
100
AcDbLine
 10
-25.44460526370816
 20
23.83139946698088
 30
0.0
 11
-37.04460526370815
 21
23.83139946698088
 31
0.0
  0
LINE
  5
212
330
2
100
AcDbEntity
  8
GAIKEI
  6
Continuous
100
AcDbLine
 10
-26.77933003358873
 20
25.83139946698088
 30
0.0
 11
-35.70988049382777
 21
25.83139946698088
 31
0.0
  0
LINE
  5
213
330
2
100
AcDbEntity
  8
GAIKEI
  6
Continuous
100
AcDbLine
 10
-25.44460526370816
 20
24.03139946698093
 30
0.0
 11
-37.04460526370815
 21
24.03139946698093
 31
0.0
  0
LINE
  5
214
330
2
100
AcDbEntity
  8
GAIKEI
  6
Continuous
 62
     1
100
AcDbLine
 10
-37.38934271295998
 20
23.6599907408027
 30
0.0
 11
-25.09986781445633
 21
23.6599907408027
 31
0.0
  0
LINE
  5
215
330
2
100
AcDbEntity
  8
GAIKEI
  6
Continuous
100
AcDbLine
 10
-37.73589587673536
 20
23.83139947839749
 30
0.0
 11
-31.24460526370837
 21
23.83139947839749
 31
0.0
  0
DIMENSION
  5
216
330
2
100
AcDbEntity
  8
SUNPO
100
AcDbDimension
  2
*D4
 10
-22.84460526370953
 20
33.82469900214528
 30
0.0
 11
-31.24460526370824
 21
35.57469900214528
 31
0.0
 70
    33
  1
84
 71
     5
 42
16.79999999999742
  3
STANDARD
100
AcDbAlignedDimension
 13
-39.64460526370695
 23
25.82469900214528
 33
0.0
 14
-22.84460526370953
 24
25.82469900214528
 34
0.0
1001
ACAD
1000
DSTYLE
1002
{
1070
   287
1070
     3
1070
   287
1070
     3
1070
    40
1040
1.0
1070
   140
1040
2.5
1070
   147
1040
0.5
1070
   172
1070
     1
1070
   279
1070
     0
1070
   288
1070
     0
1070
   341
1005
0
1002
}
  0
LINE
  5
223
330
2
100
AcDbEntity
  8
GAIKEI
  6
Continuous
100
AcDbLine
 10
-37.04460526370815
 20
24.03139946698093
 30
0.0
 11
-37.04460526370815
 21
23.83139946698088
 31
0.0
  0
LINE
  5
224
330
2
100
AcDbEntity
  8
GAIKEI
  6
Continuous
100
AcDbLine
 10
-35.70988049382777
 20
25.83139946698088
 30
0.0
 11
-35.74460526370814
 21
25.83139946698088
 31
0.0
  0
LINE
  5
225
330
2
100
AcDbEntity
  8
GAIKEI
  6
Continuous
100
AcDbLine
 10
-37.84460526370836
 20
23.6599907408027
 30
0.0
 11
-37.84460336214477
 21
23.6599907408027
 31
0.0
  0
ARC
  5
226
330
2
100
AcDbEntity
  8
GAIKEI
  6
Continuous
100
AcDbCircle
 10
-33.27928618185735
 20
22.6814467967551
 30
0.0
 40
4.0
100
AcDbArc
 50
128.5523412632429
 51
160.2760866465116
  0
ARC
  5
227
330
2
100
AcDbEntity
  8
GAIKEI
  6
Continuous
100
AcDbCircle
 10
-33.27928618185735
 20
22.6814467967551
 30
0.0
 40
4.0
100
AcDbArc
 50
128.0486074449316
 51
128.5523412632429
  0
ARC
  5
228
330
2
100
AcDbEntity
  8
GAIKEI
  6
Continuous
 62
     1
100
AcDbCircle
 10
-33.93196493041177
 20
20.80952105825634
 30
0.0
 40
4.680689998053799
100
AcDbArc
 50
145.7904993465408
 51
159.9580041572344
  0
ARC
  5
229
330
2
100
AcDbEntity
  8
GAIKEI
  6
Continuous
100
AcDbCircle
 10
-35.46243195975856
 20
21.22394560744232
 30
0.0
 40
3.6
100
AcDbArc
 50
137.1701220195172
 51
160.7027427004915
  0
ARC
  5
22A
330
2
100
AcDbEntity
  8
GAIKEI
  6
Continuous
100
AcDbCircle
 10
-35.70988049382777
 20
25.73139946698092
 30
0.0
 40
0.1
100
AcDbArc
 50
90.0
 51
128.5523412632371
  0
ARC
  5
22B
330
2
100
AcDbEntity
  8
GAIKEI
  6
Continuous
 62
     1
100
AcDbCircle
 10
-37.38934271295998
 20
23.1599907408027
 30
0.0
 40
0.5
100
AcDbArc
 50
90.0
 51
145.7904993465525
  0
ARC
  5
22C
330
2
100
AcDbEntity
  8
GAIKEI
  6
Continuous
100
AcDbCircle
 10
-37.73589587673536
 20
23.33139947839748
 30
0.0
 40
0.5
100
AcDbArc
 50
90.0
 51
137.1701220195264
  0
ARC
  5
22D
330
2
100
AcDbEntity
  8
GAIKEI
  6
HIDDEN2
 62
     1
100
AcDbCircle
 10
-31.33989518514167
 20
16.93694288140295
 30
0.0
 40
4.389999999999999
100
AcDbArc
 50
116.0815169690054
 51
123.9184830309941
  0
ARC
  5
22E
330
2
100
AcDbEntity
  8
GAIKEI
  6
HIDDEN2
 62
     1
100
AcDbCircle
 10
-31.33989518514167
 20
16.93694288140295
 30
0.0
 40
4.549999999999999
100
AcDbArc
 50
122.5193075209992
 51
123.7804862380087
  0
ARC
  5
22F
330
2
100
AcDbEntity
  8
GAIKEI
  6
HIDDEN2
 62
     1
100
AcDbCircle
 10
-31.33989518514167
 20
16.93694288140295
 30
0.0
 40
4.549999999999999
100
AcDbArc
 50
116.2195137620021
 51
117.4806924790043
  0
LINE
  5
230
330
2
100
AcDbEntity
  8
GAIKEI
  6
HIDDEN2
 62
     1
100
AcDbLine
 10
-33.87977407714169
 20
20.73614216740293
 30
0.0
 11
-33.77954803014168
 21
20.56254556160297
 31
0.0
  0
ARC
  5
231
330
2
100
AcDbEntity
  8
GAIKEI
  6
HIDDEN2
 62
     1
100
AcDbCircle
 10
-31.33989518514167
 20
16.93694288140295
 30
0.0
 40
4.57
100
AcDbArc
 50
116.2360824540044
 51
123.7639175460012
  0
LINE
  5
232
330
2
100
AcDbEntity
  8
GAIKEI
  6
HIDDEN2
 62
     1
100
AcDbLine
 10
-33.25993278774166
 20
20.86254556160293
 30
0.0
 11
-33.36015883474167
 21
21.03614216740289
 31
0.0
  0
ARC
  5
233
330
2
100
AcDbEntity
  8
GAIKEI
  6
HIDDEN2
 62
     1
100
AcDbCircle
 10
-31.33989518514167
 20
16.93694288140295
 30
0.0
 40
4.5
100
AcDbArc
 50
116.1769464760043
 51
123.8244355550066
  0
LINE
  5
234
330
2
100
AcDbEntity
  8
GAIKEI
  6
HIDDEN2
 62
     1
100
AcDbLine
 10
-33.79591103334167
 20
20.79088711460281
 30
0.0
 11
-33.77810024894169
 21
20.7600379310029
 31
0.0
  0
LINE
  5
235
330
2
100
AcDbEntity
  8
GAIKEI
  6
HIDDEN2
 62
     1
100
AcDbLine
 10
-33.44950087174169
 20
20.99088711460286
 30
0.0
 11
-33.43169008734168
 21
20.96003793100294
 31
0.0
  0
LINE
  5
236
330
2
100
AcDbEntity
  8
GAIKEI
  6
HIDDEN2
 62
     1
100
AcDbLine
 10
-33.77810024894169
 20
20.7600379310029
 30
0.0
 11
-33.76588187974167
 21
20.73887509500287
 31
0.0
  0
LINE
  5
237
330
2
100
AcDbEntity
  8
GAIKEI
  6
HIDDEN2
 62
     1
100
AcDbLine
 10
-33.43169008734168
 20
20.96003793100294
 30
0.0
 11
-33.41947171834167
 21
20.93887509500291
 31
0.0
  0
LINE
  5
238
330
2
100
AcDbEntity
  8
GAIKEI
  6
HIDDEN2
 62
     1
100
AcDbLine
 10
-33.43169008734168
 20
20.96003793100294
 30
0.0
 11
-33.77810024894169
 21
20.7600379310029
 31
0.0
  0
ARC
  5
239
330
2
100
AcDbEntity
  8
GAIKEI
  6
HIDDEN2
 62
     1
100
AcDbCircle
 10
-31.33989518514167
 20
16.93694288140295
 30
0.0
 40
4.51
100
AcDbArc
 50
116.1855843250061
 51
123.8152682140036
  0
ARC
  5
23A
330
2
100
AcDbEntity
  8
GAIKEI
  6
HIDDEN2
 62
     1
100
AcDbCircle
 10
-34.29954862694169
 20
19.90029639960289
 30
0.0
 40
0.03
100
AcDbArc
 50
314.9999999999954
 51
134.9999999999954
  0
LINE
  5
23B
330
2
100
AcDbEntity
  8
GAIKEI
  6
HIDDEN2
 62
     1
100
AcDbLine
 10
-34.27833542354168
 20
19.87908319620283
 30
0.0
 11
-34.25712221994166
 21
19.85786999280299
 31
0.0
  0
LINE
  5
23C
330
2
100
AcDbEntity
  8
GAIKEI
  6
HIDDEN2
 62
     1
100
AcDbLine
 10
-34.34197503374168
 20
19.94272280660289
 30
0.0
 11
-34.32076183034167
 21
19.92150960300296
 31
0.0
  0
ARC
  5
23D
330
2
100
AcDbEntity
  8
GAIKEI
  6
HIDDEN2
 62
     1
100
AcDbCircle
 10
-34.29954862694169
 20
19.90029639960289
 30
0.0
 40
0.06
100
AcDbArc
 50
314.9999999999954
 51
134.9999999999954
  0
ARC
  5
23E
330
2
100
AcDbEntity
  8
GAIKEI
  6
HIDDEN2
 62
     1
100
AcDbCircle
 10
-38.51120966094169
 20
21.31111493400295
 30
0.0
 40
2.4
100
AcDbArc
 50
299.3984234640032
 51
328.5949318249952
  0
LINE
  5
23F
330
2
100
AcDbEntity
  8
GAIKEI
  6
HIDDEN2
 62
     1
100
AcDbLine
 10
-33.90004974194167
 20
22.36126482640293
 30
0.0
 11
-34.29040515554169
 21
23.03738023460278
 31
0.0
  0
LINE
  5
240
330
2
100
AcDbEntity
  8
GAIKEI
  6
HIDDEN2
 62
     1
100
AcDbLine
 10
-34.76277965814168
 20
21.86316747840283
 30
0.0
 11
-35.15313507134167
 21
22.53928288560292
 31
0.0
  0
LINE
  5
241
330
2
100
AcDbEntity
  8
GAIKEI
  6
HIDDEN2
 62
     1
100
AcDbLine
 10
-33.90521621314167
 20
22.35882647180301
 30
0.0
 11
-34.29533584754168
 21
23.03453349840288
 31
0.0
  0
LINE
  5
242
330
2
100
AcDbEntity
  8
GAIKEI
  6
HIDDEN2
 62
     1
100
AcDbLine
 10
-34.73945666134168
 20
21.87927294020278
 30
0.0
 11
-35.12866895414169
 21
22.5534084048029
 31
0.0
  0
LINE
  5
243
330
2
100
AcDbEntity
  8
GAIKEI
  6
HIDDEN2
 62
     1
100
AcDbLine
 10
-33.94075890714169
 20
22.34188825800288
 30
0.0
 11
-34.32932732994169
 21
23.01490850680284
 31
0.0
  0
LINE
  5
244
330
2
100
AcDbEntity
  8
GAIKEI
  6
HIDDEN2
 62
     1
100
AcDbLine
 10
-34.69459514754169
 20
21.90979768580291
 30
0.0
 11
-35.09746043074168
 21
22.60758082340294
 31
0.0
  0
LINE
  5
245
330
2
100
AcDbEntity
  8
GAIKEI
  6
HIDDEN2
 62
     1
100
AcDbLine
 10
-33.99292236114167
 20
22.31650777340292
 30
0.0
 11
-34.39509520674167
 21
23.01309157440278
 31
0.0
  0
LINE
  5
246
330
2
100
AcDbEntity
  8
GAIKEI
  6
HIDDEN2
 62
     1
100
AcDbLine
 10
-34.68947550314169
 20
21.91324361140301
 30
0.0
 11
-35.07647335334167
 21
22.5835435490028
 31
0.0
  0
LINE
  5
247
330
2
100
AcDbEntity
  8
GAIKEI
  6
HIDDEN2
 62
     1
100
AcDbLine
 10
-34.00394414734169
 20
22.31106496020288
 30
0.0
 11
-34.39006313934169
 21
22.97984267080301
 31
0.0
  0
LINE
  5
248
330
2
100
AcDbEntity
  8
GAIKEI
  6
HIDDEN2
 62
     1
100
AcDbLine
 10
-34.63604937414169
 20
21.94875048800282
 30
0.0
 11
-35.03668404234168
 21
22.64267008740285
 31
0.0
  0
LINE
  5
249
330
2
100
AcDbEntity
  8
GAIKEI
  6
HIDDEN2
 62
     1
100
AcDbLine
 10
-34.06336951854167
 20
22.28123244880294
 30
0.0
 11
-34.46320523854166
 21
22.97376822920274
 31
0.0
  0
LINE
  5
24A
330
2
100
AcDbEntity
  8
GAIKEI
  6
HIDDEN2
 62
     1
100
AcDbLine
 10
-34.61579830534168
 20
21.9619953956028
 30
0.0
 11
-35.00010531314169
 21
22.62763465760281
 31
0.0
  0
LINE
  5
24B
330
2
100
AcDbEntity
  8
GAIKEI
  6
HIDDEN2
 62
     1
100
AcDbLine
 10
-34.08997529234168
 20
22.26760726740281
 30
0.0
 11
-34.47340423094167
 21
22.9317256692027
 31
0.0
  0
LINE
  5
24C
330
2
100
AcDbEntity
  8
GAIKEI
  6
HIDDEN2
 62
     1
100
AcDbLine
 10
-34.55721492534167
 20
21.99966016900294
 30
0.0
 11
-34.95551366734168
 21
22.68953382540281
 31
0.0
  0
LINE
  5
24D
330
2
100
AcDbEntity
  8
GAIKEI
  6
HIDDEN2
 62
     1
100
AcDbLine
 10
-34.15239555714169
 20
22.23497942040285
 30
0.0
 11
-34.55000291634167
 21
22.92365556660275
 31
0.0
  0
LINE
  5
24E
330
2
100
AcDbEntity
  8
GAIKEI
  6
HIDDEN2
 62
     1
100
AcDbLine
 10
-34.52290812994167
 20
22.02127424060291
 30
0.0
 11
-34.90476918874168
 21
22.68267699460285
 31
0.0
  0
LINE
  5
24F
330
2
100
AcDbEntity
  8
GAIKEI
  6
HIDDEN2
 62
     1
100
AcDbLine
 10
-34.46299796054169
 20
22.05824970040294
 30
0.0
 11
-34.85948093234168
 21
22.74497835080297
 31
0.0
  0
LINE
  5
250
330
2
100
AcDbEntity
  8
GAIKEI
  6
HIDDEN2
 62
     1
100
AcDbLine
 10
-34.19245228034168
 20
22.21354632440284
 30
0.0
 11
-34.57367104714169
 21
22.87383659600278
 31
0.0
  0
LINE
  5
251
330
2
100
AcDbEntity
  8
GAIKEI
  6
HIDDEN2
 62
     1
100
AcDbLine
 10
-34.25348909754169
 20
22.1801310294029
 30
0.0
 11
-34.64957312154167
 21
22.86616868180295
 31
0.0
  0
LINE
  5
252
330
2
100
AcDbEntity
  8
GAIKEI
  6
HIDDEN2
 62
     1
100
AcDbLine
 10
-34.30395144194168
 20
22.15180413660278
 30
0.0
 11
-34.68403056974168
 21
22.81012049580295
 31
0.0
  0
LINE
  5
253
330
2
100
AcDbEntity
  8
GAIKEI
  6
HIDDEN2
 62
     1
100
AcDbLine
 10
-34.41664786214167
 20
22.08619614200279
 30
0.0
 11
-34.79696197994167
 21
22.74491951560299
 31
0.0
  0
LINE
  5
254
330
2
100
AcDbEntity
  8
GAIKEI
  6
HIDDEN2
 62
     1
100
AcDbLine
 10
-34.35945767974167
 20
22.11990011420289
 30
0.0
 11
-34.75513030954167
 21
22.80522521080297
 31
0.0
  0
LINE
  5
255
330
2
100
AcDbEntity
  8
GAIKEI
  6
S10
 62
     1
100
AcDbLine
 10
-34.35031440714167
 20
23.03894578120276
 30
0.0
 11
-34.32932732994169
 21
23.01490850680284
 31
0.0
  0
LWPOLYLINE
  5
256
330
2
100
AcDbEntity
  8
GAIKEI
  6
S10
 62
     1
100
AcDbPolyline
 90
        3
 70
     0
 43
0.0
 10
-34.29533584754168
 20
23.03453349840288
 10
-34.33378260794169
 20
23.03835858660272
 10
-34.35031440714167
 20
23.03894578120276
  0
LINE
  5
257
330
2
100
AcDbEntity
  8
GAIKEI
  6
S10
 62
     1
100
AcDbLine
 10
-34.33191457674167
 20
23.04956892820292
 30
0.0
 11
-34.29533584754168
 21
23.03453349840288
 31
0.0
  0
LINE
  5
258
330
2
100
AcDbEntity
  8
GAIKEI
  6
S10
 62
     1
100
AcDbLine
 10
-34.31866618094168
 20
23.04567871160293
 30
0.0
 11
-34.33191457674167
 21
23.04956892820292
 31
0.0
  0
LINE
  5
259
330
2
100
AcDbEntity
  8
GAIKEI
  6
HIDDEN2
 62
     1
100
AcDbLine
 10
-35.15313507134167
 20
22.53928288560292
 30
0.0
 11
-35.14619125054168
 21
22.56790689000286
 31
0.0
  0
LINE
  5
25A
330
2
100
AcDbEntity
  8
GAIKEI
  6
HIDDEN2
 62
     1
100
AcDbLine
 10
-35.13370102154167
 20
22.58665730840289
 30
0.0
 11
-35.15313507134167
 21
22.53928288560292
 31
0.0
  0
LINE
  5
25B
330
2
100
AcDbEntity
  8
GAIKEI
  6
HIDDEN2
 62
     1
100
AcDbLine
 10
-35.12866895414169
 20
22.5534084048029
 30
0.0
 11
-35.13370102154167
 21
22.58665730840289
 31
0.0
  0
LWPOLYLINE
  5
25C
330
2
100
AcDbEntity
  8
GAIKEI
  6
HIDDEN2
 62
     1
100
AcDbPolyline
 90
        4
 70
     0
 43
0.0
 10
-35.09746043074168
 20
22.60758082340294
 10
-35.10197090334168
 20
22.60061832680299
 10
-35.12060295634169
 20
22.56880922940286
 10
-35.12866895414169
 20
22.5534084048029
  0
LINE
  5
25D
330
2
100
AcDbEntity
  8
GAIKEI
  6
S10
 62
     1
100
AcDbLine
 10
-35.07647335334167
 20
22.5835435490028
 30
0.0
 11
-35.09746043074168
 21
22.60758082340294
 31
0.0
  0
LINE
  5
25E
330
2
100
AcDbEntity
  8
GAIKEI
  6
S10
 62
     1
100
AcDbLine
 10
-35.03668404234168
 20
22.64267008740285
 30
0.0
 11
-35.07647335334167
 21
22.5835435490028
 31
0.0
  0
LINE
  5
25F
330
2
100
AcDbEntity
  8
GAIKEI
  6
S10
 62
     1
100
AcDbLine
 10
-35.00010531314169
 20
22.62763465760281
 30
0.0
 11
-35.03668404234168
 21
22.64267008740285
 31
0.0
  0
LINE
  5
260
330
2
100
AcDbEntity
  8
GAIKEI
  6
S10
 62
     1
100
AcDbLine
 10
-34.95551366734168
 20
22.68953382540281
 30
0.0
 11
-35.00010531314169
 21
22.62763465760281
 31
0.0
  0
LINE
  5
261
330
2
100
AcDbEntity
  8
GAIKEI
  6
S10
 62
     1
100
AcDbLine
 10
-34.90476918874168
 20
22.68267699460285
 30
0.0
 11
-34.95551366734168
 21
22.68953382540281
 31
0.0
  0
LINE
  5
262
330
2
100
AcDbEntity
  8
GAIKEI
  6
S10
 62
     1
100
AcDbLine
 10
-34.85948093234168
 20
22.74497835080297
 30
0.0
 11
-34.90476918874168
 21
22.68267699460285
 31
0.0
  0
LWPOLYLINE
  5
263
330
2
100
AcDbEntity
  8
GAIKEI
  6
S10
 62
     1
100
AcDbPolyline
 90
        3
 70
     0
 43
0.0
 10
-34.79696197994167
 20
22.74491951560299
 10
-34.84062036514169
 20
22.74573567120274
 10
-34.85948093234168
 20
22.74497835080297
  0
LINE
  5
264
330
2
100
AcDbEntity
  8
GAIKEI
  6
S10
 62
     1
100
AcDbLine
 10
-34.75513030954167
 20
22.80522521080297
 30
0.0
 11
-34.79696197994167
 21
22.74491951560299
 31
0.0
  0
LINE
  5
265
330
2
100
AcDbEntity
  8
GAIKEI
  6
S10
 62
     1
100
AcDbLine
 10
-34.68403056974168
 20
22.81012049580295
 30
0.0
 11
-34.75513030954167
 21
22.80522521080297
 31
0.0
  0
LINE
  5
266
330
2
100
AcDbEntity
  8
GAIKEI
  6
S10
 62
     1
100
AcDbLine
 10
-34.64957312154167
 20
22.86616868180295
 30
0.0
 11
-34.68403056974168
 21
22.81012049580295
 31
0.0
  0
LINE
  5
267
330
2
100
AcDbEntity
  8
GAIKEI
  6
S10
 62
     1
100
AcDbLine
 10
-34.57367104714169
 20
22.87383659600278
 30
0.0
 11
-34.64957312154167
 21
22.86616868180295
 31
0.0
  0
LWPOLYLINE
  5
268
330
2
100
AcDbEntity
  8
GAIKEI
  6
S10
 62
     1
100
AcDbPolyline
 90
        4
 70
     0
 43
0.0
 10
-34.55000291634167
 20
22.92365556660275
 10
-34.55348399614166
 20
22.91728739040286
 10
-34.56765142054166
 20
22.88805594740302
 10
-34.57367104714169
 20
22.87383659600278
  0
LINE
  5
269
330
2
100
AcDbEntity
  8
GAIKEI
  6
S10
 62
     1
100
AcDbLine
 10
-34.47340423094167
 20
22.9317256692027
 30
0.0
 11
-34.55000291634167
 21
22.92365556660275
 31
0.0
  0
LINE
  5
26A
330
2
100
AcDbEntity
  8
GAIKEI
  6
S10
 62
     1
100
AcDbLine
 10
-34.46320523854166
 20
22.97376822920274
 30
0.0
 11
-34.47340423094167
 21
22.9317256692027
 31
0.0
  0
LINE
  5
26B
330
2
100
AcDbEntity
  8
GAIKEI
  6
S10
 62
     1
100
AcDbLine
 10
-34.39006313934169
 20
22.97984267080301
 30
0.0
 11
-34.46320523854166
 21
22.97376822920274
 31
0.0
  0
LINE
  5
26C
330
2
100
AcDbEntity
  8
GAIKEI
  6
S10
 62
     1
100
AcDbLine
 10
-34.39509520674167
 20
23.01309157440278
 30
0.0
 11
-34.39006313934169
 21
22.97984267080301
 31
0.0
  0
LINE
  5
26D
330
2
100
AcDbEntity
  8
GAIKEI
  6
S10
 62
     1
100
AcDbLine
 10
-34.32932732994169
 20
23.01490850680284
 30
0.0
 11
-34.39509520674167
 21
23.01309157440278
 31
0.0
  0
LINE
  5
26E
330
2
100
AcDbEntity
  8
GAIKEI
  6
S10
 62
     1
100
AcDbLine
 10
-35.11818027494167
 20
22.67493410040288
 30
0.0
 11
-34.99443827314167
 21
22.74637657860285
 31
0.0
  0
LINE
  5
26F
330
2
100
AcDbEntity
  8
GAIKEI
  6
S10
 62
     1
100
AcDbLine
 10
-34.99443827314167
 20
22.74637657860285
 30
0.0
 11
-34.42535995194169
 21
23.07493410040297
 31
0.0
  0
LINE
  5
270
330
2
100
AcDbEntity
  8
GAIKEI
  6
HIDDEN2
 62
     1
100
AcDbLine
 10
-35.11818027494167
 20
22.67493410040288
 30
0.0
 11
-35.14681345714169
 21
22.56807360980292
 31
0.0
  0
LINE
  5
271
330
2
100
AcDbEntity
  8
GAIKEI
  6
S10
 62
     1
100
AcDbLine
 10
-34.31849946114167
 20
23.04630091820286
 30
0.0
 11
-34.42535995194169
 21
23.07493410040297
 31
0.0
  0
LINE
  5
272
330
2
100
AcDbEntity
  8
GAIKEI
  6
Phantom
100
AcDbLine
 10
-31.69633553739658
 20
24.6313994669809
 30
0.0
 11
-31.79460526370815
 21
24.6313994669809
 31
0.0
  0
LINE
  5
274
330
2
100
AcDbEntity
  8
GAIKEI
  6
Phantom
100
AcDbLine
 10
-30.69460526370816
 20
24.6313994669809
 30
0.0
 11
-30.79287499001976
 21
24.6313994669809
 31
0.0
  0
LINE
  5
275
330
2
100
AcDbEntity
  8
GAIKEI
  6
Phantom
100
AcDbLine
 10
-30.69460526370816
 20
24.72965422633729
 30
0.0
 11
-30.69460526370816
 21
24.6313994669809
 31
0.0
  0
LINE
  5
276
330
2
100
AcDbEntity
  8
GAIKEI
  6
Phantom
100
AcDbLine
 10
-31.79460526370815
 20
24.72965422633729
 30
0.0
 11
-31.79460526370815
 21
24.6313994669809
 31
0.0
  0
LINE
  5
277
330
2
100
AcDbEntity
  8
GAIKEI
  6
Continuous
100
AcDbLine
 10
-30.69460526370816
 20
25.83139946698088
 30
0.0
 11
-30.69460526370816
 21
24.73139946698092
 31
0.0
  0
LINE
  5
278
330
2
100
AcDbEntity
  8
GAIKEI
  6
Continuous
100
AcDbLine
 10
-31.79460526370815
 20
25.83139946698088
 30
0.0
 11
-31.79460526370815
 21
24.73139946698092
 31
0.0
  0
LINE
  5
279
330
2
100
AcDbEntity
  8
GAIKEI
  6
Continuous
100
AcDbLine
 10
-30.79460526370815
 20
24.6313994669809
 30
0.0
 11
-31.69460526370816
 21
24.6313994669809
 31
0.0
  0
LINE
  5
27A
330
2
100
AcDbEntity
  8
GAIKEI
  6
Continuous
100
AcDbLine
 10
-25.44460526370816
 20
23.83139946698088
 30
0.0
 11
-25.44460526370816
 21
24.03139946698093
 31
0.0
  0
LINE
  5
27B
330
2
100
AcDbEntity
  8
GAIKEI
  6
Continuous
100
AcDbLine
 10
-31.24460526370837
 20
23.83139947839749
 30
0.0
 11
-24.75331465068115
 21
23.83139947839749
 31
0.0
  0
ARC
  5
27C
330
2
100
AcDbEntity
  8
GAIKEI
  6
Continuous
100
AcDbCircle
 10
-29.20992434555916
 20
22.6814467967551
 30
0.0
 40
4.0
100
AcDbArc
 50
19.72391335348841
 51
51.44765873675704
  0
ARC
  5
27D
330
2
100
AcDbEntity
  8
GAIKEI
  6
Continuous
100
AcDbCircle
 10
-27.02677856765797
 20
21.22394560744232
 30
0.0
 40
3.5999999999998
100
AcDbArc
 50
19.29725729950845
 51
42.82987798048278
  0
ARC
  5
27E
330
2
100
AcDbEntity
  8
GAIKEI
  6
Continuous
 62
     1
100
AcDbCircle
 10
-28.55724559700454
 20
20.80952105825634
 30
0.0
 40
4.680689998054
100
AcDbArc
 50
20.04199584276559
 51
34.20950065345919
  0
ARC
  5
27F
330
2
100
AcDbEntity
  8
GAIKEI
  6
Continuous
100
AcDbCircle
 10
-31.69460526370816
 20
24.73139946698092
 30
0.0
 40
0.1
100
AcDbArc
 50
180.0
 51
270.0
  0
ARC
  5
280
330
2
100
AcDbEntity
  8
GAIKEI
  6
Continuous
100
AcDbCircle
 10
-30.79460526370815
 20
24.73139946698092
 30
0.0
 40
0.1
100
AcDbArc
 50
270.0
 51
0.0
  0
ARC
  5
281
330
2
100
AcDbEntity
  8
GAIKEI
  6
Continuous
100
AcDbCircle
 10
-26.77933003358873
 20
25.73139946698092
 30
0.0
 40
0.1
100
AcDbArc
 50
51.44765873675704
 51
90.0
  0
ARC
  5
282
330
2
100
AcDbEntity
  8
GAIKEI
  6
Continuous
 62
     1
100
AcDbCircle
 10
-25.09986781445633
 20
23.1599907408027
 30
0.0
 40
0.4999999999998
100
AcDbArc
 50
34.20950065345558
 51
90.0
  0
ARC
  5
283
330
2
100
AcDbEntity
  8
GAIKEI
  6
Continuous
100
AcDbCircle
 10
-24.75331465068115
 20
23.33139947839748
 30
0.0
 40
0.5
100
AcDbArc
 50
42.82987798048738
 51
90.0
  0
ARC
  5
284
330
2
100
AcDbEntity
  8
GAIKEI
  6
HIDDEN2
 62
     1
100
AcDbCircle
 10
-28.37031034574167
 20
19.90075304020274
 30
0.0
 40
0.06
100
AcDbArc
 50
45.0000000000046
 51
225.0000000000046
  0
ARC
  5
285
330
2
100
AcDbEntity
  8
GAIKEI
  6
HIDDEN2
 62
     1
100
AcDbCircle
 10
-28.37031034574167
 20
19.90075304020274
 30
0.0
 40
0.03
100
AcDbArc
 50
45.0000000000046
 51
225.0000000000046
  0
LINE
  5
286
330
2
100
AcDbEntity
  8
GAIKEI
  6
HIDDEN2
 62
     1
100
AcDbLine
 10
-28.39152354914168
 20
19.8795398368029
 30
0.0
 11
-28.41273675254166
 21
19.85832663340284
 31
0.0
  0
LINE
  5
287
330
2
100
AcDbEntity
  8
GAIKEI
  6
HIDDEN2
 62
     1
100
AcDbLine
 10
-28.32788393874168
 20
19.94317944700287
 30
0.0
 11
-28.34909714234169
 21
19.92196624360281
 31
0.0
  0
ARC
  5
288
330
2
100
AcDbEntity
  8
GAIKEI
  6
HIDDEN2
 62
     1
100
AcDbCircle
 10
-30.24802131774169
 20
20.98454554820296
 30
0.0
 40
0.03
100
AcDbArc
 50
254.9999999999973
 51
74.99999999999727
  0
LINE
  5
289
330
2
100
AcDbEntity
  8
GAIKEI
  6
HIDDEN2
 62
     1
100
AcDbLine
 10
-30.25578588894169
 20
20.95556777340289
 30
0.0
 11
-30.26355046034169
 21
20.92658999860282
 31
0.0
  0
ARC
  5
28A
330
2
100
AcDbEntity
  8
GAIKEI
  6
HIDDEN2
 62
     1
100
AcDbCircle
 10
-31.33506130714167
 20
16.9276570778029
 30
0.0
 40
4.17
100
AcDbArc
 50
74.99999999999727
 51
105.0000000000027
  0
ARC
  5
28B
330
2
100
AcDbEntity
  8
GAIKEI
  6
HIDDEN2
 62
     1
100
AcDbCircle
 10
-31.33506130714167
 20
16.9276570778029
 30
0.0
 40
4.229999999999999
100
AcDbArc
 50
74.99999999999727
 51
105.0000000000027
  0
LINE
  5
28C
330
2
100
AcDbEntity
  8
GAIKEI
  6
HIDDEN2
 62
     1
100
AcDbLine
 10
-30.23249217494168
 20
21.04250109780287
 30
0.0
 11
-30.24025674634169
 21
21.0135233230028
 31
0.0
  0
LINE
  5
28D
330
2
100
AcDbEntity
  8
GAIKEI
  6
HIDDEN2
 62
     1
100
AcDbLine
 10
-32.43763043914169
 20
21.04250109780287
 30
0.0
 11
-32.42986586794169
 21
21.0135233230028
 31
0.0
  0
LINE
  5
28E
330
2
100
AcDbEntity
  8
GAIKEI
  6
HIDDEN2
 62
     1
100
AcDbLine
 10
-32.41433672514168
 20
20.95556777340289
 30
0.0
 11
-32.40657215374168
 21
20.92658999860282
 31
0.0
  0
ARC
  5
28F
330
2
100
AcDbEntity
  8
GAIKEI
  6
HIDDEN2
 62
     1
100
AcDbCircle
 10
-32.42210129654168
 20
20.98454554820296
 30
0.0
 40
0.03
100
AcDbArc
 50
105.0000000000027
 51
285.0000000000027
  0
ARC
  5
290
330
2
100
AcDbEntity
  8
GAIKEI
  6
HIDDEN2
 62
     1
100
AcDbCircle
 10
-31.33506130714167
 20
16.9276570778029
 30
0.0
 40
4.26
100
AcDbArc
 50
74.99999999999727
 51
105.0000000000027
  0
ARC
  5
291
330
2
100
AcDbEntity
  8
GAIKEI
  6
HIDDEN2
 62
     1
100
AcDbCircle
 10
-30.24802131774169
 20
20.98454554820296
 30
0.0
 40
0.06
100
AcDbArc
 50
254.9999999999973
 51
74.99999999999727
  0
ARC
  5
292
330
2
100
AcDbEntity
  8
GAIKEI
  6
HIDDEN2
 62
     1
100
AcDbCircle
 10
-31.33506130714167
 20
16.9276570778029
 30
0.0
 40
4.139999999999999
100
AcDbArc
 50
74.99999999999727
 51
105.0000000000027
  0
ARC
  5
293
330
2
100
AcDbEntity
  8
GAIKEI
  6
HIDDEN2
 62
     1
100
AcDbCircle
 10
-32.42210129654168
 20
20.98454554820296
 30
0.0
 40
0.06
100
AcDbArc
 50
105.0000000000027
 51
285.0000000000027
  0
LINE
  5
294
330
2
100
AcDbEntity
  8
GAIKEI
  6
Continuous
100
AcDbLine
 10
13.69786869594978
 20
23.66685091361887
 30
0.0
 11
23.12484965852457
 21
23.83139947839749
 31
0.0
  0
LINE
  5
295
330
2
100
AcDbEntity
  8
GAIKEI
  6
HIDDEN2
 62
     1
100
AcDbLine
 10
7.388475006524771
 20
22.89645289541756
 30
0.0
 11
1.808475006524759
 21
22.89645289541756
 31
0.0
  0
LINE
  5
296
330
2
100
AcDbEntity
  8
GAIKEI
  6
HIDDEN2
 62
     1
100
AcDbLine
 10
1.808475006524759
 20
22.89645289541756
 30
0.0
 11
1.668475006524772
 21
22.75645289541746
 31
0.0
  0
LINE
  5
297
330
2
100
AcDbEntity
  8
GAIKEI
  6
HIDDEN2
 62
     1
100
AcDbLine
 10
1.608460467524764
 20
22.55645289541764
 30
0.0
 11
1.50846046752477
 21
22.4564528954175
 31
0.0
  0
LINE
  5
298
330
2
100
AcDbEntity
  8
GAIKEI
  6
HIDDEN2
 62
     1
100
AcDbLine
 10
1.668475006524772
 20
22.55645289541764
 30
0.0
 11
1.608460467524764
 21
22.55645289541764
 31
0.0
  0
LINE
  5
299
330
2
100
AcDbEntity
  8
GAIKEI
  6
HIDDEN2
 62
     1
100
AcDbLine
 10
13.20484965852475
 20
20.53139947839747
 30
0.0
 11
13.30484965852477
 21
20.53139947839747
 31
0.0
  0
LINE
  5
29A
330
2
100
AcDbEntity
  8
GAIKEI
  6
HIDDEN2
 62
     1
100
AcDbLine
 10
13.20484965852475
 20
20.53139947839747
 30
0.0
 11
13.30484965852477
 21
20.53139947839747
 31
0.0
  0
ARC
  5
29B
330
2
100
AcDbEntity
  8
GAIKEI
  6
Continuous
100
AcDbCircle
 10
13.70484965852475
 20
23.2669118355563
 30
0.0
 40
0.4000000000002001
100
AcDbArc
 50
91.00000000000829
 51
180.0
  0
LWPOLYLINE
  5
29C
330
2
100
AcDbEntity
  8
GAIKEI
  6
HIDDEN2
 62
     1
100
AcDbPolyline
 90
        9
 70
     0
 43
0.0
 10
11.22825102612475
 20
22.98749823521763
 10
11.25720164092476
 20
23.00563736681744
 10
11.33650495472477
 20
23.03960323201756
 10
11.43068809932478
 20
23.06214913441755
 10
11.53333264892475
 20
23.07173860821769
 10
11.63744354712477
 20
23.06771814641757
 10
11.73592580832476
 20
23.05036173681748
 10
11.82206802912478
 20
23.02085219021757
 10
11.88144829092479
 20
22.98749823521763
  0
LINE
  5
29D
330
2
100
AcDbEntity
  8
GAIKEI
  6
HIDDEN2
 62
     1
100
AcDbLine
 10
11.99550386652478
 20
22.89645289521747
 30
0.0
 11
11.97758720312478
 21
22.91373771341756
 31
0.0
  0
LWPOLYLINE
  5
29E
330
2
100
AcDbEntity
  8
GAIKEI
  6
HIDDEN2
 62
     1
100
AcDbPolyline
 90
        3
 70
     0
 43
0.0
 10
11.16820350092479
 20
22.94499377141739
 10
11.14992401512475
 20
22.93144050641746
 10
11.10901576992475
 20
22.89859823461739
  0
LINE
  5
29F
330
2
100
AcDbEntity
  8
GAIKEI
  6
HIDDEN2
 62
     1
100
AcDbLine
 10
11.10901576992475
 20
22.89645289521747
 30
0.0
 11
11.10901576992475
 21
22.89859823461739
 31
0.0
  0
LINE
  5
2A0
330
2
100
AcDbEntity
  8
GAIKEI
  6
HIDDEN2
 62
     1
100
AcDbLine
 10
11.97758720312478
 20
22.91373771341756
 30
0.0
 11
11.97378728492478
 21
22.92189108081749
 31
0.0
  0
LINE
  5
2A1
330
2
100
AcDbEntity
  8
GAIKEI
  6
HIDDEN2
 62
     1
100
AcDbLine
 10
11.97758720312478
 20
22.89645289521747
 30
0.0
 11
11.97758720312478
 21
22.91373771341756
 31
0.0
  0
LINE
  5
2A2
330
2
100
AcDbEntity
  8
GAIKEI
  6
HIDDEN2
 62
     1
100
AcDbLine
 10
11.97378728492478
 20
22.92189108081749
 30
0.0
 11
11.91079963592477
 21
22.96499579201742
 31
0.0
  0
LINE
  5
2A3
330
2
100
AcDbEntity
  8
GAIKEI
  6
HIDDEN2
 62
     1
100
AcDbLine
 10
11.97378728492478
 20
22.89645289521747
 30
0.0
 11
11.97378728492478
 21
22.92189108081749
 31
0.0
  0
LINE
  5
2A4
330
2
100
AcDbEntity
  8
GAIKEI
  6
HIDDEN2
 62
     1
100
AcDbLine
 10
11.18278963652477
 20
22.95243712261737
 30
0.0
 11
11.16820350092479
 21
22.94499377141739
 31
0.0
  0
LINE
  5
2A5
330
2
100
AcDbEntity
  8
GAIKEI
  6
HIDDEN2
 62
     1
100
AcDbLine
 10
11.16820350092479
 20
22.89645289521747
 30
0.0
 11
11.16820350092479
 21
22.94499377141739
 31
0.0
  0
LINE
  5
2A6
330
2
100
AcDbEntity
  8
GAIKEI
  6
HIDDEN2
 62
     1
100
AcDbLine
 10
11.24994061012475
 20
22.99051625641761
 30
0.0
 11
11.18278963652477
 21
22.95243712261737
 31
0.0
  0
LINE
  5
2A7
330
2
100
AcDbEntity
  8
GAIKEI
  6
HIDDEN2
 62
     1
100
AcDbLine
 10
11.18278963652477
 20
22.89645289521747
 30
0.0
 11
11.18278963652477
 21
22.95243712261737
 31
0.0
  0
LINE
  5
2A8
330
2
100
AcDbEntity
  8
GAIKEI
  6
HIDDEN2
 62
     1
100
AcDbLine
 10
11.91079963592477
 20
22.96499579201742
 30
0.0
 11
11.88887262192477
 21
22.97145565201737
 31
0.0
  0
LINE
  5
2A9
330
2
100
AcDbEntity
  8
GAIKEI
  6
HIDDEN2
 62
     1
100
AcDbLine
 10
11.91079963592477
 20
22.89645289521747
 30
0.0
 11
11.91079963592477
 21
22.96499579201742
 31
0.0
  0
LINE
  5
2AA
330
2
100
AcDbEntity
  8
GAIKEI
  6
HIDDEN2
 62
     1
100
AcDbLine
 10
11.88887262192477
 20
22.97145565201737
 30
0.0
 11
11.81975466572476
 21
23.00586434661756
 31
0.0
  0
LINE
  5
2AB
330
2
100
AcDbEntity
  8
GAIKEI
  6
HIDDEN2
 62
     1
100
AcDbLine
 10
11.88887262192477
 20
22.89645289521747
 30
0.0
 11
11.88887262192477
 21
22.97145565201737
 31
0.0
  0
LINE
  5
2AC
330
2
100
AcDbEntity
  8
GAIKEI
  6
HIDDEN2
 62
     1
100
AcDbLine
 10
11.28191877872476
 20
22.99489445421756
 30
0.0
 11
11.24994061012475
 21
22.99051625641761
 31
0.0
  0
LINE
  5
2AD
330
2
100
AcDbEntity
  8
GAIKEI
  6
HIDDEN2
 62
     1
100
AcDbLine
 10
11.24994061012475
 20
22.89645289521747
 30
0.0
 11
11.24994061012475
 21
22.99051625641761
 31
0.0
  0
LWPOLYLINE
  5
2AE
330
2
100
AcDbEntity
  8
GAIKEI
  6
HIDDEN2
 62
     1
100
AcDbPolyline
 90
        4
 70
     0
 43
0.0
 10
11.81975466572476
 20
23.00586434661756
 10
11.81449058892477
 20
23.00663563641757
 10
11.79165951392477
 20
23.00836910741742
 10
11.78119484572477
 20
23.00834258521746
  0
LINE
  5
2AF
330
2
100
AcDbEntity
  8
GAIKEI
  6
HIDDEN2
 62
     1
100
AcDbLine
 10
11.81975466572476
 20
22.89645289521747
 30
0.0
 11
11.81975466572476
 21
23.00586434661756
 31
0.0
  0
LINE
  5
2B0
330
2
100
AcDbEntity
  8
GAIKEI
  6
HIDDEN2
 62
     1
100
AcDbLine
 10
11.35245676732478
 20
23.02391004021757
 30
0.0
 11
11.28191877872476
 21
22.99489445421756
 31
0.0
  0
LINE
  5
2B1
330
2
100
AcDbEntity
  8
GAIKEI
  6
HIDDEN2
 62
     1
100
AcDbLine
 10
11.28191877872476
 20
22.89645289521747
 30
0.0
 11
11.28191877872476
 21
22.99489445421756
 31
0.0
  0
LINE
  5
2B2
330
2
100
AcDbEntity
  8
GAIKEI
  6
HIDDEN2
 62
     1
100
AcDbLine
 10
11.39964770932476
 20
23.02307683241753
 30
0.0
 11
11.35245676732478
 21
23.02391004021757
 31
0.0
  0
LINE
  5
2B3
330
2
100
AcDbEntity
  8
GAIKEI
  6
HIDDEN2
 62
     1
100
AcDbLine
 10
11.35245676732478
 20
22.89645289521747
 30
0.0
 11
11.35245676732478
 21
23.02391004021757
 31
0.0
  0
LINE
  5
2B4
330
2
100
AcDbEntity
  8
GAIKEI
  6
HIDDEN2
 62
     1
100
AcDbLine
 10
11.78119484572477
 20
23.00834258521746
 30
0.0
 11
11.71065685712477
 21
23.03355825301748
 31
0.0
  0
LINE
  5
2B5
330
2
100
AcDbEntity
  8
GAIKEI
  6
HIDDEN2
 62
     1
100
AcDbLine
 10
11.78119484572477
 20
22.89645289521747
 30
0.0
 11
11.78119484572477
 21
23.00834258521746
 31
0.0
  0
LINE
  5
2B6
330
2
100
AcDbEntity
  8
GAIKEI
  6
HIDDEN2
 62
     1
100
AcDbLine
 10
11.71065685712477
 20
23.03355825301748
 30
0.0
 11
11.65809201932478
 21
23.03003809721764
 31
0.0
  0
LINE
  5
2B7
330
2
100
AcDbEntity
  8
GAIKEI
  6
HIDDEN2
 62
     1
100
AcDbLine
 10
11.71065685712477
 20
22.89645289521747
 30
0.0
 11
11.71065685712477
 21
23.03355825301748
 31
0.0
  0
LWPOLYLINE
  5
2B8
330
2
100
AcDbEntity
  8
GAIKEI
  6
HIDDEN2
 62
     1
100
AcDbPolyline
 90
        3
 70
     0
 43
0.0
 10
11.52795339632479
 20
23.03506367461733
 10
11.51189056292477
 20
23.03788927921761
 10
11.46876566552475
 20
23.04289939121765
  0
LINE
  5
2B9
330
2
100
AcDbEntity
  8
GAIKEI
  6
HIDDEN2
 62
     1
100
AcDbLine
 10
11.46876566552475
 20
23.04289939121765
 30
0.0
 11
11.39964770932476
 21
23.02307683241753
 31
0.0
  0
LINE
  5
2BA
330
2
100
AcDbEntity
  8
GAIKEI
  6
HIDDEN2
 62
     1
100
AcDbLine
 10
11.39964770932476
 20
22.89645289521747
 30
0.0
 11
11.39964770932476
 21
23.02307683241753
 31
0.0
  0
LINE
  5
2BB
330
2
100
AcDbEntity
  8
GAIKEI
  6
HIDDEN2
 62
     1
100
AcDbLine
 10
11.46876566552475
 20
22.89645289521747
 30
0.0
 11
11.46876566552475
 21
23.04289939121765
 31
0.0
  0
LINE
  5
2BC
330
2
100
AcDbEntity
  8
GAIKEI
  6
HIDDEN2
 62
     1
100
AcDbLine
 10
11.65809201932478
 20
23.03003809721764
 30
0.0
 11
11.59094104552477
 21
23.04619021701757
 31
0.0
  0
LINE
  5
2BD
330
2
100
AcDbEntity
  8
GAIKEI
  6
HIDDEN2
 62
     1
100
AcDbLine
 10
11.65809201932478
 20
22.89645289521747
 30
0.0
 11
11.65809201932478
 21
23.03003809721764
 31
0.0
  0
LINE
  5
2BE
330
2
100
AcDbEntity
  8
GAIKEI
  6
HIDDEN2
 62
     1
100
AcDbLine
 10
11.59094104552477
 20
23.04619021701757
 30
0.0
 11
11.52795339632479
 21
23.03506367461733
 31
0.0
  0
LINE
  5
2BF
330
2
100
AcDbEntity
  8
GAIKEI
  6
HIDDEN2
 62
     1
100
AcDbLine
 10
11.52795339632479
 20
22.89645289521747
 30
0.0
 11
11.52795339632479
 21
23.03506367461733
 31
0.0
  0
LINE
  5
2C0
330
2
100
AcDbEntity
  8
GAIKEI
  6
HIDDEN2
 62
     1
100
AcDbLine
 10
11.59094104552477
 20
22.89645289521747
 30
0.0
 11
11.59094104552477
 21
23.04619021701757
 31
0.0
  0
LINE
  5
2C1
330
2
100
AcDbEntity
  8
GAIKEI
  6
HIDDEN2
 62
     1
100
AcDbLine
 10
11.22825102612475
 20
22.98749823521763
 30
0.0
 11
11.16960165172474
 21
22.9460268648175
 31
0.0
  0
LINE
  5
2C2
330
2
100
AcDbEntity
  8
GAIKEI
  6
HIDDEN2
 62
     1
100
AcDbLine
 10
11.95496342152475
 20
22.93551518781743
 30
0.0
 11
11.88144829092479
 21
22.98749823521763
 31
0.0
  0
LINE
  5
2C3
330
2
100
AcDbEntity
  8
GAIKEI
  6
HIDDEN2
 62
     1
100
AcDbLine
 10
13.20484965852475
 20
19.79645289541742
 30
0.0
 11
13.10484965852478
 21
19.89645289541755
 31
0.0
  0
LINE
  5
2C4
330
2
100
AcDbEntity
  8
GAIKEI
  6
HIDDEN2
 62
     1
100
AcDbLine
 10
13.10484965852478
 20
22.79645289521756
 30
0.0
 11
13.00484965852476
 21
22.89645289521747
 31
0.0
  0
ARC
  5
2C5
330
2
100
AcDbEntity
  8
GAIKEI
  6
HIDDEN2
 62
     1
100
AcDbCircle
 10
7.676849658524758
 20
22.79645289521756
 30
0.0
 40
0.1
100
AcDbArc
 50
90.0
 51
180.0
  0
LINE
  5
2C6
330
2
100
AcDbEntity
  8
GAIKEI
  6
HIDDEN2
 62
     1
100
AcDbLine
 10
13.00484965852476
 20
22.89645289521747
 30
0.0
 11
7.676849658524758
 21
22.89645289521747
 31
0.0
  0
LINE
  5
2C7
330
2
100
AcDbEntity
  8
GAIKEI
  6
HIDDEN2
 62
     1
100
AcDbLine
 10
7.576849658524764
 20
22.73645289541747
 30
0.0
 11
7.488475006524765
 21
22.73645289541747
 31
0.0
  0
ARC
  5
2C8
330
2
100
AcDbEntity
  8
GAIKEI
  6
HIDDEN2
 62
     1
100
AcDbCircle
 10
7.388475006524771
 20
22.79645289541742
 30
0.0
 40
0.1
100
AcDbArc
 50
0.0
 51
90.0
  0
LINE
  5
2C9
330
2
100
AcDbEntity
  8
GAIKEI
  6
Continuous
100
AcDbLine
 10
35.12484965851539
 20
23.83139946698088
 30
0.0
 11
20.72484965851535
 21
23.83139946698088
 31
0.0
  0
LINE
  5
2CA
330
2
100
AcDbEntity
  8
GAIKEI
  6
Continuous
 62
     1
100
AcDbLine
 10
20.72484965851535
 20
24.03139946698093
 30
0.0
 11
35.12484965851539
 21
24.03139946698093
 31
0.0
  0
ARC
  5
2CB
330
2
100
AcDbEntity
  8
GAIKEI
  6
Continuous
100
AcDbCircle
 10
40.05705223439955
 20
43.41369493863351
 30
0.0
 40
20.0
100
AcDbArc
 50
241.6081468434158
 51
255.7229926802878
  0
LINE
  5
2CC
330
2
100
AcDbEntity
  8
GAIKEI
  6
Continuous
 62
     1
100
AcDbLine
 10
21.75655385607118
 20
25.83139946698088
 30
0.0
 11
21.72484965852456
 21
24.03139946698093
 31
0.0
  0
LINE
  5
2CD
330
2
100
AcDbEntity
  8
GAIKEI
  6
Phantom
100
AcDbLine
 10
30.52484965852537
 20
25.83139946698088
 30
0.0
 11
30.49951976763936
 21
25.83139946698088
 31
0.0
  0
LINE
  5
2CE
330
2
100
AcDbEntity
  8
GAIKEI
  6
Continuous
 62
     1
100
AcDbLine
 10
21.72484965852456
 20
23.83139946698088
 30
0.0
 11
21.72484965852456
 21
24.03139946698093
 31
0.0
  0
LINE
  5
2CF
330
2
100
AcDbEntity
  8
GAIKEI
  6
Continuous
100
AcDbLine
 10
30.33986101436315
 20
25.83139946698088
 30
0.0
 11
28.70983830268656
 21
25.83139946698088
 31
0.0
  0
LINE
  5
2D0
330
2
100
AcDbEntity
  8
GAIKEI
  6
Continuous
100
AcDbLine
 10
22.03191750784677
 20
25.83139946698088
 30
0.0
 11
21.12484965852496
 21
25.83139946698088
 31
0.0
  0
LINE
  5
2D1
330
2
100
AcDbEntity
  8
GAIKEI
  6
Continuous
100
AcDbLine
 10
24.22484965851558
 20
25.83139946698049
 30
0.0
 11
22.03191750784677
 21
25.83139946698128
 31
0.0
  0
LINE
  5
2D2
330
2
100
AcDbEntity
  8
GAIKEI
  6
Continuous
100
AcDbLine
 10
21.12484965852496
 20
25.83139946698088
 30
0.0
 11
20.72484965851535
 21
24.03139946698093
 31
0.0
  0
LINE
  5
2D3
330
2
100
AcDbEntity
  8
GAIKEI
  6
Continuous
100
AcDbLine
 10
20.72484965851535
 20
23.83139946698088
 30
0.0
 11
20.72484965851535
 21
24.03139946698093
 31
0.0
  0
LINE
  5
2D4
330
2
100
AcDbEntity
  8
GAIKEI
  6
Continuous
100
AcDbLine
 10
30.49951976763936
 20
25.83139946698088
 30
0.0
 11
24.22484965851558
 21
25.83139946698049
 31
0.0
  0
LINE
  5
2D5
330
2
100
AcDbEntity
  8
GAIKEI
  6
Continuous
 62
     1
100
AcDbLine
 10
23.22484660676676
 20
23.6279075080173
 30
0.0
 11
23.12484965852457
 21
23.6313994783975
 31
0.0
  0
ARC
  5
2D6
330
2
100
AcDbEntity
  8
GAIKEI
  6
Phantom
100
AcDbCircle
 10
40.05705223439955
 20
43.41369493863351
 30
0.0
 40
20.0
100
AcDbArc
 50
241.5357627809448
 51
241.6081468434158
  0
ARC
  5
2D7
330
2
100
AcDbEntity
  8
GAIKEI
  6
Continuous
100
AcDbCircle
 10
30.49951976763936
 20
25.73139946698092
 30
0.0
 40
0.1000000000002
100
AcDbArc
 50
61.60814684342307
 51
90.0
  0
LINE
  5
2D8
330
2
100
AcDbEntity
  8
GAIKEI
  6
Continuous
100
AcDbLine
 10
35.12484965851539
 20
23.83139946698088
 30
0.0
 11
35.12484965851539
 21
24.03139946698093
 31
0.0
  0
LINE
  5
2D9
330
2
100
AcDbEntity
  8
GAIKEI
  6
Continuous
100
AcDbLine
 10
52.70484660676678
 20
23.83139953112311
 30
0.0
 11
52.57489397722818
 21
23.83139953081149
 31
0.0
  0
ARC
  5
2DA
330
2
100
AcDbEntity
  8
GAIKEI
  6
Continuous
100
AcDbCircle
 10
-47.29515339323322
 20
23.8313995210799
 30
0.0
 40
100.0
100
AcDbArc
 50
359.9206634616126
 51
0.0000000057549211
  0
ARC
  5
2DB
330
2
100
AcDbEntity
  8
GAIKEI
  6
Continuous
100
AcDbCircle
 10
-47.29515339323322
 20
23.8313995210799
 30
0.0
 40
99.99999999999982
100
AcDbArc
 50
357.7075572296916
 51
359.8851787272026
  0
ARC
  5
2DC
330
2
100
AcDbEntity
  8
GAIKEI
  6
Continuous
100
AcDbCircle
 10
52.50464620578319
 20
23.63139953064308
 30
0.0
 40
0.2
100
AcDbArc
 50
359.8851787271993
 51
90.00000013733481
  0
LINE
  5
2DD
330
2
100
AcDbEntity
  8
WAKU
 62
     1
100
AcDbLine
 10
-60.77456474671703
 20
-45.95877905621648
 30
0.0
 11
64.22543525328297
 21
-45.95877905621648
 31
0.0
  0
LINE
  5
2DE
330
2
100
AcDbEntity
  8
WAKU
 62
     1
100
AcDbLine
 10
-60.77456474671703
 20
-25.95877905621648
 30
0.0
 11
64.22543525328297
 21
-25.95877905621648
 31
0.0
  0
LINE
  5
2DF
330
2
100
AcDbEntity
  8
WAKU
 62
     1
100
AcDbLine
 10
-60.77456474671703
 20
-30.95877905621648
 30
0.0
 11
64.22543525328297
 21
-30.95877905621648
 31
0.0
  0
LINE
  5
2E0
330
2
100
AcDbEntity
  8
WAKU
 62
     4
100
AcDbLine
 10
-60.77456474671703
 20
-10.95877905621648
 30
0.0
 11
64.22543525328297
 21
-10.95877905621648
 31
0.0
  0
LINE
  5
2E1
330
2
100
AcDbEntity
  8
WAKU
 62
     1
100
AcDbLine
 10
-60.77456474671703
 20
-15.95877905621648
 30
0.0
 11
64.22543525328297
 21
-15.95877905621648
 31
0.0
  0
LINE
  5
2E2
330
2
100
AcDbEntity
  8
WAKU
 62
     1
100
AcDbLine
 10
-60.77456474671703
 20
-20.95877905621648
 30
0.0
 11
64.22543525328297
 21
-20.95877905621648
 31
0.0
  0
LINE
  5
2E3
330
2
100
AcDbEntity
  8
WAKU
 62
     1
100
AcDbLine
 10
-60.77456474671703
 20
-40.95877905621648
 30
0.0
 11
64.22543525328297
 21
-40.95877905621648
 31
0.0
  0
LINE
  5
2E4
330
2
100
AcDbEntity
  8
WAKU
 62
     4
100
AcDbLine
 10
64.22543525328297
 20
-55.95877905621648
 30
0.0
 11
-60.77456474671703
 21
-55.95877905621648
 31
0.0
  0
LINE
  5
2E5
330
2
100
AcDbEntity
  8
WAKU
 62
     1
100
AcDbLine
 10
-60.77456474671703
 20
-50.95877905621637
 30
0.0
 11
64.22543525328297
 21
-50.95877905621648
 31
0.0
  0
LINE
  5
2E6
330
2
100
AcDbEntity
  8
WAKU
 62
     1
100
AcDbLine
 10
-60.77456474671703
 20
-35.95877905621648
 30
0.0
 11
64.22543525328297
 21
-35.95877905621648
 31
0.0
  0
LINE
  5
2E7
330
2
100
AcDbEntity
  8
WAKU
 62
     4
100
AcDbLine
 10
-60.77456474671703
 20
-10.95877905621648
 30
0.0
 11
-60.77456474671703
 21
-55.95877905621648
 31
0.0
  0
TEXT
  5
2E8
330
2
100
AcDbEntity
  8
MOJI1
 62
     2
100
AcDbText
 10
-18.27456474671703
 20
-49.95877905621648
 30
0.0
 40
3.0
  1
アナログ映像出力、集音（マイク）、ＳＤカードスロット
 41
0.85
100
AcDbText
  0
TEXT
  5
2E9
330
2
100
AcDbEntity
  8
MOJI1
 62
     2
100
AcDbText
 10
-18.27456474671703
 20
-24.95877905621649
 30
0.0
 40
3.0
  1
１．０ｌｘ（カラー）、０．０６ｌｘ（白黒）
100
AcDbText
  0
TEXT
  5
2EA
330
2
100
AcDbEntity
  8
MOJI1
 62
     2
100
AcDbText
 10
-18.27456474671703
 20
-34.95877905621649
 30
0.0
 40
3.0
  1
水平：６００ＴＶ本（カラー）、７８０ＴＶ本（白黒）
 41
0.9
100
AcDbText
  0
TEXT
  5
2EB
330
2
100
AcDbEntity
  8
MOJI1
 62
     2
100
AcDbText
 10
-18.27456474671703
 20
-54.95877905621648
 30
0.0
 40
3.0
  1
画ゆれ補正、ＶＭＤアラーム、オートバックフォーカス
 41
0.9
100
AcDbText
  0
TEXT
  5
2EC
330
2
100
AcDbEntity
  8
MOJI1
 62
     2
100
AcDbText
 10
-18.27456474671703
 20
-44.95877905621648
 30
0.0
 40
3.0
  1
１０ＢＡＳＥ－Ｔ／１００ＢＡＳＥ－Ｔｘ、ＲＪ４５コネクター
 41
0.7800000000000001
100
AcDbText
  0
TEXT
  5
2ED
330
2
100
AcDbEntity
  8
MOJI1
 62
     2
100
AcDbText
 10
-18.27456474671703
 20
-39.95877905621649
 30
0.0
 40
3.0
  1
垂直：４５０ＴＶ本以上（フルスキャンモード）
100
AcDbText
  0
TEXT
  5
2EE
330
2
100
AcDbEntity
  8
MOJI1
 62
     2
100
AcDbText
 10
-18.27456474671703
 20
-19.95877905621648
 30
0.0
 40
3.0
  1
１／３型インターライン転送方式ＣＣＤ
 41
0.9
100
AcDbText
  0
TEXT
  5
2EF
330
2
100
AcDbEntity
  8
MOJI1
 62
     2
100
AcDbText
 10
-18.27456474671703
 20
-14.95877905621648
 30
0.0
 40
3.0
  1
ＡＣ２４Ｖ　５０／６０Ｈｚ
 41
0.95
100
AcDbText
  0
TEXT
  5
2F0
330
2
100
AcDbEntity
  8
MOJI1
 62
     2
100
AcDbText
 10
-18.27456474671703
 20
-29.95877905621649
 30
0.0
 40
3.0
  1
ＪＰＥＧ／ＭＰＥＧ４（同時圧縮機能）
 41
0.95
100
AcDbText
  0
TEXT
  5
2F1
330
2
100
AcDbEntity
  8
MOJI1
 62
     2
100
AcDbText
 10
-58.27456474671703
 20
-19.95877905621648
 30
0.0
 40
3.0
  1
撮像素子
100
AcDbText
  0
TEXT
  5
2F2
330
2
100
AcDbEntity
  8
MOJI1
 62
     2
100
AcDbText
 10
-58.27456474671703
 20
-44.95877905621648
 30
0.0
 40
3.0
  1
ネットワーク
100
AcDbText
  0
TEXT
  5
2F3
330
2
100
AcDbEntity
  8
MOJI1
 62
     2
100
AcDbText
 10
-58.27456474671703
 20
-24.95877905621649
 30
0.0
 40
3.0
  1
最低照度
100
AcDbText
  0
TEXT
  5
2F4
330
2
100
AcDbEntity
  8
MOJI1
 62
     2
100
AcDbText
 10
-58.27456474671703
 20
-29.95877905621649
 30
0.0
 40
3.0
  1
画像圧縮方式
100
AcDbText
  0
TEXT
  5
2F5
330
2
100
AcDbEntity
  8
MOJI1
 62
     2
100
AcDbText
 10
-58.27456474671703
 20
-34.95877905621649
 30
0.0
 40
3.0
  1
解像度
100
AcDbText
  0
TEXT
  5
2F6
330
2
100
AcDbEntity
  8
MOJI1
 62
     2
100
AcDbText
 10
-58.27456474671703
 20
-49.95877905621648
 30
0.0
 40
3.0
  1
機　能
100
AcDbText
  0
TEXT
  5
2F7
330
2
100
AcDbEntity
  8
MOJI1
 62
     2
100
AcDbText
 10
-58.27456474671703
 20
-14.95877905621648
 30
0.0
 40
3.0
  1
電　源
100
AcDbText
  0
LINE
  5
2F8
330
2
100
AcDbEntity
  8
WAKU
 62
     4
100
AcDbLine
 10
-20.77456474671703
 20
-10.95877905621648
 30
0.0
 11
-20.77456474671703
 21
-55.95877905621648
 31
0.0
  0
LINE
  5
2F9
330
2
100
AcDbEntity
  8
WAKU
 62
     4
100
AcDbLine
 10
64.22543525328297
 20
-10.95877905621648
 30
0.0
 11
64.22543525328297
 21
-55.95877905621648
 31
0.0
  0
ENDSEC
  0
SECTION
  2
OBJECTS
  0
DICTIONARY
  5
7
330
0
100
AcDbDictionary
281
     1
  3
ACAD_COLOR
350
25
  3
ACAD_GROUP
350
21
  3
ACAD_LAYOUT
350
B
  3
ACAD_MATERIAL
350
24
  3
ACAD_MLINESTYLE
350
22
  3
ACAD_PLOTSETTINGS
350
23
  3
ACAD_PLOTSTYLENAME
350
6
  3
ACDBHEADERROUNDTRIPXREC
350
336
  3
AcDbVariableDictionary
350
331
  0
DICTIONARY
  5
11
330
10
100
AcDbDictionary
280
     1
281
     1
  3
ACAD_LAYERSTATES
360
12
  0
DICTIONARY
  5
25
102
{ACAD_REACTORS
330
7
102
}
330
7
100
AcDbDictionary
281
     1
  0
DICTIONARY
  5
21
102
{ACAD_REACTORS
330
7
102
}
330
7
100
AcDbDictionary
281
     1
  0
DICTIONARY
  5
B
102
{ACAD_REACTORS
330
7
102
}
330
7
100
AcDbDictionary
281
     1
  3
Model
350
A
  3
レイアウト1
350
F
  0
DICTIONARY
  5
24
102
{ACAD_REACTORS
330
7
102
}
330
7
100
AcDbDictionary
281
     1
  0
DICTIONARY
  5
22
102
{ACAD_REACTORS
330
7
102
}
330
7
100
AcDbDictionary
281
     1
  3
Standard
350
27
  0
DICTIONARY
  5
23
102
{ACAD_REACTORS
330
7
102
}
330
7
100
AcDbDictionary
281
     1
  0
ACDBDICTIONARYWDFLT
  5
6
102
{ACAD_REACTORS
330
7
102
}
330
7
100
AcDbDictionary
281
     1
  3
Normal
350
5
100
AcDbDictionaryWithDefault
340
5
  0
DICTIONARY
  5
336
102
{ACAD_REACTORS
330
7
102
}
330
7
100
AcDbDictionary
281
     1
  3
COLORDICT
350
338
  3
MATERIALDICT
350
337
  0
DICTIONARY
  5
331
102
{ACAD_REACTORS
330
7
102
}
330
7
100
AcDbDictionary
281
     1
  3
DIMASSOC
350
333
  3
HIDETEXT
350
332
  3
PROJECTNAME
350
334
  0
DICTIONARY
  5
12
102
{ACAD_REACTORS
330
11
102
}
330
11
100
AcDbDictionary
281
     1
  0
LAYOUT
  5
A
102
{ACAD_XDICTIONARY
360
339
102
}
102
{ACAD_REACTORS
330
B
102
}
330
B
100
AcDbPlotSettings
  1

  2
FX78BC34-A4縦.pc3
  4
A4
  6

 40
4.900083065032958
 41
4.900057315826416
 42
4.90008544921875
 43
4.90008544921875
 44
210.0156707763672
 45
297.0106506347656
 46
5.75
 47
0.0
 48
0.0
 49
0.0
140
0.0
141
0.0
142
1.0
143
1.372688602116311
 70
 11956
 72
     1
 73
     0
 74
     1
  7
tmsacad.ctb
 75
     0
147
0.7284973434311852
148
0.0256268442936971
149
0.0210865248282062
100
AcDbLayout
  1
Model
 70
     1
 71
     0
 10
0.0
 20
0.0
 11
12.0
 21
9.0
 12
0.0
 22
0.0
 32
0.0
 14
0.0
 24
0.0
 34
0.0
 15
0.0
 25
0.0
 35
0.0
146
0.0
 13
0.0
 23
0.0
 33
0.0
 16
1.0
 26
0.0
 36
0.0
 17
0.0
 27
1.0
 37
0.0
 76
     0
330
2
  0
LAYOUT
  5
F
102
{ACAD_XDICTIONARY
360
33B
102
}
102
{ACAD_REACTORS
330
B
102
}
330
B
100
AcDbPlotSettings
  1

  2
None
  4

  6

 40
0.0
 41
0.0
 42
0.0
 43
0.0
 44
0.0
 45
0.0
 46
0.0
 47
0.0
 48
0.0
 49
0.0
140
0.0
141
0.0
142
1.0
143
1.0
 70
   688
 72
     0
 73
     0
 74
     5
  7
tmsacad.ctb
 75
    16
147
1.0
148
0.0
149
0.0
100
AcDbLayout
  1
レイアウト1
 70
     1
 71
     1
 10
0.0
 20
0.0
 11
12.0
 21
9.0
 12
0.0
 22
0.0
 32
0.0
 14
0.0
 24
0.0
 34
0.0
 15
0.0
 25
0.0
 35
0.0
146
0.0
 13
0.0
 23
0.0
 33
0.0
 16
1.0
 26
0.0
 36
0.0
 17
0.0
 27
1.0
 37
0.0
 76
     0
330
C
  0
MLINESTYLE
  5
27
102
{ACAD_REACTORS
330
22
102
}
330
22
100
AcDbMlineStyle
  2
STANDARD
 70
     0
  3

 62
   256
 51
90.0
 52
90.0
 71
     2
 49
0.5
 62
   256
  6
BYLAYER
 49
-0.5
 62
   256
  6
BYLAYER
  0
ACDBPLACEHOLDER
  5
5
102
{ACAD_REACTORS
330
6
102
}
330
6
  0
XRECORD
  5
338
102
{ACAD_REACTORS
330
336
102
}
330
336
100
AcDbXrecord
280
     1
340
25
  0
XRECORD
  5
337
102
{ACAD_REACTORS
330
336
102
}
330
336
100
AcDbXrecord
280
     1
340
24
  0
DICTIONARYVAR
  5
333
102
{ACAD_REACTORS
330
331
102
}
330
331
100
DictionaryVariables
280
     0
  1
2
  0
DICTIONARYVAR
  5
332
102
{ACAD_REACTORS
330
331
102
}
330
331
100
DictionaryVariables
280
     0
  1
1
  0
DICTIONARYVAR
  5
334
102
{ACAD_REACTORS
330
331
102
}
330
331
100
DictionaryVariables
280
     0
  1

  0
DICTIONARY
  5
339
330
A
100
AcDbDictionary
280
     1
281
     1
  3
ACAD_XREC_ROUNDTRIP
360
33A
  0
DICTIONARY
  5
33B
330
F
100
AcDbDictionary
280
     1
281
     1
  3
ACAD_XREC_ROUNDTRIP
360
33C
  0
XRECORD
  5
33A
102
{ACAD_REACTORS
330
339
102
}
330
339
100
AcDbXrecord
280
     1
102
SHADEPLOT
 70
     0
102
SHADEPLOTRESLEVEL
 70
     2
102
SHADEPLOTCUSTOMDPI
 70
   300
  0
XRECORD
  5
33C
102
{ACAD_REACTORS
330
33B
102
}
330
33B
100
AcDbXrecord
280
     1
102
SHADEPLOT
 70
     0
102
SHADEPLOTRESLEVEL
 70
     2
102
SHADEPLOTCUSTOMDPI
 70
   300
  0
ENDSEC
  0
EOF
