  0
SECTION
  2
HEADER
  9
$ACADVER
  1
AC1015
  9
$ACADMAINTVER
 70
    20
  9
$DWGCODEPAGE
  3
ANSI_932
  9
$INSBASE
 10
0.0
 20
246.4992141396417
 30
0.0
  9
$EXTMIN
 10
-61.32979472753596
 20
-60.91487834643067
 30
-0.0015258207003583
  9
$EXTMAX
 10
63.75071424242879
 20
51.97524279442586
 30
0.0000000349246037
  9
$LIMMIN
 10
-1101.784450318844
 20
-1579.160531687244
  9
$LIMMAX
 10
-508.2420711400536
 20
-1161.440814074914
  9
$ORTHOMODE
 70
     1
  9
$REGENMODE
 70
     1
  9
$FILLMODE
 70
     1
  9
$QTEXTMODE
 70
     0
  9
$MIRRTEXT
 70
     1
  9
$LTSCALE
 40
1.0
  9
$ATTMODE
 70
     1
  9
$TEXTSIZE
 40
3.0
  9
$TRACEWID
 40
0.5
  9
$TEXTSTYLE
  7
STANDARD
  9
$CLAYER
  8
0
  9
$CELTYPE
  6
BYLAYER
  9
$CECOLOR
 62
   256
  9
$CELTSCALE
 40
1.0
  9
$DISPSILH
 70
     0
  9
$DIMSCALE
 40
1.0
  9
$DIMASZ
 40
2.0
  9
$DIMEXO
 40
2.0
  9
$DIMDLI
 40
8.0
  9
$DIMRND
 40
0.0
  9
$DIMDLE
 40
0.0
  9
$DIMEXE
 40
2.0
  9
$DIMTP
 40
0.0
  9
$DIMTM
 40
0.0
  9
$DIMTXT
 40
2.5
  9
$DIMCEN
 40
0.0
  9
$DIMTSZ
 40
0.0
  9
$DIMTOL
 70
     0
  9
$DIMLIM
 70
     0
  9
$DIMTIH
 70
     0
  9
$DIMTOH
 70
     0
  9
$DIMSE1
 70
     0
  9
$DIMSE2
 70
     0
  9
$DIMTAD
 70
     3
  9
$DIMZIN
 70
     0
  9
$DIMBLK
  1

  9
$DIMASO
 70
     1
  9
$DIMSHO
 70
     1
  9
$DIMPOST
  1

  9
$DIMAPOST
  1

  9
$DIMALT
 70
     0
  9
$DIMALTD
 70
     2
  9
$DIMALTF
 40
25.4
  9
$DIMLFAC
 40
1.0
  9
$DIMTOFL
 70
     1
  9
$DIMTVP
 40
0.0
  9
$DIMTIX
 70
     0
  9
$DIMSOXD
 70
     0
  9
$DIMSAH
 70
     1
  9
$DIMBLK1
  1
OPEN30
  9
$DIMBLK2
  1
OPEN30
  9
$DIMSTYLE
  2
STANDARD
  9
$DIMCLRD
 70
     0
  9
$DIMCLRE
 70
     0
  9
$DIMCLRT
 70
     0
  9
$DIMTFAC
 40
1.0
  9
$DIMGAP
 40
0.5
  9
$DIMJUST
 70
     0
  9
$DIMSD1
 70
     0
  9
$DIMSD2
 70
     0
  9
$DIMTOLJ
 70
     1
  9
$DIMTZIN
 70
     0
  9
$DIMALTZ
 70
     0
  9
$DIMALTTZ
 70
     0
  9
$DIMUPT
 70
     0
  9
$DIMDEC
 70
     4
  9
$DIMTDEC
 70
     4
  9
$DIMALTU
 70
     2
  9
$DIMALTTD
 70
     2
  9
$DIMTXSTY
  7
STANDARD
  9
$DIMAUNIT
 70
     0
  9
$DIMADEC
 70
     0
  9
$DIMALTRND
 40
0.0
  9
$DIMAZIN
 70
     0
  9
$DIMDSEP
 70
    46
  9
$DIMATFIT
 70
     3
  9
$DIMFRAC
 70
     0
  9
$DIMLDRBLK
  1
OPEN30
  9
$DIMLUNIT
 70
     2
  9
$DIMLWD
 70
    -2
  9
$DIMLWE
 70
    -2
  9
$DIMTMOVE
 70
     0
  9
$LUNITS
 70
     2
  9
$LUPREC
 70
     4
  9
$SKETCHINC
 40
0.1
  9
$FILLETRAD
 40
0.0
  9
$AUNITS
 70
     0
  9
$AUPREC
 70
     0
  9
$MENU
  1
ACAD
  9
$ELEVATION
 40
0.0
  9
$PELEVATION
 40
0.0
  9
$THICKNESS
 40
0.0
  9
$LIMCHECK
 70
     0
  9
$CHAMFERA
 40
0.0
  9
$CHAMFERB
 40
0.0
  9
$CHAMFERC
 40
0.0
  9
$CHAMFERD
 40
0.0
  9
$SKPOLY
 70
     0
  9
$TDCREATE
 40
2451815.565532581
  9
$TDUCREATE
 40
2451815.190532581
  9
$TDUPDATE
 40
2454342.536803565
  9
$TDUUPDATE
 40
2454342.161803565
  9
$TDINDWG
 40
0.8957088426
  9
$TDUSRTIMER
 40
0.8957088426
  9
$USRTIMER
 70
     1
  9
$ANGBASE
 50
0.0
  9
$ANGDIR
 70
     0
  9
$PDMODE
 70
     0
  9
$PDSIZE
 40
0.0
  9
$PLINEWID
 40
0.0
  9
$SPLFRAME
 70
     0
  9
$SPLINETYPE
 70
     6
  9
$SPLINESEGS
 70
     8
  9
$HANDSEED
  5
19E
  9
$SURFTAB1
 70
     6
  9
$SURFTAB2
 70
     6
  9
$SURFTYPE
 70
     6
  9
$SURFU
 70
     6
  9
$SURFV
 70
     6
  9
$UCSBASE
  2

  9
$UCSNAME
  2

  9
$UCSORG
 10
0.0
 20
0.0
 30
0.0
  9
$UCSXDIR
 10
1.0
 20
0.0
 30
0.0
  9
$UCSYDIR
 10
0.0
 20
1.0
 30
0.0
  9
$UCSORTHOREF
  2

  9
$UCSORTHOVIEW
 70
     0
  9
$UCSORGTOP
 10
0.0
 20
0.0
 30
0.0
  9
$UCSORGBOTTOM
 10
0.0
 20
0.0
 30
0.0
  9
$UCSORGLEFT
 10
0.0
 20
0.0
 30
0.0
  9
$UCSORGRIGHT
 10
0.0
 20
0.0
 30
0.0
  9
$UCSORGFRONT
 10
0.0
 20
0.0
 30
0.0
  9
$UCSORGBACK
 10
0.0
 20
0.0
 30
0.0
  9
$PUCSBASE
  2

  9
$PUCSNAME
  2

  9
$PUCSORG
 10
0.0
 20
0.0
 30
0.0
  9
$PUCSXDIR
 10
1.0
 20
0.0
 30
0.0
  9
$PUCSYDIR
 10
0.0
 20
1.0
 30
0.0
  9
$PUCSORTHOREF
  2

  9
$PUCSORTHOVIEW
 70
     0
  9
$PUCSORGTOP
 10
0.0
 20
0.0
 30
0.0
  9
$PUCSORGBOTTOM
 10
0.0
 20
0.0
 30
0.0
  9
$PUCSORGLEFT
 10
0.0
 20
0.0
 30
0.0
  9
$PUCSORGRIGHT
 10
0.0
 20
0.0
 30
0.0
  9
$PUCSORGFRONT
 10
0.0
 20
0.0
 30
0.0
  9
$PUCSORGBACK
 10
0.0
 20
0.0
 30
0.0
  9
$USERI1
 70
     0
  9
$USERI2
 70
     0
  9
$USERI3
 70
     0
  9
$USERI4
 70
     0
  9
$USERI5
 70
     0
  9
$USERR1
 40
0.0
  9
$USERR2
 40
0.0
  9
$USERR3
 40
0.0
  9
$USERR4
 40
0.0
  9
$USERR5
 40
0.0
  9
$WORLDVIEW
 70
     1
  9
$SHADEDGE
 70
     3
  9
$SHADEDIF
 70
    70
  9
$TILEMODE
 70
     1
  9
$MAXACTVP
 70
    48
  9
$PINSBASE
 10
0.0
 20
0.0
 30
0.0
  9
$PLIMCHECK
 70
     0
  9
$PEXTMIN
 10
1.000000000000000E+20
 20
1.000000000000000E+20
 30
1.000000000000000E+20
  9
$PEXTMAX
 10
-1.000000000000000E+20
 20
-1.000000000000000E+20
 30
-1.000000000000000E+20
  9
$PLIMMIN
 10
0.0
 20
0.0
  9
$PLIMMAX
 10
12.0
 20
9.0
  9
$UNITMODE
 70
     0
  9
$VISRETAIN
 70
     1
  9
$PLINEGEN
 70
     0
  9
$PSLTSCALE
 70
     1
  9
$TREEDEPTH
 70
  3020
  9
$CMLSTYLE
  2
STANDARD
  9
$CMLJUST
 70
     0
  9
$CMLSCALE
 40
1.0
  9
$PROXYGRAPHICS
 70
     1
  9
$MEASUREMENT
 70
     0
  9
$CELWEIGHT
370
    -1
  9
$ENDCAPS
280
     0
  9
$JOINSTYLE
280
     0
  9
$LWDISPLAY
290
     0
  9
$INSUNITS
 70
     0
  9
$HYPERLINKBASE
  1

  9
$STYLESHEET
  1

  9
$XEDIT
290
     1
  9
$CEPSNTYPE
380
     0
  9
$PSTYLEMODE
290
     1
  9
$FINGERPRINTGUID
  2
{1754B7AB-9B3C-11D4-AD9E-00104B1004F2}
  9
$VERSIONGUID
  2
{A715AA60-D739-42A2-B427-C5BA6AA5D6A9}
  9
$EXTNAMES
290
     1
  9
$PSVPSCALE
 40
0.0
  9
$OLESTARTUP
290
     0
  0
ENDSEC
  0
SECTION
  2
CLASSES
  0
CLASS
  1
ACDBDICTIONARYWDFLT
  2
AcDbDictionaryWithDefault
  3
ObjectDBX Classes
 90
        0
280
     0
281
     0
  0
CLASS
  1
ACDBPLACEHOLDER
  2
AcDbPlaceHolder
  3
ObjectDBX Classes
 90
        0
280
     0
281
     0
  0
CLASS
  1
LAYOUT
  2
AcDbLayout
  3
ObjectDBX Classes
 90
        0
280
     0
281
     0
  0
CLASS
  1
DICTIONARYVAR
  2
AcDbDictionaryVar
  3
ObjectDBX Classes
 90
        0
280
     0
281
     0
  0
ENDSEC
  0
SECTION
  2
TABLES
  0
TABLE
  2
VPORT
  5
20
330
0
100
AcDbSymbolTable
 70
     2
  0
VPORT
  5
196
330
20
100
AcDbSymbolTableRecord
100
AcDbViewportTableRecord
  2
*Active
 70
     0
 10
0.0
 20
0.0
 11
1.0
 21
1.0
 12
1.2104597574464
 22
-4.4698177760024
 13
0.0
 23
0.0
 14
1.0
 24
1.0
 15
0.0
 25
0.0
 16
0.0
 26
0.0
 36
1.0
 17
0.0
 27
0.0
 37
0.0
 40
113.7607390416857
 41
1.507078507078506
 42
50.0
 43
0.0
 44
0.0
 50
0.0
 51
0.0
 71
     0
 72
 10000
 73
     1
 74
     0
 75
     0
 76
     1
 77
     0
 78
     0
281
     0
 65
     1
110
0.0
120
0.0
130
0.0
111
1.0
121
0.0
131
0.0
112
0.0
122
1.0
132
0.0
 79
     0
146
0.0
  0
ENDTAB
  0
TABLE
  2
LTYPE
  5
1B
330
0
100
AcDbSymbolTable
 70
     1
  0
LTYPE
  5
1C
330
1B
100
AcDbSymbolTableRecord
100
AcDbLinetypeTableRecord
  2
BYBLOCK
 70
     0
  3

 72
    65
 73
     0
 40
0.0
  0
LTYPE
  5
1D
330
1B
100
AcDbSymbolTableRecord
100
AcDbLinetypeTableRecord
  2
BYLAYER
 70
     0
  3

 72
    65
 73
     0
 40
0.0
  0
LTYPE
  5
A
330
1B
100
AcDbSymbolTableRecord
100
AcDbLinetypeTableRecord
  2
CONTINUOUS
 70
     0
  3
Solid line
 72
    65
 73
     0
 40
0.0
  0
ENDTAB
  0
TABLE
  2
LAYER
  5
14
102
{ACAD_XDICTIONARY
360
15
102
}
330
0
100
AcDbSymbolTable
 70
     7
  0
LAYER
  5
6
330
14
100
AcDbSymbolTableRecord
100
AcDbLayerTableRecord
  2
0
 70
     0
 62
     7
  6
CONTINUOUS
370
    -3
390
7
  0
LAYER
  5
4A
330
14
100
AcDbSymbolTableRecord
100
AcDbLayerTableRecord
  2
DEFPOINTS
 70
     0
 62
     7
  6
CONTINUOUS
290
     0
370
    -3
390
7
  0
LAYER
  5
39
330
14
100
AcDbSymbolTableRecord
100
AcDbLayerTableRecord
  2
WAKU
 70
     0
 62
     4
  6
CONTINUOUS
370
    -3
390
7
  0
LAYER
  5
34
330
14
100
AcDbSymbolTableRecord
100
AcDbLayerTableRecord
  2
MOJI1
 70
     0
 62
     2
  6
CONTINUOUS
370
    -3
390
7
  0
LAYER
  5
3D
330
14
100
AcDbSymbolTableRecord
100
AcDbLayerTableRecord
  2
GAIKEI
 70
     0
 62
     7
  6
CONTINUOUS
370
    -3
390
7
  0
LAYER
  5
37
330
14
100
AcDbSymbolTableRecord
100
AcDbLayerTableRecord
  2
TOUROKU
 70
     0
 62
     1
  6
CONTINUOUS
370
    -3
390
7
  0
LAYER
  5
40
330
14
100
AcDbSymbolTableRecord
100
AcDbLayerTableRecord
  2
SUNPO
 70
     0
 62
     3
  6
CONTINUOUS
370
    -3
390
7
  0
ENDTAB
  0
TABLE
  2
STYLE
  5
18
330
0
100
AcDbSymbolTable
 70
     2
  0
STYLE
  5
19
330
18
100
AcDbSymbolTableRecord
100
AcDbTextStyleTableRecord
  2
STANDARD
 70
     0
 40
0.0
 41
1.0
 50
0.0
 71
     0
 42
3.0
  3
MONOTXT.shx
  4
BIGFONT.shx
  0
STYLE
  5
35
330
18
100
AcDbSymbolTableRecord
100
AcDbTextStyleTableRecord
  2
KANJI
 70
     0
 40
0.0
 41
1.0
 50
0.0
 71
     0
 42
3.5
  3
MONOTXT
  4
BIGFONT
  0
ENDTAB
  0
TABLE
  2
VIEW
  5
1E
330
0
100
AcDbSymbolTable
 70
     0
  0
ENDTAB
  0
TABLE
  2
UCS
  5
1F
330
0
100
AcDbSymbolTable
 70
     0
  0
ENDTAB
  0
TABLE
  2
APPID
  5
22
330
0
100
AcDbSymbolTable
 70
     1
  0
APPID
  5
23
330
22
100
AcDbSymbolTableRecord
100
AcDbRegAppTableRecord
  2
ACAD
 70
     0
  0
ENDTAB
  0
TABLE
  2
DIMSTYLE
  5
24
330
0
100
AcDbSymbolTable
 70
     1
100
AcDbDimStyleTable
 71
     1
340
25
  0
DIMSTYLE
105
25
102
{ACAD_REACTORS
330
3F
330
4E
330
5B
102
}
330
24
100
AcDbSymbolTableRecord
100
AcDbDimStyleTableRecord
  2
STANDARD
 70
     0
 40
0.0
 41
2.0
 42
2.0
 43
8.0
 44
2.0
 73
     0
 74
     0
 77
     3
140
3.0
141
0.0
173
     1
279
     2
288
     1
340
19
341
26
343
26
344
26
  0
ENDTAB
  0
TABLE
  2
BLOCK_RECORD
  5
1
330
0
100
AcDbSymbolTable
 70
     7
  0
BLOCK_RECORD
  5
2
102
{ACAD_XDICTIONARY
360
3
102
}
330
1
100
AcDbSymbolTableRecord
100
AcDbBlockTableRecord
  2
*MODEL_SPACE
340
C
  0
BLOCK_RECORD
  5
E
102
{ACAD_XDICTIONARY
360
F
102
}
330
1
100
AcDbSymbolTableRecord
100
AcDbBlockTableRecord
  2
*PAPER_SPACE
340
13
  0
BLOCK_RECORD
  5
26
330
1
100
AcDbSymbolTableRecord
100
AcDbBlockTableRecord
  2
_OPEN30
340
0
102
{BLKREFS
331
54
331
55
331
61
331
62
331
46
331
47
331
172
331
173
331
17E
331
17F
331
18A
331
18B
102
}
  0
BLOCK_RECORD
  5
41
330
1
100
AcDbSymbolTableRecord
100
AcDbBlockTableRecord
  2
*D1
340
0
  0
BLOCK_RECORD
  5
4F
330
1
100
AcDbSymbolTableRecord
100
AcDbBlockTableRecord
  2
*D2
340
0
  0
BLOCK_RECORD
  5
5C
330
1
100
AcDbSymbolTableRecord
100
AcDbBlockTableRecord
  2
*D3
340
0
  0
BLOCK_RECORD
  5
16E
330
1
100
AcDbSymbolTableRecord
100
AcDbBlockTableRecord
  2
*D4
340
0
  0
BLOCK_RECORD
  5
17A
330
1
100
AcDbSymbolTableRecord
100
AcDbBlockTableRecord
  2
*D5
340
0
  0
BLOCK_RECORD
  5
186
330
1
100
AcDbSymbolTableRecord
100
AcDbBlockTableRecord
  2
*D6
340
0
  0
ENDTAB
  0
ENDSEC
  0
SECTION
  2
BLOCKS
  0
BLOCK
  5
5
330
2
100
AcDbEntity
  8
0
100
AcDbBlockBegin
  2
*MODEL_SPACE
 70
     0
 10
0.0
 20
0.0
 30
0.0
  3
*MODEL_SPACE
  1

  0
ENDBLK
  5
B
330
2
100
AcDbEntity
  8
0
100
AcDbBlockEnd
  0
BLOCK
  5
11
330
E
100
AcDbEntity
 67
     1
  8
0
100
AcDbBlockBegin
  2
*PAPER_SPACE
 70
     0
 10
0.0
 20
0.0
 30
0.0
  3
*PAPER_SPACE
  1

  0
ENDBLK
  5
12
330
E
100
AcDbEntity
 67
     1
  8
0
100
AcDbBlockEnd
  0
BLOCK
  5
27
330
26
100
AcDbEntity
  8
0
100
AcDbBlockBegin
  2
_OPEN30
 70
     0
 10
0.0
 20
0.0
 30
0.0
  3
_OPEN30
  1

  0
LINE
  5
28
330
26
100
AcDbEntity
  8
0
  6
ByBlock
 62
     0
100
AcDbLine
 10
-1.0
 20
0.26794919
 30
0.0
 11
0.0
 21
0.0
 31
0.0
  0
LINE
  5
29
330
26
100
AcDbEntity
  8
0
  6
ByBlock
 62
     0
100
AcDbLine
 10
0.0
 20
0.0
 30
0.0
 11
-1.0
 21
-0.26794919
 31
0.0
  0
LINE
  5
2A
330
26
100
AcDbEntity
  8
0
  6
ByBlock
 62
     0
100
AcDbLine
 10
0.0
 20
0.0
 30
0.0
 11
-1.0
 21
0.0
 31
0.0
  0
ENDBLK
  5
2B
330
26
100
AcDbEntity
  8
0
100
AcDbBlockEnd
  0
BLOCK
  5
42
330
41
100
AcDbEntity
  8
0
100
AcDbBlockBegin
  2
*D1
 70
     1
 10
0.0
 20
0.0
 30
0.0
  3
*D1
  1

  0
LINE
  5
43
330
41
100
AcDbEntity
  8
SUNPO
 62
     0
370
    -2
100
AcDbLine
 10
65.84086501173453
 20
213.65272044619
 30
0.0
 11
65.84086501173453
 21
221.65272044619
 31
0.0
  0
LINE
  5
44
330
41
100
AcDbEntity
  8
SUNPO
 62
     0
370
    -2
100
AcDbLine
 10
107.0362210419646
 20
213.65272044619
 30
0.0
 11
107.0362210419646
 21
221.65272044619
 31
0.0
  0
LINE
  5
45
330
41
100
AcDbEntity
  8
SUNPO
 62
     0
370
    -2
100
AcDbLine
 10
67.84086501173454
 20
219.65272044619
 30
0.0
 11
105.0362210419646
 21
219.65272044619
 31
0.0
  0
INSERT
  5
46
330
41
100
AcDbEntity
  8
SUNPO
 62
     0
370
    -2
100
AcDbBlockReference
  2
_OPEN30
 10
65.84086501173453
 20
219.65272044619
 30
0.0
 41
2.0
 42
2.0
 43
2.0
 50
180.0
  0
INSERT
  5
47
330
41
100
AcDbEntity
  8
SUNPO
 62
     0
370
    -2
100
AcDbBlockReference
  2
_OPEN30
 10
107.0362210419646
 20
219.65272044619
 30
0.0
 41
2.0
 42
2.0
 43
2.0
  0
MTEXT
  5
48
330
41
100
AcDbEntity
  8
SUNPO
 62
     0
100
AcDbMText
 10
86.43854302684957
 20
221.40272044619
 30
0.0
 40
2.5
 41
0.0
 71
     5
 72
     1
  1
\A1;206
 73
     1
 44
1.0
1001
ACAD
1000
MTEXTBEGIN
1070
    73
1070
     1
1070
    44
1040
1.0
1070
    74
1070
     0
1000
MTEXTEND
  0
POINT
  5
49
330
41
100
AcDbEntity
  8
DEFPOINTS
 62
     0
100
AcDbPoint
 10
65.84086501173453
 20
211.65272044619
 30
0.0
  0
POINT
  5
4B
330
41
100
AcDbEntity
  8
DEFPOINTS
 62
     0
100
AcDbPoint
 10
107.0362210419646
 20
211.65272044619
 30
0.0
  0
POINT
  5
4C
330
41
100
AcDbEntity
  8
DEFPOINTS
 62
     0
100
AcDbPoint
 10
107.0362210419646
 20
219.65272044619
 30
0.0
  0
ENDBLK
  5
4D
330
41
100
AcDbEntity
  8
0
100
AcDbBlockEnd
  0
BLOCK
  5
50
330
4F
100
AcDbEntity
  8
0
100
AcDbBlockBegin
  2
*D2
 70
     1
 10
0.0
 20
0.0
 30
0.0
  3
*D2
  1

  0
LINE
  5
51
330
4F
100
AcDbEntity
  8
SUNPO
 62
     0
370
    -2
100
AcDbLine
 10
48.63843652785249
 20
201.5919567711001
 30
0.0
 11
56.63843652785248
 21
201.5919567711001
 31
0.0
  0
LINE
  5
52
330
4F
100
AcDbEntity
  8
SUNPO
 62
     0
370
    -2
100
AcDbLine
 10
48.63843652785249
 20
214.5919500508086
 30
0.0
 11
56.63843652785249
 21
214.5919500508086
 31
0.0
  0
LINE
  5
53
330
4F
100
AcDbEntity
  8
SUNPO
 62
     0
370
    -2
100
AcDbLine
 10
54.63843652785248
 20
203.5919567711001
 30
0.0
 11
54.63843652785249
 21
212.5919500508086
 31
0.0
  0
INSERT
  5
54
330
4F
100
AcDbEntity
  8
SUNPO
 62
     0
370
    -2
100
AcDbBlockReference
  2
_OPEN30
 10
54.63843652785248
 20
201.5919567711001
 30
0.0
 41
2.0
 42
2.0
 43
2.0
 50
270.0
  0
INSERT
  5
55
330
4F
100
AcDbEntity
  8
SUNPO
 62
     0
370
    -2
100
AcDbBlockReference
  2
_OPEN30
 10
54.63843652785249
 20
214.5919500508086
 30
0.0
 41
2.0
 42
2.0
 43
2.0
 50
90.0
  0
MTEXT
  5
56
330
4F
100
AcDbEntity
  8
SUNPO
 62
     0
100
AcDbMText
 10
52.88843652785246
 20
208.0919534109543
 30
0.0
 40
2.5
 41
0.0
 71
     5
 72
     1
  1
\A1;65
 11
0.0000000000000001
 21
1.0
 31
0.0
 73
     1
 44
1.0
1001
ACAD
1000
MTEXTBEGIN
1070
    73
1070
     1
1070
    44
1040
1.0
1070
    74
1070
     0
1000
MTEXTEND
  0
POINT
  5
57
330
4F
100
AcDbEntity
  8
DEFPOINTS
 62
     0
100
AcDbPoint
 10
46.63843652785248
 20
201.5919567711001
 30
0.0
  0
POINT
  5
58
330
4F
100
AcDbEntity
  8
DEFPOINTS
 62
     0
100
AcDbPoint
 10
46.63843652785248
 20
214.5919500508086
 30
0.0
  0
POINT
  5
59
330
4F
100
AcDbEntity
  8
DEFPOINTS
 62
     0
100
AcDbPoint
 10
54.63843652785249
 20
214.5919500508086
 30
0.0
  0
ENDBLK
  5
5A
330
4F
100
AcDbEntity
  8
0
100
AcDbBlockEnd
  0
BLOCK
  5
5D
330
5C
100
AcDbEntity
  8
0
100
AcDbBlockBegin
  2
*D3
 70
     1
 10
0.0
 20
0.0
 30
0.0
  3
*D3
  1

  0
LINE
  5
5E
330
5C
100
AcDbEntity
  8
SUNPO
 62
     0
370
    -2
100
AcDbLine
 10
32.23276625442043
 20
213.65272044619
 30
0.0
 11
32.23276625442043
 21
221.65272044619
 31
0.0
  0
LINE
  5
5F
330
5C
100
AcDbEntity
  8
SUNPO
 62
     0
370
    -2
100
AcDbLine
 10
46.6327662544204
 20
213.65272044619
 30
0.0
 11
46.6327662544204
 21
221.65272044619
 31
0.0
  0
LINE
  5
60
330
5C
100
AcDbEntity
  8
SUNPO
 62
     0
370
    -2
100
AcDbLine
 10
34.23276625442043
 20
219.65272044619
 30
0.0
 11
44.6327662544204
 21
219.65272044619
 31
0.0
  0
INSERT
  5
61
330
5C
100
AcDbEntity
  8
SUNPO
 62
     0
370
    -2
100
AcDbBlockReference
  2
_OPEN30
 10
32.23276625442043
 20
219.65272044619
 30
0.0
 41
2.0
 42
2.0
 43
2.0
 50
180.0
  0
INSERT
  5
62
330
5C
100
AcDbEntity
  8
SUNPO
 62
     0
370
    -2
100
AcDbBlockReference
  2
_OPEN30
 10
46.6327662544204
 20
219.65272044619
 30
0.0
 41
2.0
 42
2.0
 43
2.0
  0
MTEXT
  5
63
330
5C
100
AcDbEntity
  8
SUNPO
 62
     0
100
AcDbMText
 10
39.43276625442042
 20
221.40272044619
 30
0.0
 40
2.5
 41
0.0
 71
     5
 72
     1
  1
\A1;72
 73
     1
 44
1.0
1001
ACAD
1000
MTEXTBEGIN
1070
    73
1070
     1
1070
    44
1040
1.0
1070
    74
1070
     0
1000
MTEXTEND
  0
POINT
  5
64
330
5C
100
AcDbEntity
  8
DEFPOINTS
 62
     0
100
AcDbPoint
 10
32.23276625442043
 20
211.65272044619
 30
0.0
  0
POINT
  5
65
330
5C
100
AcDbEntity
  8
DEFPOINTS
 62
     0
100
AcDbPoint
 10
46.6327662544204
 20
211.65272044619
 30
0.0
  0
POINT
  5
66
330
5C
100
AcDbEntity
  8
DEFPOINTS
 62
     0
100
AcDbPoint
 10
46.6327662544204
 20
219.65272044619
 30
0.0
  0
ENDBLK
  5
67
330
5C
100
AcDbEntity
  8
0
100
AcDbBlockEnd
  0
BLOCK
  5
178
330
16E
100
AcDbEntity
  8
0
100
AcDbBlockBegin
  2
*D4
 70
     1
 10
0.0
 20
0.0
 30
0.0
  3
*D4
  1

  0
LINE
  5
16F
330
16E
100
AcDbEntity
  8
SUNPO
 62
     0
370
    -2
100
AcDbLine
 10
-31.05130149672812
 20
21.30588873969649
 30
0.0
 11
-31.05130149672812
 21
29.30588873969649
 31
0.0
  0
LINE
  5
170
330
16E
100
AcDbEntity
  8
SUNPO
 62
     0
370
    -2
100
AcDbLine
 10
-16.65130149672814
 20
21.30588873969649
 30
0.0
 11
-16.65130149672814
 21
29.30588873969649
 31
0.0
  0
LINE
  5
171
330
16E
100
AcDbEntity
  8
SUNPO
 62
     0
370
    -2
100
AcDbLine
 10
-29.05130149672812
 20
27.30588873969649
 30
0.0
 11
-18.65130149672814
 21
27.30588873969649
 31
0.0
  0
INSERT
  5
172
330
16E
100
AcDbEntity
  8
SUNPO
 62
     0
370
    -2
100
AcDbBlockReference
  2
_OPEN30
 10
-31.05130149672812
 20
27.30588873969649
 30
0.0
 41
2.0
 42
2.0
 43
2.0
 50
180.0
  0
INSERT
  5
173
330
16E
100
AcDbEntity
  8
SUNPO
 62
     0
370
    -2
100
AcDbBlockReference
  2
_OPEN30
 10
-16.65130149672814
 20
27.30588873969649
 30
0.0
 41
2.0
 42
2.0
 43
2.0
  0
MTEXT
  5
174
330
16E
100
AcDbEntity
  8
SUNPO
 62
     0
100
AcDbMText
 10
-23.85130149672813
 20
29.05588873969648
 30
0.0
 40
2.5
 41
0.0
 71
     5
 72
     1
  1
\A1;72
 73
     1
 44
1.0
1001
ACAD
1000
MTEXTBEGIN
1070
    73
1070
     1
1070
    44
1040
1.0
1070
    74
1070
     0
1000
MTEXTEND
  0
POINT
  5
175
330
16E
100
AcDbEntity
  8
DEFPOINTS
 62
     0
100
AcDbPoint
 10
-31.05130149672812
 20
19.30588873969648
 30
0.0
  0
POINT
  5
176
330
16E
100
AcDbEntity
  8
DEFPOINTS
 62
     0
100
AcDbPoint
 10
-16.65130149672814
 20
19.30588873969648
 30
0.0
  0
POINT
  5
177
330
16E
100
AcDbEntity
  8
DEFPOINTS
 62
     0
100
AcDbPoint
 10
-16.65130149672814
 20
27.30588873969649
 30
0.0
  0
ENDBLK
  5
179
330
16E
100
AcDbEntity
  8
0
100
AcDbBlockEnd
  0
BLOCK
  5
184
330
17A
100
AcDbEntity
  8
0
100
AcDbBlockBegin
  2
*D5
 70
     1
 10
0.0
 20
0.0
 30
0.0
  3
*D5
  1

  0
LINE
  5
17B
330
17A
100
AcDbEntity
  8
SUNPO
 62
     0
370
    -2
100
AcDbLine
 10
-14.64563122329605
 20
9.245125064606583
 30
0.0
 11
-6.645631223296053
 21
9.245125064606581
 31
0.0
  0
LINE
  5
17C
330
17A
100
AcDbEntity
  8
SUNPO
 62
     0
370
    -2
100
AcDbLine
 10
-14.64563122329605
 20
22.2451183443151
 30
0.0
 11
-6.645631223296049
 21
22.2451183443151
 31
0.0
  0
LINE
  5
17D
330
17A
100
AcDbEntity
  8
SUNPO
 62
     0
370
    -2
100
AcDbLine
 10
-8.645631223296053
 20
11.24512506460658
 30
0.0
 11
-8.645631223296049
 21
20.2451183443151
 31
0.0
  0
INSERT
  5
17E
330
17A
100
AcDbEntity
  8
SUNPO
 62
     0
370
    -2
100
AcDbBlockReference
  2
_OPEN30
 10
-8.645631223296053
 20
9.245125064606581
 30
0.0
 41
2.0
 42
2.0
 43
2.0
 50
270.0
  0
INSERT
  5
17F
330
17A
100
AcDbEntity
  8
SUNPO
 62
     0
370
    -2
100
AcDbBlockReference
  2
_OPEN30
 10
-8.645631223296049
 20
22.2451183443151
 30
0.0
 41
2.0
 42
2.0
 43
2.0
 50
90.0
  0
MTEXT
  5
180
330
17A
100
AcDbEntity
  8
SUNPO
 62
     0
100
AcDbMText
 10
-10.39563122329605
 20
15.74512170446084
 30
0.0
 40
2.5
 41
0.0
 71
     5
 72
     1
  1
\A1;65
 11
0.0000000000000001
 21
1.0
 31
0.0
 73
     1
 44
1.0
1001
ACAD
1000
MTEXTBEGIN
1070
    73
1070
     1
1070
    44
1040
1.0
1070
    74
1070
     0
1000
MTEXTEND
  0
POINT
  5
181
330
17A
100
AcDbEntity
  8
DEFPOINTS
 62
     0
100
AcDbPoint
 10
-16.64563122329605
 20
9.245125064606583
 30
0.0
  0
POINT
  5
182
330
17A
100
AcDbEntity
  8
DEFPOINTS
 62
     0
100
AcDbPoint
 10
-16.64563122329605
 20
22.2451183443151
 30
0.0
  0
POINT
  5
183
330
17A
100
AcDbEntity
  8
DEFPOINTS
 62
     0
100
AcDbPoint
 10
-8.645631223296049
 20
22.2451183443151
 30
0.0
  0
ENDBLK
  5
185
330
17A
100
AcDbEntity
  8
0
100
AcDbBlockEnd
  0
BLOCK
  5
190
330
186
100
AcDbEntity
  8
0
100
AcDbBlockBegin
  2
*D6
 70
     1
 10
0.0
 20
0.0
 30
0.0
  3
*D6
  1

  0
LINE
  5
187
330
186
100
AcDbEntity
  8
SUNPO
 62
     0
370
    -2
100
AcDbLine
 10
2.556797260585994
 20
21.30588873969649
 30
0.0
 11
2.556797260585995
 21
29.30588873969649
 31
0.0
  0
LINE
  5
188
330
186
100
AcDbEntity
  8
SUNPO
 62
     0
370
    -2
100
AcDbLine
 10
43.75215329081607
 20
21.30588873969649
 30
0.0
 11
43.75215329081607
 21
29.30588873969649
 31
0.0
  0
LINE
  5
189
330
186
100
AcDbEntity
  8
SUNPO
 62
     0
370
    -2
100
AcDbLine
 10
4.556797260585994
 20
27.30588873969649
 30
0.0
 11
41.75215329081606
 21
27.30588873969649
 31
0.0
  0
INSERT
  5
18A
330
186
100
AcDbEntity
  8
SUNPO
 62
     0
370
    -2
100
AcDbBlockReference
  2
_OPEN30
 10
2.556797260585995
 20
27.30588873969649
 30
0.0
 41
2.0
 42
2.0
 43
2.0
 50
180.0
  0
INSERT
  5
18B
330
186
100
AcDbEntity
  8
SUNPO
 62
     0
370
    -2
100
AcDbBlockReference
  2
_OPEN30
 10
43.75215329081607
 20
27.30588873969649
 30
0.0
 41
2.0
 42
2.0
 43
2.0
  0
MTEXT
  5
18C
330
186
100
AcDbEntity
  8
SUNPO
 62
     0
100
AcDbMText
 10
23.15447527570103
 20
29.05588873969648
 30
0.0
 40
2.5
 41
0.0
 71
     5
 72
     1
  1
\A1;206
 73
     1
 44
1.0
1001
ACAD
1000
MTEXTBEGIN
1070
    73
1070
     1
1070
    44
1040
1.0
1070
    74
1070
     0
1000
MTEXTEND
  0
POINT
  5
18D
330
186
100
AcDbEntity
  8
DEFPOINTS
 62
     0
100
AcDbPoint
 10
2.556797260585994
 20
19.30588873969648
 30
0.0
  0
POINT
  5
18E
330
186
100
AcDbEntity
  8
DEFPOINTS
 62
     0
100
AcDbPoint
 10
43.75215329081607
 20
19.30588873969648
 30
0.0
  0
POINT
  5
18F
330
186
100
AcDbEntity
  8
DEFPOINTS
 62
     0
100
AcDbPoint
 10
43.75215329081607
 20
27.30588873969649
 30
0.0
  0
ENDBLK
  5
191
330
186
100
AcDbEntity
  8
0
100
AcDbBlockEnd
  0
ENDSEC
  0
SECTION
  2
ENTITIES
  0
TEXT
  5
33
330
2
100
AcDbEntity
  8
MOJI1
100
AcDbText
 10
-34.28406775114843
 20
48.15238243314851
 30
0.0
 40
4.0
  1
ネットワークカメラ
  7
KANJI
100
AcDbText
  0
TEXT
  5
36
330
2
100
AcDbEntity
  8
TOUROKU
100
AcDbText
 10
45.18254894844543
 20
42.15238243314831
 30
0.0
 40
2.0
  1
ＤＧＮＰ２４４Ｖ
 72
     2
 11
63.71588228177876
 21
42.15238243314831
 31
0.0
100
AcDbText
  0
LINE
  5
38
330
2
100
AcDbEntity
  8
WAKU
 62
     1
100
AcDbLine
 10
-61.28406775114854
 20
-55.84761756685157
 30
0.0
 11
63.71593224885135
 21
-55.84761756685157
 31
0.0
  0
TEXT
  5
3A
330
2
100
AcDbEntity
  8
MOJI1
100
AcDbText
 10
-58.78406775114854
 20
-59.84761756685156
 30
0.0
 40
3.0
  1
レンズ
100
AcDbText
  0
TEXT
  5
3B
330
2
100
AcDbEntity
  8
MOJI1
100
AcDbText
 10
-18.78406775114854
 20
-59.84761756685156
 30
0.0
 40
3.0
  1
２倍バリフォーカルレンズ付き
 41
0.75
100
AcDbText
  0
LINE
  5
3C
330
2
100
AcDbEntity
  8
GAIKEI
 62
     1
100
AcDbLine
 10
-31.50727964660115
 20
13.60524107140685
 30
0.0
 11
-31.00328628606366
 21
13.60524107140682
 31
0.0
  0
LINE
  5
3E
330
2
100
AcDbEntity
  8
GAIKEI
 62
     1
100
AcDbLine
 10
-32.24489988562579
 20
13.73392041337558
 30
0.0
 11
-32.67437568280485
 21
13.73392041337561
 31
0.0
  0
DIMENSION
  5
3F
330
2
100
AcDbEntity
  8
SUNPO
100
AcDbDimension
  2
*D6
 10
43.75215329081607
 20
27.30588873969649
 30
0.0
 11
23.15447527570103
 21
29.05588873969648
 31
0.0
 70
    33
  1
206
 71
     5
 42
41.19535603023007
  3
STANDARD
100
AcDbAlignedDimension
 13
2.556797260585994
 23
19.30588873969648
 33
0.0
 14
43.75215329081607
 24
19.30588873969648
 34
0.0
1001
ACAD
1000
DSTYLE
1002
{
1070
    40
1040
1.0
1070
   140
1040
2.5
1070
   147
1040
0.5
1070
   172
1070
     1
1070
   279
1070
     0
1070
   288
1070
     0
1002
}
  0
DIMENSION
  5
4E
330
2
100
AcDbEntity
  8
SUNPO
100
AcDbDimension
  2
*D5
 10
-8.645631223296049
 20
22.2451183443151
 30
0.0
 11
-10.39563122329605
 21
15.74512170446084
 31
0.0
 70
    33
  1
65
 71
     5
 42
12.99999327970852
  3
STANDARD
100
AcDbAlignedDimension
 13
-16.64563122329605
 23
9.245125064606583
 33
0.0
 14
-16.64563122329605
 24
22.2451183443151
 34
0.0
1001
ACAD
1000
DSTYLE
1002
{
1070
    40
1040
1.0
1070
   140
1040
2.5
1070
   147
1040
0.5
1070
   172
1070
     1
1070
   279
1070
     0
1070
   288
1070
     0
1002
}
  0
DIMENSION
  5
5B
330
2
100
AcDbEntity
  8
SUNPO
100
AcDbDimension
  2
*D4
 10
-16.65130149672814
 20
27.30588873969649
 30
0.0
 11
-23.85130149672813
 21
29.05588873969648
 31
0.0
 70
    33
  1
72
 71
     5
 42
14.39999999999997
  3
STANDARD
100
AcDbAlignedDimension
 13
-31.05130149672812
 23
19.30588873969648
 33
0.0
 14
-16.65130149672814
 24
19.30588873969648
 34
0.0
1001
ACAD
1000
DSTYLE
1002
{
1070
    40
1040
1.0
1070
   140
1040
2.5
1070
   147
1040
0.5
1070
   172
1070
     1
1070
   279
1070
     0
1070
   288
1070
     0
1002
}
  0
ARC
  5
68
330
2
100
AcDbEntity
  8
GAIKEI
 62
     1
100
AcDbCircle
 10
-31.85288351185142
 20
14.63543060549685
 30
0.0
 40
0.3745985762560984
100
AcDbArc
 50
359.991131999244
 51
180.0088680007559
  0
ARC
  5
69
330
2
100
AcDbEntity
  8
GAIKEI
 62
     1
100
AcDbCircle
 10
-33.02392474530581
 20
13.90600471799317
 30
0.0
 40
1.546179525971272
100
AcDbArc
 50
305.6992526472961
 51
358.4860732532384
  0
ARC
  5
6A
330
2
100
AcDbEntity
  8
GAIKEI
 62
     1
100
AcDbCircle
 10
-31.58369546221428
 20
11.92703253474192
 30
0.0
 40
0.9014657389962849
100
AcDbArc
 50
126.6403781995485
 51
172.1488898658926
  0
ARC
  5
6B
330
2
100
AcDbEntity
  8
GAIKEI
 62
     1
100
AcDbCircle
 10
-31.9485248992732
 20
12.04638805834261
 30
0.0
 40
1.277389055384881
100
AcDbArc
 50
150.3484055381865
 51
179.8302697567869
  0
ARC
  5
6C
330
2
100
AcDbEntity
  8
GAIKEI
 62
     1
100
AcDbCircle
 10
-30.79086701278124
 20
11.2807885328954
 30
0.0
 40
2.663823086904255
100
AcDbArc
 50
130.9769398227115
 51
148.3558061334706
  0
ARC
  5
6D
330
2
100
AcDbEntity
  8
GAIKEI
 62
     1
100
AcDbCircle
 10
-32.97130767184484
 20
13.89710439924445
 30
0.0
 40
0.7445114405593387
100
AcDbArc
 50
305.621539318383
 51
357.5404786399831
  0
LINE
  5
6E
330
2
100
AcDbEntity
  8
GAIKEI
 62
     1
100
AcDbLine
 10
-31.47828494008212
 20
14.63537262669857
 30
0.0
 11
-31.47828494008212
 21
13.86515476032926
 31
0.0
  0
LINE
  5
6F
330
2
100
AcDbEntity
  8
GAIKEI
 62
     1
100
AcDbLine
 10
-32.22748208362072
 20
14.63537262669857
 30
0.0
 11
-32.22748208362072
 21
13.86515476032926
 31
0.0
  0
LINE
  5
70
330
2
100
AcDbEntity
  8
GAIKEI
 62
     1
100
AcDbLine
 10
-33.22590834978115
 20
11.11782758197742
 30
0.0
 11
-33.22590834978115
 21
12.05017212830003
 31
0.0
  0
ARC
  5
71
330
2
100
AcDbEntity
  8
GAIKEI
 62
     1
100
AcDbCircle
 10
-32.12636619253073
 20
11.21636143747858
 30
0.0
 40
1.103948312309489
100
AcDbArc
 50
185.1207986918267
 51
235.2096377951399
  0
LINE
  5
72
330
2
100
AcDbEntity
  8
GAIKEI
 62
     1
100
AcDbLine
 10
-32.47671120624267
 20
12.05017212830003
 30
0.0
 11
-32.47671120624267
 21
11.12316986512772
 31
0.0
  0
ARC
  5
73
330
2
100
AcDbEntity
  8
GAIKEI
 62
     1
100
AcDbCircle
 10
-32.09737714667182
 20
11.08898189998527
 30
0.0
 40
1.020450716714689
100
AcDbArc
 50
229.784040895462
 51
281.9058800582959
  0
ARC
  5
74
330
2
100
AcDbEntity
  8
GAIKEI
 62
     1
100
AcDbCircle
 10
-32.00622689088226
 20
11.32385312430793
 30
0.0
 40
0.5114970786967694
100
AcDbArc
 50
203.1004834885028
 51
262.6409501003877
  0
ARC
  5
75
330
2
100
AcDbEntity
  8
GAIKEI
 62
     1
100
AcDbCircle
 10
-60.97480870833255
 20
158.2213033228095
 30
0.0
 40
150.9597594707294
100
AcDbArc
 50
281.109625341357
 51
281.5291304009469
  0
ARC
  5
76
330
2
100
AcDbEntity
  8
GAIKEI
 62
     1
100
AcDbCircle
 10
-471.5778098676482
 20
2209.24491835481
 30
0.0
 40
2241.930594144349
100
AcDbArc
 50
281.3054315978742
 51
281.3334669118246
  0
ARC
  5
77
330
2
100
AcDbEntity
  8
GAIKEI
 62
     1
100
AcDbCircle
 10
-31.12222248257393
 20
11.76392787916373
 30
0.0
 40
0.7428290728437017
100
AcDbArc
 50
279.7765264988006
 51
320.9765563088684
  0
ARC
  5
78
330
2
100
AcDbEntity
  8
GAIKEI
 62
     1
100
AcDbCircle
 10
-29.13118962985237
 20
11.9488666106661
 30
0.0
 40
1.067734200105027
100
AcDbArc
 50
120.2947128391387
 51
147.7149919589616
  0
ARC
  5
79
330
2
100
AcDbEntity
  8
GAIKEI
 62
     1
100
AcDbCircle
 10
-29.06480262591543
 20
11.88159245376212
 30
0.0
 40
0.4406520741625516
100
AcDbArc
 50
133.3394661277063
 51
161.7983658214196
  0
ARC
  5
7A
330
2
100
AcDbEntity
  8
GAIKEI
 62
     1
100
AcDbCircle
 10
-31.01020322659923
 20
11.57139075460296
 30
0.0
 40
1.280824440365249
100
AcDbArc
 50
279.3068129911967
 51
337.3708032503797
  0
ARC
  5
7B
330
2
100
AcDbEntity
  8
GAIKEI
 62
     1
100
AcDbCircle
 10
-25.0221511914935
 20
9.705621081846658
 30
0.0
 40
5.747456733717819
100
AcDbArc
 50
150.6902695636763
 51
163.8711796910298
  0
LINE
  5
7C
330
2
100
AcDbEntity
  8
GAIKEI
 62
     1
100
AcDbLine
 10
-29.16422397308025
 20
13.08448460083994
 30
0.0
 11
-29.66980595710544
 21
12.87079327482675
 31
0.0
  0
LINE
  5
7D
330
2
100
AcDbEntity
  8
GAIKEI
 62
     1
100
AcDbLine
 10
-29.48340585516172
 20
12.01923542281011
 30
0.0
 11
-29.82798399299139
 21
11.07857341448144
 31
0.0
  0
LINE
  5
7E
330
2
100
AcDbEntity
  8
GAIKEI
 62
     1
100
AcDbLine
 10
-28.89478708375924
 20
12.38534232768805
 30
0.0
 11
-29.36723073279273
 21
12.2020787883138
 31
0.0
  0
ARC
  5
7F
330
2
100
AcDbEntity
  8
GAIKEI
 62
     1
100
AcDbCircle
 10
-29.1248525217365
 20
13.36690263432334
 30
0.0
 40
0.1420655411553729
100
AcDbArc
 50
111.2325624166225
 51
200.8694477540721
  0
ARC
  5
80
330
2
100
AcDbEntity
  8
GAIKEI
 62
     1
100
AcDbCircle
 10
-28.66575630517952
 20
12.16902946921758
 30
0.0
 40
0.1418997723900969
100
AcDbArc
 50
201.0784082340999
 51
290.9021998888071
  0
LINE
  5
81
330
2
100
AcDbEntity
  8
GAIKEI
 62
     1
100
AcDbLine
 10
-28.79816144069236
 20
12.11799589699117
 30
0.0
 11
-29.25759779162076
 21
13.31629323492805
 31
0.0
  0
LINE
  5
82
330
2
100
AcDbEntity
  8
GAIKEI
 62
     1
100
AcDbLine
 10
-28.44859030411652
 20
12.09662676438987
 30
0.0
 11
-28.61513017449846
 21
12.03646801065352
 31
0.0
  0
LINE
  5
83
330
2
100
AcDbEntity
  8
GAIKEI
 62
     1
100
AcDbLine
 10
-29.01347867896874
 20
13.56436099164776
 30
0.0
 11
-29.17630217846357
 21
13.49932450112194
 31
0.0
  0
LINE
  5
84
330
2
100
AcDbEntity
  8
GAIKEI
 62
     1
100
AcDbLine
 10
-32.55429044851263
 20
15.60813270641941
 30
0.0
 11
-32.55429044851263
 21
13.62939748217346
 31
0.0
  0
LINE
  5
85
330
2
100
AcDbEntity
  8
GAIKEI
 62
     1
100
AcDbLine
 10
-31.12697175465286
 20
15.50128704341276
 30
0.0
 11
-32.66914953624468
 21
15.50128704341276
 31
0.0
  0
LINE
  5
86
330
2
100
AcDbEntity
  8
GAIKEI
 62
     1
100
AcDbLine
 10
-31.00851243262383
 20
13.73392041337561
 30
0.0
 11
-31.48735124604292
 21
13.73392041337561
 31
0.0
  0
LINE
  5
87
330
2
100
AcDbEntity
  8
GAIKEI
 62
     1
100
AcDbLine
 10
-32.55161930693743
 20
13.60524107140682
 30
0.0
 11
-32.28638936796671
 21
13.60524107140685
 31
0.0
  0
LINE
  5
88
330
2
100
AcDbEntity
  8
GAIKEI
 62
     1
100
AcDbLine
 10
-32.72652101181558
 20
13.78014277628497
 30
0.0
 11
-32.55161930693743
 21
13.60524107140682
 31
0.0
  0
LINE
  5
89
330
2
100
AcDbEntity
  8
GAIKEI
 62
     1
100
AcDbLine
 10
-32.72652101181558
 20
15.45483240732292
 30
0.0
 11
-32.72652101181558
 21
13.78014277628497
 31
0.0
  0
LINE
  5
8A
330
2
100
AcDbEntity
  8
GAIKEI
 62
     1
100
AcDbLine
 10
-32.55161930693743
 20
15.62996638538155
 30
0.0
 11
-32.72652101181558
 21
15.45483240732292
 31
0.0
  0
LINE
  5
8B
330
2
100
AcDbEntity
  8
GAIKEI
 62
     1
100
AcDbLine
 10
-31.1374240477731
 20
15.62996638538155
 30
0.0
 11
-32.55161930693743
 21
15.62996638538155
 31
0.0
  0
LINE
  5
8C
330
2
100
AcDbEntity
  8
GAIKEI
 62
     1
100
AcDbLine
 10
-25.54680146076584
 20
20.46520539814375
 30
0.0
 11
-25.30310887314153
 21
19.79775180839428
 31
0.0
  0
LINE
  5
8D
330
2
100
AcDbEntity
  8
GAIKEI
 62
     1
100
AcDbLine
 10
-25.62554206893816
 20
20.4387262555725
 30
0.0
 11
-25.38294300076513
 21
19.77430865105552
 31
0.0
  0
LINE
  5
8E
330
2
100
AcDbEntity
  8
GAIKEI
 62
     1
100
AcDbLine
 10
-25.71519951659155
 20
20.40318845896385
 30
0.0
 11
-25.47493723286317
 21
19.74559129574649
 31
0.0
  0
LINE
  5
8F
330
2
100
AcDbEntity
  8
GAIKEI
 62
     1
100
AcDbLine
 10
-25.83203292635739
 20
20.3576629155958
 30
0.0
 11
-25.59364578101469
 21
19.70579010222511
 31
0.0
  0
LINE
  5
90
330
2
100
AcDbEntity
  8
GAIKEI
 62
     1
100
AcDbLine
 10
-25.99392733313033
 20
20.30029144002489
 30
0.0
 11
-25.75524545753439
 21
19.64651065034874
 31
0.0
  0
LINE
  5
91
330
2
100
AcDbEntity
  8
GAIKEI
 62
     1
100
AcDbLine
 10
-26.11234331279383
 20
20.25950394027515
 30
0.0
 11
-25.8715686993998
 21
19.60009370241457
 31
0.0
  0
LINE
  5
92
330
2
100
AcDbEntity
  8
GAIKEI
 62
     1
100
AcDbLine
 10
-26.20290521366036
 20
20.22604038074243
 30
0.0
 11
-25.96061593519249
 21
19.56237844406993
 31
0.0
  0
LINE
  5
93
330
2
100
AcDbEntity
  8
GAIKEI
 62
     1
100
AcDbLine
 10
-26.27985561826319
 20
20.19437486974002
 30
0.0
 11
-26.03654954907944
 21
19.52868564414197
 31
0.0
  0
LINE
  5
94
330
2
100
AcDbEntity
  8
GAIKEI
 62
     1
100
AcDbLine
 10
-26.37346170998427
 20
20.16301799037941
 30
0.0
 11
-25.45319536904498
 21
20.5030659265569
 31
0.0
  0
LINE
  5
95
330
2
100
AcDbEntity
  8
GAIKEI
 62
     1
100
AcDbLine
 10
-25.45319536904498
 20
20.5030659265569
 30
0.0
 11
-25.20541393371576
 21
19.82459965822554
 31
0.0
  0
LINE
  5
96
330
2
100
AcDbEntity
  8
GAIKEI
 62
     1
100
AcDbLine
 10
-25.57722924740478
 20
20.56020512894745
 30
0.0
 11
-25.45319536904498
 21
20.5030659265569
 31
0.0
  0
LINE
  5
97
330
2
100
AcDbEntity
  8
GAIKEI
 62
     1
100
AcDbLine
 10
-26.31632250759373
 20
20.28681959555886
 30
0.0
 11
-25.57722924740478
 21
20.56020512894745
 31
0.0
  0
LINE
  5
98
330
2
100
AcDbEntity
  8
GAIKEI
 62
     1
100
AcDbLine
 10
-26.37346170998427
 20
20.16301799037941
 30
0.0
 11
-26.31632250759373
 21
20.28681959555886
 31
0.0
  0
LINE
  5
99
330
2
100
AcDbEntity
  8
GAIKEI
 62
     1
100
AcDbLine
 10
-26.12647933165789
 20
19.48691564971008
 30
0.0
 11
-26.37346170998427
 21
20.16301799037941
 31
0.0
  0
LINE
  5
9A
330
2
100
AcDbEntity
  8
GAIKEI
 62
     1
100
AcDbLine
 10
-29.05180375374283
 20
16.20437796063223
 30
0.0
 11
-31.13969707288294
 21
16.20437796063223
 31
0.0
  0
LINE
  5
9B
330
2
100
AcDbEntity
  8
GAIKEI
 62
     1
100
AcDbLine
 10
-29.01264804695455
 20
16.32028227767628
 30
0.0
 11
-31.13680688269273
 21
16.32028227767628
 31
0.0
  0
LINE
  5
9C
330
2
100
AcDbEntity
  8
GAIKEI
 62
     1
100
AcDbLine
 10
-16.72872114806892
 20
16.20437796063223
 30
0.0
 11
-17.29720349739631
 21
16.20437796063223
 31
0.0
  0
LINE
  5
9D
330
2
100
AcDbEntity
  8
GAIKEI
 62
     1
100
AcDbLine
 10
-16.72872114806892
 20
16.32028227767628
 30
0.0
 11
-17.32458964126857
 21
16.32028227767628
 31
0.0
  0
LINE
  5
9E
330
2
100
AcDbEntity
  8
GAIKEI
100
AcDbLine
 10
-18.34116156674662
 20
17.96175684391008
 30
0.0
 11
-21.50929101825994
 21
19.45528160955106
 31
0.0
  0
ARC
  5
9F
330
2
100
AcDbEntity
  8
GAIKEI
100
AcDbCircle
 10
-18.84647507586265
 20
16.7391342329104
 30
0.0
 40
1.322931514260272
100
AcDbArc
 50
19.75100252230302
 51
67.54454874802826
  0
LINE
  5
A0
330
2
100
AcDbEntity
  8
GAIKEI
100
AcDbLine
 10
-18.34116156674662
 20
11.50409788106427
 30
0.0
 11
-21.50859419871853
 21
9.974578987806836
 31
0.0
  0
ARC
  5
A1
330
2
100
AcDbEntity
  8
GAIKEI
100
AcDbCircle
 10
-18.84717325122273
 20
12.72725245080553
 30
0.0
 40
1.323689890535254
100
AcDbArc
 50
292.4745852480108
 51
340.2470012446633
  0
ARC
  5
A2
330
2
100
AcDbEntity
  8
GAIKEI
100
AcDbCircle
 10
-23.78318131635734
 20
14.73304349907747
 30
0.0
 40
6.650769381493667
100
AcDbArc
 50
338.3551320015182
 51
21.64486799848178
  0
CIRCLE
  5
A3
330
2
100
AcDbEntity
  8
GAIKEI
100
AcDbCircle
 10
-23.85130149672813
 20
14.72410098163007
 30
0.0
 40
5.402527603906811
  0
CIRCLE
  5
A4
330
2
100
AcDbEntity
  8
GAIKEI
  6
Continuous
 62
     1
100
AcDbCircle
 10
-23.85141763331836
 20
14.72363643526924
 30
0.0
 40
5.29421344792442
  0
CIRCLE
  5
A5
330
2
100
AcDbEntity
  8
GAIKEI
 62
     1
100
AcDbCircle
 10
-23.85141763331836
 20
14.72363643526924
 30
0.0
 40
4.085569107509454
  0
CIRCLE
  5
A6
330
2
100
AcDbEntity
  8
GAIKEI
 62
     1
100
AcDbCircle
 10
-23.85130149672813
 20
14.72410098163007
 30
0.0
 40
3.41847245360644
  0
CIRCLE
  5
A7
330
2
100
AcDbEntity
  8
GAIKEI
 62
     1
100
AcDbCircle
 10
-23.85130149672813
 20
14.72410098163007
 30
0.0
 40
3.120822452514117
  0
ARC
  5
A8
330
2
100
AcDbEntity
  8
GAIKEI
100
AcDbCircle
 10
-18.40400940578928
 20
19.39146855778719
 30
0.0
 40
0.8190788417004496
100
AcDbArc
 50
45.70022709293449
 51
88.14193547361849
  0
ARC
  5
A9
330
2
100
AcDbEntity
  8
GAIKEI
100
AcDbCircle
 10
-19.97059065854069
 20
17.91399717281012
 30
0.0
 40
2.971960562180466
100
AcDbArc
 50
15.45653500445309
 51
43.97816540431205
  0
ARC
  5
AA
330
2
100
AcDbEntity
  8
GAIKEI
100
AcDbCircle
 10
-25.34483315370068
 20
16.18387118833064
 30
0.0
 40
8.616136409162889
100
AcDbArc
 50
0.102035308351482
 51
17.0212837802442
  0
ARC
  5
AB
330
2
100
AcDbEntity
  8
GAIKEI
100
AcDbCircle
 10
-46.63408633930674
 20
16.46656687099531
 30
0.0
 40
29.90657095902836
100
AcDbArc
 50
348.4982589499543
 51
359.4877940407297
  0
ARC
  5
AC
330
2
100
AcDbEntity
  8
GAIKEI
100
AcDbCircle
 10
-19.14736838087145
 20
11.007928553624
 30
0.0
 40
1.887987315398019
100
AcDbArc
 50
288.2857547323716
 51
344.496194925892
  0
ARC
  5
AD
330
2
100
AcDbEntity
  8
GAIKEI
100
AcDbCircle
 10
-27.89781682163113
 20
17.91915988874143
 30
0.0
 40
2.971960562180455
100
AcDbArc
 50
136.0218345956879
 51
164.5434649955469
  0
ARC
  5
AE
330
2
100
AcDbEntity
  8
GAIKEI
100
AcDbCircle
 10
-29.46439807438236
 20
19.3966312737185
 30
0.0
 40
0.8190788417004496
100
AcDbArc
 50
91.8580645263815
 51
134.2997729070655
  0
ARC
  5
AF
330
2
100
AcDbEntity
  8
GAIKEI
100
AcDbCircle
 10
-22.52357432647108
 20
16.18903390426195
 30
0.0
 40
8.616136409162889
100
AcDbArc
 50
162.9787162197558
 51
179.8979646916485
  0
ARC
  5
B0
330
2
100
AcDbEntity
  8
GAIKEI
100
AcDbCircle
 10
-1.234321140865006
 20
16.47172958692661
 30
0.0
 40
29.90657095902836
100
AcDbArc
 50
180.5122059592702
 51
190.1995902503155
  0
ARC
  5
B1
330
2
100
AcDbEntity
  8
GAIKEI
100
AcDbCircle
 10
-28.7210390993003
 20
11.0130912695553
 30
0.0
 40
1.887987315398019
100
AcDbArc
 50
199.126162988678
 51
252.2203716011307
  0
LINE
  5
B2
330
2
100
AcDbEntity
  8
GAIKEI
100
AcDbLine
 10
-29.29754877865793
 20
9.215277960918712
 30
0.0
 11
-18.55500028958244
 21
9.215277960918712
 31
0.0
  0
LINE
  5
B3
330
2
100
AcDbEntity
  8
GAIKEI
100
AcDbLine
 10
-29.49095560815971
 20
20.21527945598049
 30
0.0
 11
-18.38111255378379
 21
20.21527945598049
 31
0.0
  0
LINE
  5
B4
330
2
100
AcDbEntity
  8
GAIKEI
 62
     1
100
AcDbLine
 10
-27.85931324531708
 20
20.47217359355725
 30
0.0
 11
-19.84328974813917
 21
20.47217359355725
 31
0.0
  0
LINE
  5
B5
330
2
100
AcDbEntity
  8
GAIKEI
100
AcDbLine
 10
-19.84328974813917
 20
20.21527945598046
 30
0.0
 11
-19.84328974813928
 21
20.47217359355725
 31
0.0
  0
LINE
  5
B6
330
2
100
AcDbEntity
  8
GAIKEI
100
AcDbLine
 10
-19.84328974813928
 20
20.47217359355725
 30
0.0
 11
-20.47646643804347
 21
22.21527945598047
 31
0.0
  0
LINE
  5
B7
330
2
100
AcDbEntity
  8
GAIKEI
100
AcDbLine
 10
-27.2261365554129
 20
22.21527945598047
 30
0.0
 11
-20.47646643804347
 21
22.21527945598047
 31
0.0
  0
LINE
  5
B8
330
2
100
AcDbEntity
  8
GAIKEI
100
AcDbLine
 10
-27.85931324531708
 20
20.47217359355725
 30
0.0
 11
-27.2261365554129
 21
22.21527945598047
 31
0.0
  0
LINE
  5
B9
330
2
100
AcDbEntity
  8
GAIKEI
100
AcDbLine
 10
-27.8593132453172
 20
20.21527945598046
 30
0.0
 11
-27.85931324531708
 21
20.47217359355725
 31
0.0
  0
LINE
  5
BA
330
2
100
AcDbEntity
  8
GAIKEI
 62
     1
100
AcDbLine
 10
10.80032041081983
 20
20.64305855102038
 30
0.0
 11
10.80032041081983
 21
20.11092069461148
 31
0.0
  0
LINE
  5
BB
330
2
100
AcDbEntity
  8
GAIKEI
 62
     1
100
AcDbLine
 10
10.71693433903863
 20
20.64305855102038
 30
0.0
 11
10.71693433903863
 21
20.11208206051373
 31
0.0
  0
LINE
  5
BC
330
2
100
AcDbEntity
  8
GAIKEI
 62
     1
100
AcDbLine
 10
10.62077324233269
 20
20.64305855102038
 30
0.0
 11
10.62077324233269
 21
20.11208206051373
 31
0.0
  0
LINE
  5
BD
330
2
100
AcDbEntity
  8
GAIKEI
 62
     1
100
AcDbLine
 10
10.49557799807064
 20
20.64305855102038
 30
0.0
 11
10.49557799807064
 21
20.11208206051373
 31
0.0
  0
LINE
  5
BE
330
2
100
AcDbEntity
  8
GAIKEI
 62
     1
100
AcDbLine
 10
10.19826832709577
 20
20.64305855102038
 30
0.0
 11
10.19826832709577
 21
20.11092069461148
 31
0.0
  0
LINE
  5
BF
330
2
100
AcDbEntity
  8
GAIKEI
 62
     1
100
AcDbLine
 10
10.32346357135782
 20
20.64166491193765
 30
0.0
 11
10.32346357135782
 21
20.11092069461148
 31
0.0
  0
LINE
  5
C0
330
2
100
AcDbEntity
  8
GAIKEI
 62
     1
100
AcDbLine
 10
10.10187495720936
 20
20.64305855102038
 30
0.0
 11
10.10187495720936
 21
20.11208206051373
 31
0.0
  0
LINE
  5
C1
330
2
100
AcDbEntity
  8
GAIKEI
 62
     1
100
AcDbLine
 10
10.01872115860862
 20
20.64166491193765
 30
0.0
 11
10.01872115860862
 21
20.11208206051373
 31
0.0
  0
LINE
  5
C2
330
2
100
AcDbEntity
  8
GAIKEI
 62
     1
100
AcDbLine
 10
10.89903651251074
 20
20.64305855102038
 30
0.0
 11
9.92000505691783
 21
20.64305855102038
 31
0.0
  0
LINE
  5
C3
330
2
100
AcDbEntity
  8
GAIKEI
 62
     1
100
AcDbLine
 10
10.90112697113477
 20
20.64491673646393
 30
0.0
 11
10.90112697113477
 21
20.11092069461148
 31
0.0
  0
LINE
  5
C4
330
2
100
AcDbEntity
  8
GAIKEI
 62
     1
100
AcDbLine
 10
10.80473360124836
 20
20.74107783316987
 30
0.0
 11
10.90112697113477
 21
20.64491673646393
 31
0.0
  0
LINE
  5
C5
330
2
100
AcDbEntity
  8
GAIKEI
 62
     1
100
AcDbLine
 10
10.01639842680413
 20
20.74107783316987
 30
0.0
 11
10.80473360124836
 21
20.74107783316987
 31
0.0
  0
LINE
  5
C6
330
2
100
AcDbEntity
  8
GAIKEI
 62
     1
100
AcDbLine
 10
9.920005056917716
 20
20.64491673646393
 30
0.0
 11
10.01639842680413
 21
20.74107783316987
 31
0.0
  0
LINE
  5
C7
330
2
100
AcDbEntity
  8
GAIKEI
 62
     1
100
AcDbLine
 10
9.920005056917716
 20
20.11092069461148
 30
0.0
 11
9.920005056917716
 21
20.64491673646393
 31
0.0
  0
LINE
  5
C8
330
2
100
AcDbEntity
  8
GAIKEI
100
AcDbLine
 10
2.556797260585994
 20
18.77581445339007
 30
0.0
 11
2.556797260585994
 21
10.78793977774541
 31
0.0
  0
ARC
  5
C9
330
2
100
AcDbEntity
  8
GAIKEI
100
AcDbCircle
 10
11.98209474773705
 20
19.94086532314799
 30
0.0
 40
0.1700555761961174
100
AcDbArc
 50
0.0105805460022978
 51
89.91109304169127
  0
LINE
  5
CA
330
2
100
AcDbEntity
  8
GAIKEI
100
AcDbLine
 10
4.579896662297642
 20
18.77581445339007
 30
0.0
 11
2.556797260585994
 21
18.77581445339007
 31
0.0
  0
LINE
  5
CB
330
2
100
AcDbEntity
  8
GAIKEI
100
AcDbLine
 10
4.579896662297642
 20
10.78793977774541
 30
0.0
 11
2.556797260585994
 21
10.78793977774541
 31
0.0
  0
LINE
  5
CC
330
2
100
AcDbEntity
  8
GAIKEI
 62
     1
100
AcDbLine
 10
4.767341118920171
 20
11.74746028618068
 30
0.0
 11
12.15215032103356
 21
11.74746028618068
 31
0.0
  0
LINE
  5
CD
330
2
100
AcDbEntity
  8
GAIKEI
 62
     1
100
AcDbLine
 10
4.767341118920171
 20
17.7749493188349
 30
0.0
 11
12.15215032103356
 21
17.7749493188349
 31
0.0
  0
LINE
  5
CE
330
2
100
AcDbEntity
  8
GAIKEI
 62
     1
100
AcDbLine
 10
4.767341118920171
 20
17.7749493188349
 30
0.0
 11
4.579896662297642
 21
18.77581445339007
 31
0.0
  0
LINE
  5
CF
330
2
100
AcDbEntity
  8
GAIKEI
 62
     1
100
AcDbLine
 10
4.767341118920171
 20
11.76836487242116
 30
0.0
 11
4.767341118920171
 21
17.7749493188349
 31
0.0
  0
LINE
  5
D0
330
2
100
AcDbEntity
  8
GAIKEI
 62
     1
100
AcDbLine
 10
4.579896662297642
 20
10.78793977774541
 30
0.0
 11
4.767341118920171
 21
11.76836487242116
 31
0.0
  0
ARC
  5
D1
330
2
100
AcDbEntity
  8
GAIKEI
100
AcDbCircle
 10
4.920057417908537
 20
19.77076009539127
 30
0.0
 40
0.3401607742682249
100
AcDbArc
 50
90.05812649547364
 51
179.9810233352584
  0
ARC
  5
D2
330
2
100
AcDbEntity
  8
GAIKEI
100
AcDbCircle
 10
4.919858869163022
 20
9.751451117269482
 30
0.0
 40
0.3399622384499208
100
AcDbArc
 50
180.0246978766494
 51
269.9753021233636
  0
LINE
  5
D3
330
2
100
AcDbEntity
  8
GAIKEI
100
AcDbLine
 10
4.579896662297642
 20
9.751304573401114
 30
0.0
 11
4.579896662297642
 21
19.77087275843399
 31
0.0
  0
ARC
  5
D4
330
2
100
AcDbEntity
  8
GAIKEI
100
AcDbCircle
 10
11.982243520162
 20
9.581395712683672
 30
0.0
 40
0.169906841269708
100
AcDbArc
 50
270.038815896716
 51
0.0395105155894589
  0
LINE
  5
D5
330
2
100
AcDbEntity
  8
GAIKEI
100
AcDbLine
 10
11.98235862612534
 20
9.411488910404102
 30
0.0
 11
4.919712325294767
 21
9.411488910404102
 31
0.0
  0
LINE
  5
D6
330
2
100
AcDbEntity
  8
GAIKEI
100
AcDbLine
 10
12.15215032103356
 20
19.94089672652268
 30
0.0
 11
12.15215032103356
 21
9.581512878492787
 31
0.0
  0
LINE
  5
D7
330
2
100
AcDbEntity
  8
GAIKEI
100
AcDbLine
 10
11.98235862613012
 20
20.11092069461148
 30
0.0
 11
4.919712325294767
 21
20.11092069461148
 31
0.0
  0
LINE
  5
D8
330
2
100
AcDbEntity
  8
GAIKEI
100
AcDbLine
 10
12.16422852641699
 20
18.20511924902661
 30
0.0
 11
12.29847502691257
 21
18.33936574952218
 31
0.0
  0
LINE
  5
D9
330
2
100
AcDbEntity
  8
GAIKEI
100
AcDbLine
 10
12.16422852641699
 20
11.30196032607927
 30
0.0
 11
12.16422852641699
 21
18.20511924902661
 31
0.0
  0
LINE
  5
DA
330
2
100
AcDbEntity
  8
GAIKEI
100
AcDbLine
 10
12.29847502691257
 20
11.16771382558369
 30
0.0
 11
12.16422852641699
 21
11.30196032607927
 31
0.0
  0
LINE
  5
DB
330
2
100
AcDbEntity
  8
GAIKEI
100
AcDbLine
 10
13.88048765895144
 20
9.21527796091874
 30
0.0
 11
41.97910189613241
 21
9.21527796091874
 31
0.0
  0
LINE
  5
DC
330
2
100
AcDbEntity
  8
GAIKEI
100
AcDbLine
 10
13.79524340172656
 20
20.21527945598049
 30
0.0
 11
43.30353125348312
 21
20.21527945598049
 31
0.0
  0
ARC
  5
DD
330
2
100
AcDbEntity
  8
GAIKEI
100
AcDbCircle
 10
23.76414653383585
 20
17.0189940275747
 30
0.0
 40
20.01933905069974
100
AcDbArc
 50
337.7827563473634
 51
356.0282810464561
  0
ARC
  5
DE
330
2
100
AcDbEntity
  8
GAIKEI
100
AcDbCircle
 10
41.91279239490007
 20
9.638594212314899
 30
0.0
 40
0.4284782359114311
100
AcDbArc
 50
278.9026349583257
 51
333.7813140267298
  0
ARC
  5
DF
330
2
100
AcDbEntity
  8
GAIKEI
100
AcDbCircle
 10
-182.9392907732149
 20
5.976734041018801
 30
0.0
 40
226.9335447578434
100
AcDbArc
 50
2.62774790978459
 51
3.5306251656642
  0
ARC
  5
E0
330
2
100
AcDbEntity
  8
GAIKEI
100
AcDbCircle
 10
31.47906923504411
 20
16.33804550653752
 30
0.0
 40
12.27663524322199
100
AcDbArc
 50
356.7047691200684
 51
0.2000308823492048
  0
ARC
  5
E1
330
2
100
AcDbEntity
  8
GAIKEI
100
AcDbCircle
 10
43.27813005718167
 20
19.93018435928147
 30
0.0
 40
0.2862244485284666
100
AcDbArc
 50
4.32417559452391
 51
84.90854629760544
  0
LINE
  5
E2
330
2
100
AcDbEntity
  8
GAIKEI
 62
     1
100
AcDbLine
 10
44.95214556399651
 20
14.01833892283554
 30
0.0
 11
44.95214556399651
 21
11.54381659492099
 31
0.0
  0
LINE
  5
E3
330
2
100
AcDbEntity
  8
GAIKEI
 62
     1
100
AcDbLine
 10
44.95214556399651
 20
14.01833892283554
 30
0.0
 11
43.53566695981806
 21
14.01833892283554
 31
0.0
  0
LINE
  5
E4
330
2
100
AcDbEntity
  8
GAIKEI
 62
     1
100
AcDbLine
 10
44.95214556399651
 20
11.54381659492099
 30
0.0
 11
43.0116586647249
 21
11.54381659492099
 31
0.0
  0
LINE
  5
E5
330
2
100
AcDbEntity
  8
GAIKEI
100
AcDbLine
 10
15.15891924414325
 20
20.22340901729624
 30
0.0
 11
15.17122972270704
 21
20.42746100632073
 31
0.0
  0
LINE
  5
E6
330
2
100
AcDbEntity
  8
GAIKEI
100
AcDbLine
 10
15.17122972270704
 20
20.42746100632073
 30
0.0
 11
15.79209593404755
 21
22.21573719767363
 31
0.0
  0
LINE
  5
E7
330
2
100
AcDbEntity
  8
GAIKEI
100
AcDbLine
 10
15.79209593404755
 20
22.21573719767363
 30
0.0
 11
25.13876871531932
 21
22.21573719767363
 31
0.0
  0
LINE
  5
E8
330
2
100
AcDbEntity
  8
GAIKEI
100
AcDbLine
 10
25.13876871531932
 20
22.21573719767363
 30
0.0
 11
25.62723921380382
 21
20.4150343911667
 31
0.0
  0
LINE
  5
E9
330
2
100
AcDbEntity
  8
GAIKEI
100
AcDbLine
 10
25.62723921380382
 20
20.4150343911667
 30
0.0
 11
25.62723921380382
 21
20.21527945598046
 31
0.0
  0
LINE
  5
EA
330
2
100
AcDbEntity
  8
GAIKEI
 62
     1
100
AcDbLine
 10
15.17122972270704
 20
20.42746100632073
 30
0.0
 11
25.62386828836472
 21
20.42746100632076
 31
0.0
  0
LINE
  5
EB
330
2
100
AcDbEntity
  8
GAIKEI
 62
     1
100
AcDbLine
 10
24.22291556480855
 20
20.21527945598046
 30
0.0
 11
24.22291556480855
 21
20.44743649983943
 31
0.0
  0
LINE
  5
EC
330
2
100
AcDbEntity
  8
GAIKEI
 62
     1
100
AcDbLine
 10
24.22291556480855
 20
20.44743649983943
 30
0.0
 11
24.02982174089471
 21
22.21573719767366
 31
0.0
  0
LINE
  5
ED
330
2
100
AcDbEntity
  8
GAIKEI
 62
     1
100
AcDbLine
 10
13.34091706076822
 20
16.3809055777736
 30
0.0
 11
43.75562966170332
 21
16.3809055777736
 31
0.0
  0
LINE
  5
EE
330
2
100
AcDbEntity
  8
GAIKEI
 62
     1
100
AcDbLine
 10
43.75562966170332
 20
16.24792918196641
 30
0.0
 11
33.10156528527932
 21
16.24792918196641
 31
0.0
  0
ARC
  5
EF
330
2
100
AcDbEntity
  8
GAIKEI
 62
     1
100
AcDbCircle
 10
31.02781976468214
 20
13.75105912746432
 30
0.0
 40
1.627700134576703
100
AcDbArc
 50
269.0764302660267
 51
329.6592865422844
  0
ARC
  5
F0
330
2
100
AcDbEntity
  8
GAIKEI
 62
     1
100
AcDbCircle
 10
28.6152680644741
 20
15.12870157629919
 30
0.0
 40
4.405825049056115
100
AcDbArc
 50
330.0458191194802
 51
352.5306073607359
  0
ARC
  5
F1
330
2
100
AcDbEntity
  8
GAIKEI
 62
     1
100
AcDbCircle
 10
22.04938328131402
 20
16.16770466807503
 30
0.0
 40
11.05247316311619
100
AcDbArc
 50
351.6148484780839
 51
0.4158857800157275
  0
ARC
  5
F2
330
2
100
AcDbEntity
  8
GAIKEI
 62
     1
100
AcDbCircle
 10
31.02781976468214
 20
13.75105912746432
 30
0.0
 40
1.498440134576703
100
AcDbArc
 50
269.0764302660267
 51
329.6592865422844
  0
ARC
  5
F3
330
2
100
AcDbEntity
  8
GAIKEI
 62
     1
100
AcDbCircle
 10
28.6152680644741
 20
15.12870157629919
 30
0.0
 40
4.276565049056116
100
AcDbArc
 50
330.0458191194802
 51
352.5306073607359
  0
ARC
  5
F4
330
2
100
AcDbEntity
  8
GAIKEI
 62
     1
100
AcDbCircle
 10
22.04938328131402
 20
16.16770466807503
 30
0.0
 40
10.92321316311618
100
AcDbArc
 50
351.6148484780839
 51
0.4158857800157275
  0
LINE
  5
F5
330
2
100
AcDbEntity
  8
GAIKEI
 62
     1
100
AcDbLine
 10
32.97230869042051
 20
16.24699094664908
 30
0.0
 11
14.35478949342848
 21
16.24225553271168
 31
0.0
  0
LINE
  5
F6
330
2
100
AcDbEntity
  8
GAIKEI
 62
     1
100
AcDbLine
 10
31.00366695555818
 20
12.25281366068606
 30
0.0
 11
15.28908427358885
 21
12.25281366068606
 31
0.0
  0
LINE
  5
F7
330
2
100
AcDbEntity
  8
GAIKEI
 62
     1
100
AcDbLine
 10
31.00158346083901
 20
12.12357045332197
 30
0.0
 11
15.12686554524123
 21
12.12357045332197
 31
0.0
  0
LINE
  5
F8
330
2
100
AcDbEntity
  8
GAIKEI
 62
     1
100
AcDbLine
 10
23.37883482705649
 20
16.24247076222587
 30
0.0
 11
23.37883482705649
 21
12.26560550316668
 31
0.0
  0
LINE
  5
F9
330
2
100
AcDbEntity
  8
GAIKEI
 62
     1
100
AcDbLine
 10
23.2585173195838
 20
16.24247076222587
 30
0.0
 11
23.2585173195838
 21
12.26560550316668
 31
0.0
  0
LINE
  5
FA
330
2
100
AcDbEntity
  8
GAIKEI
 62
     1
100
AcDbLine
 10
23.88960355086408
 20
14.16153533858238
 30
0.0
 11
23.88960355086408
 21
15.65992962565957
 31
0.0
  0
LINE
  5
FB
330
2
100
AcDbEntity
  8
GAIKEI
 62
     1
100
AcDbLine
 10
23.88960355086408
 20
15.65992962565957
 30
0.0
 11
24.93762014105039
 21
15.65992962565957
 31
0.0
  0
LINE
  5
FC
330
2
100
AcDbEntity
  8
GAIKEI
 62
     1
100
AcDbLine
 10
24.93762014105039
 20
15.65992962565957
 30
0.0
 11
24.93808468741133
 21
14.16153533858249
 31
0.0
  0
LINE
  5
FD
330
2
100
AcDbEntity
  8
GAIKEI
 62
     1
100
AcDbLine
 10
24.93808468741133
 20
14.16153533858249
 30
0.0
 11
23.88960355086408
 21
14.16153533858238
 31
0.0
  0
CIRCLE
  5
FE
330
2
100
AcDbEntity
  8
GAIKEI
 62
     1
100
AcDbCircle
 10
24.41361184595724
 20
14.9105002089405
 30
0.0
 40
0.5028714356723035
  0
CIRCLE
  5
FF
330
2
100
AcDbEntity
  8
GAIKEI
 62
     1
100
AcDbCircle
 10
24.41361184595724
 20
14.9105002089405
 30
0.0
 40
0.4060135194250281
  0
LINE
  5
100
330
2
100
AcDbEntity
  8
GAIKEI
 62
     1
100
AcDbLine
 10
24.36529902442385
 20
14.65929676428476
 30
0.0
 11
24.36529902442385
 21
14.86218738740712
 31
0.0
  0
LINE
  5
101
330
2
100
AcDbEntity
  8
GAIKEI
 62
     1
100
AcDbLine
 10
24.36529902442385
 20
14.86218738740712
 30
0.0
 11
24.1620599915309
 21
14.86218738740712
 31
0.0
  0
LINE
  5
102
330
2
100
AcDbEntity
  8
GAIKEI
 62
     1
100
AcDbLine
 10
24.1620599915309
 20
14.86218738740712
 30
0.0
 11
24.1620599915309
 21
14.958813030474
 31
0.0
  0
LINE
  5
103
330
2
100
AcDbEntity
  8
GAIKEI
 62
     1
100
AcDbLine
 10
24.1620599915309
 20
14.958813030474
 30
0.0
 11
24.36529902442385
 21
14.958813030474
 31
0.0
  0
LINE
  5
104
330
2
100
AcDbEntity
  8
GAIKEI
 62
     1
100
AcDbLine
 10
24.36529902442385
 20
14.958813030474
 30
0.0
 11
24.36529902442385
 21
15.16216819995708
 31
0.0
  0
LINE
  5
105
330
2
100
AcDbEntity
  8
GAIKEI
 62
     1
100
AcDbLine
 10
24.36529902442385
 20
15.16216819995708
 30
0.0
 11
24.46192466749062
 21
15.16216819995708
 31
0.0
  0
LINE
  5
106
330
2
100
AcDbEntity
  8
GAIKEI
 62
     1
100
AcDbLine
 10
24.46192466749062
 20
15.16216819995708
 30
0.0
 11
24.46192466749062
 21
14.958813030474
 31
0.0
  0
LINE
  5
107
330
2
100
AcDbEntity
  8
GAIKEI
 62
     1
100
AcDbLine
 10
24.46192466749062
 20
14.958813030474
 30
0.0
 11
24.66469915402263
 21
14.958813030474
 31
0.0
  0
LINE
  5
108
330
2
100
AcDbEntity
  8
GAIKEI
 62
     1
100
AcDbLine
 10
24.66469915402263
 20
14.958813030474
 30
0.0
 11
24.66469915402263
 21
14.86218738740712
 31
0.0
  0
LINE
  5
109
330
2
100
AcDbEntity
  8
GAIKEI
 62
     1
100
AcDbLine
 10
24.66469915402263
 20
14.86218738740712
 30
0.0
 11
24.46192466749062
 21
14.86218738740712
 31
0.0
  0
LINE
  5
10A
330
2
100
AcDbEntity
  8
GAIKEI
 62
     1
100
AcDbLine
 10
24.46192466749062
 20
14.86218738740712
 30
0.0
 11
24.46192466749062
 21
14.65929676428476
 31
0.0
  0
LINE
  5
10B
330
2
100
AcDbEntity
  8
GAIKEI
 62
     1
100
AcDbLine
 10
24.46192466749062
 20
14.65929676428476
 30
0.0
 11
24.36529902442385
 21
14.65929676428476
 31
0.0
  0
LINE
  5
10C
330
2
100
AcDbEntity
  8
GAIKEI
 62
     1
100
AcDbLine
 10
23.88913900450313
 20
14.01973256191826
 30
0.0
 11
24.93808468741133
 21
14.01973256191826
 31
0.0
  0
LINE
  5
10D
330
2
100
AcDbEntity
  8
GAIKEI
 62
     1
100
AcDbLine
 10
25.07977132748522
 20
14.16153533858238
 30
0.0
 11
25.07977132748522
 21
15.6596973524791
 31
0.0
  0
LINE
  5
10E
330
2
100
AcDbEntity
  8
GAIKEI
 62
     1
100
AcDbLine
 10
24.93808468741133
 20
15.80126785596286
 30
0.0
 11
23.88913900450313
 21
15.80126785596286
 31
0.0
  0
LINE
  5
10F
330
2
100
AcDbEntity
  8
GAIKEI
 62
     1
100
AcDbLine
 10
23.74722009124878
 20
15.6596973524791
 30
0.0
 11
23.74722009124878
 21
14.16153533858238
 31
0.0
  0
ARC
  5
110
330
2
100
AcDbEntity
  8
GAIKEI
 62
     1
100
AcDbCircle
 10
23.88962072175275
 20
14.16213363450691
 30
0.0
 40
0.1424018873677979
100
AcDbArc
 50
180.240726670554
 51
269.8061794090882
  0
ARC
  5
111
330
2
100
AcDbEntity
  8
GAIKEI
 62
     1
100
AcDbCircle
 10
23.88942144122371
 20
15.65906538217751
 30
0.0
 40
0.1422027542671275
100
AcDbArc
 50
90.11379837747091
 51
179.7453681510064
  0
ARC
  5
112
330
2
100
AcDbEntity
  8
GAIKEI
 62
     1
100
AcDbCircle
 10
24.93791768241101
 20
15.659414026251
 30
0.0
 40
0.1418539280195974
100
AcDbArc
 50
0.1144374929750757
 51
89.93254551341932
  0
ARC
  5
113
330
2
100
AcDbEntity
  8
GAIKEI
 62
     1
100
AcDbCircle
 10
24.93771883362069
 20
14.16178480370632
 30
0.0
 40
0.1420527129131948
100
AcDbArc
 50
270.1475642447641
 51
359.8993802667544
  0
LINE
  5
114
330
2
100
AcDbEntity
  8
GAIKEI
 62
     1
100
AcDbLine
 10
15.02152965790765
 20
12.91132494481513
 30
0.0
 11
14.92490401484076
 21
12.91132494481513
 31
0.0
  0
LINE
  5
115
330
2
100
AcDbEntity
  8
GAIKEI
 62
     1
100
AcDbLine
 10
15.02152965790765
 20
13.11421556793738
 30
0.0
 11
15.02152965790765
 21
12.91132494481513
 31
0.0
  0
LINE
  5
116
330
2
100
AcDbEntity
  8
GAIKEI
 62
     1
100
AcDbLine
 10
15.22430414443966
 20
13.11421556793738
 30
0.0
 11
15.02152965790765
 21
13.11421556793738
 31
0.0
  0
LINE
  5
117
330
2
100
AcDbEntity
  8
GAIKEI
 62
     1
100
AcDbLine
 10
15.22430414443966
 20
13.21084121100426
 30
0.0
 11
15.22430414443966
 21
13.11421556793738
 31
0.0
  0
LINE
  5
118
330
2
100
AcDbEntity
  8
GAIKEI
 62
     1
100
AcDbLine
 10
15.02152965790765
 20
13.21084121100426
 30
0.0
 11
15.22430414443966
 21
13.21084121100426
 31
0.0
  0
LINE
  5
119
330
2
100
AcDbEntity
  8
GAIKEI
 62
     1
100
AcDbLine
 10
15.02152965790765
 20
13.41419638048745
 30
0.0
 11
15.02152965790765
 21
13.21084121100426
 31
0.0
  0
LINE
  5
11A
330
2
100
AcDbEntity
  8
GAIKEI
 62
     1
100
AcDbLine
 10
14.92490401484076
 20
13.41419638048745
 30
0.0
 11
15.02152965790765
 21
13.41419638048745
 31
0.0
  0
LINE
  5
11B
330
2
100
AcDbEntity
  8
GAIKEI
 62
     1
100
AcDbLine
 10
14.92490401484076
 20
13.21084121100426
 30
0.0
 11
14.92490401484076
 21
13.41419638048745
 31
0.0
  0
LINE
  5
11C
330
2
100
AcDbEntity
  8
GAIKEI
 62
     1
100
AcDbLine
 10
14.72166498194792
 20
13.21084121100426
 30
0.0
 11
14.92490401484076
 21
13.21084121100426
 31
0.0
  0
LINE
  5
11D
330
2
100
AcDbEntity
  8
GAIKEI
 62
     1
100
AcDbLine
 10
14.72166498194792
 20
13.11421556793738
 30
0.0
 11
14.72166498194792
 21
13.21084121100426
 31
0.0
  0
LINE
  5
11E
330
2
100
AcDbEntity
  8
GAIKEI
 62
     1
100
AcDbLine
 10
14.92490401484076
 20
13.11421556793738
 30
0.0
 11
14.72166498194792
 21
13.11421556793738
 31
0.0
  0
LINE
  5
11F
330
2
100
AcDbEntity
  8
GAIKEI
 62
     1
100
AcDbLine
 10
14.92490401484076
 20
12.91132494481513
 30
0.0
 11
14.92490401484076
 21
13.11421556793738
 31
0.0
  0
CIRCLE
  5
120
330
2
100
AcDbEntity
  8
GAIKEI
 62
     1
100
AcDbCircle
 10
14.97321683637426
 20
13.16252838947088
 30
0.0
 40
0.4060135194250281
  0
CIRCLE
  5
121
330
2
100
AcDbEntity
  8
GAIKEI
 62
     1
100
AcDbCircle
 10
14.97321683637426
 20
13.16252838947088
 30
0.0
 40
0.5028714356723035
  0
LINE
  5
122
330
2
100
AcDbEntity
  8
GAIKEI
 62
     1
100
AcDbLine
 10
22.80093915409907
 20
14.00219593679429
 30
0.0
 11
14.67161011156099
 21
14.00219593679429
 31
0.0
  0
LINE
  5
123
330
2
100
AcDbEntity
  8
GAIKEI
 62
     1
100
AcDbLine
 10
22.80093915409907
 20
14.14341803050735
 30
0.0
 11
14.67161011156099
 21
14.14341803050735
 31
0.0
  0
LINE
  5
124
330
2
100
AcDbEntity
  8
GAIKEI
 62
     1
100
AcDbLine
 10
14.67161011156099
 20
14.14341803050735
 30
0.0
 11
14.67161011156099
 21
15.58339561270162
 31
0.0
  0
LINE
  5
125
330
2
100
AcDbEntity
  8
GAIKEI
 62
     1
100
AcDbLine
 10
14.67161011156099
 20
15.58339561270162
 30
0.0
 11
22.80093915409907
 21
15.58339561270162
 31
0.0
  0
LINE
  5
126
330
2
100
AcDbEntity
  8
GAIKEI
 62
     1
100
AcDbLine
 10
22.80093915409907
 20
15.58339561270162
 30
0.0
 11
22.80093915409907
 21
14.14341803050735
 31
0.0
  0
LINE
  5
127
330
2
100
AcDbEntity
  8
GAIKEI
 62
     1
100
AcDbLine
 10
21.58150495674135
 20
14.16432261674782
 30
0.0
 11
21.58150495674135
 21
15.56272329964162
 31
0.0
  0
LINE
  5
128
330
2
100
AcDbEntity
  8
GAIKEI
 62
     1
100
AcDbLine
 10
21.79380264367182
 20
15.40686799556027
 30
0.0
 11
21.79380264367182
 21
14.32041019400952
 31
0.0
  0
LINE
  5
129
330
2
100
AcDbEntity
  8
GAIKEI
 62
     1
100
AcDbLine
 10
21.79380264367182
 20
14.32041019400952
 30
0.0
 11
22.73056038042307
 21
14.32041019400952
 31
0.0
  0
LINE
  5
12A
330
2
100
AcDbEntity
  8
GAIKEI
 62
     1
100
AcDbLine
 10
22.73056038042307
 20
15.40686799556027
 30
0.0
 11
21.79380264367182
 21
15.40686799556027
 31
0.0
  0
LINE
  5
12B
330
2
100
AcDbEntity
  8
GAIKEI
 62
     1
100
AcDbLine
 10
22.73056038042307
 20
15.40686799556027
 30
0.0
 11
22.73056038042307
 21
14.32041019400952
 31
0.0
  0
LINE
  5
12C
330
2
100
AcDbEntity
  8
GAIKEI
 62
     1
100
AcDbLine
 10
22.94216124781224
 20
14.14341803050735
 30
0.0
 11
22.94216124781224
 21
15.58339561270162
 31
0.0
  0
LINE
  5
12D
330
2
100
AcDbEntity
  8
GAIKEI
 62
     1
100
AcDbLine
 10
22.80093915409907
 20
15.72508225277551
 30
0.0
 11
14.67161011156099
 21
15.72508225277551
 31
0.0
  0
LINE
  5
12E
330
2
100
AcDbEntity
  8
GAIKEI
 62
     1
100
AcDbLine
 10
14.52969119830664
 20
15.58339561270162
 30
0.0
 11
14.52969119830664
 21
14.14341803050735
 31
0.0
  0
ARC
  5
12F
330
2
100
AcDbEntity
  8
GAIKEI
 62
     1
100
AcDbCircle
 10
22.80070400639363
 20
14.14365317821278
 30
0.0
 40
0.1414574368641437
100
AcDbArc
 50
270.0952440365558
 51
359.9047559634345
  0
ARC
  5
130
330
2
100
AcDbEntity
  8
GAIKEI
 62
     1
100
AcDbCircle
 10
22.80038036547217
 20
15.583302440978
 30
0.0
 40
0.1417809129540364
100
AcDbArc
 50
0.0376520845142569
 51
89.77418460511342
  0
CIRCLE
  5
131
330
2
100
AcDbEntity
  8
GAIKEI
 62
     1
100
AcDbCircle
 10
22.2618331022768
 20
14.86369716308007
 30
0.0
 40
0.293361026907218
  0
ARC
  5
132
330
2
100
AcDbEntity
  8
GAIKEI
 62
     1
100
AcDbCircle
 10
14.67159539933971
 20
14.14410178436145
 30
0.0
 40
0.1419058483297425
100
AcDbArc
 50
180.2760729181692
 51
270.0059401934325
  0
ARC
  5
133
330
2
100
AcDbEntity
  8
GAIKEI
 62
     1
100
AcDbCircle
 10
14.67191755097792
 20
15.58285520571729
 30
0.0
 40
0.142227379339865
100
AcDbArc
 50
90.12385094094833
 51
179.7822984993342
  0
LINE
  5
134
330
2
100
AcDbEntity
  8
GAIKEI
 62
     1
100
AcDbLine
 10
14.35478949342848
 20
13.1856395709255
 30
0.0
 11
14.35478949342848
 21
16.24225553271168
 31
0.0
  0
LINE
  5
135
330
2
100
AcDbEntity
  8
GAIKEI
 62
     1
100
AcDbLine
 10
14.19243054029459
 20
13.05626340941541
 30
0.0
 11
14.19243054029459
 21
16.24225553271168
 31
0.0
  0
ARC
  5
136
330
2
100
AcDbEntity
  8
GAIKEI
 62
     1
100
AcDbCircle
 10
15.18911153045621
 20
13.08697943257977
 30
0.0
 40
0.8401351583932278
100
AcDbArc
 50
173.2559857312874
 51
276.8437954243858
  0
ARC
  5
137
330
2
100
AcDbEntity
  8
GAIKEI
 62
     1
100
AcDbCircle
 10
15.12696730463915
 20
13.05810903459559
 30
0.0
 40
0.9345385868137793
100
AcDbArc
 50
180.1131538104706
 51
269.9937612163773
  0
LINE
  5
138
330
2
100
AcDbEntity
  8
GAIKEI
 62
     1
100
AcDbLine
 10
14.19243054029459
 20
16.24225553271168
 30
0.0
 11
13.34361990191542
 21
16.24225553271168
 31
0.0
  0
ARC
  5
139
330
2
100
AcDbEntity
  8
GAIKEI
100
AcDbCircle
 10
13.79347650621901
 20
19.93318782176524
 30
0.0
 40
0.2820971676816736
100
AcDbArc
 50
89.64112962142182
 51
177.5469296963012
  0
LINE
  5
13A
330
2
100
AcDbEntity
  8
GAIKEI
100
AcDbLine
 10
13.51163784839821
 20
19.94526188370841
 30
0.0
 11
13.34091706076822
 21
16.3809055777736
 31
0.0
  0
ARC
  5
13B
330
2
100
AcDbEntity
  8
GAIKEI
100
AcDbCircle
 10
13.87927941376949
 20
9.498344978196598
 30
0.0
 40
0.2830695959070551
100
AcDbArc
 50
182.1952253453899
 51
270.2445602097444
  0
LINE
  5
13C
330
2
100
AcDbEntity
  8
GAIKEI
100
AcDbLine
 10
13.59641755926213
 20
9.487502128405196
 30
0.0
 11
13.34361990191542
 21
16.24225553271168
 31
0.0
  0
LINE
  5
13D
330
2
100
AcDbEntity
  8
GAIKEI
100
AcDbLine
 10
13.34361990191542
 20
16.24225553271168
 30
0.0
 11
13.34091706076822
 21
16.3809055777736
 31
0.0
  0
LINE
  5
13E
330
2
100
AcDbEntity
  8
GAIKEI
100
AcDbLine
 10
13.57388706075858
 20
10.01673657005841
 30
0.0
 11
13.23964595409245
 21
10.01673657005838
 31
0.0
  0
LINE
  5
13F
330
2
100
AcDbEntity
  8
GAIKEI
100
AcDbLine
 10
13.4866448925668
 20
19.42345196847628
 30
0.0
 11
13.23964595409245
 21
19.42345196847628
 31
0.0
  0
LINE
  5
140
330
2
100
AcDbEntity
  8
GAIKEI
100
AcDbLine
 10
12.29847502691257
 20
9.44836409749945
 30
0.0
 11
12.44527167695651
 21
9.301799720636097
 31
0.0
  0
LINE
  5
141
330
2
100
AcDbEntity
  8
GAIKEI
100
AcDbLine
 10
12.44527167695651
 20
9.301799720636097
 30
0.0
 11
13.08704247453727
 21
9.301799720636097
 31
0.0
  0
LINE
  5
142
330
2
100
AcDbEntity
  8
GAIKEI
100
AcDbLine
 10
13.08704247453727
 20
9.301799720636097
 30
0.0
 11
13.23964595409245
 21
9.44836409749945
 31
0.0
  0
LINE
  5
143
330
2
100
AcDbEntity
  8
GAIKEI
100
AcDbLine
 10
13.23964595409245
 20
9.44836409749945
 30
0.0
 11
13.23964595409245
 21
20.05825457064367
 31
0.0
  0
LINE
  5
144
330
2
100
AcDbEntity
  8
GAIKEI
100
AcDbLine
 10
13.23964595409245
 20
20.05825457064367
 30
0.0
 11
13.08704247453727
 21
20.2047028109169
 31
0.0
  0
LINE
  5
145
330
2
100
AcDbEntity
  8
GAIKEI
100
AcDbLine
 10
13.08704247453727
 20
20.2047028109169
 30
0.0
 11
12.44527167695651
 21
20.2047028109169
 31
0.0
  0
LINE
  5
146
330
2
100
AcDbEntity
  8
GAIKEI
100
AcDbLine
 10
12.44527167695651
 20
20.2047028109169
 30
0.0
 11
12.29847502691257
 21
20.05825457064367
 31
0.0
  0
LINE
  5
147
330
2
100
AcDbEntity
  8
GAIKEI
100
AcDbLine
 10
12.29847502691257
 20
20.05825457064367
 30
0.0
 11
12.29847502691257
 21
9.44836409749945
 31
0.0
  0
LINE
  5
148
330
2
100
AcDbEntity
  8
GAIKEI
 62
     1
100
AcDbLine
 10
12.44527167695651
 20
9.301799720636097
 30
0.0
 11
12.44527167695651
 21
20.2047028109169
 31
0.0
  0
LINE
  5
149
330
2
100
AcDbEntity
  8
GAIKEI
 62
     1
100
AcDbLine
 10
13.08704247453727
 20
20.2047028109169
 30
0.0
 11
13.08704247453727
 21
9.301799720636097
 31
0.0
  0
LINE
  5
14A
330
2
100
AcDbEntity
  8
WAKU
 62
     4
100
AcDbLine
 10
63.71593224885135
 20
-10.84761756685157
 30
0.0
 11
63.71593224885135
 21
-60.84761756685157
 31
0.0
  0
LINE
  5
14B
330
2
100
AcDbEntity
  8
WAKU
 62
     4
100
AcDbLine
 10
-21.28406775114854
 20
-10.84761756685157
 30
0.0
 11
-21.28406775114854
 21
-60.84761756685157
 31
0.0
  0
TEXT
  5
14C
330
2
100
AcDbEntity
  8
MOJI1
100
AcDbText
 10
-58.78406775114854
 20
-14.84761756685157
 30
0.0
 40
3.0
  1
電　源
100
AcDbText
  0
TEXT
  5
14D
330
2
100
AcDbEntity
  8
MOJI1
100
AcDbText
 10
-18.78406775114854
 20
-14.84761756685157
 30
0.0
 40
3.0
  1
ＡＣ２４Ｖ　５０Ｈｚ／６０Ｈｚ
 41
0.95
100
AcDbText
  0
LINE
  5
14E
330
2
100
AcDbEntity
  8
WAKU
 62
     4
100
AcDbLine
 10
-61.28406775114854
 20
-10.84761756685157
 30
0.0
 11
-61.28406775114854
 21
-60.84761756685157
 31
0.0
  0
LINE
  5
14F
330
2
100
AcDbEntity
  8
WAKU
 62
     1
100
AcDbLine
 10
-61.28406775114854
 20
-30.84761756685157
 30
0.0
 11
63.71593224885135
 21
-30.84761756685157
 31
0.0
  0
LINE
  5
150
330
2
100
AcDbEntity
  8
WAKU
 62
     1
100
AcDbLine
 10
-61.28406775114854
 20
-35.84761756685157
 30
0.0
 11
63.71593224885135
 21
-35.84761756685157
 31
0.0
  0
LINE
  5
151
330
2
100
AcDbEntity
  8
WAKU
 62
     1
100
AcDbLine
 10
-61.28406775114854
 20
-40.84761756685156
 30
0.0
 11
63.71593224885135
 21
-40.84761756685156
 31
0.0
  0
LINE
  5
152
330
2
100
AcDbEntity
  8
WAKU
 62
     1
100
AcDbLine
 10
-61.28406775114854
 20
-45.84761756685156
 30
0.0
 11
63.71593224885135
 21
-45.84761756685156
 31
0.0
  0
LINE
  5
153
330
2
100
AcDbEntity
  8
WAKU
 62
     4
100
AcDbLine
 10
63.71593224885135
 20
-60.84761756685157
 30
0.0
 11
-61.28406775114854
 21
-60.84761756685157
 31
0.0
  0
LINE
  5
154
330
2
100
AcDbEntity
  8
WAKU
 62
     4
100
AcDbLine
 10
-61.28406775114854
 20
-10.84761756685157
 30
0.0
 11
63.71593224885135
 21
-10.84761756685157
 31
0.0
  0
LINE
  5
155
330
2
100
AcDbEntity
  8
WAKU
 62
     1
100
AcDbLine
 10
-61.28406775114854
 20
-15.84761756685157
 30
0.0
 11
63.71593224885135
 21
-15.84761756685157
 31
0.0
  0
LINE
  5
156
330
2
100
AcDbEntity
  8
WAKU
 62
     1
100
AcDbLine
 10
-61.28406775114854
 20
-20.84761756685157
 30
0.0
 11
63.71593224885135
 21
-20.84761756685157
 31
0.0
  0
TEXT
  5
157
330
2
100
AcDbEntity
  8
MOJI1
100
AcDbText
 10
-18.78406775114854
 20
-24.84761756685157
 30
0.0
 40
3.0
  1
ＡＣ２４Ｖ　５０Ｈｚ／６０Ｈｚ：約４．８Ｗ、
 41
0.9
100
AcDbText
  0
TEXT
  5
158
330
2
100
AcDbEntity
  8
MOJI1
100
AcDbText
 10
-58.78406775114854
 20
-24.84761756685157
 30
0.0
 40
3.0
  1
消費電力
100
AcDbText
  0
TEXT
  5
159
330
2
100
AcDbEntity
  8
MOJI1
100
AcDbText
 10
-58.78406775114854
 20
-34.84761756685157
 30
0.0
 40
3.0
  1
撮像素子
100
AcDbText
  0
TEXT
  5
15A
330
2
100
AcDbEntity
  8
MOJI1
100
AcDbText
 10
-18.78406775114854
 20
-34.84761756685157
 30
0.0
 40
3.0
  1
１／３型　インターライン転送方式ＣＣＤ
100
AcDbText
  0
TEXT
  5
15B
330
2
100
AcDbEntity
  8
MOJI1
100
AcDbText
 10
-18.78406775114854
 20
-44.84761756685156
 30
0.0
 40
3.0
  1
ＭＰＥＧ－４／ＪＰＥＧ　
 41
0.9
100
AcDbText
  0
TEXT
  5
15C
330
2
100
AcDbEntity
  8
MOJI1
100
AcDbText
 10
-58.78406775114854
 20
-44.84761756685156
 30
0.0
 40
3.0
  1
画像圧縮方式
100
AcDbText
  0
TEXT
  5
15D
330
2
100
AcDbEntity
  8
MOJI1
100
AcDbText
 10
-58.78406775114854
 20
-39.84761756685157
 30
0.0
 40
3.0
  1
最低照度
100
AcDbText
  0
TEXT
  5
15E
330
2
100
AcDbEntity
  8
MOJI1
100
AcDbText
 10
-18.78406775114854
 20
-39.84761756685157
 30
0.0
 40
3.0
  1
１．５ｌｘ（Ｆ１．４)
 41
0.85
100
AcDbText
  0
TEXT
  5
15F
330
2
100
AcDbEntity
  8
MOJI1
100
AcDbText
 10
-18.78406775114854
 20
-49.84761756685156
 30
0.0
 40
3.0
  1
ＶＧＡ（６４０×４８０)／ＱＶＧＡ（３２０×２４０）
 41
0.9
100
AcDbText
  0
TEXT
  5
160
330
2
100
AcDbEntity
  8
MOJI1
100
AcDbText
 10
-58.78406775114854
 20
-49.84761756685156
 30
0.0
 40
3.0
  1
画像解像度
100
AcDbText
  0
TEXT
  5
161
330
2
100
AcDbEntity
  8
MOJI1
100
AcDbText
 10
-58.78406775114854
 20
-54.84761756685156
 30
0.0
 40
3.0
  1
ネットワーク
100
AcDbText
  0
TEXT
  5
162
330
2
100
AcDbEntity
  8
MOJI1
100
AcDbText
 10
-18.78406775114854
 20
-54.84761756685156
 30
0.0
 40
3.0
  1
１０ＢＡＳＥ－Ｔ／１００ＢＡＳＥ－ＴＸ、ＲＪ４５コネクター
 41
0.75
100
AcDbText
  0
LINE
  5
163
330
2
100
AcDbEntity
  8
WAKU
 62
     1
100
AcDbLine
 10
-61.28406775114854
 20
-50.84761756685157
 30
0.0
 11
63.71593224885135
 21
-50.84761756685157
 31
0.0
  0
TEXT
  5
164
330
2
100
AcDbEntity
  8
MOJI1
100
AcDbText
 10
-18.78406775114854
 20
-19.84761756685157
 30
0.0
 40
3.0
  1
ＤＣ１２Ｖ、ＰｏＥ（ＩＥＥＥ８０２．３ａｆ準拠)
 41
0.95
100
AcDbText
  0
TEXT
  5
165
330
2
100
AcDbEntity
  8
MOJI1
100
AcDbText
 10
-18.78406775114854
 20
-29.84761756685157
 30
0.0
 40
3.0
  1
ＤＣ１２Ｖ：約４００ｍＡ、ＰｏＥ：約４．２Ｗ（クラス２機器)
 41
0.7700000000000001
100
AcDbText
  0
LINE
  5
166
330
2
100
AcDbEntity
  8
WAKU
 62
     1
100
AcDbLine
 10
-61.28406775114854
 20
-25.84761756685157
 30
0.0
 11
63.71593224885135
 21
-25.84761756685157
 31
0.0
  0
ENDSEC
  0
SECTION
  2
OBJECTS
  0
DICTIONARY
  5
9
330
0
100
AcDbDictionary
281
     1
  3
ACAD_COLOR
350
31
  3
ACAD_GROUP
350
2D
  3
ACAD_LAYOUT
350
D
  3
ACAD_MATERIAL
350
30
  3
ACAD_MLINESTYLE
350
2E
  3
ACAD_PLOTSETTINGS
350
2F
  3
ACAD_PLOTSTYLENAME
350
8
  3
ACDBHEADERROUNDTRIPXREC
350
197
  3
AcDbVariableDictionary
350
192
  0
DICTIONARY
  5
15
330
14
100
AcDbDictionary
280
     1
281
     1
  3
ACAD_LAYERFILTERS
360
16
  3
ACAD_LAYERSTATES
360
17
  0
DICTIONARY
  5
3
330
2
100
AcDbDictionary
280
     1
281
     1
  3
ACAD_LAYOUTSELFREF
360
4
  0
DICTIONARY
  5
F
330
E
100
AcDbDictionary
280
     1
281
     1
  3
ACAD_LAYOUTSELFREF
360
10
  0
DICTIONARY
  5
31
102
{ACAD_REACTORS
330
9
102
}
330
9
100
AcDbDictionary
281
     1
  0
DICTIONARY
  5
2D
102
{ACAD_REACTORS
330
9
102
}
330
9
100
AcDbDictionary
281
     1
  0
DICTIONARY
  5
D
102
{ACAD_REACTORS
330
9
102
}
330
9
100
AcDbDictionary
281
     1
  3
Model
350
C
  3
ﾚｲｱｳﾄ1
350
13
  0
DICTIONARY
  5
30
102
{ACAD_REACTORS
330
9
102
}
330
9
100
AcDbDictionary
281
     1
  0
DICTIONARY
  5
2E
102
{ACAD_REACTORS
330
9
102
}
330
9
100
AcDbDictionary
281
     1
  3
STANDARD
350
32
  0
DICTIONARY
  5
2F
102
{ACAD_REACTORS
330
9
102
}
330
9
100
AcDbDictionary
281
     1
  0
ACDBDICTIONARYWDFLT
  5
8
102
{ACAD_REACTORS
330
9
102
}
330
9
100
AcDbDictionary
281
     1
  3
Normal
350
7
100
AcDbDictionaryWithDefault
340
7
  0
DICTIONARY
  5
197
102
{ACAD_REACTORS
330
9
102
}
330
9
100
AcDbDictionary
281
     1
  3
COLORDICT
350
199
  3
MATERIALDICT
350
198
  0
DICTIONARY
  5
192
102
{ACAD_REACTORS
330
9
102
}
330
9
100
AcDbDictionary
281
     1
  3
DIMASSOC
350
194
  3
HIDETEXT
350
193
  3
PROJECTNAME
350
195
  0
DICTIONARY
  5
16
102
{ACAD_REACTORS
330
15
102
}
330
15
100
AcDbDictionary
280
     1
281
     1
  0
DICTIONARY
  5
17
102
{ACAD_REACTORS
330
15
102
}
330
15
100
AcDbDictionary
281
     1
  0
XRECORD
  5
4
102
{ACAD_REACTORS
330
3
102
}
330
3
100
AcDbXrecord
280
     1
340
2
  0
XRECORD
  5
10
102
{ACAD_REACTORS
330
F
102
}
330
F
100
AcDbXrecord
280
     1
340
E
  0
LAYOUT
  5
C
102
{ACAD_XDICTIONARY
360
19A
102
}
102
{ACAD_REACTORS
330
D
102
}
330
D
100
AcDbPlotSettings
  1

  2
FX78BC34-A4縦.pc3
  4
A4
  6

 40
4.900083065032958
 41
4.900057315826416
 42
4.90008544921875
 43
4.90008544921875
 44
210.0156707763672
 45
297.0106506347656
 46
5.769999999999999
 47
0.0
 48
0.0
 49
0.0
140
0.0
141
0.0
142
1.0
143
1.372970650269923
 70
 11956
 72
     1
 73
     0
 74
     1
  7
tmsacad.ctb
 75
     0
147
0.728347688862396
148
0.5335901474040839
149
0.0875646249287456
100
AcDbLayout
  1
Model
 70
     1
 71
     0
 10
0.0
 20
0.0
 11
12.0
 21
9.0
 12
0.0
 22
0.0
 32
0.0
 14
0.0
 24
0.0
 34
0.0
 15
0.0
 25
0.0
 35
0.0
146
0.0
 13
0.0
 23
0.0
 33
0.0
 16
1.0
 26
0.0
 36
0.0
 17
0.0
 27
1.0
 37
0.0
 76
     0
330
2
  0
LAYOUT
  5
13
102
{ACAD_XDICTIONARY
360
19C
102
}
102
{ACAD_REACTORS
330
D
102
}
330
D
100
AcDbPlotSettings
  1

  2
C:\Program Files\ACAD2000\plotters\DWF ePlot.pc3
  4

  6

 40
0.0
 41
0.0
 42
0.0
 43
0.0
 44
0.0
 45
0.0
 46
0.0
 47
0.0
 48
0.0
 49
0.0
140
0.0
141
0.0
142
1.0
143
1.0
 70
   688
 72
     0
 73
     0
 74
     5
  7
tmsacad.ctb
 75
    16
147
1.0
148
0.0
149
0.0
100
AcDbLayout
  1
ﾚｲｱｳﾄ1
 70
     1
 71
     1
 10
0.0
 20
0.0
 11
12.0
 21
9.0
 12
0.0
 22
0.0
 32
0.0
 14
1.000000000000000E+20
 24
1.000000000000000E+20
 34
1.000000000000000E+20
 15
-1.000000000000000E+20
 25
-1.000000000000000E+20
 35
-1.000000000000000E+20
146
0.0
 13
0.0
 23
0.0
 33
0.0
 16
1.0
 26
0.0
 36
0.0
 17
0.0
 27
1.0
 37
0.0
 76
     0
330
E
  0
MLINESTYLE
  5
32
102
{ACAD_REACTORS
330
2E
102
}
330
2E
100
AcDbMlineStyle
  2
STANDARD
 70
     0
  3

 62
   256
 51
90.0
 52
90.0
 71
     2
 49
0.5
 62
   256
  6
BYLAYER
 49
-0.5
 62
   256
  6
BYLAYER
  0
ACDBPLACEHOLDER
  5
7
102
{ACAD_REACTORS
330
8
102
}
330
8
  0
XRECORD
  5
199
102
{ACAD_REACTORS
330
197
102
}
330
197
100
AcDbXrecord
280
     1
340
31
  0
XRECORD
  5
198
102
{ACAD_REACTORS
330
197
102
}
330
197
100
AcDbXrecord
280
     1
340
30
  0
DICTIONARYVAR
  5
194
102
{ACAD_REACTORS
330
192
102
}
330
192
100
DictionaryVariables
280
     0
  1
1
  0
DICTIONARYVAR
  5
193
102
{ACAD_REACTORS
330
192
102
}
330
192
100
DictionaryVariables
280
     0
  1
1
  0
DICTIONARYVAR
  5
195
102
{ACAD_REACTORS
330
192
102
}
330
192
100
DictionaryVariables
280
     0
  1

  0
DICTIONARY
  5
19A
330
C
100
AcDbDictionary
280
     1
281
     1
  3
ACAD_XREC_ROUNDTRIP
360
19B
  0
DICTIONARY
  5
19C
330
13
100
AcDbDictionary
280
     1
281
     1
  3
ACAD_XREC_ROUNDTRIP
360
19D
  0
XRECORD
  5
19B
102
{ACAD_REACTORS
330
19A
102
}
330
19A
100
AcDbXrecord
280
     1
102
SHADEPLOT
 70
     0
102
SHADEPLOTRESLEVEL
 70
     2
102
SHADEPLOTCUSTOMDPI
 70
   300
  0
XRECORD
  5
19D
102
{ACAD_REACTORS
330
19C
102
}
330
19C
100
AcDbXrecord
280
     1
102
SHADEPLOT
 70
     0
102
SHADEPLOTRESLEVEL
 70
     2
102
SHADEPLOTCUSTOMDPI
 70
   300
  0
ENDSEC
  0
EOF
