  0
SECTION
  2
HEADER
  9
$ACADVER
  1
AC1015
  9
$ACADMAINTVER
 70
    20
  9
$DWGCODEPAGE
  3
ANSI_932
  9
$INSBASE
 10
0.0
 20
372.4992141396417
 30
0.0
  9
$EXTMIN
 10
-62.33850851989564
 20
-57.05950595012746
 30
-0.0015258207003583
  9
$EXTMAX
 10
62.7420004500691
 20
55.83061519072908
 30
0.0000000349246037
  9
$LIMMIN
 10
-1101.784450318844
 20
-1579.160531687244
  9
$LIMMAX
 10
-508.2420711400536
 20
-1161.440814074914
  9
$ORTHOMODE
 70
     1
  9
$REGENMODE
 70
     1
  9
$FILLMODE
 70
     1
  9
$QTEXTMODE
 70
     0
  9
$MIRRTEXT
 70
     1
  9
$LTSCALE
 40
1.0
  9
$ATTMODE
 70
     1
  9
$TEXTSIZE
 40
3.0
  9
$TRACEWID
 40
0.5
  9
$TEXTSTYLE
  7
STANDARD
  9
$CLAYER
  8
0
  9
$CELTYPE
  6
BYLAYER
  9
$CECOLOR
 62
   256
  9
$CELTSCALE
 40
1.0
  9
$DISPSILH
 70
     0
  9
$DIMSCALE
 40
1.0
  9
$DIMASZ
 40
2.0
  9
$DIMEXO
 40
2.0
  9
$DIMDLI
 40
8.0
  9
$DIMRND
 40
0.0
  9
$DIMDLE
 40
0.0
  9
$DIMEXE
 40
2.0
  9
$DIMTP
 40
0.0
  9
$DIMTM
 40
0.0
  9
$DIMTXT
 40
2.5
  9
$DIMCEN
 40
0.0
  9
$DIMTSZ
 40
0.0
  9
$DIMTOL
 70
     0
  9
$DIMLIM
 70
     0
  9
$DIMTIH
 70
     0
  9
$DIMTOH
 70
     0
  9
$DIMSE1
 70
     0
  9
$DIMSE2
 70
     0
  9
$DIMTAD
 70
     3
  9
$DIMZIN
 70
     0
  9
$DIMBLK
  1

  9
$DIMASO
 70
     1
  9
$DIMSHO
 70
     1
  9
$DIMPOST
  1

  9
$DIMAPOST
  1

  9
$DIMALT
 70
     0
  9
$DIMALTD
 70
     2
  9
$DIMALTF
 40
25.4
  9
$DIMLFAC
 40
1.0
  9
$DIMTOFL
 70
     1
  9
$DIMTVP
 40
0.0
  9
$DIMTIX
 70
     0
  9
$DIMSOXD
 70
     0
  9
$DIMSAH
 70
     1
  9
$DIMBLK1
  1
OPEN30
  9
$DIMBLK2
  1
OPEN30
  9
$DIMSTYLE
  2
STANDARD
  9
$DIMCLRD
 70
     0
  9
$DIMCLRE
 70
     0
  9
$DIMCLRT
 70
     0
  9
$DIMTFAC
 40
1.0
  9
$DIMGAP
 40
0.5
  9
$DIMJUST
 70
     0
  9
$DIMSD1
 70
     0
  9
$DIMSD2
 70
     0
  9
$DIMTOLJ
 70
     1
  9
$DIMTZIN
 70
     0
  9
$DIMALTZ
 70
     0
  9
$DIMALTTZ
 70
     0
  9
$DIMUPT
 70
     0
  9
$DIMDEC
 70
     4
  9
$DIMTDEC
 70
     4
  9
$DIMALTU
 70
     2
  9
$DIMALTTD
 70
     2
  9
$DIMTXSTY
  7
STANDARD
  9
$DIMAUNIT
 70
     0
  9
$DIMADEC
 70
     0
  9
$DIMALTRND
 40
0.0
  9
$DIMAZIN
 70
     0
  9
$DIMDSEP
 70
    46
  9
$DIMATFIT
 70
     3
  9
$DIMFRAC
 70
     0
  9
$DIMLDRBLK
  1
OPEN30
  9
$DIMLUNIT
 70
     2
  9
$DIMLWD
 70
    -2
  9
$DIMLWE
 70
    -2
  9
$DIMTMOVE
 70
     0
  9
$LUNITS
 70
     2
  9
$LUPREC
 70
     4
  9
$SKETCHINC
 40
0.1
  9
$FILLETRAD
 40
0.0
  9
$AUNITS
 70
     0
  9
$AUPREC
 70
     0
  9
$MENU
  1
ACAD
  9
$ELEVATION
 40
0.0
  9
$PELEVATION
 40
0.0
  9
$THICKNESS
 40
0.0
  9
$LIMCHECK
 70
     0
  9
$CHAMFERA
 40
0.0
  9
$CHAMFERB
 40
0.0
  9
$CHAMFERC
 40
0.0
  9
$CHAMFERD
 40
0.0
  9
$SKPOLY
 70
     0
  9
$TDCREATE
 40
2451815.565532581
  9
$TDUCREATE
 40
2451815.190532581
  9
$TDUPDATE
 40
2454342.536943901
  9
$TDUUPDATE
 40
2454342.161943900
  9
$TDINDWG
 40
0.8955088426
  9
$TDUSRTIMER
 40
0.8955088426
  9
$USRTIMER
 70
     1
  9
$ANGBASE
 50
0.0
  9
$ANGDIR
 70
     0
  9
$PDMODE
 70
     0
  9
$PDSIZE
 40
0.0
  9
$PLINEWID
 40
0.0
  9
$SPLFRAME
 70
     0
  9
$SPLINETYPE
 70
     6
  9
$SPLINESEGS
 70
     8
  9
$HANDSEED
  5
190
  9
$SURFTAB1
 70
     6
  9
$SURFTAB2
 70
     6
  9
$SURFTYPE
 70
     6
  9
$SURFU
 70
     6
  9
$SURFV
 70
     6
  9
$UCSBASE
  2

  9
$UCSNAME
  2

  9
$UCSORG
 10
0.0
 20
0.0
 30
0.0
  9
$UCSXDIR
 10
1.0
 20
0.0
 30
0.0
  9
$UCSYDIR
 10
0.0
 20
1.0
 30
0.0
  9
$UCSORTHOREF
  2

  9
$UCSORTHOVIEW
 70
     0
  9
$UCSORGTOP
 10
0.0
 20
0.0
 30
0.0
  9
$UCSORGBOTTOM
 10
0.0
 20
0.0
 30
0.0
  9
$UCSORGLEFT
 10
0.0
 20
0.0
 30
0.0
  9
$UCSORGRIGHT
 10
0.0
 20
0.0
 30
0.0
  9
$UCSORGFRONT
 10
0.0
 20
0.0
 30
0.0
  9
$UCSORGBACK
 10
0.0
 20
0.0
 30
0.0
  9
$PUCSBASE
  2

  9
$PUCSNAME
  2

  9
$PUCSORG
 10
0.0
 20
0.0
 30
0.0
  9
$PUCSXDIR
 10
1.0
 20
0.0
 30
0.0
  9
$PUCSYDIR
 10
0.0
 20
1.0
 30
0.0
  9
$PUCSORTHOREF
  2

  9
$PUCSORTHOVIEW
 70
     0
  9
$PUCSORGTOP
 10
0.0
 20
0.0
 30
0.0
  9
$PUCSORGBOTTOM
 10
0.0
 20
0.0
 30
0.0
  9
$PUCSORGLEFT
 10
0.0
 20
0.0
 30
0.0
  9
$PUCSORGRIGHT
 10
0.0
 20
0.0
 30
0.0
  9
$PUCSORGFRONT
 10
0.0
 20
0.0
 30
0.0
  9
$PUCSORGBACK
 10
0.0
 20
0.0
 30
0.0
  9
$USERI1
 70
     0
  9
$USERI2
 70
     0
  9
$USERI3
 70
     0
  9
$USERI4
 70
     0
  9
$USERI5
 70
     0
  9
$USERR1
 40
0.0
  9
$USERR2
 40
0.0
  9
$USERR3
 40
0.0
  9
$USERR4
 40
0.0
  9
$USERR5
 40
0.0
  9
$WORLDVIEW
 70
     1
  9
$SHADEDGE
 70
     3
  9
$SHADEDIF
 70
    70
  9
$TILEMODE
 70
     1
  9
$MAXACTVP
 70
    48
  9
$PINSBASE
 10
0.0
 20
0.0
 30
0.0
  9
$PLIMCHECK
 70
     0
  9
$PEXTMIN
 10
1.000000000000000E+20
 20
1.000000000000000E+20
 30
1.000000000000000E+20
  9
$PEXTMAX
 10
-1.000000000000000E+20
 20
-1.000000000000000E+20
 30
-1.000000000000000E+20
  9
$PLIMMIN
 10
0.0
 20
0.0
  9
$PLIMMAX
 10
12.0
 20
9.0
  9
$UNITMODE
 70
     0
  9
$VISRETAIN
 70
     1
  9
$PLINEGEN
 70
     0
  9
$PSLTSCALE
 70
     1
  9
$TREEDEPTH
 70
  3020
  9
$CMLSTYLE
  2
STANDARD
  9
$CMLJUST
 70
     0
  9
$CMLSCALE
 40
1.0
  9
$PROXYGRAPHICS
 70
     1
  9
$MEASUREMENT
 70
     0
  9
$CELWEIGHT
370
    -1
  9
$ENDCAPS
280
     0
  9
$JOINSTYLE
280
     0
  9
$LWDISPLAY
290
     0
  9
$INSUNITS
 70
     0
  9
$HYPERLINKBASE
  1

  9
$STYLESHEET
  1

  9
$XEDIT
290
     1
  9
$CEPSNTYPE
380
     0
  9
$PSTYLEMODE
290
     1
  9
$FINGERPRINTGUID
  2
{1754B7AB-9B3C-11D4-AD9E-00104B1004F2}
  9
$VERSIONGUID
  2
{BBBA624C-3A5C-4D93-AF5B-97D74389BF0D}
  9
$EXTNAMES
290
     1
  9
$PSVPSCALE
 40
0.0
  9
$OLESTARTUP
290
     0
  0
ENDSEC
  0
SECTION
  2
CLASSES
  0
CLASS
  1
ACDBDICTIONARYWDFLT
  2
AcDbDictionaryWithDefault
  3
ObjectDBX Classes
 90
        0
280
     0
281
     0
  0
CLASS
  1
ACDBPLACEHOLDER
  2
AcDbPlaceHolder
  3
ObjectDBX Classes
 90
        0
280
     0
281
     0
  0
CLASS
  1
LAYOUT
  2
AcDbLayout
  3
ObjectDBX Classes
 90
        0
280
     0
281
     0
  0
CLASS
  1
DICTIONARYVAR
  2
AcDbDictionaryVar
  3
ObjectDBX Classes
 90
        0
280
     0
281
     0
  0
ENDSEC
  0
SECTION
  2
TABLES
  0
TABLE
  2
VPORT
  5
20
330
0
100
AcDbSymbolTable
 70
     2
  0
VPORT
  5
188
330
20
100
AcDbSymbolTableRecord
100
AcDbViewportTableRecord
  2
*Active
 70
     0
 10
0.0
 20
0.0
 11
1.0
 21
1.0
 12
0.2017459650867259
 22
-0.6144453796991911
 13
0.0
 23
0.0
 14
1.0
 24
1.0
 15
0.0
 25
0.0
 16
0.0
 26
0.0
 36
1.0
 17
0.0
 27
0.0
 37
0.0
 40
113.7607390416857
 41
1.507078507078506
 42
50.0
 43
0.0
 44
0.0
 50
0.0
 51
0.0
 71
     0
 72
 10000
 73
     1
 74
     0
 75
     0
 76
     1
 77
     0
 78
     0
281
     0
 65
     1
110
0.0
120
0.0
130
0.0
111
1.0
121
0.0
131
0.0
112
0.0
122
1.0
132
0.0
 79
     0
146
0.0
  0
ENDTAB
  0
TABLE
  2
LTYPE
  5
1B
330
0
100
AcDbSymbolTable
 70
     1
  0
LTYPE
  5
1C
330
1B
100
AcDbSymbolTableRecord
100
AcDbLinetypeTableRecord
  2
BYBLOCK
 70
     0
  3

 72
    65
 73
     0
 40
0.0
  0
LTYPE
  5
1D
330
1B
100
AcDbSymbolTableRecord
100
AcDbLinetypeTableRecord
  2
BYLAYER
 70
     0
  3

 72
    65
 73
     0
 40
0.0
  0
LTYPE
  5
A
330
1B
100
AcDbSymbolTableRecord
100
AcDbLinetypeTableRecord
  2
CONTINUOUS
 70
     0
  3
Solid line
 72
    65
 73
     0
 40
0.0
  0
ENDTAB
  0
TABLE
  2
LAYER
  5
14
102
{ACAD_XDICTIONARY
360
15
102
}
330
0
100
AcDbSymbolTable
 70
     7
  0
LAYER
  5
6
330
14
100
AcDbSymbolTableRecord
100
AcDbLayerTableRecord
  2
0
 70
     0
 62
     7
  6
CONTINUOUS
370
    -3
390
7
  0
LAYER
  5
43
330
14
100
AcDbSymbolTableRecord
100
AcDbLayerTableRecord
  2
DEFPOINTS
 70
     0
 62
     7
  6
CONTINUOUS
290
     0
370
    -3
390
7
  0
LAYER
  5
13C
330
14
100
AcDbSymbolTableRecord
100
AcDbLayerTableRecord
  2
WAKU
 70
     0
 62
     4
  6
CONTINUOUS
370
    -3
390
7
  0
LAYER
  5
34
330
14
100
AcDbSymbolTableRecord
100
AcDbLayerTableRecord
  2
MOJI1
 70
     0
 62
     2
  6
CONTINUOUS
370
    -3
390
7
  0
LAYER
  5
62
330
14
100
AcDbSymbolTableRecord
100
AcDbLayerTableRecord
  2
GAIKEI
 70
     0
 62
     7
  6
CONTINUOUS
370
    -3
390
7
  0
LAYER
  5
37
330
14
100
AcDbSymbolTableRecord
100
AcDbLayerTableRecord
  2
TOUROKU
 70
     0
 62
     1
  6
CONTINUOUS
370
    -3
390
7
  0
LAYER
  5
39
330
14
100
AcDbSymbolTableRecord
100
AcDbLayerTableRecord
  2
SUNPO
 70
     0
 62
     3
  6
CONTINUOUS
370
    -3
390
7
  0
ENDTAB
  0
TABLE
  2
STYLE
  5
18
330
0
100
AcDbSymbolTable
 70
     2
  0
STYLE
  5
19
330
18
100
AcDbSymbolTableRecord
100
AcDbTextStyleTableRecord
  2
STANDARD
 70
     0
 40
0.0
 41
1.0
 50
0.0
 71
     0
 42
3.0
  3
MONOTXT.shx
  4
BIGFONT.shx
  0
STYLE
  5
35
330
18
100
AcDbSymbolTableRecord
100
AcDbTextStyleTableRecord
  2
KANJI
 70
     0
 40
0.0
 41
1.0
 50
0.0
 71
     0
 42
3.5
  3
MONOTXT
  4
BIGFONT
  0
ENDTAB
  0
TABLE
  2
VIEW
  5
1E
330
0
100
AcDbSymbolTable
 70
     0
  0
ENDTAB
  0
TABLE
  2
UCS
  5
1F
330
0
100
AcDbSymbolTable
 70
     0
  0
ENDTAB
  0
TABLE
  2
APPID
  5
22
330
0
100
AcDbSymbolTable
 70
     1
  0
APPID
  5
23
330
22
100
AcDbSymbolTableRecord
100
AcDbRegAppTableRecord
  2
ACAD
 70
     0
  0
ENDTAB
  0
TABLE
  2
DIMSTYLE
  5
24
330
0
100
AcDbSymbolTable
 70
     1
100
AcDbDimStyleTable
 71
     1
340
25
  0
DIMSTYLE
105
25
102
{ACAD_REACTORS
330
38
330
47
330
54
102
}
330
24
100
AcDbSymbolTableRecord
100
AcDbDimStyleTableRecord
  2
STANDARD
 70
     0
 40
0.0
 41
2.0
 42
2.0
 43
8.0
 44
2.0
 73
     0
 74
     0
 77
     3
140
3.0
141
0.0
173
     1
279
     2
288
     1
340
19
341
26
343
26
344
26
  0
ENDTAB
  0
TABLE
  2
BLOCK_RECORD
  5
1
330
0
100
AcDbSymbolTable
 70
     7
  0
BLOCK_RECORD
  5
2
102
{ACAD_XDICTIONARY
360
3
102
}
330
1
100
AcDbSymbolTableRecord
100
AcDbBlockTableRecord
  2
*MODEL_SPACE
340
C
  0
BLOCK_RECORD
  5
E
102
{ACAD_XDICTIONARY
360
F
102
}
330
1
100
AcDbSymbolTableRecord
100
AcDbBlockTableRecord
  2
*PAPER_SPACE
340
13
  0
BLOCK_RECORD
  5
26
330
1
100
AcDbSymbolTableRecord
100
AcDbBlockTableRecord
  2
_OPEN30
340
0
102
{BLKREFS
331
3F
331
40
331
4D
331
4E
331
5A
331
5B
331
164
331
165
331
170
331
171
331
17C
331
17D
102
}
  0
BLOCK_RECORD
  5
3A
330
1
100
AcDbSymbolTableRecord
100
AcDbBlockTableRecord
  2
*D1
340
0
  0
BLOCK_RECORD
  5
48
330
1
100
AcDbSymbolTableRecord
100
AcDbBlockTableRecord
  2
*D2
340
0
  0
BLOCK_RECORD
  5
55
330
1
100
AcDbSymbolTableRecord
100
AcDbBlockTableRecord
  2
*D3
340
0
  0
BLOCK_RECORD
  5
160
330
1
100
AcDbSymbolTableRecord
100
AcDbBlockTableRecord
  2
*D4
340
0
  0
BLOCK_RECORD
  5
16C
330
1
100
AcDbSymbolTableRecord
100
AcDbBlockTableRecord
  2
*D5
340
0
  0
BLOCK_RECORD
  5
178
330
1
100
AcDbSymbolTableRecord
100
AcDbBlockTableRecord
  2
*D6
340
0
  0
ENDTAB
  0
ENDSEC
  0
SECTION
  2
BLOCKS
  0
BLOCK
  5
5
330
2
100
AcDbEntity
  8
0
100
AcDbBlockBegin
  2
*MODEL_SPACE
 70
     0
 10
0.0
 20
0.0
 30
0.0
  3
*MODEL_SPACE
  1

  0
ENDBLK
  5
B
330
2
100
AcDbEntity
  8
0
100
AcDbBlockEnd
  0
BLOCK
  5
11
330
E
100
AcDbEntity
 67
     1
  8
0
100
AcDbBlockBegin
  2
*PAPER_SPACE
 70
     0
 10
0.0
 20
0.0
 30
0.0
  3
*PAPER_SPACE
  1

  0
ENDBLK
  5
12
330
E
100
AcDbEntity
 67
     1
  8
0
100
AcDbBlockEnd
  0
BLOCK
  5
27
330
26
100
AcDbEntity
  8
0
100
AcDbBlockBegin
  2
_OPEN30
 70
     0
 10
0.0
 20
0.0
 30
0.0
  3
_OPEN30
  1

  0
LINE
  5
28
330
26
100
AcDbEntity
  8
0
  6
ByBlock
 62
     0
100
AcDbLine
 10
-1.0
 20
0.26794919
 30
0.0
 11
0.0
 21
0.0
 31
0.0
  0
LINE
  5
29
330
26
100
AcDbEntity
  8
0
  6
ByBlock
 62
     0
100
AcDbLine
 10
0.0
 20
0.0
 30
0.0
 11
-1.0
 21
-0.26794919
 31
0.0
  0
LINE
  5
2A
330
26
100
AcDbEntity
  8
0
  6
ByBlock
 62
     0
100
AcDbLine
 10
0.0
 20
0.0
 30
0.0
 11
-1.0
 21
0.0
 31
0.0
  0
ENDBLK
  5
2B
330
26
100
AcDbEntity
  8
0
100
AcDbBlockEnd
  0
BLOCK
  5
3B
330
3A
100
AcDbEntity
  8
0
100
AcDbBlockBegin
  2
*D1
 70
     1
 10
0.0
 20
0.0
 30
0.0
  3
*D1
  1

  0
LINE
  5
3C
330
3A
100
AcDbEntity
  8
SUNPO
 62
     0
370
    -2
100
AcDbLine
 10
48.63843652785249
 20
328.6761857341856
 30
0.0
 11
56.63843652785248
 21
328.6761857341856
 31
0.0
  0
LINE
  5
3D
330
3A
100
AcDbEntity
  8
SUNPO
 62
     0
370
    -2
100
AcDbLine
 10
48.63843652785249
 20
341.6761790138941
 30
0.0
 11
56.63843652785249
 21
341.6761790138941
 31
0.0
  0
LINE
  5
3E
330
3A
100
AcDbEntity
  8
SUNPO
 62
     0
370
    -2
100
AcDbLine
 10
54.63843652785248
 20
330.6761857341856
 30
0.0
 11
54.63843652785249
 21
339.6761790138941
 31
0.0
  0
INSERT
  5
3F
330
3A
100
AcDbEntity
  8
SUNPO
 62
     0
370
    -2
100
AcDbBlockReference
  2
_OPEN30
 10
54.63843652785248
 20
328.6761857341856
 30
0.0
 41
2.0
 42
2.0
 43
2.0
 50
270.0
  0
INSERT
  5
40
330
3A
100
AcDbEntity
  8
SUNPO
 62
     0
370
    -2
100
AcDbBlockReference
  2
_OPEN30
 10
54.63843652785249
 20
341.6761790138941
 30
0.0
 41
2.0
 42
2.0
 43
2.0
 50
90.0
  0
MTEXT
  5
41
330
3A
100
AcDbEntity
  8
SUNPO
 62
     0
100
AcDbMText
 10
52.88843652785243
 20
335.1761823740399
 30
0.0
 40
2.5
 41
0.0
 71
     5
 72
     1
  1
\A1;65
 11
0.0000000000000001
 21
1.0
 31
0.0
 73
     1
 44
1.0
1001
ACAD
1000
MTEXTBEGIN
1070
    73
1070
     1
1070
    44
1040
1.0
1070
    74
1070
     0
1000
MTEXTEND
  0
POINT
  5
42
330
3A
100
AcDbEntity
  8
DEFPOINTS
 62
     0
100
AcDbPoint
 10
46.63843652785248
 20
328.6761857341856
 30
0.0
  0
POINT
  5
44
330
3A
100
AcDbEntity
  8
DEFPOINTS
 62
     0
100
AcDbPoint
 10
46.63843652785248
 20
341.6761790138941
 30
0.0
  0
POINT
  5
45
330
3A
100
AcDbEntity
  8
DEFPOINTS
 62
     0
100
AcDbPoint
 10
54.63843652785249
 20
341.6761790138941
 30
0.0
  0
ENDBLK
  5
46
330
3A
100
AcDbEntity
  8
0
100
AcDbBlockEnd
  0
BLOCK
  5
49
330
48
100
AcDbEntity
  8
0
100
AcDbBlockBegin
  2
*D2
 70
     1
 10
0.0
 20
0.0
 30
0.0
  3
*D2
  1

  0
LINE
  5
4A
330
48
100
AcDbEntity
  8
SUNPO
 62
     0
370
    -2
100
AcDbLine
 10
69.55596952840875
 20
340.7369494092755
 30
0.0
 11
69.55596952840875
 21
348.7369494092755
 31
0.0
  0
LINE
  5
4B
330
48
100
AcDbEntity
  8
SUNPO
 62
     0
370
    -2
100
AcDbLine
 10
101.1308817538252
 20
340.7369494092755
 30
0.0
 11
101.1308817538252
 21
348.7369494092755
 31
0.0
  0
LINE
  5
4C
330
48
100
AcDbEntity
  8
SUNPO
 62
     0
370
    -2
100
AcDbLine
 10
71.55596952840875
 20
346.7369494092755
 30
0.0
 11
99.13088175382519
 21
346.7369494092755
 31
0.0
  0
INSERT
  5
4D
330
48
100
AcDbEntity
  8
SUNPO
 62
     0
370
    -2
100
AcDbBlockReference
  2
_OPEN30
 10
69.55596952840875
 20
346.7369494092755
 30
0.0
 41
2.0
 42
2.0
 43
2.0
 50
180.0
  0
INSERT
  5
4E
330
48
100
AcDbEntity
  8
SUNPO
 62
     0
370
    -2
100
AcDbBlockReference
  2
_OPEN30
 10
101.1308817538252
 20
346.7369494092755
 30
0.0
 41
2.0
 42
2.0
 43
2.0
  0
MTEXT
  5
4F
330
48
100
AcDbEntity
  8
SUNPO
 62
     0
100
AcDbMText
 10
85.34342564111696
 20
348.4869494092755
 30
0.0
 40
2.5
 41
0.0
 71
     5
 72
     1
  1
\A1;158
 73
     1
 44
1.0
1001
ACAD
1000
MTEXTBEGIN
1070
    73
1070
     1
1070
    44
1040
1.0
1070
    74
1070
     0
1000
MTEXTEND
  0
POINT
  5
50
330
48
100
AcDbEntity
  8
DEFPOINTS
 62
     0
100
AcDbPoint
 10
69.55596952840875
 20
338.7369494092755
 30
0.0
  0
POINT
  5
51
330
48
100
AcDbEntity
  8
DEFPOINTS
 62
     0
100
AcDbPoint
 10
101.1308817538252
 20
338.7369494092755
 30
0.0
  0
POINT
  5
52
330
48
100
AcDbEntity
  8
DEFPOINTS
 62
     0
100
AcDbPoint
 10
101.1308817538252
 20
346.7369494092755
 30
0.0
  0
ENDBLK
  5
53
330
48
100
AcDbEntity
  8
0
100
AcDbBlockEnd
  0
BLOCK
  5
56
330
55
100
AcDbEntity
  8
0
100
AcDbBlockBegin
  2
*D3
 70
     1
 10
0.0
 20
0.0
 30
0.0
  3
*D3
  1

  0
LINE
  5
57
330
55
100
AcDbEntity
  8
SUNPO
 62
     0
370
    -2
100
AcDbLine
 10
32.23276625442043
 20
340.7369494092755
 30
0.0
 11
32.23276625442043
 21
348.7369494092755
 31
0.0
  0
LINE
  5
58
330
55
100
AcDbEntity
  8
SUNPO
 62
     0
370
    -2
100
AcDbLine
 10
46.6327662544204
 20
340.7369494092755
 30
0.0
 11
46.6327662544204
 21
348.7369494092755
 31
0.0
  0
LINE
  5
59
330
55
100
AcDbEntity
  8
SUNPO
 62
     0
370
    -2
100
AcDbLine
 10
34.23276625442043
 20
346.7369494092755
 30
0.0
 11
44.6327662544204
 21
346.7369494092755
 31
0.0
  0
INSERT
  5
5A
330
55
100
AcDbEntity
  8
SUNPO
 62
     0
370
    -2
100
AcDbBlockReference
  2
_OPEN30
 10
32.23276625442043
 20
346.7369494092755
 30
0.0
 41
2.0
 42
2.0
 43
2.0
 50
180.0
  0
INSERT
  5
5B
330
55
100
AcDbEntity
  8
SUNPO
 62
     0
370
    -2
100
AcDbBlockReference
  2
_OPEN30
 10
46.6327662544204
 20
346.7369494092755
 30
0.0
 41
2.0
 42
2.0
 43
2.0
  0
MTEXT
  5
5C
330
55
100
AcDbEntity
  8
SUNPO
 62
     0
100
AcDbMText
 10
39.43276625442042
 20
348.4869494092755
 30
0.0
 40
2.5
 41
0.0
 71
     5
 72
     1
  1
\A1;72
 73
     1
 44
1.0
1001
ACAD
1000
MTEXTBEGIN
1070
    73
1070
     1
1070
    44
1040
1.0
1070
    74
1070
     0
1000
MTEXTEND
  0
POINT
  5
5D
330
55
100
AcDbEntity
  8
DEFPOINTS
 62
     0
100
AcDbPoint
 10
32.23276625442043
 20
338.7369494092755
 30
0.0
  0
POINT
  5
5E
330
55
100
AcDbEntity
  8
DEFPOINTS
 62
     0
100
AcDbPoint
 10
46.6327662544204
 20
338.7369494092755
 30
0.0
  0
POINT
  5
5F
330
55
100
AcDbEntity
  8
DEFPOINTS
 62
     0
100
AcDbPoint
 10
46.6327662544204
 20
346.7369494092755
 30
0.0
  0
ENDBLK
  5
60
330
55
100
AcDbEntity
  8
0
100
AcDbBlockEnd
  0
BLOCK
  5
16A
330
160
100
AcDbEntity
  8
0
100
AcDbBlockBegin
  2
*D4
 70
     1
 10
0.0
 20
0.0
 30
0.0
  3
*D4
  1

  0
LINE
  5
161
330
160
100
AcDbEntity
  8
SUNPO
 62
     0
370
    -2
100
AcDbLine
 10
-32.04239006372688
 20
26.28251663293764
 30
0.0
 11
-32.04239006372688
 21
34.28251663293764
 31
0.0
  0
LINE
  5
162
330
160
100
AcDbEntity
  8
SUNPO
 62
     0
370
    -2
100
AcDbLine
 10
-17.6423900637269
 20
26.28251663293764
 30
0.0
 11
-17.6423900637269
 21
34.28251663293764
 31
0.0
  0
LINE
  5
163
330
160
100
AcDbEntity
  8
SUNPO
 62
     0
370
    -2
100
AcDbLine
 10
-30.04239006372689
 20
32.28251663293765
 30
0.0
 11
-19.64239006372691
 21
32.28251663293765
 31
0.0
  0
INSERT
  5
164
330
160
100
AcDbEntity
  8
SUNPO
 62
     0
370
    -2
100
AcDbBlockReference
  2
_OPEN30
 10
-32.04239006372688
 20
32.28251663293765
 30
0.0
 41
2.0
 42
2.0
 43
2.0
 50
180.0
  0
INSERT
  5
165
330
160
100
AcDbEntity
  8
SUNPO
 62
     0
370
    -2
100
AcDbBlockReference
  2
_OPEN30
 10
-17.6423900637269
 20
32.28251663293765
 30
0.0
 41
2.0
 42
2.0
 43
2.0
  0
MTEXT
  5
166
330
160
100
AcDbEntity
  8
SUNPO
 62
     0
100
AcDbMText
 10
-24.8423900637269
 20
34.03251663293764
 30
0.0
 40
2.5
 41
0.0
 71
     5
 72
     1
  1
\A1;72
 73
     1
 44
1.0
1001
ACAD
1000
MTEXTBEGIN
1070
    73
1070
     1
1070
    44
1040
1.0
1070
    74
1070
     0
1000
MTEXTEND
  0
POINT
  5
167
330
160
100
AcDbEntity
  8
DEFPOINTS
 62
     0
100
AcDbPoint
 10
-32.04239006372688
 20
24.28251663293764
 30
0.0
  0
POINT
  5
168
330
160
100
AcDbEntity
  8
DEFPOINTS
 62
     0
100
AcDbPoint
 10
-17.6423900637269
 20
24.28251663293764
 30
0.0
  0
POINT
  5
169
330
160
100
AcDbEntity
  8
DEFPOINTS
 62
     0
100
AcDbPoint
 10
-17.6423900637269
 20
32.28251663293765
 30
0.0
  0
ENDBLK
  5
16B
330
160
100
AcDbEntity
  8
0
100
AcDbBlockEnd
  0
BLOCK
  5
176
330
16C
100
AcDbEntity
  8
0
100
AcDbBlockBegin
  2
*D5
 70
     1
 10
0.0
 20
0.0
 30
0.0
  3
*D5
  1

  0
LINE
  5
16D
330
16C
100
AcDbEntity
  8
SUNPO
 62
     0
370
    -2
100
AcDbLine
 10
5.280813210261442
 20
26.28251663293764
 30
0.0
 11
5.280813210261443
 21
34.28251663293764
 31
0.0
  0
LINE
  5
16E
330
16C
100
AcDbEntity
  8
SUNPO
 62
     0
370
    -2
100
AcDbLine
 10
36.85572543567787
 20
26.28251663293764
 30
0.0
 11
36.85572543567787
 21
34.28251663293764
 31
0.0
  0
LINE
  5
16F
330
16C
100
AcDbEntity
  8
SUNPO
 62
     0
370
    -2
100
AcDbLine
 10
7.280813210261443
 20
32.28251663293765
 30
0.0
 11
34.85572543567787
 21
32.28251663293765
 31
0.0
  0
INSERT
  5
170
330
16C
100
AcDbEntity
  8
SUNPO
 62
     0
370
    -2
100
AcDbBlockReference
  2
_OPEN30
 10
5.280813210261443
 20
32.28251663293765
 30
0.0
 41
2.0
 42
2.0
 43
2.0
 50
180.0
  0
INSERT
  5
171
330
16C
100
AcDbEntity
  8
SUNPO
 62
     0
370
    -2
100
AcDbBlockReference
  2
_OPEN30
 10
36.85572543567787
 20
32.28251663293765
 30
0.0
 41
2.0
 42
2.0
 43
2.0
  0
MTEXT
  5
172
330
16C
100
AcDbEntity
  8
SUNPO
 62
     0
100
AcDbMText
 10
21.06826932296966
 20
34.03251663293764
 30
0.0
 40
2.5
 41
0.0
 71
     5
 72
     1
  1
\A1;158
 73
     1
 44
1.0
1001
ACAD
1000
MTEXTBEGIN
1070
    73
1070
     1
1070
    44
1040
1.0
1070
    74
1070
     0
1000
MTEXTEND
  0
POINT
  5
173
330
16C
100
AcDbEntity
  8
DEFPOINTS
 62
     0
100
AcDbPoint
 10
5.280813210261442
 20
24.28251663293764
 30
0.0
  0
POINT
  5
174
330
16C
100
AcDbEntity
  8
DEFPOINTS
 62
     0
100
AcDbPoint
 10
36.85572543567787
 20
24.28251663293764
 30
0.0
  0
POINT
  5
175
330
16C
100
AcDbEntity
  8
DEFPOINTS
 62
     0
100
AcDbPoint
 10
36.85572543567787
 20
32.28251663293765
 30
0.0
  0
ENDBLK
  5
177
330
16C
100
AcDbEntity
  8
0
100
AcDbBlockEnd
  0
BLOCK
  5
182
330
178
100
AcDbEntity
  8
0
100
AcDbBlockBegin
  2
*D6
 70
     1
 10
0.0
 20
0.0
 30
0.0
  3
*D6
  1

  0
LINE
  5
179
330
178
100
AcDbEntity
  8
SUNPO
 62
     0
370
    -2
100
AcDbLine
 10
-15.63671979029482
 20
14.22175295784774
 30
0.0
 11
-7.63671979029482
 21
14.22175295784774
 31
0.0
  0
LINE
  5
17A
330
178
100
AcDbEntity
  8
SUNPO
 62
     0
370
    -2
100
AcDbLine
 10
-15.63671979029482
 20
27.22174623755626
 30
0.0
 11
-7.636719790294818
 21
27.22174623755626
 31
0.0
  0
LINE
  5
17B
330
178
100
AcDbEntity
  8
SUNPO
 62
     0
370
    -2
100
AcDbLine
 10
-9.63671979029482
 20
16.22175295784774
 30
0.0
 11
-9.636719790294819
 21
25.22174623755626
 31
0.0
  0
INSERT
  5
17C
330
178
100
AcDbEntity
  8
SUNPO
 62
     0
370
    -2
100
AcDbBlockReference
  2
_OPEN30
 10
-9.63671979029482
 20
14.22175295784774
 30
0.0
 41
2.0
 42
2.0
 43
2.0
 50
270.0
  0
INSERT
  5
17D
330
178
100
AcDbEntity
  8
SUNPO
 62
     0
370
    -2
100
AcDbBlockReference
  2
_OPEN30
 10
-9.636719790294819
 20
27.22174623755626
 30
0.0
 41
2.0
 42
2.0
 43
2.0
 50
90.0
  0
MTEXT
  5
17E
330
178
100
AcDbEntity
  8
SUNPO
 62
     0
100
AcDbMText
 10
-11.38671979029482
 20
20.721749597702
 30
0.0
 40
2.5
 41
0.0
 71
     5
 72
     1
  1
\A1;65
 11
0.0000000000000001
 21
1.0
 31
0.0
 73
     1
 44
1.0
1001
ACAD
1000
MTEXTBEGIN
1070
    73
1070
     1
1070
    44
1040
1.0
1070
    74
1070
     0
1000
MTEXTEND
  0
POINT
  5
17F
330
178
100
AcDbEntity
  8
DEFPOINTS
 62
     0
100
AcDbPoint
 10
-17.63671979029482
 20
14.22175295784774
 30
0.0
  0
POINT
  5
180
330
178
100
AcDbEntity
  8
DEFPOINTS
 62
     0
100
AcDbPoint
 10
-17.63671979029482
 20
27.22174623755626
 30
0.0
  0
POINT
  5
181
330
178
100
AcDbEntity
  8
DEFPOINTS
 62
     0
100
AcDbPoint
 10
-9.636719790294819
 20
27.22174623755626
 30
0.0
  0
ENDBLK
  5
183
330
178
100
AcDbEntity
  8
0
100
AcDbBlockEnd
  0
ENDSEC
  0
SECTION
  2
ENTITIES
  0
TEXT
  5
33
330
2
100
AcDbEntity
  8
MOJI1
100
AcDbText
 10
-35.27515631814731
 20
52.04478136330408
 30
0.0
 40
4.0
  1
ネットワークカメラ
  7
KANJI
100
AcDbText
  0
TEXT
  5
36
330
2
100
AcDbEntity
  8
TOUROKU
100
AcDbText
 10
46.72479371477999
 20
46.04478136330385
 30
0.0
 40
2.0
  1
ＤＧＮＰ２４４
 72
     2
 11
62.72479371477999
 21
46.04478136330385
 31
0.0
100
AcDbText
  0
DIMENSION
  5
38
330
2
100
AcDbEntity
  8
SUNPO
100
AcDbDimension
  2
*D6
 10
-9.636719790294819
 20
27.22174623755626
 30
0.0
 11
-11.38671979029482
 21
20.721749597702
 31
0.0
 70
    33
  1
65
 71
     5
 42
12.99999327970852
  3
STANDARD
100
AcDbAlignedDimension
 13
-17.63671979029482
 23
14.22175295784774
 33
0.0
 14
-17.63671979029482
 24
27.22174623755626
 34
0.0
1001
ACAD
1000
DSTYLE
1002
{
1070
    40
1040
1.0
1070
   140
1040
2.5
1070
   147
1040
0.5
1070
   172
1070
     1
1070
   279
1070
     0
1070
   288
1070
     0
1002
}
  0
DIMENSION
  5
47
330
2
100
AcDbEntity
  8
SUNPO
100
AcDbDimension
  2
*D5
 10
36.85572543567787
 20
32.28251663293765
 30
0.0
 11
21.06826932296966
 21
34.03251663293764
 31
0.0
 70
    33
  1
158
 71
     5
 42
31.57491222541643
  3
STANDARD
100
AcDbAlignedDimension
 13
5.280813210261442
 23
24.28251663293764
 33
0.0
 14
36.85572543567787
 24
24.28251663293764
 34
0.0
1001
ACAD
1000
DSTYLE
1002
{
1070
    40
1040
1.0
1070
   140
1040
2.5
1070
   147
1040
0.5
1070
   172
1070
     1
1070
   279
1070
     0
1070
   288
1070
     0
1002
}
  0
DIMENSION
  5
54
330
2
100
AcDbEntity
  8
SUNPO
100
AcDbDimension
  2
*D4
 10
-17.6423900637269
 20
32.28251663293765
 30
0.0
 11
-24.8423900637269
 21
34.03251663293764
 31
0.0
 70
    33
  1
72
 71
     5
 42
14.39999999999997
  3
STANDARD
100
AcDbAlignedDimension
 13
-32.04239006372688
 23
24.28251663293764
 33
0.0
 14
-17.6423900637269
 24
24.28251663293764
 34
0.0
1001
ACAD
1000
DSTYLE
1002
{
1070
    40
1040
1.0
1070
   140
1040
2.5
1070
   147
1040
0.5
1070
   172
1070
     1
1070
   279
1070
     0
1070
   288
1070
     0
1002
}
  0
LINE
  5
61
330
2
100
AcDbEntity
  8
GAIKEI
100
AcDbLine
 10
-20.87957733208481
 20
25.22174623755626
 30
0.0
 11
-20.87957733208481
 21
25.45599374003911
 31
0.0
  0
LINE
  5
63
330
2
100
AcDbEntity
  8
GAIKEI
100
AcDbLine
 10
-20.87957733208481
 20
25.45599374003911
 30
0.0
 11
-21.50497287044408
 21
27.22174623755626
 31
0.0
  0
LINE
  5
64
330
2
100
AcDbEntity
  8
GAIKEI
 62
     1
100
AcDbLine
 10
-25.89005824414249
 20
25.00503536019716
 30
0.0
 11
-30.4210099840347
 21
25.00503536019716
 31
0.0
  0
ARC
  5
65
330
2
100
AcDbEntity
  8
GAIKEI
 62
     1
100
AcDbCircle
 10
-30.36037853852162
 20
24.45054430190026
 30
0.0
 40
0.557796115006351
100
AcDbArc
 50
96.24027917196436
 51
134.2414234394438
  0
ARC
  5
66
330
2
100
AcDbEntity
  8
GAIKEI
100
AcDbCircle
 10
-30.38971642334974
 20
24.36419765313843
 30
0.0
 40
0.8605222313010417
100
AcDbArc
 50
94.76459974678865
 51
141.8314183037427
  0
ARC
  5
67
330
2
100
AcDbEntity
  8
GAIKEI
 62
     1
100
AcDbCircle
 10
-29.65206175071699
 20
23.60336031407024
 30
0.0
 40
1.661011218622828
100
AcDbArc
 50
131.3556550915817
 51
166.7947766916854
  0
ARC
  5
68
330
2
100
AcDbEntity
  8
GAIKEI
100
AcDbCircle
 10
-28.9057740371506
 20
23.10203691376086
 30
0.0
 40
2.808187151017725
100
AcDbArc
 50
140.2956394196612
 51
160.0865283884654
  0
ARC
  5
69
330
2
100
AcDbEntity
  8
GAIKEI
100
AcDbCircle
 10
-23.35032745391294
 20
21.16324782005376
 30
0.0
 40
8.692092083672163
100
AcDbArc
 50
160.54349339735
 51
179.850791319817
  0
LINE
  5
6A
330
2
100
AcDbEntity
  8
GAIKEI
 62
     1
100
AcDbLine
 10
-31.26915264601172
 20
23.98280109304068
 30
0.0
 11
-31.52209813952089
 21
24.05817374009638
 31
0.0
  0
LINE
  5
6B
330
2
100
AcDbEntity
  8
GAIKEI
 62
     1
100
AcDbLine
 10
-29.96822450426558
 20
21.30178790770691
 30
0.0
 11
-32.04239006372683
 21
21.30178790770691
 31
0.0
  0
LINE
  5
6C
330
2
100
AcDbEntity
  8
GAIKEI
 62
     1
100
AcDbLine
 10
-30.00299896274251
 20
21.18588359066285
 30
0.0
 11
-32.04239006372683
 21
21.18588359066285
 31
0.0
  0
ARC
  5
6D
330
2
100
AcDbEntity
  8
GAIKEI
 62
     1
100
AcDbCircle
 10
-9.746697146147482
 20
20.5127497518684
 30
0.0
 40
21.80039786458058
100
AcDbArc
 50
170.8410583213158
 51
178.2305892178389
  0
LINE
  5
6E
330
2
100
AcDbEntity
  8
GAIKEI
 62
     1
100
AcDbLine
 10
-31.82382100092429
 20
17.79945675630512
 30
0.0
 11
-31.4217561255669
 21
17.79109492180902
 31
0.0
  0
ARC
  5
6F
330
2
100
AcDbEntity
  8
GAIKEI
 62
     1
100
AcDbCircle
 10
0.0471860579608006
 20
20.55594244304103
 30
0.0
 40
31.5901678369373
100
AcDbArc
 50
178.8573862048036
 51
189.2168106148226
  0
ARC
  5
70
330
2
100
AcDbEntity
  8
GAIKEI
100
AcDbCircle
 10
-5.018709897308156
 20
21.22979739269971
 30
0.0
 40
27.02371584662076
100
AcDbArc
 50
180.0931062419645
 51
192.4482988235125
  0
ARC
  5
71
330
2
100
AcDbEntity
  8
GAIKEI
 62
     1
100
AcDbCircle
 10
-29.61073259174265
 20
15.75882099331687
 30
0.0
 40
1.54686861353174
100
AcDbArc
 50
189.7778047867986
 51
243.2697604044924
  0
ARC
  5
72
330
2
100
AcDbEntity
  8
GAIKEI
100
AcDbCircle
 10
-29.64265077372733
 20
15.9968457746433
 30
0.0
 40
1.868312899030592
100
AcDbArc
 50
199.1923904460757
 51
251.8243443439124
  0
LINE
  5
73
330
2
100
AcDbEntity
  8
GAIKEI
 62
     1
100
AcDbLine
 10
-31.4071229151985
 20
15.40460412928479
 30
0.0
 11
-31.13513102089263
 21
15.49611976238162
 31
0.0
  0
LINE
  5
74
330
2
100
AcDbEntity
  8
GAIKEI
 62
     1
100
AcDbLine
 10
-25.87565730695468
 20
14.37725985215837
 30
0.0
 11
-30.30649930607325
 21
14.37725985215837
 31
0.0
  0
LINE
  5
75
330
2
100
AcDbEntity
  8
GAIKEI
100
AcDbLine
 10
-19.45934416135731
 20
14.2217529578478
 30
0.0
 11
-30.22543596609654
 21
14.22175295784763
 31
0.0
  0
LINE
  5
76
330
2
100
AcDbEntity
  8
GAIKEI
100
AcDbLine
 10
-19.2235868832015
 20
25.22174623755632
 30
0.0
 11
-30.46119324425234
 21
25.22174623755626
 31
0.0
  0
LINE
  5
77
330
2
100
AcDbEntity
  8
GAIKEI
100
AcDbLine
 10
-28.17980725700972
 20
27.22174623755626
 30
0.0
 11
-21.50497287044396
 21
27.22174623755626
 31
0.0
  0
LINE
  5
78
330
2
100
AcDbEntity
  8
GAIKEI
100
AcDbLine
 10
-28.80520279536899
 20
25.45599374003911
 30
0.0
 11
-28.17980725700972
 21
27.22174623755626
 31
0.0
  0
LINE
  5
79
330
2
100
AcDbEntity
  8
GAIKEI
 62
     1
100
AcDbLine
 10
-28.80520279536899
 20
25.45599374003911
 30
0.0
 11
-20.87957733208481
 21
25.45599374003911
 31
0.0
  0
LINE
  5
7A
330
2
100
AcDbEntity
  8
GAIKEI
100
AcDbLine
 10
-28.80520279536899
 20
25.22174623755626
 30
0.0
 11
-28.80520279536899
 21
25.45599374003911
 31
0.0
  0
LINE
  5
7B
330
2
100
AcDbEntity
  8
GAIKEI
 62
     1
100
AcDbLine
 10
-18.41562748144201
 20
23.98280109304073
 30
0.0
 11
-18.16268198793295
 21
24.05817374009644
 31
0.0
  0
ARC
  5
7C
330
2
100
AcDbEntity
  8
GAIKEI
100
AcDbCircle
 10
-19.29506370410411
 20
24.36419765313849
 30
0.0
 40
0.8605222313010417
100
AcDbArc
 50
38.16858169625726
 51
85.23540025321134
  0
ARC
  5
7D
330
2
100
AcDbEntity
  8
GAIKEI
100
AcDbCircle
 10
-20.77900609030326
 20
23.10203691376091
 30
0.0
 40
2.808187151017725
100
AcDbArc
 50
19.91347161153463
 51
39.70436058033872
  0
ARC
  5
7E
330
2
100
AcDbEntity
  8
GAIKEI
 62
     1
100
AcDbCircle
 10
-20.03271837673685
 20
23.6033603140703
 30
0.0
 40
1.661011218622828
100
AcDbArc
 50
13.20522330831458
 51
48.6443449084183
  0
ARC
  5
7F
330
2
100
AcDbEntity
  8
GAIKEI
 62
     1
100
AcDbCircle
 10
-19.32440158893212
 20
24.45054430190032
 30
0.0
 40
0.557796115006351
100
AcDbArc
 50
45.75857656055615
 51
83.75972082803563
  0
LINE
  5
80
330
2
100
AcDbEntity
  8
GAIKEI
 62
     1
100
AcDbLine
 10
-23.79472188331118
 20
25.00503536019716
 30
0.0
 11
-19.26377014341915
 21
25.00503536019721
 31
0.0
  0
ARC
  5
81
330
2
100
AcDbEntity
  8
GAIKEI
100
AcDbCircle
 10
-26.33445267354091
 20
21.16324782005381
 30
0.0
 40
8.692092083672163
100
AcDbArc
 50
0.1492086801829175
 51
19.45650660265
  0
ARC
  5
82
330
2
100
AcDbEntity
  8
GAIKEI
 62
     1
100
AcDbCircle
 10
-39.93808298130637
 20
20.51274975186846
 30
0.0
 40
21.80039786458058
100
AcDbArc
 50
1.769410782161063
 51
9.158941678684188
  0
LINE
  5
83
330
2
100
AcDbEntity
  8
GAIKEI
 62
     1
100
AcDbLine
 10
-17.86095912652956
 20
17.79945675630517
 30
0.0
 11
-18.26302400188694
 21
17.79109492180907
 31
0.0
  0
LINE
  5
84
330
2
100
AcDbEntity
  8
GAIKEI
 62
     1
100
AcDbLine
 10
-18.27765721225523
 20
15.40460412928485
 30
0.0
 11
-18.54964910656122
 21
15.49611976238168
 31
0.0
  0
ARC
  5
85
330
2
100
AcDbEntity
  8
GAIKEI
100
AcDbCircle
 10
-44.66607023014569
 20
21.22979739269977
 30
0.0
 40
27.02371584662076
100
AcDbArc
 50
347.5517011764874
 51
359.9068937580323
  0
ARC
  5
86
330
2
100
AcDbEntity
  8
GAIKEI
 62
     1
100
AcDbCircle
 10
-49.73196618541464
 20
20.55594244304109
 30
0.0
 40
31.5901678369373
100
AcDbArc
 50
350.7831893851774
 51
1.142613795196394
  0
ARC
  5
87
330
2
100
AcDbEntity
  8
GAIKEI
100
AcDbCircle
 10
-20.04212935372652
 20
15.99684577464336
 30
0.0
 40
1.868312899030592
100
AcDbArc
 50
288.1756556560876
 51
340.8076095539243
  0
ARC
  5
88
330
2
100
AcDbEntity
  8
GAIKEI
 62
     1
100
AcDbCircle
 10
-20.0740475357112
 20
15.75882099331693
 30
0.0
 40
1.54686861353174
100
AcDbArc
 50
296.7302395955076
 51
350.2221952132014
  0
LINE
  5
89
330
2
100
AcDbEntity
  8
GAIKEI
 62
     1
100
AcDbLine
 10
-19.68178116471131
 20
21.18588359066291
 30
0.0
 11
-17.6423900637269
 21
21.18588359066291
 31
0.0
  0
LINE
  5
8A
330
2
100
AcDbEntity
  8
GAIKEI
 62
     1
100
AcDbLine
 10
-19.71655562318824
 20
21.30178790770697
 30
0.0
 11
-17.6423900637269
 21
21.30178790770697
 31
0.0
  0
LINE
  5
8B
330
2
100
AcDbEntity
  8
GAIKEI
 62
     1
100
AcDbLine
 10
-23.80912282049911
 20
14.37725985215837
 30
0.0
 11
-19.3782808213806
 21
14.37725985215843
 31
0.0
  0
ARC
  5
8C
330
2
100
AcDbEntity
  8
GAIKEI
 62
     1
100
AcDbCircle
 10
-24.8423900637269
 20
19.70072887487123
 30
0.0
 40
4.855340273784498
100
AcDbArc
 50
47.18430816150422
 51
88.47050203474239
  0
ARC
  5
8D
330
2
100
AcDbEntity
  8
GAIKEI
 62
     1
100
AcDbCircle
 10
-24.8423900637269
 20
19.70072887487123
 30
0.0
 40
4.122938572731452
100
AcDbArc
 50
47.6726231245255
 51
87.98894532172768
  0
ARC
  5
8E
330
2
100
AcDbEntity
  8
GAIKEI
 62
     1
100
AcDbCircle
 10
-24.8423900637269
 20
19.70072887487123
 30
0.0
 40
4.122938572731452
100
AcDbArc
 50
92.67262312452643
 51
132.9889453217282
  0
ARC
  5
8F
330
2
100
AcDbEntity
  8
GAIKEI
 62
     1
100
AcDbCircle
 10
-24.8423900637269
 20
19.70072887487123
 30
0.0
 40
4.855340273784498
100
AcDbArc
 50
92.18430816150542
 51
133.470502034743
  0
ARC
  5
90
330
2
100
AcDbEntity
  8
GAIKEI
 62
     1
100
AcDbCircle
 10
-24.8423900637269
 20
19.70072887487123
 30
0.0
 40
4.855340273784498
100
AcDbArc
 50
137.1843081615042
 51
178.4705020347424
  0
ARC
  5
91
330
2
100
AcDbEntity
  8
GAIKEI
 62
     1
100
AcDbCircle
 10
-24.8423900637269
 20
19.70072887487123
 30
0.0
 40
4.122938572731452
100
AcDbArc
 50
137.6726231245255
 51
177.9889453217277
  0
ARC
  5
92
330
2
100
AcDbEntity
  8
GAIKEI
 62
     1
100
AcDbCircle
 10
-24.8423900637269
 20
19.70072887487123
 30
0.0
 40
4.855340273784498
100
AcDbArc
 50
2.184308161505374
 51
43.47050203474306
  0
ARC
  5
93
330
2
100
AcDbEntity
  8
GAIKEI
 62
     1
100
AcDbCircle
 10
-24.8423900637269
 20
19.70072887487123
 30
0.0
 40
4.122938572731452
100
AcDbArc
 50
2.67262312452636
 51
42.9889453217294
  0
ARC
  5
94
330
2
100
AcDbEntity
  8
GAIKEI
 62
     1
100
AcDbCircle
 10
-24.8423900637269
 20
19.70072887487123
 30
0.0
 40
4.855340273784498
100
AcDbArc
 50
182.1843081615053
 51
223.4705020347431
  0
ARC
  5
95
330
2
100
AcDbEntity
  8
GAIKEI
 62
     1
100
AcDbCircle
 10
-24.8423900637269
 20
19.70072887487123
 30
0.0
 40
4.122938572731452
100
AcDbArc
 50
182.6726231245263
 51
222.9889453217294
  0
ARC
  5
96
330
2
100
AcDbEntity
  8
GAIKEI
 62
     1
100
AcDbCircle
 10
-24.8423900637269
 20
19.70072887487123
 30
0.0
 40
4.122938572731452
100
AcDbArc
 50
227.6726231245301
 51
267.9889453217277
  0
ARC
  5
97
330
2
100
AcDbEntity
  8
GAIKEI
 62
     1
100
AcDbCircle
 10
-24.8423900637269
 20
19.70072887487123
 30
0.0
 40
4.855340273784498
100
AcDbArc
 50
227.1843081615042
 51
268.4705020347424
  0
ARC
  5
98
330
2
100
AcDbEntity
  8
GAIKEI
 62
     1
100
AcDbCircle
 10
-24.8423900637269
 20
19.70072887487123
 30
0.0
 40
4.855340273784498
100
AcDbArc
 50
317.1843081615043
 51
358.4705020347424
  0
ARC
  5
99
330
2
100
AcDbEntity
  8
GAIKEI
 62
     1
100
AcDbCircle
 10
-24.8423900637269
 20
19.70072887487123
 30
0.0
 40
4.122938572731452
100
AcDbArc
 50
317.6726231245255
 51
357.9889453217278
  0
LINE
  5
9A
330
2
100
AcDbEntity
  8
GAIKEI
 62
     1
100
AcDbLine
 10
-27.61863607838319
 20
16.65260149226054
 30
0.0
 11
-28.14228434748867
 21
16.1391243361515
 31
0.0
  0
LINE
  5
9B
330
2
100
AcDbEntity
  8
GAIKEI
 62
     1
100
AcDbLine
 10
-27.85825891171254
 20
16.88947336064513
 30
0.0
 11
-28.36604967876343
 21
16.36034684707948
 31
0.0
  0
LINE
  5
9C
330
2
100
AcDbEntity
  8
GAIKEI
 62
     1
100
AcDbLine
 10
-28.96084398909699
 20
19.50847971591241
 30
0.0
 11
-29.6942024102072
 21
19.51567177888438
 31
0.0
  0
LINE
  5
9D
330
2
100
AcDbEntity
  8
GAIKEI
 62
     1
100
AcDbLine
 10
-28.96278921506411
 20
19.84541235069383
 30
0.0
 11
-29.69600045571764
 21
19.83032569965161
 31
0.0
  0
LINE
  5
9E
330
2
100
AcDbEntity
  8
GAIKEI
 62
     1
100
AcDbLine
 10
-27.89051744633758
 20
22.47697488952764
 30
0.0
 11
-28.40399460244663
 21
23.00062315863312
 31
0.0
  0
LINE
  5
9F
330
2
100
AcDbEntity
  8
GAIKEI
 62
     1
100
AcDbLine
 10
-27.653645577953
 20
22.71659772285687
 30
0.0
 11
-28.18277209151864
 21
23.22438848990777
 31
0.0
  0
LINE
  5
A0
330
2
100
AcDbEntity
  8
GAIKEI
 62
     1
100
AcDbLine
 10
-25.03463922268571
 20
23.81918280024132
 30
0.0
 11
-25.02744715971374
 21
24.55254122135154
 31
0.0
  0
LINE
  5
A1
330
2
100
AcDbEntity
  8
GAIKEI
 62
     1
100
AcDbLine
 10
-24.69770658790429
 20
23.82112802620856
 30
0.0
 11
-24.71279323894652
 21
24.55433926686197
 31
0.0
  0
LINE
  5
A2
330
2
100
AcDbEntity
  8
GAIKEI
 62
     1
100
AcDbLine
 10
-22.06614404907049
 20
22.74885625748203
 30
0.0
 11
-21.54249577996512
 21
23.26233341359108
 31
0.0
  0
LINE
  5
A3
330
2
100
AcDbEntity
  8
GAIKEI
 62
     1
100
AcDbLine
 10
-21.82652121574125
 20
22.51198438909733
 30
0.0
 11
-21.31873044869036
 21
23.04111090266298
 31
0.0
  0
LINE
  5
A4
330
2
100
AcDbEntity
  8
GAIKEI
 62
     1
100
AcDbLine
 10
-20.7239361383568
 20
19.89297803383005
 30
0.0
 11
-19.99057771724659
 21
19.88578597085808
 31
0.0
  0
LINE
  5
A5
330
2
100
AcDbEntity
  8
GAIKEI
 62
     1
100
AcDbLine
 10
-20.72199091238969
 20
19.55604539904874
 30
0.0
 11
-19.98877967173615
 21
19.57113205009097
 31
0.0
  0
LINE
  5
A6
330
2
100
AcDbEntity
  8
GAIKEI
 62
     1
100
AcDbLine
 10
-21.7942626811161
 20
16.92448286021494
 30
0.0
 11
-21.28078552500705
 21
16.40083459110946
 31
0.0
  0
LINE
  5
A7
330
2
100
AcDbEntity
  8
GAIKEI
 62
     1
100
AcDbLine
 10
-22.03113454950079
 20
16.6848600268857
 30
0.0
 11
-21.50200803593515
 21
16.17706925983469
 31
0.0
  0
LINE
  5
A8
330
2
100
AcDbEntity
  8
GAIKEI
 62
     1
100
AcDbLine
 10
-24.98707353954939
 20
15.58032972353402
 30
0.0
 11
-24.97198688850716
 21
14.84711848288049
 31
0.0
  0
LINE
  5
A9
330
2
100
AcDbEntity
  8
GAIKEI
 62
     1
100
AcDbLine
 10
-24.65014090476808
 20
15.58227494950114
 30
0.0
 11
-24.65733296774005
 21
14.84891652839093
 31
0.0
  0
LINE
  5
AA
330
2
100
AcDbEntity
  8
GAIKEI
 62
     1
100
AcDbLine
 10
-26.09213591113331
 20
20.8762634411242
 30
0.0
 11
-26.09213591113331
 21
20.48232812708255
 31
0.0
  0
LINE
  5
AB
330
2
100
AcDbEntity
  8
GAIKEI
 62
     1
100
AcDbLine
 10
-25.77903166388791
 20
20.8762634411242
 30
0.0
 11
-26.09213591113331
 21
20.8762634411242
 31
0.0
  0
LINE
  5
AC
330
2
100
AcDbEntity
  8
GAIKEI
 62
     1
100
AcDbLine
 10
-23.57894009867397
 20
18.52531044520862
 30
0.0
 11
-23.88368251142328
 21
18.52531044520862
 31
0.0
  0
LINE
  5
AD
330
2
100
AcDbEntity
  8
GAIKEI
 62
     1
100
AcDbLine
 10
-23.57894009867397
 20
18.9097225588518
 30
0.0
 11
-23.57894009867397
 21
18.52531044520862
 31
0.0
  0
LINE
  5
AE
330
2
100
AcDbEntity
  8
GAIKEI
 62
     1
100
AcDbLine
 10
-23.99819318938461
 20
18.84875084898402
 30
0.0
 11
-23.99819318938461
 21
20.55270690075855
 31
0.0
  0
LINE
  5
AF
330
2
100
AcDbEntity
  8
GAIKEI
 62
     1
100
AcDbLine
 10
-25.68635466488871
 20
18.84875084898402
 30
0.0
 11
-23.99819318938461
 21
18.84875084898402
 31
0.0
  0
LINE
  5
B0
330
2
100
AcDbEntity
  8
GAIKEI
 62
     1
100
AcDbLine
 10
-25.68635466488871
 20
20.55270690075855
 30
0.0
 11
-25.68635466488871
 21
18.84875084898402
 31
0.0
  0
LINE
  5
B1
330
2
100
AcDbEntity
  8
GAIKEI
 62
     1
100
AcDbLine
 10
-23.99819318938461
 20
20.55270690075855
 30
0.0
 11
-25.68635466488871
 21
20.55270690075855
 31
0.0
  0
LINE
  5
B2
330
2
100
AcDbEntity
  8
GAIKEI
 62
     1
100
AcDbLine
 10
-23.87508840374659
 20
18.72448469744375
 30
0.0
 11
-23.87508840374659
 21
20.67720532547929
 31
0.0
  0
LINE
  5
B3
330
2
100
AcDbEntity
  8
GAIKEI
 62
     1
100
AcDbLine
 10
-25.80969172370709
 20
18.72448469744375
 30
0.0
 11
-23.87508840374659
 21
18.72448469744375
 31
0.0
  0
LINE
  5
B4
330
2
100
AcDbEntity
  8
GAIKEI
 62
     1
100
AcDbLine
 10
-25.80969172370709
 20
20.67720532547929
 30
0.0
 11
-25.80969172370709
 21
18.72448469744375
 31
0.0
  0
LINE
  5
B5
330
2
100
AcDbEntity
  8
GAIKEI
 62
     1
100
AcDbLine
 10
-23.87508840374659
 20
20.67720532547929
 30
0.0
 11
-25.80969172370709
 21
20.67720532547929
 31
0.0
  0
LINE
  5
B6
330
2
100
AcDbEntity
  8
GAIKEI
 62
     1
100
AcDbLine
 10
-23.64931887235008
 20
18.91111619793452
 30
0.0
 11
-23.64931887235008
 21
20.81413036535406
 31
0.0
  0
LINE
  5
B7
330
2
100
AcDbEntity
  8
GAIKEI
 62
     1
100
AcDbLine
 10
-23.09441824425716
 20
18.91111619793452
 30
0.0
 11
-23.64931887235008
 21
18.91111619793452
 31
0.0
  0
LINE
  5
B8
330
2
100
AcDbEntity
  8
GAIKEI
 62
     1
100
AcDbLine
 10
-23.09441824425716
 20
18.11453532558443
 30
0.0
 11
-23.09441824425716
 21
18.91111619793452
 31
0.0
  0
LINE
  5
B9
330
2
100
AcDbEntity
  8
GAIKEI
 62
     1
100
AcDbLine
 10
-23.89576071680659
 20
18.11453532558443
 30
0.0
 11
-23.09441824425716
 21
18.11453532558443
 31
0.0
  0
LINE
  5
BA
330
2
100
AcDbEntity
  8
GAIKEI
 62
     1
100
AcDbLine
 10
-23.89576071680659
 20
18.58744352097875
 30
0.0
 11
-23.89576071680659
 21
18.11453532558443
 31
0.0
  0
LINE
  5
BB
330
2
100
AcDbEntity
  8
GAIKEI
 62
     1
100
AcDbLine
 10
-26.03569352828407
 20
18.58744352097875
 30
0.0
 11
-23.89576071680659
 21
18.58744352097875
 31
0.0
  0
LINE
  5
BC
330
2
100
AcDbEntity
  8
GAIKEI
 62
     1
100
AcDbLine
 10
-26.03569352828407
 20
20.47884402937569
 30
0.0
 11
-26.03569352828407
 21
18.58744352097875
 31
0.0
  0
LINE
  5
BD
330
2
100
AcDbEntity
  8
GAIKEI
 62
     1
100
AcDbLine
 10
-26.58316141460267
 20
20.47884402937569
 30
0.0
 11
-26.03569352828407
 21
20.47884402937569
 31
0.0
  0
LINE
  5
BE
330
2
100
AcDbEntity
  8
GAIKEI
 62
     1
100
AcDbLine
 10
-26.58316141460267
 20
21.2750764919553
 30
0.0
 11
-26.58316141460267
 21
20.47884402937569
 31
0.0
  0
LINE
  5
BF
330
2
100
AcDbEntity
  8
GAIKEI
 62
     1
100
AcDbLine
 10
-25.78181894205324
 20
21.2750764919553
 30
0.0
 11
-26.58316141460267
 21
21.2750764919553
 31
0.0
  0
LINE
  5
C0
330
2
100
AcDbEntity
  8
GAIKEI
 62
     1
100
AcDbLine
 10
-25.78181894205324
 20
20.81413036535406
 30
0.0
 11
-25.78181894205324
 21
21.2750764919553
 31
0.0
  0
LINE
  5
C1
330
2
100
AcDbEntity
  8
GAIKEI
 62
     1
100
AcDbLine
 10
-23.64931887235008
 20
20.81413036535406
 30
0.0
 11
-25.78181894205324
 21
20.81413036535406
 31
0.0
  0
CIRCLE
  5
C2
330
2
100
AcDbEntity
  8
GAIKEI
 62
     1
100
AcDbCircle
 10
-24.84227392713666
 20
21.77028291267271
 30
0.0
 40
0.1577134895249433
  0
CIRCLE
  5
C3
330
2
100
AcDbEntity
  8
GAIKEI
 62
     1
100
AcDbCircle
 10
-24.84227392713666
 20
17.62954892480667
 30
0.0
 40
0.1577134895249351
  0
ARC
  5
C4
330
2
100
AcDbEntity
  8
GAIKEI
 62
     1
100
AcDbCircle
 10
-24.8423900637269
 20
19.70072887487123
 30
0.0
 40
4.855340273784498
100
AcDbArc
 50
272.1843081615054
 51
313.4705020347431
  0
ARC
  5
C5
330
2
100
AcDbEntity
  8
GAIKEI
 62
     1
100
AcDbCircle
 10
-24.8423900637269
 20
19.70072887487123
 30
0.0
 40
4.122938572731452
100
AcDbArc
 50
272.6726231245264
 51
312.9889453217283
  0
CIRCLE
  5
C6
330
2
100
AcDbEntity
  8
GAIKEI
 62
     1
100
AcDbCircle
 10
-24.8423900637269
 20
19.70072887487123
 30
0.0
 40
3.592740349163703
  0
CIRCLE
  5
C7
330
2
100
AcDbEntity
  8
GAIKEI
 62
     1
100
AcDbCircle
 10
-24.8423900637269
 20
19.70072887487123
 30
0.0
 40
3.48119429198089
  0
CIRCLE
  5
C8
330
2
100
AcDbEntity
  8
GAIKEI
 62
     1
100
AcDbCircle
 10
-24.8423900637269
 20
19.70072887487123
 30
0.0
 40
2.580206625018836
  0
CIRCLE
  5
C9
330
2
100
AcDbEntity
  8
GAIKEI
 62
     1
100
AcDbCircle
 10
-24.8423900637269
 20
19.70072887487123
 30
0.0
 40
2.468250952042374
  0
CIRCLE
  5
CA
330
2
100
AcDbEntity
  8
GAIKEI
 62
     1
100
AcDbCircle
 10
-24.8423900637269
 20
19.70072887487123
 30
0.0
 40
5.258084122416511
  0
CIRCLE
  5
CB
330
2
100
AcDbEntity
  8
GAIKEI
 62
     1
100
AcDbCircle
 10
-24.8423900637269
 20
19.70072887487123
 30
0.0
 40
5.370062265787723
  0
LINE
  5
CC
330
2
100
AcDbEntity
  8
GAIKEI
 62
     1
100
AcDbLine
 10
6.069380657886142
 20
25.21117780784584
 30
0.0
 11
6.069380657886142
 21
14.30827471756515
 31
0.0
  0
LINE
  5
CD
330
2
100
AcDbEntity
  8
GAIKEI
 62
     1
100
AcDbLine
 10
5.427609860305381
 20
14.30827471756515
 30
0.0
 11
5.427609860305381
 21
25.21117780784584
 31
0.0
  0
LINE
  5
CE
330
2
100
AcDbEntity
  8
GAIKEI
100
AcDbLine
 10
5.280813210261442
 20
25.06472956757273
 30
0.0
 11
5.280813210261442
 21
14.45483909442851
 31
0.0
  0
LINE
  5
CF
330
2
100
AcDbEntity
  8
GAIKEI
100
AcDbLine
 10
5.427609860305381
 20
25.21117780784584
 30
0.0
 11
5.280813210261442
 21
25.06472956757273
 31
0.0
  0
LINE
  5
D0
330
2
100
AcDbEntity
  8
GAIKEI
100
AcDbLine
 10
6.069380657886142
 20
25.21117780784584
 30
0.0
 11
5.427609860305381
 21
25.21117780784584
 31
0.0
  0
LINE
  5
D1
330
2
100
AcDbEntity
  8
GAIKEI
100
AcDbLine
 10
6.221984137441324
 20
25.06472956757273
 30
0.0
 11
6.069380657886142
 21
25.21117780784584
 31
0.0
  0
LINE
  5
D2
330
2
100
AcDbEntity
  8
GAIKEI
100
AcDbLine
 10
6.221984137441324
 20
14.45483909442851
 30
0.0
 11
6.221984137441324
 21
25.06472956757273
 31
0.0
  0
LINE
  5
D3
330
2
100
AcDbEntity
  8
GAIKEI
100
AcDbLine
 10
6.069380657886142
 20
14.30827471756515
 30
0.0
 11
6.221984137441324
 21
14.45483909442851
 31
0.0
  0
LINE
  5
D4
330
2
100
AcDbEntity
  8
GAIKEI
100
AcDbLine
 10
5.427609860305381
 20
14.30827471756515
 30
0.0
 11
6.069380657886142
 21
14.30827471756515
 31
0.0
  0
LINE
  5
D5
330
2
100
AcDbEntity
  8
GAIKEI
100
AcDbLine
 10
5.280813210261442
 20
14.45483909442851
 30
0.0
 11
5.427609860305381
 21
14.30827471756515
 31
0.0
  0
LINE
  5
D6
330
2
100
AcDbEntity
  8
GAIKEI
 62
     1
100
AcDbLine
 10
6.465362548610812
 20
24.4299269654054
 30
0.0
 11
6.221984137441324
 21
24.4299269654054
 31
0.0
  0
LINE
  5
D7
330
2
100
AcDbEntity
  8
GAIKEI
 62
     1
100
AcDbLine
 10
6.556225244107451
 20
15.02321156698747
 30
0.0
 11
6.221984137441324
 21
15.02321156698741
 31
0.0
  0
LINE
  5
D8
330
2
100
AcDbEntity
  8
GAIKEI
100
AcDbLine
 10
6.325958085264289
 20
21.24873052964062
 30
0.0
 11
6.323255244117092
 21
21.38738057470255
 31
0.0
  0
LINE
  5
D9
330
2
100
AcDbEntity
  8
GAIKEI
100
AcDbLine
 10
6.578755742611008
 20
14.49397712533414
 30
0.0
 11
6.325958085264289
 21
21.24873052964062
 31
0.0
  0
ARC
  5
DA
330
2
100
AcDbEntity
  8
GAIKEI
100
AcDbCircle
 10
6.861617597118367
 20
14.50481997512565
 30
0.0
 40
0.2830695959070551
100
AcDbArc
 50
182.1952253453899
 51
270.2445602097444
  0
LINE
  5
DB
330
2
100
AcDbEntity
  8
GAIKEI
100
AcDbLine
 10
6.493976031747081
 20
24.95172866528418
 30
0.0
 11
6.323255244117092
 21
21.38738057470255
 31
0.0
  0
ARC
  5
DC
330
2
100
AcDbEntity
  8
GAIKEI
100
AcDbCircle
 10
6.77581468956788
 20
24.9396546033409
 30
0.0
 40
0.2820971676816736
100
AcDbArc
 50
89.64112962142182
 51
177.5469296963012
  0
LINE
  5
DD
330
2
100
AcDbEntity
  8
GAIKEI
 62
     1
100
AcDbLine
 10
7.174768723643467
 20
21.24873052964062
 30
0.0
 11
6.325958085264289
 21
21.24873052964062
 31
0.0
  0
ARC
  5
DE
330
2
100
AcDbEntity
  8
GAIKEI
 62
     1
100
AcDbCircle
 10
8.109305487988024
 20
18.06458403152464
 30
0.0
 40
0.9345385868137793
100
AcDbArc
 50
180.1131538104706
 51
269.9937612163773
  0
ARC
  5
DF
330
2
100
AcDbEntity
  8
GAIKEI
 62
     1
100
AcDbCircle
 10
8.171449713805088
 20
18.09345442950871
 30
0.0
 40
0.8401351583932278
100
AcDbArc
 50
173.2559857312874
 51
276.8437954243858
  0
LINE
  5
E0
330
2
100
AcDbEntity
  8
GAIKEI
 62
     1
100
AcDbLine
 10
7.174768723643467
 20
18.06273840634435
 30
0.0
 11
7.174768723643467
 21
21.24873052964062
 31
0.0
  0
LINE
  5
E1
330
2
100
AcDbEntity
  8
GAIKEI
 62
     1
100
AcDbLine
 10
7.337127676777356
 20
18.19211456785456
 30
0.0
 11
7.337127676777356
 21
21.24873052964062
 31
0.0
  0
ARC
  5
E2
330
2
100
AcDbEntity
  8
GAIKEI
 62
     1
100
AcDbCircle
 10
7.654255734326795
 20
20.58933020264635
 30
0.0
 40
0.142227379339865
100
AcDbArc
 50
90.12385094094833
 51
179.7822984993342
  0
ARC
  5
E3
330
2
100
AcDbEntity
  8
GAIKEI
 62
     1
100
AcDbCircle
 10
7.65393358268858
 20
19.1505767812904
 30
0.0
 40
0.1419058483297425
100
AcDbArc
 50
180.2760729181692
 51
270.0059401934325
  0
CIRCLE
  5
E4
330
2
100
AcDbEntity
  8
GAIKEI
 62
     1
100
AcDbCircle
 10
15.24417128562567
 20
19.87017216000913
 30
0.0
 40
0.293361026907218
  0
ARC
  5
E5
330
2
100
AcDbEntity
  8
GAIKEI
 62
     1
100
AcDbCircle
 10
15.78271854882103
 20
20.58977743790695
 30
0.0
 40
0.1417809129540364
100
AcDbArc
 50
0.0376520845142569
 51
89.77418460511342
  0
ARC
  5
E6
330
2
100
AcDbEntity
  8
GAIKEI
 62
     1
100
AcDbCircle
 10
15.7830421897425
 20
19.15012817514184
 30
0.0
 40
0.1414574368641437
100
AcDbArc
 50
270.0952440365558
 51
359.9047559634345
  0
LINE
  5
E7
330
2
100
AcDbEntity
  8
GAIKEI
 62
     1
100
AcDbLine
 10
7.512029381655509
 20
20.58987060963056
 30
0.0
 11
7.512029381655509
 21
19.1498930274364
 31
0.0
  0
LINE
  5
E8
330
2
100
AcDbEntity
  8
GAIKEI
 62
     1
100
AcDbLine
 10
15.78327733744794
 20
20.73155724970456
 30
0.0
 11
7.653948294909866
 21
20.73155724970456
 31
0.0
  0
LINE
  5
E9
330
2
100
AcDbEntity
  8
GAIKEI
 62
     1
100
AcDbLine
 10
15.92449943116111
 20
19.1498930274364
 30
0.0
 11
15.92449943116111
 21
20.58987060963056
 31
0.0
  0
LINE
  5
EA
330
2
100
AcDbEntity
  8
GAIKEI
 62
     1
100
AcDbLine
 10
15.71289856377194
 20
20.41334299248934
 30
0.0
 11
15.71289856377194
 21
19.32688519093858
 31
0.0
  0
LINE
  5
EB
330
2
100
AcDbEntity
  8
GAIKEI
 62
     1
100
AcDbLine
 10
15.71289856377194
 20
20.41334299248934
 30
0.0
 11
14.7761408270207
 21
20.41334299248934
 31
0.0
  0
LINE
  5
EC
330
2
100
AcDbEntity
  8
GAIKEI
 62
     1
100
AcDbLine
 10
14.7761408270207
 20
19.32688519093858
 30
0.0
 11
15.71289856377194
 21
19.32688519093858
 31
0.0
  0
LINE
  5
ED
330
2
100
AcDbEntity
  8
GAIKEI
 62
     1
100
AcDbLine
 10
14.7761408270207
 20
20.41334299248934
 30
0.0
 11
14.7761408270207
 21
19.32688519093858
 31
0.0
  0
LINE
  5
EE
330
2
100
AcDbEntity
  8
GAIKEI
 62
     1
100
AcDbLine
 10
14.56384314009023
 20
19.17079761367677
 30
0.0
 11
14.56384314009023
 21
20.56919829657056
 31
0.0
  0
LINE
  5
EF
330
2
100
AcDbEntity
  8
GAIKEI
 62
     1
100
AcDbLine
 10
15.78327733744794
 20
20.58987060963056
 30
0.0
 11
15.78327733744794
 21
19.1498930274364
 31
0.0
  0
LINE
  5
F0
330
2
100
AcDbEntity
  8
GAIKEI
 62
     1
100
AcDbLine
 10
7.653948294909866
 20
20.58987060963056
 30
0.0
 11
15.78327733744794
 21
20.58987060963056
 31
0.0
  0
LINE
  5
F1
330
2
100
AcDbEntity
  8
GAIKEI
 62
     1
100
AcDbLine
 10
7.653948294909866
 20
19.1498930274364
 30
0.0
 11
7.653948294909866
 21
20.58987060963056
 31
0.0
  0
LINE
  5
F2
330
2
100
AcDbEntity
  8
GAIKEI
 62
     1
100
AcDbLine
 10
15.78327733744794
 20
19.1498930274364
 30
0.0
 11
7.653948294909866
 21
19.1498930274364
 31
0.0
  0
LINE
  5
F3
330
2
100
AcDbEntity
  8
GAIKEI
 62
     1
100
AcDbLine
 10
15.78327733744794
 20
19.00867093372335
 30
0.0
 11
7.653948294909866
 21
19.00867093372335
 31
0.0
  0
CIRCLE
  5
F4
330
2
100
AcDbEntity
  8
GAIKEI
 62
     1
100
AcDbCircle
 10
7.955555019723135
 20
18.16900338639982
 30
0.0
 40
0.5028714356723035
  0
CIRCLE
  5
F5
330
2
100
AcDbEntity
  8
GAIKEI
 62
     1
100
AcDbCircle
 10
7.955555019723135
 20
18.16900338639982
 30
0.0
 40
0.4060135194250281
  0
LINE
  5
F6
330
2
100
AcDbEntity
  8
GAIKEI
 62
     1
100
AcDbLine
 10
7.907242198189635
 20
17.91779994174408
 30
0.0
 11
7.907242198189635
 21
18.12069056486643
 31
0.0
  0
LINE
  5
F7
330
2
100
AcDbEntity
  8
GAIKEI
 62
     1
100
AcDbLine
 10
7.907242198189635
 20
18.12069056486643
 30
0.0
 11
7.704003165296796
 21
18.12069056486643
 31
0.0
  0
LINE
  5
F8
330
2
100
AcDbEntity
  8
GAIKEI
 62
     1
100
AcDbLine
 10
7.704003165296796
 20
18.12069056486643
 30
0.0
 11
7.704003165296796
 21
18.21731620793321
 31
0.0
  0
LINE
  5
F9
330
2
100
AcDbEntity
  8
GAIKEI
 62
     1
100
AcDbLine
 10
7.704003165296796
 20
18.21731620793321
 30
0.0
 11
7.907242198189635
 21
18.21731620793321
 31
0.0
  0
LINE
  5
FA
330
2
100
AcDbEntity
  8
GAIKEI
 62
     1
100
AcDbLine
 10
7.907242198189635
 20
18.21731620793321
 30
0.0
 11
7.907242198189635
 21
18.4206713774164
 31
0.0
  0
LINE
  5
FB
330
2
100
AcDbEntity
  8
GAIKEI
 62
     1
100
AcDbLine
 10
7.907242198189635
 20
18.4206713774164
 30
0.0
 11
8.003867841256521
 21
18.4206713774164
 31
0.0
  0
LINE
  5
FC
330
2
100
AcDbEntity
  8
GAIKEI
 62
     1
100
AcDbLine
 10
8.003867841256521
 20
18.4206713774164
 30
0.0
 11
8.003867841256521
 21
18.21731620793321
 31
0.0
  0
LINE
  5
FD
330
2
100
AcDbEntity
  8
GAIKEI
 62
     1
100
AcDbLine
 10
8.003867841256521
 20
18.21731620793321
 30
0.0
 11
8.206642327788529
 21
18.21731620793321
 31
0.0
  0
LINE
  5
FE
330
2
100
AcDbEntity
  8
GAIKEI
 62
     1
100
AcDbLine
 10
8.206642327788529
 20
18.21731620793321
 30
0.0
 11
8.206642327788529
 21
18.12069056486643
 31
0.0
  0
LINE
  5
FF
330
2
100
AcDbEntity
  8
GAIKEI
 62
     1
100
AcDbLine
 10
8.206642327788529
 20
18.12069056486643
 30
0.0
 11
8.003867841256521
 21
18.12069056486643
 31
0.0
  0
LINE
  5
100
330
2
100
AcDbEntity
  8
GAIKEI
 62
     1
100
AcDbLine
 10
8.003867841256521
 20
18.12069056486643
 30
0.0
 11
8.003867841256521
 21
17.91779994174408
 31
0.0
  0
LINE
  5
101
330
2
100
AcDbEntity
  8
GAIKEI
 62
     1
100
AcDbLine
 10
8.003867841256521
 20
17.91779994174408
 30
0.0
 11
7.907242198189635
 21
17.91779994174408
 31
0.0
  0
ARC
  5
102
330
2
100
AcDbEntity
  8
GAIKEI
 62
     1
100
AcDbCircle
 10
17.92005701696956
 20
19.16825980063527
 30
0.0
 40
0.1420527129131948
100
AcDbArc
 50
270.1475642447641
 51
359.8993802667544
  0
ARC
  5
103
330
2
100
AcDbEntity
  8
GAIKEI
 62
     1
100
AcDbCircle
 10
17.92025586575988
 20
20.66588902317994
 30
0.0
 40
0.1418539280195974
100
AcDbArc
 50
0.1144374929750757
 51
89.93254551341932
  0
ARC
  5
104
330
2
100
AcDbEntity
  8
GAIKEI
 62
     1
100
AcDbCircle
 10
16.87175962457257
 20
20.66554037910657
 30
0.0
 40
0.1422027542671275
100
AcDbArc
 50
90.11379837747091
 51
179.7453681510064
  0
ARC
  5
105
330
2
100
AcDbEntity
  8
GAIKEI
 62
     1
100
AcDbCircle
 10
16.87195890510162
 20
19.16860863143597
 30
0.0
 40
0.1424018873677979
100
AcDbArc
 50
180.240726670554
 51
269.8061794090882
  0
LINE
  5
106
330
2
100
AcDbEntity
  8
GAIKEI
 62
     1
100
AcDbLine
 10
16.72955827459765
 20
20.66617234940816
 30
0.0
 11
16.72955827459765
 21
19.16801033551144
 31
0.0
  0
LINE
  5
107
330
2
100
AcDbEntity
  8
GAIKEI
 62
     1
100
AcDbLine
 10
17.9204228707602
 20
20.80774285289181
 30
0.0
 11
16.87147718785201
 21
20.80774285289181
 31
0.0
  0
LINE
  5
108
330
2
100
AcDbEntity
  8
GAIKEI
 62
     1
100
AcDbLine
 10
18.06210951083409
 20
19.16801033551144
 30
0.0
 11
18.06210951083409
 21
20.66617234940816
 31
0.0
  0
LINE
  5
109
330
2
100
AcDbEntity
  8
GAIKEI
 62
     1
100
AcDbLine
 10
16.87147718785201
 20
19.02620755884732
 30
0.0
 11
17.9204228707602
 21
19.02620755884732
 31
0.0
  0
LINE
  5
10A
330
2
100
AcDbEntity
  8
GAIKEI
 62
     1
100
AcDbLine
 10
17.44426285083949
 20
19.66577176121382
 30
0.0
 11
17.34763720777272
 21
19.66577176121382
 31
0.0
  0
LINE
  5
10B
330
2
100
AcDbEntity
  8
GAIKEI
 62
     1
100
AcDbLine
 10
17.44426285083949
 20
19.86866238433617
 30
0.0
 11
17.44426285083949
 21
19.66577176121382
 31
0.0
  0
LINE
  5
10C
330
2
100
AcDbEntity
  8
GAIKEI
 62
     1
100
AcDbLine
 10
17.6470373373715
 20
19.86866238433617
 30
0.0
 11
17.44426285083949
 21
19.86866238433617
 31
0.0
  0
LINE
  5
10D
330
2
100
AcDbEntity
  8
GAIKEI
 62
     1
100
AcDbLine
 10
17.6470373373715
 20
19.96528802740295
 30
0.0
 11
17.6470373373715
 21
19.86866238433617
 31
0.0
  0
LINE
  5
10E
330
2
100
AcDbEntity
  8
GAIKEI
 62
     1
100
AcDbLine
 10
17.44426285083949
 20
19.96528802740295
 30
0.0
 11
17.6470373373715
 21
19.96528802740295
 31
0.0
  0
LINE
  5
10F
330
2
100
AcDbEntity
  8
GAIKEI
 62
     1
100
AcDbLine
 10
17.44426285083949
 20
20.16864319688614
 30
0.0
 11
17.44426285083949
 21
19.96528802740295
 31
0.0
  0
LINE
  5
110
330
2
100
AcDbEntity
  8
GAIKEI
 62
     1
100
AcDbLine
 10
17.34763720777272
 20
20.16864319688614
 30
0.0
 11
17.44426285083949
 21
20.16864319688614
 31
0.0
  0
LINE
  5
111
330
2
100
AcDbEntity
  8
GAIKEI
 62
     1
100
AcDbLine
 10
17.34763720777272
 20
19.96528802740295
 30
0.0
 11
17.34763720777272
 21
20.16864319688614
 31
0.0
  0
LINE
  5
112
330
2
100
AcDbEntity
  8
GAIKEI
 62
     1
100
AcDbLine
 10
17.14439817487977
 20
19.96528802740295
 30
0.0
 11
17.34763720777272
 21
19.96528802740295
 31
0.0
  0
LINE
  5
113
330
2
100
AcDbEntity
  8
GAIKEI
 62
     1
100
AcDbLine
 10
17.14439817487977
 20
19.86866238433617
 30
0.0
 11
17.14439817487977
 21
19.96528802740295
 31
0.0
  0
LINE
  5
114
330
2
100
AcDbEntity
  8
GAIKEI
 62
     1
100
AcDbLine
 10
17.34763720777272
 20
19.86866238433617
 30
0.0
 11
17.14439817487977
 21
19.86866238433617
 31
0.0
  0
LINE
  5
115
330
2
100
AcDbEntity
  8
GAIKEI
 62
     1
100
AcDbLine
 10
17.34763720777272
 20
19.66577176121382
 30
0.0
 11
17.34763720777272
 21
19.86866238433617
 31
0.0
  0
CIRCLE
  5
116
330
2
100
AcDbEntity
  8
GAIKEI
 62
     1
100
AcDbCircle
 10
17.39595002930611
 20
19.91697520586956
 30
0.0
 40
0.4060135194250281
  0
CIRCLE
  5
117
330
2
100
AcDbEntity
  8
GAIKEI
 62
     1
100
AcDbCircle
 10
17.39595002930611
 20
19.91697520586956
 30
0.0
 40
0.5028714356723035
  0
LINE
  5
118
330
2
100
AcDbEntity
  8
GAIKEI
 62
     1
100
AcDbLine
 10
17.9204228707602
 20
19.16801033551144
 30
0.0
 11
16.87194173421295
 21
19.16801033551144
 31
0.0
  0
LINE
  5
119
330
2
100
AcDbEntity
  8
GAIKEI
 62
     1
100
AcDbLine
 10
17.91995832439926
 20
20.66640462258852
 30
0.0
 11
17.9204228707602
 21
19.16801033551144
 31
0.0
  0
LINE
  5
11A
330
2
100
AcDbEntity
  8
GAIKEI
 62
     1
100
AcDbLine
 10
16.87194173421295
 20
20.66640462258852
 30
0.0
 11
17.91995832439926
 21
20.66640462258852
 31
0.0
  0
LINE
  5
11B
330
2
100
AcDbEntity
  8
GAIKEI
 62
     1
100
AcDbLine
 10
16.87194173421295
 20
19.16801033551144
 30
0.0
 11
16.87194173421295
 21
20.66640462258852
 31
0.0
  0
LINE
  5
11C
330
2
100
AcDbEntity
  8
GAIKEI
 62
     1
100
AcDbLine
 10
16.24085550293267
 20
21.24894575915494
 30
0.0
 11
16.24085550293267
 21
17.27208050009562
 31
0.0
  0
LINE
  5
11D
330
2
100
AcDbEntity
  8
GAIKEI
 62
     1
100
AcDbLine
 10
16.36117301040536
 20
21.24894575915494
 30
0.0
 11
16.36117301040536
 21
17.27208050009562
 31
0.0
  0
LINE
  5
11E
330
2
100
AcDbEntity
  8
GAIKEI
 62
     1
100
AcDbLine
 10
23.98392164418789
 20
17.13004545025103
 30
0.0
 11
8.109203728590102
 21
17.13004545025103
 31
0.0
  0
LINE
  5
11F
330
2
100
AcDbEntity
  8
GAIKEI
 62
     1
100
AcDbLine
 10
23.98600513890699
 20
17.25928865761511
 30
0.0
 11
8.271422456937727
 21
17.25928865761511
 31
0.0
  0
LINE
  5
120
330
2
100
AcDbEntity
  8
GAIKEI
 62
     1
100
AcDbLine
 10
25.95464687376932
 20
21.25346594357814
 30
0.0
 11
7.337127676777356
 21
21.24873052964062
 31
0.0
  0
ARC
  5
121
330
2
100
AcDbEntity
  8
GAIKEI
 62
     1
100
AcDbCircle
 10
15.03172146466289
 20
21.17417966500409
 30
0.0
 40
10.92321316311618
100
AcDbArc
 50
351.6148484780839
 51
0.4158857800157275
  0
ARC
  5
122
330
2
100
AcDbEntity
  8
GAIKEI
 62
     1
100
AcDbCircle
 10
21.59760624782291
 20
20.13517657322814
 30
0.0
 40
4.276565049056116
100
AcDbArc
 50
330.0458191194802
 51
352.5306073607359
  0
ARC
  5
123
330
2
100
AcDbEntity
  8
GAIKEI
 62
     1
100
AcDbCircle
 10
24.01015794803095
 20
18.75753412439337
 30
0.0
 40
1.498440134576703
100
AcDbArc
 50
269.0764302660267
 51
329.6592865422844
  0
ARC
  5
124
330
2
100
AcDbEntity
  8
GAIKEI
 62
     1
100
AcDbCircle
 10
15.03172146466289
 20
21.17417966500409
 30
0.0
 40
11.05247316311619
100
AcDbArc
 50
351.6148484780839
 51
0.4158857800157275
  0
ARC
  5
125
330
2
100
AcDbEntity
  8
GAIKEI
 62
     1
100
AcDbCircle
 10
21.59760624782291
 20
20.13517657322814
 30
0.0
 40
4.405825049056115
100
AcDbArc
 50
330.0458191194802
 51
352.5306073607359
  0
ARC
  5
126
330
2
100
AcDbEntity
  8
GAIKEI
 62
     1
100
AcDbCircle
 10
24.01015794803095
 20
18.75753412439337
 30
0.0
 40
1.627700134576703
100
AcDbArc
 50
269.0764302660267
 51
329.6592865422844
  0
LINE
  5
127
330
2
100
AcDbEntity
  8
GAIKEI
 62
     1
100
AcDbLine
 10
36.88081321026144
 20
21.25440417889547
 30
0.0
 11
26.08390346862814
 21
21.25440417889547
 31
0.0
  0
LINE
  5
128
330
2
100
AcDbEntity
  8
GAIKEI
 62
     1
100
AcDbLine
 10
6.323255244117092
 20
21.38738057470255
 30
0.0
 11
36.88081321026144
 21
21.38738057470255
 31
0.0
  0
LINE
  5
129
330
2
100
AcDbEntity
  8
GAIKEI
 62
     1
100
AcDbLine
 10
17.20525374815742
 20
25.45390328141508
 30
0.0
 11
17.01215992424357
 21
27.2222039792494
 31
0.0
  0
LINE
  5
12A
330
2
100
AcDbEntity
  8
GAIKEI
 62
     1
100
AcDbLine
 10
17.20525374815742
 20
25.22929511592082
 30
0.0
 11
17.20525374815742
 21
25.45390328141508
 31
0.0
  0
LINE
  5
12B
330
2
100
AcDbEntity
  8
GAIKEI
 62
     1
100
AcDbLine
 10
8.153567906055911
 20
25.43392778789649
 30
0.0
 11
18.60620647171356
 21
25.43392778789655
 31
0.0
  0
LINE
  5
12C
330
2
100
AcDbEntity
  8
GAIKEI
100
AcDbLine
 10
18.60620647171356
 20
25.43392778789655
 30
0.0
 11
18.60620647171356
 21
25.22174623755632
 31
0.0
  0
LINE
  5
12D
330
2
100
AcDbEntity
  8
GAIKEI
100
AcDbLine
 10
18.12110689866819
 20
27.2222039792494
 30
0.0
 11
18.60620647171356
 21
25.43392778789655
 31
0.0
  0
LINE
  5
12E
330
2
100
AcDbEntity
  8
GAIKEI
100
AcDbLine
 10
8.774434117396424
 20
27.2222039792494
 30
0.0
 11
18.12110689866819
 21
27.2222039792494
 31
0.0
  0
LINE
  5
12F
330
2
100
AcDbEntity
  8
GAIKEI
100
AcDbLine
 10
8.153567906055911
 20
25.43392778789649
 30
0.0
 11
8.774434117396424
 21
27.2222039792494
 31
0.0
  0
LINE
  5
130
330
2
100
AcDbEntity
  8
GAIKEI
100
AcDbLine
 10
8.141257427492121
 20
25.22987579887189
 30
0.0
 11
8.153567906055911
 21
25.43392778789649
 31
0.0
  0
LINE
  5
131
330
2
100
AcDbEntity
  8
GAIKEI
 62
     1
100
AcDbLine
 10
38.07732911255462
 20
16.55029159185005
 30
0.0
 11
36.13684221328308
 21
16.55029159185005
 31
0.0
  0
LINE
  5
132
330
2
100
AcDbEntity
  8
GAIKEI
 62
     1
100
AcDbLine
 10
38.07732911255462
 20
19.0248139197646
 30
0.0
 11
36.66085050837623
 21
19.02481391976448
 31
0.0
  0
LINE
  5
133
330
2
100
AcDbEntity
  8
GAIKEI
 62
     1
100
AcDbLine
 10
38.07732911255462
 20
19.0248139197646
 30
0.0
 11
38.07732911255462
 21
16.55029159185005
 31
0.0
  0
ARC
  5
134
330
2
100
AcDbEntity
  8
GAIKEI
100
AcDbCircle
 10
36.40331360573978
 20
24.93665114085712
 30
0.0
 40
0.2862244485284666
100
AcDbArc
 50
4.32417559452391
 51
84.90854629760544
  0
ARC
  5
135
330
2
100
AcDbEntity
  8
GAIKEI
100
AcDbCircle
 10
24.60425278360222
 20
21.34452050346658
 30
0.0
 40
12.27663524322199
100
AcDbArc
 50
356.7047691200684
 51
0.2000308823492048
  0
ARC
  5
136
330
2
100
AcDbEntity
  8
GAIKEI
100
AcDbCircle
 10
-189.8130660576636
 20
10.98323289441208
 30
0.0
 40
226.9325035919136
100
AcDbArc
 50
2.62775394474089
 51
3.530633271830221
  0
ARC
  5
137
330
2
100
AcDbEntity
  8
GAIKEI
100
AcDbCircle
 10
35.03797594345824
 20
14.64506920924395
 30
0.0
 40
0.4284782359114311
100
AcDbArc
 50
278.9026349583257
 51
333.7813140267298
  0
ARC
  5
138
330
2
100
AcDbEntity
  8
GAIKEI
100
AcDbCircle
 10
16.88933008239402
 20
22.02546902450376
 30
0.0
 40
20.01933905069974
100
AcDbArc
 50
337.7827563473634
 51
356.0282810464561
  0
LINE
  5
139
330
2
100
AcDbEntity
  8
GAIKEI
100
AcDbLine
 10
6.777581585075438
 20
25.22174623755626
 30
0.0
 11
36.4287148020413
 21
25.22174623755626
 31
0.0
  0
LINE
  5
13A
330
2
100
AcDbEntity
  8
GAIKEI
100
AcDbLine
 10
6.86282584230031
 20
14.2217529578478
 30
0.0
 11
35.10428544469059
 21
14.2217529578478
 31
0.0
  0
LINE
  5
13B
330
2
100
AcDbEntity
  8
WAKU
 62
     1
100
AcDbLine
 10
-62.27515631814743
 20
-26.95521863669603
 30
0.0
 11
62.72484368185246
 21
-26.95521863669603
 31
0.0
  0
TEXT
  5
13D
330
2
100
AcDbEntity
  8
MOJI1
100
AcDbText
 10
-19.77515631814742
 20
-30.95521863669603
 30
0.0
 40
3.0
  1
ＤＣ１２Ｖ：約４００ｍＡ、ＰｏＥ：約４．２Ｗ（クラス２機器)
 41
0.7700000000000001
100
AcDbText
  0
TEXT
  5
13E
330
2
100
AcDbEntity
  8
MOJI1
100
AcDbText
 10
-19.77515631814742
 20
-20.95521863669603
 30
0.0
 40
3.0
  1
ＤＣ１２Ｖ、ＰｏＥ（ＩＥＥＥ８０２．３ａｆ準拠)
 41
0.95
100
AcDbText
  0
LINE
  5
13F
330
2
100
AcDbEntity
  8
WAKU
 62
     1
100
AcDbLine
 10
-62.27515631814743
 20
-51.95521863669603
 30
0.0
 11
62.72484368185246
 21
-51.95521863669603
 31
0.0
  0
TEXT
  5
140
330
2
100
AcDbEntity
  8
MOJI1
100
AcDbText
 10
-19.77515631814742
 20
-55.95521863669603
 30
0.0
 40
3.0
  1
１０ＢＡＳＥ－Ｔ／１００ＢＡＳＥ－ＴＸ、ＲＪ４５コネクター
 41
0.75
100
AcDbText
  0
TEXT
  5
141
330
2
100
AcDbEntity
  8
MOJI1
100
AcDbText
 10
-59.77515631814743
 20
-55.95521863669603
 30
0.0
 40
3.0
  1
ネットワーク
100
AcDbText
  0
TEXT
  5
142
330
2
100
AcDbEntity
  8
MOJI1
100
AcDbText
 10
-59.77515631814743
 20
-50.95521863669603
 30
0.0
 40
3.0
  1
画像解像度
100
AcDbText
  0
TEXT
  5
143
330
2
100
AcDbEntity
  8
MOJI1
100
AcDbText
 10
-19.77515631814742
 20
-50.95521863669603
 30
0.0
 40
3.0
  1
ＶＧＡ（６４０×４８０)／ＱＶＧＡ（３２０×２４０）
 41
0.9
100
AcDbText
  0
TEXT
  5
144
330
2
100
AcDbEntity
  8
MOJI1
100
AcDbText
 10
-19.77515631814742
 20
-40.95521863669603
 30
0.0
 40
3.0
  1
１．５ｌｘ（Ｆ１．４)
 41
0.85
100
AcDbText
  0
TEXT
  5
145
330
2
100
AcDbEntity
  8
MOJI1
100
AcDbText
 10
-59.77515631814743
 20
-40.95521863669603
 30
0.0
 40
3.0
  1
最低照度
100
AcDbText
  0
TEXT
  5
146
330
2
100
AcDbEntity
  8
MOJI1
100
AcDbText
 10
-59.77515631814743
 20
-45.95521863669603
 30
0.0
 40
3.0
  1
画像圧縮方式
100
AcDbText
  0
TEXT
  5
147
330
2
100
AcDbEntity
  8
MOJI1
100
AcDbText
 10
-19.77515631814742
 20
-45.95521863669603
 30
0.0
 40
3.0
  1
ＭＰＥＧ－４／ＪＰＥＧ　
 41
0.9
100
AcDbText
  0
TEXT
  5
148
330
2
100
AcDbEntity
  8
MOJI1
100
AcDbText
 10
-19.77515631814742
 20
-35.95521863669603
 30
0.0
 40
3.0
  1
１／３型　インターライン転送方式ＣＣＤ
100
AcDbText
  0
TEXT
  5
149
330
2
100
AcDbEntity
  8
MOJI1
100
AcDbText
 10
-59.77515631814743
 20
-35.95521863669603
 30
0.0
 40
3.0
  1
撮像素子
100
AcDbText
  0
TEXT
  5
14A
330
2
100
AcDbEntity
  8
MOJI1
100
AcDbText
 10
-59.77515631814743
 20
-25.95521863669603
 30
0.0
 40
3.0
  1
消費電力
100
AcDbText
  0
TEXT
  5
14B
330
2
100
AcDbEntity
  8
MOJI1
100
AcDbText
 10
-19.77515631814742
 20
-25.95521863669603
 30
0.0
 40
3.0
  1
ＡＣ２４Ｖ　５０Ｈｚ／６０Ｈｚ：約４．８Ｗ、
 41
0.9
100
AcDbText
  0
LINE
  5
14C
330
2
100
AcDbEntity
  8
WAKU
 62
     1
100
AcDbLine
 10
-62.27515631814743
 20
-21.95521863669603
 30
0.0
 11
62.72484368185246
 21
-21.95521863669603
 31
0.0
  0
LINE
  5
14D
330
2
100
AcDbEntity
  8
WAKU
 62
     1
100
AcDbLine
 10
-62.27515631814743
 20
-16.95521863669603
 30
0.0
 11
62.72484368185246
 21
-16.95521863669603
 31
0.0
  0
LINE
  5
14E
330
2
100
AcDbEntity
  8
WAKU
 62
     4
100
AcDbLine
 10
-62.27515631814743
 20
-11.95521863669603
 30
0.0
 11
62.72484368185246
 21
-11.95521863669603
 31
0.0
  0
LINE
  5
14F
330
2
100
AcDbEntity
  8
WAKU
 62
     4
100
AcDbLine
 10
62.72484368185246
 20
-56.95521863669603
 30
0.0
 11
-62.27515631814743
 21
-56.95521863669603
 31
0.0
  0
LINE
  5
150
330
2
100
AcDbEntity
  8
WAKU
 62
     1
100
AcDbLine
 10
-62.27515631814743
 20
-46.95521863669603
 30
0.0
 11
62.72484368185246
 21
-46.95521863669603
 31
0.0
  0
LINE
  5
151
330
2
100
AcDbEntity
  8
WAKU
 62
     1
100
AcDbLine
 10
-62.27515631814743
 20
-41.95521863669603
 30
0.0
 11
62.72484368185246
 21
-41.95521863669603
 31
0.0
  0
LINE
  5
152
330
2
100
AcDbEntity
  8
WAKU
 62
     1
100
AcDbLine
 10
-62.27515631814743
 20
-36.95521863669603
 30
0.0
 11
62.72484368185246
 21
-36.95521863669603
 31
0.0
  0
LINE
  5
153
330
2
100
AcDbEntity
  8
WAKU
 62
     1
100
AcDbLine
 10
-62.27515631814743
 20
-31.95521863669603
 30
0.0
 11
62.72484368185246
 21
-31.95521863669603
 31
0.0
  0
LINE
  5
154
330
2
100
AcDbEntity
  8
WAKU
 62
     4
100
AcDbLine
 10
-62.27515631814743
 20
-11.95521863669603
 30
0.0
 11
-62.27515631814743
 21
-56.95521863669603
 31
0.0
  0
TEXT
  5
155
330
2
100
AcDbEntity
  8
MOJI1
100
AcDbText
 10
-19.77515631814742
 20
-15.95521863669603
 30
0.0
 40
3.0
  1
ＡＣ２４Ｖ　５０Ｈｚ／６０Ｈｚ
 41
0.95
100
AcDbText
  0
TEXT
  5
156
330
2
100
AcDbEntity
  8
MOJI1
100
AcDbText
 10
-59.77515631814743
 20
-15.95521863669603
 30
0.0
 40
3.0
  1
電　源
100
AcDbText
  0
LINE
  5
157
330
2
100
AcDbEntity
  8
WAKU
 62
     4
100
AcDbLine
 10
-22.27515631814743
 20
-11.95521863669603
 30
0.0
 11
-22.27515631814743
 21
-56.95521863669603
 31
0.0
  0
LINE
  5
158
330
2
100
AcDbEntity
  8
WAKU
 62
     4
100
AcDbLine
 10
62.72484368185246
 20
-11.95521863669603
 30
0.0
 11
62.72484368185246
 21
-56.95521863669603
 31
0.0
  0
ENDSEC
  0
SECTION
  2
OBJECTS
  0
DICTIONARY
  5
9
330
0
100
AcDbDictionary
281
     1
  3
ACAD_COLOR
350
31
  3
ACAD_GROUP
350
2D
  3
ACAD_LAYOUT
350
D
  3
ACAD_MATERIAL
350
30
  3
ACAD_MLINESTYLE
350
2E
  3
ACAD_PLOTSETTINGS
350
2F
  3
ACAD_PLOTSTYLENAME
350
8
  3
ACDBHEADERROUNDTRIPXREC
350
189
  3
AcDbVariableDictionary
350
184
  0
DICTIONARY
  5
15
330
14
100
AcDbDictionary
280
     1
281
     1
  3
ACAD_LAYERFILTERS
360
16
  3
ACAD_LAYERSTATES
360
17
  0
DICTIONARY
  5
3
330
2
100
AcDbDictionary
280
     1
281
     1
  3
ACAD_LAYOUTSELFREF
360
4
  0
DICTIONARY
  5
F
330
E
100
AcDbDictionary
280
     1
281
     1
  3
ACAD_LAYOUTSELFREF
360
10
  0
DICTIONARY
  5
31
102
{ACAD_REACTORS
330
9
102
}
330
9
100
AcDbDictionary
281
     1
  0
DICTIONARY
  5
2D
102
{ACAD_REACTORS
330
9
102
}
330
9
100
AcDbDictionary
281
     1
  0
DICTIONARY
  5
D
102
{ACAD_REACTORS
330
9
102
}
330
9
100
AcDbDictionary
281
     1
  3
Model
350
C
  3
ﾚｲｱｳﾄ1
350
13
  0
DICTIONARY
  5
30
102
{ACAD_REACTORS
330
9
102
}
330
9
100
AcDbDictionary
281
     1
  0
DICTIONARY
  5
2E
102
{ACAD_REACTORS
330
9
102
}
330
9
100
AcDbDictionary
281
     1
  3
STANDARD
350
32
  0
DICTIONARY
  5
2F
102
{ACAD_REACTORS
330
9
102
}
330
9
100
AcDbDictionary
281
     1
  0
ACDBDICTIONARYWDFLT
  5
8
102
{ACAD_REACTORS
330
9
102
}
330
9
100
AcDbDictionary
281
     1
  3
Normal
350
7
100
AcDbDictionaryWithDefault
340
7
  0
DICTIONARY
  5
189
102
{ACAD_REACTORS
330
9
102
}
330
9
100
AcDbDictionary
281
     1
  3
COLORDICT
350
18B
  3
MATERIALDICT
350
18A
  0
DICTIONARY
  5
184
102
{ACAD_REACTORS
330
9
102
}
330
9
100
AcDbDictionary
281
     1
  3
DIMASSOC
350
186
  3
HIDETEXT
350
185
  3
PROJECTNAME
350
187
  0
DICTIONARY
  5
16
102
{ACAD_REACTORS
330
15
102
}
330
15
100
AcDbDictionary
280
     1
281
     1
  0
DICTIONARY
  5
17
102
{ACAD_REACTORS
330
15
102
}
330
15
100
AcDbDictionary
281
     1
  0
XRECORD
  5
4
102
{ACAD_REACTORS
330
3
102
}
330
3
100
AcDbXrecord
280
     1
340
2
  0
XRECORD
  5
10
102
{ACAD_REACTORS
330
F
102
}
330
F
100
AcDbXrecord
280
     1
340
E
  0
LAYOUT
  5
C
102
{ACAD_XDICTIONARY
360
18C
102
}
102
{ACAD_REACTORS
330
D
102
}
330
D
100
AcDbPlotSettings
  1

  2
FX78BC34-A4縦.pc3
  4
A4
  6

 40
4.900083065032958
 41
4.900057315826416
 42
4.90008544921875
 43
4.90008544921875
 44
210.0156707763672
 45
297.0106506347656
 46
5.769999999999999
 47
0.0
 48
0.0
 49
0.0
140
0.0
141
0.0
142
1.0
143
1.372970650269923
 70
 11956
 72
     1
 73
     0
 74
     1
  7
tmsacad.ctb
 75
     0
147
0.728347688862396
148
0.5335901474040839
149
0.0875646249287456
100
AcDbLayout
  1
Model
 70
     1
 71
     0
 10
0.0
 20
0.0
 11
12.0
 21
9.0
 12
0.0
 22
0.0
 32
0.0
 14
0.0
 24
0.0
 34
0.0
 15
0.0
 25
0.0
 35
0.0
146
0.0
 13
0.0
 23
0.0
 33
0.0
 16
1.0
 26
0.0
 36
0.0
 17
0.0
 27
1.0
 37
0.0
 76
     0
330
2
  0
LAYOUT
  5
13
102
{ACAD_XDICTIONARY
360
18E
102
}
102
{ACAD_REACTORS
330
D
102
}
330
D
100
AcDbPlotSettings
  1

  2
C:\Program Files\ACAD2000\plotters\DWF ePlot.pc3
  4

  6

 40
0.0
 41
0.0
 42
0.0
 43
0.0
 44
0.0
 45
0.0
 46
0.0
 47
0.0
 48
0.0
 49
0.0
140
0.0
141
0.0
142
1.0
143
1.0
 70
   688
 72
     0
 73
     0
 74
     5
  7
tmsacad.ctb
 75
    16
147
1.0
148
0.0
149
0.0
100
AcDbLayout
  1
ﾚｲｱｳﾄ1
 70
     1
 71
     1
 10
0.0
 20
0.0
 11
12.0
 21
9.0
 12
0.0
 22
0.0
 32
0.0
 14
1.000000000000000E+20
 24
1.000000000000000E+20
 34
1.000000000000000E+20
 15
-1.000000000000000E+20
 25
-1.000000000000000E+20
 35
-1.000000000000000E+20
146
0.0
 13
0.0
 23
0.0
 33
0.0
 16
1.0
 26
0.0
 36
0.0
 17
0.0
 27
1.0
 37
0.0
 76
     0
330
E
  0
MLINESTYLE
  5
32
102
{ACAD_REACTORS
330
2E
102
}
330
2E
100
AcDbMlineStyle
  2
STANDARD
 70
     0
  3

 62
   256
 51
90.0
 52
90.0
 71
     2
 49
0.5
 62
   256
  6
BYLAYER
 49
-0.5
 62
   256
  6
BYLAYER
  0
ACDBPLACEHOLDER
  5
7
102
{ACAD_REACTORS
330
8
102
}
330
8
  0
XRECORD
  5
18B
102
{ACAD_REACTORS
330
189
102
}
330
189
100
AcDbXrecord
280
     1
340
31
  0
XRECORD
  5
18A
102
{ACAD_REACTORS
330
189
102
}
330
189
100
AcDbXrecord
280
     1
340
30
  0
DICTIONARYVAR
  5
186
102
{ACAD_REACTORS
330
184
102
}
330
184
100
DictionaryVariables
280
     0
  1
1
  0
DICTIONARYVAR
  5
185
102
{ACAD_REACTORS
330
184
102
}
330
184
100
DictionaryVariables
280
     0
  1
1
  0
DICTIONARYVAR
  5
187
102
{ACAD_REACTORS
330
184
102
}
330
184
100
DictionaryVariables
280
     0
  1

  0
DICTIONARY
  5
18C
330
C
100
AcDbDictionary
280
     1
281
     1
  3
ACAD_XREC_ROUNDTRIP
360
18D
  0
DICTIONARY
  5
18E
330
13
100
AcDbDictionary
280
     1
281
     1
  3
ACAD_XREC_ROUNDTRIP
360
18F
  0
XRECORD
  5
18D
102
{ACAD_REACTORS
330
18C
102
}
330
18C
100
AcDbXrecord
280
     1
102
SHADEPLOT
 70
     0
102
SHADEPLOTRESLEVEL
 70
     2
102
SHADEPLOTCUSTOMDPI
 70
   300
  0
XRECORD
  5
18F
102
{ACAD_REACTORS
330
18E
102
}
330
18E
100
AcDbXrecord
280
     1
102
SHADEPLOT
 70
     0
102
SHADEPLOTRESLEVEL
 70
     2
102
SHADEPLOTCUSTOMDPI
 70
   300
  0
ENDSEC
  0
EOF
