  0
SECTION
  2
HEADER
  9
$ACADVER
  1
AC1015
  9
$ACADMAINTVER
 70
    20
  9
$DWGCODEPAGE
  3
ANSI_932
  9
$INSBASE
 10
0.4999999440410648
 20
120.5008351249346
 30
0.0
  9
$EXTMIN
 10
-61.8566885472469
 20
-34.97236568221399
 30
-0.0015258207003583
  9
$EXTMAX
 10
63.1768804453045
 20
77.78031965016885
 30
0.0000000349246037
  9
$LIMMIN
 10
0.0
 20
0.0
  9
$LIMMAX
 10
420.0
 20
297.0
  9
$ORTHOMODE
 70
     1
  9
$REGENMODE
 70
     0
  9
$FILLMODE
 70
     1
  9
$QTEXTMODE
 70
     0
  9
$MIRRTEXT
 70
     0
  9
$LTSCALE
 40
1.0
  9
$ATTMODE
 70
     1
  9
$TEXTSIZE
 40
2.5
  9
$TRACEWID
 40
1.0
  9
$TEXTSTYLE
  7
Standard
  9
$CLAYER
  8
0
  9
$CELTYPE
  6
ByLayer
  9
$CECOLOR
 62
   256
  9
$CELTSCALE
 40
1.0
  9
$DISPSILH
 70
     0
  9
$DIMSCALE
 40
1.0
  9
$DIMASZ
 40
2.0
  9
$DIMEXO
 40
2.0
  9
$DIMDLI
 40
8.0
  9
$DIMRND
 40
0.0
  9
$DIMDLE
 40
0.0
  9
$DIMEXE
 40
2.0
  9
$DIMTP
 40
0.0
  9
$DIMTM
 40
0.0
  9
$DIMTXT
 40
2.5
  9
$DIMCEN
 40
0.0
  9
$DIMTSZ
 40
0.0
  9
$DIMTOL
 70
     0
  9
$DIMLIM
 70
     0
  9
$DIMTIH
 70
     0
  9
$DIMTOH
 70
     0
  9
$DIMSE1
 70
     0
  9
$DIMSE2
 70
     0
  9
$DIMTAD
 70
     3
  9
$DIMZIN
 70
     0
  9
$DIMBLK
  1

  9
$DIMASO
 70
     1
  9
$DIMSHO
 70
     1
  9
$DIMPOST
  1

  9
$DIMAPOST
  1

  9
$DIMALT
 70
     0
  9
$DIMALTD
 70
     2
  9
$DIMALTF
 40
25.4
  9
$DIMLFAC
 40
1.0
  9
$DIMTOFL
 70
     1
  9
$DIMTVP
 40
0.0
  9
$DIMTIX
 70
     0
  9
$DIMSOXD
 70
     0
  9
$DIMSAH
 70
     1
  9
$DIMBLK1
  1
OPEN30
  9
$DIMBLK2
  1
OPEN30
  9
$DIMSTYLE
  2
STANDARD
  9
$DIMCLRD
 70
     0
  9
$DIMCLRE
 70
     0
  9
$DIMCLRT
 70
     0
  9
$DIMTFAC
 40
1.0
  9
$DIMGAP
 40
0.5
  9
$DIMJUST
 70
     0
  9
$DIMSD1
 70
     0
  9
$DIMSD2
 70
     0
  9
$DIMTOLJ
 70
     1
  9
$DIMTZIN
 70
     0
  9
$DIMALTZ
 70
     0
  9
$DIMALTTZ
 70
     0
  9
$DIMUPT
 70
     0
  9
$DIMDEC
 70
     4
  9
$DIMTDEC
 70
     4
  9
$DIMALTU
 70
     2
  9
$DIMALTTD
 70
     2
  9
$DIMTXSTY
  7
Standard
  9
$DIMAUNIT
 70
     0
  9
$DIMADEC
 70
     0
  9
$DIMALTRND
 40
0.0
  9
$DIMAZIN
 70
     0
  9
$DIMDSEP
 70
    46
  9
$DIMATFIT
 70
     3
  9
$DIMFRAC
 70
     0
  9
$DIMLDRBLK
  1
OPEN30
  9
$DIMLUNIT
 70
     2
  9
$DIMLWD
 70
    -2
  9
$DIMLWE
 70
    -2
  9
$DIMTMOVE
 70
     0
  9
$LUNITS
 70
     2
  9
$LUPREC
 70
     4
  9
$SKETCHINC
 40
1.0
  9
$FILLETRAD
 40
0.0
  9
$AUNITS
 70
     0
  9
$AUPREC
 70
     0
  9
$MENU
  1
.
  9
$ELEVATION
 40
0.0
  9
$PELEVATION
 40
0.0
  9
$THICKNESS
 40
0.0
  9
$LIMCHECK
 70
     0
  9
$CHAMFERA
 40
0.0
  9
$CHAMFERB
 40
0.0
  9
$CHAMFERC
 40
0.0
  9
$CHAMFERD
 40
0.0
  9
$SKPOLY
 70
     0
  9
$TDCREATE
 40
2454349.434269746
  9
$TDUCREATE
 40
2454349.059269746
  9
$TDUPDATE
 40
2454657.408103900
  9
$TDUUPDATE
 40
2454657.033103901
  9
$TDINDWG
 40
0.2273070833
  9
$TDUSRTIMER
 40
0.2273070833
  9
$USRTIMER
 70
     1
  9
$ANGBASE
 50
0.0
  9
$ANGDIR
 70
     0
  9
$PDMODE
 70
     0
  9
$PDSIZE
 40
0.0
  9
$PLINEWID
 40
0.0
  9
$SPLFRAME
 70
     0
  9
$SPLINETYPE
 70
     6
  9
$SPLINESEGS
 70
     8
  9
$HANDSEED
  5
1C8
  9
$SURFTAB1
 70
     6
  9
$SURFTAB2
 70
     6
  9
$SURFTYPE
 70
     6
  9
$SURFU
 70
     6
  9
$SURFV
 70
     6
  9
$UCSBASE
  2

  9
$UCSNAME
  2

  9
$UCSORG
 10
0.0
 20
0.0
 30
0.0
  9
$UCSXDIR
 10
1.0
 20
0.0
 30
0.0
  9
$UCSYDIR
 10
0.0
 20
1.0
 30
0.0
  9
$UCSORTHOREF
  2

  9
$UCSORTHOVIEW
 70
     0
  9
$UCSORGTOP
 10
0.0
 20
0.0
 30
0.0
  9
$UCSORGBOTTOM
 10
0.0
 20
0.0
 30
0.0
  9
$UCSORGLEFT
 10
0.0
 20
0.0
 30
0.0
  9
$UCSORGRIGHT
 10
0.0
 20
0.0
 30
0.0
  9
$UCSORGFRONT
 10
0.0
 20
0.0
 30
0.0
  9
$UCSORGBACK
 10
0.0
 20
0.0
 30
0.0
  9
$PUCSBASE
  2

  9
$PUCSNAME
  2

  9
$PUCSORG
 10
0.0
 20
0.0
 30
0.0
  9
$PUCSXDIR
 10
1.0
 20
0.0
 30
0.0
  9
$PUCSYDIR
 10
0.0
 20
1.0
 30
0.0
  9
$PUCSORTHOREF
  2

  9
$PUCSORTHOVIEW
 70
     0
  9
$PUCSORGTOP
 10
0.0
 20
0.0
 30
0.0
  9
$PUCSORGBOTTOM
 10
0.0
 20
0.0
 30
0.0
  9
$PUCSORGLEFT
 10
0.0
 20
0.0
 30
0.0
  9
$PUCSORGRIGHT
 10
0.0
 20
0.0
 30
0.0
  9
$PUCSORGFRONT
 10
0.0
 20
0.0
 30
0.0
  9
$PUCSORGBACK
 10
0.0
 20
0.0
 30
0.0
  9
$USERI1
 70
     0
  9
$USERI2
 70
     0
  9
$USERI3
 70
     0
  9
$USERI4
 70
     0
  9
$USERI5
 70
     0
  9
$USERR1
 40
0.0
  9
$USERR2
 40
0.0
  9
$USERR3
 40
0.0
  9
$USERR4
 40
0.0
  9
$USERR5
 40
0.0
  9
$WORLDVIEW
 70
     1
  9
$SHADEDGE
 70
     3
  9
$SHADEDIF
 70
    70
  9
$TILEMODE
 70
     1
  9
$MAXACTVP
 70
    64
  9
$PINSBASE
 10
0.0
 20
0.0
 30
0.0
  9
$PLIMCHECK
 70
     0
  9
$PEXTMIN
 10
0.0
 20
0.0
 30
0.0
  9
$PEXTMAX
 10
0.0
 20
0.0
 30
0.0
  9
$PLIMMIN
 10
0.0
 20
0.0
  9
$PLIMMAX
 10
12.0
 20
9.0
  9
$UNITMODE
 70
     0
  9
$VISRETAIN
 70
     1
  9
$PLINEGEN
 70
     0
  9
$PSLTSCALE
 70
     1
  9
$TREEDEPTH
 70
  3020
  9
$CMLSTYLE
  2
Standard
  9
$CMLJUST
 70
     0
  9
$CMLSCALE
 40
20.0
  9
$PROXYGRAPHICS
 70
     1
  9
$MEASUREMENT
 70
     1
  9
$CELWEIGHT
370
    -1
  9
$ENDCAPS
280
     0
  9
$JOINSTYLE
280
     0
  9
$LWDISPLAY
290
     0
  9
$INSUNITS
 70
     4
  9
$HYPERLINKBASE
  1

  9
$STYLESHEET
  1

  9
$XEDIT
290
     1
  9
$CEPSNTYPE
380
     0
  9
$PSTYLEMODE
290
     1
  9
$FINGERPRINTGUID
  2
{FDEAD578-A652-11D2-9A35-0060089B3A3F}
  9
$VERSIONGUID
  2
{71E6A459-646E-4472-B64E-00FF2202F0AC}
  9
$EXTNAMES
290
     1
  9
$PSVPSCALE
 40
0.0
  9
$OLESTARTUP
290
     0
  0
ENDSEC
  0
SECTION
  2
CLASSES
  0
CLASS
  1
ACDBDICTIONARYWDFLT
  2
AcDbDictionaryWithDefault
  3
ObjectDBX Classes
 90
        0
280
     0
281
     0
  0
CLASS
  1
ACDBPLACEHOLDER
  2
AcDbPlaceHolder
  3
ObjectDBX Classes
 90
        0
280
     0
281
     0
  0
CLASS
  1
LAYOUT
  2
AcDbLayout
  3
ObjectDBX Classes
 90
        0
280
     0
281
     0
  0
CLASS
  1
DICTIONARYVAR
  2
AcDbDictionaryVar
  3
ObjectDBX Classes
 90
        0
280
     0
281
     0
  0
ENDSEC
  0
SECTION
  2
TABLES
  0
TABLE
  2
VPORT
  5
1B
330
0
100
AcDbSymbolTable
 70
     3
  0
VPORT
  5
1C0
330
1B
100
AcDbSymbolTableRecord
100
AcDbViewportTableRecord
  2
*Active
 70
     0
 10
0.0
 20
0.0
 11
1.0
 21
1.0
 12
0.6600959490288006
 22
21.40397698397742
 13
0.0
 23
0.0
 14
10.0
 24
10.0
 15
10.0
 25
10.0
 16
0.0
 26
0.0
 36
1.0
 17
0.0
 27
0.0
 37
0.0
 40
113.690987845551
 41
1.491666666666666
 42
50.0
 43
0.0
 44
0.0
 50
0.0
 51
0.0
 71
     0
 72
  1000
 73
     1
 74
     2
 75
     0
 76
     0
 77
     0
 78
     0
281
     0
 65
     1
110
0.0
120
0.0
130
0.0
111
1.0
121
0.0
131
0.0
112
0.0
122
1.0
132
0.0
 79
     0
146
0.0
  0
ENDTAB
  0
TABLE
  2
LTYPE
  5
16
330
0
100
AcDbSymbolTable
 70
     1
  0
LTYPE
  5
17
330
16
100
AcDbSymbolTableRecord
100
AcDbLinetypeTableRecord
  2
ByBlock
 70
     0
  3

 72
    65
 73
     0
 40
0.0
  0
LTYPE
  5
18
330
16
100
AcDbSymbolTableRecord
100
AcDbLinetypeTableRecord
  2
ByLayer
 70
     0
  3

 72
    65
 73
     0
 40
0.0
  0
LTYPE
  5
8
330
16
100
AcDbSymbolTableRecord
100
AcDbLinetypeTableRecord
  2
Continuous
 70
     0
  3
Solid line
 72
    65
 73
     0
 40
0.0
  0
ENDTAB
  0
TABLE
  2
LAYER
  5
10
102
{ACAD_XDICTIONARY
360
11
102
}
330
0
100
AcDbSymbolTable
 70
     7
  0
LAYER
  5
4
330
10
100
AcDbSymbolTableRecord
100
AcDbLayerTableRecord
  2
0
 70
     0
 62
     7
  6
Continuous
370
    -3
390
5
  0
LAYER
  5
150
330
10
100
AcDbSymbolTableRecord
100
AcDbLayerTableRecord
  2
WAKU
 70
     0
 62
     4
  6
Continuous
370
    -3
390
5
  0
LAYER
  5
14C
330
10
100
AcDbSymbolTableRecord
100
AcDbLayerTableRecord
  2
MOJI1
 70
     0
 62
     2
  6
Continuous
370
    -3
390
5
  0
LAYER
  5
14A
330
10
100
AcDbSymbolTableRecord
100
AcDbLayerTableRecord
  2
TOUROKU
 70
     0
 62
     1
  6
Continuous
370
    -3
390
5
  0
LAYER
  5
39
330
10
100
AcDbSymbolTableRecord
100
AcDbLayerTableRecord
  2
DEFPOINTS
 70
     0
 62
     7
  6
Continuous
290
     0
370
    -3
390
5
  0
LAYER
  5
3E
330
10
100
AcDbSymbolTableRecord
100
AcDbLayerTableRecord
  2
GAIKEI
 70
     0
 62
     7
  6
Continuous
370
    -3
390
5
  0
LAYER
  5
2F
330
10
100
AcDbSymbolTableRecord
100
AcDbLayerTableRecord
  2
SUNPO
 70
     0
 62
     3
  6
Continuous
370
    -3
390
5
  0
ENDTAB
  0
TABLE
  2
STYLE
  5
13
330
0
100
AcDbSymbolTable
 70
     2
  0
STYLE
  5
14
330
13
100
AcDbSymbolTableRecord
100
AcDbTextStyleTableRecord
  2
Standard
 70
     0
 40
0.0
 41
1.0
 50
0.0
 71
     0
 42
2.5
  3
MONOTXT.shx
  4
BIGFONT.shx
  0
STYLE
  5
14E
330
13
100
AcDbSymbolTableRecord
100
AcDbTextStyleTableRecord
  2
KANJI
 70
     0
 40
0.0
 41
1.0
 50
0.0
 71
     0
 42
3.5
  3
MONOTXT
  4
BIGFONT
  0
ENDTAB
  0
TABLE
  2
VIEW
  5
19
330
0
100
AcDbSymbolTable
 70
     0
  0
ENDTAB
  0
TABLE
  2
UCS
  5
1A
330
0
100
AcDbSymbolTable
 70
     0
  0
ENDTAB
  0
TABLE
  2
APPID
  5
1D
330
0
100
AcDbSymbolTable
 70
     1
  0
APPID
  5
1E
330
1D
100
AcDbSymbolTableRecord
100
AcDbRegAppTableRecord
  2
ACAD
 70
     0
  0
ENDTAB
  0
TABLE
  2
DIMSTYLE
  5
1F
330
0
100
AcDbSymbolTable
 70
     1
100
AcDbDimStyleTable
 71
     1
340
20
  0
DIMSTYLE
105
20
102
{ACAD_REACTORS
330
E2
330
D5
330
C8
330
2E
102
}
330
1F
100
AcDbSymbolTableRecord
100
AcDbDimStyleTableRecord
  2
STANDARD
 70
     0
 40
0.0
 41
2.0
 42
2.0
 43
8.0
 44
2.0
 73
     0
 74
     0
 77
     3
140
3.0
141
0.0
173
     1
279
     2
288
     1
340
14
341
21
343
21
344
21
  0
ENDTAB
  0
TABLE
  2
BLOCK_RECORD
  5
1
330
0
100
AcDbSymbolTable
 70
     9
  0
BLOCK_RECORD
  5
2
330
1
100
AcDbSymbolTableRecord
100
AcDbBlockTableRecord
  2
*Model_Space
340
A
  0
BLOCK_RECORD
  5
C
330
1
100
AcDbSymbolTableRecord
100
AcDbBlockTableRecord
  2
*Paper_Space
340
F
  0
BLOCK_RECORD
  5
21
330
1
100
AcDbSymbolTableRecord
100
AcDbBlockTableRecord
  2
_OPEN30
340
0
102
{BLKREFS
331
35
331
36
331
CE
331
CF
331
DB
331
DC
331
E8
331
E9
331
190
331
191
331
19C
331
19D
331
1A8
331
1A9
331
1B4
331
1B5
102
}
  0
BLOCK_RECORD
  5
E3
330
1
100
AcDbSymbolTableRecord
100
AcDbBlockTableRecord
  2
*D1
340
0
  0
BLOCK_RECORD
  5
D6
330
1
100
AcDbSymbolTableRecord
100
AcDbBlockTableRecord
  2
*D2
340
0
  0
BLOCK_RECORD
  5
C9
330
1
100
AcDbSymbolTableRecord
100
AcDbBlockTableRecord
  2
*D3
340
0
  0
BLOCK_RECORD
  5
30
330
1
100
AcDbSymbolTableRecord
100
AcDbBlockTableRecord
  2
*D4
340
0
  0
BLOCK_RECORD
  5
18C
330
1
100
AcDbSymbolTableRecord
100
AcDbBlockTableRecord
  2
*D5
340
0
  0
BLOCK_RECORD
  5
198
330
1
100
AcDbSymbolTableRecord
100
AcDbBlockTableRecord
  2
*D6
340
0
  0
BLOCK_RECORD
  5
1A4
330
1
100
AcDbSymbolTableRecord
100
AcDbBlockTableRecord
  2
*D7
340
0
  0
BLOCK_RECORD
  5
1B0
330
1
100
AcDbSymbolTableRecord
100
AcDbBlockTableRecord
  2
*D8
340
0
  0
ENDTAB
  0
ENDSEC
  0
SECTION
  2
BLOCKS
  0
BLOCK
  5
3
330
2
100
AcDbEntity
  8
0
100
AcDbBlockBegin
  2
*Model_Space
 70
     0
 10
0.0
 20
0.0
 30
0.0
  3
*Model_Space
  1

  0
ENDBLK
  5
9
330
2
100
AcDbEntity
  8
0
100
AcDbBlockEnd
  0
BLOCK
  5
D
330
C
100
AcDbEntity
 67
     1
  8
0
100
AcDbBlockBegin
  2
*Paper_Space
 70
     0
 10
0.0
 20
0.0
 30
0.0
  3
*Paper_Space
  1

  0
ENDBLK
  5
E
330
C
100
AcDbEntity
 67
     1
  8
0
100
AcDbBlockEnd
  0
BLOCK
  5
22
330
21
100
AcDbEntity
  8
0
100
AcDbBlockBegin
  2
_OPEN30
 70
     0
 10
0.0
 20
0.0
 30
0.0
  3
_OPEN30
  1

  0
LINE
  5
23
330
21
100
AcDbEntity
  8
0
  6
ByBlock
 62
     0
100
AcDbLine
 10
-1.0
 20
0.26794919
 30
0.0
 11
0.0
 21
0.0
 31
0.0
  0
LINE
  5
24
330
21
100
AcDbEntity
  8
0
  6
ByBlock
 62
     0
100
AcDbLine
 10
0.0
 20
0.0
 30
0.0
 11
-1.0
 21
-0.26794919
 31
0.0
  0
LINE
  5
25
330
21
100
AcDbEntity
  8
0
  6
ByBlock
 62
     0
100
AcDbLine
 10
0.0
 20
0.0
 30
0.0
 11
-1.0
 21
0.0
 31
0.0
  0
ENDBLK
  5
26
330
21
100
AcDbEntity
  8
0
100
AcDbBlockEnd
  0
BLOCK
  5
E4
330
E3
100
AcDbEntity
  8
0
100
AcDbBlockBegin
  2
*D1
 70
     1
 10
0.0
 20
0.0
 30
0.0
  3
*D1
  1

  0
LINE
  5
E5
330
E3
100
AcDbEntity
  8
SUNPO
 62
     0
370
    -2
100
AcDbLine
 10
46.15180242618118
 20
83.19451442939238
 30
0.0
 11
54.15180242618117
 21
83.19451442939238
 31
0.0
  0
LINE
  5
E6
330
E3
100
AcDbEntity
  8
SUNPO
 62
     0
370
    -2
100
AcDbLine
 10
46.15180242618118
 20
96.79451442939262
 30
0.0
 11
54.15180242618117
 21
96.79451442939262
 31
0.0
  0
LINE
  5
E7
330
E3
100
AcDbEntity
  8
SUNPO
 62
     0
370
    -2
100
AcDbLine
 10
52.15180242618117
 20
85.19451442939237
 30
0.0
 11
52.15180242618117
 21
94.79451442939263
 31
0.0
  0
INSERT
  5
E8
330
E3
100
AcDbEntity
  8
SUNPO
 62
     0
370
    -2
100
AcDbBlockReference
  2
_OPEN30
 10
52.15180242618117
 20
83.19451442939238
 30
0.0
 41
2.0
 42
2.0
 43
2.0
 50
270.0
  0
INSERT
  5
E9
330
E3
100
AcDbEntity
  8
SUNPO
 62
     0
370
    -2
100
AcDbBlockReference
  2
_OPEN30
 10
52.15180242618117
 20
96.79451442939262
 30
0.0
 41
2.0
 42
2.0
 43
2.0
 50
90.0
  0
MTEXT
  5
EA
330
E3
100
AcDbEntity
  8
SUNPO
 62
     0
100
AcDbMText
 10
50.40180242618117
 20
89.99451442939252
 30
0.0
 40
2.5
 41
0.0
 71
     5
 72
     1
  1
\A1;68
 11
0.0000000000000001
 21
1.0
 31
0.0
 73
     1
 44
1.0
1001
ACAD
1000
MTEXTBEGIN
1070
    73
1070
     1
1070
    44
1040
1.0
1070
    74
1070
     0
1000
MTEXTEND
  0
POINT
  5
EB
330
E3
100
AcDbEntity
  8
DEFPOINTS
 62
     0
100
AcDbPoint
 10
44.15180242618117
 20
83.19451442939238
 30
0.0
  0
POINT
  5
EC
330
E3
100
AcDbEntity
  8
DEFPOINTS
 62
     0
100
AcDbPoint
 10
44.15180242618117
 20
96.79451442939262
 30
0.0
  0
POINT
  5
ED
330
E3
100
AcDbEntity
  8
DEFPOINTS
 62
     0
100
AcDbPoint
 10
52.15180242618117
 20
96.79451442939262
 30
0.0
  0
ENDBLK
  5
EE
330
E3
100
AcDbEntity
  8
0
100
AcDbBlockEnd
  0
BLOCK
  5
D7
330
D6
100
AcDbEntity
  8
0
100
AcDbBlockBegin
  2
*D2
 70
     1
 10
0.0
 20
0.0
 30
0.0
  3
*D2
  1

  0
LINE
  5
D8
330
D6
100
AcDbEntity
  8
SUNPO
 62
     0
370
    -2
100
AcDbLine
 10
29.75052325315107
 20
96.68320959822279
 30
0.0
 11
29.75052325315107
 21
104.6832095982228
 31
0.0
  0
LINE
  5
D9
330
D6
100
AcDbEntity
  8
SUNPO
 62
     0
370
    -2
100
AcDbLine
 10
44.15052325315111
 20
96.68320959822279
 30
0.0
 11
44.15052325315111
 21
104.6832095982228
 31
0.0
  0
LINE
  5
DA
330
D6
100
AcDbEntity
  8
SUNPO
 62
     0
370
    -2
100
AcDbLine
 10
31.75052325315107
 20
102.6832095982228
 30
0.0
 11
42.1505232531511
 21
102.6832095982228
 31
0.0
  0
INSERT
  5
DB
330
D6
100
AcDbEntity
  8
SUNPO
 62
     0
370
    -2
100
AcDbBlockReference
  2
_OPEN30
 10
29.75052325315107
 20
102.6832095982228
 30
0.0
 41
2.0
 42
2.0
 43
2.0
 50
180.0
  0
INSERT
  5
DC
330
D6
100
AcDbEntity
  8
SUNPO
 62
     0
370
    -2
100
AcDbBlockReference
  2
_OPEN30
 10
44.15052325315111
 20
102.6832095982228
 30
0.0
 41
2.0
 42
2.0
 43
2.0
  0
MTEXT
  5
DD
330
D6
100
AcDbEntity
  8
SUNPO
 62
     0
100
AcDbMText
 10
36.95052325315109
 20
104.4332095982228
 30
0.0
 40
2.5
 41
0.0
 71
     5
 72
     1
  1
\A1;72
 73
     1
 44
1.0
1001
ACAD
1000
MTEXTBEGIN
1070
    73
1070
     1
1070
    44
1040
1.0
1070
    74
1070
     0
1000
MTEXTEND
  0
POINT
  5
DE
330
D6
100
AcDbEntity
  8
DEFPOINTS
 62
     0
100
AcDbPoint
 10
29.75052325315107
 20
94.68320959822278
 30
0.0
  0
POINT
  5
DF
330
D6
100
AcDbEntity
  8
DEFPOINTS
 62
     0
100
AcDbPoint
 10
44.15052325315111
 20
94.68320959822278
 30
0.0
  0
POINT
  5
E0
330
D6
100
AcDbEntity
  8
DEFPOINTS
 62
     0
100
AcDbPoint
 10
44.15052325315111
 20
102.6832095982228
 30
0.0
  0
ENDBLK
  5
E1
330
D6
100
AcDbEntity
  8
0
100
AcDbBlockEnd
  0
BLOCK
  5
CA
330
C9
100
AcDbEntity
  8
0
100
AcDbBlockBegin
  2
*D3
 70
     1
 10
0.0
 20
0.0
 30
0.0
  3
*D3
  1

  0
LINE
  5
CB
330
C9
100
AcDbEntity
  8
SUNPO
 62
     0
370
    -2
100
AcDbLine
 10
76.02483497882224
 20
95.85585702078196
 30
0.0
 11
76.02483497882224
 21
103.8558570207819
 31
0.0
  0
LINE
  5
CC
330
C9
100
AcDbEntity
  8
SUNPO
 62
     0
370
    -2
100
AcDbLine
 10
107.5997472042387
 20
95.85585702078196
 30
0.0
 11
107.5997472042387
 21
103.8558570207819
 31
0.0
  0
LINE
  5
CD
330
C9
100
AcDbEntity
  8
SUNPO
 62
     0
370
    -2
100
AcDbLine
 10
78.02483497882224
 20
101.8558570207819
 30
0.0
 11
105.5997472042387
 21
101.8558570207819
 31
0.0
  0
INSERT
  5
CE
330
C9
100
AcDbEntity
  8
SUNPO
 62
     0
370
    -2
100
AcDbBlockReference
  2
_OPEN30
 10
76.02483497882224
 20
101.8558570207819
 30
0.0
 41
2.0
 42
2.0
 43
2.0
 50
180.0
  0
INSERT
  5
CF
330
C9
100
AcDbEntity
  8
SUNPO
 62
     0
370
    -2
100
AcDbBlockReference
  2
_OPEN30
 10
107.5997472042387
 20
101.8558570207819
 30
0.0
 41
2.0
 42
2.0
 43
2.0
  0
MTEXT
  5
D0
330
C9
100
AcDbEntity
  8
SUNPO
 62
     0
100
AcDbMText
 10
91.81229109153049
 20
103.6058570207819
 30
0.0
 40
2.5
 41
0.0
 71
     5
 72
     1
  1
\A1;158
 73
     1
 44
1.0
1001
ACAD
1000
MTEXTBEGIN
1070
    73
1070
     1
1070
    44
1040
1.0
1070
    74
1070
     0
1000
MTEXTEND
  0
POINT
  5
D1
330
C9
100
AcDbEntity
  8
DEFPOINTS
 62
     0
100
AcDbPoint
 10
76.02483497882224
 20
93.85585702078197
 30
0.0
  0
POINT
  5
D2
330
C9
100
AcDbEntity
  8
DEFPOINTS
 62
     0
100
AcDbPoint
 10
107.5997472042387
 20
93.85585702078197
 30
0.0
  0
POINT
  5
D3
330
C9
100
AcDbEntity
  8
DEFPOINTS
 62
     0
100
AcDbPoint
 10
107.5997472042387
 20
101.8558570207819
 30
0.0
  0
ENDBLK
  5
D4
330
C9
100
AcDbEntity
  8
0
100
AcDbBlockEnd
  0
BLOCK
  5
31
330
30
100
AcDbEntity
  8
0
100
AcDbBlockBegin
  2
*D4
 70
     1
 10
0.0
 20
0.0
 30
0.0
  3
*D4
  1

  0
LINE
  5
32
330
30
100
AcDbEntity
  8
SUNPO
 62
     0
370
    -2
100
AcDbLine
 10
63.82483497882219
 20
95.85585702078196
 30
0.0
 11
63.82483497882219
 21
103.8558570207819
 31
0.0
  0
LINE
  5
33
330
30
100
AcDbEntity
  8
SUNPO
 62
     0
370
    -2
100
AcDbLine
 10
76.02483497882224
 20
95.85585702078196
 30
0.0
 11
76.02483497882224
 21
103.8558570207819
 31
0.0
  0
LINE
  5
34
330
30
100
AcDbEntity
  8
SUNPO
 62
     0
370
    -2
100
AcDbLine
 10
65.82483497882219
 20
101.8558570207819
 30
0.0
 11
74.02483497882224
 21
101.8558570207819
 31
0.0
  0
INSERT
  5
35
330
30
100
AcDbEntity
  8
SUNPO
 62
     0
370
    -2
100
AcDbBlockReference
  2
_OPEN30
 10
63.82483497882219
 20
101.8558570207819
 30
0.0
 41
2.0
 42
2.0
 43
2.0
 50
180.0
  0
INSERT
  5
36
330
30
100
AcDbEntity
  8
SUNPO
 62
     0
370
    -2
100
AcDbBlockReference
  2
_OPEN30
 10
76.02483497882224
 20
101.8558570207819
 30
0.0
 41
2.0
 42
2.0
 43
2.0
  0
MTEXT
  5
37
330
30
100
AcDbEntity
  8
SUNPO
 62
     0
100
AcDbMText
 10
69.92483497882222
 20
103.6058570207819
 30
0.0
 40
2.5
 41
0.0
 71
     5
 72
     1
  1
\A1;61
 73
     1
 44
1.0
1001
ACAD
1000
MTEXTBEGIN
1070
    73
1070
     1
1070
    44
1040
1.0
1070
    74
1070
     0
1000
MTEXTEND
  0
POINT
  5
38
330
30
100
AcDbEntity
  8
DEFPOINTS
 62
     0
100
AcDbPoint
 10
63.82483497882219
 20
93.85585702078197
 30
0.0
  0
POINT
  5
3A
330
30
100
AcDbEntity
  8
DEFPOINTS
 62
     0
100
AcDbPoint
 10
76.02483497882224
 20
93.85585702078197
 30
0.0
  0
POINT
  5
3B
330
30
100
AcDbEntity
  8
DEFPOINTS
 62
     0
100
AcDbPoint
 10
76.02483497882224
 20
101.8558570207819
 30
0.0
  0
ENDBLK
  5
3C
330
30
100
AcDbEntity
  8
0
100
AcDbBlockEnd
  0
BLOCK
  5
196
330
18C
100
AcDbEntity
  8
0
100
AcDbBlockBegin
  2
*D5
 70
     1
 10
0.0
 20
0.0
 30
0.0
  3
*D5
  1

  0
LINE
  5
18D
330
18C
100
AcDbEntity
  8
SUNPO
 62
     0
370
    -2
100
AcDbLine
 10
-18.18575427896047
 20
42.72211865843042
 30
0.0
 11
-10.18575427896047
 21
42.72211865843041
 31
0.0
  0
LINE
  5
18E
330
18C
100
AcDbEntity
  8
SUNPO
 62
     0
370
    -2
100
AcDbLine
 10
-18.18575427896047
 20
56.32211865843067
 30
0.0
 11
-10.18575427896047
 21
56.32211865843066
 31
0.0
  0
LINE
  5
18F
330
18C
100
AcDbEntity
  8
SUNPO
 62
     0
370
    -2
100
AcDbLine
 10
-12.18575427896047
 20
44.72211865843041
 30
0.0
 11
-12.18575427896047
 21
54.32211865843066
 31
0.0
  0
INSERT
  5
190
330
18C
100
AcDbEntity
  8
SUNPO
 62
     0
370
    -2
100
AcDbBlockReference
  2
_OPEN30
 10
-12.18575427896048
 20
42.72211865843041
 30
0.0
 41
2.0
 42
2.0
 43
2.0
 50
270.0
  0
INSERT
  5
191
330
18C
100
AcDbEntity
  8
SUNPO
 62
     0
370
    -2
100
AcDbBlockReference
  2
_OPEN30
 10
-12.18575427896047
 20
56.32211865843066
 30
0.0
 41
2.0
 42
2.0
 43
2.0
 50
90.0
  0
MTEXT
  5
192
330
18C
100
AcDbEntity
  8
SUNPO
 62
     0
100
AcDbMText
 10
-13.93575427896048
 20
49.52211865843054
 30
0.0
 40
2.5
 41
0.0
 71
     5
 72
     1
  1
\A1;68
 11
0.0000000000000001
 21
1.0
 31
0.0
 73
     1
 44
1.0
1001
ACAD
1000
MTEXTBEGIN
1070
    73
1070
     1
1070
    44
1040
1.0
1070
    74
1070
     0
1000
MTEXTEND
  0
POINT
  5
193
330
18C
100
AcDbEntity
  8
DEFPOINTS
 62
     0
100
AcDbPoint
 10
-20.18575427896047
 20
42.72211865843042
 30
0.0
  0
POINT
  5
194
330
18C
100
AcDbEntity
  8
DEFPOINTS
 62
     0
100
AcDbPoint
 10
-20.18575427896047
 20
56.32211865843067
 30
0.0
  0
POINT
  5
195
330
18C
100
AcDbEntity
  8
DEFPOINTS
 62
     0
100
AcDbPoint
 10
-12.18575427896047
 20
56.32211865843066
 30
0.0
  0
ENDBLK
  5
197
330
18C
100
AcDbEntity
  8
0
100
AcDbBlockEnd
  0
BLOCK
  5
1A2
330
198
100
AcDbEntity
  8
0
100
AcDbBlockBegin
  2
*D6
 70
     1
 10
0.0
 20
0.0
 30
0.0
  3
*D6
  1

  0
LINE
  5
199
330
198
100
AcDbEntity
  8
SUNPO
 62
     0
370
    -2
100
AcDbLine
 10
-34.58703345199058
 20
56.21081382726083
 30
0.0
 11
-34.58703345199058
 21
64.21081382726083
 31
0.0
  0
LINE
  5
19A
330
198
100
AcDbEntity
  8
SUNPO
 62
     0
370
    -2
100
AcDbLine
 10
-20.18703345199055
 20
56.21081382726083
 30
0.0
 11
-20.18703345199055
 21
64.21081382726083
 31
0.0
  0
LINE
  5
19B
330
198
100
AcDbEntity
  8
SUNPO
 62
     0
370
    -2
100
AcDbLine
 10
-32.58703345199058
 20
62.21081382726083
 30
0.0
 11
-22.18703345199054
 21
62.21081382726083
 31
0.0
  0
INSERT
  5
19C
330
198
100
AcDbEntity
  8
SUNPO
 62
     0
370
    -2
100
AcDbBlockReference
  2
_OPEN30
 10
-34.58703345199058
 20
62.21081382726083
 30
0.0
 41
2.0
 42
2.0
 43
2.0
 50
180.0
  0
INSERT
  5
19D
330
198
100
AcDbEntity
  8
SUNPO
 62
     0
370
    -2
100
AcDbBlockReference
  2
_OPEN30
 10
-20.18703345199055
 20
62.21081382726083
 30
0.0
 41
2.0
 42
2.0
 43
2.0
  0
MTEXT
  5
19E
330
198
100
AcDbEntity
  8
SUNPO
 62
     0
100
AcDbMText
 10
-27.38703345199056
 20
63.96081382726084
 30
0.0
 40
2.5
 41
0.0
 71
     5
 72
     1
  1
\A1;72
 73
     1
 44
1.0
1001
ACAD
1000
MTEXTBEGIN
1070
    73
1070
     1
1070
    44
1040
1.0
1070
    74
1070
     0
1000
MTEXTEND
  0
POINT
  5
19F
330
198
100
AcDbEntity
  8
DEFPOINTS
 62
     0
100
AcDbPoint
 10
-34.58703345199058
 20
54.21081382726083
 30
0.0
  0
POINT
  5
1A0
330
198
100
AcDbEntity
  8
DEFPOINTS
 62
     0
100
AcDbPoint
 10
-20.18703345199055
 20
54.21081382726083
 30
0.0
  0
POINT
  5
1A1
330
198
100
AcDbEntity
  8
DEFPOINTS
 62
     0
100
AcDbPoint
 10
-20.18703345199055
 20
62.21081382726083
 30
0.0
  0
ENDBLK
  5
1A3
330
198
100
AcDbEntity
  8
0
100
AcDbBlockEnd
  0
BLOCK
  5
1AE
330
1A4
100
AcDbEntity
  8
0
100
AcDbBlockBegin
  2
*D7
 70
     1
 10
0.0
 20
0.0
 30
0.0
  3
*D7
  1

  0
LINE
  5
1A5
330
1A4
100
AcDbEntity
  8
SUNPO
 62
     0
370
    -2
100
AcDbLine
 10
11.68727827368059
 20
55.38346124982002
 30
0.0
 11
11.68727827368059
 21
63.38346124982002
 31
0.0
  0
LINE
  5
1A6
330
1A4
100
AcDbEntity
  8
SUNPO
 62
     0
370
    -2
100
AcDbLine
 10
43.26219049909707
 20
55.38346124982002
 30
0.0
 11
43.26219049909707
 21
63.38346124982002
 31
0.0
  0
LINE
  5
1A7
330
1A4
100
AcDbEntity
  8
SUNPO
 62
     0
370
    -2
100
AcDbLine
 10
13.68727827368059
 20
61.38346124982001
 30
0.0
 11
41.26219049909707
 21
61.38346124982001
 31
0.0
  0
INSERT
  5
1A8
330
1A4
100
AcDbEntity
  8
SUNPO
 62
     0
370
    -2
100
AcDbBlockReference
  2
_OPEN30
 10
11.68727827368059
 20
61.38346124982001
 30
0.0
 41
2.0
 42
2.0
 43
2.0
 50
180.0
  0
INSERT
  5
1A9
330
1A4
100
AcDbEntity
  8
SUNPO
 62
     0
370
    -2
100
AcDbBlockReference
  2
_OPEN30
 10
43.26219049909707
 20
61.38346124982001
 30
0.0
 41
2.0
 42
2.0
 43
2.0
  0
MTEXT
  5
1AA
330
1A4
100
AcDbEntity
  8
SUNPO
 62
     0
100
AcDbMText
 10
27.47473438638883
 20
63.13346124982001
 30
0.0
 40
2.5
 41
0.0
 71
     5
 72
     1
  1
\A1;158
 73
     1
 44
1.0
1001
ACAD
1000
MTEXTBEGIN
1070
    73
1070
     1
1070
    44
1040
1.0
1070
    74
1070
     0
1000
MTEXTEND
  0
POINT
  5
1AB
330
1A4
100
AcDbEntity
  8
DEFPOINTS
 62
     0
100
AcDbPoint
 10
11.68727827368059
 20
53.38346124982002
 30
0.0
  0
POINT
  5
1AC
330
1A4
100
AcDbEntity
  8
DEFPOINTS
 62
     0
100
AcDbPoint
 10
43.26219049909707
 20
53.38346124982002
 30
0.0
  0
POINT
  5
1AD
330
1A4
100
AcDbEntity
  8
DEFPOINTS
 62
     0
100
AcDbPoint
 10
43.26219049909707
 20
61.38346124982001
 30
0.0
  0
ENDBLK
  5
1AF
330
1A4
100
AcDbEntity
  8
0
100
AcDbBlockEnd
  0
BLOCK
  5
1BA
330
1B0
100
AcDbEntity
  8
0
100
AcDbBlockBegin
  2
*D8
 70
     1
 10
0.0
 20
0.0
 30
0.0
  3
*D8
  1

  0
LINE
  5
1B1
330
1B0
100
AcDbEntity
  8
SUNPO
 62
     0
370
    -2
100
AcDbLine
 10
-0.5127217263194552
 20
55.38346124982002
 30
0.0
 11
-0.5127217263194546
 21
63.38346124982002
 31
0.0
  0
LINE
  5
1B2
330
1B0
100
AcDbEntity
  8
SUNPO
 62
     0
370
    -2
100
AcDbLine
 10
11.68727827368059
 20
55.38346124982002
 30
0.0
 11
11.68727827368059
 21
63.38346124982002
 31
0.0
  0
LINE
  5
1B3
330
1B0
100
AcDbEntity
  8
SUNPO
 62
     0
370
    -2
100
AcDbLine
 10
1.487278273680545
 20
61.38346124982001
 30
0.0
 11
9.68727827368059
 21
61.38346124982001
 31
0.0
  0
INSERT
  5
1B4
330
1B0
100
AcDbEntity
  8
SUNPO
 62
     0
370
    -2
100
AcDbBlockReference
  2
_OPEN30
 10
-0.5127217263194548
 20
61.38346124982001
 30
0.0
 41
2.0
 42
2.0
 43
2.0
 50
180.0
  0
INSERT
  5
1B5
330
1B0
100
AcDbEntity
  8
SUNPO
 62
     0
370
    -2
100
AcDbBlockReference
  2
_OPEN30
 10
11.68727827368059
 20
61.38346124982001
 30
0.0
 41
2.0
 42
2.0
 43
2.0
  0
MTEXT
  5
1B6
330
1B0
100
AcDbEntity
  8
SUNPO
 62
     0
100
AcDbMText
 10
5.587278273680567
 20
63.13346124982001
 30
0.0
 40
2.5
 41
0.0
 71
     5
 72
     1
  1
\A1;61
 73
     1
 44
1.0
1001
ACAD
1000
MTEXTBEGIN
1070
    73
1070
     1
1070
    44
1040
1.0
1070
    74
1070
     0
1000
MTEXTEND
  0
POINT
  5
1B7
330
1B0
100
AcDbEntity
  8
DEFPOINTS
 62
     0
100
AcDbPoint
 10
-0.5127217263194553
 20
53.38346124982002
 30
0.0
  0
POINT
  5
1B8
330
1B0
100
AcDbEntity
  8
DEFPOINTS
 62
     0
100
AcDbPoint
 10
11.68727827368059
 20
53.38346124982002
 30
0.0
  0
POINT
  5
1B9
330
1B0
100
AcDbEntity
  8
DEFPOINTS
 62
     0
100
AcDbPoint
 10
11.68727827368059
 20
61.38346124982001
 30
0.0
  0
ENDBLK
  5
1BB
330
1B0
100
AcDbEntity
  8
0
100
AcDbBlockEnd
  0
ENDSEC
  0
SECTION
  2
ENTITIES
  0
DIMENSION
  5
2E
330
2
100
AcDbEntity
  8
SUNPO
100
AcDbDimension
  2
*D8
 10
11.68727827368059
 20
61.38346124982001
 30
0.0
 11
5.587278273680567
 21
63.13346124982001
 31
0.0
 70
    33
  1
61
 71
     5
 42
12.20000000000004
  3
STANDARD
100
AcDbAlignedDimension
 13
-0.5127217263194553
 23
53.38346124982002
 33
0.0
 14
11.68727827368059
 24
53.38346124982002
 34
0.0
1001
ACAD
1000
DSTYLE
1002
{
1070
   287
1070
     3
1070
    40
1040
1.0
1070
   140
1040
2.5
1070
   147
1040
0.5
1070
   172
1070
     1
1070
   279
1070
     0
1070
   288
1070
     0
1002
}
  0
LINE
  5
3D
330
2
100
AcDbEntity
  8
GAIKEI
100
AcDbLine
 10
-30.00351044983921
 20
43.32266978657981
 30
0.0
 11
-32.85836680317772
 21
43.32266978657981
 31
0.0
  0
ARC
  5
3F
330
2
100
AcDbEntity
  8
GAIKEI
100
AcDbCircle
 10
-32.27682637316599
 20
44.99532148258118
 30
0.0
 40
1.770862210301594
100
AcDbArc
 50
191.9354114643207
 51
250.8286764562922
  0
ARC
  5
40
330
2
100
AcDbEntity
  8
GAIKEI
100
AcDbCircle
 10
-4.87877271126598
 20
50.45999434105579
 30
0.0
 40
29.70846955371799
100
AcDbArc
 50
180.2651258038146
 51
191.3189655389409
  0
ARC
  5
41
330
2
100
AcDbEntity
  8
GAIKEI
100
AcDbCircle
 10
-32.38079192093091
 20
52.61723068803212
 30
0.0
 40
1.773082882502801
100
AcDbArc
 50
105.8748433642134
 51
159.1069328713793
  0
ARC
  5
42
330
2
100
AcDbEntity
  8
GAIKEI
100
AcDbCircle
 10
-25.11680536230125
 20
50.0483021064814
 30
0.0
 40
9.47750398660202
100
AcDbArc
 50
160.2586895450566
 51
177.7379702541041
  0
LINE
  5
43
330
2
100
AcDbEntity
  8
GAIKEI
 62
     1
100
AcDbLine
 10
-34.58692420558015
 20
50.42237550867742
 30
0.0
 11
-33.1410865142405
 21
50.42237550867742
 31
0.0
  0
LINE
  5
44
330
2
100
AcDbEntity
  8
GAIKEI
 62
     1
100
AcDbLine
 10
-34.58692420558015
 20
50.32252428952927
 30
0.0
 11
-33.16965412223573
 21
50.32252428952927
 31
0.0
  0
LINE
  5
45
330
2
100
AcDbEntity
  8
GAIKEI
 62
     1
100
AcDbLine
 10
-34.3705556165782
 20
50.42215701585644
 30
0.0
 11
-34.36880767401107
 21
50.32230579670841
 31
0.0
  0
LINE
  5
46
330
2
100
AcDbEntity
  8
GAIKEI
 62
     1
100
AcDbLine
 10
-33.96973053665005
 20
50.42215701585644
 30
0.0
 11
-33.96787334767243
 21
50.32230579670841
 31
0.0
  0
LINE
  5
47
330
2
100
AcDbEntity
  8
GAIKEI
100
AcDbLine
 10
-32.86579555908799
 20
54.32269085443852
 30
0.0
 11
-29.53961122696211
 21
54.32269085443852
 31
0.0
  0
ARC
  5
48
330
2
100
AcDbEntity
  8
GAIKEI
100
AcDbCircle
 10
-22.49702203799421
 20
44.99532148258118
 30
0.0
 40
1.770862210301594
100
AcDbArc
 50
289.1713235437078
 51
348.0645885356793
  0
LINE
  5
49
330
2
100
AcDbEntity
  8
GAIKEI
100
AcDbLine
 10
-24.7703379613211
 20
43.32266978657981
 30
0.0
 11
-21.9154816079826
 21
43.32266978657981
 31
0.0
  0
ARC
  5
4A
330
2
100
AcDbEntity
  8
GAIKEI
100
AcDbCircle
 10
-49.89507569989434
 20
50.45999434105579
 30
0.0
 40
29.70846955371799
100
AcDbArc
 50
348.681034461059
 51
359.7348741961854
  0
LINE
  5
4B
330
2
100
AcDbEntity
  8
GAIKEI
 62
     1
100
AcDbLine
 10
-20.80411787451027
 20
50.42215701585644
 30
0.0
 11
-20.80597506348789
 21
50.32230579670841
 31
0.0
  0
LINE
  5
4C
330
2
100
AcDbEntity
  8
GAIKEI
 62
     1
100
AcDbLine
 10
-20.403292794582
 20
50.42215701585644
 30
0.0
 11
-20.40504073714914
 21
50.32230579670841
 31
0.0
  0
LINE
  5
4D
330
2
100
AcDbEntity
  8
GAIKEI
 62
     1
100
AcDbLine
 10
-20.18692420558017
 20
50.32252428952927
 30
0.0
 11
-21.60419428892447
 21
50.32252428952927
 31
0.0
  0
LINE
  5
4E
330
2
100
AcDbEntity
  8
GAIKEI
 62
     1
100
AcDbLine
 10
-20.18692420558017
 20
50.42237550867742
 30
0.0
 11
-21.6327618969197
 21
50.42237550867742
 31
0.0
  0
ARC
  5
4F
330
2
100
AcDbEntity
  8
GAIKEI
100
AcDbCircle
 10
-29.65704304885907
 20
50.0483021064814
 30
0.0
 40
9.47750398660202
100
AcDbArc
 50
2.2620297458959
 51
19.74131045494336
  0
LINE
  5
50
330
2
100
AcDbEntity
  8
GAIKEI
100
AcDbLine
 10
-21.90805285207222
 20
54.32269085443852
 30
0.0
 11
-25.2342371841981
 21
54.32269085443852
 31
0.0
  0
ARC
  5
51
330
2
100
AcDbEntity
  8
GAIKEI
100
AcDbCircle
 10
-22.39305649022941
 20
52.61723068803212
 30
0.0
 40
1.773082882502801
100
AcDbArc
 50
20.89306712862068
 51
74.12515663578652
  0
LINE
  5
52
330
2
100
AcDbEntity
  8
GAIKEI
100
AcDbLine
 10
-31.29450443763591
 20
54.32203537597581
 30
0.0
 11
-31.29450443763591
 21
54.52206555350335
 31
0.0
  0
LINE
  5
53
330
2
100
AcDbEntity
  8
GAIKEI
100
AcDbLine
 10
-31.29450443763591
 20
54.52206555350335
 30
0.0
 11
-30.69343068735924
 21
56.32211865843055
 31
0.0
  0
LINE
  5
54
330
2
100
AcDbEntity
  8
GAIKEI
100
AcDbLine
 10
-30.69343068735924
 20
56.32211865843055
 30
0.0
 11
-24.08052697021134
 21
56.32211865843055
 31
0.0
  0
LINE
  5
55
330
2
100
AcDbEntity
  8
GAIKEI
100
AcDbLine
 10
-24.08052697021134
 20
56.32211865843055
 30
0.0
 11
-23.47956246634516
 21
54.52250253914519
 31
0.0
  0
LINE
  5
56
330
2
100
AcDbEntity
  8
GAIKEI
100
AcDbLine
 10
-23.47956246634516
 20
54.52250253914519
 30
0.0
 11
-23.47956246634516
 21
54.32247236161765
 31
0.0
  0
LINE
  5
57
330
2
100
AcDbEntity
  8
GAIKEI
 62
     1
100
AcDbLine
 10
-23.47956246634516
 20
54.52283027837655
 30
0.0
 11
-25.8534935267773
 21
54.52283027837655
 31
0.0
  0
LINE
  5
58
330
2
100
AcDbEntity
  8
GAIKEI
 62
     1
100
AcDbLine
 10
-28.92057337720377
 20
54.52283027837655
 30
0.0
 11
-31.29494142327775
 21
54.52283027837655
 31
0.0
  0
LINE
  5
59
330
2
100
AcDbEntity
  8
GAIKEI
100
AcDbLine
 10
13.2692909057194
 20
43.32269757473006
 30
0.0
 11
41.51075050810965
 21
43.32269757473006
 31
0.0
  0
LINE
  5
5A
330
2
100
AcDbEntity
  8
GAIKEI
100
AcDbLine
 10
13.18404664849453
 20
54.32269085443858
 30
0.0
 11
42.83517986546036
 21
54.32269085443858
 31
0.0
  0
ARC
  5
5B
330
2
100
AcDbEntity
  8
GAIKEI
100
AcDbCircle
 10
23.29579514581309
 20
51.12641364138614
 30
0.0
 40
20.01933905069974
100
AcDbArc
 50
337.7827563473632
 51
356.0282810464561
  0
ARC
  5
5C
330
2
100
AcDbEntity
  8
GAIKEI
100
AcDbCircle
 10
41.4444410068773
 20
43.74601382612633
 30
0.0
 40
0.4284782359114311
100
AcDbArc
 50
278.9026349583257
 51
333.7813140267296
  0
ARC
  5
5D
330
2
100
AcDbEntity
  8
GAIKEI
100
AcDbCircle
 10
-183.4066009942446
 20
40.0841775112944
 30
0.0
 40
226.9325035919136
100
AcDbArc
 50
2.627753944740875
 51
3.530633271830216
  0
ARC
  5
5E
330
2
100
AcDbEntity
  8
GAIKEI
100
AcDbCircle
 10
31.01071784702123
 20
50.44546512034895
 30
0.0
 40
12.27663524322199
100
AcDbArc
 50
356.7047691200684
 51
0.2000308823492058
  0
ARC
  5
5F
330
2
100
AcDbEntity
  8
GAIKEI
100
AcDbCircle
 10
42.80977866915878
 20
54.03759575773944
 30
0.0
 40
0.2862244485284666
100
AcDbArc
 50
4.324175594523948
 51
84.90854629760553
  0
LINE
  5
60
330
2
100
AcDbEntity
  8
GAIKEI
 62
     1
100
AcDbLine
 10
44.48379417597362
 20
48.12575853664686
 30
0.0
 11
44.48379417597362
 21
45.65123620873243
 31
0.0
  0
LINE
  5
61
330
2
100
AcDbEntity
  8
GAIKEI
 62
     1
100
AcDbLine
 10
44.48379417597362
 20
48.12575853664686
 30
0.0
 11
43.06731557179529
 21
48.12575853664686
 31
0.0
  0
LINE
  5
62
330
2
100
AcDbEntity
  8
GAIKEI
 62
     1
100
AcDbLine
 10
44.48379417597362
 20
45.65123620873243
 30
0.0
 11
42.54330727670214
 21
45.65123620873243
 31
0.0
  0
LINE
  5
63
330
2
100
AcDbEntity
  8
GAIKEI
100
AcDbLine
 10
14.54772249091121
 20
54.33082041575421
 30
0.0
 11
14.560032969475
 21
54.53487240477881
 31
0.0
  0
LINE
  5
64
330
2
100
AcDbEntity
  8
GAIKEI
100
AcDbLine
 10
14.560032969475
 20
54.53487240477881
 30
0.0
 11
15.18089918081551
 21
56.32314859613171
 31
0.0
  0
LINE
  5
65
330
2
100
AcDbEntity
  8
GAIKEI
100
AcDbLine
 10
15.18089918081551
 20
56.32314859613171
 30
0.0
 11
24.52757196208728
 21
56.32314859613171
 31
0.0
  0
LINE
  5
66
330
2
100
AcDbEntity
  8
GAIKEI
100
AcDbLine
 10
24.52757196208728
 20
56.32314859613171
 30
0.0
 11
25.0126715351326
 21
54.53487240477881
 31
0.0
  0
LINE
  5
67
330
2
100
AcDbEntity
  8
GAIKEI
100
AcDbLine
 10
25.0126715351326
 20
54.53487240477881
 30
0.0
 11
25.0126715351326
 21
54.32269085443869
 31
0.0
  0
LINE
  5
68
330
2
100
AcDbEntity
  8
GAIKEI
 62
     1
100
AcDbLine
 10
14.560032969475
 20
54.53487240477881
 30
0.0
 11
25.0126715351326
 21
54.53487240477881
 31
0.0
  0
LINE
  5
69
330
2
100
AcDbEntity
  8
GAIKEI
 62
     1
100
AcDbLine
 10
23.61171881157651
 20
54.33023973280313
 30
0.0
 11
23.61171881157651
 21
54.55484789829739
 31
0.0
  0
LINE
  5
6A
330
2
100
AcDbEntity
  8
GAIKEI
 62
     1
100
AcDbLine
 10
23.61171881157651
 20
54.55484789829739
 30
0.0
 11
23.41862498766267
 21
56.32314859613171
 31
0.0
  0
LINE
  5
6B
330
2
100
AcDbEntity
  8
GAIKEI
 62
     1
100
AcDbLine
 10
12.72972030753618
 20
50.48832519158492
 30
0.0
 11
43.28727827368044
 21
50.48832519158492
 31
0.0
  0
LINE
  5
6C
330
2
100
AcDbEntity
  8
GAIKEI
 62
     1
100
AcDbLine
 10
43.28727827368044
 20
50.35534879577773
 30
0.0
 11
32.49036853204717
 21
50.35534879577773
 31
0.0
  0
ARC
  5
6D
330
2
100
AcDbEntity
  8
GAIKEI
 62
     1
100
AcDbCircle
 10
30.41662301144999
 20
47.85847874127563
 30
0.0
 40
1.627700134576703
100
AcDbArc
 50
269.0764302660267
 51
329.6592865422844
  0
ARC
  5
6E
330
2
100
AcDbEntity
  8
GAIKEI
 62
     1
100
AcDbCircle
 10
28.00407131124194
 20
49.23612119011051
 30
0.0
 40
4.405825049056115
100
AcDbArc
 50
330.0458191194804
 51
352.5306073607359
  0
ARC
  5
6F
330
2
100
AcDbEntity
  8
GAIKEI
 62
     1
100
AcDbCircle
 10
21.43818652808199
 20
50.27512428188635
 30
0.0
 40
11.05247316311619
100
AcDbArc
 50
351.6148484780838
 51
0.4158857800157291
  0
ARC
  5
70
330
2
100
AcDbEntity
  8
GAIKEI
 62
     1
100
AcDbCircle
 10
30.41662301144999
 20
47.85847874127563
 30
0.0
 40
1.498440134576703
100
AcDbArc
 50
269.0764302660267
 51
329.6592865422844
  0
ARC
  5
71
330
2
100
AcDbEntity
  8
GAIKEI
 62
     1
100
AcDbCircle
 10
28.00407131124194
 20
49.23612119011051
 30
0.0
 40
4.276565049056116
100
AcDbArc
 50
330.0458191194804
 51
352.5306073607359
  0
ARC
  5
72
330
2
100
AcDbEntity
  8
GAIKEI
 62
     1
100
AcDbCircle
 10
21.43818652808199
 20
50.27512428188635
 30
0.0
 40
10.92321316311618
100
AcDbArc
 50
351.6148484780838
 51
0.4158857800157291
  0
LINE
  5
73
330
2
100
AcDbEntity
  8
GAIKEI
 62
     1
100
AcDbLine
 10
32.36111193718836
 20
50.35441056046039
 30
0.0
 11
13.74359274019645
 21
50.349675146523
 31
0.0
  0
LINE
  5
74
330
2
100
AcDbEntity
  8
GAIKEI
 62
     1
100
AcDbLine
 10
30.39247020232603
 20
46.36023327449748
 30
0.0
 11
14.67788752035682
 21
46.36023327449748
 31
0.0
  0
LINE
  5
75
330
2
100
AcDbEntity
  8
GAIKEI
 62
     1
100
AcDbLine
 10
30.39038670760698
 20
46.23099006713329
 30
0.0
 11
14.51566879200919
 21
46.23099006713329
 31
0.0
  0
LINE
  5
76
330
2
100
AcDbEntity
  8
GAIKEI
 62
     1
100
AcDbLine
 10
22.76763807382446
 20
50.34989037603719
 30
0.0
 11
22.76763807382446
 21
46.37302511697799
 31
0.0
  0
LINE
  5
77
330
2
100
AcDbEntity
  8
GAIKEI
 62
     1
100
AcDbLine
 10
22.64732056635176
 20
50.34989037603719
 30
0.0
 11
22.64732056635176
 21
46.37302511697799
 31
0.0
  0
LINE
  5
78
330
2
100
AcDbEntity
  8
GAIKEI
 62
     1
100
AcDbLine
 10
23.27840679763204
 20
48.26895495239369
 30
0.0
 11
23.27840679763204
 21
49.76734923947089
 31
0.0
  0
LINE
  5
79
330
2
100
AcDbEntity
  8
GAIKEI
 62
     1
100
AcDbLine
 10
23.27840679763204
 20
49.76734923947089
 30
0.0
 11
24.32642338781835
 21
49.76734923947089
 31
0.0
  0
LINE
  5
7A
330
2
100
AcDbEntity
  8
GAIKEI
 62
     1
100
AcDbLine
 10
24.32642338781835
 20
49.76734923947089
 30
0.0
 11
24.3268879341793
 21
48.26895495239369
 31
0.0
  0
LINE
  5
7B
330
2
100
AcDbEntity
  8
GAIKEI
 62
     1
100
AcDbLine
 10
24.3268879341793
 20
48.26895495239369
 30
0.0
 11
23.27840679763204
 21
48.26895495239369
 31
0.0
  0
CIRCLE
  5
7C
330
2
100
AcDbEntity
  8
GAIKEI
 62
     1
100
AcDbCircle
 10
23.8024150927252
 20
49.01791982275182
 30
0.0
 40
0.5028714356723035
  0
CIRCLE
  5
7D
330
2
100
AcDbEntity
  8
GAIKEI
 62
     1
100
AcDbCircle
 10
23.8024150927252
 20
49.01791982275182
 30
0.0
 40
0.4060135194250281
  0
LINE
  5
7E
330
2
100
AcDbEntity
  8
GAIKEI
 62
     1
100
AcDbLine
 10
23.75410227119181
 20
48.76671637809619
 30
0.0
 11
23.75410227119181
 21
48.96960700121855
 31
0.0
  0
LINE
  5
7F
330
2
100
AcDbEntity
  8
GAIKEI
 62
     1
100
AcDbLine
 10
23.75410227119181
 20
48.96960700121855
 30
0.0
 11
23.55086323829886
 21
48.96960700121855
 31
0.0
  0
LINE
  5
80
330
2
100
AcDbEntity
  8
GAIKEI
 62
     1
100
AcDbLine
 10
23.55086323829886
 20
48.96960700121855
 30
0.0
 11
23.55086323829886
 21
49.06623264428532
 31
0.0
  0
LINE
  5
81
330
2
100
AcDbEntity
  8
GAIKEI
 62
     1
100
AcDbLine
 10
23.55086323829886
 20
49.06623264428532
 30
0.0
 11
23.75410227119181
 21
49.06623264428532
 31
0.0
  0
LINE
  5
82
330
2
100
AcDbEntity
  8
GAIKEI
 62
     1
100
AcDbLine
 10
23.75410227119181
 20
49.06623264428532
 30
0.0
 11
23.75410227119181
 21
49.26958781376839
 31
0.0
  0
LINE
  5
83
330
2
100
AcDbEntity
  8
GAIKEI
 62
     1
100
AcDbLine
 10
23.75410227119181
 20
49.26958781376839
 30
0.0
 11
23.85072791425859
 21
49.26958781376839
 31
0.0
  0
LINE
  5
84
330
2
100
AcDbEntity
  8
GAIKEI
 62
     1
100
AcDbLine
 10
23.85072791425859
 20
49.26958781376839
 30
0.0
 11
23.85072791425859
 21
49.06623264428532
 31
0.0
  0
LINE
  5
85
330
2
100
AcDbEntity
  8
GAIKEI
 62
     1
100
AcDbLine
 10
23.85072791425859
 20
49.06623264428532
 30
0.0
 11
24.05350240079059
 21
49.06623264428532
 31
0.0
  0
LINE
  5
86
330
2
100
AcDbEntity
  8
GAIKEI
 62
     1
100
AcDbLine
 10
24.05350240079059
 20
49.06623264428532
 30
0.0
 11
24.05350240079059
 21
48.96960700121855
 31
0.0
  0
LINE
  5
87
330
2
100
AcDbEntity
  8
GAIKEI
 62
     1
100
AcDbLine
 10
24.05350240079059
 20
48.96960700121855
 30
0.0
 11
23.85072791425859
 21
48.96960700121855
 31
0.0
  0
LINE
  5
88
330
2
100
AcDbEntity
  8
GAIKEI
 62
     1
100
AcDbLine
 10
23.85072791425859
 20
48.96960700121855
 30
0.0
 11
23.85072791425859
 21
48.76671637809619
 31
0.0
  0
LINE
  5
89
330
2
100
AcDbEntity
  8
GAIKEI
 62
     1
100
AcDbLine
 10
23.85072791425859
 20
48.76671637809619
 30
0.0
 11
23.75410227119181
 21
48.76671637809619
 31
0.0
  0
LINE
  5
8A
330
2
100
AcDbEntity
  8
GAIKEI
 62
     1
100
AcDbLine
 10
23.2779422512711
 20
48.12715217572969
 30
0.0
 11
24.3268879341793
 21
48.12715217572969
 31
0.0
  0
LINE
  5
8B
330
2
100
AcDbEntity
  8
GAIKEI
 62
     1
100
AcDbLine
 10
24.46857457425319
 20
48.26895495239369
 30
0.0
 11
24.46857457425319
 21
49.76711696629042
 31
0.0
  0
LINE
  5
8C
330
2
100
AcDbEntity
  8
GAIKEI
 62
     1
100
AcDbLine
 10
24.3268879341793
 20
49.90868746977418
 30
0.0
 11
23.2779422512711
 21
49.90868746977418
 31
0.0
  0
LINE
  5
8D
330
2
100
AcDbEntity
  8
GAIKEI
 62
     1
100
AcDbLine
 10
23.13602333801674
 20
49.76711696629042
 30
0.0
 11
23.13602333801674
 21
48.26895495239369
 31
0.0
  0
ARC
  5
8E
330
2
100
AcDbEntity
  8
GAIKEI
 62
     1
100
AcDbCircle
 10
23.27842396852071
 20
48.26955324831835
 30
0.0
 40
0.1424018873677979
100
AcDbArc
 50
180.240726670554
 51
269.8061794090882
  0
ARC
  5
8F
330
2
100
AcDbEntity
  8
GAIKEI
 62
     1
100
AcDbCircle
 10
23.27822468799167
 20
49.76648499598884
 30
0.0
 40
0.1422027542671275
100
AcDbArc
 50
90.11379837747091
 51
179.7453681510064
  0
ARC
  5
90
330
2
100
AcDbEntity
  8
GAIKEI
 62
     1
100
AcDbCircle
 10
24.32672092917897
 20
49.76683364006231
 30
0.0
 40
0.1418539280195974
100
AcDbArc
 50
0.1144374929750768
 51
89.93254551341932
  0
ARC
  5
91
330
2
100
AcDbEntity
  8
GAIKEI
 62
     1
100
AcDbCircle
 10
24.32652208038866
 20
48.26920441751764
 30
0.0
 40
0.1420527129131948
100
AcDbArc
 50
270.1475642447641
 51
359.8993802667544
  0
LINE
  5
92
330
2
100
AcDbEntity
  8
GAIKEI
 62
     1
100
AcDbLine
 10
14.41033290467561
 20
47.01874455862645
 30
0.0
 11
14.31370726160873
 21
47.01874455862645
 31
0.0
  0
LINE
  5
93
330
2
100
AcDbEntity
  8
GAIKEI
 62
     1
100
AcDbLine
 10
14.41033290467561
 20
47.2216351817488
 30
0.0
 11
14.41033290467561
 21
47.01874455862645
 31
0.0
  0
LINE
  5
94
330
2
100
AcDbEntity
  8
GAIKEI
 62
     1
100
AcDbLine
 10
14.61310739120762
 20
47.2216351817488
 30
0.0
 11
14.41033290467561
 21
47.2216351817488
 31
0.0
  0
LINE
  5
95
330
2
100
AcDbEntity
  8
GAIKEI
 62
     1
100
AcDbLine
 10
14.61310739120762
 20
47.31826082481558
 30
0.0
 11
14.61310739120762
 21
47.2216351817488
 31
0.0
  0
LINE
  5
96
330
2
100
AcDbEntity
  8
GAIKEI
 62
     1
100
AcDbLine
 10
14.41033290467561
 20
47.31826082481558
 30
0.0
 11
14.61310739120762
 21
47.31826082481558
 31
0.0
  0
LINE
  5
97
330
2
100
AcDbEntity
  8
GAIKEI
 62
     1
100
AcDbLine
 10
14.41033290467561
 20
47.52161599429865
 30
0.0
 11
14.41033290467561
 21
47.31826082481558
 31
0.0
  0
LINE
  5
98
330
2
100
AcDbEntity
  8
GAIKEI
 62
     1
100
AcDbLine
 10
14.31370726160873
 20
47.52161599429865
 30
0.0
 11
14.41033290467561
 21
47.52161599429865
 31
0.0
  0
LINE
  5
99
330
2
100
AcDbEntity
  8
GAIKEI
 62
     1
100
AcDbLine
 10
14.31370726160873
 20
47.31826082481558
 30
0.0
 11
14.31370726160873
 21
47.52161599429865
 31
0.0
  0
LINE
  5
9A
330
2
100
AcDbEntity
  8
GAIKEI
 62
     1
100
AcDbLine
 10
14.11046822871589
 20
47.31826082481558
 30
0.0
 11
14.31370726160873
 21
47.31826082481558
 31
0.0
  0
LINE
  5
9B
330
2
100
AcDbEntity
  8
GAIKEI
 62
     1
100
AcDbLine
 10
14.11046822871589
 20
47.2216351817488
 30
0.0
 11
14.11046822871589
 21
47.31826082481558
 31
0.0
  0
LINE
  5
9C
330
2
100
AcDbEntity
  8
GAIKEI
 62
     1
100
AcDbLine
 10
14.31370726160873
 20
47.2216351817488
 30
0.0
 11
14.11046822871589
 21
47.2216351817488
 31
0.0
  0
LINE
  5
9D
330
2
100
AcDbEntity
  8
GAIKEI
 62
     1
100
AcDbLine
 10
14.31370726160873
 20
47.01874455862645
 30
0.0
 11
14.31370726160873
 21
47.2216351817488
 31
0.0
  0
CIRCLE
  5
9E
330
2
100
AcDbEntity
  8
GAIKEI
 62
     1
100
AcDbCircle
 10
14.36202008314223
 20
47.26994800328208
 30
0.0
 40
0.4060135194250281
  0
CIRCLE
  5
9F
330
2
100
AcDbEntity
  8
GAIKEI
 62
     1
100
AcDbCircle
 10
14.36202008314223
 20
47.26994800328208
 30
0.0
 40
0.5028714356723035
  0
LINE
  5
A0
330
2
100
AcDbEntity
  8
GAIKEI
 62
     1
100
AcDbLine
 10
22.18974240086703
 20
48.10961555060572
 30
0.0
 11
14.06041335832895
 21
48.10961555060572
 31
0.0
  0
LINE
  5
A1
330
2
100
AcDbEntity
  8
GAIKEI
 62
     1
100
AcDbLine
 10
22.18974240086703
 20
48.25083764431866
 30
0.0
 11
14.06041335832895
 21
48.25083764431866
 31
0.0
  0
LINE
  5
A2
330
2
100
AcDbEntity
  8
GAIKEI
 62
     1
100
AcDbLine
 10
14.06041335832895
 20
48.25083764431866
 30
0.0
 11
14.06041335832895
 21
49.69081522651283
 31
0.0
  0
LINE
  5
A3
330
2
100
AcDbEntity
  8
GAIKEI
 62
     1
100
AcDbLine
 10
14.06041335832895
 20
49.69081522651283
 30
0.0
 11
22.18974240086703
 21
49.69081522651283
 31
0.0
  0
LINE
  5
A4
330
2
100
AcDbEntity
  8
GAIKEI
 62
     1
100
AcDbLine
 10
22.18974240086703
 20
49.69081522651283
 30
0.0
 11
22.18974240086703
 21
48.25083764431866
 31
0.0
  0
LINE
  5
A5
330
2
100
AcDbEntity
  8
GAIKEI
 62
     1
100
AcDbLine
 10
20.97030820350932
 20
48.27174223055914
 30
0.0
 11
20.97030820350932
 21
49.67014291345282
 31
0.0
  0
LINE
  5
A6
330
2
100
AcDbEntity
  8
GAIKEI
 62
     1
100
AcDbLine
 10
21.18260589043979
 20
49.5142876093717
 30
0.0
 11
21.18260589043979
 21
48.42782980782096
 31
0.0
  0
LINE
  5
A7
330
2
100
AcDbEntity
  8
GAIKEI
 62
     1
100
AcDbLine
 10
21.18260589043979
 20
48.42782980782096
 30
0.0
 11
22.11936362719104
 21
48.42782980782096
 31
0.0
  0
LINE
  5
A8
330
2
100
AcDbEntity
  8
GAIKEI
 62
     1
100
AcDbLine
 10
22.11936362719104
 20
49.5142876093717
 30
0.0
 11
21.18260589043979
 21
49.5142876093717
 31
0.0
  0
LINE
  5
A9
330
2
100
AcDbEntity
  8
GAIKEI
 62
     1
100
AcDbLine
 10
22.11936362719104
 20
49.5142876093717
 30
0.0
 11
22.11936362719104
 21
48.42782980782096
 31
0.0
  0
LINE
  5
AA
330
2
100
AcDbEntity
  8
GAIKEI
 62
     1
100
AcDbLine
 10
22.3309644945802
 20
48.25083764431866
 30
0.0
 11
22.3309644945802
 21
49.69081522651283
 31
0.0
  0
LINE
  5
AB
330
2
100
AcDbEntity
  8
GAIKEI
 62
     1
100
AcDbLine
 10
22.18974240086703
 20
49.83250186658693
 30
0.0
 11
14.06041335832895
 21
49.83250186658693
 31
0.0
  0
LINE
  5
AC
330
2
100
AcDbEntity
  8
GAIKEI
 62
     1
100
AcDbLine
 10
13.9184944450746
 20
49.69081522651283
 30
0.0
 11
13.9184944450746
 21
48.25083764431866
 31
0.0
  0
ARC
  5
AD
330
2
100
AcDbEntity
  8
GAIKEI
 62
     1
100
AcDbCircle
 10
22.18950725316159
 20
48.25107279202422
 30
0.0
 40
0.1414574368641437
100
AcDbArc
 50
270.0952440365558
 51
359.9047559634345
  0
ARC
  5
AE
330
2
100
AcDbEntity
  8
GAIKEI
 62
     1
100
AcDbCircle
 10
22.18918361224013
 20
49.6907220547892
 30
0.0
 40
0.1417809129540364
100
AcDbArc
 50
0.0376520845142567
 51
89.77418460511342
  0
CIRCLE
  5
AF
330
2
100
AcDbEntity
  8
GAIKEI
 62
     1
100
AcDbCircle
 10
21.65063634904476
 20
48.9711167768915
 30
0.0
 40
0.293361026907218
  0
ARC
  5
B0
330
2
100
AcDbEntity
  8
GAIKEI
 62
     1
100
AcDbCircle
 10
14.06039864610767
 20
48.25152139817266
 30
0.0
 40
0.1419058483297425
100
AcDbArc
 50
180.2760729181692
 51
270.0059401934325
  0
ARC
  5
B1
330
2
100
AcDbEntity
  8
GAIKEI
 62
     1
100
AcDbCircle
 10
14.06072079774588
 20
49.69027481952872
 30
0.0
 40
0.142227379339865
100
AcDbArc
 50
90.12385094094833
 51
179.7822984993342
  0
LINE
  5
B2
330
2
100
AcDbEntity
  8
GAIKEI
 62
     1
100
AcDbLine
 10
13.74359274019645
 20
47.29305918473693
 30
0.0
 11
13.74359274019645
 21
50.349675146523
 31
0.0
  0
LINE
  5
B3
330
2
100
AcDbEntity
  8
GAIKEI
 62
     1
100
AcDbLine
 10
13.58123378706256
 20
47.16368302322672
 30
0.0
 11
13.58123378706256
 21
50.349675146523
 31
0.0
  0
ARC
  5
B4
330
2
100
AcDbEntity
  8
GAIKEI
 62
     1
100
AcDbCircle
 10
14.57791477722418
 20
47.19439904639108
 30
0.0
 40
0.8401351583932278
100
AcDbArc
 50
173.2559857312874
 51
276.8437954243859
  0
ARC
  5
B5
330
2
100
AcDbEntity
  8
GAIKEI
 62
     1
100
AcDbCircle
 10
14.51577055140711
 20
47.16552864840702
 30
0.0
 40
0.9345385868137793
100
AcDbArc
 50
180.1131538104706
 51
269.9937612163773
  0
LINE
  5
B6
330
2
100
AcDbEntity
  8
GAIKEI
 62
     1
100
AcDbLine
 10
13.58123378706256
 20
50.349675146523
 30
0.0
 11
12.73242314868338
 21
50.349675146523
 31
0.0
  0
ARC
  5
B7
330
2
100
AcDbEntity
  8
GAIKEI
100
AcDbCircle
 10
13.18227975298697
 20
54.04059922022321
 30
0.0
 40
0.2820971676816736
100
AcDbArc
 50
89.64112962142182
 51
177.5469296963012
  0
LINE
  5
B8
330
2
100
AcDbEntity
  8
GAIKEI
100
AcDbLine
 10
12.90044109516617
 20
54.05267328216649
 30
0.0
 11
12.72972030753618
 21
50.48832519158492
 31
0.0
  0
ARC
  5
B9
330
2
100
AcDbEntity
  8
GAIKEI
100
AcDbCircle
 10
13.26808266053746
 20
43.60576459200802
 30
0.0
 40
0.2830695959070551
100
AcDbArc
 50
182.1952253453899
 51
270.2445602097444
  0
LINE
  5
BA
330
2
100
AcDbEntity
  8
GAIKEI
100
AcDbLine
 10
12.9852208060301
 20
43.59492174221651
 30
0.0
 11
12.73242314868338
 21
50.349675146523
 31
0.0
  0
LINE
  5
BB
330
2
100
AcDbEntity
  8
GAIKEI
100
AcDbLine
 10
12.73242314868338
 20
50.349675146523
 30
0.0
 11
12.72972030753618
 21
50.48832519158492
 31
0.0
  0
LINE
  5
BC
330
2
100
AcDbEntity
  8
GAIKEI
 62
     1
100
AcDbLine
 10
12.96269030752654
 20
44.12415618386972
 30
0.0
 11
12.62844920086041
 21
44.12415618386972
 31
0.0
  0
LINE
  5
BD
330
2
100
AcDbEntity
  8
GAIKEI
 62
     1
100
AcDbLine
 10
12.8718276120299
 20
53.53087158228771
 30
0.0
 11
12.62844920086041
 21
53.53087158228771
 31
0.0
  0
LINE
  5
BE
330
2
100
AcDbEntity
  8
GAIKEI
100
AcDbLine
 10
11.68727827368053
 20
42.86868303529383
 30
0.0
 11
11.83407492372447
 21
42.72211865843047
 31
0.0
  0
LINE
  5
BF
330
2
100
AcDbEntity
  8
GAIKEI
100
AcDbLine
 10
11.83407492372447
 20
42.72211865843047
 30
0.0
 11
12.47584572130523
 21
42.72211865843047
 31
0.0
  0
LINE
  5
C0
330
2
100
AcDbEntity
  8
GAIKEI
100
AcDbLine
 10
12.47584572130523
 20
42.72211865843047
 30
0.0
 11
12.62844920086041
 21
42.86868303529383
 31
0.0
  0
LINE
  5
C1
330
2
100
AcDbEntity
  8
GAIKEI
100
AcDbLine
 10
12.62844920086041
 20
42.86868303529383
 30
0.0
 11
12.62844920086041
 21
54.57567041815747
 31
0.0
  0
LINE
  5
C2
330
2
100
AcDbEntity
  8
GAIKEI
100
AcDbLine
 10
12.62844920086041
 20
54.57567041815747
 30
0.0
 11
12.47584572130523
 21
54.72211865843047
 31
0.0
  0
LINE
  5
C3
330
2
100
AcDbEntity
  8
GAIKEI
100
AcDbLine
 10
12.47584572130523
 20
54.72211865843047
 30
0.0
 11
11.83407492372447
 21
54.72211865843047
 31
0.0
  0
LINE
  5
C4
330
2
100
AcDbEntity
  8
GAIKEI
100
AcDbLine
 10
11.83407492372447
 20
54.72211865843047
 30
0.0
 11
11.68727827368053
 21
54.57567041815747
 31
0.0
  0
LINE
  5
C5
330
2
100
AcDbEntity
  8
GAIKEI
100
AcDbLine
 10
11.68727827368053
 20
54.57567041815747
 30
0.0
 11
11.68727827368053
 21
42.86868303529383
 31
0.0
  0
LINE
  5
C6
330
2
100
AcDbEntity
  8
GAIKEI
 62
     1
100
AcDbLine
 10
11.83407492372447
 20
42.72211865843047
 30
0.0
 11
11.83407492372447
 21
54.72211865843047
 31
0.0
  0
LINE
  5
C7
330
2
100
AcDbEntity
  8
GAIKEI
 62
     1
100
AcDbLine
 10
12.47584572130523
 20
54.72211865843047
 30
0.0
 11
12.47584572130523
 21
42.72211865843047
 31
0.0
  0
DIMENSION
  5
C8
330
2
100
AcDbEntity
  8
SUNPO
100
AcDbDimension
  2
*D7
 10
43.26219049909707
 20
61.38346124982001
 30
0.0
 11
27.47473438638883
 21
63.13346124982001
 31
0.0
 70
    33
  1
158
 71
     5
 42
31.57491222541648
  3
STANDARD
100
AcDbAlignedDimension
 13
11.68727827368059
 23
53.38346124982002
 33
0.0
 14
43.26219049909707
 24
53.38346124982002
 34
0.0
1001
ACAD
1000
DSTYLE
1002
{
1070
   287
1070
     3
1070
    40
1040
1.0
1070
   140
1040
2.5
1070
   147
1040
0.5
1070
   172
1070
     1
1070
   279
1070
     0
1070
   288
1070
     0
1002
}
  0
DIMENSION
  5
D5
330
2
100
AcDbEntity
  8
SUNPO
100
AcDbDimension
  2
*D6
 10
-20.18703345199055
 20
62.21081382726083
 30
0.0
 11
-27.38703345199056
 21
63.96081382726084
 31
0.0
 70
    33
  1
72
 71
     5
 42
14.40000000000003
  3
STANDARD
100
AcDbAlignedDimension
 13
-34.58703345199058
 23
54.21081382726083
 33
0.0
 14
-20.18703345199055
 24
54.21081382726083
 34
0.0
1001
ACAD
1000
DSTYLE
1002
{
1070
   287
1070
     3
1070
    40
1040
1.0
1070
   140
1040
2.5
1070
   147
1040
0.5
1070
   172
1070
     1
1070
   279
1070
     0
1070
   288
1070
     0
1002
}
  0
DIMENSION
  5
E2
330
2
100
AcDbEntity
  8
SUNPO
100
AcDbDimension
  2
*D5
 10
-12.18575427896047
 20
56.32211865843066
 30
0.0
 11
-13.93575427896048
 21
49.52211865843054
 31
0.0
 70
    33
  1
68
 71
     5
 42
13.60000000000025
  3
STANDARD
100
AcDbAlignedDimension
 13
-20.18575427896047
 23
42.72211865843042
 33
0.0
 14
-20.18575427896047
 24
56.32211865843067
 34
0.0
1001
ACAD
1000
DSTYLE
1002
{
1070
   287
1070
     3
1070
    40
1040
1.0
1070
   140
1040
2.5
1070
   147
1040
0.5
1070
   172
1070
     1
1070
   279
1070
     0
1070
   288
1070
     0
1002
}
  0
ARC
  5
EF
330
2
100
AcDbEntity
  8
GAIKEI
 62
     1
100
AcDbCircle
 10
12.8972312772803
 20
43.36594545614571
 30
0.0
 40
2.369931519041816
100
AcDbArc
 50
321.5847457391188
 51
355.9834787212641
  0
ARC
  5
F0
330
2
100
AcDbEntity
  8
GAIKEI
 62
     1
100
AcDbCircle
 10
13.4126553310939
 20
41.87763377075066
 30
0.0
 40
0.6000000000000001
100
AcDbArc
 50
269.3516388716008
 51
284.5463898625407
  0
ARC
  5
F1
330
2
100
AcDbEntity
  8
GAIKEI
 62
     1
100
AcDbCircle
 10
13.46089097308231
 20
41.47740449343916
 30
0.0
 40
0.2
100
AcDbArc
 50
270.0947854589403
 51
283.5136419304397
  0
ARC
  5
F2
330
2
100
AcDbEntity
  8
GAIKEI
 62
     1
100
AcDbCircle
 10
12.76294539887971
 20
44.38151072554501
 30
0.0
 40
3.186797788921293
100
AcDbArc
 50
284.5463898625407
 51
308.6694082778322
  0
ARC
  5
F3
330
2
100
AcDbEntity
  8
GAIKEI
 62
     1
100
AcDbCircle
 10
13.45416126752303
 20
45.54536363470373
 30
0.0
 40
4.267964707803542
100
AcDbArc
 50
247.0260164700246
 51
269.3516388716
  0
ARC
  5
F4
330
2
100
AcDbEntity
  8
GAIKEI
 62
     1
100
AcDbCircle
 10
12.89449597986169
 20
44.32990008479322
 30
0.0
 40
2.930749258345333
100
AcDbArc
 50
213.7953396881572
 51
247.8248990174067
  0
ARC
  5
F5
330
2
100
AcDbEntity
  8
GAIKEI
 62
     1
100
AcDbCircle
 10
11.03552335809269
 20
43.6727304698004
 30
0.0
 40
3.67990481644754
100
AcDbArc
 50
340.8306877586963
 51
352.5180308885632
  0
ARC
  5
F6
330
2
100
AcDbEntity
  8
GAIKEI
 62
     1
100
AcDbCircle
 10
13.7878230991422
 20
42.72170835689593
 30
0.0
 40
0.7679545729255848
100
AcDbArc
 50
302.9343010738663
 51
340.4235380376083
  0
ARC
  5
F7
330
2
100
AcDbEntity
  8
GAIKEI
 62
     1
100
AcDbCircle
 10
13.44751392073067
 20
43.79035964465162
 30
0.0
 40
1.873320197139809
100
AcDbArc
 50
271.135638356104
 51
293.862152822382
  0
ARC
  5
F8
330
2
100
AcDbEntity
  8
GAIKEI
 62
     1
100
AcDbCircle
 10
13.39062485646792
 20
45.15472957664087
 30
0.0
 40
3.238687081985544
100
AcDbArc
 50
229.2715149205769
 51
271.6634935659495
  0
ARC
  5
F9
330
2
100
AcDbEntity
  8
GAIKEI
 62
     7
100
AcDbCircle
 10
5.743279250089756
 20
54.60090629655127
 30
0.0
 40
0.1
100
AcDbArc
 50
0.0
 51
90.0
  0
ARC
  5
FA
330
2
100
AcDbEntity
  8
GAIKEI
 62
     7
100
AcDbCircle
 10
6.043481119721491
 20
54.60090629655127
 30
0.0
 40
0.1
100
AcDbArc
 50
90.0
 51
180.0
  0
ARC
  5
FB
330
2
100
AcDbEntity
  8
GAIKEI
 62
     7
100
AcDbCircle
 10
5.743279250089699
 20
42.80110471989536
 30
0.0
 40
0.1
100
AcDbArc
 50
270.0
 51
0.0
  0
ARC
  5
FC
330
2
100
AcDbEntity
  8
GAIKEI
 62
     7
100
AcDbCircle
 10
6.043481119721491
 20
42.80110471138385
 30
0.0
 40
0.1
100
AcDbArc
 50
180.0
 51
270.0024415468309
  0
ARC
  5
FD
330
2
100
AcDbEntity
  8
GAIKEI
 62
     1
100
AcDbCircle
 10
12.21318649443265
 20
48.70169025904084
 30
0.0
 40
12.72600783559439
100
AcDbArc
 50
165.6170925315042
 51
194.3829074684957
  0
LINE
  5
FE
330
2
100
AcDbEntity
  8
GAIKEI
 62
     1
100
AcDbLine
 10
-0.112356238042139
 20
42.9913249413915
 30
0.0
 11
0.1320998038158336
 21
42.99109669111902
 31
0.0
  0
LINE
  5
FF
330
2
100
AcDbEntity
  8
GAIKEI
 62
     1
100
AcDbLine
 10
-0.112812738587138
 20
54.41068607505508
 30
0.0
 11
-0.112356238042139
 21
42.9913249413915
 31
0.0
  0
LINE
  5
100
330
2
100
AcDbEntity
  8
GAIKEI
 62
     1
100
AcDbLine
 10
0.1316433032708346
 20
54.41068607505508
 30
0.0
 11
-0.112812738587138
 21
54.41068607505508
 31
0.0
  0
LINE
  5
101
330
2
100
AcDbEntity
  8
GAIKEI
 62
     7
100
AcDbLine
 10
0.1320998038158336
 20
42.84147863748882
 30
0.0
 11
0.1320998038158336
 21
54.56133125491152
 31
0.0
  0
LINE
  5
102
330
2
100
AcDbEntity
  8
GAIKEI
 62
     7
100
AcDbLine
 10
0.1320998038158336
 20
42.84147863748882
 30
0.0
 11
0.2722454711368414
 21
42.70110471989534
 31
0.0
  0
LINE
  5
103
330
2
100
AcDbEntity
  8
GAIKEI
 62
     7
100
AcDbLine
 10
0.2720172208643135
 20
54.70090629655129
 30
0.0
 11
0.1320998038158336
 21
54.56098887950275
 31
0.0
  0
LINE
  5
104
330
2
100
AcDbEntity
  8
GAIKEI
 62
     7
100
AcDbLine
 10
5.743279250089756
 20
54.70090629655129
 30
0.0
 11
0.2720172208643135
 21
54.70090629655129
 31
0.0
  0
LINE
  5
105
330
2
100
AcDbEntity
  8
GAIKEI
 62
     1
100
AcDbLine
 10
5.84350750036225
 20
42.90093783347765
 30
0.0
 11
5.943709369994053
 21
42.90093783347765
 31
0.0
  0
LINE
  5
106
330
2
100
AcDbEntity
  8
GAIKEI
 62
     7
100
AcDbLine
 10
5.843279250089722
 20
42.80110471989536
 30
0.0
 11
5.843279250089722
 21
54.60090629655127
 31
0.0
  0
LINE
  5
107
330
2
100
AcDbEntity
  8
GAIKEI
 62
     7
100
AcDbLine
 10
5.943481119721525
 20
54.60090629655127
 30
0.0
 11
5.943481119721525
 21
42.80110471138385
 31
0.0
  0
LINE
  5
108
330
2
100
AcDbEntity
  8
GAIKEI
 62
     1
100
AcDbLine
 10
5.843050999817251
 20
54.50073080756016
 30
0.0
 11
5.943024619176526
 21
54.50073080756016
 31
0.0
  0
LINE
  5
109
330
2
100
AcDbEntity
  8
GAIKEI
 62
     7
100
AcDbLine
 10
9.427493279310624
 20
54.70090629655129
 30
0.0
 11
6.043481119721491
 21
54.70090629655129
 31
0.0
  0
LINE
  5
10A
330
2
100
AcDbEntity
  8
GAIKEI
 62
     1
100
AcDbLine
 10
10.42882722481096
 20
55.46075145373624
 30
0.0
 11
9.427265029038096
 21
55.46075145373624
 31
0.0
  0
LINE
  5
10B
330
2
100
AcDbEntity
  8
GAIKEI
 62
     1
100
AcDbLine
 10
10.42882722481096
 20
55.46075145373624
 30
0.0
 11
10.42928372535596
 21
54.70090629655129
 31
0.0
  0
LINE
  5
10C
330
2
100
AcDbEntity
  8
GAIKEI
 62
     1
100
AcDbLine
 10
10.32839710490663
 20
55.56072507309551
 30
0.0
 11
10.42882722481096
 21
55.46075145373624
 31
0.0
  0
LINE
  5
10D
330
2
100
AcDbEntity
  8
GAIKEI
 62
     1
100
AcDbLine
 10
9.527010398124843
 20
55.56072507309551
 30
0.0
 11
10.32839710490663
 21
55.56072507309551
 31
0.0
  0
LINE
  5
10E
330
2
100
AcDbEntity
  8
GAIKEI
 62
     1
100
AcDbLine
 10
9.427721529583095
 20
55.46075145373624
 30
0.0
 11
9.527010398124843
 21
55.56072507309551
 31
0.0
  0
LINE
  5
10F
330
2
100
AcDbEntity
  8
GAIKEI
 62
     1
100
AcDbLine
 10
9.427949779855623
 20
54.70067804627871
 30
0.0
 11
9.427721529583095
 21
55.46075145373624
 31
0.0
  0
LINE
  5
110
330
2
100
AcDbEntity
  8
GAIKEI
 62
     7
100
AcDbLine
 10
11.40071688515752
 20
54.70090629655129
 30
0.0
 11
11.50091875478932
 21
54.60093267719196
 31
0.0
  0
LINE
  5
111
330
2
100
AcDbEntity
  8
GAIKEI
 62
     7
100
AcDbLine
 10
10.42700122263085
 20
54.70090629655124
 30
0.0
 11
11.40071688515752
 21
54.70090629655129
 31
0.0
  0
ARC
  5
112
330
2
100
AcDbEntity
  8
GAIKEI
 62
     1
100
AcDbCircle
 10
9.929415628559524
 20
60.70538588567211
 30
0.0
 40
6.025250472002262
100
AcDbArc
 50
265.2411458236266
 51
274.7588541763743
  0
LINE
  5
113
330
2
100
AcDbEntity
  8
GAIKEI
 62
     7
100
AcDbLine
 10
5.743279250089699
 20
42.70110471989534
 30
0.0
 11
0.2722454711368414
 21
42.70110471989534
 31
0.0
  0
LINE
  5
114
330
2
100
AcDbEntity
  8
GAIKEI
 62
     7
100
AcDbLine
 10
11.40003213433999
 20
42.70133297016786
 30
0.0
 11
6.043485381024595
 21
42.70110471147467
 31
0.0
  0
LINE
  5
115
330
2
100
AcDbEntity
  8
GAIKEI
 62
     1
100
AcDbLine
 10
11.50137525533432
 20
51.70101296495539
 30
0.0
 11
11.58149110098526
 21
51.70101296495539
 31
0.0
  0
LINE
  5
116
330
2
100
AcDbEntity
  8
GAIKEI
 62
     1
100
AcDbLine
 10
11.50160350560685
 20
45.70099805149124
 30
0.0
 11
11.58171935125779
 21
45.70099805149124
 31
0.0
  0
LINE
  5
117
330
2
100
AcDbEntity
  8
GAIKEI
 62
     1
100
AcDbLine
 10
11.58149110098526
 20
45.20375483282868
 30
0.0
 11
11.68283422197959
 21
45.09898795774671
 31
0.0
  0
LINE
  5
118
330
2
100
AcDbEntity
  8
GAIKEI
 62
     1
100
AcDbLine
 10
11.58126285071273
 20
52.19916918470795
 30
0.0
 11
11.58149110098526
 21
45.20375483282868
 31
0.0
  0
LINE
  5
119
330
2
100
AcDbEntity
  8
GAIKEI
 62
     1
100
AcDbLine
 10
11.68717097715728
 20
52.30302305869992
 30
0.0
 11
11.58126285071273
 21
52.19916918470795
 31
0.0
  0
LINE
  5
11A
330
2
100
AcDbEntity
  8
GAIKEI
 62
     7
100
AcDbLine
 10
11.50137525533432
 20
42.80119246439091
 30
0.0
 11
11.50137525533432
 21
54.60093267719196
 31
0.0
  0
LINE
  5
11B
330
2
100
AcDbEntity
  8
GAIKEI
 62
     7
100
AcDbLine
 10
11.50137525533432
 20
42.80119246439091
 30
0.0
 11
11.40003213433999
 21
42.70133297016786
 31
0.0
  0
ARC
  5
11C
330
2
100
AcDbEntity
  8
GAIKEI
 62
     1
100
AcDbCircle
 10
-34.56580263668502
 20
53.10142365602382
 30
0.0
 40
2.401468361437256
100
AcDbArc
 50
299.3478576038088
 51
328.5600060206347
  0
ARC
  5
11D
330
2
100
AcDbEntity
  8
GAIKEI
 62
     1
100
AcDbCircle
 10
-33.06578372947376
 20
50.0860345379051
 30
0.0
 40
0.9772094395608926
100
AcDbArc
 50
109.2890381411856
 51
159.4267324878403
  0
ARC
  5
11E
330
2
100
AcDbEntity
  8
GAIKEI
 62
     1
100
AcDbCircle
 10
-28.08269116819616
 20
48.8078201166552
 30
0.0
 40
6.116843815308292
100
AcDbArc
 50
164.6267623309228
 51
180.8027820665438
  0
ARC
  5
11F
330
2
100
AcDbEntity
  8
GAIKEI
 62
     1
100
AcDbCircle
 10
-28.08269116819616
 20
48.63641720020564
 30
0.0
 40
6.116843815308292
100
AcDbArc
 50
179.1972179334562
 51
195.3732376690771
  0
ARC
  5
120
330
2
100
AcDbEntity
  8
GAIKEI
 62
     1
100
AcDbCircle
 10
-33.06578372947376
 20
47.35820277895572
 30
0.0
 40
0.9772094395608926
100
AcDbArc
 50
200.5732675121596
 51
250.7109618588143
  0
ARC
  5
121
330
2
100
AcDbEntity
  8
GAIKEI
 62
     1
100
AcDbCircle
 10
-34.56580263668502
 20
44.34281366083701
 30
0.0
 40
2.401468361437256
100
AcDbArc
 50
31.43999397936525
 51
60.65214239619119
  0
LINE
  5
122
330
2
100
AcDbEntity
  8
GAIKEI
 62
     1
100
AcDbLine
 10
-34.76014494230543
 20
49.54210776242177
 30
0.0
 11
-34.56248020631199
 21
49.54210776242177
 31
0.0
  0
LINE
  5
123
330
2
100
AcDbEntity
  8
GAIKEI
 62
     1
100
AcDbLine
 10
-35.8021074363125
 20
49.62210948293637
 30
0.0
 11
-34.76014494230543
 21
49.54210776242177
 31
0.0
  0
LINE
  5
124
330
2
100
AcDbEntity
  8
GAIKEI
 62
     1
100
AcDbLine
 10
-35.90230930594436
 20
49.42204811908164
 30
0.0
 11
-35.8021074363125
 21
49.62210948293637
 31
0.0
  0
LINE
  5
125
330
2
100
AcDbEntity
  8
GAIKEI
 62
     1
100
AcDbLine
 10
-35.90208105567177
 20
48.0221891977792
 30
0.0
 11
-35.90230930594436
 21
49.42204811908164
 31
0.0
  0
LINE
  5
126
330
2
100
AcDbEntity
  8
GAIKEI
 62
     1
100
AcDbLine
 10
-35.80187918604003
 20
47.82235608419694
 30
0.0
 11
-35.90208105567177
 21
48.0221891977792
 31
0.0
  0
LINE
  5
127
330
2
100
AcDbEntity
  8
GAIKEI
 62
     1
100
AcDbLine
 10
-35.32723274435597
 20
47.85876200266227
 30
0.0
 11
-35.80187918604003
 21
47.82235608419694
 31
0.0
  0
LINE
  5
128
330
2
100
AcDbEntity
  8
GAIKEI
 62
     1
100
AcDbLine
 10
-34.46421846399653
 20
47.90201542930287
 30
0.0
 11
-34.75991669203296
 21
47.90201542930287
 31
0.0
  0
ARC
  5
129
330
2
100
AcDbEntity
  8
GAIKEI
 62
     1
100
AcDbCircle
 10
-35.27947312522042
 20
48.67316296111664
 30
0.0
 40
0.3867097961640633
100
AcDbArc
 50
55.95652409332108
 51
73.12090646269559
  0
ARC
  5
12A
330
2
100
AcDbEntity
  8
GAIKEI
 62
     1
100
AcDbCircle
 10
-35.25657375483485
 20
48.71605364160166
 30
0.0
 40
0.339149906241994
100
AcDbArc
 50
74.71918182114028
 51
127.2733803197632
  0
ARC
  5
12B
330
2
100
AcDbEntity
  8
GAIKEI
 62
     1
100
AcDbCircle
 10
-35.31222954247852
 20
48.62083272783184
 30
0.0
 40
0.4484142354393475
100
AcDbArc
 50
6.269933887313833
 51
56.23165017706096
  0
ARC
  5
12C
330
2
100
AcDbEntity
  8
GAIKEI
 62
     1
100
AcDbCircle
 10
-35.30470681275228
 20
48.72982497794453
 30
0.0
 40
0.3005382608234688
100
AcDbArc
 50
121.5518155483415
 51
191.2954066611444
  0
ARC
  5
12D
330
2
100
AcDbEntity
  8
GAIKEI
 62
     1
100
AcDbCircle
 10
-34.11642062840417
 20
49.00866389700434
 30
0.0
 40
1.520967678736626
100
AcDbArc
 50
192.8284530999149
 51
205.0307597396456
  0
ARC
  5
12E
330
2
100
AcDbEntity
  8
GAIKEI
 62
     1
100
AcDbCircle
 10
161.411387181554
 20
66.62820752429377
 30
0.0
 40
197.097722571439
100
AcDbArc
 50
185.2277097079482
 51
185.3876267983931
  0
ARC
  5
12F
330
2
100
AcDbEntity
  8
GAIKEI
 62
     1
100
AcDbCircle
 10
-38.9547380770228
 20
46.94209000975774
 30
0.0
 40
3.741393736848869
100
AcDbArc
 50
7.311646064214725
 51
22.35546539414999
  0
ARC
  5
130
330
2
100
AcDbEntity
  8
GAIKEI
 62
     1
100
AcDbCircle
 10
-41.62227487064768
 20
46.79012584143594
 30
0.0
 40
6.935755793599163
100
AcDbArc
 50
357.4722697854818
 51
11.07169450218917
  0
ARC
  5
131
330
2
100
AcDbEntity
  8
GAIKEI
 62
     1
100
AcDbCircle
 10
-47.66134065095667
 20
48.55038216822027
 30
0.0
 40
13.13163609361909
100
AcDbArc
 50
342.3438552014918
 51
350.9474144936012
  0
ARC
  5
132
330
2
100
AcDbEntity
  8
GAIKEI
 62
     1
100
AcDbCircle
 10
-40.51628525360718
 20
46.9901801057606
 30
0.0
 40
5.289866279728117
100
AcDbArc
 50
337.0010435539486
 51
4.641525002527131
  0
ARC
  5
133
330
2
100
AcDbEntity
  8
GAIKEI
 62
     1
100
AcDbCircle
 10
-32.31690898672002
 20
43.68606251600795
 30
0.0
 40
2.965405907944611
100
AcDbArc
 50
162.7079433418092
 51
206.3458598040001
  0
ARC
  5
134
330
2
100
AcDbEntity
  8
GAIKEI
 62
     1
100
AcDbCircle
 10
-32.09309838525292
 20
43.70133395308585
 30
0.0
 40
3.758036395579824
100
AcDbArc
 50
161.0238234083635
 51
205.6476448765367
  0
ARC
  5
135
330
2
100
AcDbEntity
  8
GAIKEI
 62
     1
100
AcDbCircle
 10
-34.9628231691492
 20
44.04149629681239
 30
0.0
 40
2.445037191292616
100
AcDbArc
 50
285.6850025869609
 51
299.7743353672879
  0
ARC
  5
136
330
2
100
AcDbEntity
  8
GAIKEI
 62
     1
100
AcDbCircle
 10
-34.77277612442288
 20
42.90081043760483
 30
0.0
 40
1.301505085574555
100
AcDbArc
 50
262.7713247151378
 51
291.2145792808875
  0
ARC
  5
137
330
2
100
AcDbEntity
  8
GAIKEI
 62
     1
100
AcDbCircle
 10
-34.72557858385898
 20
42.40763914078286
 30
0.0
 40
0.8254049298586728
100
AcDbArc
 50
203.7869951286773
 51
255.191426392111
  0
ARC
  5
138
330
2
100
AcDbEntity
  8
GAIKEI
 62
     1
100
AcDbCircle
 10
-34.59463578871714
 20
42.56395415833106
 30
0.0
 40
0.4263168640670839
100
AcDbArc
 50
207.0544918490419
 51
301.5531323927389
  0
LINE
  5
139
330
2
100
AcDbEntity
  8
GAIKEI
 62
     1
100
AcDbLine
 10
-32.60489174413198
 20
43.96606773014446
 30
0.0
 11
-32.15147257779137
 21
43.51356156489385
 31
0.0
  0
LINE
  5
13A
330
2
100
AcDbEntity
  8
GAIKEI
 62
     1
100
AcDbLine
 10
-31.97720349473013
 20
43.68771652281873
 30
0.0
 11
-33.74865385967843
 21
41.91946166168565
 31
0.0
  0
LINE
  5
13B
330
2
100
AcDbEntity
  8
GAIKEI
 62
     1
100
AcDbLine
 10
-32.4306226610708
 20
44.14010856293316
 30
0.0
 11
-34.37154885335758
 21
42.20066599741767
 31
0.0
  0
LINE
  5
13C
330
2
100
AcDbEntity
  8
GAIKEI
 62
     1
100
AcDbLine
 10
-32.62874389760924
 20
44.33811567433531
 30
0.0
 11
-32.1707591753235
 21
45.10052119268095
 31
0.0
  0
LINE
  5
13D
330
2
100
AcDbEntity
  8
GAIKEI
 62
     1
100
AcDbLine
 10
-31.77931050846416
 20
43.48948116114399
 30
0.0
 11
-32.62874389760924
 21
44.33811567433531
 31
0.0
  0
LINE
  5
13E
330
2
100
AcDbEntity
  8
GAIKEI
 62
     1
100
AcDbLine
 10
-31.0180048618821
 20
43.945504102016
 30
0.0
 11
-31.77931050846416
 21
43.48948116114399
 31
0.0
  0
LINE
  5
13F
330
2
100
AcDbEntity
  8
GAIKEI
 62
     1
100
AcDbLine
 10
-27.78801211822218
 20
55.58126759762138
 30
0.0
 11
-26.98662541144035
 21
55.58126759762138
 31
0.0
  0
LINE
  5
140
330
2
100
AcDbEntity
  8
GAIKEI
 62
     1
100
AcDbLine
 10
-26.88665179208107
 20
55.48186460394333
 30
0.0
 11
-26.98662541144035
 21
55.58126759762138
 31
0.0
  0
LINE
  5
141
330
2
100
AcDbEntity
  8
GAIKEI
 62
     1
100
AcDbLine
 10
-27.88821398785393
 20
55.48232110448839
 30
0.0
 11
-27.78801211822218
 21
55.58126759762138
 31
0.0
  0
LINE
  5
142
330
2
100
AcDbEntity
  8
GAIKEI
 62
     1
100
AcDbLine
 10
-26.88665179208107
 20
55.48186460394333
 30
0.0
 11
-26.88619529153607
 21
54.70090629655124
 31
0.0
  0
LINE
  5
143
330
2
100
AcDbEntity
  8
GAIKEI
 62
     1
100
AcDbLine
 10
-27.88821398785393
 20
55.48232110448839
 30
0.0
 11
-26.88665179208107
 21
55.48186460394333
 31
0.0
  0
LINE
  5
144
330
2
100
AcDbEntity
  8
GAIKEI
 62
     1
100
AcDbLine
 10
-27.88821398785393
 20
54.70136279709629
 30
0.0
 11
-27.88821398785393
 21
55.48232110448839
 31
0.0
  0
CIRCLE
  5
145
330
2
100
AcDbEntity
  8
GAIKEI
 62
     1
100
AcDbCircle
 10
-27.38703345199059
 20
48.72211865843041
 30
0.0
 40
5.720114280086622
  0
CIRCLE
  5
146
330
2
100
AcDbEntity
  8
GAIKEI
 62
     7
100
AcDbCircle
 10
-27.38703345199059
 20
48.72211865843041
 30
0.0
 40
6.0
  0
CIRCLE
  5
147
330
2
100
AcDbEntity
  8
GAIKEI
 62
     1
100
AcDbCircle
 10
-27.38703345199059
 20
48.72211865843041
 30
0.0
 40
4.85850183558124
  0
CIRCLE
  5
148
330
2
100
AcDbEntity
  8
GAIKEI
 62
     1
100
AcDbCircle
 10
-27.38703345199059
 20
48.72211865843041
 30
0.0
 40
4.006990596477064
  0
TEXT
  5
149
330
2
100
AcDbEntity
  8
TOUROKU
100
AcDbText
 10
44.62905993849395
 20
68.02843935397288
 30
0.0
 40
2.0
  1
ＤＧＮＰ３０４Ｖ
 72
     2
 11
63.16239327182728
 21
68.02843935397288
 31
0.0
100
AcDbText
  0
TEXT
  5
14B
330
2
100
AcDbEntity
  8
MOJI1
100
AcDbText
 10
-19.33755676110104
 20
6.028439353973226
 30
0.0
 40
3.0
  1
カラー：１．５ルクス、簡易白黒：０．９ルクス（Ｆ１．４)
 41
0.8199999999999999
100
AcDbText
  0
TEXT
  5
14D
330
2
100
AcDbEntity
  8
MOJI1
100
AcDbText
 10
-59.13197553058262
 20
-3.84302295173984
 30
0.0
 40
3.0
  1
画像解像度
  7
KANJI
100
AcDbText
  0
LINE
  5
14F
330
2
100
AcDbEntity
  8
WAKU
 62
     4
100
AcDbLine
 10
63.16244323889896
 20
30.028439353973
 30
0.0
 11
-61.83755676110104
 21
30.028439353973
 31
0.0
  0
LINE
  5
151
330
2
100
AcDbEntity
  8
WAKU
 62
     4
100
AcDbLine
 10
-61.83755676110104
 20
30.028439353973
 30
0.0
 11
-61.83755676110101
 21
-34.97156064602677
 31
0.0
  0
TEXT
  5
152
330
2
100
AcDbEntity
  8
MOJI1
100
AcDbText
 10
-59.13197553058262
 20
-8.971560646026546
 30
0.0
 40
3.0
  1
画像圧縮方式
100
AcDbText
  0
TEXT
  5
153
330
2
100
AcDbEntity
  8
MOJI1
100
AcDbText
 10
-59.13197553058262
 20
21.15697704826016
 30
0.0
 40
3.0
  1
撮像素子
  7
KANJI
100
AcDbText
  0
TEXT
  5
154
330
2
100
AcDbEntity
  8
MOJI1
100
AcDbText
 10
-59.13197553058262
 20
26.15355830508907
 30
0.0
 40
3.0
  1
電　源
  7
KANJI
100
AcDbText
  0
TEXT
  5
155
330
2
100
AcDbEntity
  8
MOJI1
100
AcDbText
 10
-19.13197553058262
 20
21.18429174885591
 30
0.0
 40
3.0
  1
１／３型　インターライン転送方式ＣＣＤ
  7
KANJI
100
AcDbText
  0
LINE
  5
156
330
2
100
AcDbEntity
  8
WAKU
 62
     4
100
AcDbLine
 10
-21.63197553058259
 20
-34.97156064602677
 30
0.0
 11
-21.63197553058262
 21
30.028439353973
 31
0.0
  0
TEXT
  5
157
330
2
100
AcDbEntity
  8
MOJI1
100
AcDbText
 10
-19.13197553058262
 20
-3.815708251144087
 30
0.0
 40
3.0
  1
１２８０×９６０／ＶＧＡ（６４０×４８０）／ＱＶＧＡ（３２０×２４０）
 41
0.65
  7
KANJI
100
AcDbText
  0
LINE
  5
158
330
2
100
AcDbEntity
  8
WAKU
 62
     4
100
AcDbLine
 10
63.16244323889896
 20
-34.97156064602677
 30
0.0
 11
63.16244323889896
 21
30.028439353973
 31
0.0
  0
LINE
  5
159
330
2
100
AcDbEntity
  8
WAKU
 62
     1
100
AcDbLine
 10
-61.83755676110104
 20
25.02843935397323
 30
0.0
 11
63.16244323889896
 21
25.02843935397323
 31
0.0
  0
LINE
  5
15A
330
2
100
AcDbEntity
  8
WAKU
 62
     1
100
AcDbLine
 10
-61.83755676110104
 20
20.02843935397323
 30
0.0
 11
63.16244323889896
 21
20.02843935397323
 31
0.0
  0
LINE
  5
15B
330
2
100
AcDbEntity
  8
WAKU
 62
     1
100
AcDbLine
 10
-61.83755676110104
 20
15.02843935397322
 30
0.0
 11
63.16244323889896
 21
15.02843935397322
 31
0.0
  0
LINE
  5
15C
330
2
100
AcDbEntity
  8
WAKU
 62
     1
100
AcDbLine
 10
-61.83755676110104
 20
10.02843935397322
 30
0.0
 11
63.16244323889896
 21
10.02843935397322
 31
0.0
  0
LINE
  5
15D
330
2
100
AcDbEntity
  8
WAKU
 62
     1
100
AcDbLine
 10
-61.83755676110104
 20
5.028439353973226
 30
0.0
 11
63.16244323889896
 21
5.028439353973226
 31
0.0
  0
LINE
  5
15E
330
2
100
AcDbEntity
  8
WAKU
 62
     1
100
AcDbLine
 10
-61.83755676110104
 20
0.0284393539732264
 30
0.0
 11
63.16244323889896
 21
0.0284393539732264
 31
0.0
  0
LINE
  5
15F
330
2
100
AcDbEntity
  8
WAKU
 62
     1
100
AcDbLine
 10
-61.83755676110104
 20
-4.971560646026773
 30
0.0
 11
63.16244323889896
 21
-4.971560646026773
 31
0.0
  0
LINE
  5
160
330
2
100
AcDbEntity
  8
WAKU
 62
     1
100
AcDbLine
 10
-61.83755676110104
 20
-9.971560646026773
 30
0.0
 11
63.16244323889896
 21
-9.971560646026773
 31
0.0
  0
LINE
  5
161
330
2
100
AcDbEntity
  8
WAKU
 62
     1
100
AcDbLine
 10
-61.83755676110104
 20
-14.97156064602677
 30
0.0
 11
63.16244323889896
 21
-14.97156064602677
 31
0.0
  0
LINE
  5
162
330
2
100
AcDbEntity
  8
WAKU
 62
     1
100
AcDbLine
 10
-61.83755676110104
 20
-19.97156064602677
 30
0.0
 11
63.16244323889896
 21
-19.97156064602677
 31
0.0
  0
LINE
  5
163
330
2
100
AcDbEntity
  8
WAKU
 62
     1
100
AcDbLine
 10
-61.83755676110104
 20
-24.97156064602677
 30
0.0
 11
63.16244323889896
 21
-24.97156064602677
 31
0.0
  0
TEXT
  5
164
330
2
100
AcDbEntity
  8
MOJI1
100
AcDbText
 10
-19.33755676110104
 20
16.02843935397317
 30
0.0
 40
3.0
  1
１２９６（Ｈ）×９７６（Ｖ）
 41
0.9
100
AcDbText
  0
TEXT
  5
165
330
2
100
AcDbEntity
  8
MOJI1
100
AcDbText
 10
-59.33755676110104
 20
16.02843935397317
 30
0.0
 40
3.0
  1
有効画素数
100
AcDbText
  0
TEXT
  5
166
330
2
100
AcDbEntity
  8
MOJI1
100
AcDbText
 10
-59.33755676110104
 20
11.02843935397317
 30
0.0
 40
3.0
  1
走査方式
100
AcDbText
  0
TEXT
  5
167
330
2
100
AcDbEntity
  8
MOJI1
100
AcDbText
 10
-19.33755676110104
 20
11.02843935397317
 30
0.0
 40
3.0
  1
プログレッシブ
 41
0.9
100
AcDbText
  0
TEXT
  5
168
330
2
100
AcDbEntity
  8
MOJI1
100
AcDbText
 10
-59.13197553058262
 20
6.160395791431483
 30
0.0
 40
3.0
  1
最低照度
  7
KANJI
100
AcDbText
  0
TEXT
  5
169
330
2
100
AcDbEntity
  8
MOJI1
100
AcDbText
 10
-59.13197553058262
 20
1.160395791431483
 30
0.0
 40
3.0
  1
ネットワーク
  7
KANJI
100
AcDbText
  0
TEXT
  5
16A
330
2
100
AcDbEntity
  8
MOJI1
100
AcDbText
 10
-19.20136115360992
 20
1.091562745931923
 30
0.0
 40
3.0
  1
１０ＢＡＳＥ－Ｔ／１００ＢＡＳＥ－ＴＸ　ＲＪ－４５コネクタ
 41
0.7700000000000001
  7
KANJI
100
AcDbText
  0
TEXT
  5
16B
330
2
100
AcDbEntity
  8
MOJI1
100
AcDbText
 10
-59.13197553058262
 20
-13.83960420856851
 30
0.0
 40
3.0
  1
対応プロトコル
  7
KANJI
100
AcDbText
  0
TEXT
  5
16C
330
2
100
AcDbEntity
  8
MOJI1
100
AcDbText
 10
-19.20136115360992
 20
-13.90843725406807
 30
0.0
 40
3.0
  1
ＩＰｖ４／ＩＰｖ６
  7
KANJI
100
AcDbText
  0
TEXT
  5
16D
330
2
100
AcDbEntity
  8
MOJI1
100
AcDbText
 10
-19.20136115360992
 20
-18.90843725406807
 30
0.0
 40
3.0
  1
１６（条件による）
  7
KANJI
100
AcDbText
  0
TEXT
  5
16E
330
2
100
AcDbEntity
  8
MOJI1
100
AcDbText
 10
-59.13197553058262
 20
-18.83960420856851
 30
0.0
 40
3.0
  1
最大接続数
  7
KANJI
100
AcDbText
  0
TEXT
  5
16F
330
2
100
AcDbEntity
  8
MOJI1
100
AcDbText
 10
-59.13197553058262
 20
-23.83960420856852
 30
0.0
 40
3.0
  1
機　能
  7
KANJI
100
AcDbText
  0
TEXT
  5
170
330
2
100
AcDbEntity
  8
MOJI1
100
AcDbText
 10
-19.20136115360992
 20
-23.90843725406808
 30
0.0
 40
3.0
  1
ＳＤメモリーカードスロット、暗部補正ＯＮ／ＯＦＦ
 41
0.9
  7
KANJI
100
AcDbText
  0
TEXT
  5
171
330
2
100
AcDbEntity
  8
MOJI1
100
AcDbText
 10
-19.20136115360992
 20
-28.90843725406808
 30
0.0
 40
3.0
  1
簡易白黒切換、ＡＵＴＯ／ＯＦＦ、ＶＭＤ ＯＮ／ＯＦＦ
 41
0.88
  7
KANJI
100
AcDbText
  0
LINE
  5
172
330
2
100
AcDbEntity
  8
WAKU
 62
     1
100
AcDbLine
 10
-61.83755676110104
 20
-29.97156064602677
 30
0.0
 11
63.16244323889896
 21
-29.97156064602677
 31
0.0
  0
LINE
  5
173
330
2
100
AcDbEntity
  8
WAKU
 62
     4
100
AcDbLine
 10
-61.83755676110104
 20
-34.97156064602677
 30
0.0
 11
63.16244323889896
 21
-34.97156064602677
 31
0.0
  0
TEXT
  5
174
330
2
100
AcDbEntity
  8
MOJI1
100
AcDbText
 10
-19.20136115360992
 20
-33.90843725406814
 30
0.0
 40
3.0
  1
ｆ＝２．８～６ｍｍ（２倍バリフォーカル）
  7
KANJI
100
AcDbText
  0
TEXT
  5
175
330
2
100
AcDbEntity
  8
MOJI1
100
AcDbText
 10
-59.13197553058262
 20
-33.83960420856857
 30
0.0
 40
3.0
  1
レンズ部
  7
KANJI
100
AcDbText
  0
TEXT
  5
176
330
2
100
AcDbEntity
  8
MOJI1
100
AcDbText
 10
-19.33755676110104
 20
26.02843935397345
 30
0.0
 40
3.0
  1
ＡＣ２４Ｖ、ＤＣ１２Ｖ、ＰｏＥ（ＩＥＥＥ８０２．３ａｆ準拠）
 41
0.76
100
AcDbText
  0
TEXT
  5
177
330
2
100
AcDbEntity
  8
MOJI1
100
AcDbText
 10
-19.20136115360992
 20
-8.908437254068076
 30
0.0
 40
3.0
  1
ＭＰＥＧ－４（３種類）／ＪＰＥＧ（４種類１０段階）
 41
0.9
  7
KANJI
100
AcDbText
  0
TEXT
  5
178
330
2
100
AcDbEntity
  8
MOJI1
100
AcDbText
 10
-34.83755676109991
 20
74.02843935397289
 30
0.0
 40
4.0
  1
ネットワークカメラ
100
AcDbText
  0
ENDSEC
  0
SECTION
  2
OBJECTS
  0
DICTIONARY
  5
7
330
0
100
AcDbDictionary
281
     1
  3
ACAD_COLOR
350
2C
  3
ACAD_GROUP
350
28
  3
ACAD_LAYOUT
350
B
  3
ACAD_MATERIAL
350
2B
  3
ACAD_MLINESTYLE
350
29
  3
ACAD_PLOTSETTINGS
350
2A
  3
ACAD_PLOTSTYLENAME
350
6
  3
ACDBHEADERROUNDTRIPXREC
350
1C1
  3
AcDbVariableDictionary
350
1BC
  0
DICTIONARY
  5
11
330
10
100
AcDbDictionary
280
     1
281
     1
  3
ACAD_LAYERSTATES
360
12
  0
DICTIONARY
  5
2C
102
{ACAD_REACTORS
330
7
102
}
330
7
100
AcDbDictionary
281
     1
  0
DICTIONARY
  5
28
102
{ACAD_REACTORS
330
7
102
}
330
7
100
AcDbDictionary
281
     1
  0
DICTIONARY
  5
B
102
{ACAD_REACTORS
330
7
102
}
330
7
100
AcDbDictionary
281
     1
  3
Model
350
A
  3
レイアウト1
350
F
  0
DICTIONARY
  5
2B
102
{ACAD_REACTORS
330
7
102
}
330
7
100
AcDbDictionary
281
     1
  0
DICTIONARY
  5
29
102
{ACAD_REACTORS
330
7
102
}
330
7
100
AcDbDictionary
281
     1
  3
Standard
350
2D
  0
DICTIONARY
  5
2A
102
{ACAD_REACTORS
330
7
102
}
330
7
100
AcDbDictionary
281
     1
  0
ACDBDICTIONARYWDFLT
  5
6
102
{ACAD_REACTORS
330
7
102
}
330
7
100
AcDbDictionary
281
     1
  3
Normal
350
5
100
AcDbDictionaryWithDefault
340
5
  0
DICTIONARY
  5
1C1
102
{ACAD_REACTORS
330
7
102
}
330
7
100
AcDbDictionary
281
     1
  3
COLORDICT
350
1C3
  3
MATERIALDICT
350
1C2
  0
DICTIONARY
  5
1BC
102
{ACAD_REACTORS
330
7
102
}
330
7
100
AcDbDictionary
281
     1
  3
DIMASSOC
350
1BE
  3
HIDETEXT
350
1BD
  3
PROJECTNAME
350
1BF
  0
DICTIONARY
  5
12
102
{ACAD_REACTORS
330
11
102
}
330
11
100
AcDbDictionary
281
     1
  0
LAYOUT
  5
A
102
{ACAD_XDICTIONARY
360
1C4
102
}
102
{ACAD_REACTORS
330
B
102
}
330
B
100
AcDbPlotSettings
  1

  2
Ａ４－縦3FRIM01.pc3
  4
A4
  6

 40
5.873749732971191
 41
5.873747825622558
 42
5.873748779296875
 43
5.873748779296875
 44
209.9733276367187
 45
296.9259948730469
 46
5.419999999999999
 47
0.0
 48
0.0
 49
0.0
140
0.0
141
0.0
142
1.0
143
1.382430990074067
 70
 11956
 72
     1
 73
     0
 74
     1
  7
tmsacad.ctb
 75
     0
147
0.7233634135664325
148
0.0128164608993302
149
0.0120295854767392
100
AcDbLayout
  1
Model
 70
     1
 71
     0
 10
0.0
 20
0.0
 11
12.0
 21
9.0
 12
0.0
 22
0.0
 32
0.0
 14
0.0
 24
0.0
 34
0.0
 15
0.0
 25
0.0
 35
0.0
146
0.0
 13
0.0
 23
0.0
 33
0.0
 16
1.0
 26
0.0
 36
0.0
 17
0.0
 27
1.0
 37
0.0
 76
     0
330
2
  0
LAYOUT
  5
F
102
{ACAD_XDICTIONARY
360
1C6
102
}
102
{ACAD_REACTORS
330
B
102
}
330
B
100
AcDbPlotSettings
  1

  2
None
  4

  6

 40
0.0
 41
0.0
 42
0.0
 43
0.0
 44
0.0
 45
0.0
 46
0.0
 47
0.0
 48
0.0
 49
0.0
140
0.0
141
0.0
142
1.0
143
1.0
 70
   688
 72
     0
 73
     0
 74
     5
  7
tmsacad.ctb
 75
    16
147
1.0
148
0.0
149
0.0
100
AcDbLayout
  1
レイアウト1
 70
     1
 71
     1
 10
0.0
 20
0.0
 11
12.0
 21
9.0
 12
0.0
 22
0.0
 32
0.0
 14
0.0
 24
0.0
 34
0.0
 15
0.0
 25
0.0
 35
0.0
146
0.0
 13
0.0
 23
0.0
 33
0.0
 16
1.0
 26
0.0
 36
0.0
 17
0.0
 27
1.0
 37
0.0
 76
     0
330
C
  0
MLINESTYLE
  5
2D
102
{ACAD_REACTORS
330
29
102
}
330
29
100
AcDbMlineStyle
  2
STANDARD
 70
     0
  3

 62
   256
 51
90.0
 52
90.0
 71
     2
 49
0.5
 62
   256
  6
BYLAYER
 49
-0.5
 62
   256
  6
BYLAYER
  0
ACDBPLACEHOLDER
  5
5
102
{ACAD_REACTORS
330
6
102
}
330
6
  0
XRECORD
  5
1C3
102
{ACAD_REACTORS
330
1C1
102
}
330
1C1
100
AcDbXrecord
280
     1
340
2C
  0
XRECORD
  5
1C2
102
{ACAD_REACTORS
330
1C1
102
}
330
1C1
100
AcDbXrecord
280
     1
340
2B
  0
DICTIONARYVAR
  5
1BE
102
{ACAD_REACTORS
330
1BC
102
}
330
1BC
100
DictionaryVariables
280
     0
  1
1
  0
DICTIONARYVAR
  5
1BD
102
{ACAD_REACTORS
330
1BC
102
}
330
1BC
100
DictionaryVariables
280
     0
  1
1
  0
DICTIONARYVAR
  5
1BF
102
{ACAD_REACTORS
330
1BC
102
}
330
1BC
100
DictionaryVariables
280
     0
  1

  0
DICTIONARY
  5
1C4
330
A
100
AcDbDictionary
280
     1
281
     1
  3
ACAD_XREC_ROUNDTRIP
360
1C5
  0
DICTIONARY
  5
1C6
330
F
100
AcDbDictionary
280
     1
281
     1
  3
ACAD_XREC_ROUNDTRIP
360
1C7
  0
XRECORD
  5
1C5
102
{ACAD_REACTORS
330
1C4
102
}
330
1C4
100
AcDbXrecord
280
     1
102
SHADEPLOT
 70
     0
102
SHADEPLOTRESLEVEL
 70
     2
102
SHADEPLOTCUSTOMDPI
 70
   300
  0
XRECORD
  5
1C7
102
{ACAD_REACTORS
330
1C6
102
}
330
1C6
100
AcDbXrecord
280
     1
102
SHADEPLOT
 70
     0
102
SHADEPLOTRESLEVEL
 70
     2
102
SHADEPLOTCUSTOMDPI
 70
   300
  0
ENDSEC
  0
EOF
