  0
SECTION
  2
HEADER
  9
$ACADVER
  1
AC1015
  9
$ACADMAINTVER
 70
    20
  9
$DWGCODEPAGE
  3
ANSI_932
  9
$INSBASE
 10
0.4999999440410648
 20
246.5008351249344
 30
0.0
  9
$EXTMIN
 10
-59.99816803727083
 20
-39.00572139980011
 30
-0.0015258207003583
  9
$EXTMAX
 10
65.03540095528058
 20
73.76962323436703
 30
0.0000000349246037
  9
$LIMMIN
 10
0.0
 20
0.0
  9
$LIMMAX
 10
420.0
 20
297.0
  9
$ORTHOMODE
 70
     1
  9
$REGENMODE
 70
     0
  9
$FILLMODE
 70
     1
  9
$QTEXTMODE
 70
     0
  9
$MIRRTEXT
 70
     0
  9
$LTSCALE
 40
1.0
  9
$ATTMODE
 70
     1
  9
$TEXTSIZE
 40
2.5
  9
$TRACEWID
 40
1.0
  9
$TEXTSTYLE
  7
Standard
  9
$CLAYER
  8
0
  9
$CELTYPE
  6
ByLayer
  9
$CECOLOR
 62
   256
  9
$CELTSCALE
 40
1.0
  9
$DISPSILH
 70
     0
  9
$DIMSCALE
 40
1.0
  9
$DIMASZ
 40
2.0
  9
$DIMEXO
 40
2.0
  9
$DIMDLI
 40
8.0
  9
$DIMRND
 40
0.0
  9
$DIMDLE
 40
0.0
  9
$DIMEXE
 40
2.0
  9
$DIMTP
 40
0.0
  9
$DIMTM
 40
0.0
  9
$DIMTXT
 40
2.5
  9
$DIMCEN
 40
0.0
  9
$DIMTSZ
 40
0.0
  9
$DIMTOL
 70
     0
  9
$DIMLIM
 70
     0
  9
$DIMTIH
 70
     0
  9
$DIMTOH
 70
     0
  9
$DIMSE1
 70
     0
  9
$DIMSE2
 70
     0
  9
$DIMTAD
 70
     3
  9
$DIMZIN
 70
     0
  9
$DIMBLK
  1

  9
$DIMASO
 70
     1
  9
$DIMSHO
 70
     1
  9
$DIMPOST
  1

  9
$DIMAPOST
  1

  9
$DIMALT
 70
     0
  9
$DIMALTD
 70
     2
  9
$DIMALTF
 40
25.4
  9
$DIMLFAC
 40
1.0
  9
$DIMTOFL
 70
     1
  9
$DIMTVP
 40
0.0
  9
$DIMTIX
 70
     0
  9
$DIMSOXD
 70
     0
  9
$DIMSAH
 70
     1
  9
$DIMBLK1
  1
OPEN30
  9
$DIMBLK2
  1
OPEN30
  9
$DIMSTYLE
  2
STANDARD
  9
$DIMCLRD
 70
     0
  9
$DIMCLRE
 70
     0
  9
$DIMCLRT
 70
     0
  9
$DIMTFAC
 40
1.0
  9
$DIMGAP
 40
0.5
  9
$DIMJUST
 70
     0
  9
$DIMSD1
 70
     0
  9
$DIMSD2
 70
     0
  9
$DIMTOLJ
 70
     1
  9
$DIMTZIN
 70
     0
  9
$DIMALTZ
 70
     0
  9
$DIMALTTZ
 70
     0
  9
$DIMUPT
 70
     0
  9
$DIMDEC
 70
     4
  9
$DIMTDEC
 70
     4
  9
$DIMALTU
 70
     2
  9
$DIMALTTD
 70
     2
  9
$DIMTXSTY
  7
Standard
  9
$DIMAUNIT
 70
     0
  9
$DIMADEC
 70
     0
  9
$DIMALTRND
 40
0.0
  9
$DIMAZIN
 70
     0
  9
$DIMDSEP
 70
    46
  9
$DIMATFIT
 70
     3
  9
$DIMFRAC
 70
     0
  9
$DIMLDRBLK
  1
OPEN30
  9
$DIMLUNIT
 70
     2
  9
$DIMLWD
 70
    -2
  9
$DIMLWE
 70
    -2
  9
$DIMTMOVE
 70
     0
  9
$LUNITS
 70
     2
  9
$LUPREC
 70
     4
  9
$SKETCHINC
 40
1.0
  9
$FILLETRAD
 40
0.0
  9
$AUNITS
 70
     0
  9
$AUPREC
 70
     0
  9
$MENU
  1
.
  9
$ELEVATION
 40
0.0
  9
$PELEVATION
 40
0.0
  9
$THICKNESS
 40
0.0
  9
$LIMCHECK
 70
     0
  9
$CHAMFERA
 40
0.0
  9
$CHAMFERB
 40
0.0
  9
$CHAMFERC
 40
0.0
  9
$CHAMFERD
 40
0.0
  9
$SKPOLY
 70
     0
  9
$TDCREATE
 40
2454349.434269746
  9
$TDUCREATE
 40
2454349.059269746
  9
$TDUPDATE
 40
2454657.407914201
  9
$TDUUPDATE
 40
2454657.032914202
  9
$TDINDWG
 40
0.2270168287
  9
$TDUSRTIMER
 40
0.2270168287
  9
$USRTIMER
 70
     1
  9
$ANGBASE
 50
0.0
  9
$ANGDIR
 70
     0
  9
$PDMODE
 70
     0
  9
$PDSIZE
 40
0.0
  9
$PLINEWID
 40
0.0
  9
$SPLFRAME
 70
     0
  9
$SPLINETYPE
 70
     6
  9
$SPLINESEGS
 70
     8
  9
$HANDSEED
  5
1B0
  9
$SURFTAB1
 70
     6
  9
$SURFTAB2
 70
     6
  9
$SURFTYPE
 70
     6
  9
$SURFU
 70
     6
  9
$SURFV
 70
     6
  9
$UCSBASE
  2

  9
$UCSNAME
  2

  9
$UCSORG
 10
0.0
 20
0.0
 30
0.0
  9
$UCSXDIR
 10
1.0
 20
0.0
 30
0.0
  9
$UCSYDIR
 10
0.0
 20
1.0
 30
0.0
  9
$UCSORTHOREF
  2

  9
$UCSORTHOVIEW
 70
     0
  9
$UCSORGTOP
 10
0.0
 20
0.0
 30
0.0
  9
$UCSORGBOTTOM
 10
0.0
 20
0.0
 30
0.0
  9
$UCSORGLEFT
 10
0.0
 20
0.0
 30
0.0
  9
$UCSORGRIGHT
 10
0.0
 20
0.0
 30
0.0
  9
$UCSORGFRONT
 10
0.0
 20
0.0
 30
0.0
  9
$UCSORGBACK
 10
0.0
 20
0.0
 30
0.0
  9
$PUCSBASE
  2

  9
$PUCSNAME
  2

  9
$PUCSORG
 10
0.0
 20
0.0
 30
0.0
  9
$PUCSXDIR
 10
1.0
 20
0.0
 30
0.0
  9
$PUCSYDIR
 10
0.0
 20
1.0
 30
0.0
  9
$PUCSORTHOREF
  2

  9
$PUCSORTHOVIEW
 70
     0
  9
$PUCSORGTOP
 10
0.0
 20
0.0
 30
0.0
  9
$PUCSORGBOTTOM
 10
0.0
 20
0.0
 30
0.0
  9
$PUCSORGLEFT
 10
0.0
 20
0.0
 30
0.0
  9
$PUCSORGRIGHT
 10
0.0
 20
0.0
 30
0.0
  9
$PUCSORGFRONT
 10
0.0
 20
0.0
 30
0.0
  9
$PUCSORGBACK
 10
0.0
 20
0.0
 30
0.0
  9
$USERI1
 70
     0
  9
$USERI2
 70
     0
  9
$USERI3
 70
     0
  9
$USERI4
 70
     0
  9
$USERI5
 70
     0
  9
$USERR1
 40
0.0
  9
$USERR2
 40
0.0
  9
$USERR3
 40
0.0
  9
$USERR4
 40
0.0
  9
$USERR5
 40
0.0
  9
$WORLDVIEW
 70
     1
  9
$SHADEDGE
 70
     3
  9
$SHADEDIF
 70
    70
  9
$TILEMODE
 70
     1
  9
$MAXACTVP
 70
    64
  9
$PINSBASE
 10
0.0
 20
0.0
 30
0.0
  9
$PLIMCHECK
 70
     0
  9
$PEXTMIN
 10
0.0
 20
0.0
 30
0.0
  9
$PEXTMAX
 10
0.0
 20
0.0
 30
0.0
  9
$PLIMMIN
 10
0.0
 20
0.0
  9
$PLIMMAX
 10
12.0
 20
9.0
  9
$UNITMODE
 70
     0
  9
$VISRETAIN
 70
     1
  9
$PLINEGEN
 70
     0
  9
$PSLTSCALE
 70
     1
  9
$TREEDEPTH
 70
  3020
  9
$CMLSTYLE
  2
Standard
  9
$CMLJUST
 70
     0
  9
$CMLSCALE
 40
20.0
  9
$PROXYGRAPHICS
 70
     1
  9
$MEASUREMENT
 70
     1
  9
$CELWEIGHT
370
    -1
  9
$ENDCAPS
280
     0
  9
$JOINSTYLE
280
     0
  9
$LWDISPLAY
290
     0
  9
$INSUNITS
 70
     4
  9
$HYPERLINKBASE
  1

  9
$STYLESHEET
  1

  9
$XEDIT
290
     1
  9
$CEPSNTYPE
380
     0
  9
$PSTYLEMODE
290
     1
  9
$FINGERPRINTGUID
  2
{FDEAD578-A652-11D2-9A35-0060089B3A3F}
  9
$VERSIONGUID
  2
{0B23681F-1071-456B-97BC-68DE85BFB574}
  9
$EXTNAMES
290
     1
  9
$PSVPSCALE
 40
0.0
  9
$OLESTARTUP
290
     0
  0
ENDSEC
  0
SECTION
  2
CLASSES
  0
CLASS
  1
ACDBDICTIONARYWDFLT
  2
AcDbDictionaryWithDefault
  3
ObjectDBX Classes
 90
        0
280
     0
281
     0
  0
CLASS
  1
ACDBPLACEHOLDER
  2
AcDbPlaceHolder
  3
ObjectDBX Classes
 90
        0
280
     0
281
     0
  0
CLASS
  1
LAYOUT
  2
AcDbLayout
  3
ObjectDBX Classes
 90
        0
280
     0
281
     0
  0
CLASS
  1
DICTIONARYVAR
  2
AcDbDictionaryVar
  3
ObjectDBX Classes
 90
        0
280
     0
281
     0
  0
ENDSEC
  0
SECTION
  2
TABLES
  0
TABLE
  2
VPORT
  5
1B
330
0
100
AcDbSymbolTable
 70
     3
  0
VPORT
  5
1A8
330
1B
100
AcDbSymbolTableRecord
100
AcDbViewportTableRecord
  2
*Active
 70
     0
 10
0.0
 20
0.0
 11
1.0
 21
1.0
 12
2.518616459004864
 22
17.38195091728345
 13
0.0
 23
0.0
 14
10.0
 24
10.0
 15
10.0
 25
10.0
 16
0.0
 26
0.0
 36
1.0
 17
0.0
 27
0.0
 37
0.0
 40
113.7138357129535
 41
1.491666666666666
 42
50.0
 43
0.0
 44
0.0
 50
0.0
 51
0.0
 71
     0
 72
  1000
 73
     1
 74
     2
 75
     0
 76
     0
 77
     0
 78
     0
281
     0
 65
     1
110
0.0
120
0.0
130
0.0
111
1.0
121
0.0
131
0.0
112
0.0
122
1.0
132
0.0
 79
     0
146
0.0
  0
ENDTAB
  0
TABLE
  2
LTYPE
  5
16
330
0
100
AcDbSymbolTable
 70
     1
  0
LTYPE
  5
17
330
16
100
AcDbSymbolTableRecord
100
AcDbLinetypeTableRecord
  2
ByBlock
 70
     0
  3

 72
    65
 73
     0
 40
0.0
  0
LTYPE
  5
18
330
16
100
AcDbSymbolTableRecord
100
AcDbLinetypeTableRecord
  2
ByLayer
 70
     0
  3

 72
    65
 73
     0
 40
0.0
  0
LTYPE
  5
8
330
16
100
AcDbSymbolTableRecord
100
AcDbLinetypeTableRecord
  2
Continuous
 70
     0
  3
Solid line
 72
    65
 73
     0
 40
0.0
  0
ENDTAB
  0
TABLE
  2
LAYER
  5
10
102
{ACAD_XDICTIONARY
360
11
102
}
330
0
100
AcDbSymbolTable
 70
     7
  0
LAYER
  5
4
330
10
100
AcDbSymbolTableRecord
100
AcDbLayerTableRecord
  2
0
 70
     0
 62
     7
  6
Continuous
370
    -3
390
5
  0
LAYER
  5
153
330
10
100
AcDbSymbolTableRecord
100
AcDbLayerTableRecord
  2
WAKU
 70
     0
 62
     4
  6
Continuous
370
    -3
390
5
  0
LAYER
  5
143
330
10
100
AcDbSymbolTableRecord
100
AcDbLayerTableRecord
  2
MOJI1
 70
     0
 62
     2
  6
Continuous
370
    -3
390
5
  0
LAYER
  5
141
330
10
100
AcDbSymbolTableRecord
100
AcDbLayerTableRecord
  2
TOUROKU
 70
     0
 62
     1
  6
Continuous
370
    -3
390
5
  0
LAYER
  5
39
330
10
100
AcDbSymbolTableRecord
100
AcDbLayerTableRecord
  2
DEFPOINTS
 70
     0
 62
     7
  6
Continuous
290
     0
370
    -3
390
5
  0
LAYER
  5
58
330
10
100
AcDbSymbolTableRecord
100
AcDbLayerTableRecord
  2
GAIKEI
 70
     0
 62
     7
  6
Continuous
370
    -3
390
5
  0
LAYER
  5
2F
330
10
100
AcDbSymbolTableRecord
100
AcDbLayerTableRecord
  2
SUNPO
 70
     0
 62
     3
  6
Continuous
370
    -3
390
5
  0
ENDTAB
  0
TABLE
  2
STYLE
  5
13
330
0
100
AcDbSymbolTable
 70
     2
  0
STYLE
  5
14
330
13
100
AcDbSymbolTableRecord
100
AcDbTextStyleTableRecord
  2
Standard
 70
     0
 40
0.0
 41
1.0
 50
0.0
 71
     0
 42
2.5
  3
MONOTXT.shx
  4
BIGFONT.shx
  0
STYLE
  5
144
330
13
100
AcDbSymbolTableRecord
100
AcDbTextStyleTableRecord
  2
KANJI
 70
     0
 40
0.0
 41
1.0
 50
0.0
 71
     0
 42
3.5
  3
MONOTXT
  4
BIGFONT
  0
ENDTAB
  0
TABLE
  2
VIEW
  5
19
330
0
100
AcDbSymbolTable
 70
     0
  0
ENDTAB
  0
TABLE
  2
UCS
  5
1A
330
0
100
AcDbSymbolTable
 70
     0
  0
ENDTAB
  0
TABLE
  2
APPID
  5
1D
330
0
100
AcDbSymbolTable
 70
     1
  0
APPID
  5
1E
330
1D
100
AcDbSymbolTableRecord
100
AcDbRegAppTableRecord
  2
ACAD
 70
     0
  0
ENDTAB
  0
TABLE
  2
DIMSTYLE
  5
1F
330
0
100
AcDbSymbolTable
 70
     1
100
AcDbDimStyleTable
 71
     1
340
20
  0
DIMSTYLE
105
20
102
{ACAD_REACTORS
330
4A
330
3D
330
2E
102
}
330
1F
100
AcDbSymbolTableRecord
100
AcDbDimStyleTableRecord
  2
STANDARD
 70
     0
 40
0.0
 41
2.0
 42
2.0
 43
8.0
 44
2.0
 73
     0
 74
     0
 77
     3
140
3.0
141
0.0
173
     1
279
     2
288
     1
340
14
341
21
343
21
344
21
  0
ENDTAB
  0
TABLE
  2
BLOCK_RECORD
  5
1
330
0
100
AcDbSymbolTable
 70
     7
  0
BLOCK_RECORD
  5
2
330
1
100
AcDbSymbolTableRecord
100
AcDbBlockTableRecord
  2
*Model_Space
340
A
  0
BLOCK_RECORD
  5
C
330
1
100
AcDbSymbolTableRecord
100
AcDbBlockTableRecord
  2
*Paper_Space
340
F
  0
BLOCK_RECORD
  5
21
330
1
100
AcDbSymbolTableRecord
100
AcDbBlockTableRecord
  2
_OPEN30
340
0
102
{BLKREFS
331
50
331
51
331
43
331
44
331
35
331
36
331
184
331
185
331
190
331
191
331
19C
331
19D
102
}
  0
BLOCK_RECORD
  5
4B
330
1
100
AcDbSymbolTableRecord
100
AcDbBlockTableRecord
  2
*D1
340
0
  0
BLOCK_RECORD
  5
3E
330
1
100
AcDbSymbolTableRecord
100
AcDbBlockTableRecord
  2
*D2
340
0
  0
BLOCK_RECORD
  5
30
330
1
100
AcDbSymbolTableRecord
100
AcDbBlockTableRecord
  2
*D3
340
0
  0
BLOCK_RECORD
  5
180
330
1
100
AcDbSymbolTableRecord
100
AcDbBlockTableRecord
  2
*D4
340
0
  0
BLOCK_RECORD
  5
18C
330
1
100
AcDbSymbolTableRecord
100
AcDbBlockTableRecord
  2
*D5
340
0
  0
BLOCK_RECORD
  5
198
330
1
100
AcDbSymbolTableRecord
100
AcDbBlockTableRecord
  2
*D6
340
0
  0
ENDTAB
  0
ENDSEC
  0
SECTION
  2
BLOCKS
  0
BLOCK
  5
3
330
2
100
AcDbEntity
  8
0
100
AcDbBlockBegin
  2
*Model_Space
 70
     0
 10
0.0
 20
0.0
 30
0.0
  3
*Model_Space
  1

  0
ENDBLK
  5
9
330
2
100
AcDbEntity
  8
0
100
AcDbBlockEnd
  0
BLOCK
  5
D
330
C
100
AcDbEntity
 67
     1
  8
0
100
AcDbBlockBegin
  2
*Paper_Space
 70
     0
 10
0.0
 20
0.0
 30
0.0
  3
*Paper_Space
  1

  0
ENDBLK
  5
E
330
C
100
AcDbEntity
 67
     1
  8
0
100
AcDbBlockEnd
  0
BLOCK
  5
22
330
21
100
AcDbEntity
  8
0
100
AcDbBlockBegin
  2
_OPEN30
 70
     0
 10
0.0
 20
0.0
 30
0.0
  3
_OPEN30
  1

  0
LINE
  5
23
330
21
100
AcDbEntity
  8
0
  6
ByBlock
 62
     0
100
AcDbLine
 10
-1.0
 20
0.26794919
 30
0.0
 11
0.0
 21
0.0
 31
0.0
  0
LINE
  5
24
330
21
100
AcDbEntity
  8
0
  6
ByBlock
 62
     0
100
AcDbLine
 10
0.0
 20
0.0
 30
0.0
 11
-1.0
 21
-0.26794919
 31
0.0
  0
LINE
  5
25
330
21
100
AcDbEntity
  8
0
  6
ByBlock
 62
     0
100
AcDbLine
 10
0.0
 20
0.0
 30
0.0
 11
-1.0
 21
0.0
 31
0.0
  0
ENDBLK
  5
26
330
21
100
AcDbEntity
  8
0
100
AcDbBlockEnd
  0
BLOCK
  5
4C
330
4B
100
AcDbEntity
  8
0
100
AcDbBlockBegin
  2
*D1
 70
     1
 10
0.0
 20
0.0
 30
0.0
  3
*D1
  1

  0
LINE
  5
4D
330
4B
100
AcDbEntity
  8
SUNPO
 62
     0
370
    -2
100
AcDbLine
 10
73.14897094315239
 20
219.907464666354
 30
0.0
 11
73.14897094315239
 21
227.907464666354
 31
0.0
  0
LINE
  5
4E
330
4B
100
AcDbEntity
  8
SUNPO
 62
     0
370
    -2
100
AcDbLine
 10
104.7238831685689
 20
219.907464666354
 30
0.0
 11
104.7238831685689
 21
227.907464666354
 31
0.0
  0
LINE
  5
4F
330
4B
100
AcDbEntity
  8
SUNPO
 62
     0
370
    -2
100
AcDbLine
 10
75.14897094315239
 20
225.907464666354
 30
0.0
 11
102.7238831685689
 21
225.907464666354
 31
0.0
  0
INSERT
  5
50
330
4B
100
AcDbEntity
  8
SUNPO
 62
     0
370
    -2
100
AcDbBlockReference
  2
_OPEN30
 10
73.14897094315239
 20
225.907464666354
 30
0.0
 41
2.0
 42
2.0
 43
2.0
 50
180.0
  0
INSERT
  5
51
330
4B
100
AcDbEntity
  8
SUNPO
 62
     0
370
    -2
100
AcDbBlockReference
  2
_OPEN30
 10
104.7238831685689
 20
225.907464666354
 30
0.0
 41
2.0
 42
2.0
 43
2.0
  0
MTEXT
  5
52
330
4B
100
AcDbEntity
  8
SUNPO
 62
     0
100
AcDbMText
 10
88.93642705586064
 20
227.657464666354
 30
0.0
 40
2.5
 41
0.0
 71
     5
 72
     1
  1
\A1;158
 73
     1
 44
1.0
1001
ACAD
1000
MTEXTBEGIN
1070
    73
1070
     1
1070
    44
1040
1.0
1070
    74
1070
     0
1000
MTEXTEND
  0
POINT
  5
53
330
4B
100
AcDbEntity
  8
DEFPOINTS
 62
     0
100
AcDbPoint
 10
73.14897094315239
 20
217.907464666354
 30
0.0
  0
POINT
  5
54
330
4B
100
AcDbEntity
  8
DEFPOINTS
 62
     0
100
AcDbPoint
 10
104.7238831685689
 20
217.907464666354
 30
0.0
  0
POINT
  5
55
330
4B
100
AcDbEntity
  8
DEFPOINTS
 62
     0
100
AcDbPoint
 10
104.7238831685689
 20
225.907464666354
 30
0.0
  0
ENDBLK
  5
56
330
4B
100
AcDbEntity
  8
0
100
AcDbBlockEnd
  0
BLOCK
  5
3F
330
3E
100
AcDbEntity
  8
0
100
AcDbBlockBegin
  2
*D2
 70
     1
 10
0.0
 20
0.0
 30
0.0
  3
*D2
  1

  0
LINE
  5
40
330
3E
100
AcDbEntity
  8
SUNPO
 62
     0
370
    -2
100
AcDbLine
 10
33.17624981718825
 20
220.734817243795
 30
0.0
 11
33.17624981718825
 21
228.734817243795
 31
0.0
  0
LINE
  5
41
330
3E
100
AcDbEntity
  8
SUNPO
 62
     0
370
    -2
100
AcDbLine
 10
47.57624981718822
 20
220.734817243795
 30
0.0
 11
47.57624981718822
 21
228.734817243795
 31
0.0
  0
LINE
  5
42
330
3E
100
AcDbEntity
  8
SUNPO
 62
     0
370
    -2
100
AcDbLine
 10
35.17624981718825
 20
226.734817243795
 30
0.0
 11
45.57624981718823
 21
226.734817243795
 31
0.0
  0
INSERT
  5
43
330
3E
100
AcDbEntity
  8
SUNPO
 62
     0
370
    -2
100
AcDbBlockReference
  2
_OPEN30
 10
33.17624981718825
 20
226.734817243795
 30
0.0
 41
2.0
 42
2.0
 43
2.0
 50
180.0
  0
INSERT
  5
44
330
3E
100
AcDbEntity
  8
SUNPO
 62
     0
370
    -2
100
AcDbBlockReference
  2
_OPEN30
 10
47.57624981718822
 20
226.734817243795
 30
0.0
 41
2.0
 42
2.0
 43
2.0
  0
MTEXT
  5
45
330
3E
100
AcDbEntity
  8
SUNPO
 62
     0
100
AcDbMText
 10
40.37624981718823
 20
228.484817243795
 30
0.0
 40
2.5
 41
0.0
 71
     5
 72
     1
  1
\A1;72
 73
     1
 44
1.0
1001
ACAD
1000
MTEXTBEGIN
1070
    73
1070
     1
1070
    44
1040
1.0
1070
    74
1070
     0
1000
MTEXTEND
  0
POINT
  5
46
330
3E
100
AcDbEntity
  8
DEFPOINTS
 62
     0
100
AcDbPoint
 10
33.17624981718825
 20
218.734817243795
 30
0.0
  0
POINT
  5
47
330
3E
100
AcDbEntity
  8
DEFPOINTS
 62
     0
100
AcDbPoint
 10
47.57624981718822
 20
218.734817243795
 30
0.0
  0
POINT
  5
48
330
3E
100
AcDbEntity
  8
DEFPOINTS
 62
     0
100
AcDbPoint
 10
47.57624981718822
 20
226.734817243795
 30
0.0
  0
ENDBLK
  5
49
330
3E
100
AcDbEntity
  8
0
100
AcDbBlockEnd
  0
BLOCK
  5
31
330
30
100
AcDbEntity
  8
0
100
AcDbBlockBegin
  2
*D3
 70
     1
 10
0.0
 20
0.0
 30
0.0
  3
*D3
  1

  0
LINE
  5
32
330
30
100
AcDbEntity
  8
SUNPO
 62
     0
370
    -2
100
AcDbLine
 10
49.5775289902183
 20
207.2461220749645
 30
0.0
 11
57.57752899021829
 21
207.2461220749645
 31
0.0
  0
LINE
  5
33
330
30
100
AcDbEntity
  8
SUNPO
 62
     0
370
    -2
100
AcDbLine
 10
49.5775289902183
 20
220.8461220749647
 30
0.0
 11
57.5775289902183
 21
220.8461220749647
 31
0.0
  0
LINE
  5
34
330
30
100
AcDbEntity
  8
SUNPO
 62
     0
370
    -2
100
AcDbLine
 10
55.5775289902183
 20
209.2461220749645
 30
0.0
 11
55.5775289902183
 21
218.8461220749647
 31
0.0
  0
INSERT
  5
35
330
30
100
AcDbEntity
  8
SUNPO
 62
     0
370
    -2
100
AcDbBlockReference
  2
_OPEN30
 10
55.57752899021829
 20
207.2461220749645
 30
0.0
 41
2.0
 42
2.0
 43
2.0
 50
270.0
  0
INSERT
  5
36
330
30
100
AcDbEntity
  8
SUNPO
 62
     0
370
    -2
100
AcDbBlockReference
  2
_OPEN30
 10
55.5775289902183
 20
220.8461220749647
 30
0.0
 41
2.0
 42
2.0
 43
2.0
 50
90.0
  0
MTEXT
  5
37
330
30
100
AcDbEntity
  8
SUNPO
 62
     0
100
AcDbMText
 10
53.82752899021826
 20
214.0461220749646
 30
0.0
 40
2.5
 41
0.0
 71
     5
 72
     1
  1
\A1;68
 11
0.0000000000000001
 21
1.0
 31
0.0
 73
     1
 44
1.0
1001
ACAD
1000
MTEXTBEGIN
1070
    73
1070
     1
1070
    44
1040
1.0
1070
    74
1070
     0
1000
MTEXTEND
  0
POINT
  5
38
330
30
100
AcDbEntity
  8
DEFPOINTS
 62
     0
100
AcDbPoint
 10
47.5775289902183
 20
207.2461220749645
 30
0.0
  0
POINT
  5
3A
330
30
100
AcDbEntity
  8
DEFPOINTS
 62
     0
100
AcDbPoint
 10
47.5775289902183
 20
220.8461220749647
 30
0.0
  0
POINT
  5
3B
330
30
100
AcDbEntity
  8
DEFPOINTS
 62
     0
100
AcDbPoint
 10
55.5775289902183
 20
220.8461220749647
 30
0.0
  0
ENDBLK
  5
3C
330
30
100
AcDbEntity
  8
0
100
AcDbBlockEnd
  0
BLOCK
  5
18A
330
180
100
AcDbEntity
  8
0
100
AcDbBlockBegin
  2
*D4
 70
     1
 10
0.0
 20
0.0
 30
0.0
  3
*D4
  1

  0
LINE
  5
181
330
180
100
AcDbEntity
  8
SUNPO
 62
     0
370
    -2
100
AcDbLine
 10
10.66053005077987
 20
49.42106117934713
 30
0.0
 11
10.66053005077987
 21
57.42106117934714
 31
0.0
  0
LINE
  5
182
330
180
100
AcDbEntity
  8
SUNPO
 62
     0
370
    -2
100
AcDbLine
 10
42.23544227619635
 20
49.42106117934713
 30
0.0
 11
42.23544227619635
 21
57.42106117934714
 31
0.0
  0
LINE
  5
183
330
180
100
AcDbEntity
  8
SUNPO
 62
     0
370
    -2
100
AcDbLine
 10
12.66053005077987
 20
55.42106117934713
 30
0.0
 11
40.23544227619635
 21
55.42106117934713
 31
0.0
  0
INSERT
  5
184
330
180
100
AcDbEntity
  8
SUNPO
 62
     0
370
    -2
100
AcDbBlockReference
  2
_OPEN30
 10
10.66053005077987
 20
55.42106117934713
 30
0.0
 41
2.0
 42
2.0
 43
2.0
 50
180.0
  0
INSERT
  5
185
330
180
100
AcDbEntity
  8
SUNPO
 62
     0
370
    -2
100
AcDbBlockReference
  2
_OPEN30
 10
42.23544227619635
 20
55.42106117934713
 30
0.0
 41
2.0
 42
2.0
 43
2.0
  0
MTEXT
  5
186
330
180
100
AcDbEntity
  8
SUNPO
 62
     0
100
AcDbMText
 10
26.44798616348811
 20
57.17106117934713
 30
0.0
 40
2.5
 41
0.0
 71
     5
 72
     1
  1
\A1;158
 73
     1
 44
1.0
1001
ACAD
1000
MTEXTBEGIN
1070
    73
1070
     1
1070
    44
1040
1.0
1070
    74
1070
     0
1000
MTEXTEND
  0
POINT
  5
187
330
180
100
AcDbEntity
  8
DEFPOINTS
 62
     0
100
AcDbPoint
 10
10.66053005077987
 20
47.42106117934713
 30
0.0
  0
POINT
  5
188
330
180
100
AcDbEntity
  8
DEFPOINTS
 62
     0
100
AcDbPoint
 10
42.23544227619635
 20
47.42106117934713
 30
0.0
  0
POINT
  5
189
330
180
100
AcDbEntity
  8
DEFPOINTS
 62
     0
100
AcDbPoint
 10
42.23544227619635
 20
55.42106117934713
 30
0.0
  0
ENDBLK
  5
18B
330
180
100
AcDbEntity
  8
0
100
AcDbBlockEnd
  0
BLOCK
  5
196
330
18C
100
AcDbEntity
  8
0
100
AcDbBlockBegin
  2
*D5
 70
     1
 10
0.0
 20
0.0
 30
0.0
  3
*D5
  1

  0
LINE
  5
18D
330
18C
100
AcDbEntity
  8
SUNPO
 62
     0
370
    -2
100
AcDbLine
 10
-29.31219107518428
 20
50.24841375678807
 30
0.0
 11
-29.31219107518428
 21
58.24841375678807
 31
0.0
  0
LINE
  5
18E
330
18C
100
AcDbEntity
  8
SUNPO
 62
     0
370
    -2
100
AcDbLine
 10
-14.91219107518429
 20
50.24841375678807
 30
0.0
 11
-14.91219107518429
 21
58.24841375678807
 31
0.0
  0
LINE
  5
18F
330
18C
100
AcDbEntity
  8
SUNPO
 62
     0
370
    -2
100
AcDbLine
 10
-27.31219107518427
 20
56.24841375678807
 30
0.0
 11
-16.91219107518429
 21
56.24841375678807
 31
0.0
  0
INSERT
  5
190
330
18C
100
AcDbEntity
  8
SUNPO
 62
     0
370
    -2
100
AcDbBlockReference
  2
_OPEN30
 10
-29.31219107518428
 20
56.24841375678807
 30
0.0
 41
2.0
 42
2.0
 43
2.0
 50
180.0
  0
INSERT
  5
191
330
18C
100
AcDbEntity
  8
SUNPO
 62
     0
370
    -2
100
AcDbBlockReference
  2
_OPEN30
 10
-14.91219107518429
 20
56.24841375678807
 30
0.0
 41
2.0
 42
2.0
 43
2.0
  0
MTEXT
  5
192
330
18C
100
AcDbEntity
  8
SUNPO
 62
     0
100
AcDbMText
 10
-22.11219107518429
 20
57.99841375678806
 30
0.0
 40
2.5
 41
0.0
 71
     5
 72
     1
  1
\A1;72
 73
     1
 44
1.0
1001
ACAD
1000
MTEXTBEGIN
1070
    73
1070
     1
1070
    44
1040
1.0
1070
    74
1070
     0
1000
MTEXTEND
  0
POINT
  5
193
330
18C
100
AcDbEntity
  8
DEFPOINTS
 62
     0
100
AcDbPoint
 10
-29.31219107518428
 20
48.24841375678807
 30
0.0
  0
POINT
  5
194
330
18C
100
AcDbEntity
  8
DEFPOINTS
 62
     0
100
AcDbPoint
 10
-14.91219107518429
 20
48.24841375678807
 30
0.0
  0
POINT
  5
195
330
18C
100
AcDbEntity
  8
DEFPOINTS
 62
     0
100
AcDbPoint
 10
-14.91219107518429
 20
56.24841375678807
 30
0.0
  0
ENDBLK
  5
197
330
18C
100
AcDbEntity
  8
0
100
AcDbBlockEnd
  0
BLOCK
  5
1A2
330
198
100
AcDbEntity
  8
0
100
AcDbBlockBegin
  2
*D6
 70
     1
 10
0.0
 20
0.0
 30
0.0
  3
*D6
  1

  0
LINE
  5
199
330
198
100
AcDbEntity
  8
SUNPO
 62
     0
370
    -2
100
AcDbLine
 10
-12.91091190215422
 20
36.75971858795765
 30
0.0
 11
-4.91091190215423
 21
36.75971858795765
 31
0.0
  0
LINE
  5
19A
330
198
100
AcDbEntity
  8
SUNPO
 62
     0
370
    -2
100
AcDbLine
 10
-12.91091190215422
 20
50.35971858795779
 30
0.0
 11
-4.910911902154224
 21
50.35971858795779
 31
0.0
  0
LINE
  5
19B
330
198
100
AcDbEntity
  8
SUNPO
 62
     0
370
    -2
100
AcDbLine
 10
-6.910911902154228
 20
38.75971858795765
 30
0.0
 11
-6.910911902154226
 21
48.35971858795779
 31
0.0
  0
INSERT
  5
19C
330
198
100
AcDbEntity
  8
SUNPO
 62
     0
370
    -2
100
AcDbBlockReference
  2
_OPEN30
 10
-6.910911902154229
 20
36.75971858795765
 30
0.0
 41
2.0
 42
2.0
 43
2.0
 50
270.0
  0
INSERT
  5
19D
330
198
100
AcDbEntity
  8
SUNPO
 62
     0
370
    -2
100
AcDbBlockReference
  2
_OPEN30
 10
-6.910911902154225
 20
50.35971858795779
 30
0.0
 41
2.0
 42
2.0
 43
2.0
 50
90.0
  0
MTEXT
  5
19E
330
198
100
AcDbEntity
  8
SUNPO
 62
     0
100
AcDbMText
 10
-8.660911902154232
 20
43.55971858795771
 30
0.0
 40
2.5
 41
0.0
 71
     5
 72
     1
  1
\A1;68
 11
0.0000000000000001
 21
1.0
 31
0.0
 73
     1
 44
1.0
1001
ACAD
1000
MTEXTBEGIN
1070
    73
1070
     1
1070
    44
1040
1.0
1070
    74
1070
     0
1000
MTEXTEND
  0
POINT
  5
19F
330
198
100
AcDbEntity
  8
DEFPOINTS
 62
     0
100
AcDbPoint
 10
-14.91091190215422
 20
36.75971858795765
 30
0.0
  0
POINT
  5
1A0
330
198
100
AcDbEntity
  8
DEFPOINTS
 62
     0
100
AcDbPoint
 10
-14.91091190215422
 20
50.35971858795779
 30
0.0
  0
POINT
  5
1A1
330
198
100
AcDbEntity
  8
DEFPOINTS
 62
     0
100
AcDbPoint
 10
-6.910911902154225
 20
50.35971858795779
 30
0.0
  0
ENDBLK
  5
1A3
330
198
100
AcDbEntity
  8
0
100
AcDbBlockEnd
  0
ENDSEC
  0
SECTION
  2
ENTITIES
  0
DIMENSION
  5
2E
330
2
100
AcDbEntity
  8
SUNPO
100
AcDbDimension
  2
*D6
 10
-6.910911902154225
 20
50.35971858795779
 30
0.0
 11
-8.660911902154232
 21
43.55971858795771
 31
0.0
 70
    33
  1
68
 71
     5
 42
13.60000000000013
  3
STANDARD
100
AcDbAlignedDimension
 13
-14.91091190215422
 23
36.75971858795765
 33
0.0
 14
-14.91091190215422
 24
50.35971858795779
 34
0.0
1001
ACAD
1000
DSTYLE
1002
{
1070
   287
1070
     3
1070
    40
1040
1.0
1070
   140
1040
2.5
1070
   147
1040
0.5
1070
   172
1070
     1
1070
   279
1070
     0
1070
   288
1070
     0
1002
}
  0
DIMENSION
  5
3D
330
2
100
AcDbEntity
  8
SUNPO
100
AcDbDimension
  2
*D5
 10
-14.91219107518429
 20
56.24841375678807
 30
0.0
 11
-22.11219107518429
 21
57.99841375678806
 31
0.0
 70
    33
  1
72
 71
     5
 42
14.39999999999997
  3
STANDARD
100
AcDbAlignedDimension
 13
-29.31219107518428
 23
48.24841375678807
 33
0.0
 14
-14.91219107518429
 24
48.24841375678807
 34
0.0
1001
ACAD
1000
DSTYLE
1002
{
1070
   287
1070
     3
1070
    40
1040
1.0
1070
   140
1040
2.5
1070
   147
1040
0.5
1070
   172
1070
     1
1070
   279
1070
     0
1070
   288
1070
     0
1002
}
  0
DIMENSION
  5
4A
330
2
100
AcDbEntity
  8
SUNPO
100
AcDbDimension
  2
*D4
 10
42.23544227619635
 20
55.42106117934713
 30
0.0
 11
26.44798616348811
 21
57.17106117934713
 31
0.0
 70
    33
  1
158
 71
     5
 42
31.57491222541648
  3
STANDARD
100
AcDbAlignedDimension
 13
10.66053005077987
 23
47.42106117934713
 33
0.0
 14
42.23544227619635
 24
47.42106117934713
 34
0.0
1001
ACAD
1000
DSTYLE
1002
{
1070
   287
1070
     3
1070
    40
1040
1.0
1070
   140
1040
2.5
1070
   147
1040
0.5
1070
   172
1070
     1
1070
   279
1070
     0
1070
   288
1070
     0
1002
}
  0
LINE
  5
57
330
2
100
AcDbEntity
  8
GAIKEI
 62
     1
100
AcDbLine
 10
11.44909749840457
 20
48.75971858795765
 30
0.0
 11
11.44909749840457
 21
36.75971858795765
 31
0.0
  0
LINE
  5
59
330
2
100
AcDbEntity
  8
GAIKEI
 62
     1
100
AcDbLine
 10
10.8073267008238
 20
36.75971858795765
 30
0.0
 11
10.8073267008238
 21
48.75971858795765
 31
0.0
  0
LINE
  5
5A
330
2
100
AcDbEntity
  8
GAIKEI
100
AcDbLine
 10
10.66053005077987
 20
48.61327034768464
 30
0.0
 11
10.66053005077987
 21
36.906282964821
 31
0.0
  0
LINE
  5
5B
330
2
100
AcDbEntity
  8
GAIKEI
100
AcDbLine
 10
10.8073267008238
 20
48.75971858795765
 30
0.0
 11
10.66053005077987
 21
48.61327034768464
 31
0.0
  0
LINE
  5
5C
330
2
100
AcDbEntity
  8
GAIKEI
100
AcDbLine
 10
11.44909749840457
 20
48.75971858795765
 30
0.0
 11
10.8073267008238
 21
48.75971858795765
 31
0.0
  0
LINE
  5
5D
330
2
100
AcDbEntity
  8
GAIKEI
100
AcDbLine
 10
11.60170097795975
 20
48.61327034768464
 30
0.0
 11
11.44909749840457
 21
48.75971858795765
 31
0.0
  0
LINE
  5
5E
330
2
100
AcDbEntity
  8
GAIKEI
100
AcDbLine
 10
11.60170097795975
 20
36.906282964821
 30
0.0
 11
11.60170097795975
 21
48.61327034768464
 31
0.0
  0
LINE
  5
5F
330
2
100
AcDbEntity
  8
GAIKEI
100
AcDbLine
 10
11.44909749840457
 20
36.75971858795765
 30
0.0
 11
11.60170097795975
 21
36.906282964821
 31
0.0
  0
LINE
  5
60
330
2
100
AcDbEntity
  8
GAIKEI
100
AcDbLine
 10
10.8073267008238
 20
36.75971858795765
 30
0.0
 11
11.44909749840457
 21
36.75971858795765
 31
0.0
  0
LINE
  5
61
330
2
100
AcDbEntity
  8
GAIKEI
100
AcDbLine
 10
10.66053005077987
 20
36.906282964821
 30
0.0
 11
10.8073267008238
 21
36.75971858795765
 31
0.0
  0
LINE
  5
62
330
2
100
AcDbEntity
  8
GAIKEI
 62
     1
100
AcDbLine
 10
11.84507938912924
 20
47.56847151181489
 30
0.0
 11
11.60170097795975
 21
47.56847151181489
 31
0.0
  0
LINE
  5
63
330
2
100
AcDbEntity
  8
GAIKEI
 62
     1
100
AcDbLine
 10
11.93594208462588
 20
38.16175611339691
 30
0.0
 11
11.60170097795975
 21
38.16175611339691
 31
0.0
  0
LINE
  5
64
330
2
100
AcDbEntity
  8
GAIKEI
100
AcDbLine
 10
11.70567492578271
 20
44.38727507605017
 30
0.0
 11
11.70297208463552
 21
44.52592512111209
 31
0.0
  0
LINE
  5
65
330
2
100
AcDbEntity
  8
GAIKEI
100
AcDbLine
 10
11.95847258312943
 20
37.63252167174369
 30
0.0
 11
11.70567492578271
 21
44.38727507605017
 31
0.0
  0
ARC
  5
66
330
2
100
AcDbEntity
  8
GAIKEI
100
AcDbCircle
 10
12.24133443763679
 20
37.6433645215352
 30
0.0
 40
0.2830695959070551
100
AcDbArc
 50
182.1952253453899
 51
270.2445602097444
  0
LINE
  5
67
330
2
100
AcDbEntity
  8
GAIKEI
100
AcDbLine
 10
11.87369287226551
 20
48.09027321169367
 30
0.0
 11
11.70297208463552
 21
44.52592512111209
 31
0.0
  0
ARC
  5
68
330
2
100
AcDbEntity
  8
GAIKEI
100
AcDbCircle
 10
12.1555315300863
 20
48.07819914975039
 30
0.0
 40
0.2820971676816736
100
AcDbArc
 50
89.64112962142182
 51
177.5469296963012
  0
LINE
  5
69
330
2
100
AcDbEntity
  8
GAIKEI
 62
     1
100
AcDbLine
 10
12.55448556416189
 20
44.38727507605017
 30
0.0
 11
11.70567492578271
 21
44.38727507605017
 31
0.0
  0
ARC
  5
6A
330
2
100
AcDbEntity
  8
GAIKEI
 62
     1
100
AcDbCircle
 10
13.48902232850645
 20
41.20312857793419
 30
0.0
 40
0.9345385868137793
100
AcDbArc
 50
180.1131538104706
 51
269.9937612163773
  0
ARC
  5
6B
330
2
100
AcDbEntity
  8
GAIKEI
 62
     1
100
AcDbCircle
 10
13.55116655432351
 20
41.23199897591826
 30
0.0
 40
0.8401351583932278
100
AcDbArc
 50
173.2559857312874
 51
276.8437954243859
  0
LINE
  5
6C
330
2
100
AcDbEntity
  8
GAIKEI
 62
     1
100
AcDbLine
 10
12.55448556416189
 20
41.2012829527539
 30
0.0
 11
12.55448556416189
 21
44.38727507605017
 31
0.0
  0
LINE
  5
6D
330
2
100
AcDbEntity
  8
GAIKEI
 62
     1
100
AcDbLine
 10
12.71684451729578
 20
41.3306591142641
 30
0.0
 11
12.71684451729578
 21
44.38727507605017
 31
0.0
  0
ARC
  5
6E
330
2
100
AcDbEntity
  8
GAIKEI
 62
     1
100
AcDbCircle
 10
13.03397257484522
 20
43.7278747490559
 30
0.0
 40
0.142227379339865
100
AcDbArc
 50
90.12385094094833
 51
179.7822984993342
  0
ARC
  5
6F
330
2
100
AcDbEntity
  8
GAIKEI
 62
     1
100
AcDbCircle
 10
13.03365042320701
 20
42.28912132769983
 30
0.0
 40
0.1419058483297425
100
AcDbArc
 50
180.2760729181692
 51
270.0059401934325
  0
CIRCLE
  5
70
330
2
100
AcDbEntity
  8
GAIKEI
 62
     1
100
AcDbCircle
 10
20.62388812614409
 20
43.00871670641868
 30
0.0
 40
0.293361026907218
  0
ARC
  5
71
330
2
100
AcDbEntity
  8
GAIKEI
 62
     1
100
AcDbCircle
 10
21.16243538933947
 20
43.72832198431638
 30
0.0
 40
0.1417809129540364
100
AcDbArc
 50
0.0376520845142567
 51
89.77418460511342
  0
ARC
  5
72
330
2
100
AcDbEntity
  8
GAIKEI
 62
     1
100
AcDbCircle
 10
21.16275903026093
 20
42.28867272155139
 30
0.0
 40
0.1414574368641437
100
AcDbArc
 50
270.0952440365558
 51
359.9047559634345
  0
LINE
  5
73
330
2
100
AcDbEntity
  8
GAIKEI
 62
     1
100
AcDbLine
 10
12.89174622217393
 20
43.72841515604
 30
0.0
 11
12.89174622217393
 21
42.28843757384583
 31
0.0
  0
LINE
  5
74
330
2
100
AcDbEntity
  8
GAIKEI
 62
     1
100
AcDbLine
 10
21.16299417796637
 20
43.87010179611411
 30
0.0
 11
13.03366513542829
 21
43.87010179611411
 31
0.0
  0
LINE
  5
75
330
2
100
AcDbEntity
  8
GAIKEI
 62
     1
100
AcDbLine
 10
21.30421627167954
 20
42.28843757384583
 30
0.0
 11
21.30421627167954
 21
43.72841515604
 31
0.0
  0
LINE
  5
76
330
2
100
AcDbEntity
  8
GAIKEI
 62
     1
100
AcDbLine
 10
21.09261540429037
 20
43.55188753889888
 30
0.0
 11
21.09261540429037
 21
42.46542973734813
 31
0.0
  0
LINE
  5
77
330
2
100
AcDbEntity
  8
GAIKEI
 62
     1
100
AcDbLine
 10
21.09261540429037
 20
43.55188753889888
 30
0.0
 11
20.15585766753912
 21
43.55188753889888
 31
0.0
  0
LINE
  5
78
330
2
100
AcDbEntity
  8
GAIKEI
 62
     1
100
AcDbLine
 10
20.15585766753912
 20
42.46542973734813
 30
0.0
 11
21.09261540429037
 21
42.46542973734813
 31
0.0
  0
LINE
  5
79
330
2
100
AcDbEntity
  8
GAIKEI
 62
     1
100
AcDbLine
 10
20.15585766753912
 20
43.55188753889888
 30
0.0
 11
20.15585766753912
 21
42.46542973734813
 31
0.0
  0
LINE
  5
7A
330
2
100
AcDbEntity
  8
GAIKEI
 62
     1
100
AcDbLine
 10
19.94355998060865
 20
42.30934216008631
 30
0.0
 11
19.94355998060865
 21
43.70774284298
 31
0.0
  0
LINE
  5
7B
330
2
100
AcDbEntity
  8
GAIKEI
 62
     1
100
AcDbLine
 10
21.16299417796637
 20
43.72841515604
 30
0.0
 11
21.16299417796637
 21
42.28843757384583
 31
0.0
  0
LINE
  5
7C
330
2
100
AcDbEntity
  8
GAIKEI
 62
     1
100
AcDbLine
 10
13.03366513542829
 20
43.72841515604
 30
0.0
 11
21.16299417796637
 21
43.72841515604
 31
0.0
  0
LINE
  5
7D
330
2
100
AcDbEntity
  8
GAIKEI
 62
     1
100
AcDbLine
 10
13.03366513542829
 20
42.28843757384583
 30
0.0
 11
13.03366513542829
 21
43.72841515604
 31
0.0
  0
LINE
  5
7E
330
2
100
AcDbEntity
  8
GAIKEI
 62
     1
100
AcDbLine
 10
21.16299417796637
 20
42.28843757384583
 30
0.0
 11
13.03366513542829
 21
42.28843757384583
 31
0.0
  0
LINE
  5
7F
330
2
100
AcDbEntity
  8
GAIKEI
 62
     1
100
AcDbLine
 10
21.16299417796637
 20
42.14721548013289
 30
0.0
 11
13.03366513542829
 21
42.14721548013289
 31
0.0
  0
CIRCLE
  5
80
330
2
100
AcDbEntity
  8
GAIKEI
 62
     1
100
AcDbCircle
 10
13.33527186024156
 20
41.30754793280925
 30
0.0
 40
0.5028714356723035
  0
CIRCLE
  5
81
330
2
100
AcDbEntity
  8
GAIKEI
 62
     1
100
AcDbCircle
 10
13.33527186024156
 20
41.30754793280925
 30
0.0
 40
0.4060135194250281
  0
LINE
  5
82
330
2
100
AcDbEntity
  8
GAIKEI
 62
     1
100
AcDbLine
 10
13.28695903870806
 20
41.05634448815362
 30
0.0
 11
13.28695903870806
 21
41.25923511127598
 31
0.0
  0
LINE
  5
83
330
2
100
AcDbEntity
  8
GAIKEI
 62
     1
100
AcDbLine
 10
13.28695903870806
 20
41.25923511127598
 30
0.0
 11
13.08372000581522
 21
41.25923511127598
 31
0.0
  0
LINE
  5
84
330
2
100
AcDbEntity
  8
GAIKEI
 62
     1
100
AcDbLine
 10
13.08372000581522
 20
41.25923511127598
 30
0.0
 11
13.08372000581522
 21
41.35586075434275
 31
0.0
  0
LINE
  5
85
330
2
100
AcDbEntity
  8
GAIKEI
 62
     1
100
AcDbLine
 10
13.08372000581522
 20
41.35586075434275
 30
0.0
 11
13.28695903870806
 21
41.35586075434275
 31
0.0
  0
LINE
  5
86
330
2
100
AcDbEntity
  8
GAIKEI
 62
     1
100
AcDbLine
 10
13.28695903870806
 20
41.35586075434275
 30
0.0
 11
13.28695903870806
 21
41.55921592382583
 31
0.0
  0
LINE
  5
87
330
2
100
AcDbEntity
  8
GAIKEI
 62
     1
100
AcDbLine
 10
13.28695903870806
 20
41.55921592382583
 30
0.0
 11
13.38358468177495
 21
41.55921592382583
 31
0.0
  0
LINE
  5
88
330
2
100
AcDbEntity
  8
GAIKEI
 62
     1
100
AcDbLine
 10
13.38358468177495
 20
41.55921592382583
 30
0.0
 11
13.38358468177495
 21
41.35586075434275
 31
0.0
  0
LINE
  5
89
330
2
100
AcDbEntity
  8
GAIKEI
 62
     1
100
AcDbLine
 10
13.38358468177495
 20
41.35586075434275
 30
0.0
 11
13.58635916830695
 21
41.35586075434275
 31
0.0
  0
LINE
  5
8A
330
2
100
AcDbEntity
  8
GAIKEI
 62
     1
100
AcDbLine
 10
13.58635916830695
 20
41.35586075434275
 30
0.0
 11
13.58635916830695
 21
41.25923511127598
 31
0.0
  0
LINE
  5
8B
330
2
100
AcDbEntity
  8
GAIKEI
 62
     1
100
AcDbLine
 10
13.58635916830695
 20
41.25923511127598
 30
0.0
 11
13.38358468177495
 21
41.25923511127598
 31
0.0
  0
LINE
  5
8C
330
2
100
AcDbEntity
  8
GAIKEI
 62
     1
100
AcDbLine
 10
13.38358468177495
 20
41.25923511127598
 30
0.0
 11
13.38358468177495
 21
41.05634448815362
 31
0.0
  0
LINE
  5
8D
330
2
100
AcDbEntity
  8
GAIKEI
 62
     1
100
AcDbLine
 10
13.38358468177495
 20
41.05634448815362
 30
0.0
 11
13.28695903870806
 21
41.05634448815362
 31
0.0
  0
ARC
  5
8E
330
2
100
AcDbEntity
  8
GAIKEI
 62
     1
100
AcDbCircle
 10
23.29977385748799
 20
42.30680434704481
 30
0.0
 40
0.1420527129131948
100
AcDbArc
 50
270.1475642447641
 51
359.8993802667544
  0
ARC
  5
8F
330
2
100
AcDbEntity
  8
GAIKEI
 62
     1
100
AcDbCircle
 10
23.29997270627831
 20
43.80443356958949
 30
0.0
 40
0.1418539280195974
100
AcDbArc
 50
0.1144374929750768
 51
89.93254551341932
  0
ARC
  5
90
330
2
100
AcDbEntity
  8
GAIKEI
 62
     1
100
AcDbCircle
 10
22.251476465091
 20
43.80408492551601
 30
0.0
 40
0.1422027542671275
100
AcDbArc
 50
90.11379837747091
 51
179.7453681510064
  0
ARC
  5
91
330
2
100
AcDbEntity
  8
GAIKEI
 62
     1
100
AcDbCircle
 10
22.25167574562005
 20
42.30715317784552
 30
0.0
 40
0.1424018873677979
100
AcDbArc
 50
180.240726670554
 51
269.8061794090882
  0
LINE
  5
92
330
2
100
AcDbEntity
  8
GAIKEI
 62
     1
100
AcDbLine
 10
22.10927511511608
 20
43.80471689581759
 30
0.0
 11
22.10927511511608
 21
42.30655488192087
 31
0.0
  0
LINE
  5
93
330
2
100
AcDbEntity
  8
GAIKEI
 62
     1
100
AcDbLine
 10
23.30013971127863
 20
43.94628739930135
 30
0.0
 11
22.25119402837044
 21
43.94628739930135
 31
0.0
  0
LINE
  5
94
330
2
100
AcDbEntity
  8
GAIKEI
 62
     1
100
AcDbLine
 10
23.44182635135252
 20
42.30655488192087
 30
0.0
 11
23.44182635135252
 21
43.80471689581759
 31
0.0
  0
LINE
  5
95
330
2
100
AcDbEntity
  8
GAIKEI
 62
     1
100
AcDbLine
 10
22.25119402837044
 20
42.16475210525686
 30
0.0
 11
23.30013971127863
 21
42.16475210525686
 31
0.0
  0
LINE
  5
96
330
2
100
AcDbEntity
  8
GAIKEI
 62
     1
100
AcDbLine
 10
22.82397969135792
 20
42.80431630762336
 30
0.0
 11
22.72735404829115
 21
42.80431630762336
 31
0.0
  0
LINE
  5
97
330
2
100
AcDbEntity
  8
GAIKEI
 62
     1
100
AcDbLine
 10
22.82397969135792
 20
43.00720693074572
 30
0.0
 11
22.82397969135792
 21
42.80431630762336
 31
0.0
  0
LINE
  5
98
330
2
100
AcDbEntity
  8
GAIKEI
 62
     1
100
AcDbLine
 10
23.02675417788993
 20
43.00720693074572
 30
0.0
 11
22.82397969135792
 21
43.00720693074572
 31
0.0
  0
LINE
  5
99
330
2
100
AcDbEntity
  8
GAIKEI
 62
     1
100
AcDbLine
 10
23.02675417788993
 20
43.10383257381249
 30
0.0
 11
23.02675417788993
 21
43.00720693074572
 31
0.0
  0
LINE
  5
9A
330
2
100
AcDbEntity
  8
GAIKEI
 62
     1
100
AcDbLine
 10
22.82397969135792
 20
43.10383257381249
 30
0.0
 11
23.02675417788993
 21
43.10383257381249
 31
0.0
  0
LINE
  5
9B
330
2
100
AcDbEntity
  8
GAIKEI
 62
     1
100
AcDbLine
 10
22.82397969135792
 20
43.30718774329556
 30
0.0
 11
22.82397969135792
 21
43.10383257381249
 31
0.0
  0
LINE
  5
9C
330
2
100
AcDbEntity
  8
GAIKEI
 62
     1
100
AcDbLine
 10
22.72735404829115
 20
43.30718774329556
 30
0.0
 11
22.82397969135792
 21
43.30718774329556
 31
0.0
  0
LINE
  5
9D
330
2
100
AcDbEntity
  8
GAIKEI
 62
     1
100
AcDbLine
 10
22.72735404829115
 20
43.10383257381249
 30
0.0
 11
22.72735404829115
 21
43.30718774329556
 31
0.0
  0
LINE
  5
9E
330
2
100
AcDbEntity
  8
GAIKEI
 62
     1
100
AcDbLine
 10
22.52411501539819
 20
43.10383257381249
 30
0.0
 11
22.72735404829115
 21
43.10383257381249
 31
0.0
  0
LINE
  5
9F
330
2
100
AcDbEntity
  8
GAIKEI
 62
     1
100
AcDbLine
 10
22.52411501539819
 20
43.00720693074572
 30
0.0
 11
22.52411501539819
 21
43.10383257381249
 31
0.0
  0
LINE
  5
A0
330
2
100
AcDbEntity
  8
GAIKEI
 62
     1
100
AcDbLine
 10
22.72735404829115
 20
43.00720693074572
 30
0.0
 11
22.52411501539819
 21
43.00720693074572
 31
0.0
  0
LINE
  5
A1
330
2
100
AcDbEntity
  8
GAIKEI
 62
     1
100
AcDbLine
 10
22.72735404829115
 20
42.80431630762336
 30
0.0
 11
22.72735404829115
 21
43.00720693074572
 31
0.0
  0
CIRCLE
  5
A2
330
2
100
AcDbEntity
  8
GAIKEI
 62
     1
100
AcDbCircle
 10
22.77566686982453
 20
43.05551975227899
 30
0.0
 40
0.4060135194250281
  0
CIRCLE
  5
A3
330
2
100
AcDbEntity
  8
GAIKEI
 62
     1
100
AcDbCircle
 10
22.77566686982453
 20
43.05551975227899
 30
0.0
 40
0.5028714356723035
  0
LINE
  5
A4
330
2
100
AcDbEntity
  8
GAIKEI
 62
     1
100
AcDbLine
 10
23.30013971127863
 20
42.30655488192087
 30
0.0
 11
22.25165857473138
 21
42.30655488192087
 31
0.0
  0
LINE
  5
A5
330
2
100
AcDbEntity
  8
GAIKEI
 62
     1
100
AcDbLine
 10
23.29967516491769
 20
43.80494916899806
 30
0.0
 11
23.30013971127863
 21
42.30655488192087
 31
0.0
  0
LINE
  5
A6
330
2
100
AcDbEntity
  8
GAIKEI
 62
     1
100
AcDbLine
 10
22.25165857473138
 20
43.80494916899806
 30
0.0
 11
23.29967516491769
 21
43.80494916899806
 31
0.0
  0
LINE
  5
A7
330
2
100
AcDbEntity
  8
GAIKEI
 62
     1
100
AcDbLine
 10
22.25165857473138
 20
42.30655488192087
 30
0.0
 11
22.25165857473138
 21
43.80494916899806
 31
0.0
  0
LINE
  5
A8
330
2
100
AcDbEntity
  8
GAIKEI
 62
     1
100
AcDbLine
 10
21.6205723434511
 20
44.38749030556436
 30
0.0
 11
21.6205723434511
 21
40.41062504650517
 31
0.0
  0
LINE
  5
A9
330
2
100
AcDbEntity
  8
GAIKEI
 62
     1
100
AcDbLine
 10
21.74088985092379
 20
44.38749030556436
 30
0.0
 11
21.74088985092379
 21
40.41062504650517
 31
0.0
  0
LINE
  5
AA
330
2
100
AcDbEntity
  8
GAIKEI
 62
     1
100
AcDbLine
 10
29.36363848470632
 20
40.26858999666046
 30
0.0
 11
13.48892056910853
 21
40.26858999666046
 31
0.0
  0
LINE
  5
AB
330
2
100
AcDbEntity
  8
GAIKEI
 62
     1
100
AcDbLine
 10
29.36572197942536
 20
40.39783320402466
 30
0.0
 11
13.65113929745615
 21
40.39783320402466
 31
0.0
  0
LINE
  5
AC
330
2
100
AcDbEntity
  8
GAIKEI
 62
     1
100
AcDbLine
 10
31.33436371428769
 20
44.39201048998756
 30
0.0
 11
12.71684451729578
 21
44.38727507605017
 31
0.0
  0
ARC
  5
AD
330
2
100
AcDbEntity
  8
GAIKEI
 62
     1
100
AcDbCircle
 10
20.41143830518132
 20
44.31272421141352
 30
0.0
 40
10.92321316311618
100
AcDbArc
 50
351.6148484780838
 51
0.4158857800157291
  0
ARC
  5
AE
330
2
100
AcDbEntity
  8
GAIKEI
 62
     1
100
AcDbCircle
 10
26.97732308834128
 20
43.27372111963768
 30
0.0
 40
4.276565049056116
100
AcDbArc
 50
330.0458191194804
 51
352.5306073607359
  0
ARC
  5
AF
330
2
100
AcDbEntity
  8
GAIKEI
 62
     1
100
AcDbCircle
 10
29.38987478854932
 20
41.8960786708028
 30
0.0
 40
1.498440134576703
100
AcDbArc
 50
269.0764302660267
 51
329.6592865422844
  0
ARC
  5
B0
330
2
100
AcDbEntity
  8
GAIKEI
 62
     1
100
AcDbCircle
 10
20.41143830518132
 20
44.31272421141352
 30
0.0
 40
11.05247316311619
100
AcDbArc
 50
351.6148484780838
 51
0.4158857800157291
  0
ARC
  5
B1
330
2
100
AcDbEntity
  8
GAIKEI
 62
     1
100
AcDbCircle
 10
26.97732308834128
 20
43.27372111963768
 30
0.0
 40
4.405825049056115
100
AcDbArc
 50
330.0458191194804
 51
352.5306073607359
  0
ARC
  5
B2
330
2
100
AcDbEntity
  8
GAIKEI
 62
     1
100
AcDbCircle
 10
29.38987478854932
 20
41.8960786708028
 30
0.0
 40
1.627700134576703
100
AcDbArc
 50
269.0764302660267
 51
329.6592865422844
  0
LINE
  5
B3
330
2
100
AcDbEntity
  8
GAIKEI
 62
     1
100
AcDbLine
 10
42.26053005077978
 20
44.3929487253049
 30
0.0
 11
31.46362030914651
 21
44.3929487253049
 31
0.0
  0
LINE
  5
B4
330
2
100
AcDbEntity
  8
GAIKEI
 62
     1
100
AcDbLine
 10
11.70297208463552
 20
44.52592512111209
 30
0.0
 11
42.26053005077978
 21
44.52592512111209
 31
0.0
  0
LINE
  5
B5
330
2
100
AcDbEntity
  8
GAIKEI
 62
     1
100
AcDbLine
 10
22.58497058867584
 20
48.59244782782457
 30
0.0
 11
22.391876764762
 21
50.36074852565889
 31
0.0
  0
LINE
  5
B6
330
2
100
AcDbEntity
  8
GAIKEI
 62
     1
100
AcDbLine
 10
22.58497058867584
 20
48.36783966233031
 30
0.0
 11
22.58497058867584
 21
48.59244782782457
 31
0.0
  0
LINE
  5
B7
330
2
100
AcDbEntity
  8
GAIKEI
 62
     1
100
AcDbLine
 10
13.53328474657434
 20
48.57247233430598
 30
0.0
 11
23.98592331223193
 21
48.57247233430598
 31
0.0
  0
LINE
  5
B8
330
2
100
AcDbEntity
  8
GAIKEI
100
AcDbLine
 10
23.98592331223193
 20
48.57247233430598
 30
0.0
 11
23.98592331223193
 21
48.36029078396586
 31
0.0
  0
LINE
  5
B9
330
2
100
AcDbEntity
  8
GAIKEI
100
AcDbLine
 10
23.50082373918661
 20
50.36074852565889
 30
0.0
 11
23.98592331223193
 21
48.57247233430598
 31
0.0
  0
LINE
  5
BA
330
2
100
AcDbEntity
  8
GAIKEI
100
AcDbLine
 10
14.15415095791485
 20
50.36074852565889
 30
0.0
 11
23.50082373918661
 21
50.36074852565889
 31
0.0
  0
LINE
  5
BB
330
2
100
AcDbEntity
  8
GAIKEI
100
AcDbLine
 10
13.53328474657434
 20
48.57247233430598
 30
0.0
 11
14.15415095791485
 21
50.36074852565889
 31
0.0
  0
LINE
  5
BC
330
2
100
AcDbEntity
  8
GAIKEI
100
AcDbLine
 10
13.52097426801055
 20
48.36842034528138
 30
0.0
 11
13.53328474657434
 21
48.57247233430598
 31
0.0
  0
LINE
  5
BD
330
2
100
AcDbEntity
  8
GAIKEI
 62
     1
100
AcDbLine
 10
43.45704595307296
 20
39.68883613825961
 30
0.0
 11
41.51655905380147
 21
39.68883613825961
 31
0.0
  0
LINE
  5
BE
330
2
100
AcDbEntity
  8
GAIKEI
 62
     1
100
AcDbLine
 10
43.45704595307296
 20
42.16335846617403
 30
0.0
 11
42.04056734889462
 21
42.16335846617403
 31
0.0
  0
LINE
  5
BF
330
2
100
AcDbEntity
  8
GAIKEI
 62
     1
100
AcDbLine
 10
43.45704595307296
 20
42.16335846617403
 30
0.0
 11
43.45704595307296
 21
39.68883613825961
 31
0.0
  0
ARC
  5
C0
330
2
100
AcDbEntity
  8
GAIKEI
100
AcDbCircle
 10
41.78303044625812
 20
48.07519568726661
 30
0.0
 40
0.2862244485284666
100
AcDbArc
 50
4.324175594523948
 51
84.90854629760553
  0
ARC
  5
C1
330
2
100
AcDbEntity
  8
GAIKEI
100
AcDbCircle
 10
29.98396962412056
 20
44.48306504987613
 30
0.0
 40
12.27663524322199
100
AcDbArc
 50
356.7047691200684
 51
0.2000308823492058
  0
ARC
  5
C2
330
2
100
AcDbEntity
  8
GAIKEI
100
AcDbCircle
 10
-184.4333492171452
 20
34.12177744082157
 30
0.0
 40
226.9325035919136
100
AcDbArc
 50
2.627753944740875
 51
3.530633271830216
  0
ARC
  5
C3
330
2
100
AcDbEntity
  8
GAIKEI
100
AcDbCircle
 10
40.41769278397663
 20
37.78361375565351
 30
0.0
 40
0.4284782359114311
100
AcDbArc
 50
278.9026349583257
 51
333.7813140267296
  0
ARC
  5
C4
330
2
100
AcDbEntity
  8
GAIKEI
100
AcDbCircle
 10
22.26904692291242
 20
45.16401357091331
 30
0.0
 40
20.01933905069974
100
AcDbArc
 50
337.7827563473632
 51
356.0282810464561
  0
LINE
  5
C5
330
2
100
AcDbEntity
  8
GAIKEI
100
AcDbLine
 10
12.15729842559386
 20
48.36029078396575
 30
0.0
 11
41.8084316425597
 21
48.36029078396575
 31
0.0
  0
LINE
  5
C6
330
2
100
AcDbEntity
  8
GAIKEI
100
AcDbLine
 10
12.24254268281874
 20
37.36029750425724
 30
0.0
 11
40.48400228520899
 21
37.36029750425724
 31
0.0
  0
ARC
  5
C7
330
2
100
AcDbEntity
  8
GAIKEI
 62
     1
100
AcDbCircle
 10
-22.11208182877379
 20
42.77138468521321
 30
0.0
 40
5.253832863266424
100
AcDbArc
 50
229.8733645619234
 51
241.7238369256825
  0
ARC
  5
C8
330
2
100
AcDbEntity
  8
GAIKEI
 62
     1
100
AcDbCircle
 10
-22.11208182877379
 20
42.77138468521321
 30
0.0
 40
5.253832863266424
100
AcDbArc
 50
214.8733645619209
 51
226.7238369256825
  0
ARC
  5
C9
330
2
100
AcDbEntity
  8
GAIKEI
 62
     1
100
AcDbCircle
 10
-22.11208182877379
 20
42.77138468521321
 30
0.0
 40
5.253832863266424
100
AcDbArc
 50
199.8733645619213
 51
211.7238369256849
  0
ARC
  5
CA
330
2
100
AcDbEntity
  8
GAIKEI
 62
     1
100
AcDbCircle
 10
-22.11208182877379
 20
42.77138468521321
 30
0.0
 40
5.253832863266424
100
AcDbArc
 50
184.8733645619228
 51
196.7238369256823
  0
ARC
  5
CB
330
2
100
AcDbEntity
  8
GAIKEI
 62
     1
100
AcDbCircle
 10
-22.11208182877379
 20
42.77138468521321
 30
0.0
 40
5.253832863266424
100
AcDbArc
 50
169.873364561924
 51
181.7238369256823
  0
ARC
  5
CC
330
2
100
AcDbEntity
  8
GAIKEI
 62
     1
100
AcDbCircle
 10
-22.11208182877379
 20
42.77138468521321
 30
0.0
 40
5.253832863266424
100
AcDbArc
 50
154.8733645619225
 51
166.7238369256847
  0
ARC
  5
CD
330
2
100
AcDbEntity
  8
GAIKEI
 62
     1
100
AcDbCircle
 10
-22.11208182877379
 20
42.77138468521321
 30
0.0
 40
5.253832863266424
100
AcDbArc
 50
139.8733645619232
 51
151.7238369256824
  0
ARC
  5
CE
330
2
100
AcDbEntity
  8
GAIKEI
 62
     1
100
AcDbCircle
 10
-22.11208182877379
 20
42.77138468521321
 30
0.0
 40
5.253832863266424
100
AcDbArc
 50
124.8733645619237
 51
136.7238369256847
  0
ARC
  5
CF
330
2
100
AcDbEntity
  8
GAIKEI
 62
     1
100
AcDbCircle
 10
-22.11208182877379
 20
42.77138468521321
 30
0.0
 40
5.253832863266424
100
AcDbArc
 50
109.873364561923
 51
121.7238369256833
  0
ARC
  5
D0
330
2
100
AcDbEntity
  8
GAIKEI
 62
     1
100
AcDbCircle
 10
-22.11208182877379
 20
42.77138468521321
 30
0.0
 40
5.253832863266424
100
AcDbArc
 50
94.87336456192293
 51
106.7238369256833
  0
ARC
  5
D1
330
2
100
AcDbEntity
  8
GAIKEI
 62
     1
100
AcDbCircle
 10
-22.11208182877379
 20
42.77138468521321
 30
0.0
 40
5.253832863266424
100
AcDbArc
 50
79.87336456192306
 51
91.72383692568324
  0
ARC
  5
D2
330
2
100
AcDbEntity
  8
GAIKEI
 62
     1
100
AcDbCircle
 10
-22.11208182877379
 20
42.77138468521321
 30
0.0
 40
5.253832863266424
100
AcDbArc
 50
64.873364561922
 51
76.72383692568351
  0
ARC
  5
D3
330
2
100
AcDbEntity
  8
GAIKEI
 62
     1
100
AcDbCircle
 10
-22.11208182877379
 20
42.77138468521321
 30
0.0
 40
5.253832863266424
100
AcDbArc
 50
49.87336456192345
 51
61.72383692568248
  0
ARC
  5
D4
330
2
100
AcDbEntity
  8
GAIKEI
 62
     1
100
AcDbCircle
 10
-22.11208182877379
 20
42.77138468521321
 30
0.0
 40
5.253832863266424
100
AcDbArc
 50
34.87336456192442
 51
46.72383692568248
  0
ARC
  5
D5
330
2
100
AcDbEntity
  8
GAIKEI
 62
     1
100
AcDbCircle
 10
-22.11208182877379
 20
42.77138468521321
 30
0.0
 40
5.253832863266424
100
AcDbArc
 50
19.87336456192131
 51
31.72383692568498
  0
ARC
  5
D6
330
2
100
AcDbEntity
  8
GAIKEI
 62
     1
100
AcDbCircle
 10
-22.11208182877379
 20
42.77138468521321
 30
0.0
 40
5.253832863266424
100
AcDbArc
 50
4.873364561922819
 51
16.72383692568235
  0
ARC
  5
D7
330
2
100
AcDbEntity
  8
GAIKEI
 62
     1
100
AcDbCircle
 10
-22.11208182877379
 20
42.77138468521321
 30
0.0
 40
5.253832863266424
100
AcDbArc
 50
349.8733645619241
 51
1.723836925682304
  0
ARC
  5
D8
330
2
100
AcDbEntity
  8
GAIKEI
 62
     1
100
AcDbCircle
 10
-22.11208182877379
 20
42.77138468521321
 30
0.0
 40
5.253832863266424
100
AcDbArc
 50
334.8733645619225
 51
346.7238369256847
  0
ARC
  5
D9
330
2
100
AcDbEntity
  8
GAIKEI
 62
     1
100
AcDbCircle
 10
-22.11208182877379
 20
42.77138468521321
 30
0.0
 40
5.253832863266424
100
AcDbArc
 50
319.8733645619232
 51
331.7238369256825
  0
ARC
  5
DA
330
2
100
AcDbEntity
  8
GAIKEI
 62
     1
100
AcDbCircle
 10
-22.11208182877379
 20
42.77138468521321
 30
0.0
 40
5.253832863266424
100
AcDbArc
 50
304.8733645619237
 51
316.7238369256847
  0
ARC
  5
DB
330
2
100
AcDbEntity
  8
GAIKEI
 62
     1
100
AcDbCircle
 10
-22.11208182877379
 20
42.77138468521321
 30
0.0
 40
5.253832863266424
100
AcDbArc
 50
289.873364561923
 51
301.7238369256832
  0
ARC
  5
DC
330
2
100
AcDbEntity
  8
GAIKEI
 62
     1
100
AcDbCircle
 10
-22.11208182877379
 20
42.77138468521321
 30
0.0
 40
5.253832863266424
100
AcDbArc
 50
274.8733645619227
 51
286.7238369256831
  0
ARC
  5
DD
330
2
100
AcDbEntity
  8
GAIKEI
 62
     1
100
AcDbCircle
 10
-22.11208182877379
 20
42.77138468521321
 30
0.0
 40
5.253832863266424
100
AcDbArc
 50
259.8733645619228
 51
271.7238369256834
  0
LINE
  5
DE
330
2
100
AcDbEntity
  8
GAIKEI
 62
     1
100
AcDbLine
 10
-23.64573100039746
 20
48.56043020790377
 30
0.0
 11
-26.02009904647144
 21
48.56043020790377
 31
0.0
  0
LINE
  5
DF
330
2
100
AcDbEntity
  8
GAIKEI
 62
     1
100
AcDbLine
 10
-18.20472008953885
 20
48.56043020790377
 30
0.0
 11
-20.57865114997099
 21
48.56043020790377
 31
0.0
  0
LINE
  5
E0
330
2
100
AcDbEntity
  8
GAIKEI
100
AcDbLine
 10
-18.20472008953885
 20
48.56010246867242
 30
0.0
 11
-18.20472008953885
 21
48.36007229114489
 31
0.0
  0
LINE
  5
E1
330
2
100
AcDbEntity
  8
GAIKEI
100
AcDbLine
 10
-18.80568459340503
 20
50.35971858795779
 30
0.0
 11
-18.20472008953885
 21
48.56010246867242
 31
0.0
  0
LINE
  5
E2
330
2
100
AcDbEntity
  8
GAIKEI
100
AcDbLine
 10
-25.41858831055293
 20
50.35971858795779
 30
0.0
 11
-18.80568459340503
 21
50.35971858795779
 31
0.0
  0
LINE
  5
E3
330
2
100
AcDbEntity
  8
GAIKEI
100
AcDbLine
 10
-26.0196620608296
 20
48.55966548303058
 30
0.0
 11
-25.41858831055293
 21
50.35971858795779
 31
0.0
  0
LINE
  5
E4
330
2
100
AcDbEntity
  8
GAIKEI
100
AcDbLine
 10
-26.0196620608296
 20
48.35963530550305
 30
0.0
 11
-26.0196620608296
 21
48.55966548303058
 31
0.0
  0
ARC
  5
E5
330
2
100
AcDbEntity
  8
GAIKEI
100
AcDbCircle
 10
-17.11821411342311
 20
46.65483061755935
 30
0.0
 40
1.773082882502801
100
AcDbArc
 50
20.89306712862068
 51
74.12515663578652
  0
LINE
  5
E6
330
2
100
AcDbEntity
  8
GAIKEI
100
AcDbLine
 10
-16.63321047526591
 20
48.36029078396575
 30
0.0
 11
-19.95939480739179
 21
48.36029078396575
 31
0.0
  0
ARC
  5
E7
330
2
100
AcDbEntity
  8
GAIKEI
100
AcDbCircle
 10
-24.38220067205276
 20
44.08590203600863
 30
0.0
 40
9.47750398660202
100
AcDbArc
 50
2.2620297458959
 51
19.74131045494336
  0
LINE
  5
E8
330
2
100
AcDbEntity
  8
GAIKEI
 62
     1
100
AcDbLine
 10
-14.91208182877386
 20
44.45997543820465
 30
0.0
 11
-16.3579195201134
 21
44.45997543820465
 31
0.0
  0
LINE
  5
E9
330
2
100
AcDbEntity
  8
GAIKEI
 62
     1
100
AcDbLine
 10
-14.91208182877386
 20
44.3601242190565
 30
0.0
 11
-16.32935191211817
 21
44.3601242190565
 31
0.0
  0
LINE
  5
EA
330
2
100
AcDbEntity
  8
GAIKEI
 62
     1
100
AcDbLine
 10
-15.12845041777569
 20
44.45975694538367
 30
0.0
 11
-15.13019836034283
 21
44.35990572623563
 31
0.0
  0
LINE
  5
EB
330
2
100
AcDbEntity
  8
GAIKEI
 62
     1
100
AcDbLine
 10
-15.52927549770396
 20
44.45975694538367
 30
0.0
 11
-15.53113268668159
 21
44.35990572623563
 31
0.0
  0
ARC
  5
EC
330
2
100
AcDbEntity
  8
GAIKEI
100
AcDbCircle
 10
-44.62023332308802
 20
44.49759427058302
 30
0.0
 40
29.70846955371799
100
AcDbArc
 50
348.681034461059
 51
359.7348741961854
  0
LINE
  5
ED
330
2
100
AcDbEntity
  8
GAIKEI
100
AcDbLine
 10
-19.4954955845148
 20
37.36026971610704
 30
0.0
 11
-16.64063923117629
 21
37.36026971610704
 31
0.0
  0
ARC
  5
EE
330
2
100
AcDbEntity
  8
GAIKEI
100
AcDbCircle
 10
-17.22217966118791
 20
39.03292141210841
 30
0.0
 40
1.770862210301594
100
AcDbArc
 50
289.1713235437078
 51
348.0645885356793
  0
LINE
  5
EF
330
2
100
AcDbEntity
  8
GAIKEI
100
AcDbLine
 10
-27.59095318228168
 20
48.36029078396575
 30
0.0
 11
-24.2647688501558
 21
48.36029078396575
 31
0.0
  0
LINE
  5
F0
330
2
100
AcDbEntity
  8
GAIKEI
 62
     1
100
AcDbLine
 10
-28.69488815984374
 20
44.45975694538367
 30
0.0
 11
-28.69303097086612
 21
44.35990572623563
 31
0.0
  0
LINE
  5
F1
330
2
100
AcDbEntity
  8
GAIKEI
 62
     1
100
AcDbLine
 10
-29.0957132397719
 20
44.45975694538367
 30
0.0
 11
-29.09396529720476
 21
44.35990572623563
 31
0.0
  0
LINE
  5
F2
330
2
100
AcDbEntity
  8
GAIKEI
 62
     1
100
AcDbLine
 10
-29.31208182877384
 20
44.3601242190565
 30
0.0
 11
-27.89481174542942
 21
44.3601242190565
 31
0.0
  0
LINE
  5
F3
330
2
100
AcDbEntity
  8
GAIKEI
 62
     1
100
AcDbLine
 10
-29.31208182877384
 20
44.45997543820465
 30
0.0
 11
-27.8662441374342
 21
44.45997543820465
 31
0.0
  0
ARC
  5
F4
330
2
100
AcDbEntity
  8
GAIKEI
100
AcDbCircle
 10
-19.84196298549494
 20
44.08590203600863
 30
0.0
 40
9.47750398660202
100
AcDbArc
 50
160.2586895450566
 51
177.7379702541041
  0
ARC
  5
F5
330
2
100
AcDbEntity
  8
GAIKEI
100
AcDbCircle
 10
-27.1059495441246
 20
46.65483061755935
 30
0.0
 40
1.773082882502801
100
AcDbArc
 50
105.8748433642134
 51
159.1069328713793
  0
ARC
  5
F6
330
2
100
AcDbEntity
  8
GAIKEI
100
AcDbCircle
 10
0.396069665540324
 20
44.49759427058302
 30
0.0
 40
29.70846955371799
100
AcDbArc
 50
180.2651258038146
 51
191.3189655389409
  0
ARC
  5
F7
330
2
100
AcDbEntity
  8
GAIKEI
100
AcDbCircle
 10
-27.00198399635969
 20
39.03292141210841
 30
0.0
 40
1.770862210301594
100
AcDbArc
 50
191.9354114643207
 51
250.8286764562922
  0
LINE
  5
F8
330
2
100
AcDbEntity
  8
GAIKEI
100
AcDbLine
 10
-24.72866807303291
 20
37.36026971610704
 30
0.0
 11
-27.58352442637141
 21
37.36026971610704
 31
0.0
  0
ARC
  5
F9
330
2
100
AcDbEntity
  8
GAIKEI
 62
     1
100
AcDbCircle
 10
-23.60945839664493
 20
44.18513312588766
 30
0.0
 40
0.3
100
AcDbArc
 50
90.0
 51
180.0
  0
ARC
  5
FA
330
2
100
AcDbEntity
  8
GAIKEI
 62
     1
100
AcDbCircle
 10
-20.61470526090267
 20
44.18513312588766
 30
0.0
 40
0.3
100
AcDbArc
 50
0.0
 51
90.0
  0
ARC
  5
FB
330
2
100
AcDbEntity
  8
GAIKEI
 62
     1
100
AcDbCircle
 10
-20.61470526090267
 20
41.35719925889725
 30
0.0
 40
0.3
100
AcDbArc
 50
269.9999999999999
 51
0.0
  0
ARC
  5
FC
330
2
100
AcDbEntity
  8
GAIKEI
 62
     1
100
AcDbCircle
 10
-23.60945839664493
 20
41.35719925889725
 30
0.0
 40
0.3
100
AcDbArc
 50
180.0
 51
270.0
  0
LINE
  5
FD
330
2
100
AcDbEntity
  8
GAIKEI
 62
     1
100
AcDbLine
 10
-20.70821083133097
 20
44.17170517431657
 30
0.0
 11
-23.51486036211219
 21
44.17126818867484
 31
0.0
  0
LINE
  5
FE
330
2
100
AcDbEntity
  8
GAIKEI
 62
     1
100
AcDbLine
 10
-20.70952178825627
 20
41.37084570328909
 30
0.0
 11
-20.70821083133097
 21
44.17170517431657
 31
0.0
  0
LINE
  5
FF
330
2
100
AcDbEntity
  8
GAIKEI
 62
     1
100
AcDbLine
 10
-23.51486036211219
 20
41.37084570328909
 30
0.0
 11
-20.70952178825627
 21
41.37084570328909
 31
0.0
  0
LINE
  5
100
330
2
100
AcDbEntity
  8
GAIKEI
 62
     1
100
AcDbLine
 10
-23.51486036211219
 20
44.17126818867484
 30
0.0
 11
-23.51486036211219
 21
41.37084570328909
 31
0.0
  0
LINE
  5
101
330
2
100
AcDbEntity
  8
GAIKEI
 62
     1
100
AcDbLine
 10
-23.14396879864631
 20
41.84093300744041
 30
0.0
 11
-23.14418729146717
 21
43.70096239170266
 31
0.0
  0
LINE
  5
102
330
2
100
AcDbEntity
  8
GAIKEI
 62
     1
100
AcDbLine
 10
-21.07997636608041
 20
41.84093300744041
 30
0.0
 11
-23.14396879864631
 21
41.84093300744041
 31
0.0
  0
LINE
  5
103
330
2
100
AcDbEntity
  8
GAIKEI
 62
     1
100
AcDbLine
 10
-21.07910239479685
 20
43.70161787016536
 30
0.0
 11
-21.07997636608041
 21
41.84093300744041
 31
0.0
  0
LINE
  5
104
330
2
100
AcDbEntity
  8
GAIKEI
 62
     1
100
AcDbLine
 10
-23.14396879864631
 20
43.70118088452352
 30
0.0
 11
-21.07910239479685
 21
43.70161787016536
 31
0.0
  0
LINE
  5
105
330
2
100
AcDbEntity
  8
GAIKEI
 62
     1
100
AcDbLine
 10
-23.909458396645
 20
44.18513312588766
 30
0.0
 11
-23.909458396645
 21
41.35719925889725
 31
0.0
  0
LINE
  5
106
330
2
100
AcDbEntity
  8
GAIKEI
 62
     1
100
AcDbLine
 10
-20.61470526090267
 20
44.48513312588761
 30
0.0
 11
-23.60945839664493
 21
44.48513312588761
 31
0.0
  0
LINE
  5
107
330
2
100
AcDbEntity
  8
GAIKEI
 62
     1
100
AcDbLine
 10
-20.31470526090271
 20
41.35719925889725
 30
0.0
 11
-20.31470526090271
 21
44.18513312588766
 31
0.0
  0
LINE
  5
108
330
2
100
AcDbEntity
  8
GAIKEI
 62
     1
100
AcDbLine
 10
-23.60945839664493
 20
41.05719925889718
 30
0.0
 11
-20.61470526090267
 21
41.05719925889718
 31
0.0
  0
LINE
  5
109
330
2
100
AcDbEntity
  8
GAIKEI
 62
     1
100
AcDbLine
 10
-25.99018606391229
 20
38.63290522841931
 30
0.0
 11
-25.08321368761864
 21
39.66078973341814
 31
0.0
  0
LINE
  5
10A
330
2
100
AcDbEntity
  8
GAIKEI
 62
     1
100
AcDbLine
 10
-25.77706539475861
 20
38.44437727724073
 30
0.0
 11
-24.86013291551609
 21
39.46258076789297
 31
0.0
  0
LINE
  5
10B
330
2
100
AcDbEntity
  8
GAIKEI
 62
     1
100
AcDbLine
 10
-26.92916016771886
 20
39.77764773127592
 30
0.0
 11
-25.78705603966665
 21
40.53576619672992
 31
0.0
  0
LINE
  5
10C
330
2
100
AcDbEntity
  8
GAIKEI
 62
     1
100
AcDbLine
 10
-26.77209603356647
 20
39.54038402617312
 30
0.0
 11
-25.62287681573224
 21
40.28657348551064
 31
0.0
  0
LINE
  5
10D
330
2
100
AcDbEntity
  8
GAIKEI
 62
     1
100
AcDbLine
 10
-27.53985834332474
 20
41.12640846015892
 30
0.0
 11
-26.24045497242429
 21
41.56309636549758
 31
0.0
  0
LINE
  5
10E
330
2
100
AcDbEntity
  8
GAIKEI
 62
     1
100
AcDbLine
 10
-27.4495544053554
 20
40.85657813053797
 30
0.0
 11
-26.1463658394502
 21
41.27990198004352
 31
0.0
  0
LINE
  5
10F
330
2
100
AcDbEntity
  8
GAIKEI
 62
     1
100
AcDbLine
 10
-27.78066251928868
 20
42.58727160032776
 30
0.0
 11
-26.41251209790136
 21
42.67276938646296
 31
0.0
  0
LINE
  5
110
330
2
100
AcDbEntity
  8
GAIKEI
 62
     1
100
AcDbLine
 10
-27.76327284164068
 20
42.30326313723651
 30
0.0
 11
-26.39492507481015
 21
42.374872556142
 31
0.0
  0
LINE
  5
111
330
2
100
AcDbEntity
  8
GAIKEI
 62
     1
100
AcDbLine
 10
-27.63516228896668
 20
44.06068174297025
 30
0.0
 11
-26.29150200733449
 21
43.78916287706863
 31
0.0
  0
LINE
  5
112
330
2
100
AcDbEntity
  8
GAIKEI
 62
     1
100
AcDbLine
 10
-27.69187194943385
 20
43.78184985382222
 30
0.0
 11
-26.35161562068589
 21
43.49686477856937
 31
0.0
  0
LINE
  5
113
330
2
100
AcDbEntity
  8
GAIKEI
 62
     1
100
AcDbLine
 10
-27.11327325260441
 20
45.44622842179069
 30
0.0
 11
-25.88567133841702
 21
44.83619646585748
 31
0.0
  0
LINE
  5
114
330
2
100
AcDbEntity
  8
GAIKEI
 62
     1
100
AcDbLine
 10
-27.24021758154328
 20
45.19157503903989
 30
0.0
 11
-26.01938894480355
 21
44.56941673154711
 31
0.0
  0
LINE
  5
115
330
2
100
AcDbEntity
  8
GAIKEI
 62
     1
100
AcDbLine
 10
-26.25056128556781
 20
46.64948892035181
 30
0.0
 11
-25.22267678056886
 21
45.74251654405816
 31
0.0
  0
LINE
  5
116
330
2
100
AcDbEntity
  8
GAIKEI
 62
     1
100
AcDbLine
 10
-26.43908923674639
 20
46.43636825119801
 30
0.0
 11
-25.42088574609414
 21
45.51943577195561
 31
0.0
  0
LINE
  5
117
330
2
100
AcDbEntity
  8
GAIKEI
 62
     1
100
AcDbLine
 10
-25.10581878271131
 20
47.58846302415827
 30
0.0
 11
-24.34770031725719
 21
46.44635889610606
 31
0.0
  0
LINE
  5
118
330
2
100
AcDbEntity
  8
GAIKEI
 62
     1
100
AcDbLine
 10
-25.343082487814
 20
47.43139889000588
 30
0.0
 11
-24.59689302847636
 21
46.28217967217165
 31
0.0
  0
LINE
  5
119
330
2
100
AcDbEntity
  8
GAIKEI
 62
     1
100
AcDbLine
 10
-23.75705805382819
 20
48.19916119976415
 30
0.0
 11
-23.32037014848964
 21
46.89975782886381
 31
0.0
  0
LINE
  5
11A
330
2
100
AcDbEntity
  8
GAIKEI
 62
     1
100
AcDbLine
 10
-24.02688838344915
 20
48.10885726179481
 30
0.0
 11
-23.6035645339436
 21
46.8056686958896
 31
0.0
  0
LINE
  5
11B
330
2
100
AcDbEntity
  8
GAIKEI
 62
     1
100
AcDbLine
 10
-22.29619491365935
 20
48.4399653757282
 30
0.0
 11
-22.21069712752416
 21
47.07181495434087
 31
0.0
  0
LINE
  5
11C
330
2
100
AcDbEntity
  8
GAIKEI
 62
     1
100
AcDbLine
 10
-22.5802033767506
 20
48.42257569808021
 30
0.0
 11
-22.50859395784511
 21
47.05422793124967
 31
0.0
  0
LINE
  5
11D
330
2
100
AcDbEntity
  8
GAIKEI
 62
     1
100
AcDbLine
 10
-20.82278477101687
 20
48.2944651454061
 30
0.0
 11
-21.09430363691848
 21
46.95080486377389
 31
0.0
  0
LINE
  5
11E
330
2
100
AcDbEntity
  8
GAIKEI
 62
     1
100
AcDbLine
 10
-21.10161666016489
 20
48.35117480587337
 30
0.0
 11
-21.38660173541774
 21
47.0109184771253
 31
0.0
  0
LINE
  5
11F
330
2
100
AcDbEntity
  8
GAIKEI
 62
     1
100
AcDbLine
 10
-19.43723809219631
 20
47.77257610904394
 30
0.0
 11
-20.04727004812963
 21
46.54497419485642
 31
0.0
  0
LINE
  5
120
330
2
100
AcDbEntity
  8
GAIKEI
 62
     1
100
AcDbLine
 10
-19.69189147494711
 20
47.89952043798268
 30
0.0
 11
-20.31404978244001
 21
46.67869180124307
 31
0.0
  0
LINE
  5
121
330
2
100
AcDbEntity
  8
GAIKEI
 62
     1
100
AcDbLine
 10
-18.2339775936353
 20
46.90986414200722
 30
0.0
 11
-19.14094996992895
 21
45.88197963700838
 31
0.0
  0
LINE
  5
122
330
2
100
AcDbEntity
  8
GAIKEI
 62
     1
100
AcDbLine
 10
-18.4470982627891
 20
47.09839209318579
 30
0.0
 11
-19.3640307420315
 21
46.08018860253355
 31
0.0
  0
LINE
  5
123
330
2
100
AcDbEntity
  8
GAIKEI
 62
     1
100
AcDbLine
 10
-17.29500348982873
 20
45.76512163915071
 30
0.0
 11
-18.43710761788105
 21
45.0070031736966
 31
0.0
  0
LINE
  5
124
330
2
100
AcDbEntity
  8
GAIKEI
 62
     1
100
AcDbLine
 10
-17.45206762398123
 20
46.00238534425352
 30
0.0
 11
-18.60128684181535
 21
45.25619588491577
 31
0.0
  0
LINE
  5
125
330
2
100
AcDbEntity
  8
GAIKEI
 62
     1
100
AcDbLine
 10
-16.68430531422297
 20
44.4163609102676
 30
0.0
 11
-17.9837086851233
 21
43.97967300492905
 31
0.0
  0
LINE
  5
126
330
2
100
AcDbEntity
  8
GAIKEI
 62
     1
100
AcDbLine
 10
-16.7746092521923
 20
44.68619123988855
 30
0.0
 11
-18.07779781809739
 21
44.262867390383
 31
0.0
  0
LINE
  5
127
330
2
100
AcDbEntity
  8
GAIKEI
 62
     1
100
AcDbLine
 10
-16.44350113825891
 20
42.95549777009887
 30
0.0
 11
-17.81165155964623
 21
42.86999998396368
 31
0.0
  0
LINE
  5
128
330
2
100
AcDbEntity
  8
GAIKEI
 62
     1
100
AcDbLine
 10
-16.46089081590691
 20
43.23950623319001
 30
0.0
 11
-17.82923858273744
 21
43.16789681428462
 31
0.0
  0
LINE
  5
129
330
2
100
AcDbEntity
  8
GAIKEI
 62
     1
100
AcDbLine
 10
-16.58900136858102
 20
41.48208762745639
 30
0.0
 11
-17.93266165021322
 21
41.75360649335789
 31
0.0
  0
LINE
  5
12A
330
2
100
AcDbEntity
  8
GAIKEI
 62
     1
100
AcDbLine
 10
-16.53229170811374
 20
41.7609195166043
 30
0.0
 11
-17.87254803686181
 21
42.04590459185715
 31
0.0
  0
LINE
  5
12B
330
2
100
AcDbEntity
  8
GAIKEI
 62
     1
100
AcDbLine
 10
-17.11089040494317
 20
40.09654094863583
 30
0.0
 11
-18.33849231913058
 21
40.70657290456916
 31
0.0
  0
LINE
  5
12C
330
2
100
AcDbEntity
  8
GAIKEI
 62
     1
100
AcDbLine
 10
-16.98394607600443
 20
40.35119433138663
 30
0.0
 11
-18.20477471274404
 21
40.97335263887953
 31
0.0
  0
LINE
  5
12D
330
2
100
AcDbEntity
  8
GAIKEI
 62
     1
100
AcDbLine
 10
-17.97360237197989
 20
38.89328045007483
 30
0.0
 11
-19.00148687697873
 21
39.80025282636848
 31
0.0
  0
LINE
  5
12E
330
2
100
AcDbEntity
  8
GAIKEI
 62
     1
100
AcDbLine
 10
-17.78507442080121
 20
39.10640111922862
 30
0.0
 11
-18.80327791145345
 21
40.02333359847102
 31
0.0
  0
LINE
  5
12F
330
2
100
AcDbEntity
  8
GAIKEI
 62
     1
100
AcDbLine
 10
-19.11834487483639
 20
37.95430634626814
 30
0.0
 11
-19.8764633402904
 21
39.09641047432046
 31
0.0
  0
LINE
  5
130
330
2
100
AcDbEntity
  8
GAIKEI
 62
     1
100
AcDbLine
 10
-18.88108116973359
 20
38.11137048042065
 30
0.0
 11
-19.62727062907123
 21
39.26058969825476
 31
0.0
  0
LINE
  5
131
330
2
100
AcDbEntity
  8
GAIKEI
 62
     1
100
AcDbLine
 10
-20.46710560371952
 20
37.34360817066238
 30
0.0
 11
-20.90379350905806
 21
38.64301154156283
 31
0.0
  0
LINE
  5
132
330
2
100
AcDbEntity
  8
GAIKEI
 62
     1
100
AcDbLine
 10
-20.19727527409845
 20
37.43391210863172
 30
0.0
 11
-20.62059912360411
 21
38.73710067453681
 31
0.0
  0
LINE
  5
133
330
2
100
AcDbEntity
  8
GAIKEI
 62
     1
100
AcDbLine
 10
-21.92796874388824
 20
37.10280399469843
 30
0.0
 11
-22.01346653002344
 21
38.47095441608576
 31
0.0
  0
LINE
  5
134
330
2
100
AcDbEntity
  8
GAIKEI
 62
     1
100
AcDbLine
 10
-21.64396028079699
 20
37.12019367234643
 30
0.0
 11
-21.71556969970248
 21
38.48854143917697
 31
0.0
  0
LINE
  5
135
330
2
100
AcDbEntity
  8
GAIKEI
 62
     1
100
AcDbLine
 10
-23.40137888653083
 20
37.24830422502043
 30
0.0
 11
-23.12986002062922
 21
38.59196450665263
 31
0.0
  0
LINE
  5
136
330
2
100
AcDbEntity
  8
GAIKEI
 62
     1
100
AcDbLine
 10
-23.12254699738281
 20
37.19159456455327
 30
0.0
 11
-22.83756192212985
 21
38.53185089330123
 31
0.0
  0
LINE
  5
137
330
2
100
AcDbEntity
  8
GAIKEI
 62
     1
100
AcDbLine
 10
-24.78692556535128
 20
37.7701932613827
 30
0.0
 11
-24.17689360941796
 21
38.99779517557011
 31
0.0
  0
LINE
  5
138
330
2
100
AcDbEntity
  8
GAIKEI
 62
     1
100
AcDbLine
 10
-24.53227218260048
 20
37.64324893244384
 30
0.0
 11
-23.91011387510758
 21
38.86407756918357
 31
0.0
  0
ARC
  5
139
330
2
100
AcDbEntity
  8
GAIKEI
 62
     1
100
AcDbCircle
 10
-22.11208182877379
 20
42.77138468521321
 30
0.0
 40
5.253832863266424
100
AcDbArc
 50
244.8733645619221
 51
256.7238369256834
  0
CIRCLE
  5
13A
330
2
100
AcDbEntity
  8
GAIKEI
 62
     1
100
AcDbCircle
 10
-22.11208182877379
 20
42.77138468521321
 30
0.0
 40
5.670086444765871
  0
CIRCLE
  5
13B
330
2
100
AcDbEntity
  8
GAIKEI
 62
     1
100
AcDbCircle
 10
-22.11208182877379
 20
42.77138468521321
 30
0.0
 40
4.301076621845703
  0
CIRCLE
  5
13C
330
2
100
AcDbEntity
  8
GAIKEI
 62
     1
100
AcDbCircle
 10
-22.11208182877379
 20
42.77138468521321
 30
0.0
 40
4.004816965256839
  0
CIRCLE
  5
13D
330
2
100
AcDbEntity
  8
GAIKEI
 62
     1
100
AcDbCircle
 10
-22.11208182877379
 20
42.77138468521321
 30
0.0
 40
3.609077319719694
  0
CIRCLE
  5
13E
330
2
100
AcDbEntity
  8
GAIKEI
 62
     1
100
AcDbCircle
 10
-22.11219107518429
 20
42.77138468521321
 30
0.0
 40
2.564940660120763
  0
CIRCLE
  5
13F
330
2
100
AcDbEntity
  8
GAIKEI
 62
     1
100
AcDbCircle
 10
-22.11219107518429
 20
42.75971858795765
 30
0.0
 40
6.0
  0
TEXT
  5
140
330
2
100
AcDbEntity
  8
TOUROKU
100
AcDbText
 10
49.01150908459641
 20
64.01443163792748
 30
0.0
 40
2.0
  1
ＤＧＮＰ３０４
 72
     2
 11
65.01150908459641
 21
64.01443163792748
 31
0.0
100
AcDbText
  0
TEXT
  5
142
330
2
100
AcDbEntity
  8
MOJI1
100
AcDbText
 10
-17.35224534084081
 20
-37.92244497011348
 30
0.0
 40
3.0
  1
簡易白黒切換、ＡＵＴＯ／ＯＦＦ、ＶＭＤ ＯＮ／ＯＦＦ
 41
0.88
  7
KANJI
100
AcDbText
  0
TEXT
  5
145
330
2
100
AcDbEntity
  8
MOJI1
100
AcDbText
 10
-17.35224534084081
 20
-32.92244497011348
 30
0.0
 40
3.0
  1
ＳＤメモリーカードスロット、暗部補正ＯＮ／ＯＦＦ
 41
0.9
  7
KANJI
100
AcDbText
  0
TEXT
  5
146
330
2
100
AcDbEntity
  8
MOJI1
100
AcDbText
 10
-57.28285971781351
 20
-32.85361192461392
 30
0.0
 40
3.0
  1
機　能
  7
KANJI
100
AcDbText
  0
TEXT
  5
147
330
2
100
AcDbEntity
  8
MOJI1
100
AcDbText
 10
-57.28285971781351
 20
-27.85361192461392
 30
0.0
 40
3.0
  1
最大接続数
  7
KANJI
100
AcDbText
  0
TEXT
  5
148
330
2
100
AcDbEntity
  8
MOJI1
100
AcDbText
 10
-17.35224534084081
 20
-27.92244497011348
 30
0.0
 40
3.0
  1
１６（条件による）
  7
KANJI
100
AcDbText
  0
TEXT
  5
149
330
2
100
AcDbEntity
  8
MOJI1
100
AcDbText
 10
-17.35224534084081
 20
-22.92244497011347
 30
0.0
 40
3.0
  1
ＩＰｖ４／ＩＰｖ６
  7
KANJI
100
AcDbText
  0
TEXT
  5
14A
330
2
100
AcDbEntity
  8
MOJI1
100
AcDbText
 10
-57.28285971781351
 20
-22.85361192461392
 30
0.0
 40
3.0
  1
対応プロトコル
  7
KANJI
100
AcDbText
  0
TEXT
  5
14B
330
2
100
AcDbEntity
  8
MOJI1
100
AcDbText
 10
-17.35224534084081
 20
-7.922444970113474
 30
0.0
 40
3.0
  1
１０ＢＡＳＥ－Ｔ／１００ＢＡＳＥ－ＴＸ　ＲＪ－４５コネクタ
 41
0.7700000000000001
  7
KANJI
100
AcDbText
  0
TEXT
  5
14C
330
2
100
AcDbEntity
  8
MOJI1
100
AcDbText
 10
-57.28285971781351
 20
-7.853611924613915
 30
0.0
 40
3.0
  1
ネットワーク
  7
KANJI
100
AcDbText
  0
TEXT
  5
14D
330
2
100
AcDbEntity
  8
MOJI1
100
AcDbText
 10
-57.28285971781351
 20
-2.853611924613915
 30
0.0
 40
3.0
  1
最低照度
  7
KANJI
100
AcDbText
  0
TEXT
  5
14E
330
2
100
AcDbEntity
  8
MOJI1
100
AcDbText
 10
-17.48844094833193
 20
2.014431637927771
 30
0.0
 40
3.0
  1
プログレッシブ
 41
0.9
100
AcDbText
  0
TEXT
  5
14F
330
2
100
AcDbEntity
  8
MOJI1
100
AcDbText
 10
-57.48844094833192
 20
2.014431637927771
 30
0.0
 40
3.0
  1
走査方式
100
AcDbText
  0
TEXT
  5
150
330
2
100
AcDbEntity
  8
MOJI1
100
AcDbText
 10
-57.48844094833192
 20
7.014431637927771
 30
0.0
 40
3.0
  1
有効画素数
100
AcDbText
  0
TEXT
  5
151
330
2
100
AcDbEntity
  8
MOJI1
100
AcDbText
 10
-17.48844094833193
 20
7.014431637927771
 30
0.0
 40
3.0
  1
１２９６（Ｈ）×９７６（Ｖ）
 41
0.9
100
AcDbText
  0
LINE
  5
152
330
2
100
AcDbEntity
  8
WAKU
 62
     4
100
AcDbLine
 10
-59.98844094833192
 20
-38.98556836207217
 30
0.0
 11
65.01155905166807
 21
-38.98556836207217
 31
0.0
  0
LINE
  5
154
330
2
100
AcDbEntity
  8
WAKU
 62
     1
100
AcDbLine
 10
-59.98844094833192
 20
-33.98556836207217
 30
0.0
 11
65.01155905166807
 21
-33.98556836207217
 31
0.0
  0
LINE
  5
155
330
2
100
AcDbEntity
  8
WAKU
 62
     1
100
AcDbLine
 10
-59.98844094833192
 20
-28.98556836207217
 30
0.0
 11
65.01155905166807
 21
-28.98556836207217
 31
0.0
  0
LINE
  5
156
330
2
100
AcDbEntity
  8
WAKU
 62
     1
100
AcDbLine
 10
-59.98844094833192
 20
-23.98556836207217
 30
0.0
 11
65.01155905166807
 21
-23.98556836207217
 31
0.0
  0
LINE
  5
157
330
2
100
AcDbEntity
  8
WAKU
 62
     1
100
AcDbLine
 10
-59.98844094833192
 20
-18.98556836207217
 30
0.0
 11
65.01155905166807
 21
-18.98556836207217
 31
0.0
  0
LINE
  5
158
330
2
100
AcDbEntity
  8
WAKU
 62
     1
100
AcDbLine
 10
-59.98844094833192
 20
-13.98556836207217
 30
0.0
 11
65.01155905166807
 21
-13.98556836207217
 31
0.0
  0
LINE
  5
159
330
2
100
AcDbEntity
  8
WAKU
 62
     1
100
AcDbLine
 10
-59.98844094833192
 20
-8.985568362072172
 30
0.0
 11
65.01155905166807
 21
-8.985568362072172
 31
0.0
  0
LINE
  5
15A
330
2
100
AcDbEntity
  8
WAKU
 62
     1
100
AcDbLine
 10
-59.98844094833192
 20
-3.985568362072172
 30
0.0
 11
65.01155905166807
 21
-3.985568362072172
 31
0.0
  0
LINE
  5
15B
330
2
100
AcDbEntity
  8
WAKU
 62
     1
100
AcDbLine
 10
-59.98844094833192
 20
1.014431637927827
 30
0.0
 11
65.01155905166807
 21
1.014431637927827
 31
0.0
  0
LINE
  5
15C
330
2
100
AcDbEntity
  8
WAKU
 62
     1
100
AcDbLine
 10
-59.98844094833192
 20
6.014431637927827
 30
0.0
 11
65.01155905166807
 21
6.014431637927827
 31
0.0
  0
LINE
  5
15D
330
2
100
AcDbEntity
  8
WAKU
 62
     1
100
AcDbLine
 10
-59.98844094833192
 20
11.01443163792783
 30
0.0
 11
65.01155905166807
 21
11.01443163792783
 31
0.0
  0
LINE
  5
15E
330
2
100
AcDbEntity
  8
WAKU
 62
     4
100
AcDbLine
 10
65.01155905166808
 20
-38.98556836207217
 30
0.0
 11
65.01155905166807
 21
21.56943163792761
 31
0.0
  0
TEXT
  5
15F
330
2
100
AcDbEntity
  8
MOJI1
100
AcDbText
 10
-17.28285971781351
 20
-12.82971596718948
 30
0.0
 40
3.0
  1
１２８０×９６０／ＶＧＡ（６４０×４８０）／ＱＶＧＡ（３２０×２４０）
 41
0.65
  7
KANJI
100
AcDbText
  0
LINE
  5
160
330
2
100
AcDbEntity
  8
WAKU
 62
     4
100
AcDbLine
 10
-19.78285971781351
 20
-38.98556836207217
 30
0.0
 11
-19.78285971781351
 21
21.56943163792761
 31
0.0
  0
TEXT
  5
161
330
2
100
AcDbEntity
  8
MOJI1
100
AcDbText
 10
-17.28285971781351
 20
12.17028403281051
 30
0.0
 40
3.0
  1
１／３型　インターライン転送方式ＣＣＤ
  7
KANJI
100
AcDbText
  0
TEXT
  5
162
330
2
100
AcDbEntity
  8
MOJI1
100
AcDbText
 10
-57.28285971781351
 20
17.13955058904366
 30
0.0
 40
3.0
  1
電　源
  7
KANJI
100
AcDbText
  0
TEXT
  5
163
330
2
100
AcDbEntity
  8
MOJI1
100
AcDbText
 10
-57.28285971781351
 20
12.14296933221476
 30
0.0
 40
3.0
  1
撮像素子
  7
KANJI
100
AcDbText
  0
TEXT
  5
164
330
2
100
AcDbEntity
  8
MOJI1
100
AcDbText
 10
-57.28285971781351
 20
-17.98556836207194
 30
0.0
 40
3.0
  1
画像圧縮方式
100
AcDbText
  0
LINE
  5
165
330
2
100
AcDbEntity
  8
WAKU
 62
     4
100
AcDbLine
 10
-59.98844094833192
 20
21.56943163792761
 30
0.0
 11
-59.98844094833192
 21
-38.98556836207217
 31
0.0
  0
LINE
  5
166
330
2
100
AcDbEntity
  8
WAKU
 62
     1
100
AcDbLine
 10
-59.98844094833192
 20
16.01443163792783
 30
0.0
 11
65.01155905166807
 21
16.01443163792783
 31
0.0
  0
LINE
  5
167
330
2
100
AcDbEntity
  8
WAKU
 62
     4
100
AcDbLine
 10
65.01155905166807
 20
21.56943163792761
 30
0.0
 11
-59.98844094833192
 21
21.56943163792761
 31
0.0
  0
TEXT
  5
168
330
2
100
AcDbEntity
  8
MOJI1
100
AcDbText
 10
-57.28285971781351
 20
-12.85703066778524
 30
0.0
 40
3.0
  1
画像解像度
  7
KANJI
100
AcDbText
  0
TEXT
  5
169
330
2
100
AcDbEntity
  8
MOJI1
100
AcDbText
 10
-17.35224534084081
 20
-17.92244497011347
 30
0.0
 40
3.0
  1
ＭＰＥＧ－４（３種類）／ＪＰＥＧ（４種類１０段階）
 41
0.9
  7
KANJI
100
AcDbText
  0
TEXT
  5
16A
330
2
100
AcDbEntity
  8
MOJI1
100
AcDbText
 10
-17.48844094833191
 20
17.01443163792805
 30
0.0
 40
3.0
  1
ＡＣ２４Ｖ、ＤＣ１２Ｖ、ＰｏＥ（ＩＥＥＥ８０２．３ａｆ準拠）
 41
0.76
100
AcDbText
  0
TEXT
  5
16B
330
2
100
AcDbEntity
  8
MOJI1
100
AcDbText
 10
-17.48844094833191
 20
-2.985568362072172
 30
0.0
 40
3.0
  1
カラー：１．５ルクス、簡易白黒：０．９ルクス（Ｆ１．４)
 41
0.8199999999999999
100
AcDbText
  0
TEXT
  5
16C
330
2
100
AcDbEntity
  8
MOJI1
100
AcDbText
 10
-32.98844094833078
 20
70.01443163792749
 30
0.0
 40
4.0
  1
ネットワークカメラ
100
AcDbText
  0
ENDSEC
  0
SECTION
  2
OBJECTS
  0
DICTIONARY
  5
7
330
0
100
AcDbDictionary
281
     1
  3
ACAD_COLOR
350
2C
  3
ACAD_GROUP
350
28
  3
ACAD_LAYOUT
350
B
  3
ACAD_MATERIAL
350
2B
  3
ACAD_MLINESTYLE
350
29
  3
ACAD_PLOTSETTINGS
350
2A
  3
ACAD_PLOTSTYLENAME
350
6
  3
ACDBHEADERROUNDTRIPXREC
350
1A9
  3
AcDbVariableDictionary
350
1A4
  0
DICTIONARY
  5
11
330
10
100
AcDbDictionary
280
     1
281
     1
  3
ACAD_LAYERSTATES
360
12
  0
DICTIONARY
  5
2C
102
{ACAD_REACTORS
330
7
102
}
330
7
100
AcDbDictionary
281
     1
  0
DICTIONARY
  5
28
102
{ACAD_REACTORS
330
7
102
}
330
7
100
AcDbDictionary
281
     1
  0
DICTIONARY
  5
B
102
{ACAD_REACTORS
330
7
102
}
330
7
100
AcDbDictionary
281
     1
  3
Model
350
A
  3
レイアウト1
350
F
  0
DICTIONARY
  5
2B
102
{ACAD_REACTORS
330
7
102
}
330
7
100
AcDbDictionary
281
     1
  0
DICTIONARY
  5
29
102
{ACAD_REACTORS
330
7
102
}
330
7
100
AcDbDictionary
281
     1
  3
Standard
350
2D
  0
DICTIONARY
  5
2A
102
{ACAD_REACTORS
330
7
102
}
330
7
100
AcDbDictionary
281
     1
  0
ACDBDICTIONARYWDFLT
  5
6
102
{ACAD_REACTORS
330
7
102
}
330
7
100
AcDbDictionary
281
     1
  3
Normal
350
5
100
AcDbDictionaryWithDefault
340
5
  0
DICTIONARY
  5
1A9
102
{ACAD_REACTORS
330
7
102
}
330
7
100
AcDbDictionary
281
     1
  3
COLORDICT
350
1AB
  3
MATERIALDICT
350
1AA
  0
DICTIONARY
  5
1A4
102
{ACAD_REACTORS
330
7
102
}
330
7
100
AcDbDictionary
281
     1
  3
DIMASSOC
350
1A6
  3
HIDETEXT
350
1A5
  3
PROJECTNAME
350
1A7
  0
DICTIONARY
  5
12
102
{ACAD_REACTORS
330
11
102
}
330
11
100
AcDbDictionary
281
     1
  0
LAYOUT
  5
A
102
{ACAD_XDICTIONARY
360
1AC
102
}
102
{ACAD_REACTORS
330
B
102
}
330
B
100
AcDbPlotSettings
  1

  2
Ａ４－縦3FRIM01.pc3
  4
A4
  6

 40
5.873749732971191
 41
5.873747825622558
 42
5.873748779296875
 43
5.873748779296875
 44
209.9733276367187
 45
296.9259948730469
 46
5.419999999999999
 47
0.0
 48
0.0
 49
0.0
140
0.0
141
0.0
142
1.0
143
1.382430990074067
 70
 11956
 72
     1
 73
     0
 74
     1
  7
tmsacad.ctb
 75
     0
147
0.7233634135664325
148
0.0128164608993302
149
0.0120295854767392
100
AcDbLayout
  1
Model
 70
     1
 71
     0
 10
0.0
 20
0.0
 11
12.0
 21
9.0
 12
0.0
 22
0.0
 32
0.0
 14
0.0
 24
0.0
 34
0.0
 15
0.0
 25
0.0
 35
0.0
146
0.0
 13
0.0
 23
0.0
 33
0.0
 16
1.0
 26
0.0
 36
0.0
 17
0.0
 27
1.0
 37
0.0
 76
     0
330
2
  0
LAYOUT
  5
F
102
{ACAD_XDICTIONARY
360
1AE
102
}
102
{ACAD_REACTORS
330
B
102
}
330
B
100
AcDbPlotSettings
  1

  2
None
  4

  6

 40
0.0
 41
0.0
 42
0.0
 43
0.0
 44
0.0
 45
0.0
 46
0.0
 47
0.0
 48
0.0
 49
0.0
140
0.0
141
0.0
142
1.0
143
1.0
 70
   688
 72
     0
 73
     0
 74
     5
  7
tmsacad.ctb
 75
    16
147
1.0
148
0.0
149
0.0
100
AcDbLayout
  1
レイアウト1
 70
     1
 71
     1
 10
0.0
 20
0.0
 11
12.0
 21
9.0
 12
0.0
 22
0.0
 32
0.0
 14
0.0
 24
0.0
 34
0.0
 15
0.0
 25
0.0
 35
0.0
146
0.0
 13
0.0
 23
0.0
 33
0.0
 16
1.0
 26
0.0
 36
0.0
 17
0.0
 27
1.0
 37
0.0
 76
     0
330
C
  0
MLINESTYLE
  5
2D
102
{ACAD_REACTORS
330
29
102
}
330
29
100
AcDbMlineStyle
  2
STANDARD
 70
     0
  3

 62
   256
 51
90.0
 52
90.0
 71
     2
 49
0.5
 62
   256
  6
BYLAYER
 49
-0.5
 62
   256
  6
BYLAYER
  0
ACDBPLACEHOLDER
  5
5
102
{ACAD_REACTORS
330
6
102
}
330
6
  0
XRECORD
  5
1AB
102
{ACAD_REACTORS
330
1A9
102
}
330
1A9
100
AcDbXrecord
280
     1
340
2C
  0
XRECORD
  5
1AA
102
{ACAD_REACTORS
330
1A9
102
}
330
1A9
100
AcDbXrecord
280
     1
340
2B
  0
DICTIONARYVAR
  5
1A6
102
{ACAD_REACTORS
330
1A4
102
}
330
1A4
100
DictionaryVariables
280
     0
  1
1
  0
DICTIONARYVAR
  5
1A5
102
{ACAD_REACTORS
330
1A4
102
}
330
1A4
100
DictionaryVariables
280
     0
  1
1
  0
DICTIONARYVAR
  5
1A7
102
{ACAD_REACTORS
330
1A4
102
}
330
1A4
100
DictionaryVariables
280
     0
  1

  0
DICTIONARY
  5
1AC
330
A
100
AcDbDictionary
280
     1
281
     1
  3
ACAD_XREC_ROUNDTRIP
360
1AD
  0
DICTIONARY
  5
1AE
330
F
100
AcDbDictionary
280
     1
281
     1
  3
ACAD_XREC_ROUNDTRIP
360
1AF
  0
XRECORD
  5
1AD
102
{ACAD_REACTORS
330
1AC
102
}
330
1AC
100
AcDbXrecord
280
     1
102
SHADEPLOT
 70
     0
102
SHADEPLOTRESLEVEL
 70
     2
102
SHADEPLOTCUSTOMDPI
 70
   300
  0
XRECORD
  5
1AF
102
{ACAD_REACTORS
330
1AE
102
}
330
1AE
100
AcDbXrecord
280
     1
102
SHADEPLOT
 70
     0
102
SHADEPLOTRESLEVEL
 70
     2
102
SHADEPLOTCUSTOMDPI
 70
   300
  0
ENDSEC
  0
EOF
