  0
SECTION
  2
HEADER
  9
$ACADVER
  1
AC1015
  9
$ACADMAINTVER
 70
    20
  9
$DWGCODEPAGE
  3
ANSI_932
  9
$INSBASE
 10
0.0
 20
372.4992141396417
 30
0.0
  9
$EXTMIN
 10
-60.74137834865905
 20
-59.8305548599701
 30
-0.0015258207003583
  9
$EXTMAX
 10
64.33913062130568
 20
53.30052705565504
 30
0.0000000349246037
  9
$LIMMIN
 10
-1101.784450318844
 20
-1579.160531687244
  9
$LIMMAX
 10
-508.2420711400536
 20
-1161.440814074914
  9
$ORTHOMODE
 70
     1
  9
$REGENMODE
 70
     1
  9
$FILLMODE
 70
     1
  9
$QTEXTMODE
 70
     0
  9
$MIRRTEXT
 70
     1
  9
$LTSCALE
 40
1.0
  9
$ATTMODE
 70
     1
  9
$TEXTSIZE
 40
3.0
  9
$TRACEWID
 40
0.5
  9
$TEXTSTYLE
  7
STANDARD
  9
$CLAYER
  8
SUNPO
  9
$CELTYPE
  6
BYLAYER
  9
$CECOLOR
 62
   256
  9
$CELTSCALE
 40
1.0
  9
$DISPSILH
 70
     0
  9
$DIMSCALE
 40
1.0
  9
$DIMASZ
 40
2.0
  9
$DIMEXO
 40
2.0
  9
$DIMDLI
 40
8.0
  9
$DIMRND
 40
0.0
  9
$DIMDLE
 40
0.0
  9
$DIMEXE
 40
2.0
  9
$DIMTP
 40
0.0
  9
$DIMTM
 40
0.0
  9
$DIMTXT
 40
2.5
  9
$DIMCEN
 40
0.0
  9
$DIMTSZ
 40
0.0
  9
$DIMTOL
 70
     0
  9
$DIMLIM
 70
     0
  9
$DIMTIH
 70
     0
  9
$DIMTOH
 70
     0
  9
$DIMSE1
 70
     0
  9
$DIMSE2
 70
     0
  9
$DIMTAD
 70
     3
  9
$DIMZIN
 70
     0
  9
$DIMBLK
  1

  9
$DIMASO
 70
     1
  9
$DIMSHO
 70
     1
  9
$DIMPOST
  1

  9
$DIMAPOST
  1

  9
$DIMALT
 70
     0
  9
$DIMALTD
 70
     2
  9
$DIMALTF
 40
25.4
  9
$DIMLFAC
 40
1.0
  9
$DIMTOFL
 70
     1
  9
$DIMTVP
 40
0.0
  9
$DIMTIX
 70
     0
  9
$DIMSOXD
 70
     0
  9
$DIMSAH
 70
     1
  9
$DIMBLK1
  1
OPEN30
  9
$DIMBLK2
  1
OPEN30
  9
$DIMSTYLE
  2
STANDARD
  9
$DIMCLRD
 70
     0
  9
$DIMCLRE
 70
     0
  9
$DIMCLRT
 70
     0
  9
$DIMTFAC
 40
1.0
  9
$DIMGAP
 40
0.5
  9
$DIMJUST
 70
     0
  9
$DIMSD1
 70
     0
  9
$DIMSD2
 70
     0
  9
$DIMTOLJ
 70
     1
  9
$DIMTZIN
 70
     0
  9
$DIMALTZ
 70
     0
  9
$DIMALTTZ
 70
     0
  9
$DIMUPT
 70
     0
  9
$DIMDEC
 70
     4
  9
$DIMTDEC
 70
     4
  9
$DIMALTU
 70
     2
  9
$DIMALTTD
 70
     2
  9
$DIMTXSTY
  7
STANDARD
  9
$DIMAUNIT
 70
     0
  9
$DIMADEC
 70
     0
  9
$DIMALTRND
 40
0.0
  9
$DIMAZIN
 70
     0
  9
$DIMDSEP
 70
    46
  9
$DIMATFIT
 70
     3
  9
$DIMFRAC
 70
     0
  9
$DIMLDRBLK
  1
OPEN30
  9
$DIMLUNIT
 70
     2
  9
$DIMLWD
 70
    -2
  9
$DIMLWE
 70
    -2
  9
$DIMTMOVE
 70
     0
  9
$LUNITS
 70
     2
  9
$LUPREC
 70
     4
  9
$SKETCHINC
 40
0.1
  9
$FILLETRAD
 40
0.0
  9
$AUNITS
 70
     0
  9
$AUPREC
 70
     0
  9
$MENU
  1
ACAD
  9
$ELEVATION
 40
0.0
  9
$PELEVATION
 40
0.0
  9
$THICKNESS
 40
0.0
  9
$LIMCHECK
 70
     0
  9
$CHAMFERA
 40
0.0
  9
$CHAMFERB
 40
0.0
  9
$CHAMFERC
 40
0.0
  9
$CHAMFERD
 40
0.0
  9
$SKPOLY
 70
     0
  9
$TDCREATE
 40
2451815.565532581
  9
$TDUCREATE
 40
2451815.190532581
  9
$TDUPDATE
 40
2454053.397869282
  9
$TDUUPDATE
 40
2454053.022869282
  9
$TDINDWG
 40
0.9280299884
  9
$TDUSRTIMER
 40
0.9280299884
  9
$USRTIMER
 70
     1
  9
$ANGBASE
 50
0.0
  9
$ANGDIR
 70
     0
  9
$PDMODE
 70
     0
  9
$PDSIZE
 40
0.0
  9
$PLINEWID
 40
0.0
  9
$SPLFRAME
 70
     0
  9
$SPLINETYPE
 70
     6
  9
$SPLINESEGS
 70
     8
  9
$HANDSEED
  5
146
  9
$SURFTAB1
 70
     6
  9
$SURFTAB2
 70
     6
  9
$SURFTYPE
 70
     6
  9
$SURFU
 70
     6
  9
$SURFV
 70
     6
  9
$UCSBASE
  2

  9
$UCSNAME
  2

  9
$UCSORG
 10
0.0
 20
0.0
 30
0.0
  9
$UCSXDIR
 10
1.0
 20
0.0
 30
0.0
  9
$UCSYDIR
 10
0.0
 20
1.0
 30
0.0
  9
$UCSORTHOREF
  2

  9
$UCSORTHOVIEW
 70
     0
  9
$UCSORGTOP
 10
0.0
 20
0.0
 30
0.0
  9
$UCSORGBOTTOM
 10
0.0
 20
0.0
 30
0.0
  9
$UCSORGLEFT
 10
0.0
 20
0.0
 30
0.0
  9
$UCSORGRIGHT
 10
0.0
 20
0.0
 30
0.0
  9
$UCSORGFRONT
 10
0.0
 20
0.0
 30
0.0
  9
$UCSORGBACK
 10
0.0
 20
0.0
 30
0.0
  9
$PUCSBASE
  2

  9
$PUCSNAME
  2

  9
$PUCSORG
 10
0.0
 20
0.0
 30
0.0
  9
$PUCSXDIR
 10
1.0
 20
0.0
 30
0.0
  9
$PUCSYDIR
 10
0.0
 20
1.0
 30
0.0
  9
$PUCSORTHOREF
  2

  9
$PUCSORTHOVIEW
 70
     0
  9
$PUCSORGTOP
 10
0.0
 20
0.0
 30
0.0
  9
$PUCSORGBOTTOM
 10
0.0
 20
0.0
 30
0.0
  9
$PUCSORGLEFT
 10
0.0
 20
0.0
 30
0.0
  9
$PUCSORGRIGHT
 10
0.0
 20
0.0
 30
0.0
  9
$PUCSORGFRONT
 10
0.0
 20
0.0
 30
0.0
  9
$PUCSORGBACK
 10
0.0
 20
0.0
 30
0.0
  9
$USERI1
 70
     0
  9
$USERI2
 70
     0
  9
$USERI3
 70
     0
  9
$USERI4
 70
     0
  9
$USERI5
 70
     0
  9
$USERR1
 40
0.0
  9
$USERR2
 40
0.0
  9
$USERR3
 40
0.0
  9
$USERR4
 40
0.0
  9
$USERR5
 40
0.0
  9
$WORLDVIEW
 70
     1
  9
$SHADEDGE
 70
     3
  9
$SHADEDIF
 70
    70
  9
$TILEMODE
 70
     1
  9
$MAXACTVP
 70
    48
  9
$PINSBASE
 10
0.0
 20
0.0
 30
0.0
  9
$PLIMCHECK
 70
     0
  9
$PEXTMIN
 10
1.000000000000000E+20
 20
1.000000000000000E+20
 30
1.000000000000000E+20
  9
$PEXTMAX
 10
-1.000000000000000E+20
 20
-1.000000000000000E+20
 30
-1.000000000000000E+20
  9
$PLIMMIN
 10
0.0
 20
0.0
  9
$PLIMMAX
 10
12.0
 20
9.0
  9
$UNITMODE
 70
     0
  9
$VISRETAIN
 70
     1
  9
$PLINEGEN
 70
     0
  9
$PSLTSCALE
 70
     1
  9
$TREEDEPTH
 70
  3020
  9
$CMLSTYLE
  2
STANDARD
  9
$CMLJUST
 70
     0
  9
$CMLSCALE
 40
1.0
  9
$PROXYGRAPHICS
 70
     1
  9
$MEASUREMENT
 70
     0
  9
$CELWEIGHT
370
    -1
  9
$ENDCAPS
280
     0
  9
$JOINSTYLE
280
     0
  9
$LWDISPLAY
290
     0
  9
$INSUNITS
 70
     0
  9
$HYPERLINKBASE
  1

  9
$STYLESHEET
  1

  9
$XEDIT
290
     1
  9
$CEPSNTYPE
380
     0
  9
$PSTYLEMODE
290
     1
  9
$FINGERPRINTGUID
  2
{1754B7AB-9B3C-11D4-AD9E-00104B1004F2}
  9
$VERSIONGUID
  2
{723C70BE-1164-4FC7-8E24-3F5B79E46DE5}
  9
$EXTNAMES
290
     1
  9
$PSVPSCALE
 40
0.0
  9
$OLESTARTUP
290
     0
  0
ENDSEC
  0
SECTION
  2
CLASSES
  0
CLASS
  1
ACDBDICTIONARYWDFLT
  2
AcDbDictionaryWithDefault
  3
ObjectDBX Classes
 90
        0
280
     0
281
     0
  0
CLASS
  1
ACDBPLACEHOLDER
  2
AcDbPlaceHolder
  3
ObjectDBX Classes
 90
        0
280
     0
281
     0
  0
CLASS
  1
LAYOUT
  2
AcDbLayout
  3
ObjectDBX Classes
 90
        0
280
     0
281
     0
  0
CLASS
  1
DICTIONARYVAR
  2
AcDbDictionaryVar
  3
ObjectDBX Classes
 90
        0
280
     0
281
     0
  0
ENDSEC
  0
SECTION
  2
TABLES
  0
TABLE
  2
VPORT
  5
20
330
0
100
AcDbSymbolTable
 70
     3
  0
VPORT
  5
13E
330
20
100
AcDbSymbolTableRecord
100
AcDbViewportTableRecord
  2
*Active
 70
     0
 10
0.0
 20
0.0
 11
1.0
 21
1.0
 12
1.798876136323315
 22
-3.265013902157534
 13
0.0
 23
0.0
 14
1.0
 24
1.0
 15
0.0
 25
0.0
 16
0.0
 26
0.0
 36
1.0
 17
0.0
 27
0.0
 37
0.0
 40
114.0137691607405
 41
1.401041666666666
 42
50.0
 43
0.0
 44
0.0
 50
0.0
 51
0.0
 71
     0
 72
 10000
 73
     1
 74
     0
 75
     0
 76
     1
 77
     0
 78
     0
281
     0
 65
     1
110
0.0
120
0.0
130
0.0
111
1.0
121
0.0
131
0.0
112
0.0
122
1.0
132
0.0
 79
     0
146
0.0
  0
ENDTAB
  0
TABLE
  2
LTYPE
  5
1B
330
0
100
AcDbSymbolTable
 70
     3
  0
LTYPE
  5
1C
330
1B
100
AcDbSymbolTableRecord
100
AcDbLinetypeTableRecord
  2
BYBLOCK
 70
     0
  3

 72
    65
 73
     0
 40
0.0
  0
LTYPE
  5
1D
330
1B
100
AcDbSymbolTableRecord
100
AcDbLinetypeTableRecord
  2
BYLAYER
 70
     0
  3

 72
    65
 73
     0
 40
0.0
  0
LTYPE
  5
A
330
1B
100
AcDbSymbolTableRecord
100
AcDbLinetypeTableRecord
  2
CONTINUOUS
 70
     0
  3
Solid line
 72
    65
 73
     0
 40
0.0
  0
LTYPE
  5
99
330
1B
100
AcDbSymbolTableRecord
100
AcDbLinetypeTableRecord
  2
DOTTED
 70
     0
  3
Dotted
 72
    65
 73
     2
 40
3.5
 49
0.5
 74
     0
 49
-3.0
 74
     0
  0
LTYPE
  5
100
330
1B
100
AcDbSymbolTableRecord
100
AcDbLinetypeTableRecord
  2
S110
 70
     0
  3
--- - - --- - - --- 3,-1,1,-1,1,-1
 72
    65
 73
     6
 40
8.0
 49
3.0
 74
     0
 49
-1.0
 74
     0
 49
1.0
 74
     0
 49
-1.0
 74
     0
 49
1.0
 74
     0
 49
-1.0
 74
     0
  0
ENDTAB
  0
TABLE
  2
LAYER
  5
14
102
{ACAD_XDICTIONARY
360
15
102
}
330
0
100
AcDbSymbolTable
 70
     7
  0
LAYER
  5
6
330
14
100
AcDbSymbolTableRecord
100
AcDbLayerTableRecord
  2
0
 70
     0
 62
     7
  6
CONTINUOUS
370
    -3
390
7
  0
LAYER
  5
60
330
14
100
AcDbSymbolTableRecord
100
AcDbLayerTableRecord
  2
DEFPOINTS
 70
     0
 62
     7
  6
CONTINUOUS
290
     0
370
    -3
390
7
  0
LAYER
  5
3A
330
14
100
AcDbSymbolTableRecord
100
AcDbLayerTableRecord
  2
WAKU
 70
     0
 62
     4
  6
CONTINUOUS
370
    -3
390
7
  0
LAYER
  5
35
330
14
100
AcDbSymbolTableRecord
100
AcDbLayerTableRecord
  2
MOJI1
 70
     0
 62
     2
  6
CONTINUOUS
370
    -3
390
7
  0
LAYER
  5
7F
330
14
100
AcDbSymbolTableRecord
100
AcDbLayerTableRecord
  2
GAIKEI
 70
     0
 62
     7
  6
CONTINUOUS
370
    -3
390
7
  0
LAYER
  5
38
330
14
100
AcDbSymbolTableRecord
100
AcDbLayerTableRecord
  2
TOUROKU
 70
     0
 62
     1
  6
CONTINUOUS
370
    -3
390
7
  0
LAYER
  5
32
330
14
100
AcDbSymbolTableRecord
100
AcDbLayerTableRecord
  2
SUNPO
 70
     0
 62
     3
  6
CONTINUOUS
370
    -3
390
7
  0
ENDTAB
  0
TABLE
  2
STYLE
  5
18
330
0
100
AcDbSymbolTable
 70
     2
  0
STYLE
  5
19
330
18
100
AcDbSymbolTableRecord
100
AcDbTextStyleTableRecord
  2
STANDARD
 70
     0
 40
0.0
 41
1.0
 50
0.0
 71
     0
 42
3.0
  3
MONOTXT.shx
  4
BIGFONT.shx
  0
STYLE
  5
36
330
18
100
AcDbSymbolTableRecord
100
AcDbTextStyleTableRecord
  2
KANJI
 70
     0
 40
0.0
 41
1.0
 50
0.0
 71
     0
 42
3.5
  3
MONOTXT
  4
BIGFONT
  0
ENDTAB
  0
TABLE
  2
VIEW
  5
1E
330
0
100
AcDbSymbolTable
 70
     0
  0
ENDTAB
  0
TABLE
  2
UCS
  5
1F
330
0
100
AcDbSymbolTable
 70
     0
  0
ENDTAB
  0
TABLE
  2
APPID
  5
22
330
0
100
AcDbSymbolTable
 70
     1
  0
APPID
  5
23
330
22
100
AcDbSymbolTableRecord
100
AcDbRegAppTableRecord
  2
ACAD
 70
     0
  0
ENDTAB
  0
TABLE
  2
DIMSTYLE
  5
24
330
0
100
AcDbSymbolTable
 70
     1
100
AcDbDimStyleTable
 71
     1
340
25
  0
DIMSTYLE
105
25
102
{ACAD_REACTORS
330
71
330
64
330
56
102
}
330
24
100
AcDbSymbolTableRecord
100
AcDbDimStyleTableRecord
  2
STANDARD
 70
     0
 40
0.0
 41
2.0
 42
2.0
 43
8.0
 44
2.0
 73
     0
 74
     0
 77
     3
140
3.0
141
0.0
173
     1
279
     2
288
     1
340
19
341
26
343
26
344
26
  0
ENDTAB
  0
TABLE
  2
BLOCK_RECORD
  5
1
330
0
100
AcDbSymbolTable
 70
     7
  0
BLOCK_RECORD
  5
2
102
{ACAD_XDICTIONARY
360
3
102
}
330
1
100
AcDbSymbolTableRecord
100
AcDbBlockTableRecord
  2
*MODEL_SPACE
340
C
  0
BLOCK_RECORD
  5
E
102
{ACAD_XDICTIONARY
360
F
102
}
330
1
100
AcDbSymbolTableRecord
100
AcDbBlockTableRecord
  2
*PAPER_SPACE
340
13
  0
BLOCK_RECORD
  5
26
330
1
100
AcDbSymbolTableRecord
100
AcDbBlockTableRecord
  2
_OPEN30
340
0
102
{BLKREFS
331
6A
331
6B
331
77
331
78
331
5C
331
5D
331
11A
331
11B
331
126
331
127
331
132
331
133
102
}
  0
BLOCK_RECORD
  5
72
330
1
100
AcDbSymbolTableRecord
100
AcDbBlockTableRecord
  2
*D1
340
0
  0
BLOCK_RECORD
  5
65
330
1
100
AcDbSymbolTableRecord
100
AcDbBlockTableRecord
  2
*D2
340
0
  0
BLOCK_RECORD
  5
57
330
1
100
AcDbSymbolTableRecord
100
AcDbBlockTableRecord
  2
*D3
340
0
  0
BLOCK_RECORD
  5
116
330
1
100
AcDbSymbolTableRecord
100
AcDbBlockTableRecord
  2
*D4
340
0
  0
BLOCK_RECORD
  5
122
330
1
100
AcDbSymbolTableRecord
100
AcDbBlockTableRecord
  2
*D5
340
0
  0
BLOCK_RECORD
  5
12E
330
1
100
AcDbSymbolTableRecord
100
AcDbBlockTableRecord
  2
*D6
340
0
  0
ENDTAB
  0
ENDSEC
  0
SECTION
  2
BLOCKS
  0
BLOCK
  5
5
330
2
100
AcDbEntity
  8
0
100
AcDbBlockBegin
  2
*MODEL_SPACE
 70
     0
 10
0.0
 20
0.0
 30
0.0
  3
*MODEL_SPACE
  1

  0
ENDBLK
  5
B
330
2
100
AcDbEntity
  8
0
100
AcDbBlockEnd
  0
BLOCK
  5
11
330
E
100
AcDbEntity
 67
     1
  8
0
100
AcDbBlockBegin
  2
*PAPER_SPACE
 70
     0
 10
0.0
 20
0.0
 30
0.0
  3
*PAPER_SPACE
  1

  0
ENDBLK
  5
12
330
E
100
AcDbEntity
 67
     1
  8
0
100
AcDbBlockEnd
  0
BLOCK
  5
27
330
26
100
AcDbEntity
  8
0
100
AcDbBlockBegin
  2
_OPEN30
 70
     0
 10
0.0
 20
0.0
 30
0.0
  3
_OPEN30
  1

  0
LINE
  5
28
330
26
100
AcDbEntity
  8
0
  6
ByBlock
 62
     0
100
AcDbLine
 10
-1.0
 20
0.26794919
 30
0.0
 11
0.0
 21
0.0
 31
0.0
  0
LINE
  5
29
330
26
100
AcDbEntity
  8
0
  6
ByBlock
 62
     0
100
AcDbLine
 10
0.0
 20
0.0
 30
0.0
 11
-1.0
 21
-0.26794919
 31
0.0
  0
LINE
  5
2A
330
26
100
AcDbEntity
  8
0
  6
ByBlock
 62
     0
100
AcDbLine
 10
0.0
 20
0.0
 30
0.0
 11
-1.0
 21
0.0
 31
0.0
  0
ENDBLK
  5
2B
330
26
100
AcDbEntity
  8
0
100
AcDbBlockEnd
  0
BLOCK
  5
73
330
72
100
AcDbEntity
  8
0
100
AcDbBlockBegin
  2
*D1
 70
     1
 10
0.0
 20
0.0
 30
0.0
  3
*D1
  1

  0
LINE
  5
74
330
72
100
AcDbEntity
  8
SUNPO
 62
     0
370
    -2
100
AcDbLine
 10
33.3953952302133
 20
340.3855456694784
 30
0.0
 11
33.3953952302133
 21
348.3855456737016
 31
0.0
  0
LINE
  5
75
330
72
100
AcDbEntity
  8
SUNPO
 62
     0
370
    -2
100
AcDbLine
 10
49.8953952283182
 20
340.3855456737016
 30
0.0
 11
49.8953952283182
 21
348.3855456737016
 31
0.0
  0
LINE
  5
76
330
72
100
AcDbEntity
  8
SUNPO
 62
     0
370
    -2
100
AcDbLine
 10
35.3953952302133
 20
346.3855456737016
 30
0.0
 11
47.8953952283182
 21
346.3855456737016
 31
0.0
  0
INSERT
  5
77
330
72
100
AcDbEntity
  8
SUNPO
 62
     0
370
    -2
100
AcDbBlockReference
  2
_OPEN30
 10
33.3953952302133
 20
346.3855456737016
 30
0.0
 41
2.0
 42
2.0
 43
2.0
 50
180.0
  0
INSERT
  5
78
330
72
100
AcDbEntity
  8
SUNPO
 62
     0
370
    -2
100
AcDbBlockReference
  2
_OPEN30
 10
49.8953952283182
 20
346.3855456737016
 30
0.0
 41
2.0
 42
2.0
 43
2.0
  0
MTEXT
  5
79
330
72
100
AcDbEntity
  8
SUNPO
 62
     0
100
AcDbMText
 10
41.64539522926574
 20
348.1355456737016
 30
0.0
 40
2.5
 41
0.0
 71
     5
 72
     1
  1
\A1;165
 73
     1
 44
1.0
1001
ACAD
1000
MTEXTBEGIN
1070
    73
1070
     1
1070
    44
1040
1.0
1070
    74
1070
     0
1000
MTEXTEND
  0
POINT
  5
7A
330
72
100
AcDbEntity
  8
DEFPOINTS
 62
     0
100
AcDbPoint
 10
33.3953952302133
 20
338.3855456694784
 30
0.0
  0
POINT
  5
7B
330
72
100
AcDbEntity
  8
DEFPOINTS
 62
     0
100
AcDbPoint
 10
49.8953952283182
 20
338.3855456737017
 30
0.0
  0
POINT
  5
7C
330
72
100
AcDbEntity
  8
DEFPOINTS
 62
     0
100
AcDbPoint
 10
49.8953952283182
 20
346.3855456737016
 30
0.0
  0
ENDBLK
  5
7D
330
72
100
AcDbEntity
  8
0
100
AcDbBlockEnd
  0
BLOCK
  5
66
330
65
100
AcDbEntity
  8
0
100
AcDbBlockBegin
  2
*D2
 70
     1
 10
0.0
 20
0.0
 30
0.0
  3
*D2
  1

  0
LINE
  5
67
330
65
100
AcDbEntity
  8
SUNPO
 62
     0
370
    -2
100
AcDbLine
 10
51.90495662588501
 20
338.3872618885135
 30
0.0
 11
60.21207140413704
 21
338.3872618885135
 31
0.0
  0
LINE
  5
68
330
65
100
AcDbEntity
  8
SUNPO
 62
     0
370
    -2
100
AcDbLine
 10
51.90495662588501
 20
317.7472618885134
 30
0.0
 11
60.21207140413703
 21
317.7472618885134
 31
0.0
  0
LINE
  5
69
330
65
100
AcDbEntity
  8
SUNPO
 62
     0
370
    -2
100
AcDbLine
 10
58.21207140413704
 20
336.3872618885135
 30
0.0
 11
58.21207140413703
 21
319.7472618885134
 31
0.0
  0
INSERT
  5
6A
330
65
100
AcDbEntity
  8
SUNPO
 62
     0
370
    -2
100
AcDbBlockReference
  2
_OPEN30
 10
58.21207140413704
 20
338.3872618885135
 30
0.0
 41
2.0
 42
2.0
 43
2.0
 50
90.0
  0
INSERT
  5
6B
330
65
100
AcDbEntity
  8
SUNPO
 62
     0
370
    -2
100
AcDbBlockReference
  2
_OPEN30
 10
58.21207140413703
 20
317.7472618885134
 30
0.0
 41
2.0
 42
2.0
 43
2.0
 50
270.0
  0
MTEXT
  5
6C
330
65
100
AcDbEntity
  8
SUNPO
 62
     0
100
AcDbMText
 10
56.46207140413697
 20
328.0672618885135
 30
0.0
 40
2.5
 41
0.0
 71
     5
 72
     1
  1
\A1;206.5
 11
0.0000000000000001
 21
1.0
 31
0.0
 73
     1
 44
1.0
1001
ACAD
1000
MTEXTBEGIN
1070
    73
1070
     1
1070
    44
1040
1.0
1070
    74
1070
     0
1000
MTEXTEND
  0
POINT
  5
6D
330
65
100
AcDbEntity
  8
DEFPOINTS
 62
     0
100
AcDbPoint
 10
49.90495662588501
 20
338.3872618885135
 30
0.0
  0
POINT
  5
6E
330
65
100
AcDbEntity
  8
DEFPOINTS
 62
     0
100
AcDbPoint
 10
49.90495662588501
 20
317.7472618885134
 30
0.0
  0
POINT
  5
6F
330
65
100
AcDbEntity
  8
DEFPOINTS
 62
     0
100
AcDbPoint
 10
58.21207140413703
 20
317.7472618885134
 30
0.0
  0
ENDBLK
  5
70
330
65
100
AcDbEntity
  8
0
100
AcDbBlockEnd
  0
BLOCK
  5
58
330
57
100
AcDbEntity
  8
0
100
AcDbBlockBegin
  2
*D3
 70
     1
 10
0.0
 20
0.0
 30
0.0
  3
*D3
  1

  0
LINE
  5
59
330
57
100
AcDbEntity
  8
SUNPO
 62
     0
370
    -2
100
AcDbLine
 10
72.6158056674576
 20
340.3855456694783
 30
0.0
 11
72.6158056674576
 21
348.3855456737016
 31
0.0
  0
LINE
  5
5A
330
57
100
AcDbEntity
  8
SUNPO
 62
     0
370
    -2
100
AcDbLine
 10
94.3658056674576
 20
340.3855456737016
 30
0.0
 11
94.3658056674576
 21
348.3855456737016
 31
0.0
  0
LINE
  5
5B
330
57
100
AcDbEntity
  8
SUNPO
 62
     0
370
    -2
100
AcDbLine
 10
74.61580566745761
 20
346.3855456737016
 30
0.0
 11
92.36580566745761
 21
346.3855456737016
 31
0.0
  0
INSERT
  5
5C
330
57
100
AcDbEntity
  8
SUNPO
 62
     0
370
    -2
100
AcDbBlockReference
  2
_OPEN30
 10
72.6158056674576
 20
346.3855456737016
 30
0.0
 41
2.0
 42
2.0
 43
2.0
 50
180.0
  0
INSERT
  5
5D
330
57
100
AcDbEntity
  8
SUNPO
 62
     0
370
    -2
100
AcDbBlockReference
  2
_OPEN30
 10
94.3658056674576
 20
346.3855456737016
 30
0.0
 41
2.0
 42
2.0
 43
2.0
  0
MTEXT
  5
5E
330
57
100
AcDbEntity
  8
SUNPO
 62
     0
100
AcDbMText
 10
83.4908056674576
 20
348.1355456737016
 30
0.0
 40
2.5
 41
0.0
 71
     5
 72
     1
  1
\A1;217.5
 73
     1
 44
1.0
1001
ACAD
1000
MTEXTBEGIN
1070
    73
1070
     1
1070
    44
1040
1.0
1070
    74
1070
     0
1000
MTEXTEND
  0
POINT
  5
5F
330
57
100
AcDbEntity
  8
DEFPOINTS
 62
     0
100
AcDbPoint
 10
72.6158056674576
 20
338.3855456694783
 30
0.0
  0
POINT
  5
61
330
57
100
AcDbEntity
  8
DEFPOINTS
 62
     0
100
AcDbPoint
 10
94.3658056674576
 20
338.3855456737016
 30
0.0
  0
POINT
  5
62
330
57
100
AcDbEntity
  8
DEFPOINTS
 62
     0
100
AcDbPoint
 10
94.3658056674576
 20
346.3855456737016
 30
0.0
  0
ENDBLK
  5
63
330
57
100
AcDbEntity
  8
0
100
AcDbBlockEnd
  0
BLOCK
  5
120
330
116
100
AcDbEntity
  8
0
100
AcDbBlockBegin
  2
*D4
 70
     1
 10
0.0
 20
0.0
 30
0.0
  3
*D4
  1

  0
LINE
  5
117
330
116
100
AcDbEntity
  8
SUNPO
 62
     0
370
    -2
100
AcDbLine
 10
-29.27626660321249
 20
23.09567195462677
 30
0.0
 11
-29.27626660321249
 21
31.09567195885001
 31
0.0
  0
LINE
  5
118
330
116
100
AcDbEntity
  8
SUNPO
 62
     0
370
    -2
100
AcDbLine
 10
-12.77626660510758
 20
23.09567195885001
 30
0.0
 11
-12.77626660510758
 21
31.09567195885001
 31
0.0
  0
LINE
  5
119
330
116
100
AcDbEntity
  8
SUNPO
 62
     0
370
    -2
100
AcDbLine
 10
-27.27626660321249
 20
29.09567195885001
 30
0.0
 11
-14.77626660510759
 21
29.09567195885001
 31
0.0
  0
INSERT
  5
11A
330
116
100
AcDbEntity
  8
SUNPO
 62
     0
370
    -2
100
AcDbBlockReference
  2
_OPEN30
 10
-29.27626660321249
 20
29.09567195885001
 30
0.0
 41
2.0
 42
2.0
 43
2.0
 50
180.0
  0
INSERT
  5
11B
330
116
100
AcDbEntity
  8
SUNPO
 62
     0
370
    -2
100
AcDbBlockReference
  2
_OPEN30
 10
-12.77626660510758
 20
29.09567195885001
 30
0.0
 41
2.0
 42
2.0
 43
2.0
  0
MTEXT
  5
11C
330
116
100
AcDbEntity
  8
SUNPO
 62
     0
100
AcDbMText
 10
-21.02626660416004
 20
30.84567195885
 30
0.0
 40
2.5
 41
0.0
 71
     5
 72
     1
  1
\A1;165
 73
     1
 44
1.0
1001
ACAD
1000
MTEXTBEGIN
1070
    73
1070
     1
1070
    44
1040
1.0
1070
    74
1070
     0
1000
MTEXTEND
  0
POINT
  5
11D
330
116
100
AcDbEntity
  8
DEFPOINTS
 62
     0
100
AcDbPoint
 10
-29.27626660321249
 20
21.09567195462677
 30
0.0
  0
POINT
  5
11E
330
116
100
AcDbEntity
  8
DEFPOINTS
 62
     0
100
AcDbPoint
 10
-12.77626660510758
 20
21.09567195885
 30
0.0
  0
POINT
  5
11F
330
116
100
AcDbEntity
  8
DEFPOINTS
 62
     0
100
AcDbPoint
 10
-12.77626660510758
 20
29.09567195885001
 30
0.0
  0
ENDBLK
  5
121
330
116
100
AcDbEntity
  8
0
100
AcDbBlockEnd
  0
BLOCK
  5
12C
330
122
100
AcDbEntity
  8
0
100
AcDbBlockBegin
  2
*D5
 70
     1
 10
0.0
 20
0.0
 30
0.0
  3
*D5
  1

  0
LINE
  5
123
330
122
100
AcDbEntity
  8
SUNPO
 62
     0
370
    -2
100
AcDbLine
 10
-10.76670520754077
 20
21.0973881736619
 30
0.0
 11
-2.459590429288754
 21
21.09738817366189
 31
0.0
  0
LINE
  5
124
330
122
100
AcDbEntity
  8
SUNPO
 62
     0
370
    -2
100
AcDbLine
 10
-10.76670520754077
 20
0.4573881736617404
 30
0.0
 11
-2.459590429288759
 21
0.4573881736617381
 31
0.0
  0
LINE
  5
125
330
122
100
AcDbEntity
  8
SUNPO
 62
     0
370
    -2
100
AcDbLine
 10
-4.459590429288755
 20
19.09738817366189
 30
0.0
 11
-4.459590429288758
 21
2.457388173661738
 31
0.0
  0
INSERT
  5
126
330
122
100
AcDbEntity
  8
SUNPO
 62
     0
370
    -2
100
AcDbBlockReference
  2
_OPEN30
 10
-4.459590429288755
 20
21.09738817366189
 30
0.0
 41
2.0
 42
2.0
 43
2.0
 50
90.0
  0
INSERT
  5
127
330
122
100
AcDbEntity
  8
SUNPO
 62
     0
370
    -2
100
AcDbBlockReference
  2
_OPEN30
 10
-4.459590429288759
 20
0.4573881736617386
 30
0.0
 41
2.0
 42
2.0
 43
2.0
 50
270.0
  0
MTEXT
  5
128
330
122
100
AcDbEntity
  8
SUNPO
 62
     0
100
AcDbMText
 10
-6.209590429288758
 20
10.77738817366181
 30
0.0
 40
2.5
 41
0.0
 71
     5
 72
     1
  1
\A1;206.5
 11
0.0000000000000001
 21
1.0
 31
0.0
 73
     1
 44
1.0
1001
ACAD
1000
MTEXTBEGIN
1070
    73
1070
     1
1070
    44
1040
1.0
1070
    74
1070
     0
1000
MTEXTEND
  0
POINT
  5
129
330
122
100
AcDbEntity
  8
DEFPOINTS
 62
     0
100
AcDbPoint
 10
-12.76670520754077
 20
21.0973881736619
 30
0.0
  0
POINT
  5
12A
330
122
100
AcDbEntity
  8
DEFPOINTS
 62
     0
100
AcDbPoint
 10
-12.76670520754077
 20
0.4573881736617409
 30
0.0
  0
POINT
  5
12B
330
122
100
AcDbEntity
  8
DEFPOINTS
 62
     0
100
AcDbPoint
 10
-4.459590429288759
 20
0.4573881736617386
 30
0.0
  0
ENDBLK
  5
12D
330
122
100
AcDbEntity
  8
0
100
AcDbBlockEnd
  0
BLOCK
  5
138
330
12E
100
AcDbEntity
  8
0
100
AcDbBlockBegin
  2
*D6
 70
     1
 10
0.0
 20
0.0
 30
0.0
  3
*D6
  1

  0
LINE
  5
12F
330
12E
100
AcDbEntity
  8
SUNPO
 62
     0
370
    -2
100
AcDbLine
 10
9.94414383403182
 20
23.09567195462671
 30
0.0
 11
9.94414383403182
 21
31.09567195884995
 31
0.0
  0
LINE
  5
130
330
12E
100
AcDbEntity
  8
SUNPO
 62
     0
370
    -2
100
AcDbLine
 10
31.69414383403182
 20
23.09567195884995
 30
0.0
 11
31.69414383403182
 21
31.09567195884995
 31
0.0
  0
LINE
  5
131
330
12E
100
AcDbEntity
  8
SUNPO
 62
     0
370
    -2
100
AcDbLine
 10
11.94414383403182
 20
29.09567195884995
 30
0.0
 11
29.69414383403182
 21
29.09567195884995
 31
0.0
  0
INSERT
  5
132
330
12E
100
AcDbEntity
  8
SUNPO
 62
     0
370
    -2
100
AcDbBlockReference
  2
_OPEN30
 10
9.94414383403182
 20
29.09567195884995
 30
0.0
 41
2.0
 42
2.0
 43
2.0
 50
180.0
  0
INSERT
  5
133
330
12E
100
AcDbEntity
  8
SUNPO
 62
     0
370
    -2
100
AcDbBlockReference
  2
_OPEN30
 10
31.69414383403182
 20
29.09567195884995
 30
0.0
 41
2.0
 42
2.0
 43
2.0
  0
MTEXT
  5
134
330
12E
100
AcDbEntity
  8
SUNPO
 62
     0
100
AcDbMText
 10
20.81914383403182
 20
30.84567195884995
 30
0.0
 40
2.5
 41
0.0
 71
     5
 72
     1
  1
\A1;217.5
 73
     1
 44
1.0
1001
ACAD
1000
MTEXTBEGIN
1070
    73
1070
     1
1070
    44
1040
1.0
1070
    74
1070
     0
1000
MTEXTEND
  0
POINT
  5
135
330
12E
100
AcDbEntity
  8
DEFPOINTS
 62
     0
100
AcDbPoint
 10
9.94414383403182
 20
21.09567195462671
 30
0.0
  0
POINT
  5
136
330
12E
100
AcDbEntity
  8
DEFPOINTS
 62
     0
100
AcDbPoint
 10
31.69414383403182
 20
21.09567195884995
 30
0.0
  0
POINT
  5
137
330
12E
100
AcDbEntity
  8
DEFPOINTS
 62
     0
100
AcDbPoint
 10
31.69414383403182
 20
29.09567195884995
 30
0.0
  0
ENDBLK
  5
139
330
12E
100
AcDbEntity
  8
0
100
AcDbBlockEnd
  0
ENDSEC
  0
SECTION
  2
ENTITIES
  0
TEXT
  5
34
330
2
100
AcDbEntity
  8
MOJI1
100
AcDbText
 10
-33.67166183342579
 20
49.20934042479029
 30
0.0
 40
4.0
  1
ネットワークカメラ（壁取付金具付）
  7
KANJI
100
AcDbText
  0
TEXT
  5
37
330
2
100
AcDbEntity
  8
TOUROKU
100
AcDbText
 10
29.12828819950148
 20
43.20934042479007
 30
0.0
 40
2.0
  1
ＤＧＮＳ２０２＋ＤＧＱ１５０Ｃ
 72
     2
 11
64.32828819950145
 21
43.20934042479007
 31
0.0
100
AcDbText
  0
LINE
  5
39
330
2
100
AcDbEntity
  8
WAKU
 62
     4
100
AcDbLine
 10
64.32833816657399
 20
-19.79065957520981
 30
0.0
 11
64.32833816657399
 21
-59.79065957520981
 31
0.0
  0
LINE
  5
3B
330
2
100
AcDbEntity
  8
WAKU
 62
     4
100
AcDbLine
 10
-20.6716618334259
 20
-19.79065957520981
 30
0.0
 11
-20.6716618334259
 21
-59.79065957520981
 31
0.0
  0
TEXT
  5
3C
330
2
100
AcDbEntity
  8
MOJI1
100
AcDbText
 10
-58.1716618334259
 20
-23.79065957520982
 30
0.0
 40
3.0
  1
電　源
100
AcDbText
  0
TEXT
  5
3D
330
2
100
AcDbEntity
  8
MOJI1
100
AcDbText
 10
-18.1716618334259
 20
-23.79065957520982
 30
0.0
 40
3.0
  1
ＤＣ１２Ｖ、ＰｏＥ（ＩＥＥＥ８０２．３ａｆ準拠)
 41
0.95
100
AcDbText
  0
LINE
  5
3E
330
2
100
AcDbEntity
  8
WAKU
 62
     4
100
AcDbLine
 10
-60.6716618334259
 20
-19.79065957520981
 30
0.0
 11
-60.6716618334259
 21
-59.79065957520981
 31
0.0
  0
LINE
  5
3F
330
2
100
AcDbEntity
  8
WAKU
 62
     1
100
AcDbLine
 10
-60.6716618334259
 20
-34.79065957520982
 30
0.0
 11
64.32833816657399
 21
-34.79065957520982
 31
0.0
  0
LINE
  5
40
330
2
100
AcDbEntity
  8
WAKU
 62
     1
100
AcDbLine
 10
-60.6716618334259
 20
-39.79065957520982
 30
0.0
 11
64.32833816657399
 21
-39.79065957520982
 31
0.0
  0
LINE
  5
41
330
2
100
AcDbEntity
  8
WAKU
 62
     1
100
AcDbLine
 10
-60.6716618334259
 20
-44.79065957520981
 30
0.0
 11
64.32833816657399
 21
-44.79065957520981
 31
0.0
  0
LINE
  5
42
330
2
100
AcDbEntity
  8
WAKU
 62
     1
100
AcDbLine
 10
-60.6716618334259
 20
-49.79065957520981
 30
0.0
 11
64.32833816657399
 21
-49.79065957520981
 31
0.0
  0
LINE
  5
43
330
2
100
AcDbEntity
  8
WAKU
 62
     4
100
AcDbLine
 10
64.32833816657399
 20
-59.79065957520981
 30
0.0
 11
-60.6716618334259
 21
-59.79065957520981
 31
0.0
  0
LINE
  5
44
330
2
100
AcDbEntity
  8
WAKU
 62
     4
100
AcDbLine
 10
-60.6716618334259
 20
-19.79065957520981
 30
0.0
 11
64.32833816657399
 21
-19.79065957520981
 31
0.0
  0
LINE
  5
45
330
2
100
AcDbEntity
  8
WAKU
 62
     1
100
AcDbLine
 10
-60.6716618334259
 20
-24.79065957520982
 30
0.0
 11
64.32833816657399
 21
-24.79065957520982
 31
0.0
  0
LINE
  5
46
330
2
100
AcDbEntity
  8
WAKU
 62
     1
100
AcDbLine
 10
-60.6716618334259
 20
-29.79065957520982
 30
0.0
 11
64.32833816657399
 21
-29.79065957520982
 31
0.0
  0
TEXT
  5
47
330
2
100
AcDbEntity
  8
MOJI1
100
AcDbText
 10
-18.1716618334259
 20
-28.79065957520982
 30
0.0
 40
3.0
  1
ＤＣ１２Ｖ：約１Ａ、ＰｏＥ：約１２Ｗ（クラス0機器)
 41
0.9
100
AcDbText
  0
TEXT
  5
48
330
2
100
AcDbEntity
  8
MOJI1
100
AcDbText
 10
-58.1716618334259
 20
-28.79065957520982
 30
0.0
 40
3.0
  1
消費電力
100
AcDbText
  0
TEXT
  5
49
330
2
100
AcDbEntity
  8
MOJI1
100
AcDbText
 10
-58.1716618334259
 20
-33.79065957520982
 30
0.0
 40
3.0
  1
撮像素子
100
AcDbText
  0
TEXT
  5
4A
330
2
100
AcDbEntity
  8
MOJI1
100
AcDbText
 10
-18.1716618334259
 20
-33.79065957520982
 30
0.0
 40
3.0
  1
１／４型　インターライン転送方式ＣＣＤ
100
AcDbText
  0
TEXT
  5
4B
330
2
100
AcDbEntity
  8
MOJI1
100
AcDbText
 10
-18.1716618334259
 20
-43.79065957520981
 30
0.0
 40
3.0
  1
ＭＰＥＧ－４／ＪＰＥＧ　デュアルエンコーディング
 41
0.9
100
AcDbText
  0
TEXT
  5
4C
330
2
100
AcDbEntity
  8
MOJI1
100
AcDbText
 10
-58.1716618334259
 20
-43.79065957520981
 30
0.0
 40
3.0
  1
画像圧縮方式
100
AcDbText
  0
TEXT
  5
4D
330
2
100
AcDbEntity
  8
MOJI1
100
AcDbText
 10
-58.1716618334259
 20
-38.79065957520982
 30
0.0
 40
3.0
  1
最低照度
100
AcDbText
  0
TEXT
  5
4E
330
2
100
AcDbEntity
  8
MOJI1
100
AcDbText
 10
-18.1716618334259
 20
-38.79065957520982
 30
0.0
 40
3.0
  1
０．７ｌｘ（電子感度アップＯＦＦ、ＡＧＣ　ＨＩＧＨ時)
 41
0.85
100
AcDbText
  0
TEXT
  5
4F
330
2
100
AcDbEntity
  8
MOJI1
100
AcDbText
 10
-18.1716618334259
 20
-48.79065957520982
 30
0.0
 40
3.0
  1
ＶＧＡ（６４０×４８０)／ＱＶＧＡ（３２０×２４０）
 41
0.9
100
AcDbText
  0
TEXT
  5
50
330
2
100
AcDbEntity
  8
MOJI1
100
AcDbText
 10
-58.1716618334259
 20
-48.79065957520982
 30
0.0
 40
3.0
  1
画像解像度
100
AcDbText
  0
TEXT
  5
51
330
2
100
AcDbEntity
  8
MOJI1
100
AcDbText
 10
-58.1716618334259
 20
-53.79065957520982
 30
0.0
 40
3.0
  1
ネットワーク
100
AcDbText
  0
TEXT
  5
52
330
2
100
AcDbEntity
  8
MOJI1
100
AcDbText
 10
-18.1716618334259
 20
-53.79065957520982
 30
0.0
 40
3.0
  1
１０ＢＡＳＥ－Ｔ／１００ＢＡＳＥ－ＴＸ、ＲＪ４５コネクター
 41
0.75
100
AcDbText
  0
LINE
  5
53
330
2
100
AcDbEntity
  8
WAKU
 62
     1
100
AcDbLine
 10
-60.6716618334259
 20
-54.79065957520981
 30
0.0
 11
64.32833816657399
 21
-54.79065957520981
 31
0.0
  0
TEXT
  5
54
330
2
100
AcDbEntity
  8
MOJI1
100
AcDbText
 10
-18.1716618334259
 20
-58.79065957520982
 30
0.0
 40
3.0
  1
２２倍
100
AcDbText
  0
TEXT
  5
55
330
2
100
AcDbEntity
  8
MOJI1
100
AcDbText
 10
-58.1716618334259
 20
-58.79065957520982
 30
0.0
 40
3.0
  1
ズーム比
100
AcDbText
  0
DIMENSION
  5
56
330
2
100
AcDbEntity
  8
SUNPO
100
AcDbDimension
  2
*D6
 10
31.69414383403182
 20
29.09567195884995
 30
0.0
 11
20.81914383403182
 21
30.84567195884995
 31
0.0
 70
    33
  1
217.5
 71
     5
 42
21.75
  3
STANDARD
100
AcDbAlignedDimension
 13
9.94414383403182
 23
21.09567195462671
 33
0.0
 14
31.69414383403182
 24
21.09567195884995
 34
0.0
1001
ACAD
1000
DSTYLE
1002
{
1070
    40
1040
1.0
1070
   140
1040
2.5
1070
   147
1040
0.5
1070
   172
1070
     1
1070
   279
1070
     0
1070
   288
1070
     0
1002
}
  0
DIMENSION
  5
64
330
2
100
AcDbEntity
  8
SUNPO
100
AcDbDimension
  2
*D5
 10
-4.459590429288759
 20
0.4573881736617386
 30
0.0
 11
-6.209590429288758
 21
10.77738817366181
 31
0.0
 70
    33
  1
206.5
 71
     5
 42
20.64000000000016
  3
STANDARD
100
AcDbAlignedDimension
 13
-12.76670520754077
 23
21.0973881736619
 33
0.0
 14
-12.76670520754077
 24
0.4573881736617409
 34
0.0
1001
ACAD
1000
DSTYLE
1002
{
1070
    40
1040
1.0
1070
   140
1040
2.5
1070
   147
1040
0.5
1070
   172
1070
     1
1070
   279
1070
     0
1070
   288
1070
     0
1002
}
  0
DIMENSION
  5
71
330
2
100
AcDbEntity
  8
SUNPO
100
AcDbDimension
  2
*D4
 10
-12.77626660510758
 20
29.09567195885001
 30
0.0
 11
-21.02626660416004
 21
30.84567195885
 31
0.0
 70
    33
  1
165
 71
     5
 42
16.4999999981049
  3
STANDARD
100
AcDbAlignedDimension
 13
-29.27626660321249
 23
21.09567195462677
 33
0.0
 14
-12.77626660510758
 24
21.09567195885
 34
0.0
1001
ACAD
1000
DSTYLE
1002
{
1070
    40
1040
1.0
1070
   140
1040
2.5
1070
   147
1040
0.5
1070
   172
1070
     1
1070
   279
1070
     0
1070
   288
1070
     0
1002
}
  0
ARC
  5
7E
330
2
100
AcDbEntity
  8
GAIKEI
  6
Continuous
 62
     1
100
AcDbCircle
 10
-27.71610243020291
 20
4.65986276686192
 30
0.0
 40
40.0000000000002
100
AcDbArc
 50
2.173686449301635
 51
2.647327054873357
  0
SPLINE
  5
80
330
2
100
AcDbEntity
  8
GAIKEI
  6
Continuous
100
AcDbSpline
210
0.0
220
0.0
230
1.0
 70
    24
 71
     3
 72
     9
 73
     5
 74
     3
 42
0.0000000001
 43
0.0000000001
 44
0.00000000001
 40
0.0
 40
0.0
 40
0.0
 40
0.0
 40
0.0214070104884266
 40
0.0428140209768532
 40
0.0428140209768532
 40
0.0428140209768532
 40
0.0428140209768532
 10
-13.49982664849244
 20
17.4095400270819
 30
0.0
 10
-13.50218862970243
 20
17.41627343880526
 30
0.0
 10
-13.50691259212243
 20
17.42974026225181
 30
0.0
 10
-13.51163655454242
 20
17.44320708569864
 30
0.0
 10
-13.51399853575242
 20
17.44994049742195
 30
0.0
 11
-13.49982664849244
 21
17.4095400270819
 31
0.0
 11
-13.50691259212243
 21
17.42974026225192
 31
0.0
 11
-13.51399853575242
 21
17.44994049742195
 31
0.0
  0
SPLINE
  5
81
330
2
100
AcDbEntity
  8
GAIKEI
  6
Continuous
100
AcDbSpline
210
0.0
220
0.0
230
1.0
 70
     8
 71
     3
 72
     9
 73
     5
 74
     3
 42
0.0000000001
 43
0.0000000001
 44
0.00000000001
 40
0.0
 40
0.0
 40
0.0
 40
0.0
 40
0.006829309719118
 40
0.0136626693601854
 40
0.0136626693601854
 40
0.0136626693601854
 40
0.0136626693601854
 10
-13.51399853575242
 20
17.44994049742195
 30
0.0
 10
-13.51522353346499
 20
17.4518612617195
 30
0.0
 10
-13.51767425533915
 20
17.45570392936758
 30
0.0
 10
-13.5205107675194
 20
17.45927133083114
 30
0.0
 10
-13.52192944401247
 20
17.46105556029192
 30
0.0
 11
-13.51399853575242
 21
17.44994049742195
 31
0.0
 11
-13.51776991929671
 21
17.45563401456002
 31
0.0
 11
-13.52192944401247
 21
17.46105556029192
 31
0.0
  0
SPLINE
  5
82
330
2
100
AcDbEntity
  8
GAIKEI
  6
Continuous
100
AcDbSpline
210
0.0
220
0.0
230
1.0
 70
    24
 71
     3
 72
     9
 73
     5
 74
     3
 42
0.0000000001
 43
0.0000000001
 44
0.00000000001
 40
0.0
 40
0.0
 40
0.0
 40
0.0
 40
0.0155959399721948
 40
0.0311918799443568
 40
0.0311918799443568
 40
0.0311918799443568
 40
0.0311918799443568
 10
-13.52192944401247
 20
17.46105556029192
 30
0.0
 10
-13.52582178592412
 20
17.46450165975528
 30
0.0
 10
-13.53360646974741
 20
17.47139385868195
 30
0.0
 10
-13.54139115357078
 20
17.47828605760856
 30
0.0
 10
-13.54528349548246
 20
17.48173215707186
 30
0.0
 11
-13.52192944401247
 21
17.46105556029192
 31
0.0
 11
-13.53360646974744
 21
17.47139385868195
 31
0.0
 11
-13.54528349548246
 21
17.48173215707186
 31
0.0
  0
SPLINE
  5
83
330
2
100
AcDbEntity
  8
GAIKEI
  6
Continuous
100
AcDbSpline
210
0.0
220
0.0
230
1.0
 70
     8
 71
     3
 72
     9
 73
     5
 74
     3
 42
0.0000000001
 43
0.0000000001
 44
0.00000000001
 40
0.0
 40
0.0
 40
0.0
 40
0.0
 40
0.006761911638542
 40
0.0135198438003354
 40
0.0135198438003354
 40
0.0135198438003354
 40
0.0135198438003354
 10
-13.54528349548246
 20
17.48173215707186
 30
0.0
 10
-13.54720602067672
 20
17.48291189793337
 30
0.0
 10
-13.55104993963306
 20
17.48527068536288
 30
0.0
 10
-13.55511621830007
 20
17.48722131287377
 30
0.0
 10
-13.55714875919244
 20
17.48819633955202
 30
0.0
 11
-13.54528349548246
 21
17.48173215707186
 31
0.0
 11
-13.55110669372277
 21
17.48516927959826
 31
0.0
 11
-13.55714875919244
 21
17.48819633955202
 31
0.0
  0
SPLINE
  5
84
330
2
100
AcDbEntity
  8
GAIKEI
  6
Continuous
100
AcDbSpline
210
0.0
220
0.0
230
1.0
 70
    24
 71
     3
 72
     9
 73
     5
 74
     3
 42
0.0000000001
 43
0.0000000001
 44
0.00000000001
 40
0.0
 40
0.0
 40
0.0
 40
0.0
 40
0.0214224768337951
 40
0.0428449536676147
 40
0.0428449536676147
 40
0.0428449536676147
 40
0.0428449536676147
 10
-13.55714875919244
 20
17.48819633955202
 30
0.0
 10
-13.56412296588912
 20
17.489729907732
 30
0.0
 10
-13.57807137928246
 20
17.49279704409196
 30
0.0
 10
-13.59201979267578
 20
17.49586418045203
 30
0.0
 10
-13.59899399937245
 20
17.49739774863201
 30
0.0
 11
-13.55714875919244
 21
17.48819633955202
 31
0.0
 11
-13.57807137928245
 21
17.49279704409196
 31
0.0
 11
-13.59899399937245
 21
17.49739774863201
 31
0.0
  0
ARC
  5
85
330
2
100
AcDbEntity
  8
GAIKEI
  6
Continuous
100
AcDbCircle
 10
-43.28309193649244
 20
13.80918817366193
 30
0.0
 40
30.0
100
AcDbArc
 50
1.999999999997108
 51
6.89248861840031
  0
ARC
  5
86
330
2
100
AcDbEntity
  8
GAIKEI
  6
Continuous
100
AcDbCircle
 10
-42.79230384596246
 20
14.07298274652174
 30
0.0
 40
30.0
100
AcDbArc
 50
1.999999999997108
 51
11.66776229450259
  0
ARC
  5
87
330
2
100
AcDbEntity
  8
GAIKEI
  6
Continuous
100
AcDbCircle
 10
-14.58740531006248
 20
19.89738817366196
 30
0.0
 40
1.2
100
AcDbArc
 50
11.66776229449557
 51
90.0
  0
ARC
  5
88
330
2
100
AcDbEntity
  8
GAIKEI
  6
Continuous
100
AcDbCircle
 10
-13.59917675065247
 20
17.39738817366196
 30
0.0
 40
0.1
100
AcDbArc
 50
6.892488618420106
 51
90.0
  0
ARC
  5
89
330
2
100
AcDbEntity
  8
GAIKEI
  6
Continuous
100
AcDbCircle
 10
-43.32894373700248
 20
13.07256440059194
 30
0.0
 40
30.0
100
AcDbArc
 50
354.2020217184979
 51
357.9999999999964
  0
ARC
  5
8A
330
2
100
AcDbEntity
  8
GAIKEI
  6
Continuous
100
AcDbCircle
 10
-12.23456098024246
 20
8.592334511421938
 30
0.0
 40
2.0
100
AcDbArc
 50
156.376354753301
 51
178.1044914315061
  0
ARC
  5
8B
330
2
100
AcDbEntity
  8
GAIKEI
  6
Continuous
100
AcDbCircle
 10
-13.82457898403248
 20
9.446010235411961
 30
0.0
 40
0.19999999571
100
AcDbArc
 50
99.34354952099759
 51
155.4754249871136
  0
ARC
  5
8C
330
2
100
AcDbEntity
  8
GAIKEI
  6
Continuous
100
AcDbCircle
 10
-13.9301134389425
 20
10.08738817366173
 30
0.0
 40
0.45
100
AcDbArc
 50
279.3440714298967
 51
354.2020217185044
  0
ARC
  5
8D
330
2
100
AcDbEntity
  8
GAIKEI
  6
Continuous
100
AcDbCircle
 10
-42.79230384596246
 20
14.12179360079193
 30
0.0
 40
30.0
100
AcDbArc
 50
348.3322377054975
 51
357.9999999999964
  0
ARC
  5
8E
330
2
100
AcDbEntity
  8
GAIKEI
  6
Continuous
100
AcDbCircle
 10
-14.58740531006248
 20
8.297388173661943
 30
0.0
 40
1.2
100
AcDbArc
 50
282.9603580358202
 51
348.3322377055044
  0
LINE
  5
8F
330
2
100
AcDbEntity
  8
GAIKEI
  6
Continuous
100
AcDbLine
 10
-12.81057903539249
 20
13.07480869971198
 30
0.0
 11
-12.77626660407247
 21
14.05738817366193
 31
0.0
  0
LINE
  5
90
330
2
100
AcDbEntity
  8
GAIKEI
  6
Continuous
100
AcDbLine
 10
-12.81057903539249
 20
15.11996764760192
 30
0.0
 11
-12.77626660407247
 21
14.13738817366175
 31
0.0
  0
LINE
  5
91
330
2
100
AcDbEntity
  8
GAIKEI
  6
Continuous
100
AcDbLine
 10
-13.27626660407247
 20
14.13738817366175
 30
0.0
 11
-13.30136712592247
 21
14.85617307473194
 31
0.0
  0
LINE
  5
92
330
2
100
AcDbEntity
  8
GAIKEI
  6
Continuous
100
AcDbLine
 10
-14.43094981637244
 20
6.507388173661979
 30
0.0
 11
-14.3443472759925
 21
6.657388173661956
 31
0.0
  0
LINE
  5
93
330
2
100
AcDbEntity
  8
GAIKEI
  6
Continuous
100
AcDbLine
 10
-13.27626660407247
 20
14.05738817366193
 30
0.0
 11
-13.34721892643244
 21
12.02557949952194
 31
0.0
  0
LINE
  5
94
330
2
100
AcDbEntity
  8
GAIKEI
  6
Continuous
100
AcDbLine
 10
-14.23346660407247
 20
8.658488173661964
 30
0.0
 11
-14.3443472759925
 21
6.657388173661956
 31
0.0
  0
LINE
  5
95
330
2
100
AcDbEntity
  8
GAIKEI
  6
Continuous
100
AcDbLine
 10
-14.06695584530246
 20
9.393788851051738
 30
0.0
 11
-14.00653551216248
 21
9.529026873591931
 31
0.0
  0
LINE
  5
96
330
2
100
AcDbEntity
  8
GAIKEI
  6
Continuous
100
AcDbLine
 10
-13.49989781300246
 20
17.40938893146199
 30
0.0
 11
-13.49988023139246
 21
17.40946780124193
 31
0.0
  0
LINE
  5
97
330
2
100
AcDbEntity
  8
GAIKEI
  6
Continuous
100
AcDbLine
 10
-13.49988023139246
 20
17.40946780124193
 30
0.0
 11
-13.49980784280245
 21
17.40954232647198
 31
0.0
  0
LINE
  5
98
330
2
100
AcDbEntity
  8
GAIKEI
  6
DOTTED
100
AcDbLine
 10
-23.09697536428894
 20
0.8103834062566193
 30
0.0
 11
-23.09555650055632
 21
0.8118022699892435
 31
0.0
  0
LINE
  5
9A
330
2
100
AcDbEntity
  8
GAIKEI
  6
Continuous
100
AcDbLine
 10
-28.5526529758925
 20
17.40946780124193
 30
0.0
 11
-28.55272536448251
 21
17.40954232647198
 31
0.0
  0
LINE
  5
9B
330
2
100
AcDbEntity
  8
GAIKEI
  6
Continuous
100
AcDbLine
 10
-28.5526353942825
 20
17.40938893146199
 30
0.0
 11
-28.5526529758925
 21
17.40946780124193
 31
0.0
  0
LINE
  5
9C
330
2
100
AcDbEntity
  8
GAIKEI
  6
Continuous
100
AcDbLine
 10
-14.58740530920249
 20
21.0973881736619
 30
0.0
 11
-27.46512789722249
 21
21.0973881736619
 31
0.0
  0
LINE
  5
9D
330
2
100
AcDbEntity
  8
GAIKEI
  6
Continuous
100
AcDbLine
 10
-13.59899399762247
 20
17.49738817366199
 30
0.0
 11
-28.4535392096625
 21
17.49738817366199
 31
0.0
  0
LINE
  5
9E
330
2
100
AcDbEntity
  8
GAIKEI
  6
Continuous
 62
     1
100
AcDbLine
 10
-29.27626660321249
 20
14.13738817366175
 30
0.0
 11
-12.77626660321249
 21
14.13738817366175
 31
0.0
  0
LINE
  5
9F
330
2
100
AcDbEntity
  8
GAIKEI
  6
Continuous
 62
     1
100
AcDbLine
 10
-29.27626660321249
 20
14.05738817366193
 30
0.0
 11
-12.77626660321249
 21
14.05738817366193
 31
0.0
  0
LINE
  5
A0
330
2
100
AcDbEntity
  8
GAIKEI
  6
Continuous
 62
     1
100
AcDbLine
 10
-27.70818593129246
 20
6.657388173661956
 30
0.0
 11
-14.34434727513246
 21
6.657388173661956
 31
0.0
  0
LINE
  5
A1
330
2
100
AcDbEntity
  8
GAIKEI
  6
Continuous
100
AcDbLine
 10
-27.98557736198245
 20
9.393788851051738
 30
0.0
 11
-28.04599769512248
 21
9.529026873591931
 31
0.0
  0
LINE
  5
A2
330
2
100
AcDbEntity
  8
GAIKEI
  6
Continuous
100
AcDbLine
 10
-27.81906660321249
 20
8.658488173661964
 30
0.0
 11
-27.70818593129246
 21
6.657388173661956
 31
0.0
  0
LINE
  5
A3
330
2
100
AcDbEntity
  8
GAIKEI
  6
Continuous
100
AcDbLine
 10
-28.77626660321249
 20
14.05738817366193
 30
0.0
 11
-28.70531428085246
 21
12.02557949952194
 31
0.0
  0
LINE
  5
A4
330
2
100
AcDbEntity
  8
GAIKEI
  6
Continuous
100
AcDbLine
 10
-27.62158339091246
 20
6.507388173661979
 30
0.0
 11
-27.70818593129246
 21
6.657388173661956
 31
0.0
  0
LINE
  5
A5
330
2
100
AcDbEntity
  8
GAIKEI
  6
Continuous
100
AcDbLine
 10
-28.77626660321249
 20
14.13738817366175
 30
0.0
 11
-28.7511660813625
 21
14.85617307473194
 31
0.0
  0
LINE
  5
A6
330
2
100
AcDbEntity
  8
GAIKEI
  6
Continuous
100
AcDbLine
 10
-29.24195417189248
 20
15.11996764760192
 30
0.0
 11
-29.27626660321249
 21
14.13738817366175
 31
0.0
  0
LINE
  5
A7
330
2
100
AcDbEntity
  8
GAIKEI
  6
Continuous
100
AcDbLine
 10
-29.24195417189248
 20
13.07480869971198
 30
0.0
 11
-29.27626660321249
 21
14.05738817366193
 31
0.0
  0
LINE
  5
A8
330
2
100
AcDbEntity
  8
GAIKEI
  6
Continuous
 62
     1
100
AcDbLine
 10
17.60114847285706
 20
1.128234194861931
 30
0.0
 11
19.41695606007704
 21
1.128232255881925
 31
0.0
  0
LINE
  5
A9
330
2
100
AcDbEntity
  8
GAIKEI
  6
Continuous
 62
     1
100
AcDbLine
 10
12.25511520743708
 20
6.17701898692178
 30
0.0
 11
23.24722545389704
 21
6.177018185621761
 31
0.0
  0
LINE
  5
AA
330
2
100
AcDbEntity
  8
GAIKEI
  6
Continuous
100
AcDbLine
 10
9.969244355871865
 20
14.85617307473194
 30
0.0
 11
9.94414383403182
 21
14.13738817366175
 31
0.0
  0
LINE
  5
AB
330
2
100
AcDbEntity
  8
GAIKEI
  6
Continuous
100
AcDbLine
 10
10.16777667230184
 20
17.40938884260197
 30
0.0
 11
9.969244355871865
 21
14.85617307473194
 31
0.0
  0
LINE
  5
AC
330
2
100
AcDbEntity
  8
GAIKEI
  6
Continuous
100
AcDbLine
 10
10.90134383403182
 20
8.658488173661964
 30
0.0
 11
11.01222450595185
 21
6.657388173661729
 31
0.0
  0
LINE
  5
AD
330
2
100
AcDbEntity
  8
GAIKEI
  6
Continuous
100
AcDbLine
 10
10.01509615639185
 20
12.02557949952194
 30
0.0
 11
9.944143834031549
 21
14.05738817366176
 31
0.0
  0
LINE
  5
AE
330
2
100
AcDbEntity
  8
GAIKEI
  6
Continuous
100
AcDbLine
 10
10.08790602182182
 20
14.13738817366175
 30
0.0
 11
10.08790602182182
 21
14.05738817366176
 31
0.0
  0
LINE
  5
AF
330
2
100
AcDbEntity
  8
GAIKEI
  6
Continuous
100
AcDbLine
 10
11.09882704633185
 20
6.507388173661752
 30
0.0
 11
11.01222450595185
 21
6.657388173661729
 31
0.0
  0
LINE
  5
B0
330
2
100
AcDbEntity
  8
GAIKEI
  6
Continuous
100
AcDbLine
 10
10.73483307526186
 20
9.393788851051738
 30
0.0
 11
10.67441274212183
 21
9.529026873591931
 31
0.0
  0
LINE
  5
B1
330
2
100
AcDbEntity
  8
GAIKEI
  6
Continuous
 62
     1
100
AcDbLine
 10
11.01222450595185
 20
6.657388173661729
 30
0.0
 11
24.37606316211191
 21
6.657388173661729
 31
0.0
  0
LINE
  5
B2
330
2
100
AcDbEntity
  8
GAIKEI
  6
Continuous
100
AcDbLine
 10
30.33565353262179
 20
7.097388173661954
 30
0.0
 11
31.69414383403182
 21
7.097388173661954
 31
0.0
  0
LINE
  5
B3
330
2
100
AcDbEntity
  8
GAIKEI
  6
Continuous
 62
     1
100
AcDbLine
 10
28.84414317179198
 20
7.937388173661759
 30
0.0
 11
28.54414449627189
 21
7.937388173661759
 31
0.0
  0
LINE
  5
B4
330
2
100
AcDbEntity
  8
GAIKEI
  6
Continuous
 62
     1
100
AcDbLine
 10
28.44414383403182
 20
9.48738817366177
 30
0.0
 11
28.94414383403182
 21
9.48738817366177
 31
0.0
  0
LINE
  5
B5
330
2
100
AcDbEntity
  8
GAIKEI
  6
Continuous
100
AcDbLine
 10
30.44098731427187
 20
9.637388173661747
 30
0.0
 11
18.89927969074182
 21
9.637388173661747
 31
0.0
  0
LINE
  5
B6
330
2
100
AcDbEntity
  8
GAIKEI
  6
Continuous
 62
     1
100
AcDbLine
 10
9.944143834031549
 20
14.05738817366176
 30
0.0
 11
31.69414383403182
 21
14.05738817366176
 31
0.0
  0
LINE
  5
B7
330
2
100
AcDbEntity
  8
GAIKEI
  6
Continuous
 62
     1
100
AcDbLine
 10
9.94414383403182
 20
14.13738817366175
 30
0.0
 11
31.69414383403182
 21
14.13738817366175
 31
0.0
  0
LINE
  5
B8
330
2
100
AcDbEntity
  8
GAIKEI
  6
Continuous
100
AcDbLine
 10
24.48694383403199
 20
8.658488173661964
 30
0.0
 11
24.37606316211191
 21
6.657388173661729
 31
0.0
  0
LINE
  5
B9
330
2
100
AcDbEntity
  8
GAIKEI
  6
Continuous
100
AcDbLine
 10
24.65345459280184
 20
9.393788851051738
 30
0.0
 11
24.70986027671188
 21
9.520215199881761
 31
0.0
  0
LINE
  5
BA
330
2
100
AcDbEntity
  8
GAIKEI
  6
Continuous
100
AcDbLine
 10
24.28946062173191
 20
6.507388173661752
 30
0.0
 11
24.37606316211191
 21
6.657388173661729
 31
0.0
  0
LINE
  5
BB
330
2
100
AcDbEntity
  8
GAIKEI
  6
Continuous
 62
     1
100
AcDbLine
 10
28.36914383403189
 20
9.637388173661747
 30
0.0
 11
28.44414383403182
 21
9.48738817366177
 31
0.0
  0
LINE
  5
BC
330
2
100
AcDbEntity
  8
GAIKEI
  6
Continuous
 62
     1
100
AcDbLine
 10
28.44414383403182
 20
9.48738817366177
 30
0.0
 11
28.44414383403182
 21
8.037388173661724
 31
0.0
  0
LINE
  5
BD
330
2
100
AcDbEntity
  8
GAIKEI
  6
Continuous
100
AcDbLine
 10
30.39529765909185
 20
17.49738817366199
 30
0.0
 11
10.26705398101182
 21
17.49738817366199
 31
0.0
  0
LINE
  5
BE
330
2
100
AcDbEntity
  8
GAIKEI
  6
Continuous
 62
     1
100
AcDbLine
 10
28.94414383403182
 20
9.48738817366177
 30
0.0
 11
28.94414383403182
 21
8.037388173661724
 31
0.0
  0
LINE
  5
BF
330
2
100
AcDbEntity
  8
GAIKEI
  6
Continuous
 62
     1
100
AcDbLine
 10
29.01914383403187
 20
9.637388173661747
 30
0.0
 11
28.94414383403182
 21
9.48738817366177
 31
0.0
  0
LINE
  5
C0
330
2
100
AcDbEntity
  8
GAIKEI
  6
Continuous
100
AcDbLine
 10
30.09038390381181
 20
9.493847693091936
 30
0.0
 11
30.11719356475192
 21
8.871863559341932
 31
0.0
  0
LINE
  5
C1
330
2
100
AcDbEntity
  8
GAIKEI
  6
Continuous
100
AcDbLine
 10
30.61685032094181
 20
8.890597677381947
 30
0.0
 11
30.39414383403187
 21
14.05738817366176
 31
0.0
  0
LINE
  5
C2
330
2
100
AcDbEntity
  8
GAIKEI
  6
Continuous
 62
     1
100
AcDbLine
 10
30.51434810899184
 20
14.05738817366176
 30
0.0
 11
30.51434810899184
 21
14.13738817366175
 31
0.0
  0
LINE
  5
C3
330
2
100
AcDbEntity
  8
GAIKEI
  6
Continuous
100
AcDbLine
 10
30.39414383403187
 20
14.13738817366175
 30
0.0
 11
30.68795674435182
 21
20.95384769309192
 31
0.0
  0
LINE
  5
C4
330
2
100
AcDbEntity
  8
GAIKEI
  6
Continuous
100
AcDbLine
 10
31.69414383403182
 20
7.097388173661954
 30
0.0
 11
31.69414383403182
 21
21.0973881736619
 31
0.0
  0
LINE
  5
C5
330
2
100
AcDbEntity
  8
GAIKEI
  6
Continuous
100
AcDbLine
 10
30.83781759517183
 20
21.0973881736619
 30
0.0
 11
31.69414383403182
 21
21.0973881736619
 31
0.0
  0
LINE
  5
C6
330
2
100
AcDbEntity
  8
GAIKEI
  6
Continuous
 62
     1
100
AcDbLine
 10
-19.29717648983046
 20
1.189252897321921
 30
0.0
 11
-22.89717648983049
 21
1.189252897321921
 31
0.0
  0
LINE
  5
C7
330
2
100
AcDbEntity
  8
GAIKEI
  6
Continuous
 62
     1
100
AcDbLine
 10
-19.34717648983047
 20
1.239252897321932
 30
0.0
 11
-22.84717648983047
 21
1.239252897321932
 31
0.0
  0
LINE
  5
C8
330
2
100
AcDbEntity
  8
GAIKEI
  6
Continuous
 62
     1
100
AcDbLine
 10
-22.84717648983047
 20
1.329107641161726
 30
0.0
 11
-19.34717648983047
 21
1.329107641161726
 31
0.0
  0
LINE
  5
C9
330
2
100
AcDbEntity
  8
GAIKEI
  6
Continuous
 62
     1
100
AcDbLine
 10
-19.4471764898305
 20
1.516110448781773
 30
0.0
 11
-22.74717648983051
 21
1.516110448781773
 31
0.0
  0
LINE
  5
CA
330
2
100
AcDbEntity
  8
GAIKEI
  6
Continuous
 62
     1
100
AcDbLine
 10
-26.74325347087052
 20
6.240603398481937
 30
0.0
 11
-22.84717648983047
 21
6.240604201337021
 31
0.0
  0
LINE
  5
CB
330
2
100
AcDbEntity
  8
GAIKEI
  6
Continuous
 62
     1
100
AcDbLine
 10
-19.34717648983047
 20
6.24060421360491
 30
0.0
 11
-15.45109950877048
 21
6.240603398481937
 31
0.0
  0
LINE
  5
CC
330
2
100
AcDbEntity
  8
GAIKEI
  6
Continuous
 62
     1
100
AcDbLine
 10
-22.84717648983047
 20
1.239252897321932
 30
0.0
 11
-22.84717648983047
 21
6.507388173661979
 31
0.0
  0
LINE
  5
CD
330
2
100
AcDbEntity
  8
GAIKEI
  6
Continuous
 62
     1
100
AcDbLine
 10
-22.74717648983051
 20
1.329107641161726
 30
0.0
 11
-22.74717648983051
 21
6.507388173661979
 31
0.0
  0
LINE
  5
CE
330
2
100
AcDbEntity
  8
GAIKEI
  6
Continuous
 62
     1
100
AcDbLine
 10
-19.4471764898305
 20
6.507388173661979
 30
0.0
 11
-19.4471764898305
 21
1.329107641161726
 31
0.0
  0
LINE
  5
CF
330
2
100
AcDbEntity
  8
GAIKEI
  6
Continuous
 62
     1
100
AcDbLine
 10
-19.34717648983047
 20
6.507388173661979
 30
0.0
 11
-19.34717648983047
 21
1.239252897321932
 31
0.0
  0
ARC
  5
D0
330
2
100
AcDbEntity
  8
GAIKEI
  6
Continuous
100
AcDbCircle
 10
-27.46512789722249
 20
8.297388173661943
 30
0.0
 40
1.2
100
AcDbArc
 50
191.6677622944956
 51
257.0396419641799
  0
ARC
  5
D1
330
2
100
AcDbEntity
  8
GAIKEI
  6
Continuous
100
AcDbCircle
 10
0.7397706386774985
 20
14.12179360079193
 30
0.0
 40
30.0
100
AcDbArc
 50
182.0000000000036
 51
191.6677622945025
  0
ARC
  5
D2
330
2
100
AcDbEntity
  8
GAIKEI
  6
Continuous
100
AcDbCircle
 10
-28.12241976834247
 20
10.08738817366173
 30
0.0
 40
0.45
100
AcDbArc
 50
185.7979782814956
 51
260.6559285701034
  0
ARC
  5
D3
330
2
100
AcDbEntity
  8
GAIKEI
  6
Continuous
100
AcDbCircle
 10
-28.22795422325248
 20
9.446010235411961
 30
0.0
 40
0.19999999571
100
AcDbArc
 50
24.52457501288636
 51
80.65645047900241
  0
ARC
  5
D4
330
2
100
AcDbEntity
  8
GAIKEI
  6
Continuous
100
AcDbCircle
 10
-29.8179722270425
 20
8.592334511421938
 30
0.0
 40
2.0
100
AcDbArc
 50
1.895508568493831
 51
23.62364524669895
  0
ARC
  5
D5
330
2
100
AcDbEntity
  8
GAIKEI
  6
Continuous
100
AcDbCircle
 10
1.276410529717509
 20
13.07256440059194
 30
0.0
 40
30.0
100
AcDbArc
 50
182.0000000000036
 51
185.7979782815021
  0
ARC
  5
D6
330
2
100
AcDbEntity
  8
GAIKEI
  6
Continuous
100
AcDbCircle
 10
-28.45335645663249
 20
17.39738817366196
 30
0.0
 40
0.1
100
AcDbArc
 50
90.0
 51
173.1075113815799
  0
ARC
  5
D7
330
2
100
AcDbEntity
  8
GAIKEI
  6
Continuous
100
AcDbCircle
 10
-27.46512789722249
 20
19.89738817366196
 30
0.0
 40
1.2
100
AcDbArc
 50
90.0
 51
168.3322377055044
  0
ARC
  5
D8
330
2
100
AcDbEntity
  8
GAIKEI
  6
Continuous
100
AcDbCircle
 10
0.7397706386774985
 20
14.07298274652174
 30
0.0
 40
30.0
100
AcDbArc
 50
168.3322377054974
 51
178.0000000000029
  0
ARC
  5
D9
330
2
100
AcDbEntity
  8
GAIKEI
  6
Continuous
100
AcDbCircle
 10
1.230558729207473
 20
13.80918817366193
 30
0.0
 40
30.0
100
AcDbArc
 50
173.1075113815997
 51
178.0000000000029
  0
ARC
  5
DA
330
2
100
AcDbEntity
  8
GAIKEI
  6
Continuous
 62
     1
100
AcDbCircle
 10
63.2184430915371
 20
4.65986276686192
 30
0.0
 40
40.0000000000002
100
AcDbArc
 50
177.3526729451266
 51
177.8263135506983
  0
ARC
  5
DB
330
2
100
AcDbEntity
  8
GAIKEI
  6
Continuous
 62
     1
100
AcDbCircle
 10
28.84414383403191
 20
8.037388173661724
 30
0.0
 40
0.1
100
AcDbArc
 50
270.0
 51
0.0
  0
ARC
  5
DC
330
2
100
AcDbEntity
  8
GAIKEI
  6
Continuous
 62
     1
100
AcDbCircle
 10
28.54414383403184
 20
8.037388173661724
 30
0.0
 40
0.1
100
AcDbArc
 50
180.0
 51
270.0
  0
ARC
  5
DD
330
2
100
AcDbEntity
  8
GAIKEI
  6
Continuous
100
AcDbCircle
 10
30.83781759517183
 20
20.94738817366192
 30
0.0
 40
0.15
100
AcDbArc
 50
90.0
 51
177.5318820861754
  0
ARC
  5
DE
330
2
100
AcDbEntity
  8
GAIKEI
  6
Continuous
100
AcDbCircle
 10
30.39529765909185
 20
17.64738817366196
 30
0.0
 40
0.15
100
AcDbArc
 50
270.0
 51
357.5318820862147
  0
ARC
  5
DF
330
2
100
AcDbEntity
  8
GAIKEI
  6
Continuous
100
AcDbCircle
 10
10.26705398061187
 20
17.39738817366196
 30
0.0
 40
0.1
100
AcDbArc
 50
90.0
 51
173.1075113527957
  0
ARC
  5
E0
330
2
100
AcDbEntity
  8
GAIKEI
  6
Continuous
100
AcDbCircle
 10
24.89190335877186
 20
9.437388173661759
 30
0.0
 40
0.2
100
AcDbArc
 50
90.0
 51
155.5351366236072
  0
ARC
  5
E1
330
2
100
AcDbEntity
  8
GAIKEI
  6
Continuous
100
AcDbCircle
 10
10.49245481360185
 20
9.446012945541951
 30
0.0
 40
0.2
100
AcDbArc
 50
24.52370214204813
 51
80.65592857006373
  0
ARC
  5
E2
330
2
100
AcDbEntity
  8
GAIKEI
  6
Continuous
100
AcDbCircle
 10
10.59799066890184
 20
10.08738817366173
 30
0.0
 40
0.45
100
AcDbArc
 50
185.7979784575057
 51
260.6559285700905
  0
ARC
  5
E3
330
2
100
AcDbEntity
  8
GAIKEI
  6
Continuous
100
AcDbCircle
 10
26.48584945786183
 20
8.592334511421938
 30
0.0
 40
1.9999999999998
100
AcDbArc
 50
156.376354753301
 51
178.1044914314996
  0
ARC
  5
E4
330
2
100
AcDbEntity
  8
GAIKEI
  6
Continuous
100
AcDbCircle
 10
8.902438210201864
 20
8.592334511421938
 30
0.0
 40
2.0
100
AcDbArc
 50
1.895508568493831
 51
23.62364524669895
  0
ARC
  5
E5
330
2
100
AcDbEntity
  8
GAIKEI
  6
Continuous
100
AcDbCircle
 10
60.06213095634702
 20
14.18481628759167
 30
0.0
 40
50.09359236244877
100
AcDbArc
 50
182.4704456353588
 51
183.8750519583659
  0
ARC
  5
E6
330
2
100
AcDbEntity
  8
GAIKEI
  6
Continuous
100
AcDbCircle
 10
39.99682096696188
 20
13.07256440059194
 30
0.0
 40
29.9999999999998
100
AcDbArc
 50
184.3454975937012
 51
185.7979782841015
  0
ARC
  5
E7
330
2
100
AcDbEntity
  8
GAIKEI
  6
Continuous
100
AcDbCircle
 10
29.94052305299181
 20
9.48738817366177
 30
0.0
 40
0.1500000000002
100
AcDbArc
 50
2.468117913818021
 51
90.0
  0
ARC
  5
E8
330
2
100
AcDbEntity
  8
GAIKEI
  6
Continuous
100
AcDbCircle
 10
110.5762549828819
 20
11.43885318006175
 30
0.0
 40
80.49999999999981
100
AcDbArc
 50
181.8273615986983
 51
182.9901967120005
  0
ARC
  5
E9
330
2
100
AcDbEntity
  8
GAIKEI
  6
Continuous
100
AcDbCircle
 10
30.33565353262179
 20
7.247388173661931
 30
0.0
 40
0.15
100
AcDbArc
 50
182.9901967119613
 51
270.0
  0
ARC
  5
EA
330
2
100
AcDbEntity
  8
GAIKEI
  6
Continuous
100
AcDbCircle
 10
110.5762549828819
 20
11.43885318006175
 30
0.0
 40
80.0
100
AcDbArc
 50
181.8253623333023
 51
183.008937726801
  0
ARC
  5
EB
330
2
100
AcDbEntity
  8
GAIKEI
  6
Continuous
100
AcDbCircle
 10
30.83633937988179
 20
7.247389878371961
 30
0.0
 40
0.1500000000598
100
AcDbArc
 50
183.0095904064299
 51
270.0000461638274
  0
ARC
  5
EC
330
2
100
AcDbEntity
  8
GAIKEI
  6
Continuous
100
AcDbCircle
 10
30.44098731016186
 20
9.48738826885193
 30
0.0
 40
0.1499999762
100
AcDbArc
 50
2.468081518816902
 51
89.99999843268128
  0
ARC
  5
ED
330
2
100
AcDbEntity
  8
GAIKEI
  6
Continuous
 62
     1
100
AcDbCircle
 10
-21.09717648983048
 20
6.44738817366192
 30
0.0
 40
1.75
100
AcDbArc
 50
199.4629509463152
 51
340.6657110492028
  0
ARC
  5
EE
330
2
100
AcDbEntity
  8
GAIKEI
  6
Continuous
 62
     1
100
AcDbCircle
 10
-21.09717648983048
 20
5.847388173661954
 30
0.0
 40
4.0999999999998
100
AcDbArc
 50
246.2678104992032
 51
293.7321895008054
  0
ARC
  5
EF
330
2
100
AcDbEntity
  8
GAIKEI
  6
Continuous
 62
     1
100
AcDbCircle
 10
-21.09717648983048
 20
6.44738817366192
 30
0.0
 40
1.6
100
AcDbArc
 50
177.8509043731347
 51
2.149095626865295
  0
CIRCLE
  5
F0
330
2
100
AcDbEntity
  8
GAIKEI
  6
Continuous
 62
     1
100
AcDbCircle
 10
-18.72626660321248
 20
18.32238817366192
 30
0.0
 40
0.225
  0
CIRCLE
  5
F1
330
2
100
AcDbEntity
  8
GAIKEI
  6
Continuous
 62
     1
100
AcDbCircle
 10
-23.3262666032125
 20
18.32238817366192
 30
0.0
 40
0.225
  0
CIRCLE
  5
F2
330
2
100
AcDbEntity
  8
GAIKEI
  6
Continuous
 62
     1
100
AcDbCircle
 10
-18.72626660321248
 20
18.27238817366196
 30
0.0
 40
0.5
  0
CIRCLE
  5
F3
330
2
100
AcDbEntity
  8
GAIKEI
  6
Continuous
 62
     1
100
AcDbCircle
 10
-23.3262666032125
 20
18.27238817366196
 30
0.0
 40
0.5
  0
SPLINE
  5
F4
330
2
100
AcDbEntity
  8
GAIKEI
  6
Continuous
100
AcDbSpline
210
0.0
220
0.0
230
1.0
 70
    24
 71
     3
 72
     9
 73
     5
 74
     3
 42
0.0000000001
 43
0.0000000001
 44
0.00000000001
 40
0.0
 40
0.0
 40
0.0
 40
0.0
 40
0.0214224768337951
 40
0.0428449536676147
 40
0.0428449536676147
 40
0.0428449536676147
 40
0.0428449536676147
 10
-28.49538444809247
 20
17.48819633955202
 30
0.0
 10
-28.48841024139581
 20
17.489729907732
 30
0.0
 10
-28.47446182800246
 20
17.49279704409196
 30
0.0
 10
-28.46051341460912
 20
17.49586418045203
 30
0.0
 10
-28.45353920791246
 20
17.49739774863201
 30
0.0
 11
-28.49538444809247
 21
17.48819633955202
 31
0.0
 11
-28.47446182800246
 21
17.49279704409196
 31
0.0
 11
-28.45353920791246
 21
17.49739774863201
 31
0.0
  0
SPLINE
  5
F5
330
2
100
AcDbEntity
  8
GAIKEI
  6
Continuous
100
AcDbSpline
210
0.0
220
0.0
230
1.0
 70
     8
 71
     3
 72
     9
 73
     5
 74
     3
 42
0.0000000001
 43
0.0000000001
 44
0.00000000001
 40
0.0
 40
0.0
 40
0.0
 40
0.0
 40
0.006761911638542
 40
0.0135198438003354
 40
0.0135198438003354
 40
0.0135198438003354
 40
0.0135198438003354
 10
-28.50724971180245
 20
17.48173215707186
 30
0.0
 10
-28.50532718660819
 20
17.48291189793337
 30
0.0
 10
-28.50148326765183
 20
17.48527068536288
 30
0.0
 10
-28.49741698898482
 20
17.48722131287377
 30
0.0
 10
-28.49538444809247
 20
17.48819633955202
 30
0.0
 11
-28.50724971180245
 21
17.48173215707186
 31
0.0
 11
-28.50142651356214
 21
17.48516927959826
 31
0.0
 11
-28.49538444809247
 21
17.48819633955202
 31
0.0
  0
SPLINE
  5
F6
330
2
100
AcDbEntity
  8
GAIKEI
  6
Continuous
100
AcDbSpline
210
0.0
220
0.0
230
1.0
 70
    24
 71
     3
 72
     9
 73
     5
 74
     3
 42
0.0000000001
 43
0.0000000001
 44
0.00000000001
 40
0.0
 40
0.0
 40
0.0
 40
0.0
 40
0.0155959399721948
 40
0.0311918799443568
 40
0.0311918799443568
 40
0.0311918799443568
 40
0.0311918799443568
 10
-28.53060376327244
 20
17.46105556029192
 30
0.0
 10
-28.52671142136079
 20
17.46450165975528
 30
0.0
 10
-28.5189267375375
 20
17.47139385868195
 30
0.0
 10
-28.51114205371413
 20
17.47828605760856
 30
0.0
 10
-28.50724971180245
 20
17.48173215707186
 30
0.0
 11
-28.53060376327244
 21
17.46105556029192
 31
0.0
 11
-28.51892673753747
 21
17.47139385868195
 31
0.0
 11
-28.50724971180245
 21
17.48173215707186
 31
0.0
  0
SPLINE
  5
F7
330
2
100
AcDbEntity
  8
GAIKEI
  6
Continuous
100
AcDbSpline
210
0.0
220
0.0
230
1.0
 70
     8
 71
     3
 72
     9
 73
     5
 74
     3
 42
0.0000000001
 43
0.0000000001
 44
0.00000000001
 40
0.0
 40
0.0
 40
0.0
 40
0.0
 40
0.006829309719118
 40
0.0136626693601854
 40
0.0136626693601854
 40
0.0136626693601854
 40
0.0136626693601854
 10
-28.53853467153249
 20
17.44994049742195
 30
0.0
 10
-28.53730967381991
 20
17.4518612617195
 30
0.0
 10
-28.53485895194575
 20
17.45570392936758
 30
0.0
 10
-28.53202243976551
 20
17.45927133083114
 30
0.0
 10
-28.53060376327244
 20
17.46105556029192
 30
0.0
 11
-28.53853467153249
 21
17.44994049742195
 31
0.0
 11
-28.5347632879882
 21
17.45563401456002
 31
0.0
 11
-28.53060376327244
 21
17.46105556029192
 31
0.0
  0
SPLINE
  5
F8
330
2
100
AcDbEntity
  8
GAIKEI
  6
Continuous
100
AcDbSpline
210
0.0
220
0.0
230
1.0
 70
    24
 71
     3
 72
     9
 73
     5
 74
     3
 42
0.0000000001
 43
0.0000000001
 44
0.00000000001
 40
0.0
 40
0.0
 40
0.0
 40
0.0
 40
0.0214070104884266
 40
0.0428140209768532
 40
0.0428140209768532
 40
0.0428140209768532
 40
0.0428140209768532
 10
-28.55270655879247
 20
17.4095400270819
 30
0.0
 10
-28.55034457758247
 20
17.41627343880526
 30
0.0
 10
-28.54562061516249
 20
17.42974026225181
 30
0.0
 10
-28.54089665274248
 20
17.44320708569864
 30
0.0
 10
-28.53853467153249
 20
17.44994049742195
 30
0.0
 11
-28.55270655879247
 21
17.4095400270819
 31
0.0
 11
-28.54562061516248
 21
17.42974026225192
 31
0.0
 11
-28.53853467153249
 21
17.44994049742195
 31
0.0
  0
SPLINE
  5
F9
330
2
100
AcDbEntity
  8
GAIKEI
  6
Continuous
 62
     1
100
AcDbSpline
210
0.0
220
0.0
230
1.0
 70
     8
 71
     3
 72
    19
 73
    15
 74
    13
 42
0.0000000001
 43
0.0000000001
 44
0.00000000001
 40
0.0
 40
0.0
 40
0.0
 40
0.0
 40
0.4659479294697255
 40
0.9439748055377902
 40
1.475650107065284
 40
2.012666875525831
 40
2.571055533152853
 40
3.123531165831199
 40
3.666195608401044
 40
4.198484037871343
 40
4.770491541615422
 40
5.353409656281737
 40
6.035403948677699
 40
6.73938045895281
 40
6.73938045895281
 40
6.73938045895281
 40
6.73938045895281
 10
19.4169507585371
 20
1.128248593221883
 30
0.0
 10
19.56310316949312
 20
1.181056354763256
 30
0.0
 10
19.85919675631962
 20
1.288040833669697
 30
0.0
 10
20.30306867125521
 20
1.501834781586524
 30
0.0
 10
20.74853969360302
 20
1.762762742896029
 30
0.0
 10
21.1868126362757
 20
2.08378136742084
 30
0.0
 10
21.59834836492457
 20
2.448866446006888
 30
0.0
 10
21.97294533386239
 20
2.854405113488951
 30
0.0
 10
22.30140305085381
 20
3.287222092939657
 30
0.0
 10
22.5886305023913
 20
3.756145881760915
 30
0.0
 10
22.83153960300993
 20
4.264567726898633
 30
0.0
 10
23.04065651613794
 20
4.840751959811711
 30
0.0
 10
23.19682793468546
 20
5.481169207579682
 30
0.0
 10
23.23024405652173
 20
5.942629073092007
 30
0.0
 10
23.24721711597715
 20
6.177018502601868
 30
0.0
 11
19.4169507585371
 21
1.128248593221883
 31
0.0
 11
19.85244814488868
 21
1.293927497908214
 31
0.0
 11
20.28403743241529
 21
1.499452146395128
 31
0.0
 11
20.74206852145346
 21
1.769426492822447
 31
0.0
 11
21.17588914761075
 21
2.085949278618841
 31
0.0
 11
21.59331542738835
 21
2.456830922701612
 31
0.0
 11
21.96827884635888
 21
2.862579316582923
 31
0.0
 11
22.29598335349203
 21
3.295123479916867
 31
0.0
 11
22.57389659668445
 21
3.74910057339872
 31
0.0
 11
22.82143306198952
 21
4.264773224102441
 31
0.0
 11
23.02010406704267
 21
4.812790888194854
 31
0.0
 11
23.17655669305588
 21
5.476597178217957
 31
0.0
 11
23.24721711597715
 21
6.177018502601868
 31
0.0
  0
SPLINE
  5
FA
330
2
100
AcDbEntity
  8
GAIKEI
  6
Continuous
 62
     1
100
AcDbSpline
210
0.0
220
0.0
230
1.0
 70
     8
 71
     3
 72
    27
 73
    23
 74
    21
 42
0.0000000001
 43
0.0000000001
 44
0.00000000001
 40
0.0
 40
0.0
 40
0.0
 40
0.0
 40
0.5205076202562213
 40
1.019761791782582
 40
1.421850161627873
 40
1.813194183530198
 40
2.166329253629921
 40
2.529340302720637
 40
2.898978773454384
 40
3.268619355607903
 40
3.640137215105749
 40
4.01167629169765
 40
4.385149746985624
 40
4.758645716487796
 40
5.133945020173315
 40
5.509258110872601
 40
5.88095696853913
 40
6.242313073319359
 40
6.646622117843312
 40
7.062385453254887
 40
7.582492814556884
 40
8.125062487049756
 40
8.125062487049756
 40
8.125062487049756
 40
8.125062487049756
 10
12.25246511027711
 20
6.176911951301917
 30
0.0
 10
12.26395182465499
 20
6.003634340972723
 30
0.0
 10
12.28645622608897
 20
5.664154418857378
 30
0.0
 10
12.37941171545751
 20
5.198090930943976
 30
0.0
 10
12.49858958033219
 20
4.783788003581491
 30
0.0
 10
12.62889393511094
 20
4.424100280910238
 30
0.0
 10
12.78073895434832
 20
4.087260408539691
 30
0.0
 10
12.95267156433326
 20
3.768453810864627
 30
0.0
 10
13.14867501689001
 20
3.457319258654479
 30
0.0
 10
13.36801580970822
 20
3.158628566664447
 30
0.0
 10
13.60808869747279
 20
2.875508504288177
 30
0.0
 10
13.86841245650484
 20
2.609098287773178
 30
0.0
 10
14.14719648193647
 20
2.361075009338208
 30
0.0
 10
14.44372052229691
 20
2.132507729456222
 30
0.0
 10
14.75593867270992
 20
1.924766670816893
 30
0.0
 10
15.08152486625326
 20
1.739922307655206
 30
0.0
 10
15.4145536112653
 20
1.579293768911838
 30
0.0
 10
15.76705236123595
 20
1.438864119638935
 30
0.0
 10
16.14317809886844
 20
1.320909780767237
 30
0.0
 10
16.57757058481937
 20
1.215776000927917
 30
0.0
 10
17.06577490165492
 20
1.139451855854701
 30
0.0
 10
17.42019344454233
 20
1.130326875691764
 30
0.0
 10
17.60114847285712
 20
1.125667946081875
 30
0.0
 11
12.25246511027711
 21
6.176911951301917
 31
0.0
 11
12.29843126927409
 21
5.658437945230389
 31
0.0
 11
12.39318010659468
 21
5.168256972922335
 31
0.0
 11
12.50395163408751
 21
4.78172789786879
 31
0.0
 11
12.63806233965192
 21
4.414080699957935
 31
0.0
 11
12.7830837045721
 21
4.092097499385261
 31
0.0
 11
12.95512335245109
 21
3.772442401944886
 31
0.0
 11
13.15230592048908
 21
3.45978982493915
 31
0.0
 11
13.37101783974185
 21
3.161797784187115
 31
0.0
 11
13.61131561245349
 21
2.878456117015332
 31
0.0
 11
13.87094309337988
 21
2.612683927758098
 31
0.0
 11
14.14998663917072
 21
2.364455965277613
 31
0.0
 11
14.44576447418126
 21
2.136388625329857
 31
0.0
 11
14.75825338459867
 21
1.928541931314839
 31
0.0
 11
15.08452771623865
 21
1.743056145975003
 31
0.0
 11
15.41944391620069
 21
1.581838343628021
 31
0.0
 11
15.75517935783046
 21
1.448197228339324
 31
0.0
 11
16.14068055433688
 21
1.3263176526263
 31
0.0
 11
16.54487361564565
 21
1.228915803247559
 31
0.0
 11
17.05919729017773
 21
1.151567079299809
 31
0.0
 11
17.60114847285712
 21
1.125667946081875
 31
0.0
  0
SPLINE
  5
FB
330
2
100
AcDbEntity
  8
GAIKEI
  6
Continuous
100
AcDbSpline
210
0.0
220
0.0
230
1.0
 70
    24
 71
     3
 72
     9
 73
     5
 74
     3
 42
0.0000000001
 43
0.0000000001
 44
0.00000000001
 40
0.0
 40
0.0
 40
0.0
 40
0.0
 40
0.008223737763675
 40
0.0164474755272002
 40
0.0164474755272002
 40
0.0164474755272002
 40
0.0164474755272002
 10
30.69041434979204
 20
7.212670399051887
 30
0.0
 10
30.68820254312698
 20
7.214289763271835
 30
0.0
 10
30.68377892979689
 20
7.217528491711846
 30
0.0
 10
30.6793553164669
 20
7.220767220151969
 30
0.0
 10
30.67714350980191
 20
7.222386584371975
 30
0.0
 11
30.69041434979204
 21
7.212670399051887
 31
0.0
 11
30.68377892979686
 21
7.217528491711902
 31
0.0
 11
30.67714350980191
 21
7.222386584371975
 31
0.0
  0
SPLINE
  5
FC
330
2
100
AcDbEntity
  8
GAIKEI
  6
Continuous
 62
     1
100
AcDbSpline
210
0.0
220
0.0
230
1.0
 70
     8
 71
     3
 72
    19
 73
    15
 74
    13
 42
0.0000000001
 43
0.0000000001
 44
0.00000000001
 40
0.0
 40
0.0
 40
0.0
 40
0.0
 40
0.4659451152528835
 40
0.9439695566282185
 40
1.475644197645982
 40
2.012660485958478
 40
2.571049438261802
 40
3.123525168238902
 40
3.666189610706951
 40
4.198478040139759
 40
4.770485543898346
 40
5.35340365857035
 40
6.035397950966276
 40
6.739374461243117
 40
6.739374461243117
 40
6.739374461243117
 40
6.739374461243117
 10
-22.91298447165047
 20
1.191835704781908
 30
0.0
 10
-23.05913594816258
 20
1.244643287122812
 30
0.0
 10
-23.35522778380466
 20
1.351627454264189
 30
0.0
 10
-23.799097853727
 20
1.565420660595577
 30
0.0
 10
-24.24456784921237
 20
1.826348017380098
 30
0.0
 10
-24.68284054144885
 20
2.147366504296201
 30
0.0
 10
-25.09437625987792
 20
2.512451548819683
 30
0.0
 10
-25.46897333390188
 20
2.917990298194467
 30
0.0
 10
-25.79743106714302
 20
3.350807306441311
 30
0.0
 10
-26.08465851953022
 20
3.819731094454652
 30
0.0
 10
-26.32756761990699
 20
4.328152939803032
 30
0.0
 10
-26.53668453312232
 20
4.904337172653924
 30
0.0
 10
-26.69285595165781
 20
5.544754420442359
 30
0.0
 10
-26.72627207349469
 20
6.006214285952751
 30
0.0
 10
-26.74324513295045
 20
6.240603715461872
 30
0.0
 11
-22.91298447165047
 21
1.191835704781908
 31
0.0
 11
-23.34847908897723
 21
1.357513973445747
 31
0.0
 11
-23.78006611504685
 21
1.563037708037597
 31
0.0
 11
-24.23809662793861
 21
1.833011731161093
 31
0.0
 11
-24.67191685827248
 21
2.149534244840594
 31
0.0
 11
-25.08934336786132
 21
2.520416073927549
 31
0.0
 11
-25.46430686342109
 21
2.926164529514664
 31
0.0
 11
-25.79201137045919
 21
3.358708692792902
 31
0.0
 11
-26.06992461362205
 21
3.812685786248891
 31
0.0
 11
-26.31746107894242
 21
4.328358436961366
 31
0.0
 11
-26.5161320840088
 21
4.876376101055029
 31
0.0
 11
-26.67258471003055
 21
5.540182391076086
 31
0.0
 11
-26.74324513295045
 21
6.240603715461872
 31
0.0
  0
SPLINE
  5
FD
330
2
100
AcDbEntity
  8
GAIKEI
  6
Continuous
 62
     1
100
AcDbSpline
210
0.0
220
0.0
230
1.0
 70
     8
 71
     3
 72
    19
 73
    15
 74
    13
 42
0.0000000001
 43
0.0000000001
 44
0.00000000001
 40
0.0
 40
0.0
 40
0.0
 40
0.0
 40
0.4659451152531238
 40
0.9439695566288964
 40
1.475644197649913
 40
2.012660485966332
 40
2.571049438273131
 40
3.12352516825313
 40
3.666189610722245
 40
4.198478040155839
 40
4.770485543912829
 40
5.353403658583533
 40
6.03539795097919
 40
6.739374461254768
 40
6.739374461254768
 40
6.739374461254768
 40
6.739374461254768
 10
-19.28136850801047
 20
1.191835704781908
 30
0.0
 10
-19.13521703149828
 20
1.244643287122755
 30
0.0
 10
-18.83912519585594
 20
1.351627454264189
 30
0.0
 10
-18.39525512593309
 20
1.565420660597624
 30
0.0
 10
-17.94978513044575
 20
1.826348017383566
 30
0.0
 10
-17.51151243820212
 20
2.147366504295575
 30
0.0
 10
-17.09997671976536
 20
2.512451548815704
 30
0.0
 10
-16.72537964573956
 20
2.917990298192705
 30
0.0
 10
-16.39692191249889
 20
3.350807306441708
 30
0.0
 10
-16.1096944601091
 20
3.819731094453288
 30
0.0
 10
-15.86678535973234
 20
4.328152939801384
 30
0.0
 10
-15.65766844653252
 20
4.904337172657164
 30
0.0
 10
-15.50149702800815
 20
5.544754420445656
 30
0.0
 10
-15.46808090615462
 20
6.006214285953944
 30
0.0
 10
-15.45110784669043
 20
6.240603715461872
 30
0.0
 11
-19.28136850801047
 21
1.191835704781908
 31
0.0
 11
-18.84587389068355
 21
1.357513973445975
 31
0.0
 11
-18.41428686461398
 21
1.563037708038962
 31
0.0
 11
-17.95625635171899
 21
1.833011731163367
 31
0.0
 11
-17.52243612137835
 21
2.149534244840253
 31
0.0
 11
-17.10500961178269
 21
2.520416073924764
 31
0.0
 11
-16.73004611622025
 21
2.926164529513357
 31
0.0
 11
-16.40234160918203
 21
3.358708692792845
 31
0.0
 11
-16.1244283660173
 21
3.812685786248607
 31
0.0
 11
-15.87689190069932
 21
4.328358436960456
 31
0.0
 11
-15.67822089564458
 21
4.876376101056962
 31
0.0
 11
-15.52176826962932
 21
5.54018239107927
 31
0.0
 11
-15.45110784669043
 21
6.240603715461872
 31
0.0
  0
LINE
  5
FE
330
2
100
AcDbEntity
  8
GAIKEI
  6
Continuous
100
AcDbLine
 10
-27.62158339091246
 20
6.507388173661979
 30
0.0
 11
-14.43094981637244
 21
6.507388173661979
 31
0.0
  0
ARC
  5
FF
330
2
100
AcDbEntity
  8
GAIKEI
  6
S110
 48
0.5
100
AcDbCircle
 10
-21.02626660321249
 20
6.707388173661968
 30
0.0
 40
6.25
100
AcDbArc
 50
181.8337780000488
 51
358.1662219999511
  0
LINE
  5
101
330
2
100
AcDbEntity
  8
GAIKEI
  6
Continuous
100
AcDbLine
 10
11.09882704633185
 20
6.507388173661752
 30
0.0
 11
24.28946062173191
 21
6.507388173661752
 31
0.0
  0
ARC
  5
102
330
2
100
AcDbEntity
  8
GAIKEI
  6
S110
 48
0.5
100
AcDbCircle
 10
17.69414383403187
 20
6.70738817366174
 30
0.0
 40
6.25
100
AcDbArc
 50
181.8337780000488
 51
358.1662219999511
  0
ENDSEC
  0
SECTION
  2
OBJECTS
  0
DICTIONARY
  5
9
330
0
100
AcDbDictionary
281
     1
  3
ACAD_COLOR
350
31
  3
ACAD_GROUP
350
2D
  3
ACAD_LAYOUT
350
D
  3
ACAD_MATERIAL
350
30
  3
ACAD_MLINESTYLE
350
2E
  3
ACAD_PLOTSETTINGS
350
2F
  3
ACAD_PLOTSTYLENAME
350
8
  3
ACDBHEADERROUNDTRIPXREC
350
13F
  3
AcDbVariableDictionary
350
13A
  0
DICTIONARY
  5
15
330
14
100
AcDbDictionary
280
     1
281
     1
  3
ACAD_LAYERFILTERS
360
16
  3
ACAD_LAYERSTATES
360
17
  0
DICTIONARY
  5
3
330
2
100
AcDbDictionary
280
     1
281
     1
  3
ACAD_LAYOUTSELFREF
360
4
  0
DICTIONARY
  5
F
330
E
100
AcDbDictionary
280
     1
281
     1
  3
ACAD_LAYOUTSELFREF
360
10
  0
DICTIONARY
  5
31
102
{ACAD_REACTORS
330
9
102
}
330
9
100
AcDbDictionary
281
     1
  0
DICTIONARY
  5
2D
102
{ACAD_REACTORS
330
9
102
}
330
9
100
AcDbDictionary
281
     1
  0
DICTIONARY
  5
D
102
{ACAD_REACTORS
330
9
102
}
330
9
100
AcDbDictionary
281
     1
  3
Model
350
C
  3
ﾚｲｱｳﾄ1
350
13
  0
DICTIONARY
  5
30
102
{ACAD_REACTORS
330
9
102
}
330
9
100
AcDbDictionary
281
     1
  0
DICTIONARY
  5
2E
102
{ACAD_REACTORS
330
9
102
}
330
9
100
AcDbDictionary
281
     1
  3
STANDARD
350
33
  0
DICTIONARY
  5
2F
102
{ACAD_REACTORS
330
9
102
}
330
9
100
AcDbDictionary
281
     1
  0
ACDBDICTIONARYWDFLT
  5
8
102
{ACAD_REACTORS
330
9
102
}
330
9
100
AcDbDictionary
281
     1
  3
Normal
350
7
100
AcDbDictionaryWithDefault
340
7
  0
DICTIONARY
  5
13F
102
{ACAD_REACTORS
330
9
102
}
330
9
100
AcDbDictionary
281
     1
  3
COLORDICT
350
141
  3
MATERIALDICT
350
140
  0
DICTIONARY
  5
13A
102
{ACAD_REACTORS
330
9
102
}
330
9
100
AcDbDictionary
281
     1
  3
DIMASSOC
350
13C
  3
HIDETEXT
350
13B
  3
PROJECTNAME
350
13D
  0
DICTIONARY
  5
16
102
{ACAD_REACTORS
330
15
102
}
330
15
100
AcDbDictionary
280
     1
281
     1
  0
DICTIONARY
  5
17
102
{ACAD_REACTORS
330
15
102
}
330
15
100
AcDbDictionary
281
     1
  0
XRECORD
  5
4
102
{ACAD_REACTORS
330
3
102
}
330
3
100
AcDbXrecord
280
     1
340
2
  0
XRECORD
  5
10
102
{ACAD_REACTORS
330
F
102
}
330
F
100
AcDbXrecord
280
     1
340
E
  0
LAYOUT
  5
C
102
{ACAD_XDICTIONARY
360
142
102
}
102
{ACAD_REACTORS
330
D
102
}
330
D
100
AcDbPlotSettings
  1

  2
8FPAM09-A4.pc3
  4
A4
  6

 40
4.349750041961669
 41
4.222751140594482
 42
4.3497314453125
 43
4.180419921875
 44
297.0106506347656
 45
210.0156707763672
 46
0.0
 47
6.019999999999999
 48
586.7197439017591
 49
80.03711269102495
140
1246.52177633949
141
483.5407420879955
142
1.0
143
1.367406275946202
 70
 11956
 72
     1
 73
     1
 74
     1
  7
tmsacad.ctb
 75
     0
147
0.7313115477022594
148
0.5975600756119093
149
0.005505254347554
100
AcDbLayout
  1
Model
 70
     1
 71
     0
 10
0.0
 20
0.0
 11
12.0
 21
9.0
 12
0.0
 22
0.0
 32
0.0
 14
0.0
 24
0.0
 34
0.0
 15
0.0
 25
0.0
 35
0.0
146
0.0
 13
0.0
 23
0.0
 33
0.0
 16
1.0
 26
0.0
 36
0.0
 17
0.0
 27
1.0
 37
0.0
 76
     0
330
2
  0
LAYOUT
  5
13
102
{ACAD_XDICTIONARY
360
144
102
}
102
{ACAD_REACTORS
330
D
102
}
330
D
100
AcDbPlotSettings
  1

  2
C:\Program Files\ACAD2000\plotters\DWF ePlot.pc3
  4

  6

 40
0.0
 41
0.0
 42
0.0
 43
0.0
 44
0.0
 45
0.0
 46
0.0
 47
0.0
 48
0.0
 49
0.0
140
0.0
141
0.0
142
1.0
143
1.0
 70
   688
 72
     0
 73
     0
 74
     5
  7
tmsacad.ctb
 75
    16
147
1.0
148
0.0
149
0.0
100
AcDbLayout
  1
ﾚｲｱｳﾄ1
 70
     1
 71
     1
 10
0.0
 20
0.0
 11
12.0
 21
9.0
 12
0.0
 22
0.0
 32
0.0
 14
1.000000000000000E+20
 24
1.000000000000000E+20
 34
1.000000000000000E+20
 15
-1.000000000000000E+20
 25
-1.000000000000000E+20
 35
-1.000000000000000E+20
146
0.0
 13
0.0
 23
0.0
 33
0.0
 16
1.0
 26
0.0
 36
0.0
 17
0.0
 27
1.0
 37
0.0
 76
     0
330
E
  0
MLINESTYLE
  5
33
102
{ACAD_REACTORS
330
2E
102
}
330
2E
100
AcDbMlineStyle
  2
STANDARD
 70
     0
  3

 62
   256
 51
90.0
 52
90.0
 71
     2
 49
0.5
 62
   256
  6
BYLAYER
 49
-0.5
 62
   256
  6
BYLAYER
  0
ACDBPLACEHOLDER
  5
7
102
{ACAD_REACTORS
330
8
102
}
330
8
  0
XRECORD
  5
141
102
{ACAD_REACTORS
330
13F
102
}
330
13F
100
AcDbXrecord
280
     1
340
31
  0
XRECORD
  5
140
102
{ACAD_REACTORS
330
13F
102
}
330
13F
100
AcDbXrecord
280
     1
340
30
  0
DICTIONARYVAR
  5
13C
102
{ACAD_REACTORS
330
13A
102
}
330
13A
100
DictionaryVariables
280
     0
  1
1
  0
DICTIONARYVAR
  5
13B
102
{ACAD_REACTORS
330
13A
102
}
330
13A
100
DictionaryVariables
280
     0
  1
1
  0
DICTIONARYVAR
  5
13D
102
{ACAD_REACTORS
330
13A
102
}
330
13A
100
DictionaryVariables
280
     0
  1

  0
DICTIONARY
  5
142
330
C
100
AcDbDictionary
280
     1
281
     1
  3
ACAD_XREC_ROUNDTRIP
360
143
  0
DICTIONARY
  5
144
330
13
100
AcDbDictionary
280
     1
281
     1
  3
ACAD_XREC_ROUNDTRIP
360
145
  0
XRECORD
  5
143
102
{ACAD_REACTORS
330
142
102
}
330
142
100
AcDbXrecord
280
     1
102
SHADEPLOT
 70
     0
102
SHADEPLOTRESLEVEL
 70
     2
102
SHADEPLOTCUSTOMDPI
 70
   300
  0
XRECORD
  5
145
102
{ACAD_REACTORS
330
144
102
}
330
144
100
AcDbXrecord
280
     1
102
SHADEPLOT
 70
     0
102
SHADEPLOTRESLEVEL
 70
     2
102
SHADEPLOTCUSTOMDPI
 70
   300
  0
ENDSEC
  0
EOF
