  0
SECTION
  2
HEADER
  9
$ACADVER
  1
AC1015
  9
$ACADMAINTVER
 70
    20
  9
$DWGCODEPAGE
  3
ANSI_932
  9
$INSBASE
 10
129.0
 20
372.4992141396417
 30
0.0
  9
$EXTMIN
 10
-61.49791369292916
 20
-61.6377606707374
 30
-0.0015258207003583
  9
$EXTMAX
 10
63.58259527703558
 20
51.49332124488864
 30
0.0000000349246037
  9
$LIMMIN
 10
-1101.784450318844
 20
-1579.160531687244
  9
$LIMMAX
 10
-508.2420711400536
 20
-1161.440814074914
  9
$ORTHOMODE
 70
     1
  9
$REGENMODE
 70
     1
  9
$FILLMODE
 70
     1
  9
$QTEXTMODE
 70
     0
  9
$MIRRTEXT
 70
     1
  9
$LTSCALE
 40
1.0
  9
$ATTMODE
 70
     1
  9
$TEXTSIZE
 40
3.0
  9
$TRACEWID
 40
0.5
  9
$TEXTSTYLE
  7
STANDARD
  9
$CLAYER
  8
SUNPO
  9
$CELTYPE
  6
BYLAYER
  9
$CECOLOR
 62
   256
  9
$CELTSCALE
 40
1.0
  9
$DISPSILH
 70
     0
  9
$DIMSCALE
 40
1.0
  9
$DIMASZ
 40
2.0
  9
$DIMEXO
 40
2.0
  9
$DIMDLI
 40
8.0
  9
$DIMRND
 40
0.0
  9
$DIMDLE
 40
0.0
  9
$DIMEXE
 40
2.0
  9
$DIMTP
 40
0.0
  9
$DIMTM
 40
0.0
  9
$DIMTXT
 40
2.5
  9
$DIMCEN
 40
0.0
  9
$DIMTSZ
 40
0.0
  9
$DIMTOL
 70
     0
  9
$DIMLIM
 70
     0
  9
$DIMTIH
 70
     0
  9
$DIMTOH
 70
     0
  9
$DIMSE1
 70
     0
  9
$DIMSE2
 70
     0
  9
$DIMTAD
 70
     3
  9
$DIMZIN
 70
     0
  9
$DIMBLK
  1

  9
$DIMASO
 70
     1
  9
$DIMSHO
 70
     1
  9
$DIMPOST
  1

  9
$DIMAPOST
  1

  9
$DIMALT
 70
     0
  9
$DIMALTD
 70
     2
  9
$DIMALTF
 40
25.4
  9
$DIMLFAC
 40
1.0
  9
$DIMTOFL
 70
     1
  9
$DIMTVP
 40
0.0
  9
$DIMTIX
 70
     0
  9
$DIMSOXD
 70
     0
  9
$DIMSAH
 70
     1
  9
$DIMBLK1
  1
OPEN30
  9
$DIMBLK2
  1
OPEN30
  9
$DIMSTYLE
  2
STANDARD
  9
$DIMCLRD
 70
     0
  9
$DIMCLRE
 70
     0
  9
$DIMCLRT
 70
     0
  9
$DIMTFAC
 40
1.0
  9
$DIMGAP
 40
0.5
  9
$DIMJUST
 70
     0
  9
$DIMSD1
 70
     0
  9
$DIMSD2
 70
     0
  9
$DIMTOLJ
 70
     1
  9
$DIMTZIN
 70
     0
  9
$DIMALTZ
 70
     0
  9
$DIMALTTZ
 70
     0
  9
$DIMUPT
 70
     0
  9
$DIMDEC
 70
     4
  9
$DIMTDEC
 70
     4
  9
$DIMALTU
 70
     2
  9
$DIMALTTD
 70
     2
  9
$DIMTXSTY
  7
STANDARD
  9
$DIMAUNIT
 70
     0
  9
$DIMADEC
 70
     0
  9
$DIMALTRND
 40
0.0
  9
$DIMAZIN
 70
     0
  9
$DIMDSEP
 70
    46
  9
$DIMATFIT
 70
     3
  9
$DIMFRAC
 70
     0
  9
$DIMLDRBLK
  1
OPEN30
  9
$DIMLUNIT
 70
     2
  9
$DIMLWD
 70
    -2
  9
$DIMLWE
 70
    -2
  9
$DIMTMOVE
 70
     0
  9
$LUNITS
 70
     2
  9
$LUPREC
 70
     4
  9
$SKETCHINC
 40
0.1
  9
$FILLETRAD
 40
0.0
  9
$AUNITS
 70
     0
  9
$AUPREC
 70
     0
  9
$MENU
  1
ACAD
  9
$ELEVATION
 40
0.0
  9
$PELEVATION
 40
0.0
  9
$THICKNESS
 40
0.0
  9
$LIMCHECK
 70
     0
  9
$CHAMFERA
 40
0.0
  9
$CHAMFERB
 40
0.0
  9
$CHAMFERC
 40
0.0
  9
$CHAMFERD
 40
0.0
  9
$SKPOLY
 70
     0
  9
$TDCREATE
 40
2451815.565532581
  9
$TDUCREATE
 40
2451815.190532581
  9
$TDUPDATE
 40
2454053.397731655
  9
$TDUUPDATE
 40
2454053.022731656
  9
$TDINDWG
 40
0.9281113657
  9
$TDUSRTIMER
 40
0.9281113657
  9
$USRTIMER
 70
     1
  9
$ANGBASE
 50
0.0
  9
$ANGDIR
 70
     0
  9
$PDMODE
 70
     0
  9
$PDSIZE
 40
0.0
  9
$PLINEWID
 40
0.0
  9
$SPLFRAME
 70
     0
  9
$SPLINETYPE
 70
     6
  9
$SPLINESEGS
 70
     8
  9
$HANDSEED
  5
146
  9
$SURFTAB1
 70
     6
  9
$SURFTAB2
 70
     6
  9
$SURFTYPE
 70
     6
  9
$SURFU
 70
     6
  9
$SURFV
 70
     6
  9
$UCSBASE
  2

  9
$UCSNAME
  2

  9
$UCSORG
 10
0.0
 20
0.0
 30
0.0
  9
$UCSXDIR
 10
1.0
 20
0.0
 30
0.0
  9
$UCSYDIR
 10
0.0
 20
1.0
 30
0.0
  9
$UCSORTHOREF
  2

  9
$UCSORTHOVIEW
 70
     0
  9
$UCSORGTOP
 10
0.0
 20
0.0
 30
0.0
  9
$UCSORGBOTTOM
 10
0.0
 20
0.0
 30
0.0
  9
$UCSORGLEFT
 10
0.0
 20
0.0
 30
0.0
  9
$UCSORGRIGHT
 10
0.0
 20
0.0
 30
0.0
  9
$UCSORGFRONT
 10
0.0
 20
0.0
 30
0.0
  9
$UCSORGBACK
 10
0.0
 20
0.0
 30
0.0
  9
$PUCSBASE
  2

  9
$PUCSNAME
  2

  9
$PUCSORG
 10
0.0
 20
0.0
 30
0.0
  9
$PUCSXDIR
 10
1.0
 20
0.0
 30
0.0
  9
$PUCSYDIR
 10
0.0
 20
1.0
 30
0.0
  9
$PUCSORTHOREF
  2

  9
$PUCSORTHOVIEW
 70
     0
  9
$PUCSORGTOP
 10
0.0
 20
0.0
 30
0.0
  9
$PUCSORGBOTTOM
 10
0.0
 20
0.0
 30
0.0
  9
$PUCSORGLEFT
 10
0.0
 20
0.0
 30
0.0
  9
$PUCSORGRIGHT
 10
0.0
 20
0.0
 30
0.0
  9
$PUCSORGFRONT
 10
0.0
 20
0.0
 30
0.0
  9
$PUCSORGBACK
 10
0.0
 20
0.0
 30
0.0
  9
$USERI1
 70
     0
  9
$USERI2
 70
     0
  9
$USERI3
 70
     0
  9
$USERI4
 70
     0
  9
$USERI5
 70
     0
  9
$USERR1
 40
0.0
  9
$USERR2
 40
0.0
  9
$USERR3
 40
0.0
  9
$USERR4
 40
0.0
  9
$USERR5
 40
0.0
  9
$WORLDVIEW
 70
     1
  9
$SHADEDGE
 70
     3
  9
$SHADEDIF
 70
    70
  9
$TILEMODE
 70
     1
  9
$MAXACTVP
 70
    48
  9
$PINSBASE
 10
0.0
 20
0.0
 30
0.0
  9
$PLIMCHECK
 70
     0
  9
$PEXTMIN
 10
1.000000000000000E+20
 20
1.000000000000000E+20
 30
1.000000000000000E+20
  9
$PEXTMAX
 10
-1.000000000000000E+20
 20
-1.000000000000000E+20
 30
-1.000000000000000E+20
  9
$PLIMMIN
 10
0.0
 20
0.0
  9
$PLIMMAX
 10
12.0
 20
9.0
  9
$UNITMODE
 70
     0
  9
$VISRETAIN
 70
     1
  9
$PLINEGEN
 70
     0
  9
$PSLTSCALE
 70
     1
  9
$TREEDEPTH
 70
  3020
  9
$CMLSTYLE
  2
STANDARD
  9
$CMLJUST
 70
     0
  9
$CMLSCALE
 40
1.0
  9
$PROXYGRAPHICS
 70
     1
  9
$MEASUREMENT
 70
     0
  9
$CELWEIGHT
370
    -1
  9
$ENDCAPS
280
     0
  9
$JOINSTYLE
280
     0
  9
$LWDISPLAY
290
     0
  9
$INSUNITS
 70
     0
  9
$HYPERLINKBASE
  1

  9
$STYLESHEET
  1

  9
$XEDIT
290
     1
  9
$CEPSNTYPE
380
     0
  9
$PSTYLEMODE
290
     1
  9
$FINGERPRINTGUID
  2
{1754B7AB-9B3C-11D4-AD9E-00104B1004F2}
  9
$VERSIONGUID
  2
{AC497AA6-08C1-44A8-BB40-96A063C00343}
  9
$EXTNAMES
290
     1
  9
$PSVPSCALE
 40
0.0
  9
$OLESTARTUP
290
     0
  0
ENDSEC
  0
SECTION
  2
CLASSES
  0
CLASS
  1
ACDBDICTIONARYWDFLT
  2
AcDbDictionaryWithDefault
  3
ObjectDBX Classes
 90
        0
280
     0
281
     0
  0
CLASS
  1
ACDBPLACEHOLDER
  2
AcDbPlaceHolder
  3
ObjectDBX Classes
 90
        0
280
     0
281
     0
  0
CLASS
  1
LAYOUT
  2
AcDbLayout
  3
ObjectDBX Classes
 90
        0
280
     0
281
     0
  0
CLASS
  1
DICTIONARYVAR
  2
AcDbDictionaryVar
  3
ObjectDBX Classes
 90
        0
280
     0
281
     0
  0
ENDSEC
  0
SECTION
  2
TABLES
  0
TABLE
  2
VPORT
  5
20
330
0
100
AcDbSymbolTable
 70
     3
  0
VPORT
  5
13E
330
20
100
AcDbSymbolTableRecord
100
AcDbViewportTableRecord
  2
*Active
 70
     0
 10
0.0
 20
0.0
 11
1.0
 21
1.0
 12
1.042340792053206
 22
-5.072219712924379
 13
0.0
 23
0.0
 14
1.0
 24
1.0
 15
0.0
 25
0.0
 16
0.0
 26
0.0
 36
1.0
 17
0.0
 27
0.0
 37
0.0
 40
114.0137691607415
 41
1.401041666666666
 42
50.0
 43
0.0
 44
0.0
 50
0.0
 51
0.0
 71
     0
 72
 10000
 73
     1
 74
     0
 75
     0
 76
     1
 77
     0
 78
     0
281
     0
 65
     1
110
0.0
120
0.0
130
0.0
111
1.0
121
0.0
131
0.0
112
0.0
122
1.0
132
0.0
 79
     0
146
0.0
  0
ENDTAB
  0
TABLE
  2
LTYPE
  5
1B
330
0
100
AcDbSymbolTable
 70
     3
  0
LTYPE
  5
1C
330
1B
100
AcDbSymbolTableRecord
100
AcDbLinetypeTableRecord
  2
BYBLOCK
 70
     0
  3

 72
    65
 73
     0
 40
0.0
  0
LTYPE
  5
1D
330
1B
100
AcDbSymbolTableRecord
100
AcDbLinetypeTableRecord
  2
BYLAYER
 70
     0
  3

 72
    65
 73
     0
 40
0.0
  0
LTYPE
  5
A
330
1B
100
AcDbSymbolTableRecord
100
AcDbLinetypeTableRecord
  2
CONTINUOUS
 70
     0
  3
Solid line
 72
    65
 73
     0
 40
0.0
  0
LTYPE
  5
A4
330
1B
100
AcDbSymbolTableRecord
100
AcDbLinetypeTableRecord
  2
DOTTED
 70
     0
  3
Dotted
 72
    65
 73
     2
 40
3.5
 49
0.5
 74
     0
 49
-3.0
 74
     0
  0
LTYPE
  5
3B
330
1B
100
AcDbSymbolTableRecord
100
AcDbLinetypeTableRecord
  2
S110
 70
     0
  3
--- - - --- - - --- 3,-1,1,-1,1,-1
 72
    65
 73
     6
 40
8.0
 49
3.0
 74
     0
 49
-1.0
 74
     0
 49
1.0
 74
     0
 49
-1.0
 74
     0
 49
1.0
 74
     0
 49
-1.0
 74
     0
  0
ENDTAB
  0
TABLE
  2
LAYER
  5
14
102
{ACAD_XDICTIONARY
360
15
102
}
330
0
100
AcDbSymbolTable
 70
     7
  0
LAYER
  5
6
330
14
100
AcDbSymbolTableRecord
100
AcDbLayerTableRecord
  2
0
 70
     0
 62
     7
  6
CONTINUOUS
370
    -3
390
7
  0
LAYER
  5
C8
330
14
100
AcDbSymbolTableRecord
100
AcDbLayerTableRecord
  2
DEFPOINTS
 70
     0
 62
     7
  6
CONTINUOUS
290
     0
370
    -3
390
7
  0
LAYER
  5
E7
330
14
100
AcDbSymbolTableRecord
100
AcDbLayerTableRecord
  2
WAKU
 70
     0
 62
     4
  6
CONTINUOUS
370
    -3
390
7
  0
LAYER
  5
35
330
14
100
AcDbSymbolTableRecord
100
AcDbLayerTableRecord
  2
MOJI1
 70
     0
 62
     2
  6
CONTINUOUS
370
    -3
390
7
  0
LAYER
  5
3A
330
14
100
AcDbSymbolTableRecord
100
AcDbLayerTableRecord
  2
GAIKEI
 70
     0
 62
     7
  6
CONTINUOUS
370
    -3
390
7
  0
LAYER
  5
38
330
14
100
AcDbSymbolTableRecord
100
AcDbLayerTableRecord
  2
TOUROKU
 70
     0
 62
     1
  6
CONTINUOUS
370
    -3
390
7
  0
LAYER
  5
32
330
14
100
AcDbSymbolTableRecord
100
AcDbLayerTableRecord
  2
SUNPO
 70
     0
 62
     3
  6
CONTINUOUS
370
    -3
390
7
  0
ENDTAB
  0
TABLE
  2
STYLE
  5
18
330
0
100
AcDbSymbolTable
 70
     2
  0
STYLE
  5
19
330
18
100
AcDbSymbolTableRecord
100
AcDbTextStyleTableRecord
  2
STANDARD
 70
     0
 40
0.0
 41
1.0
 50
0.0
 71
     0
 42
3.0
  3
MONOTXT.shx
  4
BIGFONT.shx
  0
STYLE
  5
36
330
18
100
AcDbSymbolTableRecord
100
AcDbTextStyleTableRecord
  2
KANJI
 70
     0
 40
0.0
 41
1.0
 50
0.0
 71
     0
 42
3.5
  3
MONOTXT
  4
BIGFONT
  0
ENDTAB
  0
TABLE
  2
VIEW
  5
1E
330
0
100
AcDbSymbolTable
 70
     0
  0
ENDTAB
  0
TABLE
  2
UCS
  5
1F
330
0
100
AcDbSymbolTable
 70
     0
  0
ENDTAB
  0
TABLE
  2
APPID
  5
22
330
0
100
AcDbSymbolTable
 70
     1
  0
APPID
  5
23
330
22
100
AcDbSymbolTableRecord
100
AcDbRegAppTableRecord
  2
ACAD
 70
     0
  0
ENDTAB
  0
TABLE
  2
DIMSTYLE
  5
24
330
0
100
AcDbSymbolTable
 70
     1
100
AcDbDimStyleTable
 71
     1
340
25
  0
DIMSTYLE
105
25
102
{ACAD_REACTORS
330
BE
330
CC
330
D9
102
}
330
24
100
AcDbSymbolTableRecord
100
AcDbDimStyleTableRecord
  2
STANDARD
 70
     0
 40
0.0
 41
2.0
 42
2.0
 43
8.0
 44
2.0
 73
     0
 74
     0
 77
     3
140
3.0
141
0.0
173
     1
279
     2
288
     1
340
19
341
26
343
26
344
26
  0
ENDTAB
  0
TABLE
  2
BLOCK_RECORD
  5
1
330
0
100
AcDbSymbolTable
 70
     7
  0
BLOCK_RECORD
  5
2
102
{ACAD_XDICTIONARY
360
3
102
}
330
1
100
AcDbSymbolTableRecord
100
AcDbBlockTableRecord
  2
*MODEL_SPACE
340
C
  0
BLOCK_RECORD
  5
E
102
{ACAD_XDICTIONARY
360
F
102
}
330
1
100
AcDbSymbolTableRecord
100
AcDbBlockTableRecord
  2
*PAPER_SPACE
340
13
  0
BLOCK_RECORD
  5
26
330
1
100
AcDbSymbolTableRecord
100
AcDbBlockTableRecord
  2
_OPEN30
340
0
102
{BLKREFS
331
C4
331
C5
331
D2
331
D3
331
DF
331
E0
331
11A
331
11B
331
126
331
127
331
132
331
133
102
}
  0
BLOCK_RECORD
  5
BF
330
1
100
AcDbSymbolTableRecord
100
AcDbBlockTableRecord
  2
*D1
340
0
  0
BLOCK_RECORD
  5
CD
330
1
100
AcDbSymbolTableRecord
100
AcDbBlockTableRecord
  2
*D2
340
0
  0
BLOCK_RECORD
  5
DA
330
1
100
AcDbSymbolTableRecord
100
AcDbBlockTableRecord
  2
*D3
340
0
  0
BLOCK_RECORD
  5
116
330
1
100
AcDbSymbolTableRecord
100
AcDbBlockTableRecord
  2
*D4
340
0
  0
BLOCK_RECORD
  5
122
330
1
100
AcDbSymbolTableRecord
100
AcDbBlockTableRecord
  2
*D5
340
0
  0
BLOCK_RECORD
  5
12E
330
1
100
AcDbSymbolTableRecord
100
AcDbBlockTableRecord
  2
*D6
340
0
  0
ENDTAB
  0
ENDSEC
  0
SECTION
  2
BLOCKS
  0
BLOCK
  5
5
330
2
100
AcDbEntity
  8
0
100
AcDbBlockBegin
  2
*MODEL_SPACE
 70
     0
 10
0.0
 20
0.0
 30
0.0
  3
*MODEL_SPACE
  1

  0
ENDBLK
  5
B
330
2
100
AcDbEntity
  8
0
100
AcDbBlockEnd
  0
BLOCK
  5
11
330
E
100
AcDbEntity
 67
     1
  8
0
100
AcDbBlockBegin
  2
*PAPER_SPACE
 70
     0
 10
0.0
 20
0.0
 30
0.0
  3
*PAPER_SPACE
  1

  0
ENDBLK
  5
12
330
E
100
AcDbEntity
 67
     1
  8
0
100
AcDbBlockEnd
  0
BLOCK
  5
27
330
26
100
AcDbEntity
  8
0
100
AcDbBlockBegin
  2
_OPEN30
 70
     0
 10
0.0
 20
0.0
 30
0.0
  3
_OPEN30
  1

  0
LINE
  5
28
330
26
100
AcDbEntity
  8
0
  6
ByBlock
 62
     0
100
AcDbLine
 10
-1.0
 20
0.26794919
 30
0.0
 11
0.0
 21
0.0
 31
0.0
  0
LINE
  5
29
330
26
100
AcDbEntity
  8
0
  6
ByBlock
 62
     0
100
AcDbLine
 10
0.0
 20
0.0
 30
0.0
 11
-1.0
 21
-0.26794919
 31
0.0
  0
LINE
  5
2A
330
26
100
AcDbEntity
  8
0
  6
ByBlock
 62
     0
100
AcDbLine
 10
0.0
 20
0.0
 30
0.0
 11
-1.0
 21
0.0
 31
0.0
  0
ENDBLK
  5
2B
330
26
100
AcDbEntity
  8
0
100
AcDbBlockEnd
  0
BLOCK
  5
C0
330
BF
100
AcDbEntity
  8
0
100
AcDbBlockBegin
  2
*D1
 70
     1
 10
0.0
 20
0.0
 30
0.0
  3
*D1
  1

  0
LINE
  5
C1
330
BF
100
AcDbEntity
  8
SUNPO
 62
     0
370
    -2
100
AcDbLine
 10
162.3953952302133
 20
340.3855456694784
 30
0.0
 11
162.3953952302133
 21
348.3855456737016
 31
0.0
  0
LINE
  5
C2
330
BF
100
AcDbEntity
  8
SUNPO
 62
     0
370
    -2
100
AcDbLine
 10
178.8953952283182
 20
340.3855456737016
 30
0.0
 11
178.8953952283182
 21
348.3855456737016
 31
0.0
  0
LINE
  5
C3
330
BF
100
AcDbEntity
  8
SUNPO
 62
     0
370
    -2
100
AcDbLine
 10
164.3953952302133
 20
346.3855456737016
 30
0.0
 11
176.8953952283182
 21
346.3855456737016
 31
0.0
  0
INSERT
  5
C4
330
BF
100
AcDbEntity
  8
SUNPO
 62
     0
370
    -2
100
AcDbBlockReference
  2
_OPEN30
 10
162.3953952302133
 20
346.3855456737016
 30
0.0
 41
2.0
 42
2.0
 43
2.0
 50
180.0
  0
INSERT
  5
C5
330
BF
100
AcDbEntity
  8
SUNPO
 62
     0
370
    -2
100
AcDbBlockReference
  2
_OPEN30
 10
178.8953952283182
 20
346.3855456737016
 30
0.0
 41
2.0
 42
2.0
 43
2.0
  0
MTEXT
  5
C6
330
BF
100
AcDbEntity
  8
SUNPO
 62
     0
100
AcDbMText
 10
170.6453952292657
 20
348.1355456737016
 30
0.0
 40
2.5
 41
0.0
 71
     5
 72
     1
  1
\A1;165
 73
     1
 44
1.0
1001
ACAD
1000
MTEXTBEGIN
1070
    73
1070
     1
1070
    44
1040
1.0
1070
    74
1070
     0
1000
MTEXTEND
  0
POINT
  5
C7
330
BF
100
AcDbEntity
  8
DEFPOINTS
 62
     0
100
AcDbPoint
 10
162.3953952302133
 20
338.3855456694784
 30
0.0
  0
POINT
  5
C9
330
BF
100
AcDbEntity
  8
DEFPOINTS
 62
     0
100
AcDbPoint
 10
178.8953952283182
 20
338.3855456737017
 30
0.0
  0
POINT
  5
CA
330
BF
100
AcDbEntity
  8
DEFPOINTS
 62
     0
100
AcDbPoint
 10
178.8953952283182
 20
346.3855456737016
 30
0.0
  0
ENDBLK
  5
CB
330
BF
100
AcDbEntity
  8
0
100
AcDbBlockEnd
  0
BLOCK
  5
CE
330
CD
100
AcDbEntity
  8
0
100
AcDbBlockBegin
  2
*D2
 70
     1
 10
0.0
 20
0.0
 30
0.0
  3
*D2
  1

  0
LINE
  5
CF
330
CD
100
AcDbEntity
  8
SUNPO
 62
     0
370
    -2
100
AcDbLine
 10
180.904956625885
 20
338.3872618885135
 30
0.0
 11
189.212071404137
 21
338.3872618885135
 31
0.0
  0
LINE
  5
D0
330
CD
100
AcDbEntity
  8
SUNPO
 62
     0
370
    -2
100
AcDbLine
 10
180.904956625885
 20
317.7472618885134
 30
0.0
 11
189.212071404137
 21
317.7472618885134
 31
0.0
  0
LINE
  5
D1
330
CD
100
AcDbEntity
  8
SUNPO
 62
     0
370
    -2
100
AcDbLine
 10
187.212071404137
 20
336.3872618885135
 30
0.0
 11
187.212071404137
 21
319.7472618885134
 31
0.0
  0
INSERT
  5
D2
330
CD
100
AcDbEntity
  8
SUNPO
 62
     0
370
    -2
100
AcDbBlockReference
  2
_OPEN30
 10
187.212071404137
 20
338.3872618885135
 30
0.0
 41
2.0
 42
2.0
 43
2.0
 50
90.0
  0
INSERT
  5
D3
330
CD
100
AcDbEntity
  8
SUNPO
 62
     0
370
    -2
100
AcDbBlockReference
  2
_OPEN30
 10
187.212071404137
 20
317.7472618885134
 30
0.0
 41
2.0
 42
2.0
 43
2.0
 50
270.0
  0
MTEXT
  5
D4
330
CD
100
AcDbEntity
  8
SUNPO
 62
     0
100
AcDbMText
 10
185.462071404137
 20
328.0672618885135
 30
0.0
 40
2.5
 41
0.0
 71
     5
 72
     1
  1
\A1;206.5
 11
0.0000000000000001
 21
1.0
 31
0.0
 73
     1
 44
1.0
1001
ACAD
1000
MTEXTBEGIN
1070
    73
1070
     1
1070
    44
1040
1.0
1070
    74
1070
     0
1000
MTEXTEND
  0
POINT
  5
D5
330
CD
100
AcDbEntity
  8
DEFPOINTS
 62
     0
100
AcDbPoint
 10
178.904956625885
 20
338.3872618885135
 30
0.0
  0
POINT
  5
D6
330
CD
100
AcDbEntity
  8
DEFPOINTS
 62
     0
100
AcDbPoint
 10
178.904956625885
 20
317.7472618885134
 30
0.0
  0
POINT
  5
D7
330
CD
100
AcDbEntity
  8
DEFPOINTS
 62
     0
100
AcDbPoint
 10
187.212071404137
 20
317.7472618885134
 30
0.0
  0
ENDBLK
  5
D8
330
CD
100
AcDbEntity
  8
0
100
AcDbBlockEnd
  0
BLOCK
  5
DB
330
DA
100
AcDbEntity
  8
0
100
AcDbBlockBegin
  2
*D3
 70
     1
 10
0.0
 20
0.0
 30
0.0
  3
*D3
  1

  0
LINE
  5
DC
330
DA
100
AcDbEntity
  8
SUNPO
 62
     0
370
    -2
100
AcDbLine
 10
201.6158056674576
 20
340.3855456694783
 30
0.0
 11
201.6158056674576
 21
348.3855456737016
 31
0.0
  0
LINE
  5
DD
330
DA
100
AcDbEntity
  8
SUNPO
 62
     0
370
    -2
100
AcDbLine
 10
223.3658056674576
 20
340.3855456737016
 30
0.0
 11
223.3658056674576
 21
348.3855456737016
 31
0.0
  0
LINE
  5
DE
330
DA
100
AcDbEntity
  8
SUNPO
 62
     0
370
    -2
100
AcDbLine
 10
203.6158056674576
 20
346.3855456737016
 30
0.0
 11
221.3658056674576
 21
346.3855456737016
 31
0.0
  0
INSERT
  5
DF
330
DA
100
AcDbEntity
  8
SUNPO
 62
     0
370
    -2
100
AcDbBlockReference
  2
_OPEN30
 10
201.6158056674576
 20
346.3855456737016
 30
0.0
 41
2.0
 42
2.0
 43
2.0
 50
180.0
  0
INSERT
  5
E0
330
DA
100
AcDbEntity
  8
SUNPO
 62
     0
370
    -2
100
AcDbBlockReference
  2
_OPEN30
 10
223.3658056674576
 20
346.3855456737016
 30
0.0
 41
2.0
 42
2.0
 43
2.0
  0
MTEXT
  5
E1
330
DA
100
AcDbEntity
  8
SUNPO
 62
     0
100
AcDbMText
 10
212.4908056674576
 20
348.1355456737016
 30
0.0
 40
2.5
 41
0.0
 71
     5
 72
     1
  1
\A1;217.5
 73
     1
 44
1.0
1001
ACAD
1000
MTEXTBEGIN
1070
    73
1070
     1
1070
    44
1040
1.0
1070
    74
1070
     0
1000
MTEXTEND
  0
POINT
  5
E2
330
DA
100
AcDbEntity
  8
DEFPOINTS
 62
     0
100
AcDbPoint
 10
201.6158056674576
 20
338.3855456694783
 30
0.0
  0
POINT
  5
E3
330
DA
100
AcDbEntity
  8
DEFPOINTS
 62
     0
100
AcDbPoint
 10
223.3658056674576
 20
338.3855456737016
 30
0.0
  0
POINT
  5
E4
330
DA
100
AcDbEntity
  8
DEFPOINTS
 62
     0
100
AcDbPoint
 10
223.3658056674576
 20
346.3855456737016
 30
0.0
  0
ENDBLK
  5
E5
330
DA
100
AcDbEntity
  8
0
100
AcDbBlockEnd
  0
BLOCK
  5
120
330
116
100
AcDbEntity
  8
0
100
AcDbBlockBegin
  2
*D4
 70
     1
 10
0.0
 20
0.0
 30
0.0
  3
*D4
  1

  0
LINE
  5
117
330
116
100
AcDbEntity
  8
SUNPO
 62
     0
370
    -2
100
AcDbLine
 10
9.128291929083388
 20
21.34656040187667
 30
0.0
 11
9.128291929083388
 21
29.34656040609991
 31
0.0
  0
LINE
  5
118
330
116
100
AcDbEntity
  8
SUNPO
 62
     0
370
    -2
100
AcDbLine
 10
30.87829192908339
 20
21.34656040609991
 30
0.0
 11
30.87829192908339
 21
29.34656040609991
 31
0.0
  0
LINE
  5
119
330
116
100
AcDbEntity
  8
SUNPO
 62
     0
370
    -2
100
AcDbLine
 10
11.12829192908339
 20
27.34656040609991
 30
0.0
 11
28.87829192908339
 21
27.34656040609991
 31
0.0
  0
INSERT
  5
11A
330
116
100
AcDbEntity
  8
SUNPO
 62
     0
370
    -2
100
AcDbBlockReference
  2
_OPEN30
 10
9.128291929083388
 20
27.34656040609991
 30
0.0
 41
2.0
 42
2.0
 43
2.0
 50
180.0
  0
INSERT
  5
11B
330
116
100
AcDbEntity
  8
SUNPO
 62
     0
370
    -2
100
AcDbBlockReference
  2
_OPEN30
 10
30.87829192908339
 20
27.34656040609991
 30
0.0
 41
2.0
 42
2.0
 43
2.0
  0
MTEXT
  5
11C
330
116
100
AcDbEntity
  8
SUNPO
 62
     0
100
AcDbMText
 10
20.00329192908339
 20
29.09656040609991
 30
0.0
 40
2.5
 41
0.0
 71
     5
 72
     1
  1
\A1;217.5
 73
     1
 44
1.0
1001
ACAD
1000
MTEXTBEGIN
1070
    73
1070
     1
1070
    44
1040
1.0
1070
    74
1070
     0
1000
MTEXTEND
  0
POINT
  5
11D
330
116
100
AcDbEntity
  8
DEFPOINTS
 62
     0
100
AcDbPoint
 10
9.128291929083388
 20
19.34656040187667
 30
0.0
  0
POINT
  5
11E
330
116
100
AcDbEntity
  8
DEFPOINTS
 62
     0
100
AcDbPoint
 10
30.87829192908339
 20
19.34656040609991
 30
0.0
  0
POINT
  5
11F
330
116
100
AcDbEntity
  8
DEFPOINTS
 62
     0
100
AcDbPoint
 10
30.87829192908339
 20
27.34656040609991
 30
0.0
  0
ENDBLK
  5
121
330
116
100
AcDbEntity
  8
0
100
AcDbBlockEnd
  0
BLOCK
  5
12C
330
122
100
AcDbEntity
  8
0
100
AcDbBlockBegin
  2
*D5
 70
     1
 10
0.0
 20
0.0
 30
0.0
  3
*D5
  1

  0
LINE
  5
123
330
122
100
AcDbEntity
  8
SUNPO
 62
     0
370
    -2
100
AcDbLine
 10
-11.58255711248921
 20
19.34827662091186
 30
0.0
 11
-3.275442334237193
 21
19.34827662091185
 31
0.0
  0
LINE
  5
124
330
122
100
AcDbEntity
  8
SUNPO
 62
     0
370
    -2
100
AcDbLine
 10
-11.58255711248921
 20
-1.291723379088296
 30
0.0
 11
-3.275442334237198
 21
-1.291723379088299
 31
0.0
  0
LINE
  5
125
330
122
100
AcDbEntity
  8
SUNPO
 62
     0
370
    -2
100
AcDbLine
 10
-5.275442334237194
 20
17.34827662091185
 30
0.0
 11
-5.275442334237197
 21
0.7082766209117017
 31
0.0
  0
INSERT
  5
126
330
122
100
AcDbEntity
  8
SUNPO
 62
     0
370
    -2
100
AcDbBlockReference
  2
_OPEN30
 10
-5.275442334237193
 20
19.34827662091185
 30
0.0
 41
2.0
 42
2.0
 43
2.0
 50
90.0
  0
INSERT
  5
127
330
122
100
AcDbEntity
  8
SUNPO
 62
     0
370
    -2
100
AcDbBlockReference
  2
_OPEN30
 10
-5.275442334237197
 20
-1.291723379088298
 30
0.0
 41
2.0
 42
2.0
 43
2.0
 50
270.0
  0
MTEXT
  5
128
330
122
100
AcDbEntity
  8
SUNPO
 62
     0
100
AcDbMText
 10
-7.025442334237196
 20
9.028276620911778
 30
0.0
 40
2.5
 41
0.0
 71
     5
 72
     1
  1
\A1;206.5
 11
0.0000000000000001
 21
1.0
 31
0.0
 73
     1
 44
1.0
1001
ACAD
1000
MTEXTBEGIN
1070
    73
1070
     1
1070
    44
1040
1.0
1070
    74
1070
     0
1000
MTEXTEND
  0
POINT
  5
129
330
122
100
AcDbEntity
  8
DEFPOINTS
 62
     0
100
AcDbPoint
 10
-13.58255711248921
 20
19.34827662091186
 30
0.0
  0
POINT
  5
12A
330
122
100
AcDbEntity
  8
DEFPOINTS
 62
     0
100
AcDbPoint
 10
-13.58255711248921
 20
-1.291723379088296
 30
0.0
  0
POINT
  5
12B
330
122
100
AcDbEntity
  8
DEFPOINTS
 62
     0
100
AcDbPoint
 10
-5.275442334237197
 20
-1.291723379088298
 30
0.0
  0
ENDBLK
  5
12D
330
122
100
AcDbEntity
  8
0
100
AcDbBlockEnd
  0
BLOCK
  5
138
330
12E
100
AcDbEntity
  8
0
100
AcDbBlockBegin
  2
*D6
 70
     1
 10
0.0
 20
0.0
 30
0.0
  3
*D6
  1

  0
LINE
  5
12F
330
12E
100
AcDbEntity
  8
SUNPO
 62
     0
370
    -2
100
AcDbLine
 10
-30.09211850816092
 20
21.34656040187673
 30
0.0
 11
-30.09211850816092
 21
29.34656040609997
 31
0.0
  0
LINE
  5
130
330
12E
100
AcDbEntity
  8
SUNPO
 62
     0
370
    -2
100
AcDbLine
 10
-13.59211851005602
 20
21.34656040609997
 30
0.0
 11
-13.59211851005602
 21
29.34656040609997
 31
0.0
  0
LINE
  5
131
330
12E
100
AcDbEntity
  8
SUNPO
 62
     0
370
    -2
100
AcDbLine
 10
-28.09211850816092
 20
27.34656040609997
 30
0.0
 11
-15.59211851005602
 21
27.34656040609997
 31
0.0
  0
INSERT
  5
132
330
12E
100
AcDbEntity
  8
SUNPO
 62
     0
370
    -2
100
AcDbBlockReference
  2
_OPEN30
 10
-30.09211850816092
 20
27.34656040609997
 30
0.0
 41
2.0
 42
2.0
 43
2.0
 50
180.0
  0
INSERT
  5
133
330
12E
100
AcDbEntity
  8
SUNPO
 62
     0
370
    -2
100
AcDbBlockReference
  2
_OPEN30
 10
-13.59211851005602
 20
27.34656040609997
 30
0.0
 41
2.0
 42
2.0
 43
2.0
  0
MTEXT
  5
134
330
12E
100
AcDbEntity
  8
SUNPO
 62
     0
100
AcDbMText
 10
-21.84211850910847
 20
29.09656040609997
 30
0.0
 40
2.5
 41
0.0
 71
     5
 72
     1
  1
\A1;165
 73
     1
 44
1.0
1001
ACAD
1000
MTEXTBEGIN
1070
    73
1070
     1
1070
    44
1040
1.0
1070
    74
1070
     0
1000
MTEXTEND
  0
POINT
  5
135
330
12E
100
AcDbEntity
  8
DEFPOINTS
 62
     0
100
AcDbPoint
 10
-30.09211850816092
 20
19.34656040187673
 30
0.0
  0
POINT
  5
136
330
12E
100
AcDbEntity
  8
DEFPOINTS
 62
     0
100
AcDbPoint
 10
-13.59211851005602
 20
19.34656040609997
 30
0.0
  0
POINT
  5
137
330
12E
100
AcDbEntity
  8
DEFPOINTS
 62
     0
100
AcDbPoint
 10
-13.59211851005602
 20
27.34656040609997
 30
0.0
  0
ENDBLK
  5
139
330
12E
100
AcDbEntity
  8
0
100
AcDbBlockEnd
  0
ENDSEC
  0
SECTION
  2
ENTITIES
  0
TEXT
  5
34
330
2
100
AcDbEntity
  8
MOJI1
100
AcDbText
 10
-34.48751373837422
 20
47.46022887204026
 30
0.0
 40
4.0
  1
ネットワークカメラ（壁取付金具付）
  7
KANJI
100
AcDbText
  0
TEXT
  5
37
330
2
100
AcDbEntity
  8
TOUROKU
100
AcDbText
 10
28.31243629455305
 20
41.46022887204003
 30
0.0
 40
2.0
  1
ＤＧＮＳ２０２＋ＤＧＱ１５０Ｓ
 72
     2
 11
63.51243629455303
 21
41.46022887204003
 31
0.0
100
AcDbText
  0
ARC
  5
39
330
2
100
AcDbEntity
  8
GAIKEI
  6
S110
 48
0.5
100
AcDbCircle
 10
16.87829192908344
 20
4.958276620911703
 30
0.0
 40
6.25
100
AcDbArc
 50
181.8337780000488
 51
358.1662219999511
  0
LINE
  5
3C
330
2
100
AcDbEntity
  8
GAIKEI
  6
Continuous
100
AcDbLine
 10
10.28297514138341
 20
4.758276620911715
 30
0.0
 11
23.47360871678347
 21
4.758276620911715
 31
0.0
  0
ARC
  5
3D
330
2
100
AcDbEntity
  8
GAIKEI
  6
S110
 48
0.5
100
AcDbCircle
 10
-21.84211850816092
 20
4.958276620911931
 30
0.0
 40
6.25
100
AcDbArc
 50
181.8337780000488
 51
358.1662219999511
  0
LINE
  5
3E
330
2
100
AcDbEntity
  8
GAIKEI
  6
Continuous
100
AcDbLine
 10
-28.4374352958609
 20
4.758276620911942
 30
0.0
 11
-15.24680172132088
 21
4.758276620911942
 31
0.0
  0
SPLINE
  5
3F
330
2
100
AcDbEntity
  8
GAIKEI
  6
Continuous
 62
     1
100
AcDbSpline
210
0.0
220
0.0
230
1.0
 70
     8
 71
     3
 72
    19
 73
    15
 74
    13
 42
0.0000000001
 43
0.0000000001
 44
0.00000000001
 40
0.0
 40
0.0
 40
0.0
 40
0.0
 40
0.4659451152531238
 40
0.9439695566288964
 40
1.475644197649913
 40
2.012660485966332
 40
2.571049438273131
 40
3.12352516825313
 40
3.666189610722245
 40
4.198478040155839
 40
4.770485543912829
 40
5.353403658583533
 40
6.03539795097919
 40
6.739374461254768
 40
6.739374461254768
 40
6.739374461254768
 40
6.739374461254768
 10
-20.09722041295891
 20
-0.5572758479681284
 30
0.0
 10
-19.95106893644674
 20
-0.5044682656272812
 30
0.0
 10
-19.65497710080439
 20
-0.3974840984858474
 30
0.0
 10
-19.21110703088152
 20
-0.1836908921524127
 30
0.0
 10
-18.76563703539421
 20
0.0772364646335291
 30
0.0
 10
-18.32736434315052
 20
0.3982549515455389
 30
0.0
 10
-17.91582862471378
 20
0.7633399960656675
 30
0.0
 10
-17.54123155068796
 20
1.168878745442668
 30
0.0
 10
-17.21277381744727
 20
1.601695753691672
 30
0.0
 10
-16.92554636505755
 20
2.070619541703251
 30
0.0
 10
-16.68263726468078
 20
2.579041387051347
 30
0.0
 10
-16.473520351481
 20
3.155225619907128
 30
0.0
 10
-16.3173489329566
 20
3.795642867695619
 30
0.0
 10
-16.28393281110305
 20
4.257102733203907
 30
0.0
 10
-16.26695975163886
 20
4.491492162711836
 30
0.0
 11
-20.09722041295891
 21
-0.5572758479681284
 31
0.0
 11
-19.66172579563198
 21
-0.3915975793040616
 31
0.0
 11
-19.23013876956241
 21
-0.1860738447110748
 31
0.0
 11
-18.77210825666742
 21
0.0839001784133302
 31
0.0
 11
-18.33828802632678
 21
0.400422692090217
 31
0.0
 11
-17.92086151673112
 21
0.7713045211747272
 31
0.0
 11
-17.54589802116868
 21
1.17705297676332
 31
0.0
 11
-17.21819351413046
 21
1.609597140042808
 31
0.0
 11
-16.94028027096573
 21
2.06357423349857
 31
0.0
 11
-16.69274380564775
 21
2.579246884210419
 31
0.0
 11
-16.49407280059302
 21
3.127264548306925
 31
0.0
 11
-16.33762017457775
 21
3.791070838329233
 31
0.0
 11
-16.26695975163886
 21
4.491492162711836
 31
0.0
  0
SPLINE
  5
40
330
2
100
AcDbEntity
  8
GAIKEI
  6
Continuous
 62
     1
100
AcDbSpline
210
0.0
220
0.0
230
1.0
 70
     8
 71
     3
 72
    19
 73
    15
 74
    13
 42
0.0000000001
 43
0.0000000001
 44
0.00000000001
 40
0.0
 40
0.0
 40
0.0
 40
0.0
 40
0.4659451152528835
 40
0.9439695566282185
 40
1.475644197645982
 40
2.012660485958478
 40
2.571049438261802
 40
3.123525168238902
 40
3.666189610706951
 40
4.198478040139759
 40
4.770485543898346
 40
5.35340365857035
 40
6.035397950966276
 40
6.739374461243117
 40
6.739374461243117
 40
6.739374461243117
 40
6.739374461243117
 10
-23.7288363765989
 20
-0.5572758479681284
 30
0.0
 10
-23.87498785311101
 20
-0.5044682656272244
 30
0.0
 10
-24.17107968875311
 20
-0.3974840984858474
 30
0.0
 10
-24.61494975867538
 20
-0.1836908921544591
 30
0.0
 10
-25.06041975416088
 20
0.0772364646300616
 30
0.0
 10
-25.49869244639726
 20
0.3982549515461642
 30
0.0
 10
-25.91022816482632
 20
0.7633399960696466
 30
0.0
 10
-26.28482523885032
 20
1.16887874544443
 30
0.0
 10
-26.61328297209147
 20
1.601695753691274
 30
0.0
 10
-26.90051042447862
 20
2.070619541704616
 30
0.0
 10
-27.14341952485546
 20
2.579041387052996
 30
0.0
 10
-27.35253643807073
 20
3.155225619903887
 30
0.0
 10
-27.50870785660621
 20
3.795642867692322
 30
0.0
 10
-27.5421239784431
 20
4.257102733202714
 30
0.0
 10
-27.55909703789888
 20
4.491492162711836
 30
0.0
 11
-23.7288363765989
 21
-0.5572758479681284
 31
0.0
 11
-24.16433099392566
 21
-0.3915975793042889
 31
0.0
 11
-24.59591801999528
 21
-0.186073844712439
 31
0.0
 11
-25.05394853288704
 21
0.0839001784110565
 31
0.0
 11
-25.48776876322091
 21
0.4004226920905581
 31
0.0
 11
-25.90519527280975
 21
0.7713045211775125
 31
0.0
 11
-26.28015876836952
 21
1.177052976764628
 31
0.0
 11
-26.60786327540762
 21
1.609597140042865
 31
0.0
 11
-26.88577651857048
 21
2.063574233498854
 31
0.0
 11
-27.13331298389085
 21
2.579246884211329
 31
0.0
 11
-27.33198398895723
 21
3.127264548304992
 31
0.0
 11
-27.48843661497898
 21
3.791070838326049
 31
0.0
 11
-27.55909703789888
 21
4.491492162711836
 31
0.0
  0
SPLINE
  5
41
330
2
100
AcDbEntity
  8
GAIKEI
  6
Continuous
100
AcDbSpline
210
0.0
220
0.0
230
1.0
 70
    24
 71
     3
 72
     9
 73
     5
 74
     3
 42
0.0000000001
 43
0.0000000001
 44
0.00000000001
 40
0.0
 40
0.0
 40
0.0
 40
0.0
 40
0.008223737763675
 40
0.0164474755272002
 40
0.0164474755272002
 40
0.0164474755272002
 40
0.0164474755272002
 10
29.87456244484361
 20
5.46355884630185
 30
0.0
 10
29.87235063817855
 20
5.465178210521798
 30
0.0
 10
29.86792702484843
 20
5.468416938961809
 30
0.0
 10
29.86350341151848
 20
5.471655667401932
 30
0.0
 10
29.86129160485348
 20
5.473275031621938
 30
0.0
 11
29.87456244484361
 21
5.46355884630185
 31
0.0
 11
29.86792702484843
 21
5.468416938961865
 31
0.0
 11
29.86129160485348
 21
5.473275031621938
 31
0.0
  0
SPLINE
  5
42
330
2
100
AcDbEntity
  8
GAIKEI
  6
Continuous
 62
     1
100
AcDbSpline
210
0.0
220
0.0
230
1.0
 70
     8
 71
     3
 72
    27
 73
    23
 74
    21
 42
0.0000000001
 43
0.0000000001
 44
0.00000000001
 40
0.0
 40
0.0
 40
0.0
 40
0.0
 40
0.5205076202562213
 40
1.019761791782582
 40
1.421850161627873
 40
1.813194183530198
 40
2.166329253629921
 40
2.529340302720637
 40
2.898978773454384
 40
3.268619355607903
 40
3.640137215105749
 40
4.01167629169765
 40
4.385149746985624
 40
4.758645716487796
 40
5.133945020173315
 40
5.509258110872601
 40
5.88095696853913
 40
6.242313073319359
 40
6.646622117843312
 40
7.062385453254887
 40
7.582492814556884
 40
8.125062487049756
 40
8.125062487049756
 40
8.125062487049756
 40
8.125062487049756
 10
11.43661320532868
 20
4.42780039855188
 30
0.0
 10
11.44809991970655
 20
4.254522788222686
 30
0.0
 10
11.47060432114051
 20
3.915042866107341
 30
0.0
 10
11.56355981050907
 20
3.448979378193939
 30
0.0
 10
11.68273767538377
 20
3.034676450831454
 30
0.0
 10
11.81304203016248
 20
2.674988728160201
 30
0.0
 10
11.96488704939992
 20
2.338148855789654
 30
0.0
 10
12.1368196593848
 20
2.019342258114591
 30
0.0
 10
12.33282311194159
 20
1.708207705904442
 30
0.0
 10
12.55216390475976
 20
1.40951701391441
 30
0.0
 10
12.79223679252439
 20
1.12639695153814
 30
0.0
 10
13.05256055155644
 20
0.859986735023142
 30
0.0
 10
13.33134457698799
 20
0.6119634565881711
 30
0.0
 10
13.62786861734847
 20
0.3833961767061851
 30
0.0
 10
13.9400867677615
 20
0.1756551180668566
 30
0.0
 10
14.2656729613048
 20
-0.0091892450948308
 30
0.0
 10
14.59870170631686
 20
-0.169817783838198
 30
0.0
 10
14.95120045628749
 20
-0.3102474331111011
 30
0.0
 10
15.32732619392001
 20
-0.4282017719827991
 30
0.0
 10
15.76171867987091
 20
-0.5333355518221197
 30
0.0
 10
16.24992299670651
 20
-0.609659696895335
 30
0.0
 10
16.60434153959392
 20
-0.6187846770582724
 30
0.0
 10
16.78529656790869
 20
-0.623443606668161
 30
0.0
 11
11.43661320532868
 21
4.42780039855188
 31
0.0
 11
11.48257936432566
 21
3.909326392480352
 31
0.0
 11
11.57732820164625
 21
3.419145420172299
 31
0.0
 11
11.68809972913908
 21
3.032616345118753
 31
0.0
 11
11.82221043470349
 21
2.664969147207898
 31
0.0
 11
11.96723179962367
 21
2.342985946635224
 31
0.0
 11
12.13927144750266
 21
2.023330849194849
 31
0.0
 11
12.33645401554065
 21
1.710678272189113
 31
0.0
 11
12.55516593479342
 21
1.412686231437078
 31
0.0
 11
12.79546370750506
 21
1.129344564265295
 31
0.0
 11
13.05509118843145
 21
0.8635723750080614
 31
0.0
 11
13.33413473422229
 21
0.6153444125275769
 31
0.0
 11
13.62991256923283
 21
0.3872770725798205
 31
0.0
 11
13.94240147965024
 21
0.1794303785648026
 31
0.0
 11
14.26867581129022
 21
-0.0060554067750331
 31
0.0
 11
14.60359201125226
 21
-0.1672732091220155
 31
0.0
 11
14.93932745288202
 21
-0.3009143244107122
 31
0.0
 11
15.32482864938845
 21
-0.422793900123736
 31
0.0
 11
15.72902171069722
 21
-0.5201957495024772
 31
0.0
 11
16.2433453852293
 21
-0.5975444734502276
 31
0.0
 11
16.78529656790869
 21
-0.623443606668161
 31
0.0
  0
SPLINE
  5
43
330
2
100
AcDbEntity
  8
GAIKEI
  6
Continuous
 62
     1
100
AcDbSpline
210
0.0
220
0.0
230
1.0
 70
     8
 71
     3
 72
    19
 73
    15
 74
    13
 42
0.0000000001
 43
0.0000000001
 44
0.00000000001
 40
0.0
 40
0.0
 40
0.0
 40
0.0
 40
0.4659479294697255
 40
0.9439748055377902
 40
1.475650107065284
 40
2.012666875525831
 40
2.571055533152853
 40
3.123531165831199
 40
3.666195608401044
 40
4.198484037871343
 40
4.770491541615422
 40
5.353409656281737
 40
6.035403948677699
 40
6.73938045895281
 40
6.73938045895281
 40
6.73938045895281
 40
6.73938045895281
 10
18.60109885358866
 20
-0.6208629595281537
 30
0.0
 10
18.74725126454467
 20
-0.5680551979867801
 30
0.0
 10
19.04334485137122
 20
-0.4610707190803396
 30
0.0
 10
19.48721676630668
 20
-0.2472767711635129
 30
0.0
 10
19.93268778865467
 20
0.0136511901459926
 30
0.0
 10
20.37096073132727
 20
0.3346698146708036
 30
0.0
 10
20.78249645997616
 20
0.6997548932568521
 30
0.0
 10
21.15709342891396
 20
1.105293560738914
 30
0.0
 10
21.48555114590539
 20
1.53811054018962
 30
0.0
 10
21.77277859744283
 20
2.007034329010878
 30
0.0
 10
22.01568769806147
 20
2.515456174148596
 30
0.0
 10
22.22480461118948
 20
3.091640407061674
 30
0.0
 10
22.38097602973704
 20
3.732057654829645
 30
0.0
 10
22.41439215157331
 20
4.19351752034197
 30
0.0
 10
22.43136521102872
 20
4.427906949851831
 30
0.0
 11
18.60109885358866
 21
-0.6208629595281537
 31
0.0
 11
19.03659623994025
 21
-0.4551840548418227
 31
0.0
 11
19.46818552746686
 21
-0.2496594063549082
 31
0.0
 11
19.92621661650503
 21
0.0203149400724101
 31
0.0
 11
20.36003724266231
 21
0.3368377258688042
 31
0.0
 11
20.77746352243992
 21
0.7077193699515761
 31
0.0
 11
21.15242694141045
 21
1.113467763832886
 31
0.0
 11
21.4801314485436
 21
1.54601192716683
 31
0.0
 11
21.75804469173602
 21
1.999989020648683
 31
0.0
 11
22.00558115704109
 21
2.515661671352404
 31
0.0
 11
22.20425216209424
 21
3.063679335444817
 31
0.0
 11
22.36070478810745
 21
3.72748562546792
 31
0.0
 11
22.43136521102872
 21
4.427906949851831
 31
0.0
  0
SPLINE
  5
44
330
2
100
AcDbEntity
  8
GAIKEI
  6
Continuous
100
AcDbSpline
210
0.0
220
0.0
230
1.0
 70
    24
 71
     3
 72
     9
 73
     5
 74
     3
 42
0.0000000001
 43
0.0000000001
 44
0.00000000001
 40
0.0
 40
0.0
 40
0.0
 40
0.0
 40
0.0214070104884266
 40
0.0428140209768532
 40
0.0428140209768532
 40
0.0428140209768532
 40
0.0428140209768532
 10
-29.3685584637409
 20
15.66042847433186
 30
0.0
 10
-29.36619648253088
 20
15.66716188605522
 30
0.0
 10
-29.36147252011094
 20
15.68062870950177
 30
0.0
 10
-29.35674855769093
 20
15.69409553294861
 30
0.0
 10
-29.35438657648092
 20
15.70082894467191
 30
0.0
 11
-29.3685584637409
 21
15.66042847433186
 31
0.0
 11
-29.36147252011091
 21
15.68062870950189
 31
0.0
 11
-29.35438657648092
 21
15.70082894467191
 31
0.0
  0
SPLINE
  5
45
330
2
100
AcDbEntity
  8
GAIKEI
  6
Continuous
100
AcDbSpline
210
0.0
220
0.0
230
1.0
 70
     8
 71
     3
 72
     9
 73
     5
 74
     3
 42
0.0000000001
 43
0.0000000001
 44
0.00000000001
 40
0.0
 40
0.0
 40
0.0
 40
0.0
 40
0.006829309719118
 40
0.0136626693601854
 40
0.0136626693601854
 40
0.0136626693601854
 40
0.0136626693601854
 10
-29.35438657648092
 20
15.70082894467191
 30
0.0
 10
-29.35316157876832
 20
15.70274970896946
 30
0.0
 10
-29.35071085689421
 20
15.70659237661755
 30
0.0
 10
-29.34787434471397
 20
15.7101597780811
 30
0.0
 10
-29.34645566822087
 20
15.71194400754189
 30
0.0
 11
-29.35438657648092
 21
15.70082894467191
 31
0.0
 11
-29.35061519293663
 21
15.70652246180998
 31
0.0
 11
-29.34645566822087
 21
15.71194400754189
 31
0.0
  0
SPLINE
  5
46
330
2
100
AcDbEntity
  8
GAIKEI
  6
Continuous
100
AcDbSpline
210
0.0
220
0.0
230
1.0
 70
    24
 71
     3
 72
     9
 73
     5
 74
     3
 42
0.0000000001
 43
0.0000000001
 44
0.00000000001
 40
0.0
 40
0.0
 40
0.0
 40
0.0
 40
0.0155959399721948
 40
0.0311918799443568
 40
0.0311918799443568
 40
0.0311918799443568
 40
0.0311918799443568
 10
-29.34645566822087
 20
15.71194400754189
 30
0.0
 10
-29.34256332630923
 20
15.71539010700525
 30
0.0
 10
-29.33477864248596
 20
15.72228230593191
 30
0.0
 10
-29.32699395866257
 20
15.72917450485852
 30
0.0
 10
-29.32310161675088
 20
15.73262060432182
 30
0.0
 11
-29.34645566822087
 21
15.71194400754189
 31
0.0
 11
-29.3347786424859
 21
15.72228230593191
 31
0.0
 11
-29.32310161675088
 21
15.73262060432182
 31
0.0
  0
SPLINE
  5
47
330
2
100
AcDbEntity
  8
GAIKEI
  6
Continuous
100
AcDbSpline
210
0.0
220
0.0
230
1.0
 70
     8
 71
     3
 72
     9
 73
     5
 74
     3
 42
0.0000000001
 43
0.0000000001
 44
0.00000000001
 40
0.0
 40
0.0
 40
0.0
 40
0.0
 40
0.006761911638542
 40
0.0135198438003354
 40
0.0135198438003354
 40
0.0135198438003354
 40
0.0135198438003354
 10
-29.32310161675088
 20
15.73262060432182
 30
0.0
 10
-29.32117909155664
 20
15.73380034518334
 30
0.0
 10
-29.31733517260028
 20
15.73615913261284
 30
0.0
 10
-29.31326889393327
 20
15.73810976012373
 30
0.0
 10
-29.3112363530409
 20
15.73908478680198
 30
0.0
 11
-29.32310161675088
 21
15.73262060432182
 31
0.0
 11
-29.31727841851057
 21
15.73605772684823
 31
0.0
 11
-29.3112363530409
 21
15.73908478680198
 31
0.0
  0
SPLINE
  5
48
330
2
100
AcDbEntity
  8
GAIKEI
  6
Continuous
100
AcDbSpline
210
0.0
220
0.0
230
1.0
 70
    24
 71
     3
 72
     9
 73
     5
 74
     3
 42
0.0000000001
 43
0.0000000001
 44
0.00000000001
 40
0.0
 40
0.0
 40
0.0
 40
0.0
 40
0.0214224768337951
 40
0.0428449536676147
 40
0.0428449536676147
 40
0.0428449536676147
 40
0.0428449536676147
 10
-29.3112363530409
 20
15.73908478680198
 30
0.0
 10
-29.30426214634426
 20
15.74061835498196
 30
0.0
 10
-29.29031373295089
 20
15.74368549134192
 30
0.0
 10
-29.27636531955755
 20
15.74675262770199
 30
0.0
 10
-29.26939111286089
 20
15.74828619588197
 30
0.0
 11
-29.3112363530409
 21
15.73908478680198
 31
0.0
 11
-29.29031373295089
 21
15.74368549134192
 31
0.0
 11
-29.26939111286089
 21
15.74828619588197
 31
0.0
  0
CIRCLE
  5
49
330
2
100
AcDbEntity
  8
GAIKEI
  6
Continuous
 62
     1
100
AcDbCircle
 10
-24.14211850816093
 20
16.52327662091193
 30
0.0
 40
0.5
  0
CIRCLE
  5
4A
330
2
100
AcDbEntity
  8
GAIKEI
  6
Continuous
 62
     1
100
AcDbCircle
 10
-19.54211850816091
 20
16.52327662091193
 30
0.0
 40
0.5
  0
CIRCLE
  5
4B
330
2
100
AcDbEntity
  8
GAIKEI
  6
Continuous
 62
     1
100
AcDbCircle
 10
-24.14211850816093
 20
16.57327662091188
 30
0.0
 40
0.225
  0
CIRCLE
  5
4C
330
2
100
AcDbEntity
  8
GAIKEI
  6
Continuous
 62
     1
100
AcDbCircle
 10
-19.54211850816091
 20
16.57327662091188
 30
0.0
 40
0.225
  0
ARC
  5
4D
330
2
100
AcDbEntity
  8
GAIKEI
  6
Continuous
 62
     1
100
AcDbCircle
 10
-21.91302839477891
 20
4.698276620911883
 30
0.0
 40
1.6
100
AcDbArc
 50
177.8509043731347
 51
2.149095626865295
  0
ARC
  5
4E
330
2
100
AcDbEntity
  8
GAIKEI
  6
Continuous
 62
     1
100
AcDbCircle
 10
-21.91302839477891
 20
4.098276620911917
 30
0.0
 40
4.0999999999998
100
AcDbArc
 50
246.2678104992032
 51
293.7321895008054
  0
ARC
  5
4F
330
2
100
AcDbEntity
  8
GAIKEI
  6
Continuous
 62
     1
100
AcDbCircle
 10
-21.91302839477891
 20
4.698276620911883
 30
0.0
 40
1.75
100
AcDbArc
 50
199.4629509463152
 51
340.6657110492028
  0
ARC
  5
50
330
2
100
AcDbEntity
  8
GAIKEI
  6
Continuous
100
AcDbCircle
 10
29.62513540521343
 20
7.738276716101893
 30
0.0
 40
0.1499999762
100
AcDbArc
 50
2.468081518816902
 51
89.99999843268128
  0
ARC
  5
51
330
2
100
AcDbEntity
  8
GAIKEI
  6
Continuous
100
AcDbCircle
 10
30.02048747493336
 20
5.498278325621924
 30
0.0
 40
0.1500000000598
100
AcDbArc
 50
183.0095904064299
 51
270.0000461638274
  0
ARC
  5
52
330
2
100
AcDbEntity
  8
GAIKEI
  6
Continuous
100
AcDbCircle
 10
109.7604030779334
 20
9.689741627311718
 30
0.0
 40
80.0
100
AcDbArc
 50
181.8253623333023
 51
183.008937726801
  0
ARC
  5
53
330
2
100
AcDbEntity
  8
GAIKEI
  6
Continuous
100
AcDbCircle
 10
29.51980162767336
 20
5.498276620911894
 30
0.0
 40
0.15
100
AcDbArc
 50
182.9901967119613
 51
270.0
  0
ARC
  5
54
330
2
100
AcDbEntity
  8
GAIKEI
  6
Continuous
100
AcDbCircle
 10
109.7604030779334
 20
9.689741627311718
 30
0.0
 40
80.49999999999981
100
AcDbArc
 50
181.8273615986983
 51
182.9901967120005
  0
ARC
  5
55
330
2
100
AcDbEntity
  8
GAIKEI
  6
Continuous
100
AcDbCircle
 10
29.12467114804338
 20
7.738276620911733
 30
0.0
 40
0.1500000000002
100
AcDbArc
 50
2.468117913818021
 51
90.0
  0
ARC
  5
56
330
2
100
AcDbEntity
  8
GAIKEI
  6
Continuous
100
AcDbCircle
 10
39.18096906201345
 20
11.3234528478419
 30
0.0
 40
29.9999999999998
100
AcDbArc
 50
184.3454975937012
 51
185.7979782841015
  0
ARC
  5
57
330
2
100
AcDbEntity
  8
GAIKEI
  6
Continuous
100
AcDbCircle
 10
59.24627905139857
 20
12.43570473484163
 30
0.0
 40
50.09359236244877
100
AcDbArc
 50
182.4704456353588
 51
183.8750519583659
  0
ARC
  5
58
330
2
100
AcDbEntity
  8
GAIKEI
  6
Continuous
100
AcDbCircle
 10
8.086586305253433
 20
6.843222958671901
 30
0.0
 40
2.0
100
AcDbArc
 50
1.895508568493831
 51
23.62364524669895
  0
ARC
  5
59
330
2
100
AcDbEntity
  8
GAIKEI
  6
Continuous
100
AcDbCircle
 10
25.6699975529134
 20
6.843222958671901
 30
0.0
 40
1.9999999999998
100
AcDbArc
 50
156.376354753301
 51
178.1044914314996
  0
ARC
  5
5A
330
2
100
AcDbEntity
  8
GAIKEI
  6
Continuous
100
AcDbCircle
 10
9.782138763953412
 20
8.338276620911699
 30
0.0
 40
0.45
100
AcDbArc
 50
185.7979784575057
 51
260.6559285700905
  0
ARC
  5
5B
330
2
100
AcDbEntity
  8
GAIKEI
  6
Continuous
100
AcDbCircle
 10
9.676602908653421
 20
7.696901392791914
 30
0.0
 40
0.2
100
AcDbArc
 50
24.52370214204813
 51
80.65592857006373
  0
ARC
  5
5C
330
2
100
AcDbEntity
  8
GAIKEI
  6
Continuous
100
AcDbCircle
 10
24.07605145382343
 20
7.688276620911722
 30
0.0
 40
0.2
100
AcDbArc
 50
90.0
 51
155.5351366236072
  0
ARC
  5
5D
330
2
100
AcDbEntity
  8
GAIKEI
  6
Continuous
100
AcDbCircle
 10
9.451202075663445
 20
15.64827662091193
 30
0.0
 40
0.1
100
AcDbArc
 50
90.0
 51
173.1075113527957
  0
ARC
  5
5E
330
2
100
AcDbEntity
  8
GAIKEI
  6
Continuous
100
AcDbCircle
 10
29.57944575414342
 20
15.89827662091193
 30
0.0
 40
0.15
100
AcDbArc
 50
270.0
 51
357.5318820862147
  0
ARC
  5
5F
330
2
100
AcDbEntity
  8
GAIKEI
  6
Continuous
100
AcDbCircle
 10
30.0219656902234
 20
19.19827662091188
 30
0.0
 40
0.15
100
AcDbArc
 50
90.0
 51
177.5318820861754
  0
ARC
  5
60
330
2
100
AcDbEntity
  8
GAIKEI
  6
Continuous
 62
     1
100
AcDbCircle
 10
27.72829192908341
 20
6.288276620911688
 30
0.0
 40
0.1
100
AcDbArc
 50
180.0
 51
270.0
  0
ARC
  5
61
330
2
100
AcDbEntity
  8
GAIKEI
  6
Continuous
 62
     1
100
AcDbCircle
 10
28.02829192908348
 20
6.288276620911688
 30
0.0
 40
0.1
100
AcDbArc
 50
270.0
 51
0.0
  0
ARC
  5
62
330
2
100
AcDbEntity
  8
GAIKEI
  6
Continuous
 62
     1
100
AcDbCircle
 10
62.40259118658866
 20
2.910751214111883
 30
0.0
 40
40.0000000000002
100
AcDbArc
 50
177.3526729451266
 51
177.8263135506983
  0
ARC
  5
63
330
2
100
AcDbEntity
  8
GAIKEI
  6
Continuous
100
AcDbCircle
 10
0.4147068242590422
 20
12.0600766209119
 30
0.0
 40
30.0
100
AcDbArc
 50
173.1075113815997
 51
178.0000000000029
  0
ARC
  5
64
330
2
100
AcDbEntity
  8
GAIKEI
  6
Continuous
100
AcDbCircle
 10
-0.0760812662709327
 20
12.32387119377171
 30
0.0
 40
30.0
100
AcDbArc
 50
168.3322377054974
 51
178.0000000000029
  0
ARC
  5
65
330
2
100
AcDbEntity
  8
GAIKEI
  6
Continuous
100
AcDbCircle
 10
-28.28097980217092
 20
18.14827662091193
 30
0.0
 40
1.2
100
AcDbArc
 50
90.0
 51
168.3322377055044
  0
ARC
  5
66
330
2
100
AcDbEntity
  8
GAIKEI
  6
Continuous
100
AcDbCircle
 10
-29.26920836158092
 20
15.64827662091193
 30
0.0
 40
0.1
100
AcDbArc
 50
90.0
 51
173.1075113815799
  0
ARC
  5
67
330
2
100
AcDbEntity
  8
GAIKEI
  6
Continuous
100
AcDbCircle
 10
0.4605586247690781
 20
11.3234528478419
 30
0.0
 40
30.0
100
AcDbArc
 50
182.0000000000036
 51
185.7979782815021
  0
ARC
  5
68
330
2
100
AcDbEntity
  8
GAIKEI
  6
Continuous
100
AcDbCircle
 10
-30.63382413199093
 20
6.843222958671901
 30
0.0
 40
2.0
100
AcDbArc
 50
1.895508568493831
 51
23.62364524669895
  0
ARC
  5
69
330
2
100
AcDbEntity
  8
GAIKEI
  6
Continuous
100
AcDbCircle
 10
-29.04380612820091
 20
7.696898682661924
 30
0.0
 40
0.19999999571
100
AcDbArc
 50
24.52457501288636
 51
80.65645047900241
  0
ARC
  5
6A
330
2
100
AcDbEntity
  8
GAIKEI
  6
Continuous
100
AcDbCircle
 10
-28.9382716732909
 20
8.338276620911699
 30
0.0
 40
0.45
100
AcDbArc
 50
185.7979782814956
 51
260.6559285701034
  0
ARC
  5
6B
330
2
100
AcDbEntity
  8
GAIKEI
  6
Continuous
100
AcDbCircle
 10
-0.0760812662709327
 20
12.37268204804189
 30
0.0
 40
30.0
100
AcDbArc
 50
182.0000000000036
 51
191.6677622945025
  0
ARC
  5
6C
330
2
100
AcDbEntity
  8
GAIKEI
  6
Continuous
100
AcDbCircle
 10
-28.28097980217092
 20
6.548276620911906
 30
0.0
 40
1.2
100
AcDbArc
 50
191.6677622944956
 51
257.0396419641799
  0
LINE
  5
6D
330
2
100
AcDbEntity
  8
GAIKEI
  6
Continuous
 62
     1
100
AcDbLine
 10
-20.16302839477891
 20
4.758276620911942
 30
0.0
 11
-20.16302839477891
 21
-0.5098586554281042
 31
0.0
  0
LINE
  5
6E
330
2
100
AcDbEntity
  8
GAIKEI
  6
Continuous
 62
     1
100
AcDbLine
 10
-20.26302839477893
 20
4.758276620911942
 30
0.0
 11
-20.26302839477893
 21
-0.4200039115883101
 31
0.0
  0
LINE
  5
6F
330
2
100
AcDbEntity
  8
GAIKEI
  6
Continuous
 62
     1
100
AcDbLine
 10
-23.56302839477894
 20
-0.4200039115883101
 30
0.0
 11
-23.56302839477894
 21
4.758276620911942
 31
0.0
  0
LINE
  5
70
330
2
100
AcDbEntity
  8
GAIKEI
  6
Continuous
 62
     1
100
AcDbLine
 10
-23.6630283947789
 20
-0.5098586554281042
 30
0.0
 11
-23.6630283947789
 21
4.758276620911942
 31
0.0
  0
LINE
  5
71
330
2
100
AcDbEntity
  8
GAIKEI
  6
Continuous
 62
     1
100
AcDbLine
 10
-20.16302839477891
 20
4.491492660854873
 30
0.0
 11
-16.26695141371891
 21
4.4914918457319
 31
0.0
  0
LINE
  5
72
330
2
100
AcDbEntity
  8
GAIKEI
  6
Continuous
 62
     1
100
AcDbLine
 10
-27.55910537581895
 20
4.4914918457319
 30
0.0
 11
-23.6630283947789
 21
4.491492648586984
 31
0.0
  0
LINE
  5
73
330
2
100
AcDbEntity
  8
GAIKEI
  6
Continuous
 62
     1
100
AcDbLine
 10
-20.26302839477893
 20
-0.2330011039682631
 30
0.0
 11
-23.56302839477894
 21
-0.2330011039682631
 31
0.0
  0
LINE
  5
74
330
2
100
AcDbEntity
  8
GAIKEI
  6
Continuous
 62
     1
100
AcDbLine
 10
-23.6630283947789
 20
-0.4200039115883101
 30
0.0
 11
-20.16302839477891
 21
-0.4200039115883101
 31
0.0
  0
LINE
  5
75
330
2
100
AcDbEntity
  8
GAIKEI
  6
Continuous
 62
     1
100
AcDbLine
 10
-20.16302839477891
 20
-0.5098586554281042
 30
0.0
 11
-23.6630283947789
 21
-0.5098586554281042
 31
0.0
  0
LINE
  5
76
330
2
100
AcDbEntity
  8
GAIKEI
  6
Continuous
 62
     1
100
AcDbLine
 10
-20.1130283947789
 20
-0.5598586554281156
 30
0.0
 11
-23.71302839477892
 21
-0.5598586554281156
 31
0.0
  0
LINE
  5
77
330
2
100
AcDbEntity
  8
GAIKEI
  6
Continuous
100
AcDbLine
 10
30.0219656902234
 20
19.34827662091186
 30
0.0
 11
30.87829192908339
 21
19.34827662091186
 31
0.0
  0
LINE
  5
78
330
2
100
AcDbEntity
  8
GAIKEI
  6
Continuous
100
AcDbLine
 10
30.87829192908339
 20
5.348276620911917
 30
0.0
 11
30.87829192908339
 21
19.34827662091186
 31
0.0
  0
LINE
  5
79
330
2
100
AcDbEntity
  8
GAIKEI
  6
Continuous
100
AcDbLine
 10
29.57829192908344
 20
12.38827662091171
 30
0.0
 11
29.87210483940339
 21
19.20473614034188
 31
0.0
  0
LINE
  5
7A
330
2
100
AcDbEntity
  8
GAIKEI
  6
Continuous
 62
     1
100
AcDbLine
 10
29.69849620404341
 20
12.30827662091172
 30
0.0
 11
29.69849620404341
 21
12.38827662091171
 31
0.0
  0
LINE
  5
7B
330
2
100
AcDbEntity
  8
GAIKEI
  6
Continuous
100
AcDbLine
 10
29.80099841599338
 20
7.14148612463191
 30
0.0
 11
29.57829192908344
 21
12.30827662091172
 31
0.0
  0
LINE
  5
7C
330
2
100
AcDbEntity
  8
GAIKEI
  6
Continuous
100
AcDbLine
 10
29.27453199886338
 20
7.744736140341899
 30
0.0
 11
29.30134165980348
 21
7.122752006591895
 31
0.0
  0
LINE
  5
7D
330
2
100
AcDbEntity
  8
GAIKEI
  6
Continuous
 62
     1
100
AcDbLine
 10
28.20329192908344
 20
7.88827662091171
 30
0.0
 11
28.12829192908339
 21
7.738276620911733
 31
0.0
  0
LINE
  5
7E
330
2
100
AcDbEntity
  8
GAIKEI
  6
Continuous
 62
     1
100
AcDbLine
 10
28.12829192908339
 20
7.738276620911733
 30
0.0
 11
28.12829192908339
 21
6.288276620911688
 31
0.0
  0
LINE
  5
7F
330
2
100
AcDbEntity
  8
GAIKEI
  6
Continuous
100
AcDbLine
 10
29.57944575414342
 20
15.74827662091195
 30
0.0
 11
9.451202076063395
 21
15.74827662091195
 31
0.0
  0
LINE
  5
80
330
2
100
AcDbEntity
  8
GAIKEI
  6
Continuous
 62
     1
100
AcDbLine
 10
27.62829192908339
 20
7.738276620911733
 30
0.0
 11
27.62829192908339
 21
6.288276620911688
 31
0.0
  0
LINE
  5
81
330
2
100
AcDbEntity
  8
GAIKEI
  6
Continuous
 62
     1
100
AcDbLine
 10
27.55329192908346
 20
7.88827662091171
 30
0.0
 11
27.62829192908339
 21
7.738276620911733
 31
0.0
  0
LINE
  5
82
330
2
100
AcDbEntity
  8
GAIKEI
  6
Continuous
100
AcDbLine
 10
23.47360871678347
 20
4.758276620911715
 30
0.0
 11
23.56021125716347
 21
4.908276620911692
 31
0.0
  0
LINE
  5
83
330
2
100
AcDbEntity
  8
GAIKEI
  6
Continuous
100
AcDbLine
 10
23.83760268785341
 20
7.644677298301701
 30
0.0
 11
23.89400837176345
 21
7.771103647131724
 31
0.0
  0
LINE
  5
84
330
2
100
AcDbEntity
  8
GAIKEI
  6
Continuous
100
AcDbLine
 10
23.67109192908356
 20
6.909376620911928
 30
0.0
 11
23.56021125716347
 21
4.908276620911692
 31
0.0
  0
LINE
  5
85
330
2
100
AcDbEntity
  8
GAIKEI
  6
Continuous
 62
     1
100
AcDbLine
 10
9.128291929083388
 20
12.38827662091171
 30
0.0
 11
30.87829192908339
 21
12.38827662091171
 31
0.0
  0
LINE
  5
86
330
2
100
AcDbEntity
  8
GAIKEI
  6
Continuous
 62
     1
100
AcDbLine
 10
9.128291929083104
 20
12.30827662091172
 30
0.0
 11
30.87829192908339
 21
12.30827662091172
 31
0.0
  0
LINE
  5
87
330
2
100
AcDbEntity
  8
GAIKEI
  6
Continuous
100
AcDbLine
 10
29.62513540932344
 20
7.88827662091171
 30
0.0
 11
18.08342778579339
 21
7.88827662091171
 31
0.0
  0
LINE
  5
88
330
2
100
AcDbEntity
  8
GAIKEI
  6
Continuous
 62
     1
100
AcDbLine
 10
27.62829192908339
 20
7.738276620911733
 30
0.0
 11
28.12829192908339
 21
7.738276620911733
 31
0.0
  0
LINE
  5
89
330
2
100
AcDbEntity
  8
GAIKEI
  6
Continuous
 62
     1
100
AcDbLine
 10
28.02829126684355
 20
6.188276620911722
 30
0.0
 11
27.72829259132346
 21
6.188276620911722
 31
0.0
  0
LINE
  5
8A
330
2
100
AcDbEntity
  8
GAIKEI
  6
Continuous
100
AcDbLine
 10
29.51980162767336
 20
5.348276620911917
 30
0.0
 11
30.87829192908339
 21
5.348276620911917
 31
0.0
  0
LINE
  5
8B
330
2
100
AcDbEntity
  8
GAIKEI
  6
Continuous
 62
     1
100
AcDbLine
 10
10.19637260100342
 20
4.908276620911692
 30
0.0
 11
23.56021125716347
 21
4.908276620911692
 31
0.0
  0
LINE
  5
8C
330
2
100
AcDbEntity
  8
GAIKEI
  6
Continuous
100
AcDbLine
 10
9.918981170313429
 20
7.644677298301701
 30
0.0
 11
9.858560837173399
 21
7.779915320841894
 31
0.0
  0
LINE
  5
8D
330
2
100
AcDbEntity
  8
GAIKEI
  6
Continuous
100
AcDbLine
 10
10.28297514138341
 20
4.758276620911715
 30
0.0
 11
10.19637260100342
 21
4.908276620911692
 31
0.0
  0
LINE
  5
8E
330
2
100
AcDbEntity
  8
GAIKEI
  6
Continuous
100
AcDbLine
 10
9.272054116873391
 20
12.38827662091171
 30
0.0
 11
9.272054116873391
 21
12.30827662091172
 31
0.0
  0
LINE
  5
8F
330
2
100
AcDbEntity
  8
GAIKEI
  6
Continuous
100
AcDbLine
 10
9.199244251443417
 20
10.2764679467719
 30
0.0
 11
9.128291929083104
 21
12.30827662091172
 31
0.0
  0
LINE
  5
90
330
2
100
AcDbEntity
  8
GAIKEI
  6
Continuous
100
AcDbLine
 10
10.08549192908339
 20
6.909376620911928
 30
0.0
 11
10.19637260100342
 21
4.908276620911692
 31
0.0
  0
LINE
  5
91
330
2
100
AcDbEntity
  8
GAIKEI
  6
Continuous
100
AcDbLine
 10
9.351924767353409
 20
15.66027728985193
 30
0.0
 11
9.153392450923433
 21
13.1070615219819
 31
0.0
  0
LINE
  5
92
330
2
100
AcDbEntity
  8
GAIKEI
  6
Continuous
100
AcDbLine
 10
9.153392450923433
 20
13.1070615219819
 30
0.0
 11
9.128291929083388
 21
12.38827662091171
 31
0.0
  0
LINE
  5
93
330
2
100
AcDbEntity
  8
GAIKEI
  6
Continuous
 62
     1
100
AcDbLine
 10
11.43926330248865
 20
4.427907434171743
 30
0.0
 11
22.43137354894861
 21
4.427906632871724
 31
0.0
  0
LINE
  5
94
330
2
100
AcDbEntity
  8
GAIKEI
  6
Continuous
 62
     1
100
AcDbLine
 10
16.78529656790863
 20
-0.6208773578881051
 30
0.0
 11
18.60110415512861
 21
-0.620879296868111
 31
0.0
  0
LINE
  5
95
330
2
100
AcDbEntity
  8
GAIKEI
  6
Continuous
100
AcDbLine
 10
-30.05780607684091
 20
11.32569714696194
 30
0.0
 11
-30.09211850816092
 21
12.30827662091189
 31
0.0
  0
LINE
  5
96
330
2
100
AcDbEntity
  8
GAIKEI
  6
Continuous
100
AcDbLine
 10
-30.05780607684091
 20
13.37085609485189
 30
0.0
 11
-30.09211850816092
 21
12.38827662091171
 31
0.0
  0
LINE
  5
97
330
2
100
AcDbEntity
  8
GAIKEI
  6
Continuous
100
AcDbLine
 10
-29.59211850816092
 20
12.38827662091171
 30
0.0
 11
-29.56701798631093
 21
13.1070615219819
 31
0.0
  0
LINE
  5
98
330
2
100
AcDbEntity
  8
GAIKEI
  6
Continuous
100
AcDbLine
 10
-28.4374352958609
 20
4.758276620911942
 30
0.0
 11
-28.52403783624089
 21
4.908276620911919
 31
0.0
  0
LINE
  5
99
330
2
100
AcDbEntity
  8
GAIKEI
  6
Continuous
100
AcDbLine
 10
-29.59211850816092
 20
12.30827662091189
 30
0.0
 11
-29.5211661858009
 21
10.2764679467719
 31
0.0
  0
LINE
  5
9A
330
2
100
AcDbEntity
  8
GAIKEI
  6
Continuous
100
AcDbLine
 10
-28.63491850816092
 20
6.909376620911928
 30
0.0
 11
-28.52403783624089
 21
4.908276620911919
 31
0.0
  0
LINE
  5
9B
330
2
100
AcDbEntity
  8
GAIKEI
  6
Continuous
100
AcDbLine
 10
-28.80142926693088
 20
7.644677298301701
 30
0.0
 11
-28.86184960007091
 21
7.779915320841894
 31
0.0
  0
LINE
  5
9C
330
2
100
AcDbEntity
  8
GAIKEI
  6
Continuous
 62
     1
100
AcDbLine
 10
-28.52403783624089
 20
4.908276620911919
 30
0.0
 11
-15.16019918008089
 21
4.908276620911919
 31
0.0
  0
LINE
  5
9D
330
2
100
AcDbEntity
  8
GAIKEI
  6
Continuous
 62
     1
100
AcDbLine
 10
-30.09211850816092
 20
12.30827662091189
 30
0.0
 11
-13.59211850816092
 21
12.30827662091189
 31
0.0
  0
LINE
  5
9E
330
2
100
AcDbEntity
  8
GAIKEI
  6
Continuous
 62
     1
100
AcDbLine
 10
-30.09211850816092
 20
12.38827662091171
 30
0.0
 11
-13.59211850816092
 21
12.38827662091171
 31
0.0
  0
LINE
  5
9F
330
2
100
AcDbEntity
  8
GAIKEI
  6
Continuous
100
AcDbLine
 10
-14.4148459025709
 20
15.74827662091195
 30
0.0
 11
-29.26939111461093
 21
15.74827662091195
 31
0.0
  0
LINE
  5
A0
330
2
100
AcDbEntity
  8
GAIKEI
  6
Continuous
100
AcDbLine
 10
-15.40325721415092
 20
19.34827662091186
 30
0.0
 11
-28.28097980217092
 21
19.34827662091186
 31
0.0
  0
LINE
  5
A1
330
2
100
AcDbEntity
  8
GAIKEI
  6
Continuous
100
AcDbLine
 10
-29.36848729923094
 20
15.66027737871195
 30
0.0
 11
-29.36850488084093
 21
15.66035624849189
 31
0.0
  0
LINE
  5
A2
330
2
100
AcDbEntity
  8
GAIKEI
  6
Continuous
100
AcDbLine
 10
-29.36850488084093
 20
15.66035624849189
 30
0.0
 11
-29.36857726943094
 21
15.66043077372194
 31
0.0
  0
LINE
  5
A3
330
2
100
AcDbEntity
  8
GAIKEI
  6
DOTTED
100
AcDbLine
 10
-23.91282726923737
 20
-0.9387281464934176
 30
0.0
 11
-23.91140840550475
 21
-0.9373092827607933
 31
0.0
  0
LINE
  5
A5
330
2
100
AcDbEntity
  8
GAIKEI
  6
Continuous
100
AcDbLine
 10
-14.3157321363409
 20
15.66035624849189
 30
0.0
 11
-14.31565974775088
 21
15.66043077372194
 31
0.0
  0
LINE
  5
A6
330
2
100
AcDbEntity
  8
GAIKEI
  6
Continuous
100
AcDbLine
 10
-14.31574971795089
 20
15.66027737871195
 30
0.0
 11
-14.3157321363409
 21
15.66035624849189
 31
0.0
  0
LINE
  5
A7
330
2
100
AcDbEntity
  8
GAIKEI
  6
Continuous
100
AcDbLine
 10
-14.88280775025089
 20
7.644677298301701
 30
0.0
 11
-14.82238741711092
 21
7.779915320841894
 31
0.0
  0
LINE
  5
A8
330
2
100
AcDbEntity
  8
GAIKEI
  6
Continuous
100
AcDbLine
 10
-15.04931850902091
 20
6.909376620911928
 30
0.0
 11
-15.16019918094093
 21
4.908276620911919
 31
0.0
  0
LINE
  5
A9
330
2
100
AcDbEntity
  8
GAIKEI
  6
Continuous
100
AcDbLine
 10
-14.09211850902091
 20
12.30827662091189
 30
0.0
 11
-14.16307083138088
 21
10.2764679467719
 31
0.0
  0
LINE
  5
AA
330
2
100
AcDbEntity
  8
GAIKEI
  6
Continuous
100
AcDbLine
 10
-15.24680172132088
 20
4.758276620911942
 30
0.0
 11
-15.16019918094093
 21
4.908276620911919
 31
0.0
  0
LINE
  5
AB
330
2
100
AcDbEntity
  8
GAIKEI
  6
Continuous
100
AcDbLine
 10
-14.09211850902091
 20
12.38827662091171
 30
0.0
 11
-14.1172190308709
 21
13.1070615219819
 31
0.0
  0
LINE
  5
AC
330
2
100
AcDbEntity
  8
GAIKEI
  6
Continuous
100
AcDbLine
 10
-13.62643094034092
 20
13.37085609485189
 30
0.0
 11
-13.5921185090209
 21
12.38827662091171
 31
0.0
  0
LINE
  5
AD
330
2
100
AcDbEntity
  8
GAIKEI
  6
Continuous
100
AcDbLine
 10
-13.62643094034092
 20
11.32569714696194
 30
0.0
 11
-13.5921185090209
 21
12.30827662091189
 31
0.0
  0
ARC
  5
AE
330
2
100
AcDbEntity
  8
GAIKEI
  6
Continuous
100
AcDbCircle
 10
-15.40325721501091
 20
6.548276620911906
 30
0.0
 40
1.2
100
AcDbArc
 50
282.9603580358202
 51
348.3322377055044
  0
ARC
  5
AF
330
2
100
AcDbEntity
  8
GAIKEI
  6
Continuous
100
AcDbCircle
 10
-43.60815575091089
 20
12.37268204804189
 30
0.0
 40
30.0
100
AcDbArc
 50
348.3322377054975
 51
357.9999999999964
  0
ARC
  5
B0
330
2
100
AcDbEntity
  8
GAIKEI
  6
Continuous
100
AcDbCircle
 10
-14.74596534389093
 20
8.338276620911699
 30
0.0
 40
0.45
100
AcDbArc
 50
279.3440714298967
 51
354.2020217185044
  0
ARC
  5
B1
330
2
100
AcDbEntity
  8
GAIKEI
  6
Continuous
100
AcDbCircle
 10
-14.64043088898091
 20
7.696898682661924
 30
0.0
 40
0.19999999571
100
AcDbArc
 50
99.34354952099759
 51
155.4754249871136
  0
ARC
  5
B2
330
2
100
AcDbEntity
  8
GAIKEI
  6
Continuous
100
AcDbCircle
 10
-13.05041288519089
 20
6.843222958671901
 30
0.0
 40
2.0
100
AcDbArc
 50
156.376354753301
 51
178.1044914315061
  0
ARC
  5
B3
330
2
100
AcDbEntity
  8
GAIKEI
  6
Continuous
100
AcDbCircle
 10
-44.1447956419509
 20
11.3234528478419
 30
0.0
 40
30.0
100
AcDbArc
 50
354.2020217184979
 51
357.9999999999964
  0
ARC
  5
B4
330
2
100
AcDbEntity
  8
GAIKEI
  6
Continuous
100
AcDbCircle
 10
-14.4150286556009
 20
15.64827662091193
 30
0.0
 40
0.1
100
AcDbArc
 50
6.892488618420106
 51
90.0
  0
ARC
  5
B5
330
2
100
AcDbEntity
  8
GAIKEI
  6
Continuous
100
AcDbCircle
 10
-15.40325721501091
 20
18.14827662091193
 30
0.0
 40
1.2
100
AcDbArc
 50
11.66776229449557
 51
90.0
  0
ARC
  5
B6
330
2
100
AcDbEntity
  8
GAIKEI
  6
Continuous
100
AcDbCircle
 10
-43.60815575091089
 20
12.32387119377171
 30
0.0
 40
30.0
100
AcDbArc
 50
1.999999999997108
 51
11.66776229450259
  0
ARC
  5
B7
330
2
100
AcDbEntity
  8
GAIKEI
  6
Continuous
100
AcDbCircle
 10
-44.09894384144087
 20
12.0600766209119
 30
0.0
 40
30.0
100
AcDbArc
 50
1.999999999997108
 51
6.89248861840031
  0
SPLINE
  5
B8
330
2
100
AcDbEntity
  8
GAIKEI
  6
Continuous
100
AcDbSpline
210
0.0
220
0.0
230
1.0
 70
    24
 71
     3
 72
     9
 73
     5
 74
     3
 42
0.0000000001
 43
0.0000000001
 44
0.00000000001
 40
0.0
 40
0.0
 40
0.0
 40
0.0
 40
0.0214224768337951
 40
0.0428449536676147
 40
0.0428449536676147
 40
0.0428449536676147
 40
0.0428449536676147
 10
-14.37300066414087
 20
15.73908478680198
 30
0.0
 10
-14.37997487083757
 20
15.74061835498196
 30
0.0
 10
-14.39392328423088
 20
15.74368549134192
 30
0.0
 10
-14.40787169762421
 20
15.74675262770199
 30
0.0
 10
-14.41484590432088
 20
15.74828619588197
 30
0.0
 11
-14.37300066414087
 21
15.73908478680198
 31
0.0
 11
-14.39392328423088
 21
15.74368549134192
 31
0.0
 11
-14.41484590432088
 21
15.74828619588197
 31
0.0
  0
SPLINE
  5
B9
330
2
100
AcDbEntity
  8
GAIKEI
  6
Continuous
100
AcDbSpline
210
0.0
220
0.0
230
1.0
 70
     8
 71
     3
 72
     9
 73
     5
 74
     3
 42
0.0000000001
 43
0.0000000001
 44
0.00000000001
 40
0.0
 40
0.0
 40
0.0
 40
0.0
 40
0.006761911638542
 40
0.0135198438003354
 40
0.0135198438003354
 40
0.0135198438003354
 40
0.0135198438003354
 10
-14.36113540043089
 20
15.73262060432182
 30
0.0
 10
-14.36305792562516
 20
15.73380034518334
 30
0.0
 10
-14.36690184458149
 20
15.73615913261284
 30
0.0
 10
-14.37096812324847
 20
15.73810976012373
 30
0.0
 10
-14.37300066414087
 20
15.73908478680198
 30
0.0
 11
-14.36113540043089
 21
15.73262060432182
 31
0.0
 11
-14.3669585986712
 21
15.73605772684823
 31
0.0
 11
-14.37300066414087
 21
15.73908478680198
 31
0.0
  0
SPLINE
  5
BA
330
2
100
AcDbEntity
  8
GAIKEI
  6
Continuous
100
AcDbSpline
210
0.0
220
0.0
230
1.0
 70
    24
 71
     3
 72
     9
 73
     5
 74
     3
 42
0.0000000001
 43
0.0000000001
 44
0.00000000001
 40
0.0
 40
0.0
 40
0.0
 40
0.0
 40
0.0155959399721948
 40
0.0311918799443568
 40
0.0311918799443568
 40
0.0311918799443568
 40
0.0311918799443568
 10
-14.3377813489609
 20
15.71194400754189
 30
0.0
 10
-14.34167369087254
 20
15.71539010700525
 30
0.0
 10
-14.34945837469587
 20
15.72228230593191
 30
0.0
 10
-14.3572430585192
 20
15.72917450485852
 30
0.0
 10
-14.36113540043089
 20
15.73262060432182
 30
0.0
 11
-14.3377813489609
 21
15.71194400754189
 31
0.0
 11
-14.34945837469587
 21
15.72228230593191
 31
0.0
 11
-14.36113540043089
 21
15.73262060432182
 31
0.0
  0
SPLINE
  5
BB
330
2
100
AcDbEntity
  8
GAIKEI
  6
Continuous
100
AcDbSpline
210
0.0
220
0.0
230
1.0
 70
     8
 71
     3
 72
     9
 73
     5
 74
     3
 42
0.0000000001
 43
0.0000000001
 44
0.00000000001
 40
0.0
 40
0.0
 40
0.0
 40
0.0
 40
0.006829309719118
 40
0.0136626693601854
 40
0.0136626693601854
 40
0.0136626693601854
 40
0.0136626693601854
 10
-14.32985044070085
 20
15.70082894467191
 30
0.0
 10
-14.33107543841342
 20
15.70274970896946
 30
0.0
 10
-14.33352616028759
 20
15.70659237661755
 30
0.0
 10
-14.33636267246783
 20
15.7101597780811
 30
0.0
 10
-14.3377813489609
 20
15.71194400754189
 30
0.0
 11
-14.32985044070085
 21
15.70082894467191
 31
0.0
 11
-14.33362182424514
 21
15.70652246180998
 31
0.0
 11
-14.3377813489609
 21
15.71194400754189
 31
0.0
  0
SPLINE
  5
BC
330
2
100
AcDbEntity
  8
GAIKEI
  6
Continuous
100
AcDbSpline
210
0.0
220
0.0
230
1.0
 70
    24
 71
     3
 72
     9
 73
     5
 74
     3
 42
0.0000000001
 43
0.0000000001
 44
0.00000000001
 40
0.0
 40
0.0
 40
0.0
 40
0.0
 40
0.0214070104884266
 40
0.0428140209768532
 40
0.0428140209768532
 40
0.0428140209768532
 40
0.0428140209768532
 10
-14.31567855344087
 20
15.66042847433186
 30
0.0
 10
-14.31804053465083
 20
15.66716188605522
 30
0.0
 10
-14.32276449707086
 20
15.68062870950177
 30
0.0
 10
-14.32748845949084
 20
15.69409553294861
 30
0.0
 10
-14.32985044070085
 20
15.70082894467191
 30
0.0
 11
-14.31567855344087
 21
15.66042847433186
 31
0.0
 11
-14.32276449707086
 21
15.68062870950189
 31
0.0
 11
-14.32985044070085
 21
15.70082894467191
 31
0.0
  0
ARC
  5
BD
330
2
100
AcDbEntity
  8
GAIKEI
  6
Continuous
 62
     1
100
AcDbCircle
 10
-28.53195433515134
 20
2.910751214111883
 30
0.0
 40
40.0000000000002
100
AcDbArc
 50
2.173686449301635
 51
2.647327054873357
  0
DIMENSION
  5
BE
330
2
100
AcDbEntity
  8
SUNPO
100
AcDbDimension
  2
*D6
 10
-13.59211851005602
 20
27.34656040609997
 30
0.0
 11
-21.84211850910847
 21
29.09656040609997
 31
0.0
 70
    33
  1
165
 71
     5
 42
16.49999999810489
  3
STANDARD
100
AcDbAlignedDimension
 13
-30.09211850816092
 23
19.34656040187673
 33
0.0
 14
-13.59211851005602
 24
19.34656040609997
 34
0.0
1001
ACAD
1000
DSTYLE
1002
{
1070
    40
1040
1.0
1070
   140
1040
2.5
1070
   147
1040
0.5
1070
   172
1070
     1
1070
   279
1070
     0
1070
   288
1070
     0
1002
}
  0
DIMENSION
  5
CC
330
2
100
AcDbEntity
  8
SUNPO
100
AcDbDimension
  2
*D5
 10
-5.275442334237197
 20
-1.291723379088298
 30
0.0
 11
-7.025442334237196
 21
9.028276620911778
 31
0.0
 70
    33
  1
206.5
 71
     5
 42
20.64000000000016
  3
STANDARD
100
AcDbAlignedDimension
 13
-13.58255711248921
 23
19.34827662091186
 33
0.0
 14
-13.58255711248921
 24
-1.291723379088296
 34
0.0
1001
ACAD
1000
DSTYLE
1002
{
1070
    40
1040
1.0
1070
   140
1040
2.5
1070
   147
1040
0.5
1070
   172
1070
     1
1070
   279
1070
     0
1070
   288
1070
     0
1002
}
  0
DIMENSION
  5
D9
330
2
100
AcDbEntity
  8
SUNPO
100
AcDbDimension
  2
*D4
 10
30.87829192908339
 20
27.34656040609991
 30
0.0
 11
20.00329192908339
 21
29.09656040609991
 31
0.0
 70
    33
  1
217.5
 71
     5
 42
21.75
  3
STANDARD
100
AcDbAlignedDimension
 13
9.128291929083388
 23
19.34656040187667
 33
0.0
 14
30.87829192908339
 24
19.34656040609991
 34
0.0
1001
ACAD
1000
DSTYLE
1002
{
1070
    40
1040
1.0
1070
   140
1040
2.5
1070
   147
1040
0.5
1070
   172
1070
     1
1070
   279
1070
     0
1070
   288
1070
     0
1002
}
  0
LINE
  5
E6
330
2
100
AcDbEntity
  8
WAKU
 62
     4
100
AcDbLine
 10
63.51248626162555
 20
-21.53977112795985
 30
0.0
 11
63.51248626162555
 21
-61.53977112795985
 31
0.0
  0
LINE
  5
E8
330
2
100
AcDbEntity
  8
WAKU
 62
     4
100
AcDbLine
 10
-21.48751373837433
 20
-21.53977112795985
 30
0.0
 11
-21.48751373837433
 21
-61.53977112795985
 31
0.0
  0
TEXT
  5
E9
330
2
100
AcDbEntity
  8
MOJI1
100
AcDbText
 10
-58.98751373837433
 20
-25.53977112795986
 30
0.0
 40
3.0
  1
電　源
100
AcDbText
  0
TEXT
  5
EA
330
2
100
AcDbEntity
  8
MOJI1
100
AcDbText
 10
-18.98751373837433
 20
-25.53977112795986
 30
0.0
 40
3.0
  1
ＤＣ１２Ｖ、ＰｏＥ（ＩＥＥＥ８０２．３ａｆ準拠)
 41
0.95
100
AcDbText
  0
LINE
  5
EB
330
2
100
AcDbEntity
  8
WAKU
 62
     4
100
AcDbLine
 10
-61.48751373837433
 20
-21.53977112795985
 30
0.0
 11
-61.48751373837433
 21
-61.53977112795985
 31
0.0
  0
LINE
  5
EC
330
2
100
AcDbEntity
  8
WAKU
 62
     1
100
AcDbLine
 10
-61.48751373837433
 20
-36.53977112795985
 30
0.0
 11
63.51248626162555
 21
-36.53977112795985
 31
0.0
  0
LINE
  5
ED
330
2
100
AcDbEntity
  8
WAKU
 62
     1
100
AcDbLine
 10
-61.48751373837433
 20
-41.53977112795985
 30
0.0
 11
63.51248626162555
 21
-41.53977112795985
 31
0.0
  0
LINE
  5
EE
330
2
100
AcDbEntity
  8
WAKU
 62
     1
100
AcDbLine
 10
-61.48751373837433
 20
-46.53977112795985
 30
0.0
 11
63.51248626162555
 21
-46.53977112795985
 31
0.0
  0
LINE
  5
EF
330
2
100
AcDbEntity
  8
WAKU
 62
     1
100
AcDbLine
 10
-61.48751373837433
 20
-51.53977112795985
 30
0.0
 11
63.51248626162555
 21
-51.53977112795985
 31
0.0
  0
LINE
  5
F0
330
2
100
AcDbEntity
  8
WAKU
 62
     4
100
AcDbLine
 10
63.51248626162555
 20
-61.53977112795985
 30
0.0
 11
-61.48751373837433
 21
-61.53977112795985
 31
0.0
  0
LINE
  5
F1
330
2
100
AcDbEntity
  8
WAKU
 62
     4
100
AcDbLine
 10
-61.48751373837433
 20
-21.53977112795985
 30
0.0
 11
63.51248626162555
 21
-21.53977112795985
 31
0.0
  0
LINE
  5
F2
330
2
100
AcDbEntity
  8
WAKU
 62
     1
100
AcDbLine
 10
-61.48751373837433
 20
-26.53977112795985
 30
0.0
 11
63.51248626162555
 21
-26.53977112795985
 31
0.0
  0
LINE
  5
F3
330
2
100
AcDbEntity
  8
WAKU
 62
     1
100
AcDbLine
 10
-61.48751373837433
 20
-31.53977112795985
 30
0.0
 11
63.51248626162555
 21
-31.53977112795985
 31
0.0
  0
TEXT
  5
F4
330
2
100
AcDbEntity
  8
MOJI1
100
AcDbText
 10
-18.98751373837433
 20
-30.53977112795986
 30
0.0
 40
3.0
  1
ＤＣ１２Ｖ：約１Ａ、ＰｏＥ：約１２Ｗ（クラス0機器)
 41
0.9
100
AcDbText
  0
TEXT
  5
F5
330
2
100
AcDbEntity
  8
MOJI1
100
AcDbText
 10
-58.98751373837433
 20
-30.53977112795986
 30
0.0
 40
3.0
  1
消費電力
100
AcDbText
  0
TEXT
  5
F6
330
2
100
AcDbEntity
  8
MOJI1
100
AcDbText
 10
-58.98751373837433
 20
-35.53977112795986
 30
0.0
 40
3.0
  1
撮像素子
100
AcDbText
  0
TEXT
  5
F7
330
2
100
AcDbEntity
  8
MOJI1
100
AcDbText
 10
-18.98751373837433
 20
-35.53977112795986
 30
0.0
 40
3.0
  1
１／４型　インターライン転送方式ＣＣＤ
100
AcDbText
  0
TEXT
  5
F8
330
2
100
AcDbEntity
  8
MOJI1
100
AcDbText
 10
-18.98751373837433
 20
-45.53977112795985
 30
0.0
 40
3.0
  1
ＭＰＥＧ－４／ＪＰＥＧ　デュアルエンコーディング
 41
0.9
100
AcDbText
  0
TEXT
  5
F9
330
2
100
AcDbEntity
  8
MOJI1
100
AcDbText
 10
-58.98751373837433
 20
-45.53977112795985
 30
0.0
 40
3.0
  1
画像圧縮方式
100
AcDbText
  0
TEXT
  5
FA
330
2
100
AcDbEntity
  8
MOJI1
100
AcDbText
 10
-58.98751373837433
 20
-40.53977112795985
 30
0.0
 40
3.0
  1
最低照度
100
AcDbText
  0
TEXT
  5
FB
330
2
100
AcDbEntity
  8
MOJI1
100
AcDbText
 10
-18.98751373837433
 20
-40.53977112795985
 30
0.0
 40
3.0
  1
０．７ｌｘ（電子感度アップＯＦＦ、ＡＧＣ　ＨＩＧＨ時)
 41
0.85
100
AcDbText
  0
TEXT
  5
FC
330
2
100
AcDbEntity
  8
MOJI1
100
AcDbText
 10
-18.98751373837433
 20
-50.53977112795985
 30
0.0
 40
3.0
  1
ＶＧＡ（６４０×４８０)／ＱＶＧＡ（３２０×２４０）
 41
0.9
100
AcDbText
  0
TEXT
  5
FD
330
2
100
AcDbEntity
  8
MOJI1
100
AcDbText
 10
-58.98751373837433
 20
-50.53977112795985
 30
0.0
 40
3.0
  1
画像解像度
100
AcDbText
  0
TEXT
  5
FE
330
2
100
AcDbEntity
  8
MOJI1
100
AcDbText
 10
-58.98751373837433
 20
-55.53977112795985
 30
0.0
 40
3.0
  1
ネットワーク
100
AcDbText
  0
TEXT
  5
FF
330
2
100
AcDbEntity
  8
MOJI1
100
AcDbText
 10
-18.98751373837433
 20
-55.53977112795985
 30
0.0
 40
3.0
  1
１０ＢＡＳＥ－Ｔ／１００ＢＡＳＥ－ＴＸ、ＲＪ４５コネクター
 41
0.75
100
AcDbText
  0
LINE
  5
100
330
2
100
AcDbEntity
  8
WAKU
 62
     1
100
AcDbLine
 10
-61.48751373837433
 20
-56.53977112795985
 30
0.0
 11
63.51248626162555
 21
-56.53977112795985
 31
0.0
  0
TEXT
  5
101
330
2
100
AcDbEntity
  8
MOJI1
100
AcDbText
 10
-18.98751373837433
 20
-60.53977112795985
 30
0.0
 40
3.0
  1
２２倍
100
AcDbText
  0
TEXT
  5
102
330
2
100
AcDbEntity
  8
MOJI1
100
AcDbText
 10
-58.98751373837433
 20
-60.53977112795985
 30
0.0
 40
3.0
  1
ズーム比
100
AcDbText
  0
ENDSEC
  0
SECTION
  2
OBJECTS
  0
DICTIONARY
  5
9
330
0
100
AcDbDictionary
281
     1
  3
ACAD_COLOR
350
31
  3
ACAD_GROUP
350
2D
  3
ACAD_LAYOUT
350
D
  3
ACAD_MATERIAL
350
30
  3
ACAD_MLINESTYLE
350
2E
  3
ACAD_PLOTSETTINGS
350
2F
  3
ACAD_PLOTSTYLENAME
350
8
  3
ACDBHEADERROUNDTRIPXREC
350
13F
  3
AcDbVariableDictionary
350
13A
  0
DICTIONARY
  5
15
330
14
100
AcDbDictionary
280
     1
281
     1
  3
ACAD_LAYERFILTERS
360
16
  3
ACAD_LAYERSTATES
360
17
  0
DICTIONARY
  5
3
330
2
100
AcDbDictionary
280
     1
281
     1
  3
ACAD_LAYOUTSELFREF
360
4
  0
DICTIONARY
  5
F
330
E
100
AcDbDictionary
280
     1
281
     1
  3
ACAD_LAYOUTSELFREF
360
10
  0
DICTIONARY
  5
31
102
{ACAD_REACTORS
330
9
102
}
330
9
100
AcDbDictionary
281
     1
  0
DICTIONARY
  5
2D
102
{ACAD_REACTORS
330
9
102
}
330
9
100
AcDbDictionary
281
     1
  0
DICTIONARY
  5
D
102
{ACAD_REACTORS
330
9
102
}
330
9
100
AcDbDictionary
281
     1
  3
Model
350
C
  3
ﾚｲｱｳﾄ1
350
13
  0
DICTIONARY
  5
30
102
{ACAD_REACTORS
330
9
102
}
330
9
100
AcDbDictionary
281
     1
  0
DICTIONARY
  5
2E
102
{ACAD_REACTORS
330
9
102
}
330
9
100
AcDbDictionary
281
     1
  3
STANDARD
350
33
  0
DICTIONARY
  5
2F
102
{ACAD_REACTORS
330
9
102
}
330
9
100
AcDbDictionary
281
     1
  0
ACDBDICTIONARYWDFLT
  5
8
102
{ACAD_REACTORS
330
9
102
}
330
9
100
AcDbDictionary
281
     1
  3
Normal
350
7
100
AcDbDictionaryWithDefault
340
7
  0
DICTIONARY
  5
13F
102
{ACAD_REACTORS
330
9
102
}
330
9
100
AcDbDictionary
281
     1
  3
COLORDICT
350
141
  3
MATERIALDICT
350
140
  0
DICTIONARY
  5
13A
102
{ACAD_REACTORS
330
9
102
}
330
9
100
AcDbDictionary
281
     1
  3
DIMASSOC
350
13C
  3
HIDETEXT
350
13B
  3
PROJECTNAME
350
13D
  0
DICTIONARY
  5
16
102
{ACAD_REACTORS
330
15
102
}
330
15
100
AcDbDictionary
280
     1
281
     1
  0
DICTIONARY
  5
17
102
{ACAD_REACTORS
330
15
102
}
330
15
100
AcDbDictionary
281
     1
  0
XRECORD
  5
4
102
{ACAD_REACTORS
330
3
102
}
330
3
100
AcDbXrecord
280
     1
340
2
  0
XRECORD
  5
10
102
{ACAD_REACTORS
330
F
102
}
330
F
100
AcDbXrecord
280
     1
340
E
  0
LAYOUT
  5
C
102
{ACAD_XDICTIONARY
360
142
102
}
102
{ACAD_REACTORS
330
D
102
}
330
D
100
AcDbPlotSettings
  1

  2
8FPAM09-A4.pc3
  4
A4
  6

 40
4.349750041961669
 41
4.222751140594482
 42
4.3497314453125
 43
4.180419921875
 44
297.0106506347656
 45
210.0156707763672
 46
0.0
 47
6.019999999999999
 48
586.7197439017591
 49
80.03711269102495
140
1246.52177633949
141
483.5407420879955
142
1.0
143
1.367406275946202
 70
 11956
 72
     1
 73
     1
 74
     1
  7
tmsacad.ctb
 75
     0
147
0.7313115477022594
148
0.5975600756119093
149
0.005505254347554
100
AcDbLayout
  1
Model
 70
     1
 71
     0
 10
0.0
 20
0.0
 11
12.0
 21
9.0
 12
0.0
 22
0.0
 32
0.0
 14
0.0
 24
0.0
 34
0.0
 15
0.0
 25
0.0
 35
0.0
146
0.0
 13
0.0
 23
0.0
 33
0.0
 16
1.0
 26
0.0
 36
0.0
 17
0.0
 27
1.0
 37
0.0
 76
     0
330
2
  0
LAYOUT
  5
13
102
{ACAD_XDICTIONARY
360
144
102
}
102
{ACAD_REACTORS
330
D
102
}
330
D
100
AcDbPlotSettings
  1

  2
C:\Program Files\ACAD2000\plotters\DWF ePlot.pc3
  4

  6

 40
0.0
 41
0.0
 42
0.0
 43
0.0
 44
0.0
 45
0.0
 46
0.0
 47
0.0
 48
0.0
 49
0.0
140
0.0
141
0.0
142
1.0
143
1.0
 70
   688
 72
     0
 73
     0
 74
     5
  7
tmsacad.ctb
 75
    16
147
1.0
148
0.0
149
0.0
100
AcDbLayout
  1
ﾚｲｱｳﾄ1
 70
     1
 71
     1
 10
0.0
 20
0.0
 11
12.0
 21
9.0
 12
0.0
 22
0.0
 32
0.0
 14
1.000000000000000E+20
 24
1.000000000000000E+20
 34
1.000000000000000E+20
 15
-1.000000000000000E+20
 25
-1.000000000000000E+20
 35
-1.000000000000000E+20
146
0.0
 13
0.0
 23
0.0
 33
0.0
 16
1.0
 26
0.0
 36
0.0
 17
0.0
 27
1.0
 37
0.0
 76
     0
330
E
  0
MLINESTYLE
  5
33
102
{ACAD_REACTORS
330
2E
102
}
330
2E
100
AcDbMlineStyle
  2
STANDARD
 70
     0
  3

 62
   256
 51
90.0
 52
90.0
 71
     2
 49
0.5
 62
   256
  6
BYLAYER
 49
-0.5
 62
   256
  6
BYLAYER
  0
ACDBPLACEHOLDER
  5
7
102
{ACAD_REACTORS
330
8
102
}
330
8
  0
XRECORD
  5
141
102
{ACAD_REACTORS
330
13F
102
}
330
13F
100
AcDbXrecord
280
     1
340
31
  0
XRECORD
  5
140
102
{ACAD_REACTORS
330
13F
102
}
330
13F
100
AcDbXrecord
280
     1
340
30
  0
DICTIONARYVAR
  5
13C
102
{ACAD_REACTORS
330
13A
102
}
330
13A
100
DictionaryVariables
280
     0
  1
1
  0
DICTIONARYVAR
  5
13B
102
{ACAD_REACTORS
330
13A
102
}
330
13A
100
DictionaryVariables
280
     0
  1
1
  0
DICTIONARYVAR
  5
13D
102
{ACAD_REACTORS
330
13A
102
}
330
13A
100
DictionaryVariables
280
     0
  1

  0
DICTIONARY
  5
142
330
C
100
AcDbDictionary
280
     1
281
     1
  3
ACAD_XREC_ROUNDTRIP
360
143
  0
DICTIONARY
  5
144
330
13
100
AcDbDictionary
280
     1
281
     1
  3
ACAD_XREC_ROUNDTRIP
360
145
  0
XRECORD
  5
143
102
{ACAD_REACTORS
330
142
102
}
330
142
100
AcDbXrecord
280
     1
102
SHADEPLOT
 70
     0
102
SHADEPLOTRESLEVEL
 70
     2
102
SHADEPLOTCUSTOMDPI
 70
   300
  0
XRECORD
  5
145
102
{ACAD_REACTORS
330
144
102
}
330
144
100
AcDbXrecord
280
     1
102
SHADEPLOT
 70
     0
102
SHADEPLOTRESLEVEL
 70
     2
102
SHADEPLOTCUSTOMDPI
 70
   300
  0
ENDSEC
  0
EOF
