  0
SECTION
  2
HEADER
  9
$ACADVER
  1
AC1015
  9
$ACADMAINTVER
 70
    20
  9
$DWGCODEPAGE
  3
ANSI_932
  9
$INSBASE
 10
0.0
 20
120.4992141396419
 30
0.0
  9
$EXTMIN
 10
-62.0863300718056
 20
-61.5172802833531
 30
-0.0015258207003583
  9
$EXTMAX
 10
62.99417889815913
 20
51.61380163227295
 30
0.0000000349246037
  9
$LIMMIN
 10
-1101.784450318844
 20
-1579.160531687244
  9
$LIMMAX
 10
-508.2420711400536
 20
-1161.440814074914
  9
$ORTHOMODE
 70
     1
  9
$REGENMODE
 70
     1
  9
$FILLMODE
 70
     1
  9
$QTEXTMODE
 70
     0
  9
$MIRRTEXT
 70
     1
  9
$LTSCALE
 40
1.0
  9
$ATTMODE
 70
     1
  9
$TEXTSIZE
 40
3.0
  9
$TRACEWID
 40
0.5
  9
$TEXTSTYLE
  7
STANDARD
  9
$CLAYER
  8
SUNPO
  9
$CELTYPE
  6
BYLAYER
  9
$CECOLOR
 62
   256
  9
$CELTSCALE
 40
1.0
  9
$DISPSILH
 70
     0
  9
$DIMSCALE
 40
1.0
  9
$DIMASZ
 40
2.0
  9
$DIMEXO
 40
2.0
  9
$DIMDLI
 40
8.0
  9
$DIMRND
 40
0.0
  9
$DIMDLE
 40
0.0
  9
$DIMEXE
 40
2.0
  9
$DIMTP
 40
0.0
  9
$DIMTM
 40
0.0
  9
$DIMTXT
 40
2.5
  9
$DIMCEN
 40
0.0
  9
$DIMTSZ
 40
0.0
  9
$DIMTOL
 70
     0
  9
$DIMLIM
 70
     0
  9
$DIMTIH
 70
     0
  9
$DIMTOH
 70
     0
  9
$DIMSE1
 70
     0
  9
$DIMSE2
 70
     0
  9
$DIMTAD
 70
     3
  9
$DIMZIN
 70
     0
  9
$DIMBLK
  1

  9
$DIMASO
 70
     1
  9
$DIMSHO
 70
     1
  9
$DIMPOST
  1

  9
$DIMAPOST
  1

  9
$DIMALT
 70
     0
  9
$DIMALTD
 70
     2
  9
$DIMALTF
 40
25.4
  9
$DIMLFAC
 40
1.0
  9
$DIMTOFL
 70
     1
  9
$DIMTVP
 40
0.0
  9
$DIMTIX
 70
     0
  9
$DIMSOXD
 70
     0
  9
$DIMSAH
 70
     1
  9
$DIMBLK1
  1
OPEN30
  9
$DIMBLK2
  1
OPEN30
  9
$DIMSTYLE
  2
STANDARD
  9
$DIMCLRD
 70
     0
  9
$DIMCLRE
 70
     0
  9
$DIMCLRT
 70
     0
  9
$DIMTFAC
 40
1.0
  9
$DIMGAP
 40
0.5
  9
$DIMJUST
 70
     0
  9
$DIMSD1
 70
     0
  9
$DIMSD2
 70
     0
  9
$DIMTOLJ
 70
     1
  9
$DIMTZIN
 70
     0
  9
$DIMALTZ
 70
     0
  9
$DIMALTTZ
 70
     0
  9
$DIMUPT
 70
     0
  9
$DIMDEC
 70
     4
  9
$DIMTDEC
 70
     4
  9
$DIMALTU
 70
     2
  9
$DIMALTTD
 70
     2
  9
$DIMTXSTY
  7
STANDARD
  9
$DIMAUNIT
 70
     0
  9
$DIMADEC
 70
     0
  9
$DIMALTRND
 40
0.0
  9
$DIMAZIN
 70
     0
  9
$DIMDSEP
 70
    46
  9
$DIMATFIT
 70
     3
  9
$DIMFRAC
 70
     0
  9
$DIMLDRBLK
  1
OPEN30
  9
$DIMLUNIT
 70
     2
  9
$DIMLWD
 70
    -2
  9
$DIMLWE
 70
    -2
  9
$DIMTMOVE
 70
     0
  9
$LUNITS
 70
     2
  9
$LUPREC
 70
     4
  9
$SKETCHINC
 40
0.1
  9
$FILLETRAD
 40
0.0
  9
$AUNITS
 70
     0
  9
$AUPREC
 70
     0
  9
$MENU
  1
ACAD
  9
$ELEVATION
 40
0.0
  9
$PELEVATION
 40
0.0
  9
$THICKNESS
 40
0.0
  9
$LIMCHECK
 70
     0
  9
$CHAMFERA
 40
0.0
  9
$CHAMFERB
 40
0.0
  9
$CHAMFERC
 40
0.0
  9
$CHAMFERD
 40
0.0
  9
$SKPOLY
 70
     0
  9
$TDCREATE
 40
2451815.565532581
  9
$TDUCREATE
 40
2451815.190532581
  9
$TDUPDATE
 40
2454053.397262906
  9
$TDUUPDATE
 40
2454053.022262905
  9
$TDINDWG
 40
0.9286549884
  9
$TDUSRTIMER
 40
0.9286549884
  9
$USRTIMER
 70
     1
  9
$ANGBASE
 50
0.0
  9
$ANGDIR
 70
     0
  9
$PDMODE
 70
     0
  9
$PDSIZE
 40
0.0
  9
$PLINEWID
 40
0.0
  9
$SPLFRAME
 70
     0
  9
$SPLINETYPE
 70
     6
  9
$SPLINESEGS
 70
     8
  9
$HANDSEED
  5
14B
  9
$SURFTAB1
 70
     6
  9
$SURFTAB2
 70
     6
  9
$SURFTYPE
 70
     6
  9
$SURFU
 70
     6
  9
$SURFV
 70
     6
  9
$UCSBASE
  2

  9
$UCSNAME
  2

  9
$UCSORG
 10
0.0
 20
0.0
 30
0.0
  9
$UCSXDIR
 10
1.0
 20
0.0
 30
0.0
  9
$UCSYDIR
 10
0.0
 20
1.0
 30
0.0
  9
$UCSORTHOREF
  2

  9
$UCSORTHOVIEW
 70
     0
  9
$UCSORGTOP
 10
0.0
 20
0.0
 30
0.0
  9
$UCSORGBOTTOM
 10
0.0
 20
0.0
 30
0.0
  9
$UCSORGLEFT
 10
0.0
 20
0.0
 30
0.0
  9
$UCSORGRIGHT
 10
0.0
 20
0.0
 30
0.0
  9
$UCSORGFRONT
 10
0.0
 20
0.0
 30
0.0
  9
$UCSORGBACK
 10
0.0
 20
0.0
 30
0.0
  9
$PUCSBASE
  2

  9
$PUCSNAME
  2

  9
$PUCSORG
 10
0.0
 20
0.0
 30
0.0
  9
$PUCSXDIR
 10
1.0
 20
0.0
 30
0.0
  9
$PUCSYDIR
 10
0.0
 20
1.0
 30
0.0
  9
$PUCSORTHOREF
  2

  9
$PUCSORTHOVIEW
 70
     0
  9
$PUCSORGTOP
 10
0.0
 20
0.0
 30
0.0
  9
$PUCSORGBOTTOM
 10
0.0
 20
0.0
 30
0.0
  9
$PUCSORGLEFT
 10
0.0
 20
0.0
 30
0.0
  9
$PUCSORGRIGHT
 10
0.0
 20
0.0
 30
0.0
  9
$PUCSORGFRONT
 10
0.0
 20
0.0
 30
0.0
  9
$PUCSORGBACK
 10
0.0
 20
0.0
 30
0.0
  9
$USERI1
 70
     0
  9
$USERI2
 70
     0
  9
$USERI3
 70
     0
  9
$USERI4
 70
     0
  9
$USERI5
 70
     0
  9
$USERR1
 40
0.0
  9
$USERR2
 40
0.0
  9
$USERR3
 40
0.0
  9
$USERR4
 40
0.0
  9
$USERR5
 40
0.0
  9
$WORLDVIEW
 70
     1
  9
$SHADEDGE
 70
     3
  9
$SHADEDIF
 70
    70
  9
$TILEMODE
 70
     1
  9
$MAXACTVP
 70
    48
  9
$PINSBASE
 10
0.0
 20
0.0
 30
0.0
  9
$PLIMCHECK
 70
     0
  9
$PEXTMIN
 10
1.000000000000000E+20
 20
1.000000000000000E+20
 30
1.000000000000000E+20
  9
$PEXTMAX
 10
-1.000000000000000E+20
 20
-1.000000000000000E+20
 30
-1.000000000000000E+20
  9
$PLIMMIN
 10
0.0
 20
0.0
  9
$PLIMMAX
 10
12.0
 20
9.0
  9
$UNITMODE
 70
     0
  9
$VISRETAIN
 70
     1
  9
$PLINEGEN
 70
     0
  9
$PSLTSCALE
 70
     1
  9
$TREEDEPTH
 70
  3020
  9
$CMLSTYLE
  2
STANDARD
  9
$CMLJUST
 70
     0
  9
$CMLSCALE
 40
1.0
  9
$PROXYGRAPHICS
 70
     1
  9
$MEASUREMENT
 70
     0
  9
$CELWEIGHT
370
    -1
  9
$ENDCAPS
280
     0
  9
$JOINSTYLE
280
     0
  9
$LWDISPLAY
290
     0
  9
$INSUNITS
 70
     0
  9
$HYPERLINKBASE
  1

  9
$STYLESHEET
  1

  9
$XEDIT
290
     1
  9
$CEPSNTYPE
380
     0
  9
$PSTYLEMODE
290
     1
  9
$FINGERPRINTGUID
  2
{1754B7AB-9B3C-11D4-AD9E-00104B1004F2}
  9
$VERSIONGUID
  2
{E6CF4924-2AA8-4C29-BFD2-A829D06EC664}
  9
$EXTNAMES
290
     1
  9
$PSVPSCALE
 40
0.0
  9
$OLESTARTUP
290
     0
  0
ENDSEC
  0
SECTION
  2
CLASSES
  0
CLASS
  1
ACDBDICTIONARYWDFLT
  2
AcDbDictionaryWithDefault
  3
ObjectDBX Classes
 90
        0
280
     0
281
     0
  0
CLASS
  1
ACDBPLACEHOLDER
  2
AcDbPlaceHolder
  3
ObjectDBX Classes
 90
        0
280
     0
281
     0
  0
CLASS
  1
LAYOUT
  2
AcDbLayout
  3
ObjectDBX Classes
 90
        0
280
     0
281
     0
  0
CLASS
  1
DICTIONARYVAR
  2
AcDbDictionaryVar
  3
ObjectDBX Classes
 90
        0
280
     0
281
     0
  0
ENDSEC
  0
SECTION
  2
TABLES
  0
TABLE
  2
VPORT
  5
20
330
0
100
AcDbSymbolTable
 70
     3
  0
VPORT
  5
143
330
20
100
AcDbSymbolTableRecord
100
AcDbViewportTableRecord
  2
*Active
 70
     0
 10
0.0
 20
0.0
 11
1.0
 21
1.0
 12
0.4539244131767611
 22
-4.951739325540074
 13
0.0
 23
0.0
 14
1.0
 24
1.0
 15
0.0
 25
0.0
 16
0.0
 26
0.0
 36
1.0
 17
0.0
 27
0.0
 37
0.0
 40
114.0137691607415
 41
1.401041666666666
 42
50.0
 43
0.0
 44
0.0
 50
0.0
 51
0.0
 71
     0
 72
 10000
 73
     1
 74
     0
 75
     0
 76
     1
 77
     0
 78
     0
281
     0
 65
     1
110
0.0
120
0.0
130
0.0
111
1.0
121
0.0
131
0.0
112
0.0
122
1.0
132
0.0
 79
     0
146
0.0
  0
ENDTAB
  0
TABLE
  2
LTYPE
  5
1B
330
0
100
AcDbSymbolTable
 70
     3
  0
LTYPE
  5
1C
330
1B
100
AcDbSymbolTableRecord
100
AcDbLinetypeTableRecord
  2
BYBLOCK
 70
     0
  3

 72
    65
 73
     0
 40
0.0
  0
LTYPE
  5
1D
330
1B
100
AcDbSymbolTableRecord
100
AcDbLinetypeTableRecord
  2
BYLAYER
 70
     0
  3

 72
    65
 73
     0
 40
0.0
  0
LTYPE
  5
A
330
1B
100
AcDbSymbolTableRecord
100
AcDbLinetypeTableRecord
  2
CONTINUOUS
 70
     0
  3
Solid line
 72
    65
 73
     0
 40
0.0
  0
LTYPE
  5
56
330
1B
100
AcDbSymbolTableRecord
100
AcDbLinetypeTableRecord
  2
DOTTED
 70
     0
  3
Dotted
 72
    65
 73
     2
 40
3.5
 49
0.5
 74
     0
 49
-3.0
 74
     0
  0
LTYPE
  5
A2
330
1B
100
AcDbSymbolTableRecord
100
AcDbLinetypeTableRecord
  2
S110
 70
     0
  3
--- - - --- - - --- 3,-1,1,-1,1,-1
 72
    65
 73
     6
 40
8.0
 49
3.0
 74
     0
 49
-1.0
 74
     0
 49
1.0
 74
     0
 49
-1.0
 74
     0
 49
1.0
 74
     0
 49
-1.0
 74
     0
  0
ENDTAB
  0
TABLE
  2
LAYER
  5
14
102
{ACAD_XDICTIONARY
360
15
102
}
330
0
100
AcDbSymbolTable
 70
     7
  0
LAYER
  5
6
330
14
100
AcDbSymbolTableRecord
100
AcDbLayerTableRecord
  2
0
 70
     0
 62
     7
  6
CONTINUOUS
370
    -3
390
7
  0
LAYER
  5
43
330
14
100
AcDbSymbolTableRecord
100
AcDbLayerTableRecord
  2
DEFPOINTS
 70
     0
 62
     7
  6
CONTINUOUS
290
     0
370
    -3
390
7
  0
LAYER
  5
F8
330
14
100
AcDbSymbolTableRecord
100
AcDbLayerTableRecord
  2
WAKU
 70
     0
 62
     4
  6
CONTINUOUS
370
    -3
390
7
  0
LAYER
  5
35
330
14
100
AcDbSymbolTableRecord
100
AcDbLayerTableRecord
  2
MOJI1
 70
     0
 62
     2
  6
CONTINUOUS
370
    -3
390
7
  0
LAYER
  5
55
330
14
100
AcDbSymbolTableRecord
100
AcDbLayerTableRecord
  2
GAIKEI
 70
     0
 62
     7
  6
CONTINUOUS
370
    -3
390
7
  0
LAYER
  5
38
330
14
100
AcDbSymbolTableRecord
100
AcDbLayerTableRecord
  2
TOUROKU
 70
     0
 62
     1
  6
CONTINUOUS
370
    -3
390
7
  0
LAYER
  5
32
330
14
100
AcDbSymbolTableRecord
100
AcDbLayerTableRecord
  2
SUNPO
 70
     0
 62
     3
  6
CONTINUOUS
370
    -3
390
7
  0
ENDTAB
  0
TABLE
  2
STYLE
  5
18
330
0
100
AcDbSymbolTable
 70
     2
  0
STYLE
  5
19
330
18
100
AcDbSymbolTableRecord
100
AcDbTextStyleTableRecord
  2
STANDARD
 70
     0
 40
0.0
 41
1.0
 50
0.0
 71
     0
 42
3.0
  3
MONOTXT.shx
  4
BIGFONT.shx
  0
STYLE
  5
36
330
18
100
AcDbSymbolTableRecord
100
AcDbTextStyleTableRecord
  2
KANJI
 70
     0
 40
0.0
 41
1.0
 50
0.0
 71
     0
 42
3.5
  3
MONOTXT
  4
BIGFONT
  0
ENDTAB
  0
TABLE
  2
VIEW
  5
1E
330
0
100
AcDbSymbolTable
 70
     0
  0
ENDTAB
  0
TABLE
  2
UCS
  5
1F
330
0
100
AcDbSymbolTable
 70
     0
  0
ENDTAB
  0
TABLE
  2
APPID
  5
22
330
0
100
AcDbSymbolTable
 70
     1
  0
APPID
  5
23
330
22
100
AcDbSymbolTableRecord
100
AcDbRegAppTableRecord
  2
ACAD
 70
     0
  0
ENDTAB
  0
TABLE
  2
DIMSTYLE
  5
24
330
0
100
AcDbSymbolTable
 70
     1
100
AcDbDimStyleTable
 71
     1
340
25
  0
DIMSTYLE
105
25
102
{ACAD_REACTORS
330
47
330
39
102
}
330
24
100
AcDbSymbolTableRecord
100
AcDbDimStyleTableRecord
  2
STANDARD
 70
     0
 40
0.0
 41
2.0
 42
2.0
 43
8.0
 44
2.0
 73
     0
 74
     0
 77
     3
140
3.0
141
0.0
173
     1
279
     2
288
     1
340
19
341
26
343
26
344
26
  0
ENDTAB
  0
TABLE
  2
BLOCK_RECORD
  5
1
330
0
100
AcDbSymbolTable
 70
     5
  0
BLOCK_RECORD
  5
2
102
{ACAD_XDICTIONARY
360
3
102
}
330
1
100
AcDbSymbolTableRecord
100
AcDbBlockTableRecord
  2
*MODEL_SPACE
340
C
  0
BLOCK_RECORD
  5
E
102
{ACAD_XDICTIONARY
360
F
102
}
330
1
100
AcDbSymbolTableRecord
100
AcDbBlockTableRecord
  2
*PAPER_SPACE
340
13
  0
BLOCK_RECORD
  5
26
330
1
100
AcDbSymbolTableRecord
100
AcDbBlockTableRecord
  2
_OPEN30
340
0
102
{BLKREFS
331
3F
331
40
331
4D
331
4E
331
12B
331
12C
331
137
331
138
102
}
  0
BLOCK_RECORD
  5
48
330
1
100
AcDbSymbolTableRecord
100
AcDbBlockTableRecord
  2
*D1
340
0
  0
BLOCK_RECORD
  5
3A
330
1
100
AcDbSymbolTableRecord
100
AcDbBlockTableRecord
  2
*D2
340
0
  0
BLOCK_RECORD
  5
127
330
1
100
AcDbSymbolTableRecord
100
AcDbBlockTableRecord
  2
*D3
340
0
  0
BLOCK_RECORD
  5
133
330
1
100
AcDbSymbolTableRecord
100
AcDbBlockTableRecord
  2
*D4
340
0
  0
ENDTAB
  0
ENDSEC
  0
SECTION
  2
BLOCKS
  0
BLOCK
  5
5
330
2
100
AcDbEntity
  8
0
100
AcDbBlockBegin
  2
*MODEL_SPACE
 70
     0
 10
0.0
 20
0.0
 30
0.0
  3
*MODEL_SPACE
  1

  0
ENDBLK
  5
B
330
2
100
AcDbEntity
  8
0
100
AcDbBlockEnd
  0
BLOCK
  5
11
330
E
100
AcDbEntity
 67
     1
  8
0
100
AcDbBlockBegin
  2
*PAPER_SPACE
 70
     0
 10
0.0
 20
0.0
 30
0.0
  3
*PAPER_SPACE
  1

  0
ENDBLK
  5
12
330
E
100
AcDbEntity
 67
     1
  8
0
100
AcDbBlockEnd
  0
BLOCK
  5
27
330
26
100
AcDbEntity
  8
0
100
AcDbBlockBegin
  2
_OPEN30
 70
     0
 10
0.0
 20
0.0
 30
0.0
  3
_OPEN30
  1

  0
LINE
  5
28
330
26
100
AcDbEntity
  8
0
  6
ByBlock
 62
     0
100
AcDbLine
 10
-1.0
 20
0.26794919
 30
0.0
 11
0.0
 21
0.0
 31
0.0
  0
LINE
  5
29
330
26
100
AcDbEntity
  8
0
  6
ByBlock
 62
     0
100
AcDbLine
 10
0.0
 20
0.0
 30
0.0
 11
-1.0
 21
-0.26794919
 31
0.0
  0
LINE
  5
2A
330
26
100
AcDbEntity
  8
0
  6
ByBlock
 62
     0
100
AcDbLine
 10
0.0
 20
0.0
 30
0.0
 11
-1.0
 21
0.0
 31
0.0
  0
ENDBLK
  5
2B
330
26
100
AcDbEntity
  8
0
100
AcDbBlockEnd
  0
BLOCK
  5
49
330
48
100
AcDbEntity
  8
0
100
AcDbBlockBegin
  2
*D1
 70
     1
 10
0.0
 20
0.0
 30
0.0
  3
*D1
  1

  0
LINE
  5
4A
330
48
100
AcDbEntity
  8
SUNPO
 62
     0
370
    -2
100
AcDbLine
 10
58.89259601977619
 20
68.04966980497095
 30
0.0
 11
65.50831629821174
 21
68.04966980497095
 31
0.0
  0
LINE
  5
4B
330
48
100
AcDbEntity
  8
SUNPO
 62
     0
370
    -2
100
AcDbLine
 10
58.89259601977619
 20
84.34966980497094
 30
0.0
 11
65.50831629821174
 21
84.34966980497094
 31
0.0
  0
LINE
  5
4C
330
48
100
AcDbEntity
  8
SUNPO
 62
     0
370
    -2
100
AcDbLine
 10
63.50831629821175
 20
70.04966980497094
 30
0.0
 11
63.50831629821175
 21
82.34966980497095
 31
0.0
  0
INSERT
  5
4D
330
48
100
AcDbEntity
  8
SUNPO
 62
     0
370
    -2
100
AcDbBlockReference
  2
_OPEN30
 10
63.50831629821175
 20
68.04966980497095
 30
0.0
 41
2.0
 42
2.0
 43
2.0
 50
270.0
  0
INSERT
  5
4E
330
48
100
AcDbEntity
  8
SUNPO
 62
     0
370
    -2
100
AcDbBlockReference
  2
_OPEN30
 10
63.50831629821175
 20
84.34966980497094
 30
0.0
 41
2.0
 42
2.0
 43
2.0
 50
90.0
  0
MTEXT
  5
4F
330
48
100
AcDbEntity
  8
SUNPO
 62
     0
100
AcDbMText
 10
61.75831629821174
 20
76.19966980497096
 30
0.0
 40
2.5
 41
0.0
 71
     5
 72
     1
  1
\A1;163
 11
0.0000000000000001
 21
1.0
 31
0.0
 73
     1
 44
1.0
1001
ACAD
1000
MTEXTBEGIN
1070
    73
1070
     1
1070
    44
1040
1.0
1070
    74
1070
     0
1000
MTEXTEND
  0
POINT
  5
50
330
48
100
AcDbEntity
  8
DEFPOINTS
 62
     0
100
AcDbPoint
 10
56.89259601977619
 20
68.04966980497095
 30
0.0
  0
POINT
  5
51
330
48
100
AcDbEntity
  8
DEFPOINTS
 62
     0
100
AcDbPoint
 10
56.89259601977619
 20
84.34966980497094
 30
0.0
  0
POINT
  5
52
330
48
100
AcDbEntity
  8
DEFPOINTS
 62
     0
100
AcDbPoint
 10
63.50831629821175
 20
84.34966980497094
 30
0.0
  0
ENDBLK
  5
53
330
48
100
AcDbEntity
  8
0
100
AcDbBlockEnd
  0
BLOCK
  5
3B
330
3A
100
AcDbEntity
  8
0
100
AcDbBlockBegin
  2
*D2
 70
     1
 10
0.0
 20
0.0
 30
0.0
  3
*D2
  1

  0
LINE
  5
3C
330
3A
100
AcDbEntity
  8
SUNPO
 62
     0
370
    -2
100
AcDbLine
 10
38.41458892668971
 20
86.34966980497091
 30
0.0
 11
38.41458892668971
 21
94.34966980497092
 31
0.0
  0
LINE
  5
3D
330
3A
100
AcDbEntity
  8
SUNPO
 62
     0
370
    -2
100
AcDbLine
 10
56.91453250563973
 20
86.34966980497091
 30
0.0
 11
56.91453250563973
 21
94.34966980497092
 31
0.0
  0
LINE
  5
3E
330
3A
100
AcDbEntity
  8
SUNPO
 62
     0
370
    -2
100
AcDbLine
 10
40.4145889266897
 20
92.34966980497091
 30
0.0
 11
54.91453250563973
 21
92.34966980497091
 31
0.0
  0
INSERT
  5
3F
330
3A
100
AcDbEntity
  8
SUNPO
 62
     0
370
    -2
100
AcDbBlockReference
  2
_OPEN30
 10
38.41458892668971
 20
92.34966980497091
 30
0.0
 41
2.0
 42
2.0
 43
2.0
 50
180.0
  0
INSERT
  5
40
330
3A
100
AcDbEntity
  8
SUNPO
 62
     0
370
    -2
100
AcDbBlockReference
  2
_OPEN30
 10
56.91453250563973
 20
92.34966980497091
 30
0.0
 41
2.0
 42
2.0
 43
2.0
  0
MTEXT
  5
41
330
3A
100
AcDbEntity
  8
SUNPO
 62
     0
100
AcDbMText
 10
47.66456071616471
 20
94.09966980497092
 30
0.0
 40
2.5
 41
0.0
 71
     5
 72
     1
  1
\A1;φ185
 73
     1
 44
1.0
1001
ACAD
1000
MTEXTBEGIN
1070
    73
1070
     1
1070
    44
1040
1.0
1070
    74
1070
     0
1000
MTEXTEND
  0
POINT
  5
42
330
3A
100
AcDbEntity
  8
DEFPOINTS
 62
     0
100
AcDbPoint
 10
38.41458892668971
 20
84.34966980497092
 30
0.0
  0
POINT
  5
44
330
3A
100
AcDbEntity
  8
DEFPOINTS
 62
     0
100
AcDbPoint
 10
56.91453250563973
 20
84.34966980497092
 30
0.0
  0
POINT
  5
45
330
3A
100
AcDbEntity
  8
DEFPOINTS
 62
     0
100
AcDbPoint
 10
56.91453250563973
 20
92.34966980497091
 30
0.0
  0
ENDBLK
  5
46
330
3A
100
AcDbEntity
  8
0
100
AcDbBlockEnd
  0
BLOCK
  5
131
330
127
100
AcDbEntity
  8
0
100
AcDbBlockBegin
  2
*D3
 70
     1
 10
0.0
 20
0.0
 30
0.0
  3
*D3
  1

  0
LINE
  5
128
330
127
100
AcDbEntity
  8
SUNPO
 62
     0
370
    -2
100
AcDbLine
 10
-5.169607264091155
 20
1.098774794270794
 30
0.0
 11
1.446113014344401
 21
1.098774794270793
 31
0.0
  0
LINE
  5
129
330
127
100
AcDbEntity
  8
SUNPO
 62
     0
370
    -2
100
AcDbLine
 10
-5.169607264091155
 20
17.39877479427079
 30
0.0
 11
1.446113014344405
 21
17.39877479427079
 31
0.0
  0
LINE
  5
12A
330
127
100
AcDbEntity
  8
SUNPO
 62
     0
370
    -2
100
AcDbLine
 10
-0.553886985655598
 20
3.098774794270793
 30
0.0
 11
-0.5538869856555953
 21
15.39877479427079
 31
0.0
  0
INSERT
  5
12B
330
127
100
AcDbEntity
  8
SUNPO
 62
     0
370
    -2
100
AcDbBlockReference
  2
_OPEN30
 10
-0.5538869856555985
 20
1.098774794270793
 30
0.0
 41
2.0
 42
2.0
 43
2.0
 50
270.0
  0
INSERT
  5
12C
330
127
100
AcDbEntity
  8
SUNPO
 62
     0
370
    -2
100
AcDbBlockReference
  2
_OPEN30
 10
-0.5538869856555948
 20
17.39877479427079
 30
0.0
 41
2.0
 42
2.0
 43
2.0
 50
90.0
  0
MTEXT
  5
12D
330
127
100
AcDbEntity
  8
SUNPO
 62
     0
100
AcDbMText
 10
-2.303886985655598
 20
9.248774794270794
 30
0.0
 40
2.5
 41
0.0
 71
     5
 72
     1
  1
\A1;163
 11
0.0000000000000001
 21
1.0
 31
0.0
 73
     1
 44
1.0
1001
ACAD
1000
MTEXTBEGIN
1070
    73
1070
     1
1070
    44
1040
1.0
1070
    74
1070
     0
1000
MTEXTEND
  0
POINT
  5
12E
330
127
100
AcDbEntity
  8
DEFPOINTS
 62
     0
100
AcDbPoint
 10
-7.169607264091155
 20
1.098774794270795
 30
0.0
  0
POINT
  5
12F
330
127
100
AcDbEntity
  8
DEFPOINTS
 62
     0
100
AcDbPoint
 10
-7.169607264091155
 20
17.39877479427079
 30
0.0
  0
POINT
  5
130
330
127
100
AcDbEntity
  8
DEFPOINTS
 62
     0
100
AcDbPoint
 10
-0.5538869856555948
 20
17.39877479427079
 30
0.0
  0
ENDBLK
  5
132
330
127
100
AcDbEntity
  8
0
100
AcDbBlockEnd
  0
BLOCK
  5
13D
330
133
100
AcDbEntity
  8
0
100
AcDbBlockBegin
  2
*D4
 70
     1
 10
0.0
 20
0.0
 30
0.0
  3
*D4
  1

  0
LINE
  5
134
330
133
100
AcDbEntity
  8
SUNPO
 62
     0
370
    -2
100
AcDbLine
 10
-25.64761435717765
 20
19.39877479427076
 30
0.0
 11
-25.64761435717765
 21
27.39877479427077
 31
0.0
  0
LINE
  5
135
330
133
100
AcDbEntity
  8
SUNPO
 62
     0
370
    -2
100
AcDbLine
 10
-7.14767077822762
 20
19.39877479427076
 30
0.0
 11
-7.147670778227619
 21
27.39877479427077
 31
0.0
  0
LINE
  5
136
330
133
100
AcDbEntity
  8
SUNPO
 62
     0
370
    -2
100
AcDbLine
 10
-23.64761435717765
 20
25.39877479427076
 30
0.0
 11
-9.14767077822762
 21
25.39877479427076
 31
0.0
  0
INSERT
  5
137
330
133
100
AcDbEntity
  8
SUNPO
 62
     0
370
    -2
100
AcDbBlockReference
  2
_OPEN30
 10
-25.64761435717765
 20
25.39877479427076
 30
0.0
 41
2.0
 42
2.0
 43
2.0
 50
180.0
  0
INSERT
  5
138
330
133
100
AcDbEntity
  8
SUNPO
 62
     0
370
    -2
100
AcDbBlockReference
  2
_OPEN30
 10
-7.147670778227619
 20
25.39877479427076
 30
0.0
 41
2.0
 42
2.0
 43
2.0
  0
MTEXT
  5
139
330
133
100
AcDbEntity
  8
SUNPO
 62
     0
100
AcDbMText
 10
-16.39764256770263
 20
27.14877479427077
 30
0.0
 40
2.5
 41
0.0
 71
     5
 72
     1
  1
\A1;φ185
 73
     1
 44
1.0
1001
ACAD
1000
MTEXTBEGIN
1070
    73
1070
     1
1070
    44
1040
1.0
1070
    74
1070
     0
1000
MTEXTEND
  0
POINT
  5
13A
330
133
100
AcDbEntity
  8
DEFPOINTS
 62
     0
100
AcDbPoint
 10
-25.64761435717765
 20
17.39877479427076
 30
0.0
  0
POINT
  5
13B
330
133
100
AcDbEntity
  8
DEFPOINTS
 62
     0
100
AcDbPoint
 10
-7.14767077822762
 20
17.39877479427076
 30
0.0
  0
POINT
  5
13C
330
133
100
AcDbEntity
  8
DEFPOINTS
 62
     0
100
AcDbPoint
 10
-7.147670778227619
 20
25.39877479427076
 30
0.0
  0
ENDBLK
  5
13E
330
133
100
AcDbEntity
  8
0
100
AcDbBlockEnd
  0
ENDSEC
  0
SECTION
  2
ENTITIES
  0
TEXT
  5
34
330
2
100
AcDbEntity
  8
MOJI1
100
AcDbText
 10
-35.06220328386711
 20
47.54831912894189
 30
0.0
 40
4.0
  1
ネットワークカメラ（天井直付金具付）
  7
KANJI
100
AcDbText
  0
TEXT
  5
37
330
2
100
AcDbEntity
  8
TOUROKU
100
AcDbText
 10
27.73774674906009
 20
41.54831912894169
 30
0.0
 40
2.0
  1
ＤＧＮＳ２０２＋ＤＧＱ１５２Ｃ
 72
     2
 11
62.93774674906007
 21
41.54831912894169
 31
0.0
100
AcDbText
  0
DIMENSION
  5
39
330
2
100
AcDbEntity
  8
SUNPO
100
AcDbDimension
  2
*D4
 10
-7.147670778227619
 20
25.39877479427076
 30
0.0
 11
-16.39764256770263
 21
27.14877479427077
 31
0.0
 70
    33
  1
φ185
 71
     5
 42
18.49994357895002
  3
STANDARD
100
AcDbAlignedDimension
 13
-25.64761435717765
 23
17.39877479427076
 33
0.0
 14
-7.14767077822762
 24
17.39877479427076
 34
0.0
1001
ACAD
1000
DSTYLE
1002
{
1070
    40
1040
1.0
1070
   140
1040
2.5
1070
   147
1040
0.5
1070
   172
1070
     1
1070
   279
1070
     0
1070
   288
1070
     0
1002
}
  0
DIMENSION
  5
47
330
2
100
AcDbEntity
  8
SUNPO
100
AcDbDimension
  2
*D3
 10
-0.5538869856555948
 20
17.39877479427079
 30
0.0
 11
-2.303886985655598
 21
9.248774794270794
 31
0.0
 70
    33
  1
163
 71
     5
 42
16.3
  3
STANDARD
100
AcDbAlignedDimension
 13
-7.169607264091155
 23
1.098774794270795
 33
0.0
 14
-7.169607264091155
 24
17.39877479427079
 34
0.0
1001
ACAD
1000
DSTYLE
1002
{
1070
    40
1040
1.0
1070
   140
1040
2.5
1070
   147
1040
0.5
1070
   172
1070
     1
1070
   279
1070
     0
1070
   288
1070
     0
1002
}
  0
LINE
  5
54
330
2
100
AcDbEntity
  8
GAIKEI
  6
DOTTED
 62
     1
100
AcDbLine
 10
14.47647126434668
 20
7.14726267717512
 30
0.0
 11
14.47798338144236
 21
7.148774794270821
 31
0.0
  0
LINE
  5
57
330
2
100
AcDbEntity
  8
GAIKEI
  6
Continuous
100
AcDbLine
 10
26.15955517935657
 20
7.148774794270792
 30
0.0
 11
26.49267889983617
 21
7.148774794270792
 31
0.0
  0
LINE
  5
58
330
2
100
AcDbEntity
  8
GAIKEI
  6
Continuous
 62
     1
100
AcDbLine
 10
25.22691272833617
 20
17.31584896946077
 30
0.0
 11
25.23140991720618
 21
17.27877479427078
 31
0.0
  0
LINE
  5
59
330
2
100
AcDbEntity
  8
GAIKEI
  6
Continuous
 62
     1
100
AcDbLine
 10
25.21381684136617
 20
17.3493752755908
 30
0.0
 11
25.22691272833617
 21
17.31584896946077
 31
0.0
  0
LINE
  5
5A
330
2
100
AcDbEntity
  8
GAIKEI
  6
Continuous
 62
     1
100
AcDbLine
 10
25.19352292773618
 20
17.37585115336077
 30
0.0
 11
25.21381684136617
 21
17.3493752755908
 31
0.0
  0
LINE
  5
5B
330
2
100
AcDbEntity
  8
GAIKEI
  6
Continuous
 62
     1
100
AcDbLine
 10
25.16790131840617
 20
17.39289723025078
 30
0.0
 11
25.19352292773618
 21
17.37585115336077
 31
0.0
  0
LINE
  5
5C
330
2
100
AcDbEntity
  8
GAIKEI
  6
Continuous
 62
     1
100
AcDbLine
 10
25.13948458402621
 20
17.39877479427079
 30
0.0
 11
25.16790131840617
 21
17.39289723025078
 31
0.0
  0
LINE
  5
5D
330
2
100
AcDbEntity
  8
GAIKEI
  6
Continuous
100
AcDbLine
 10
29.16272778794939
 20
17.09877595778698
 30
0.0
 11
29.01331849463617
 21
17.24877479427078
 31
0.0
  0
LINE
  5
5E
330
2
100
AcDbEntity
  8
GAIKEI
  6
Continuous
 62
     1
100
AcDbLine
 10
15.26017179339618
 20
17.24702801918079
 30
0.0
 11
15.37865237099618
 21
17.27877479427078
 31
0.0
  0
LINE
  5
5F
330
2
100
AcDbEntity
  8
GAIKEI
  6
Continuous
 62
     1
100
AcDbLine
 10
15.19447473719617
 20
17.39877479427079
 30
0.0
 11
25.13948458402621
 21
17.39877479427079
 31
0.0
  0
LINE
  5
60
330
2
100
AcDbEntity
  8
GAIKEI
  6
Continuous
 62
     1
100
AcDbLine
 10
15.19448711693616
 20
17.27877479427078
 30
0.0
 11
15.71275599897615
 21
17.27877479427078
 31
0.0
  0
LINE
  5
61
330
2
100
AcDbEntity
  8
GAIKEI
  6
Continuous
100
AcDbLine
 10
17.95649533503621
 20
17.24877479427078
 30
0.0
 11
29.01329514783618
 21
17.24877479427078
 31
0.0
  0
LINE
  5
62
330
2
100
AcDbEntity
  8
GAIKEI
  6
Continuous
100
AcDbLine
 10
10.8121940664962
 20
17.24877479427078
 30
0.0
 11
15.26703832548617
 21
17.24877479427078
 31
0.0
  0
LINE
  5
63
330
2
100
AcDbEntity
  8
GAIKEI
  6
Continuous
100
AcDbLine
 10
29.0104628090462
 20
17.22877595861081
 30
0.0
 11
29.02624628404618
 21
17.22877595861081
 31
0.0
  0
LINE
  5
64
330
2
100
AcDbEntity
  8
GAIKEI
  6
Continuous
 62
     1
100
AcDbLine
 10
15.81275599897617
 20
17.14877479427079
 30
0.0
 11
16.31275599897617
 21
17.14877479427079
 31
0.0
  0
LINE
  5
65
330
2
100
AcDbEntity
  8
GAIKEI
  6
Continuous
 62
     1
100
AcDbLine
 10
29.15767882043622
 20
17.09877595738078
 30
0.0
 11
14.69827735877618
 21
17.09877479427081
 31
0.0
  0
LINE
  5
66
330
2
100
AcDbEntity
  8
GAIKEI
  6
Continuous
 62
     1
100
AcDbLine
 10
14.68609377605617
 20
17.0987755212208
 30
0.0
 11
10.66278420949618
 21
17.09877595738078
 31
0.0
  0
LINE
  5
67
330
2
100
AcDbEntity
  8
GAIKEI
  6
Continuous
100
AcDbLine
 10
26.49275599897618
 20
7.148774794270792
 30
0.0
 11
26.58630588738617
 21
7.312487099000776
 31
0.0
  0
LINE
  5
68
330
2
100
AcDbEntity
  8
GAIKEI
  6
Continuous
 62
     1
100
AcDbLine
 10
14.9553928773862
 20
15.9487747942708
 30
0.0
 11
17.61486709309622
 21
15.9487747942708
 31
0.0
  0
LINE
  5
69
330
2
100
AcDbEntity
  8
GAIKEI
  6
Continuous
 62
     1
100
AcDbLine
 10
25.23140991720618
 20
17.27877479427078
 30
0.0
 11
25.23140991720618
 21
17.24877479427078
 31
0.0
  0
LINE
  5
6A
330
2
100
AcDbEntity
  8
GAIKEI
  6
Continuous
 62
     1
100
AcDbLine
 10
15.89456338210618
 20
17.14877479427079
 30
0.0
 11
15.71275599897615
 21
17.27877479427078
 31
0.0
  0
LINE
  5
6B
330
2
100
AcDbEntity
  8
GAIKEI
  6
Continuous
100
AcDbLine
 10
12.66203642815617
 20
14.34444065184078
 30
0.0
 11
10.86222726199617
 21
15.12911756485079
 31
0.0
  0
LINE
  5
6C
330
2
100
AcDbEntity
  8
GAIKEI
  6
Continuous
100
AcDbLine
 10
27.16347556979616
 20
14.34444065184078
 30
0.0
 11
28.96328473595616
 21
15.12911756485079
 31
0.0
  0
LINE
  5
6D
330
2
100
AcDbEntity
  8
GAIKEI
  6
Continuous
100
AcDbLine
 10
13.19321536595618
 20
7.919324690030805
 30
0.0
 11
13.22571979946622
 21
7.919324690030805
 31
0.0
  0
LINE
  5
6E
330
2
100
AcDbEntity
  8
GAIKEI
  6
Continuous
100
AcDbLine
 10
13.19579577344621
 20
7.641198419480787
 30
0.0
 11
13.2258559801362
 21
7.641198419480787
 31
0.0
  0
LINE
  5
6F
330
2
100
AcDbEntity
  8
GAIKEI
  6
Continuous
 62
     1
100
AcDbLine
 10
13.23920610982617
 20
7.312487100280776
 30
0.0
 11
26.58630588811622
 21
7.312487100280776
 31
0.0
  0
LINE
  5
70
330
2
100
AcDbEntity
  8
GAIKEI
  6
Continuous
100
AcDbLine
 10
13.33283309810616
 20
7.148774794270792
 30
0.0
 11
13.66595681859581
 21
7.148774794270792
 31
0.0
  0
LINE
  5
71
330
2
100
AcDbEntity
  8
GAIKEI
  6
Continuous
 62
     1
100
AcDbLine
 10
16.31275599897617
 20
17.09877479427081
 30
0.0
 11
16.31275599897617
 21
17.14877479427079
 31
0.0
  0
LINE
  5
72
330
2
100
AcDbEntity
  8
GAIKEI
  6
Continuous
 62
     1
100
AcDbLine
 10
15.81275599897617
 20
17.09877479427081
 30
0.0
 11
15.81275599897617
 21
17.14877479427079
 31
0.0
  0
LINE
  5
73
330
2
100
AcDbEntity
  8
GAIKEI
  6
Continuous
 62
     1
100
AcDbLine
 10
15.19445472878618
 20
17.39877479427079
 30
0.0
 11
15.19445472878618
 21
17.27877479427078
 31
0.0
  0
LINE
  5
74
330
2
100
AcDbEntity
  8
GAIKEI
  6
Continuous
100
AcDbLine
 10
13.33275599897621
 20
7.148774794270792
 30
0.0
 11
13.23920611055621
 21
7.312487099000776
 31
0.0
  0
LINE
  5
75
330
2
100
AcDbEntity
  8
GAIKEI
  6
Continuous
 62
     1
100
AcDbLine
 10
15.26017179339618
 20
17.24702801918079
 30
0.0
 11
14.94224172657618
 21
17.09877479427081
 31
0.0
  0
LINE
  5
76
330
2
100
AcDbEntity
  8
GAIKEI
  6
Continuous
100
AcDbLine
 10
10.75195266493619
 20
15.28942586943077
 30
0.0
 11
10.66278420949618
 21
17.09877595738078
 31
0.0
  0
LINE
  5
77
330
2
100
AcDbEntity
  8
GAIKEI
  6
Continuous
100
AcDbLine
 10
10.66278420949618
 20
17.09877595738078
 30
0.0
 11
10.81219350331616
 21
17.24877479427078
 31
0.0
  0
LINE
  5
78
330
2
100
AcDbEntity
  8
GAIKEI
  6
Continuous
100
AcDbLine
 10
29.1627277884462
 20
17.09877595738078
 30
0.0
 11
29.07355933300619
 21
15.28942586943077
 31
0.0
  0
LINE
  5
79
330
2
100
AcDbEntity
  8
GAIKEI
  6
Continuous
 62
     1
100
AcDbLine
 10
12.87815926630395
 20
14.37771608856161
 30
0.0
 11
26.87839808316915
 21
14.37771608856161
 31
0.0
  0
LINE
  5
7A
330
2
100
AcDbEntity
  8
GAIKEI
  6
Continuous
 62
     1
100
AcDbLine
 10
10.97716368064419
 20
15.24331927603279
 30
0.0
 11
28.77953298813077
 21
15.24331927603279
 31
0.0
  0
LINE
  5
7B
330
2
100
AcDbEntity
  8
GAIKEI
  6
Continuous
 62
     1
100
AcDbLine
 10
19.91275599897619
 20
1.678043751950781
 30
0.0
 11
21.52679504241621
 21
1.680077679470826
 31
0.0
  0
LINE
  5
7C
330
2
100
AcDbEntity
  8
GAIKEI
  6
Continuous
 62
     1
100
AcDbLine
 10
14.50237075771622
 20
6.791990886990788
 30
0.0
 11
25.55883298001618
 21
6.791990019070794
 31
0.0
  0
ARC
  5
7D
330
2
100
AcDbEntity
  8
GAIKEI
  6
Continuous
100
AcDbCircle
 10
10.95105942955621
 20
15.3083069786208
 30
0.0
 40
0.1999999999998
100
AcDbArc
 50
185.4171063332987
 51
243.6303380945158
  0
ARC
  5
7E
330
2
100
AcDbEntity
  8
GAIKEI
  6
Continuous
100
AcDbCircle
 10
28.87445256838617
 20
15.3083069786208
 30
0.0
 40
0.2
100
AcDbArc
 50
296.3696619055316
 51
354.5828936667078
  0
ARC
  5
7F
330
2
100
AcDbEntity
  8
GAIKEI
  6
Continuous
100
AcDbCircle
 10
12.52036827374616
 20
13.97036828715079
 30
0.0
 40
0.4
100
AcDbArc
 50
43.42945565439127
 51
69.25739217140456
  0
ARC
  5
80
330
2
100
AcDbEntity
  8
GAIKEI
  6
Continuous
100
AcDbCircle
 10
27.30514372420624
 20
13.97036828715079
 30
0.0
 40
0.4
100
AcDbArc
 50
110.7426078286024
 51
136.5705443455903
  0
ARC
  5
81
330
2
100
AcDbEntity
  8
GAIKEI
  6
Continuous
100
AcDbCircle
 10
13.41285467581622
 20
7.411714997210793
 30
0.0
 40
0.2
100
AcDbArc
 50
179.7873684543011
 51
209.7449177691146
  0
ARC
  5
82
330
2
100
AcDbEntity
  8
GAIKEI
  6
Continuous
100
AcDbCircle
 10
26.41265732212616
 20
7.411714997210793
 30
0.0
 40
0.2000000000002
100
AcDbArc
 50
330.2550822309096
 51
0.2126315456988804
  0
ARC
  5
83
330
2
100
AcDbEntity
  8
GAIKEI
  6
Continuous
 62
     1
100
AcDbCircle
 10
65.53005061765623
 20
5.274834600310782
 30
0.0
 40
40.0000000000002
100
AcDbArc
 50
177.3144217014016
 51
177.8263135506983
  0
SPLINE
  5
84
330
2
100
AcDbEntity
  8
GAIKEI
  6
Continuous
100
AcDbSpline
210
0.0
220
0.0
230
1.0
 70
     8
 71
     3
 72
    11
 73
     7
 74
     5
 42
0.0000000001
 43
0.0000000001
 44
0.00000000001
 40
0.0
 40
0.0
 40
0.0
 40
0.0
 40
0.0070425008787811
 40
0.0144966585155149
 40
0.0240148937138105
 40
0.2783153283160376
 40
0.2783153283160376
 40
0.2783153283160376
 40
0.2783153283160376
 10
13.19321536595618
 20
7.919324690030805
 30
0.0
 10
13.19344797342153
 20
7.916987831360856
 30
0.0
 10
13.19392678500442
 20
7.912177517138644
 30
0.0
 10
13.19407649604857
 20
7.90416819404416
 30
0.0
 10
13.19369636866203
 20
7.813755491276893
 30
0.0
 10
13.19384558504585
 20
7.725810608880948
 30
0.0
 10
13.1939894178962
 20
7.641038663698907
 30
0.0
 11
13.19321536595618
 21
7.919324690030805
 31
0.0
 11
13.19382151569721
 21
7.912308323369984
 31
0.0
 11
13.194038631632
 21
7.904857328352932
 31
0.0
 11
13.19404005087318
 21
7.895339093260446
 31
0.0
 11
13.1939894178962
 21
7.641038663698907
 31
0.0
  0
SPLINE
  5
85
330
2
100
AcDbEntity
  8
GAIKEI
  6
Continuous
 62
     1
100
AcDbSpline
210
0.0
220
0.0
230
1.0
 70
     8
 71
     3
 72
    11
 73
     7
 74
     5
 42
0.0000000001
 43
0.0000000001
 44
0.00000000001
 40
0.0
 40
0.0
 40
0.0
 40
0.0
 40
0.212470015308936
 40
0.4249521075803601
 40
0.6374967879951914
 40
0.8500544262129533
 40
0.8500544262129533
 40
0.8500544262129533
 40
0.8500544262129533
 10
14.6947933318562
 20
16.24877479427076
 30
0.0
 10
14.69354403125567
 20
16.31958723807453
 30
0.0
 10
14.69104535904333
 20
16.46121615071699
 30
0.0
 10
14.68847747032555
 20
16.67370042451706
 30
0.0
 10
14.68669599593525
 20
16.88622195377789
 30
0.0
 10
14.68629470090658
 20
17.02792240768715
 30
0.0
 10
14.68609404727618
 20
17.09877479427075
 30
0.0
 11
14.6947933318562
 21
16.24877479427076
 31
0.0
 11
14.691242151545
 21
16.46121513065671
 31
0.0
 11
14.68860880260115
 21
16.67368090439305
 31
0.0
 11
14.68689264095877
 21
16.88621865624401
 31
0.0
 11
14.68609404727618
 21
17.09877479427075
 31
0.0
  0
SPLINE
  5
86
330
2
100
AcDbEntity
  8
GAIKEI
  6
Continuous
 62
     1
100
AcDbSpline
210
0.0
220
0.0
230
1.0
 70
    24
 71
     3
 72
     9
 73
     5
 74
     3
 42
0.0000000001
 43
0.0000000001
 44
0.00000000001
 40
0.0
 40
0.0
 40
0.0
 40
0.0
 40
0.0022843617862777
 40
0.0045687235725767
 40
0.0045687235725767
 40
0.0045687235725767
 40
0.0045687235725767
 10
14.68780720399616
 20
17.10301016074078
 30
0.0
 10
14.68752167787616
 20
17.1023042663291
 30
0.0
 10
14.68695062563621
 20
17.10089247750576
 30
0.0
 10
14.68637957339619
 20
17.0994806886824
 30
0.0
 10
14.68609404727618
 20
17.09877479427075
 30
0.0
 11
14.68780720399616
 21
17.10301016074078
 31
0.0
 11
14.6869506256362
 21
17.10089247750576
 31
0.0
 11
14.68609404727618
 21
17.09877479427075
 31
0.0
  0
SPLINE
  5
87
330
2
100
AcDbEntity
  8
GAIKEI
  6
Continuous
 62
     1
100
AcDbSpline
210
0.0
220
0.0
230
1.0
 70
     8
 71
     3
 72
    11
 73
     7
 74
     5
 42
0.0000000001
 43
0.0000000001
 44
0.00000000001
 40
0.0
 40
0.0
 40
0.0
 40
0.0
 40
0.0402311718259866
 40
0.0801994469860423
 40
0.1188532388713164
 40
0.1572441341139072
 40
0.1572441341139072
 40
0.1572441341139072
 40
0.1572441341139072
 10
14.74678507468621
 20
17.24877479427076
 30
0.0
 10
14.74175407446968
 20
17.23634388066027
 30
0.0
 10
14.73172494986705
 20
17.21156328512097
 30
0.0
 10
14.71686454632086
 20
17.17483816797443
 30
0.0
 10
14.70223594274114
 20
17.13868099721003
 30
0.0
 10
14.69260583008932
 20
17.11487336026717
 30
0.0
 10
14.68780720399616
 20
17.10301016074078
 30
0.0
 11
14.74678507468621
 21
17.24877479427076
 31
0.0
 11
14.73169249281898
 21
17.211481883965
 31
0.0
 11
14.71670049091818
 21
17.17443187859015
 31
0.0
 11
14.70220352401958
 21
17.13859958061959
 31
0.0
 11
14.68780720399616
 21
17.10301016074078
 31
0.0
  0
SPLINE
  5
88
330
2
100
AcDbEntity
  8
GAIKEI
  6
Continuous
 62
     1
100
AcDbSpline
210
0.0
220
0.0
230
1.0
 70
     8
 71
     3
 72
    15
 73
    11
 74
     9
 42
0.0000000001
 43
0.0000000001
 44
0.00000000001
 40
0.0
 40
0.0
 40
0.0
 40
0.0
 40
0.0617052006856488
 40
0.1203405200966811
 40
0.1672794744531514
 40
0.2116347872157201
 40
0.257753872272596
 40
0.3067263281555163
 40
0.3710424782827018
 40
0.4386612582662966
 40
0.4386612582662966
 40
0.4386612582662966
 40
0.4386612582662966
 10
14.9553928773862
 20
15.94877479427075
 30
0.0
 10
14.93474266702425
 20
15.9503565379333
 30
0.0
 10
14.8944696101757
 20
15.95344133229254
 30
0.0
 10
14.84281919395816
 20
15.97702745360109
 30
0.0
 10
14.80225420841859
 20
16.00639968808711
 30
0.0
 10
14.76959087709615
 20
16.03884282650588
 30
0.0
 10
14.74275881318785
 20
16.0770498254655
 30
0.0
 10
14.71830977200267
 20
16.12432921211314
 30
0.0
 10
14.69923007246535
 20
16.18218108069882
 30
0.0
 10
14.69629672152985
 20
16.22620951265219
 30
0.0
 10
14.6947933318562
 20
16.24877479427076
 30
0.0
 11
14.9553928773862
 21
15.94877479427075
 31
0.0
 11
14.89426145844356
 21
15.95717011497433
 31
0.0
 11
14.84045197669138
 21
15.98046475719084
 31
0.0
 11
14.80234818473059
 21
16.00787582200576
 31
0.0
 11
14.77099483047976
 21
16.03925034905379
 31
0.0
 11
14.74418116364597
 21
16.07677363885372
 31
0.0
 11
14.72167729671418
 21
16.1202693559799
 31
0.0
 11
14.702188012323
 21
16.18156156560806
 31
0.0
 11
14.6947933318562
 21
16.24877479427076
 31
0.0
  0
SPLINE
  5
89
330
2
100
AcDbEntity
  8
GAIKEI
  6
Continuous
100
AcDbSpline
210
0.0
220
0.0
230
1.0
 70
    24
 71
     3
 72
     9
 73
     5
 74
     3
 42
0.0000000001
 43
0.0000000001
 44
0.00000000001
 40
0.0
 40
0.0
 40
0.0
 40
0.0
 40
0.0067094860305831
 40
0.0134189720612232
 40
0.0134189720612232
 40
0.0134189720612232
 40
0.0134189720612232
 10
29.02624628404618
 20
17.22877595861075
 30
0.0
 10
29.02623659635955
 20
17.22653948424911
 30
0.0
 10
29.02621722098627
 20
17.22206653552578
 30
0.0
 10
29.02619784561286
 20
17.21759358680242
 30
0.0
 10
29.02618815792619
 20
17.21535711244075
 30
0.0
 11
29.02624628404618
 21
17.22877595861075
 31
0.0
 11
29.02621722098621
 21
17.22206653552578
 31
0.0
 11
29.02618815792619
 21
17.21535711244075
 31
0.0
  0
SPLINE
  5
8A
330
2
100
AcDbEntity
  8
GAIKEI
  6
Continuous
100
AcDbSpline
210
0.0
220
0.0
230
1.0
 70
    24
 71
     3
 72
     9
 73
     5
 74
     3
 42
0.0000000001
 43
0.0000000001
 44
0.00000000001
 40
0.0
 40
0.0
 40
0.0
 40
0.0
 40
0.0017667182770289
 40
0.0035334365540578
 40
0.0035334365540578
 40
0.0035334365540578
 40
0.0035334365540578
 10
29.16011781800614
 20
17.10126489247076
 30
0.0
 10
29.16053582837282
 20
17.10085006995577
 30
0.0
 10
29.16137184910616
 20
17.10002042492576
 30
0.0
 10
29.16220786983949
 20
17.09919077989575
 30
0.0
 10
29.16262588020618
 20
17.09877595738075
 30
0.0
 11
29.16011781800614
 21
17.10126489247076
 31
0.0
 11
29.16137184910616
 21
17.10002042492576
 31
0.0
 11
29.16262588020618
 21
17.09877595738075
 31
0.0
  0
SPLINE
  5
8B
330
2
100
AcDbEntity
  8
GAIKEI
  6
Continuous
100
AcDbSpline
210
0.0
220
0.0
230
1.0
 70
    24
 71
     3
 72
     9
 73
     5
 74
     3
 42
0.0000000001
 43
0.0000000001
 44
0.00000000001
 40
0.0
 40
0.0
 40
0.0
 40
0.0
 40
0.0302260004086946
 40
0.0604520008173486
 40
0.0604520008173486
 40
0.0604520008173486
 40
0.0604520008173486
 10
29.11692353285622
 20
17.14355789583075
 30
0.0
 10
29.12412258038121
 20
17.13650906193743
 30
0.0
 10
29.13852067543121
 20
17.12241139415079
 30
0.0
 10
29.15291877048118
 20
17.10831372636411
 30
0.0
 10
29.16011781800614
 20
17.10126489247076
 30
0.0
 11
29.11692353285622
 21
17.14355789583075
 31
0.0
 11
29.13852067543121
 21
17.12241139415076
 31
0.0
 11
29.16011781800614
 21
17.10126489247076
 31
0.0
  0
SPLINE
  5
8C
330
2
100
AcDbEntity
  8
GAIKEI
  6
Continuous
100
AcDbSpline
210
0.0
220
0.0
230
1.0
 70
    24
 71
     3
 72
     9
 73
     5
 74
     3
 42
0.0000000001
 43
0.0000000001
 44
0.00000000001
 40
0.0
 40
0.0
 40
0.0
 40
0.0
 40
0.0313980546932482
 40
0.0627961093864964
 40
0.0627961093864964
 40
0.0627961093864964
 40
0.0627961093864964
 10
29.0714692309162
 20
17.18688522888075
 30
0.0
 10
29.0790449479062
 20
17.17966400670575
 30
0.0
 10
29.09419638188621
 20
17.16522156235575
 30
0.0
 10
29.10934781586622
 20
17.15077911800576
 30
0.0
 10
29.11692353285622
 20
17.14355789583075
 30
0.0
 11
29.0714692309162
 21
17.18688522888075
 31
0.0
 11
29.09419638188621
 21
17.16522156235575
 31
0.0
 11
29.11692353285622
 21
17.14355789583075
 31
0.0
  0
SPLINE
  5
8D
330
2
100
AcDbEntity
  8
GAIKEI
  6
Continuous
100
AcDbSpline
210
0.0
220
0.0
230
1.0
 70
    24
 71
     3
 72
     9
 73
     5
 74
     3
 42
0.0000000001
 43
0.0000000001
 44
0.00000000001
 40
0.0
 40
0.0
 40
0.0
 40
0.0
 40
0.0308218597789062
 40
0.0616437195577931
 40
0.0616437195577931
 40
0.0616437195577931
 40
0.0616437195577931
 10
29.02624628404618
 20
17.22877595861075
 30
0.0
 10
29.03378344185787
 20
17.22179417032242
 30
0.0
 10
29.04885775748117
 20
17.20783059374574
 30
0.0
 10
29.06393207310453
 20
17.19386701716907
 30
0.0
 10
29.0714692309162
 20
17.18688522888075
 30
0.0
 11
29.02624628404618
 21
17.22877595861075
 31
0.0
 11
29.04885775748119
 21
17.20783059374574
 31
0.0
 11
29.0714692309162
 21
17.18688522888075
 31
0.0
  0
SPLINE
  5
8E
330
2
100
AcDbEntity
  8
GAIKEI
  6
Continuous
100
AcDbSpline
210
0.0
220
0.0
230
1.0
 70
    24
 71
     3
 72
     9
 73
     5
 74
     3
 42
0.0000000001
 43
0.0000000001
 44
0.00000000001
 40
0.0
 40
0.0
 40
0.0
 40
0.0
 40
0.0001382867496933
 40
0.0002765734993865
 40
0.0002765734993865
 40
0.0002765734993865
 40
0.0002765734993865
 10
13.20284881533615
 20
7.919297028230801
 30
0.0
 10
13.20289467978781
 20
7.919301638530797
 30
0.0
 10
13.20298640869116
 20
7.919310859130803
 30
0.0
 10
13.20307813759451
 20
7.919320079730795
 30
0.0
 10
13.20312400204619
 20
7.919324690030805
 30
0.0
 11
13.20284881533615
 21
7.919297028230801
 31
0.0
 11
13.20298640869117
 21
7.919310859130803
 31
0.0
 11
13.20312400204619
 21
7.919324690030805
 31
0.0
  0
SPLINE
  5
8F
330
2
100
AcDbEntity
  8
GAIKEI
  6
Continuous
 62
     1
100
AcDbSpline
210
0.0
220
0.0
230
1.0
 70
     8
 71
     3
 72
    11
 73
     7
 74
     5
 42
0.0000000001
 43
0.0000000001
 44
0.00000000001
 40
0.0
 40
0.0
 40
0.0
 40
0.0
 40
0.0383906907548082
 40
0.0770443365777434
 40
0.1170127578021126
 40
0.1572441341176598
 40
0.1572441341176598
 40
0.1572441341176598
 40
0.1572441341176598
 10
17.89751746433615
 20
17.10301016074078
 30
0.0
 10
17.90231606486915
 20
17.11487329707842
 30
0.0
 10
17.91194613370352
 20
17.13868082569787
 30
0.0
 10
17.92657471170514
 20
17.17483793328144
 30
0.0
 10
17.94143514080538
 20
17.21156311362064
 30
0.0
 10
17.95146430924704
 20
17.23634381747595
 30
0.0
 10
17.95649533503621
 20
17.24877479427076
 30
0.0
 11
17.89751746433615
 21
17.10301016074078
 31
0.0
 11
17.91191370767438
 21
17.13859939105526
 31
0.0
 11
17.9264106197798
 21
17.17443155363042
 31
0.0
 11
17.94140267645622
 21
17.21148169440991
 31
0.0
 11
17.95649533503621
 21
17.24877479427076
 31
0.0
  0
SPLINE
  5
90
330
2
100
AcDbEntity
  8
GAIKEI
  6
Continuous
 62
     1
100
AcDbSpline
210
0.0
220
0.0
230
1.0
 70
    24
 71
     3
 72
     9
 73
     5
 74
     3
 42
0.0000000001
 43
0.0000000001
 44
0.00000000001
 40
0.0
 40
0.0
 40
0.0
 40
0.0
 40
0.0022843617844233
 40
0.0045687235688253
 40
0.0045687235688253
 40
0.0045687235688253
 40
0.0045687235688253
 10
17.89580430762618
 20
17.09877479427075
 30
0.0
 10
17.89608983374452
 20
17.09948068868242
 30
0.0
 10
17.89666088598122
 20
17.10089247750576
 30
0.0
 10
17.89723193821781
 20
17.10230426632907
 30
0.0
 10
17.89751746433615
 20
17.10301016074078
 30
0.0
 11
17.89580430762618
 21
17.09877479427075
 31
0.0
 11
17.89666088598119
 21
17.10089247750576
 31
0.0
 11
17.89751746433615
 21
17.10301016074078
 31
0.0
  0
SPLINE
  5
91
330
2
100
AcDbEntity
  8
GAIKEI
  6
Continuous
 62
     1
100
AcDbSpline
210
0.0
220
0.0
230
1.0
 70
    24
 71
     3
 72
     9
 73
     5
 74
     3
 42
0.0000000001
 43
0.0000000001
 44
0.00000000001
 40
0.0
 40
0.0
 40
0.0
 40
0.0
 40
0.0059487093125529
 40
0.0118974186249934
 40
0.0118974186249934
 40
0.0118974186249934
 40
0.0118974186249934
 10
17.6267619062362
 20
15.94902377279075
 30
0.0
 10
17.62477943737951
 20
15.94898227637077
 30
0.0
 10
17.62081449966618
 20
15.94889928353081
 30
0.0
 10
17.61684956195286
 20
15.94881629069074
 30
0.0
 10
17.61486709309622
 20
15.94877479427075
 30
0.0
 11
17.6267619062362
 21
15.94902377279075
 31
0.0
 11
17.62081449966615
 21
15.94889928353078
 31
0.0
 11
17.61486709309622
 21
15.94877479427075
 31
0.0
  0
SPLINE
  5
92
330
2
100
AcDbEntity
  8
GAIKEI
  6
Continuous
 62
     1
100
AcDbSpline
210
0.0
220
0.0
230
1.0
 70
     8
 71
     3
 72
    15
 73
    11
 74
     9
 42
0.0000000001
 43
0.0000000001
 44
0.00000000001
 40
0.0
 40
0.0
 40
0.0
 40
0.0
 40
0.0688774056321134
 40
0.1343296846576651
 40
0.1852072485105712
 40
0.2334823568339046
 40
0.2801952192140424
 40
0.3294453685820891
 40
0.3895207650111549
 40
0.4520593824182479
 40
0.4520593824182479
 40
0.4520593824182479
 40
0.4520593824182479
 10
17.9045035922062
 20
16.24877479427076
 30
0.0
 10
17.90360853537
 20
16.22572109432342
 30
0.0
 10
17.90186293096671
 20
16.18076010580043
 30
0.0
 10
17.8810396402071
 20
16.12172273057149
 30
0.0
 10
17.85361905077543
 20
16.07405366074256
 30
0.0
 10
17.82306896146882
 20
16.03590606374886
 30
0.0
 10
17.78654077988941
 20
16.00426378962609
 30
0.0
 10
17.74225656938171
 20
15.97673916882001
 30
0.0
 10
17.68845468601965
 20
15.95508285228227
 30
0.0
 10
17.64759974756607
 20
15.9510703354111
 30
0.0
 10
17.6267619062362
 20
15.94902377279075
 30
0.0
 11
17.9045035922062
 21
16.24877479427076
 31
0.0
 11
17.89830660745758
 21
16.18017673025554
 31
0.0
 11
17.87740675635501
 21
16.11815095292442
 31
0.0
 11
17.85206670769816
 21
16.07403283377056
 31
0.0
 11
17.82166692917758
 21
16.03653163979584
 31
0.0
 11
17.78648857920621
 21
16.00579769756518
 31
0.0
 11
17.74467994527856
 21
15.97976665183361
 31
0.0
 11
17.68863267335217
 21
15.95813897128948
 31
0.0
 11
17.6267619062362
 21
15.94902377279075
 31
0.0
  0
SPLINE
  5
93
330
2
100
AcDbEntity
  8
GAIKEI
  6
Continuous
100
AcDbSpline
210
0.0
220
0.0
230
1.0
 70
    24
 71
     3
 72
     9
 73
     5
 74
     3
 42
0.0000000001
 43
0.0000000001
 44
0.00000000001
 40
0.0
 40
0.0
 40
0.0
 40
0.0
 40
0.0333856128989351
 40
0.0667712257978511
 40
0.0667712257978511
 40
0.0667712257978511
 40
0.0667712257978511
 10
29.1083558361762
 20
17.14378306591078
 30
0.0
 10
29.11657633355286
 20
17.13628188115575
 30
0.0
 10
29.13301732830621
 20
17.12127951164575
 30
0.0
 10
29.14945832305956
 20
17.10627714213577
 30
0.0
 10
29.15767882043622
 20
17.09877595738075
 30
0.0
 11
29.1083558361762
 21
17.14378306591078
 31
0.0
 11
29.13301732830621
 21
17.12127951164575
 31
0.0
 11
29.15767882043622
 21
17.09877595738075
 31
0.0
  0
SPLINE
  5
94
330
2
100
AcDbEntity
  8
GAIKEI
  6
Continuous
100
AcDbSpline
210
0.0
220
0.0
230
1.0
 70
    24
 71
     3
 72
     9
 73
     5
 74
     3
 42
0.0000000001
 43
0.0000000001
 44
0.00000000001
 40
0.0
 40
0.0
 40
0.0
 40
0.0
 40
0.0162583102151243
 40
0.0325166204302485
 40
0.0325166204302485
 40
0.0325166204302485
 40
0.0325166204302485
 10
29.08407226219618
 20
17.16540801999076
 30
0.0
 10
29.08811952452618
 20
17.16180386097743
 30
0.0
 10
29.09621404918619
 20
17.15459554295077
 30
0.0
 10
29.1043085738462
 20
17.1473872249241
 30
0.0
 10
29.1083558361762
 20
17.14378306591078
 30
0.0
 11
29.08407226219618
 21
17.16540801999076
 31
0.0
 11
29.09621404918619
 21
17.15459554295077
 31
0.0
 11
29.1083558361762
 21
17.14378306591078
 31
0.0
  0
SPLINE
  5
95
330
2
100
AcDbEntity
  8
GAIKEI
  6
Continuous
100
AcDbSpline
210
0.0
220
0.0
230
1.0
 70
    24
 71
     3
 72
     9
 73
     5
 74
     3
 42
0.0000000001
 43
0.0000000001
 44
0.00000000001
 40
0.0
 40
0.0
 40
0.0
 40
0.0
 40
0.0164706686618097
 40
0.0329413373236194
 40
0.0329413373236194
 40
0.0329413373236194
 40
0.0329413373236194
 10
29.05929027450623
 20
17.18711020400076
 30
0.0
 10
29.06342060578788
 20
17.18349317333242
 30
0.0
 10
29.0716812683512
 20
17.17625911199576
 30
0.0
 10
29.0799419309145
 20
17.1690250506591
 30
0.0
 10
29.08407226219618
 20
17.16540801999076
 30
0.0
 11
29.05929027450623
 21
17.18711020400076
 31
0.0
 11
29.0716812683512
 21
17.17625911199576
 31
0.0
 11
29.08407226219618
 21
17.16540801999076
 31
0.0
  0
SPLINE
  5
96
330
2
100
AcDbEntity
  8
GAIKEI
  6
Continuous
100
AcDbSpline
210
0.0
220
0.0
230
1.0
 70
    24
 71
     3
 72
     9
 73
     5
 74
     3
 42
0.0000000001
 43
0.0000000001
 44
0.00000000001
 40
0.0
 40
0.0
 40
0.0
 40
0.0
 40
0.0320942225738318
 40
0.0641884451476266
 40
0.0641884451476266
 40
0.0641884451476266
 40
0.0641884451476266
 10
29.0104628090462
 20
17.22877595861075
 30
0.0
 10
29.01860071995621
 20
17.22183166617574
 30
0.0
 10
29.03487654177619
 20
17.20794308130573
 30
0.0
 10
29.05115236359622
 20
17.19405449643574
 30
0.0
 10
29.05929027450623
 20
17.18711020400076
 30
0.0
 11
29.0104628090462
 21
17.22877595861075
 31
0.0
 11
29.03487654177622
 21
17.20794308130573
 31
0.0
 11
29.05929027450623
 21
17.18711020400076
 31
0.0
  0
SPLINE
  5
97
330
2
100
AcDbEntity
  8
GAIKEI
  6
Continuous
100
AcDbSpline
210
0.0
220
0.0
230
1.0
 70
     8
 71
     3
 72
    19
 73
    15
 74
    13
 42
0.0000000001
 43
0.0000000001
 44
0.00000000001
 40
0.0
 40
0.0
 40
0.0
 40
0.0
 40
0.0935790822119454
 40
0.1873309301194468
 40
0.2816879421467152
 40
0.372850498195611
 40
0.4784523191416543
 40
0.5837938787141991
 40
0.7158567331129962
 40
0.8037495831020331
 40
1.273052470924064
 40
2.000617835096872
 40
4.318791666272441
 40
6.975500352367992
 40
6.975500352367992
 40
6.975500352367992
 40
6.975500352367992
 10
27.01465518638622
 20
14.24535266743069
 30
0.0
 10
26.99336886493272
 20
14.22252873883097
 30
0.0
 10
26.95075692322041
 20
14.17683874409602
 30
0.0
 10
26.89366799538146
 20
14.10213184996689
 30
0.0
 10
26.84146743304842
 20
14.02501092345142
 30
0.0
 10
26.79188549694963
 20
13.94153329656458
 30
0.0
 10
26.74543449113219
 20
13.85210435436599
 30
0.0
 10
26.69889415771681
 20
13.74764615704187
 30
0.0
 10
26.65782183238888
 20
13.64720767429348
 30
0.0
 10
26.58807693886045
 20
13.42806476811341
 30
0.0
 10
26.52443459862673
 20
13.00280052212299
 30
0.0
 10
26.33496977601065
 20
11.84806558624281
 30
0.0
 10
26.25326894053686
 20
9.934308116927184
 30
0.0
 10
26.48754618065988
 20
8.290363675217662
 30
0.0
 10
26.61265594488617
 20
7.412457219620819
 30
0.0
 11
27.01465518638622
 21
14.24535266743069
 31
0.0
 11
26.95195560369899
 21
14.17588463911207
 31
0.0
 11
26.89452657802559
 21
14.10178122491086
 31
0.0
 11
26.84166714377096
 21
14.02362032721262
 31
0.0
 11
26.79504397709161
 21
13.94528200993329
 31
0.0
 11
26.74634995954699
 21
13.85157695541389
 31
0.0
 11
26.70296024119938
 21
13.755586453202
 31
0.0
 11
26.65423293098161
 21
13.63284181278581
 31
0.0
 11
26.62738728625141
 21
13.54914913426364
 31
0.0
 11
26.53642476484094
 21
13.08874602804394
 31
0.0
 11
26.42758336257896
 21
12.36936788805249
 31
0.0
 11
26.32446517606979
 21
10.05348867031287
 31
0.0
 11
26.61265594488617
 21
7.412457219620819
 31
0.0
  0
SPLINE
  5
98
330
2
100
AcDbEntity
  8
GAIKEI
  6
Continuous
100
AcDbSpline
210
0.0
220
0.0
230
1.0
 70
    24
 71
     3
 72
     9
 73
     5
 74
     3
 42
0.0000000001
 43
0.0000000001
 44
0.00000000001
 40
0.0
 40
0.0
 40
0.0
 40
0.0
 40
0.0144119621611371
 40
0.0288239243222741
 40
0.0288239243222741
 40
0.0288239243222741
 40
0.0288239243222741
 10
13.22375522251616
 20
7.948132015830793
 30
0.0
 10
13.2235889726345
 20
7.943330905980786
 30
0.0
 10
13.22325647287118
 20
7.933728686280801
 30
0.0
 10
13.22292397310787
 20
7.924126466580801
 30
0.0
 10
13.22275772322621
 20
7.919325356730809
 30
0.0
 11
13.22375522251616
 21
7.948132015830793
 31
0.0
 11
13.22325647287118
 21
7.933728686280801
 31
0.0
 11
13.22275772322621
 21
7.919325356730809
 31
0.0
  0
SPLINE
  5
99
330
2
100
AcDbEntity
  8
GAIKEI
  6
Continuous
100
AcDbSpline
210
0.0
220
0.0
230
1.0
 70
    24
 71
     3
 72
     9
 73
     5
 74
     3
 42
0.0000000001
 43
0.0000000001
 44
0.00000000001
 40
0.0
 40
0.0
 40
0.0
 40
0.0
 40
0.0309623030547211
 40
0.0619246061094422
 40
0.0619246061094422
 40
0.0619246061094422
 40
0.0619246061094422
 10
13.22603715695618
 20
8.01001456278081
 30
0.0
 10
13.22565683454951
 20
7.999700804955807
 30
0.0
 10
13.22489618973617
 20
7.979073289305787
 30
0.0
 10
13.22413554492284
 20
7.95844577365581
 30
0.0
 10
13.22375522251616
 20
7.948132015830793
 30
0.0
 11
13.22603715695618
 21
8.01001456278081
 31
0.0
 11
13.22489618973617
 21
7.979073289305802
 31
0.0
 11
13.22375522251616
 21
7.948132015830793
 31
0.0
  0
SPLINE
  5
9A
330
2
100
AcDbEntity
  8
GAIKEI
  6
Continuous
100
AcDbSpline
210
0.0
220
0.0
230
1.0
 70
     8
 71
     3
 72
    19
 73
    15
 74
    13
 42
0.0000000001
 43
0.0000000001
 44
0.00000000001
 40
0.0
 40
0.0
 40
0.0
 40
0.0
 40
0.0935790858806224
 40
0.1873309540650582
 40
0.2816879267370136
 40
0.3728503732781729
 40
0.478452465553567
 40
0.583794777547126
 40
0.7171433376420131
 40
0.8089206219499795
 40
1.25592439935331
 40
1.926874893386887
 40
4.002191881906853
 40
6.375336994941096
 40
6.375336994941096
 40
6.375336994941096
 40
6.375336994941096
 10
12.81085681156617
 20
14.24535266743069
 30
0.0
 10
12.83214312383842
 20
14.22252873306183
 30
0.0
 10
12.87475505094761
 20
14.17683872272887
 30
0.0
 10
12.93184412411088
 20
14.10213190393287
 30
0.0
 10
12.98404416263156
 20
14.02501079113865
 30
0.0
 10
13.03362795134603
 20
13.94153392368405
 30
0.0
 10
13.0800707633141
 20
13.85210101855472
 30
0.0
 10
13.12682108833628
 20
13.74726670758863
 30
0.0
 10
13.16838503092559
 20
13.64515990674474
 30
0.0
 10
13.23571438579897
 20
13.43124498553197
 30
0.0
 10
13.29804546007222
 20
13.0313940166241
 30
0.0
 10
13.47038583830157
 20
11.98223279449504
 30
0.0
 10
13.54631246933341
 20
10.26449122850543
 30
0.0
 10
13.33745661698725
 20
8.794316577454466
 30
0.0
 10
13.22603715695618
 20
8.01001456278081
 30
0.0
 11
12.81085681156617
 21
14.24535266743069
 31
0.0
 11
12.87355639640521
 21
14.17588463611221
 31
0.0
 11
12.93098544459837
 21
14.10178121371015
 31
0.0
 11
12.98384484717559
 21
14.02362034209912
 31
0.0
 11
13.03046788679
 21
13.94528207663146
 31
0.0
 11
13.07916210813158
 21
13.85157682223834
 31
0.0
 11
13.12255267768438
 21
13.75558587907164
 31
0.0
 11
13.17159154457039
 21
13.63158173392352
 31
0.0
 11
13.1993696730338
 21
13.54410919255187
 31
0.0
 11
13.2869436893958
 21
13.10576780884384
 31
0.0
 11
13.38817667409841
 21
12.44249829480591
 31
0.0
 11
13.48207957993679
 21
10.36930683063414
 31
0.0
 11
13.22603715695618
 21
8.01001456278081
 31
0.0
  0
SPLINE
  5
9B
330
2
100
AcDbEntity
  8
GAIKEI
  6
Continuous
100
AcDbSpline
210
0.0
220
0.0
230
1.0
 70
    24
 71
     3
 72
     9
 73
     5
 74
     3
 42
0.0000000001
 43
0.0000000001
 44
0.00000000001
 40
0.0
 40
0.0
 40
0.0
 40
0.0
 40
0.1142026968711755
 40
0.2284053937423233
 40
0.2284053937423233
 40
0.2284053937423233
 40
0.2284053937423233
 10
13.21541476093614
 20
7.6408482809708
 30
0.0
 10
13.21498830962284
 20
7.602783104079136
 30
0.0
 10
13.21413540699623
 20
7.526652750295809
 30
0.0
 10
13.21328250436954
 20
7.450522396512468
 30
0.0
 10
13.21285605305621
 20
7.412457219620819
 30
0.0
 11
13.21541476093614
 21
7.6408482809708
 31
0.0
 11
13.21413540699621
 21
7.526652750295795
 31
0.0
 11
13.21285605305621
 21
7.412457219620819
 31
0.0
  0
SPLINE
  5
9C
330
2
100
AcDbEntity
  8
GAIKEI
  6
Continuous
 62
     1
100
AcDbSpline
210
0.0
220
0.0
230
1.0
 70
     8
 71
     3
 72
    11
 73
     7
 74
     5
 42
0.0000000001
 43
0.0000000001
 44
0.00000000001
 40
0.0
 40
0.0
 40
0.0
 40
0.0
 40
0.2125578885479547
 40
0.4251027477701707
 40
0.6375846612369
 40
0.8500544262129313
 40
0.8500544262129313
 40
0.8500544262129313
 40
0.8500544262129313
 10
17.89580430762618
 20
17.09877479427075
 30
0.0
 10
17.89600496151449
 20
17.02792232424364
 30
0.0
 10
17.89640625699149
 20
16.88622172728827
 30
0.0
 10
17.89818773384968
 20
16.67370011459764
 30
0.0
 10
17.90075562332615
 20
16.46121592425953
 30
0.0
 10
17.90325429305677
 20
16.31958715464235
 30
0.0
 10
17.9045035922062
 20
16.24877479427076
 30
0.0
 11
17.89580430762618
 21
17.09877479427075
 31
0.0
 11
17.89660290263117
 21
16.88621840591702
 31
0.0
 11
17.89831906734514
 21
16.67368047527765
 31
0.0
 11
17.90095241569941
 21
16.46121488035243
 31
0.0
 11
17.9045035922062
 21
16.24877479427076
 31
0.0
  0
SPLINE
  5
9D
330
2
100
AcDbEntity
  8
GAIKEI
  6
Continuous
 62
     1
100
AcDbSpline
210
0.0
220
0.0
230
1.0
 70
     8
 71
     3
 72
     9
 73
     5
 74
     3
 42
0.0000000001
 43
0.0000000001
 44
0.00000000001
 40
0.0
 40
0.0
 40
0.0
 40
0.0
 40
0.1786138805607985
 40
0.3572282677084714
 40
0.3572282677084714
 40
0.3572282677084714
 40
0.3572282677084714
 10
14.48448863423618
 20
7.14878526375071
 30
0.0
 10
14.48732946806191
 20
7.089314915271813
 30
0.0
 10
14.49301114377061
 20
6.970374049643481
 30
0.0
 10
14.49786256162775
 20
6.851396426955929
 30
0.0
 10
14.5002882739962
 20
6.791907531250814
 30
0.0
 11
14.48448863423618
 21
7.14878526375071
 31
0.0
 11
14.4928035718392
 21
6.970365029075253
 31
0.0
 11
14.5002882739962
 21
6.791907531250814
 31
0.0
  0
SPLINE
  5
9E
330
2
100
AcDbEntity
  8
GAIKEI
  6
Continuous
 62
     1
100
AcDbSpline
210
0.0
220
0.0
230
1.0
 70
     8
 71
     3
 72
    19
 73
    15
 74
    13
 42
0.0000000001
 43
0.0000000001
 44
0.00000000001
 40
0.0
 40
0.0
 40
0.0
 40
0.0
 40
0.5651539403202141
 40
1.128874970203972
 40
1.683665501406875
 40
2.237319408092941
 40
2.785579591575213
 40
3.334710894600753
 40
3.8773793412363
 40
4.409669189438221
 40
4.981676105322915
 40
5.564594013940703
 40
6.246588386022811
 40
6.950564911205511
 40
6.950564911205511
 40
6.950564911205511
 40
6.950564911205511
 10
21.52679504241621
 20
1.680077679470826
 30
0.0
 10
21.70617650349027
 20
1.7381305758188
 30
0.0
 10
22.06448461580807
 20
1.854089179235643
 30
0.0
 10
22.57370096674296
 20
2.09334341741183
 30
0.0
 10
23.05517381850659
 20
2.375516258168886
 30
0.0
 10
23.50223401221658
 20
2.701329129321749
 30
0.0
 10
23.91414658976248
 20
3.067623061432584
 30
0.0
 10
24.28513347734194
 20
3.470344745557483
 30
0.0
 10
24.61303356340515
 20
3.902171634733221
 30
0.0
 10
24.90023155667386
 20
4.371123587965314
 30
0.0
 10
25.14314907430016
 20
4.879538124831441
 30
0.0
 10
25.35226337539145
 20
5.455724342774544
 30
0.0
 10
25.50843565126494
 20
6.096140852148153
 30
0.0
 10
25.54185164732518
 20
6.557600850249002
 30
0.0
 10
25.55882464209617
 20
6.791990336070796
 30
0.0
 11
21.52679504241621
 21
1.680077679470826
 31
0.0
 11
22.06070734498297
 21
1.865379135016439
 31
0.0
 11
22.57227911981778
 21
2.102182257304917
 31
0.0
 11
23.05047934466995
 21
2.383459839887905
 31
0.0
 11
23.49802484295998
 21
2.709397986395913
 31
0.0
 11
23.9075518440182
 21
3.073920776076164
 31
0.0
 11
24.27988244631559
 21
3.477548216366585
 31
0.0
 11
24.60759040853543
 21
3.910094785502849
 31
0.0
 11
24.88550468270603
 21
4.364072911309648
 31
0.0
 11
25.1330406476306
 21
4.879745150128826
 31
0.0
 11
25.33171152416497
 21
5.427762641642004
 31
0.0
 11
25.48816422339678
 21
6.091568996277715
 31
0.0
 11
25.55882464209617
 21
6.791990336070796
 31
0.0
  0
SPLINE
  5
9F
330
2
100
AcDbEntity
  8
GAIKEI
  6
Continuous
 62
     1
100
AcDbSpline
210
0.0
220
0.0
230
1.0
 70
     8
 71
     3
 72
    27
 73
    23
 74
    21
 42
0.0000000001
 43
0.0000000001
 44
0.00000000001
 40
0.0
 40
0.0
 40
0.0
 40
0.0
 40
0.5271079456544388
 40
1.032666699791682
 40
1.439685736633579
 40
1.835807584497243
 40
2.193157034052652
 40
2.560515177865326
 40
2.93456755223512
 40
3.308623058963169
 40
3.684577732581121
 40
4.060553890129336
 40
4.438502382062194
 40
4.816474375278328
 40
5.196299630133348
 40
5.576141159438276
 40
5.952346367125255
 40
6.318069860367398
 40
6.727340926513083
 40
7.148221658487429
 40
7.674868302664917
 40
8.224282862383438
 40
8.224282862383438
 40
8.224282862383438
 40
8.224282862383438
 10
14.50028926217618
 20
6.791907570390691
 30
0.0
 10
14.51184115240664
 20
6.616427135291075
 30
0.0
 10
14.53447266926957
 20
6.272640244415555
 30
0.0
 10
14.62842701201594
 20
5.800695029285947
 30
0.0
 10
14.74895318546936
 20
5.381223219598197
 30
0.0
 10
14.88073063493667
 20
5.017127999814448
 30
0.0
 10
15.03431018587321
 20
4.676188355088683
 30
0.0
 10
15.20821162408535
 20
4.353525613866821
 30
0.0
 10
15.40647467956837
 20
4.038619567063506
 30
0.0
 10
15.62835525621612
 20
3.736303257834009
 30
0.0
 10
15.87122055691021
 20
3.449738500979236
 30
0.0
 10
16.13458800953952
 20
3.180076009417064
 30
0.0
 10
16.41664629466794
 20
2.929013479521202
 30
0.0
 10
16.71667426372362
 20
2.697627491456984
 30
0.0
 10
17.03260075669045
 20
2.487311011243164
 30
0.0
 10
17.36207978587032
 20
2.300160473557966
 30
0.0
 10
17.69910123727837
 20
2.137518497944569
 30
0.0
 10
18.05586022147862
 20
1.995310293432453
 30
0.0
 10
18.43656529962722
 20
1.875848837320575
 30
0.0
 10
18.87632784330789
 20
1.769342842188379
 30
0.0
 10
19.37063528168257
 20
1.692010220906922
 30
0.0
 10
19.72951794531006
 20
1.682764668940151
 30
0.0
 10
19.91275599897619
 20
1.678044081630815
 30
0.0
 11
14.50028926217618
 21
6.791907570390691
 31
0.0
 11
14.54660698632762
 21
6.266838570352149
 31
0.0
 11
14.64237376964297
 21
5.770433113997938
 31
0.0
 11
14.75438275113856
 21
5.379129543331856
 31
0.0
 11
14.8900210339246
 21
5.006953812530156
 31
0.0
 11
15.03668272594234
 21
4.681087310428381
 31
0.0
 11
15.21069597014758
 21
4.357557718788513
 31
0.0
 11
15.41014946215262
 21
4.041118967529001
 31
0.0
 11
15.63139422414599
 21
3.739509489222911
 31
0.0
 11
15.87448706265076
 21
3.452720736858253
 31
0.0
 11
16.13714647661516
 21
3.183707534021294
 31
0.0
 11
16.41947069421479
 21
2.932434577436083
 31
0.0
 11
16.71873644396061
 21
2.701560502051137
 31
0.0
 11
17.03494414254419
 21
2.491132567636157
 31
0.0
 11
17.36511353438419
 21
2.303335442853295
 31
0.0
 11
17.70405582802175
 21
2.140091821616465
 31
0.0
 11
18.04382251398635
 21
2.004768975733497
 31
0.0
 11
18.43403348040317
 21
1.881325841975154
 31
0.0
 11
18.84318644374036
 21
1.782662560357039
 31
0.0
 11
19.36396856446475
 21
1.704287369402152
 31
0.0
 11
19.91275599897619
 21
1.678044081630815
 31
0.0
  0
LINE
  5
A0
330
2
100
AcDbEntity
  8
GAIKEI
  6
Continuous
100
AcDbLine
 10
13.66595681859581
 20
7.148774794270792
 30
0.0
 11
26.15955517935657
 21
7.148774794270792
 31
0.0
  0
ARC
  5
A1
330
2
100
AcDbEntity
  8
GAIKEI
  6
S110
 48
0.5
100
AcDbCircle
 10
19.91275599897619
 20
7.348774794270809
 30
0.0
 40
6.25
100
AcDbArc
 50
181.8337780000488
 51
269.9999999999544
  0
ARC
  5
A3
330
2
100
AcDbEntity
  8
GAIKEI
  6
S110
 48
0.5
100
AcDbCircle
 10
19.91275599897619
 20
7.348774794270809
 30
0.0
 40
6.25
100
AcDbArc
 50
269.9999999999544
 51
358.1662219999511
  0
LINE
  5
A4
330
2
100
AcDbEntity
  8
GAIKEI
  6
Continuous
100
AcDbLine
 10
-10.15084338731742
 20
7.217363554850805
 30
0.0
 11
-9.817642567697646
 21
7.217363554850805
 31
0.0
  0
LINE
  5
A5
330
2
100
AcDbEntity
  8
GAIKEI
  6
Continuous
 62
     1
100
AcDbLine
 10
-14.79764256769766
 20
1.746632512530794
 30
0.0
 11
-17.99764256769765
 21
1.746632512530794
 31
0.0
  0
LINE
  5
A6
330
2
100
AcDbEntity
  8
GAIKEI
  6
Continuous
 62
     1
100
AcDbLine
 10
-14.84764256769767
 20
1.796632512530806
 30
0.0
 11
-17.94764256769764
 21
1.796632512530806
 31
0.0
  0
LINE
  5
A7
330
2
100
AcDbEntity
  8
GAIKEI
  6
Continuous
 62
     1
100
AcDbLine
 10
-14.84764256769767
 20
2.103745922510768
 30
0.0
 11
-17.94764256769764
 21
2.103745922510768
 31
0.0
  0
LINE
  5
A8
330
2
100
AcDbEntity
  8
GAIKEI
  6
Continuous
 62
     1
100
AcDbLine
 10
-22.04371954873761
 20
6.860578779650779
 30
0.0
 11
-18.01192791703767
 21
6.860579664690789
 31
0.0
  0
LINE
  5
A9
330
2
100
AcDbEntity
  8
GAIKEI
  6
Continuous
 62
     1
100
AcDbLine
 10
-14.78335721831763
 20
6.860579647570773
 30
0.0
 11
-10.75156558663764
 21
6.860578779650779
 31
0.0
  0
LINE
  5
AA
330
2
100
AcDbEntity
  8
GAIKEI
  6
Continuous
 62
     1
100
AcDbLine
 10
-17.94764256769764
 20
1.796632512530806
 30
0.0
 11
-17.94764256769764
 21
7.217363554850805
 31
0.0
  0
LINE
  5
AB
330
2
100
AcDbEntity
  8
GAIKEI
  6
Continuous
 62
     1
100
AcDbLine
 10
-14.84764256769767
 20
7.217363554850805
 30
0.0
 11
-14.84764256769767
 21
1.796632512530806
 31
0.0
  0
LINE
  5
AC
330
2
100
AcDbEntity
  8
GAIKEI
  6
Continuous
 62
     1
100
AcDbLine
 10
-20.99581006615768
 20
17.48405778400078
 30
0.0
 11
-20.99764256769765
 21
17.47912565282078
 31
0.0
  0
LINE
  5
AD
330
2
100
AcDbEntity
  8
GAIKEI
  6
Continuous
 62
     1
100
AcDbLine
 10
-20.99006062183764
 20
17.4890113995408
 30
0.0
 11
-20.99581006615768
 21
17.48405778400078
 31
0.0
  0
LINE
  5
AE
330
2
100
AcDbEntity
  8
GAIKEI
  6
Continuous
 62
     1
100
AcDbLine
 10
-20.98076005357762
 20
17.49351627927078
 30
0.0
 11
-20.99006062183764
 21
17.4890113995408
 31
0.0
  0
LINE
  5
AF
330
2
100
AcDbEntity
  8
GAIKEI
  6
Continuous
 62
     1
100
AcDbLine
 10
-20.96837995050766
 20
17.49742000872078
 30
0.0
 11
-20.98076005357762
 21
17.49351627927078
 31
0.0
  0
LINE
  5
B0
330
2
100
AcDbEntity
  8
GAIKEI
  6
Continuous
 62
     1
100
AcDbLine
 10
-20.95330969450765
 20
17.5006266016108
 30
0.0
 11
-20.96837995050766
 21
17.49742000872078
 31
0.0
  0
LINE
  5
B1
330
2
100
AcDbEntity
  8
GAIKEI
  6
Continuous
 62
     1
100
AcDbLine
 10
-20.93590509882767
 20
17.5030380377008
 30
0.0
 11
-20.95330969450765
 21
17.5006266016108
 31
0.0
  0
LINE
  5
B2
330
2
100
AcDbEntity
  8
GAIKEI
  6
Continuous
 62
     1
100
AcDbLine
 10
-20.91674031337766
 20
17.5045311859408
 30
0.0
 11
-20.93590509882767
 21
17.5030380377008
 31
0.0
  0
LINE
  5
B3
330
2
100
AcDbEntity
  8
GAIKEI
  6
Continuous
 62
     1
100
AcDbLine
 10
-20.89764256769763
 20
17.50500755733077
 30
0.0
 11
-20.91674031337766
 21
17.5045311859408
 31
0.0
  0
LINE
  5
B4
330
2
100
AcDbEntity
  8
GAIKEI
  6
Continuous
 62
     1
100
AcDbLine
 10
-19.87854482202766
 20
17.5045311859408
 30
0.0
 11
-19.89764256769763
 21
17.50500755733077
 31
0.0
  0
LINE
  5
B5
330
2
100
AcDbEntity
  8
GAIKEI
  6
Continuous
 62
     1
100
AcDbLine
 10
-19.85938003657764
 20
17.5030380377008
 30
0.0
 11
-19.87854482202766
 21
17.5045311859408
 31
0.0
  0
LINE
  5
B6
330
2
100
AcDbEntity
  8
GAIKEI
  6
Continuous
 62
     1
100
AcDbLine
 10
-19.84197544089761
 20
17.5006266016108
 30
0.0
 11
-19.85938003657764
 21
17.5030380377008
 31
0.0
  0
LINE
  5
B7
330
2
100
AcDbEntity
  8
GAIKEI
  6
Continuous
 62
     1
100
AcDbLine
 10
-19.82690518488766
 20
17.49742000872078
 30
0.0
 11
-19.84197544089761
 21
17.5006266016108
 31
0.0
  0
LINE
  5
B8
330
2
100
AcDbEntity
  8
GAIKEI
  6
Continuous
 62
     1
100
AcDbLine
 10
-19.81452508181763
 20
17.49351627927078
 30
0.0
 11
-19.82690518488766
 21
17.49742000872078
 31
0.0
  0
LINE
  5
B9
330
2
100
AcDbEntity
  8
GAIKEI
  6
Continuous
 62
     1
100
AcDbLine
 10
-19.80522451356762
 20
17.4890113995408
 30
0.0
 11
-19.81452508181763
 21
17.49351627927078
 31
0.0
  0
LINE
  5
BA
330
2
100
AcDbEntity
  8
GAIKEI
  6
Continuous
 62
     1
100
AcDbLine
 10
-19.79947506924765
 20
17.48405778400078
 30
0.0
 11
-19.80522451356762
 21
17.4890113995408
 31
0.0
  0
LINE
  5
BB
330
2
100
AcDbEntity
  8
GAIKEI
  6
Continuous
 62
     1
100
AcDbLine
 10
-19.79764256769766
 20
17.47912565282078
 30
0.0
 11
-19.79947506924765
 21
17.48405778400078
 31
0.0
  0
LINE
  5
BC
330
2
100
AcDbEntity
  8
GAIKEI
  6
Continuous
100
AcDbLine
 10
-7.147670778217616
 20
17.16736471796079
 30
0.0
 11
-7.297080072047663
 21
17.3173635548508
 31
0.0
  0
LINE
  5
BD
330
2
100
AcDbEntity
  8
GAIKEI
  6
Continuous
100
AcDbLine
 10
-7.236839233657633
 20
15.35801463008079
 30
0.0
 11
-7.147670778217616
 21
17.16736471796079
 31
0.0
  0
LINE
  5
BE
330
2
100
AcDbEntity
  8
GAIKEI
  6
Continuous
 62
     1
100
AcDbLine
 10
-8.34851012307763
 20
17.4673635548508
 30
0.0
 11
-8.34851012307763
 21
17.3473635548508
 31
0.0
  0
LINE
  5
BF
330
2
100
AcDbEntity
  8
GAIKEI
  6
Continuous
 62
     1
100
AcDbLine
 10
-20.89764256769763
 20
17.50500755733077
 30
0.0
 11
-19.89764256769763
 21
17.50500755733077
 31
0.0
  0
LINE
  5
C0
330
2
100
AcDbEntity
  8
GAIKEI
  6
Continuous
 62
     1
100
AcDbLine
 10
-19.79764256769766
 20
17.4673635548508
 30
0.0
 11
-8.348542511227662
 21
17.4673635548508
 31
0.0
  0
LINE
  5
C1
330
2
100
AcDbEntity
  8
GAIKEI
  6
Continuous
 62
     1
100
AcDbLine
 10
-24.44391140781767
 20
17.4673635548508
 30
0.0
 11
-20.99764256769765
 21
17.4673635548508
 31
0.0
  0
LINE
  5
C2
330
2
100
AcDbEntity
  8
GAIKEI
  6
Continuous
 62
     1
100
AcDbLine
 10
-19.79764256769766
 20
17.3473635548508
 30
0.0
 11
-8.348530131487677
 21
17.3473635548508
 31
0.0
  0
LINE
  5
C3
330
2
100
AcDbEntity
  8
GAIKEI
  6
Continuous
 62
     1
100
AcDbLine
 10
-24.44392378755765
 20
17.3473635548508
 30
0.0
 11
-20.99764256769765
 21
17.3473635548508
 31
0.0
  0
LINE
  5
C4
330
2
100
AcDbEntity
  8
GAIKEI
  6
Continuous
100
AcDbLine
 10
-25.49813297375767
 20
17.3173635548508
 30
0.0
 11
-7.297145419017624
 21
17.3173635548508
 31
0.0
  0
LINE
  5
C5
330
2
100
AcDbEntity
  8
GAIKEI
  6
Continuous
 62
     1
100
AcDbLine
 10
-7.370246271089285
 20
17.16736355306497
 30
0.0
 11
-25.64761435717765
 21
17.16736471796079
 31
0.0
  0
LINE
  5
C6
330
2
100
AcDbEntity
  8
GAIKEI
  6
Continuous
 62
     1
100
AcDbLine
 10
-7.147670778217616
 20
17.16736471796079
 30
0.0
 11
-7.370245701277667
 21
17.16736413641078
 31
0.0
  0
LINE
  5
C7
330
2
100
AcDbEntity
  8
GAIKEI
  6
Continuous
100
AcDbLine
 10
-9.817642567697646
 20
7.217363554850805
 30
0.0
 11
-9.724092616117673
 21
7.381075970110771
 31
0.0
  0
LINE
  5
C8
330
2
100
AcDbEntity
  8
GAIKEI
  6
Continuous
 62
     1
100
AcDbLine
 10
-8.632860065797672
 20
16.01736355485079
 30
0.0
 11
-7.476487765917624
 21
16.01736355485079
 31
0.0
  0
LINE
  5
C9
330
2
100
AcDbEntity
  8
GAIKEI
  6
Continuous
100
AcDbLine
 10
-23.64836214011763
 20
14.41302941303078
 30
0.0
 11
-25.44817130517766
 21
15.1977063256808
 31
0.0
  0
LINE
  5
CA
330
2
100
AcDbEntity
  8
GAIKEI
  6
Continuous
100
AcDbLine
 10
-9.146922995287638
 20
14.41302941303078
 30
0.0
 11
-7.347113830227613
 21
15.1977063256808
 31
0.0
  0
LINE
  5
CB
330
2
100
AcDbEntity
  8
GAIKEI
  6
Continuous
 62
     1
100
AcDbLine
 10
-23.07119251927765
 20
7.381075970110771
 30
0.0
 11
-9.724092616117673
 21
7.381075970110771
 31
0.0
  0
LINE
  5
CC
330
2
100
AcDbEntity
  8
GAIKEI
  6
Continuous
100
AcDbLine
 10
-22.97764256769767
 20
7.217363554850805
 30
0.0
 11
-22.64444174807784
 21
7.217363554850805
 31
0.0
  0
LINE
  5
CD
330
2
100
AcDbEntity
  8
GAIKEI
  6
Continuous
 62
     1
100
AcDbLine
 10
-19.79764256769766
 20
17.3173635548508
 30
0.0
 11
-19.79764256769766
 21
17.47912565282078
 31
0.0
  0
LINE
  5
CE
330
2
100
AcDbEntity
  8
GAIKEI
  6
Continuous
 62
     1
100
AcDbLine
 10
-20.99764256769765
 20
17.3173635548508
 30
0.0
 11
-20.99764256769765
 21
17.47912565282078
 31
0.0
  0
LINE
  5
CF
330
2
100
AcDbEntity
  8
GAIKEI
  6
Continuous
100
AcDbLine
 10
-22.97764256769767
 20
7.217363554850805
 30
0.0
 11
-23.07119251927765
 21
7.381075970110771
 31
0.0
  0
LINE
  5
D0
330
2
100
AcDbEntity
  8
GAIKEI
  6
Continuous
 62
     1
100
AcDbLine
 10
-24.44394379597765
 20
17.4673635548508
 30
0.0
 11
-24.44394379597765
 21
17.3473635548508
 31
0.0
  0
LINE
  5
D1
330
2
100
AcDbEntity
  8
GAIKEI
  6
Continuous
100
AcDbLine
 10
-25.55844590173763
 20
15.35801463008079
 30
0.0
 11
-25.64761435717765
 21
17.16736471796079
 31
0.0
  0
LINE
  5
D2
330
2
100
AcDbEntity
  8
GAIKEI
  6
Continuous
100
AcDbLine
 10
-25.64761435717765
 20
17.16736471796079
 30
0.0
 11
-25.49820506335766
 21
17.3173635548508
 31
0.0
  0
LINE
  5
D3
330
2
100
AcDbEntity
  8
GAIKEI
  6
Continuous
 62
     1
100
AcDbLine
 10
-25.33323488602463
 20
15.24331927603279
 30
0.0
 11
-7.530865578538055
 21
15.24331927603279
 31
0.0
  0
LINE
  5
D4
330
2
100
AcDbEntity
  8
GAIKEI
  6
Continuous
 62
     1
100
AcDbLine
 10
-23.43223930036481
 20
14.37771608856161
 30
0.0
 11
-9.432000483499678
 21
14.37771608856161
 31
0.0
  0
ARC
  5
D5
330
2
100
AcDbEntity
  8
GAIKEI
  6
Continuous
 62
     1
100
AcDbCircle
 10
-16.39764256769763
 20
7.0673635548508
 30
0.0
 40
1.7
100
AcDbArc
 50
204.249628602505
 51
335.7503713974945
  0
ARC
  5
D6
330
2
100
AcDbEntity
  8
GAIKEI
  6
Continuous
 62
     1
100
AcDbCircle
 10
-16.39764256769763
 20
6.467363554850805
 30
0.0
 40
4.1
100
AcDbArc
 50
247.7806285958969
 51
292.2193714041031
  0
ARC
  5
D7
330
2
100
AcDbEntity
  8
GAIKEI
  6
Continuous
 62
     1
100
AcDbCircle
 10
-16.39764256769763
 20
7.0673635548508
 30
0.0
 40
1.63
100
AcDbArc
 50
198.0252492790309
 51
341.9747507209684
  0
ARC
  5
D8
330
2
100
AcDbEntity
  8
GAIKEI
  6
Continuous
 62
     1
100
AcDbCircle
 10
-62.01493718637767
 20
5.343423360890767
 30
0.0
 40
40.0
100
AcDbArc
 50
2.173686449301628
 51
2.685578298598344
  0
ARC
  5
D9
330
2
100
AcDbEntity
  8
GAIKEI
  6
Continuous
 62
     1
100
AcDbCircle
 10
29.21965205098235
 20
5.343423360890767
 30
0.0
 40
40.0
100
AcDbArc
 50
177.3144217014016
 51
177.8263135506983
  0
ARC
  5
DA
330
2
100
AcDbEntity
  8
GAIKEI
  6
Continuous
100
AcDbCircle
 10
-7.43594599828765
 20
15.37689573920079
 30
0.0
 40
0.2
100
AcDbArc
 50
296.3696620628014
 51
354.5828936868015
  0
ARC
  5
DB
330
2
100
AcDbEntity
  8
GAIKEI
  6
Continuous
100
AcDbCircle
 10
-25.35933913711768
 20
15.37689573920079
 30
0.0
 40
0.2
100
AcDbArc
 50
185.4171063131985
 51
243.6303379371909
  0
ARC
  5
DC
330
2
100
AcDbEntity
  8
GAIKEI
  6
Continuous
100
AcDbCircle
 10
-9.00525484246765
 20
14.03895704773077
 30
0.0
 40
0.4
100
AcDbArc
 50
110.7426075835923
 51
136.5705441466871
  0
ARC
  5
DD
330
2
100
AcDbEntity
  8
GAIKEI
  6
Continuous
100
AcDbCircle
 10
-23.79003029292767
 20
14.03895704773077
 30
0.0
 40
0.4
100
AcDbArc
 50
43.42945585320284
 51
69.25739241630303
  0
ARC
  5
DE
330
2
100
AcDbEntity
  8
GAIKEI
  6
Continuous
100
AcDbCircle
 10
-9.89774124454766
 20
7.480303757790778
 30
0.0
 40
0.2
100
AcDbArc
 50
330.25511870209
 51
0.2126332522938907
  0
ARC
  5
DF
330
2
100
AcDbEntity
  8
GAIKEI
  6
Continuous
100
AcDbCircle
 10
-22.89754389085766
 20
7.480303757790778
 30
0.0
 40
0.2
100
AcDbArc
 50
179.7873667477061
 51
209.744881296894
  0
SPLINE
  5
E0
330
2
100
AcDbEntity
  8
GAIKEI
  6
Continuous
 62
     1
100
AcDbSpline
210
0.0
220
0.0
230
1.0
 70
     8
 71
     3
 72
    33
 73
    29
 74
    27
 42
0.0000000001
 43
0.0000000001
 44
0.00000000001
 40
0.0
 40
0.0
 40
0.0
 40
0.0
 40
0.1005968769557672
 40
0.1988799726031644
 40
0.2954442468654108
 40
0.3916835301483284
 40
0.4984745677738957
 40
0.607254506456984
 40
0.731367708003136
 40
0.8554812553055221
 40
0.9901599656351031
 40
1.12483936225472
 40
1.265984497394998
 40
1.407130095775146
 40
1.550439906450679
 40
1.69374936029739
 40
1.834854734789944
 40
1.975958799452274
 40
2.110564604107099
 40
2.245168921935959
 40
2.369190358515612
 40
2.493211199146589
 40
2.601900381497237
 40
2.708602472322324
 40
2.80476516379654
 40
2.901254333593556
 40
2.999470406945997
 40
3.100000000000089
 40
3.100000000000089
 40
3.100000000000089
 40
3.100000000000089
 10
-17.94764256769758
 20
2.297458925530804
 30
0.0
 10
-17.914110275379
 20
2.297458909763889
 30
0.0
 10
-17.84781695117795
 20
2.297458878592735
 30
0.0
 10
-17.74933553555615
 20
2.297458930255459
 30
0.0
 10
-17.65230665115867
 20
2.297459008382006
 30
0.0
 10
-17.55244178610176
 20
2.297459071007324
 30
0.0
 10
-17.44850503290459
 20
2.297459122073476
 30
0.0
 10
-17.33527697361965
 20
2.297459146648847
 30
0.0
 10
-17.21627474444244
 20
2.297459154563398
 30
0.0
 10
-17.08863959138305
 20
2.297459148311531
 30
0.0
 10
-16.95748237329921
 20
2.297459138685269
 30
0.0
 10
-16.82064795926938
 20
2.297459145063044
 30
0.0
 10
-16.68165791588936
 20
2.297459152243476
 30
0.0
 10
-16.53979106782404
 20
2.297459147042701
 30
0.0
 10
-16.39720278018993
 20
2.297459140717933
 30
0.0
 10
-16.25462790051831
 20
2.297459143663587
 30
0.0
 10
-16.11278826951781
 20
2.297459145926097
 30
0.0
 10
-15.97384985491455
 20
2.297459137584013
 30
0.0
 10
-15.83707845919922
 20
2.297459129565439
 30
0.0
 10
-15.70600127284477
 20
2.297459135031687
 30
0.0
 10
-15.5784524078316
 20
2.297459136000412
 30
0.0
 10
-15.45954192131118
 20
2.297459118922887
 30
0.0
 10
-15.34640455004228
 20
2.297459091604508
 30
0.0
 10
-15.24255322849231
 20
2.297459058661445
 30
0.0
 10
-15.14276857779353
 20
2.297459016033172
 30
0.0
 10
-15.04581259958566
 20
2.297458946807552
 30
0.0
 10
-14.94740098751783
 20
2.297458894291921
 30
0.0
 10
-14.88115243204899
 20
2.297458912367702
 30
0.0
 10
-14.84764256769762
 20
2.297458921510809
 30
0.0
 11
-17.94764256769758
 21
2.297458925530804
 31
0.0
 11
-17.84704569074182
 21
2.297458895103005
 31
0.0
 11
-17.74876259509443
 21
2.29745893519285
 31
0.0
 11
-17.65219832083221
 21
2.297459005598255
 31
0.0
 11
-17.55595903754931
 21
2.297459066736934
 31
0.0
 11
-17.44916799992376
 21
2.297459116911085
 31
0.0
 11
-17.34038806124067
 21
2.297459142989993
 31
0.0
 11
-17.21627485969452
 21
2.297459152174411
 31
0.0
 11
-17.09216131239213
 21
2.29745914799966
 31
0.0
 11
-16.95748260206255
 21
2.297459141378936
 31
0.0
 11
-16.82280320544293
 21
2.297459145073332
 31
0.0
 11
-16.68165807030266
 21
2.297459150165792
 31
0.0
 11
-16.54051247192251
 21
2.297459146889451
 31
0.0
 11
-16.39720266124698
 21
2.297459142270867
 31
0.0
 11
-16.25389320740026
 21
2.297459143565419
 31
0.0
 11
-16.11278783290771
 21
2.29745914413894
 31
0.0
 11
-15.97168376824538
 21
2.297459137488004
 31
0.0
 11
-15.83707796359056
 21
2.297459131816253
 31
0.0
 11
-15.7024736457617
 21
2.297459134382307
 31
0.0
 11
-15.57845220918204
 21
2.29745913287482
 31
0.0
 11
-15.45443136855107
 21
2.297459116033195
 31
0.0
 11
-15.34574218620042
 21
2.297459090059675
 31
0.0
 11
-15.23904009537534
 21
2.297459055489412
 31
0.0
 11
-15.14287740390114
 21
2.297459011491071
 31
0.0
 11
-15.04638823410414
 21
2.297458950093243
 31
0.0
 11
-14.94817216075171
 21
2.29745890775132
 31
0.0
 11
-14.84764256769762
 21
2.297458921510809
 31
0.0
  0
SPLINE
  5
E1
330
2
100
AcDbEntity
  8
GAIKEI
  6
Continuous
 62
     1
100
AcDbSpline
210
0.0
220
0.0
230
1.0
 70
     8
 71
     3
 72
    19
 73
    15
 74
    13
 42
0.0000000001
 43
0.0000000001
 44
0.00000000001
 40
0.0
 40
0.0
 40
0.0
 40
0.0
 40
0.5651510810067074
 40
1.128869645271383
 40
1.68365951529453
 40
2.237312950727359
 40
2.785573418782028
 40
3.334704815767771
 40
3.877373262272818
 40
4.409663110426598
 40
4.981670026329622
 40
5.564587934954522
 40
6.246582307038694
 40
6.950558832225219
 40
6.950558832225219
 40
6.950558832225219
 40
6.950558832225219
 10
-18.01168745203762
 20
1.748668150410708
 30
0.0
 10
-18.19106794760176
 20
1.806720926505292
 30
0.0
 10
-18.54937425400639
 20
1.922679329416212
 30
0.0
 10
-19.05858871296256
 20
2.161932853454914
 30
0.0
 10
-19.54006053288205
 20
2.444105083930011
 30
0.0
 10
-19.9871204746036
 20
2.76991781853826
 30
0.0
 10
-20.39903304082958
 20
3.136211715604545
 30
0.0
 10
-20.77002002977777
 20
3.53893347894126
 30
0.0
 10
-21.09792013147337
 20
3.9707603959463
 30
0.0
 10
-21.38511812557843
 20
4.43971234837106
 30
0.0
 10
-21.62803564297143
 20
4.948126885439918
 30
0.0
 10
-21.8371499441336
 20
5.524313103330868
 30
0.0
 10
-21.99332221997803
 20
6.164729612729615
 30
0.0
 10
-22.02673821604379
 20
6.626189610829328
 30
0.0
 10
-22.04371121081761
 20
6.860579096650809
 30
0.0
 11
-18.01168745203762
 21
1.748668150410708
 31
0.0
 11
-18.54559689625239
 21
1.933969121107907
 31
0.0
 11
-19.05716635886142
 21
2.170771369033332
 31
0.0
 11
-19.53536600662329
 21
2.452048628620246
 31
0.0
 11
-19.98291111588099
 21
2.777986508815359
 31
0.0
 11
-20.39243833888816
 21
3.142509477155584
 31
0.0
 11
-20.76476901515912
 21
3.54613697704022
 31
0.0
 11
-21.09247697726903
 21
3.97868354609605
 31
0.0
 11
-21.37039125140973
 21
4.432661671864707
 31
0.0
 11
-21.61792721635368
 21
4.948333910694913
 31
0.0
 11
-21.81659809288988
 21
5.496351402214997
 31
0.0
 11
-21.97305079211645
 21
6.160157756854061
 31
0.0
 11
-22.04371121081761
 21
6.860579096650809
 31
0.0
  0
SPLINE
  5
E2
330
2
100
AcDbEntity
  8
GAIKEI
  6
Continuous
 62
     1
100
AcDbSpline
210
0.0
220
0.0
230
1.0
 70
     8
 71
     3
 72
    19
 73
    15
 74
    13
 42
0.0000000001
 43
0.0000000001
 44
0.00000000001
 40
0.0
 40
0.0
 40
0.0
 40
0.0
 40
0.5651510810066258
 40
1.128869645271079
 40
1.683659515294667
 40
2.237312950727944
 40
2.785573418785355
 40
3.334704815774257
 40
3.877373262282004
 40
4.409663110438333
 40
4.981670026341208
 40
5.564587934965523
 40
6.246582307049009
 40
6.950558832234283
 40
6.950558832234283
 40
6.950558832234283
 40
6.950558832234283
 10
-14.78359768335758
 20
1.748668150410708
 30
0.0
 10
-14.60421718779346
 20
1.806720926505278
 30
0.0
 10
-14.24591088138894
 20
1.922679329416155
 30
0.0
 10
-13.73669642243261
 20
2.161932853454601
 30
0.0
 10
-13.25522460251288
 20
2.444105083929855
 30
0.0
 10
-12.80816466079149
 20
2.769917818540449
 30
0.0
 10
-12.39625209456417
 20
3.136211715608013
 30
0.0
 10
-12.02526510560763
 20
3.538933478940705
 30
0.0
 10
-11.69736500390296
 20
3.970760395942562
 30
0.0
 10
-11.41016700979417
 20
4.439712348367237
 30
0.0
 10
-11.16724949240276
 20
4.948126885437886
 30
0.0
 10
-10.95813519125567
 20
5.524313103334236
 30
0.0
 10
-10.80196291542202
 20
6.164729612733196
 30
0.0
 10
-10.76854691933981
 20
6.626189610830579
 30
0.0
 10
-10.75157392455764
 20
6.860579096650809
 30
0.0
 11
-14.78359768335758
 21
1.748668150410708
 31
0.0
 11
-14.24968823914287
 21
1.933969121107821
 31
0.0
 11
-13.73811877653395
 21
2.170771369032962
 31
0.0
 11
-13.25991912877185
 21
2.45204862862036
 31
0.0
 11
-12.81237401951455
 21
2.77798650881678
 31
0.0
 11
-12.4028467965046
 21
3.142509477158
 31
0.0
 11
-12.03051612022602
 21
3.546136977039907
 31
0.0
 11
-11.70280815810804
 21
3.978683546093009
 31
0.0
 11
-11.42489388396325
 21
4.432661671862149
 31
0.0
 11
-11.17735791902243
 21
4.94833391069369
 31
0.0
 11
-10.97868704249782
 21
5.496351402217356
 31
0.0
 11
-10.82223434327761
 21
6.160157756857216
 31
0.0
 11
-10.75157392455764
 21
6.860579096650809
 31
0.0
  0
SPLINE
  5
E3
330
2
100
AcDbEntity
  8
GAIKEI
  6
Continuous
 62
     1
100
AcDbSpline
210
0.0
220
0.0
230
1.0
 70
     8
 71
     3
 72
     9
 73
     5
 74
     3
 42
0.0000000001
 43
0.0000000001
 44
0.00000000001
 40
0.0
 40
0.0
 40
0.0
 40
0.0
 40
0.1783919464470673
 40
0.3567838928803274
 40
0.3567838928803274
 40
0.3567838928803274
 40
0.3567838928803274
 10
-18.01192791703761
 20
6.860579664690817
 30
0.0
 10
-18.01192114407897
 20
6.920043646455596
 30
0.0
 10
-18.01190759816171
 20
7.038971609980521
 30
0.0
 10
-18.0118918098523
 20
7.157899573228903
 30
0.0
 10
-18.01188391569758
 20
7.217363554850805
 30
0.0
 11
-18.01192791703761
 21
6.860579664690817
 31
0.0
 11
-18.01190703756367
 21
7.038971609915989
 31
0.0
 11
-18.01188391569758
 21
7.217363554850805
 31
0.0
  0
SPLINE
  5
E4
330
2
100
AcDbEntity
  8
GAIKEI
  6
Continuous
 62
     1
100
AcDbSpline
210
0.0
220
0.0
230
1.0
 70
     8
 71
     3
 72
     9
 73
     5
 74
     3
 42
0.0000000001
 43
0.0000000001
 44
0.00000000001
 40
0.0
 40
0.0
 40
0.0
 40
0.0
 40
0.1783919549935386
 40
0.3567839100003454
 40
0.3567839100003454
 40
0.3567839100003454
 40
0.3567839100003454
 10
-14.78340121967761
 20
7.217363554850805
 30
0.0
 10
-14.78339332552206
 20
7.157899570375491
 30
0.0
 10
-14.78337753721097
 20
7.038971601420414
 30
0.0
 10
-14.7833639912821
 20
6.920043632188793
 30
0.0
 10
-14.78335721831763
 20
6.860579647570801
 30
0.0
 11
-14.78340121967761
 21
7.217363554850805
 31
0.0
 11
-14.78337809780652
 21
7.038971601355711
 31
0.0
 11
-14.78335721831763
 21
6.860579647570801
 31
0.0
  0
SPLINE
  5
E5
330
2
100
AcDbEntity
  8
GAIKEI
  6
Continuous
 62
     1
100
AcDbSpline
210
0.0
220
0.0
230
1.0
 70
     8
 71
     3
 72
    37
 73
    33
 74
    31
 42
0.0000000001
 43
0.0000000001
 44
0.00000000001
 40
0.0
 40
0.0
 40
0.0
 40
0.0
 40
0.5419777888176443
 40
1.060006982535387
 40
1.433288981854612
 40
1.791446641151083
 40
2.059439052344091
 40
2.335928043794371
 40
2.570018232473814
 40
2.8037547944595
 40
2.99759771464228
 40
3.191446032553262
 40
3.352178802618184
 40
3.512603990531088
 40
3.646434495717675
 40
3.779674573188663
 40
3.895628672692456
 40
4.011697127159955
 40
4.120890122389646
 40
4.231248635443598
 40
4.339127336776206
 40
4.448260222915506
 40
4.548421284539235
 40
4.648414364680293
 40
4.728992472745613
 40
4.808398869866426
 40
4.865549655654013
 40
4.921382603483766
 40
4.962602322548905
 40
5.003840907542596
 40
5.040644291983292
 40
5.078235168748184
 40
5.078235168748184
 40
5.078235168748184
 40
5.078235168748184
 10
-14.78335747967759
 20
6.860578814530697
 30
0.0
 10
-14.78335845482715
 20
6.679919551592675
 30
0.0
 10
-14.78336036203692
 20
6.326583890749873
 30
0.0
 10
-14.78336885535184
 20
5.848820896862065
 30
0.0
 10
-14.78337931706682
 20
5.432331279548094
 30
0.0
 10
-14.78338940285246
 20
5.099187256429033
 30
0.0
 10
-14.78340021959864
 20
4.798307569309116
 30
0.0
 10
-14.78341076406767
 20
4.538783705748159
 30
0.0
 10
-14.78342184627443
 20
4.29067845862329
 30
0.0
 10
-14.78343254604857
 20
4.070121901932992
 30
0.0
 10
-14.78344331277414
 20
3.862979302185976
 30
0.0
 10
-14.78345338516109
 20
3.680171299743619
 30
0.0
 10
-14.78346332984068
 20
3.508502541401867
 30
0.0
 10
-14.78347250405381
 20
3.356839720624378
 30
0.0
 10
-14.7834814547708
 20
3.214341130715212
 30
0.0
 10
-14.78348974150448
 20
3.08666623693027
 30
0.0
 10
-14.78349788304942
 20
2.964912026721634
 30
0.0
 10
-14.78350569089146
 20
2.851173510589234
 30
0.0
 10
-14.78351356804467
 20
2.739300189949489
 30
0.0
 10
-14.78352143559044
 20
2.630156787027544
 30
0.0
 10
-14.7835294841288
 20
2.521033420482368
 30
0.0
 10
-14.78353745835704
 20
2.415309204417837
 30
0.0
 10
-14.78354539454693
 20
2.312213528755236
 30
0.0
 10
-14.78355274170782
 20
2.218636112433586
 30
0.0
 10
-14.78355966143039
 20
2.131976917600781
 30
0.0
 10
-14.78356552846205
 20
2.059598487513952
 30
0.0
 10
-14.78357079207818
 20
1.995468444150617
 30
0.0
 10
-14.78357505327011
 20
1.94406729343305
 30
0.0
 10
-14.78357890886548
 20
1.897970209631438
 30
0.0
 10
-14.78358225696736
 20
1.858216313605936
 30
0.0
 10
-14.78358552440372
 20
1.819672031677953
 30
0.0
 10
-14.78358764384127
 20
1.794873944700015
 30
0.0
 10
-14.78358871477758
 20
1.782343652490823
 30
0.0
 11
-14.78335747967759
 21
6.860578814530697
 31
0.0
 11
-14.78336154862865
 21
6.318601025728327
 31
0.0
 11
-14.78337044987938
 21
5.800571832087058
 31
0.0
 11
-14.78337977109316
 21
5.427289832884213
 31
0.0
 11
-14.78339070035315
 21
5.069132173754496
 31
0.0
 11
-14.78340032353696
 21
4.801139762734266
 31
0.0
 11
-14.78341153978397
 21
4.524650771511488
 31
0.0
 11
-14.78342200167549
 21
4.290560583065825
 31
0.0
 11
-14.78343333872976
 21
4.056824021355083
 31
0.0
 11
-14.78344341350379
 21
3.862981101434115
 31
0.0
 11
-14.78345409337976
 21
3.669132783817332
 31
0.0
 11
-14.78346340446217
 21
3.5084000140221
 31
0.0
 11
-14.78347310798926
 21
3.347974826402662
 31
0.0
 11
-14.78348151390474
 21
3.214144321480063
 31
0.0
 11
-14.78349016211939
 21
3.08090424428974
 31
0.0
 11
-14.78349791485635
 21
2.964950145045122
 31
0.0
 11
-14.78350588338566
 21
2.848881690851158
 31
0.0
 11
-14.78351357097659
 21
2.739688695892084
 31
0.0
 11
-14.78352152627548
 21
2.629330183124864
 31
0.0
 11
-14.78352948311965
 21
2.521451482085694
 31
0.0
 11
-14.78353771340164
 21
2.412318596256739
 31
0.0
 11
-14.7835454245095
 21
2.312157534929838
 31
0.0
 11
-14.78355327447656
 21
2.21216445509691
 31
0.0
 11
-14.78355970899525
 21
2.131586347288504
 31
0.0
 11
-14.78356614546112
 21
2.052179950428552
 31
0.0
 11
-14.78357083606829
 21
1.995029164833454
 31
0.0
 11
-14.78357546500928
 21
1.939196217195586
 31
0.0
 11
-14.78357891232287
 21
1.897976498274601
 31
0.0
 11
-14.78358238547616
 21
1.856737913427167
 31
0.0
 11
-14.78358550638046
 21
1.819934529118796
 31
0.0
 11
-14.78358871477758
 21
1.782343652490823
 31
0.0
  0
SPLINE
  5
E6
330
2
100
AcDbEntity
  8
GAIKEI
  6
Continuous
 62
     1
100
AcDbSpline
210
0.0
220
0.0
230
1.0
 70
     8
 71
     3
 72
    37
 73
    33
 74
    31
 42
0.0000000001
 43
0.0000000001
 44
0.00000000001
 40
0.0
 40
0.0
 40
0.0
 40
0.0
 40
0.0381060979557989
 40
0.0754159358051597
 40
0.117292306769953
 40
0.1591596939657254
 40
0.2159813758092268
 40
0.2742065793088187
 40
0.3548645908666702
 40
0.4367004884820747
 40
0.5372950405999159
 40
0.6379138866275441
 40
0.7465710481887854
 40
0.8539427142955661
 40
0.9635267357813949
 40
1.072022367848206
 40
1.187553114306758
 40
1.303000171741717
 40
1.435834734760204
 40
1.569254537838317
 40
1.729223093377608
 40
1.889486321424147
 40
2.082748923384927
 40
2.276003586400619
 40
2.509019188487632
 40
2.742370901404753
 40
3.018016393097506
 40
3.285087911132506
 40
3.642783298350493
 40
4.015765442759414
 40
4.534704059658482
 40
5.077813441406807
 40
5.077813441406807
 40
5.077813441406807
 40
5.077813441406807
 10
-18.01169645673758
 20
1.782765380570708
 30
0.0
 10
-18.01169754224771
 20
1.795467413176254
 30
0.0
 10
-18.01169969058527
 20
1.820606058352851
 30
0.0
 10
-18.01170300421232
 20
1.859703493802413
 30
0.0
 10
-18.01170640155376
 20
1.900054692329362
 30
0.0
 10
-18.01171031888874
 20
1.946909838833661
 30
0.0
 10
-18.01171465244313
 20
1.999214596167064
 30
0.0
 10
-18.01172000276823
 20
2.064449561581341
 30
0.0
 10
-18.01172596092968
 20
2.13802259889772
 30
0.0
 10
-18.01173295436328
 20
2.225718752382576
 30
0.0
 10
-18.01174035128886
 20
2.3200685173463
 30
0.0
 10
-18.01174828980895
 20
2.423358703610176
 30
0.0
 10
-18.01175623769392
 20
2.52890792787619
 30
0.0
 10
-18.01176423062037
 20
2.637445543966563
 30
0.0
 10
-18.01177203895673
 20
2.745929316905389
 30
0.0
 10
-18.01177985816919
 20
2.857132783300954
 30
0.0
 10
-18.01178761629795
 20
2.970290595021822
 30
0.0
 10
-18.01179571578629
 20
3.091561383722094
 30
0.0
 10
-18.0118039646398
 20
3.218795191298653
 30
0.0
 10
-18.01181287916199
 20
3.360869498231025
 30
0.0
 10
-18.0118220172758
 20
3.512086693509758
 30
0.0
 10
-18.01183192362453
 20
3.683251488405431
 30
0.0
 10
-18.01184195754428
 20
3.865511652470559
 30
0.0
 10
-18.01185268394711
 20
4.072022607880143
 30
0.0
 10
-18.01186334500591
 20
4.291896600295501
 30
0.0
 10
-18.01187438935912
 20
4.539234202281775
 30
0.0
 10
-18.01188489982606
 20
4.797923776284108
 30
0.0
 10
-18.01189569402656
 20
5.098061241739728
 30
0.0
 10
-18.01190576964877
 20
5.430644258143161
 30
0.0
 10
-18.01191624828294
 20
5.847182974187603
 30
0.0
 10
-18.01192476520261
 20
6.325526355142386
 30
0.0
 10
-18.01192667407812
 20
6.679542354689189
 30
0.0
 10
-18.01192765023756
 20
6.860578815270798
 30
0.0
 11
-18.01169645673758
 21
1.782765380570708
 31
0.0
 11
-18.01169970873354
 21
1.820871478387743
 31
0.0
 11
-18.01170287192906
 21
1.858181316103014
 31
0.0
 11
-18.01170639769395
 21
1.900057686919382
 31
0.0
 11
-18.01170989767695
 21
1.94192507396886
 31
0.0
 11
-18.01171460586295
 21
1.998746755617304
 31
0.0
 11
-18.01171938107609
 21
2.056971958921081
 31
0.0
 11
-18.01172591262815
 21
2.137629970214476
 31
0.0
 11
-18.01173243923409
 21
2.219465867569624
 31
0.0
 11
-18.01174032479588
 21
2.320060419378393
 31
0.0
 11
-18.01174805878179
 21
2.420679265108788
 31
0.0
 11
-18.01175623975069
 21
2.52933642636205
 31
0.0
 11
-18.01176414682123
 21
2.636708092177684
 31
0.0
 11
-18.0117720345537
 21
2.746292113379638
 31
0.0
 11
-18.01177966255454
 21
2.854787745178299
 31
0.0
 11
-18.01178758408184
 21
2.970318491365276
 31
0.0
 11
-18.01179529368767
 21
3.085765548542809
 31
0.0
 11
-18.01180390589502
 21
3.218600111282114
 31
0.0
 11
-18.01181227706883
 21
3.35201991409761
 31
0.0
 11
-18.01182194330147
 21
3.511988469344856
 31
0.0
 11
-18.01183121862561
 21
3.672251697122987
 31
0.0
 11
-18.01184185746041
 21
3.865514298790941
 31
0.0
 11
-18.01185189466645
 21
4.058768961545979
 31
0.0
 11
-18.01186319077686
 21
4.291784563359186
 31
0.0
 11
-18.01187361637301
 21
4.525136276043411
 31
0.0
 11
-18.01188479822355
 21
4.800781767509363
 31
0.0
 11
-18.01189439188113
 21
5.067853285372052
 31
0.0
 11
-18.01190531534382
 21
5.425548672423246
 31
0.0
 11
-18.01191464215981
 21
5.798530816715555
 31
0.0
 11
-18.01192357258725
 21
6.31746943353778
 31
0.0
 11
-18.01192765023756
 21
6.860578815270798
 31
0.0
  0
SPLINE
  5
E7
330
2
100
AcDbEntity
  8
GAIKEI
  6
Continuous
 62
     1
100
AcDbSpline
210
0.0
220
0.0
230
1.0
 70
     8
 71
     3
 72
    11
 73
     7
 74
     5
 42
0.0000000001
 43
0.0000000001
 44
0.00000000001
 40
0.0
 40
0.0
 40
0.0
 40
0.0
 40
0.2125858603243021
 40
0.425165751399593
 40
0.637727437712463
 40
0.8502878116034915
 40
0.8502878116034915
 40
0.8502878116034915
 40
0.8502878116034915
 10
-7.370246271077633
 20
17.16736355485079
 30
0.0
 10
-7.370707866038678
 20
17.09650244559073
 30
0.0
 10
-7.371631042999517
 20
16.9547822167966
 30
0.0
 10
-7.375728942860817
 20
16.74224136250365
 30
0.0
 10
-7.381635161880126
 20
16.52975156765868
 30
0.0
 10
-7.387380563797449
 20
16.38815941341398
 30
0.0
 10
-7.390253255887614
 20
16.3173635548508
 30
0.0
 11
-7.370246271077633
 21
17.16736355485079
 31
0.0
 11
-7.372083280421861
 21
16.95478563171085
 31
0.0
 11
-7.376030504399068
 21
16.74224239019878
 31
0.0
 11
-7.382087186583248
 21
16.52976701023891
 31
0.0
 11
-7.390253255887614
 21
16.3173635548508
 31
0.0
  0
SPLINE
  5
E8
330
2
100
AcDbEntity
  8
GAIKEI
  6
Continuous
 62
     1
100
AcDbSpline
210
0.0
220
0.0
230
1.0
 70
     8
 71
     3
 72
    11
 73
     7
 74
     5
 42
0.0000000001
 43
0.0000000001
 44
0.00000000001
 40
0.0
 40
0.0
 40
0.0
 40
0.0
 40
0.0423758478606567
 40
0.0859165246691104
 40
0.1352813462615956
 40
0.1858109968344627
 40
0.1858109968344627
 40
0.1858109968344627
 40
0.1858109968344627
 10
-7.383245678297612
 20
17.18133734898077
 30
0.0
 10
-7.392866898476405
 20
17.19167928939735
 30
0.0
 10
-7.41237380730702
 20
17.21264744988937
 30
0.0
 10
-7.443091900214362
 20
17.24566029520446
 30
0.0
 10
-7.475663686786205
 20
17.28066085152963
 30
0.0
 10
-7.49835043403015
 20
17.3050345830068
 30
0.0
 10
-7.509826078137621
 20
17.3173635548508
 30
0.0
 11
-7.383245678297612
 21
17.18133734898077
 31
0.0
 11
-7.412109825973061
 21
17.21236271700243
 31
0.0
 11
-7.441769738529046
 21
17.24423872873711
 31
0.0
 11
-7.475399744368814
 21
17.28037608223838
 31
0.0
 11
-7.509826078137621
 21
17.3173635548508
 31
0.0
  0
SPLINE
  5
E9
330
2
100
AcDbEntity
  8
GAIKEI
  6
Continuous
 62
     1
100
AcDbSpline
210
0.0
220
0.0
230
1.0
 70
    24
 71
     3
 72
     9
 73
     5
 74
     3
 42
0.0000000001
 43
0.0000000001
 44
0.00000000001
 40
0.0
 40
0.0
 40
0.0
 40
0.0
 40
0.0095426871275787
 40
0.0190853742551188
 40
0.0190853742551188
 40
0.0190853742551188
 40
0.0190853742551188
 10
-7.370246271077633
 20
17.16736355485079
 30
0.0
 10
-7.372412838947639
 20
17.16969252053913
 30
0.0
 10
-7.376745974687651
 20
17.17435045191577
 30
0.0
 10
-7.381079110427627
 20
17.17900838329244
 30
0.0
 10
-7.383245678297612
 20
17.18133734898077
 30
0.0
 11
-7.370246271077633
 21
17.16736355485079
 31
0.0
 11
-7.376745974687651
 21
17.17435045191578
 31
0.0
 11
-7.383245678297612
 21
17.18133734898077
 31
0.0
  0
SPLINE
  5
EA
330
2
100
AcDbEntity
  8
GAIKEI
  6
Continuous
 62
     1
100
AcDbSpline
210
0.0
220
0.0
230
1.0
 70
     8
 71
     3
 72
    15
 73
    11
 74
     9
 42
0.0000000001
 43
0.0000000001
 44
0.00000000001
 40
0.0
 40
0.0
 40
0.0
 40
0.0
 40
0.0660799243577013
 40
0.1292534897145219
 40
0.1723384302789525
 40
0.2127985042273341
 40
0.2414039747490496
 40
0.2709474751997913
 40
0.2968473531511446
 40
0.3231636010360525
 40
0.3231636010360525
 40
0.3231636010360525
 40
0.3231636010360525
 10
-7.390253255887614
 20
16.3173635548508
 30
0.0
 10
-7.391481018285517
 20
16.29536612118744
 30
0.0
 10
-7.393882543045322
 20
16.25233875556331
 30
0.0
 10
-7.401124920181771
 20
16.19529576782656
 30
0.0
 10
-7.40991911344993
 20
16.14717355540281
 30
0.0
 10
-7.418431711857152
 20
16.11075150092414
 30
0.0
 10
-7.42847117958982
 20
16.07938161796717
 30
0.0
 10
-7.43774855760364
 20
16.05312913960148
 30
0.0
 10
-7.452346524407616
 20
16.02885484248148
 30
0.0
 10
-7.468398020686159
 20
16.02121429257177
 30
0.0
 10
-7.476487765917624
 20
16.01736355485079
 30
0.0
 11
-7.390253255887614
 21
16.3173635548508
 31
0.0
 11
-7.394728555759456
 21
16.2514353507635
 31
0.0
 11
-7.402641987783454
 21
16.18875938285319
 31
0.0
 11
-7.410431158476626
 21
16.1463843793328
 31
0.0
 11
-7.419945584503864
 21
16.10705890055274
 31
0.0
 11
-7.428496274646818
 21
16.07976130648572
 31
0.0
 11
-7.439223857345837
 21
16.0522342763459
 31
0.0
 11
-7.453927574387023
 21
16.03091282275878
 31
0.0
 11
-7.476487765917624
 21
16.01736355485079
 31
0.0
  0
SPLINE
  5
EB
330
2
100
AcDbEntity
  8
GAIKEI
  6
Continuous
 62
     1
100
AcDbSpline
210
0.0
220
0.0
230
1.0
 70
    24
 71
     3
 72
     9
 73
     5
 74
     3
 42
0.0000000001
 43
0.0000000001
 44
0.00000000001
 40
0.0
 40
0.0
 40
0.0
 40
0.0
 40
0.0095426871345888
 40
0.019085374269258
 40
0.019085374269258
 40
0.019085374269258
 40
0.019085374269258
 10
-8.778867419547623
 20
17.18133734899078
 30
0.0
 10
-8.776700851675968
 20
17.17900838330078
 30
0.0
 10
-8.772367715932659
 20
17.17435045192079
 30
0.0
 10
-8.768034580189315
 20
17.1696925205408
 30
0.0
 10
-8.765868012317639
 20
17.16736355485079
 30
0.0
 11
-8.778867419547623
 21
17.18133734899078
 31
0.0
 11
-8.772367715932659
 21
17.17435045192081
 31
0.0
 11
-8.765868012317639
 21
17.16736355485079
 31
0.0
  0
SPLINE
  5
EC
330
2
100
AcDbEntity
  8
GAIKEI
  6
Continuous
 62
     1
100
AcDbSpline
210
0.0
220
0.0
230
1.0
 70
     8
 71
     3
 72
    11
 73
     7
 74
     5
 42
0.0000000001
 43
0.0000000001
 44
0.00000000001
 40
0.0
 40
0.0
 40
0.0
 40
0.0
 40
0.0505293916368638
 40
0.0998940282741878
 40
0.1434348900308631
 40
0.1858109968203231
 40
0.1858109968203231
 40
0.1858109968203231
 40
0.1858109968203231
 10
-8.905447819377627
 20
17.3173635548508
 30
0.0
 10
-8.893972234074624
 20
17.30503464618746
 30
0.0
 10
-8.871285587638048
 20
17.28066102302065
 30
0.0
 10
-8.838713859851168
 20
17.24566052989749
 30
0.0
 10
-8.807995708134441
 20
17.21264762141271
 30
0.0
 10
-8.788488698517809
 20
17.1916793525969
 30
0.0
 10
-8.778867419547623
 20
17.18133734899078
 30
0.0
 11
-8.905447819377627
 21
17.3173635548508
 31
0.0
 11
-8.87102166201663
 21
17.28037627178557
 31
0.0
 11
-8.837391782161034
 21
17.24423905369627
 31
0.0
 11
-8.807731743601834
 21
17.21236290657683
 31
0.0
 11
-8.778867419547623
 21
17.18133734899078
 31
0.0
  0
SPLINE
  5
ED
330
2
100
AcDbEntity
  8
GAIKEI
  6
Continuous
 62
     1
100
AcDbSpline
210
0.0
220
0.0
230
1.0
 70
     8
 71
     3
 72
    15
 73
    11
 74
     9
 42
0.0000000001
 43
0.0000000001
 44
0.00000000001
 40
0.0
 40
0.0
 40
0.0
 40
0.0
 40
0.0423758979226332
 40
0.082660441809663
 40
0.1190666983970152
 40
0.1537994012869619
 40
0.1955252717479001
 40
0.2400248929222271
 40
0.302462463401084
 40
0.3680418289194005
 40
0.3680418289194005
 40
0.3680418289194005
 40
0.3680418289194005
 10
-8.632860065797672
 20
16.01736355485079
 30
0.0
 10
-8.647036603785544
 20
16.01951783166483
 30
0.0
 10
-8.674690032995428
 20
16.02372006647184
 30
0.0
 10
-8.707232352934113
 20
16.04869845342406
 30
0.0
 10
-8.730474536717821
 20
16.07768835804907
 30
0.0
 10
-8.749657254172682
 20
16.11024542254432
 30
0.0
 10
-8.764419602308009
 20
16.14790226239631
 30
0.0
 10
-8.777843427223423
 20
16.19564577116259
 30
0.0
 10
-8.78682797511999
 20
16.25274587708924
 30
0.0
 10
-8.786197811614897
 20
16.29547477765982
 30
0.0
 10
-8.785874997117616
 20
16.3173635548508
 30
0.0
 11
-8.632860065797672
 21
16.01736355485079
 31
0.0
 11
-8.674059501010049
 21
16.02727936358889
 31
0.0
 11
-8.70692283412103
 21
16.0505784153512
 31
0.0
 11
-8.730103874634437
 21
16.07865073052861
 31
0.0
 11
-8.747712652374275
 21
16.10858886000508
 31
0.0
 11
-8.763440029001628
 21
16.14723724794228
 31
0.0
 11
-8.775515987078051
 21
16.1900669983641
 31
0.0
 11
-8.784928497607438
 21
16.25179102004802
 31
0.0
 11
-8.785874997117616
 21
16.3173635548508
 31
0.0
  0
SPLINE
  5
EE
330
2
100
AcDbEntity
  8
GAIKEI
  6
Continuous
100
AcDbSpline
210
0.0
220
0.0
230
1.0
 70
     8
 71
     3
 72
    19
 73
    15
 74
    13
 42
0.0000000001
 43
0.0000000001
 44
0.00000000001
 40
0.0
 40
0.0
 40
0.0
 40
0.0
 40
0.0935790828629041
 40
0.1873309313325546
 40
0.2816879435114431
 40
0.3728504996690227
 40
0.4784523205496609
 40
0.5837938801004308
 40
0.7158567345110645
 40
0.8037495845359028
 40
1.273052472138235
 40
2.000617835746863
 40
4.318791664505276
 40
6.975500347786299
 40
6.975500347786299
 40
6.975500347786299
 40
6.975500347786299
 10
-9.295743379337636
 20
14.31394142902078
 30
0.0
 10
-9.317029700955608
 20
14.29111750027736
 30
0.0
 10
-9.359641642976647
 20
14.24542750527676
 30
0.0
 10
-9.416730571113809
 20
14.17072061080061
 30
0.0
 10
-9.468931133604094
 20
14.09359968406041
 30
0.0
 10
-9.51851306974035
 20
14.01012205712013
 30
0.0
 10
-9.564964075558009
 20
13.92069311491349
 30
0.0
 10
-9.611504408960811
 20
13.81623491761134
 30
0.0
 10
-9.652576734291521
 20
13.71579643485469
 30
0.0
 10
-9.722321627795395
 20
13.49665352872706
 30
0.0
 10
-9.785963968017398
 20
13.07138928299035
 30
0.0
 10
-9.975428790463936
 20
11.91665434816035
 30
0.0
 10
-10.05712962585971
 20
10.00289688078942
 30
0.0
 10
-9.822852385929842
 20
8.358952440814505
 30
0.0
 10
-9.697742621807662
 20
7.481045986150803
 30
0.0
 11
-9.295743379337636
 21
14.31394142902078
 31
0.0
 11
-9.358442962505023
 21
14.24447340025864
 31
0.0
 11
-9.415871988543813
 21
14.17036998562941
 31
0.0
 11
-9.468731422888254
 21
14.09220908780887
 31
0.0
 11
-9.515354589625246
 21
14.01387077043736
 31
0.0
 11
-9.564048607137465
 21
13.92016571597483
 31
0.0
 11
-9.607438325474277
 21
13.82417521378195
 31
0.0
 11
-9.65616563569506
 21
13.70143057335423
 31
0.0
 11
-9.683011280433845
 21
13.61773789479721
 31
0.0
 11
-9.77397380181145
 21
13.15733478879497
 31
0.0
 11
-9.882815203998063
 21
12.43795664936272
 31
0.0
 11
-9.985933390388254
 21
10.12207743403735
 31
0.0
 11
-9.697742621807662
 21
7.481045986150803
 31
0.0
  0
SPLINE
  5
EF
330
2
100
AcDbEntity
  8
GAIKEI
  6
Continuous
100
AcDbSpline
210
0.0
220
0.0
230
1.0
 70
    24
 71
     3
 72
     9
 73
     5
 74
     3
 42
0.0000000001
 43
0.0000000001
 44
0.00000000001
 40
0.0
 40
0.0
 40
0.0
 40
0.0
 40
1.34175798858701
 40
2.683515977173957
 40
2.683515977173957
 40
2.683515977173957
 40
2.683515977173957
 10
-22.9515944574776
 20
10.16059019453078
 30
0.0
 10
-22.97591913349763
 20
9.71399949313411
 30
0.0
 10
-23.02456848553768
 20
8.820818090340793
 30
0.0
 10
-23.07321783757762
 20
7.927636687547476
 30
0.0
 10
-23.0975425135976
 20
7.481045986150803
 30
0.0
 11
-22.9515944574776
 21
10.16059019453078
 31
0.0
 11
-23.02456848553766
 21
8.820818090340765
 31
0.0
 11
-23.0975425135976
 21
7.481045986150803
 31
0.0
  0
SPLINE
  5
F0
330
2
100
AcDbEntity
  8
GAIKEI
  6
Continuous
100
AcDbSpline
210
0.0
220
0.0
230
1.0
 70
    24
 71
     3
 72
     9
 73
     5
 74
     3
 42
0.0000000001
 43
0.0000000001
 44
0.00000000001
 40
0.0
 40
0.0
 40
0.0
 40
0.0
 40
0.2681104778408025
 40
0.536220955681687
 40
0.536220955681687
 40
0.536220955681687
 40
0.536220955681687
 10
-22.92100535867758
 20
10.69593795099081
 30
0.0
 10
-22.92610354181093
 20
10.60671332491415
 30
0.0
 10
-22.93629990807763
 20
10.42826407276081
 30
0.0
 10
-22.94649627434428
 20
10.24981482060747
 30
0.0
 10
-22.9515944574776
 20
10.16059019453078
 30
0.0
 11
-22.92100535867758
 21
10.69593795099081
 31
0.0
 11
-22.93629990807762
 21
10.42826407276084
 31
0.0
 11
-22.9515944574776
 21
10.16059019453078
 31
0.0
  0
SPLINE
  5
F1
330
2
100
AcDbEntity
  8
GAIKEI
  6
Continuous
100
AcDbSpline
210
0.0
220
0.0
230
1.0
 70
    24
 71
     3
 72
     9
 73
     5
 74
     3
 42
0.0000000001
 43
0.0000000001
 44
0.00000000001
 40
0.0
 40
0.0
 40
0.0
 40
0.0
 40
0.5344398718379444
 40
1.06887974367586
 40
1.06887974367586
 40
1.06887974367586
 40
1.06887974367586
 10
-22.90008555351755
 20
11.76461295687082
 30
0.0
 10
-22.90357218771089
 20
11.58650045589081
 30
0.0
 10
-22.91054545609757
 20
11.2302754539308
 30
0.0
 10
-22.91751872448423
 20
10.87405045197082
 30
0.0
 10
-22.92100535867758
 20
10.69593795099081
 30
0.0
 11
-22.90008555351755
 21
11.76461295687082
 31
0.0
 11
-22.91054545609757
 21
11.2302754539308
 31
0.0
 11
-22.92100535867758
 21
10.69593795099081
 31
0.0
  0
SPLINE
  5
F2
330
2
100
AcDbEntity
  8
GAIKEI
  6
Continuous
100
AcDbSpline
210
0.0
220
0.0
230
1.0
 70
     8
 71
     3
 72
    13
 73
     9
 74
     7
 42
0.0000000001
 43
0.0000000001
 44
0.00000000001
 40
0.0
 40
0.0
 40
0.0
 40
0.0
 40
0.1764951563883849
 40
0.3424769439441953
 40
0.6265745080993823
 40
0.944276449620556
 40
1.518773874673731
 40
2.138599801381039
 40
2.138599801381039
 40
2.138599801381039
 40
2.138599801381039
 10
-23.20743307745761
 20
13.8696022931808
 30
0.0
 10
-23.18458130845377
 20
13.81533757671931
 30
0.0
 10
-23.14023899236816
 20
13.71004055532782
 30
0.0
 10
-23.08218708083867
 20
13.50903119765256
 30
0.0
 10
-23.0307204782189
 20
13.25819413705048
 30
0.0
 10
-22.96715056734528
 20
12.87123321514275
 30
0.0
 10
-22.91424210035073
 20
12.36934718026899
 30
0.0
 10
-22.9049223080581
 20
11.97122767974852
 30
0.0
 10
-22.90008555351755
 20
11.76461295687082
 30
0.0
 11
-23.20743307745761
 21
13.8696022931808
 31
0.0
 11
-23.14222730910228
 21
13.70559391534067
 31
0.0
 11
-23.09469850250969
 21
13.54656257772413
 31
0.0
 11
-23.03471532035451
 21
13.26886950287809
 31
0.0
 11
-22.98318360814324
 21
12.95537467631328
 31
0.0
 11
-22.9233416438808
 21
12.38400244150838
 31
0.0
 11
-22.90008555351755
 21
11.76461295687082
 31
0.0
  0
SPLINE
  5
F3
330
2
100
AcDbEntity
  8
GAIKEI
  6
Continuous
100
AcDbSpline
210
0.0
220
0.0
230
1.0
 70
     8
 71
     3
 72
    13
 73
     9
 74
     7
 42
0.0000000001
 43
0.0000000001
 44
0.00000000001
 40
0.0
 40
0.0
 40
0.0
 40
0.0
 40
0.0942625497322395
 40
0.1900761114696066
 40
0.2827822445438428
 40
0.3744998510567148
 40
0.4556865466384295
 40
0.5343425276846184
 40
0.5343425276846184
 40
0.5343425276846184
 40
0.5343425276846184
 10
-23.49954175605763
 20
14.31394142902078
 30
0.0
 10
-23.47812304266407
 20
14.2909298372638
 30
0.0
 10
-23.43493318872853
 20
14.24452801711021
 30
0.0
 10
-23.3776699338627
 20
14.16949263730713
 30
0.0
 10
-23.32534338826497
 20
14.09206672046346
 30
0.0
 10
-23.28027251383244
 20
14.01580647804765
 30
0.0
 10
-23.24094903423958
 20
13.94170408760343
 30
0.0
 10
-23.21848651686519
 20
13.89338120007615
 30
0.0
 10
-23.20743307745761
 20
13.8696022931808
 30
0.0
 11
-23.49954175605763
 21
14.31394142902078
 31
0.0
 11
-23.4364414055762
 21
14.24391447670138
 31
0.0
 11
-23.37780897466814
 21
14.16813534594223
 31
0.0
 11
-23.32595263645806
 21
14.09128908840799
 31
0.0
 11
-23.27913600075033
 21
14.01242007062876
 31
0.0
 11
-23.24120452973199
 21
13.94063927204124
 31
0.0
 11
-23.20743307745761
 21
13.8696022931808
 31
0.0
  0
SPLINE
  5
F4
330
2
100
AcDbEntity
  8
GAIKEI
  6
Continuous
 62
     1
100
AcDbSpline
210
0.0
220
0.0
230
1.0
 70
     8
 71
     3
 72
    11
 73
     7
 74
     5
 42
0.0000000001
 43
0.0000000001
 44
0.00000000001
 40
0.0
 40
0.0
 40
0.0
 40
0.0
 40
0.2125606243162255
 40
0.4251224894807093
 40
0.6377022016901242
 40
0.8502878116032135
 40
0.8502878116032135
 40
0.8502878116032135
 40
0.8502878116032135
 10
-8.785874997117616
 20
16.3173635548508
 30
0.0
 10
-8.783002301700989
 20
16.38815949682537
 30
0.0
 10
-8.777256894098044
 20
16.52975179405432
 30
0.0
 10
-8.771350676801908
 20
16.74224167246687
 30
0.0
 10
-8.767252782592805
 20
16.954782443361
 30
0.0
 10
-8.766329606677992
 20
17.09650252906158
 30
0.0
 10
-8.765868012317639
 20
17.16736355485079
 30
0.0
 11
-8.785874997117616
 21
16.3173635548508
 31
0.0
 11
-8.777708919087217
 21
16.52976726051363
 31
0.0
 11
-8.771652235534247
 21
16.74224281935875
 31
0.0
 11
-8.767705018605624
 21
16.954785882105
 31
0.0
 11
-8.765868012317639
 21
17.16736355485079
 31
0.0
  0
LINE
  5
F5
330
2
100
AcDbEntity
  8
GAIKEI
  6
Continuous
100
AcDbLine
 10
-22.64444174807784
 20
7.217363554850805
 30
0.0
 11
-10.15084338731742
 21
7.217363554850805
 31
0.0
  0
ARC
  5
F6
330
2
100
AcDbEntity
  8
GAIKEI
  6
S110
 48
0.5
100
AcDbCircle
 10
-16.39764256769763
 20
7.417363554850794
 30
0.0
 40
6.25
100
AcDbArc
 50
181.8337780000488
 51
358.1662219999511
  0
LINE
  5
F7
330
2
100
AcDbEntity
  8
WAKU
 62
     4
100
AcDbLine
 10
62.93779671613254
 20
-21.4516808710583
 30
0.0
 11
62.93779671613254
 21
-61.4516808710583
 31
0.0
  0
LINE
  5
F9
330
2
100
AcDbEntity
  8
WAKU
 62
     4
100
AcDbLine
 10
-22.06220328386735
 20
-21.4516808710583
 30
0.0
 11
-22.06220328386735
 21
-61.4516808710583
 31
0.0
  0
TEXT
  5
FA
330
2
100
AcDbEntity
  8
MOJI1
100
AcDbText
 10
-59.56220328386734
 20
-25.4516808710583
 30
0.0
 40
3.0
  1
電　源
100
AcDbText
  0
TEXT
  5
FB
330
2
100
AcDbEntity
  8
MOJI1
100
AcDbText
 10
-19.56220328386734
 20
-25.4516808710583
 30
0.0
 40
3.0
  1
ＤＣ１２Ｖ、ＰｏＥ（ＩＥＥＥ８０２．３ａｆ準拠)
 41
0.95
100
AcDbText
  0
LINE
  5
FC
330
2
100
AcDbEntity
  8
WAKU
 62
     4
100
AcDbLine
 10
-62.06220328386734
 20
-21.4516808710583
 30
0.0
 11
-62.06220328386734
 21
-61.4516808710583
 31
0.0
  0
LINE
  5
FD
330
2
100
AcDbEntity
  8
WAKU
 62
     1
100
AcDbLine
 10
-62.06220328386734
 20
-36.4516808710583
 30
0.0
 11
62.93779671613254
 21
-36.4516808710583
 31
0.0
  0
LINE
  5
FE
330
2
100
AcDbEntity
  8
WAKU
 62
     1
100
AcDbLine
 10
-62.06220328386734
 20
-41.4516808710583
 30
0.0
 11
62.93779671613254
 21
-41.4516808710583
 31
0.0
  0
LINE
  5
FF
330
2
100
AcDbEntity
  8
WAKU
 62
     1
100
AcDbLine
 10
-62.06220328386734
 20
-46.4516808710583
 30
0.0
 11
62.93779671613254
 21
-46.4516808710583
 31
0.0
  0
LINE
  5
100
330
2
100
AcDbEntity
  8
WAKU
 62
     1
100
AcDbLine
 10
-62.06220328386734
 20
-51.4516808710583
 30
0.0
 11
62.93779671613254
 21
-51.4516808710583
 31
0.0
  0
LINE
  5
101
330
2
100
AcDbEntity
  8
WAKU
 62
     4
100
AcDbLine
 10
62.93779671613254
 20
-61.4516808710583
 30
0.0
 11
-62.06220328386734
 21
-61.4516808710583
 31
0.0
  0
LINE
  5
102
330
2
100
AcDbEntity
  8
WAKU
 62
     4
100
AcDbLine
 10
-62.06220328386734
 20
-21.4516808710583
 30
0.0
 11
62.93779671613254
 21
-21.4516808710583
 31
0.0
  0
LINE
  5
103
330
2
100
AcDbEntity
  8
WAKU
 62
     1
100
AcDbLine
 10
-62.06220328386734
 20
-26.4516808710583
 30
0.0
 11
62.93779671613254
 21
-26.4516808710583
 31
0.0
  0
LINE
  5
104
330
2
100
AcDbEntity
  8
WAKU
 62
     1
100
AcDbLine
 10
-62.06220328386734
 20
-31.4516808710583
 30
0.0
 11
62.93779671613254
 21
-31.4516808710583
 31
0.0
  0
TEXT
  5
105
330
2
100
AcDbEntity
  8
MOJI1
100
AcDbText
 10
-19.56220328386734
 20
-30.4516808710583
 30
0.0
 40
3.0
  1
ＤＣ１２Ｖ：約１Ａ、ＰｏＥ：約１２Ｗ（クラス0機器)
 41
0.9
100
AcDbText
  0
TEXT
  5
106
330
2
100
AcDbEntity
  8
MOJI1
100
AcDbText
 10
-59.56220328386734
 20
-30.4516808710583
 30
0.0
 40
3.0
  1
消費電力
100
AcDbText
  0
TEXT
  5
107
330
2
100
AcDbEntity
  8
MOJI1
100
AcDbText
 10
-59.56220328386734
 20
-35.4516808710583
 30
0.0
 40
3.0
  1
撮像素子
100
AcDbText
  0
TEXT
  5
108
330
2
100
AcDbEntity
  8
MOJI1
100
AcDbText
 10
-19.56220328386734
 20
-35.4516808710583
 30
0.0
 40
3.0
  1
１／４型　インターライン転送方式ＣＣＤ
100
AcDbText
  0
TEXT
  5
109
330
2
100
AcDbEntity
  8
MOJI1
100
AcDbText
 10
-19.56220328386734
 20
-45.4516808710583
 30
0.0
 40
3.0
  1
ＭＰＥＧ－４／ＪＰＥＧ　デュアルエンコーディング
 41
0.9
100
AcDbText
  0
TEXT
  5
10A
330
2
100
AcDbEntity
  8
MOJI1
100
AcDbText
 10
-59.56220328386734
 20
-45.4516808710583
 30
0.0
 40
3.0
  1
画像圧縮方式
100
AcDbText
  0
TEXT
  5
10B
330
2
100
AcDbEntity
  8
MOJI1
100
AcDbText
 10
-59.56220328386734
 20
-40.4516808710583
 30
0.0
 40
3.0
  1
最低照度
100
AcDbText
  0
TEXT
  5
10C
330
2
100
AcDbEntity
  8
MOJI1
100
AcDbText
 10
-19.56220328386734
 20
-40.4516808710583
 30
0.0
 40
3.0
  1
０．７ｌｘ（電子感度アップＯＦＦ、ＡＧＣ　ＨＩＧＨ時)
 41
0.85
100
AcDbText
  0
TEXT
  5
10D
330
2
100
AcDbEntity
  8
MOJI1
100
AcDbText
 10
-19.56220328386734
 20
-50.4516808710583
 30
0.0
 40
3.0
  1
ＶＧＡ（６４０×４８０)／ＱＶＧＡ（３２０×２４０）
 41
0.9
100
AcDbText
  0
TEXT
  5
10E
330
2
100
AcDbEntity
  8
MOJI1
100
AcDbText
 10
-59.56220328386734
 20
-50.4516808710583
 30
0.0
 40
3.0
  1
画像解像度
100
AcDbText
  0
TEXT
  5
10F
330
2
100
AcDbEntity
  8
MOJI1
100
AcDbText
 10
-59.56220328386734
 20
-55.4516808710583
 30
0.0
 40
3.0
  1
ネットワーク
100
AcDbText
  0
TEXT
  5
110
330
2
100
AcDbEntity
  8
MOJI1
100
AcDbText
 10
-19.56220328386734
 20
-55.4516808710583
 30
0.0
 40
3.0
  1
１０ＢＡＳＥ－Ｔ／１００ＢＡＳＥ－ＴＸ、ＲＪ４５コネクター
 41
0.75
100
AcDbText
  0
LINE
  5
111
330
2
100
AcDbEntity
  8
WAKU
 62
     1
100
AcDbLine
 10
-62.06220328386734
 20
-56.4516808710583
 30
0.0
 11
62.93779671613254
 21
-56.4516808710583
 31
0.0
  0
TEXT
  5
112
330
2
100
AcDbEntity
  8
MOJI1
100
AcDbText
 10
-19.56220328386734
 20
-60.4516808710583
 30
0.0
 40
3.0
  1
２２倍
100
AcDbText
  0
TEXT
  5
113
330
2
100
AcDbEntity
  8
MOJI1
100
AcDbText
 10
-59.56220328386734
 20
-60.4516808710583
 30
0.0
 40
3.0
  1
ズーム比
100
AcDbText
  0
ENDSEC
  0
SECTION
  2
OBJECTS
  0
DICTIONARY
  5
9
330
0
100
AcDbDictionary
281
     1
  3
ACAD_COLOR
350
31
  3
ACAD_GROUP
350
2D
  3
ACAD_LAYOUT
350
D
  3
ACAD_MATERIAL
350
30
  3
ACAD_MLINESTYLE
350
2E
  3
ACAD_PLOTSETTINGS
350
2F
  3
ACAD_PLOTSTYLENAME
350
8
  3
ACDBHEADERROUNDTRIPXREC
350
144
  3
AcDbVariableDictionary
350
13F
  0
DICTIONARY
  5
15
330
14
100
AcDbDictionary
280
     1
281
     1
  3
ACAD_LAYERFILTERS
360
16
  3
ACAD_LAYERSTATES
360
17
  0
DICTIONARY
  5
3
330
2
100
AcDbDictionary
280
     1
281
     1
  3
ACAD_LAYOUTSELFREF
360
4
  0
DICTIONARY
  5
F
330
E
100
AcDbDictionary
280
     1
281
     1
  3
ACAD_LAYOUTSELFREF
360
10
  0
DICTIONARY
  5
31
102
{ACAD_REACTORS
330
9
102
}
330
9
100
AcDbDictionary
281
     1
  0
DICTIONARY
  5
2D
102
{ACAD_REACTORS
330
9
102
}
330
9
100
AcDbDictionary
281
     1
  0
DICTIONARY
  5
D
102
{ACAD_REACTORS
330
9
102
}
330
9
100
AcDbDictionary
281
     1
  3
Model
350
C
  3
ﾚｲｱｳﾄ1
350
13
  0
DICTIONARY
  5
30
102
{ACAD_REACTORS
330
9
102
}
330
9
100
AcDbDictionary
281
     1
  0
DICTIONARY
  5
2E
102
{ACAD_REACTORS
330
9
102
}
330
9
100
AcDbDictionary
281
     1
  3
STANDARD
350
33
  0
DICTIONARY
  5
2F
102
{ACAD_REACTORS
330
9
102
}
330
9
100
AcDbDictionary
281
     1
  0
ACDBDICTIONARYWDFLT
  5
8
102
{ACAD_REACTORS
330
9
102
}
330
9
100
AcDbDictionary
281
     1
  3
Normal
350
7
100
AcDbDictionaryWithDefault
340
7
  0
DICTIONARY
  5
144
102
{ACAD_REACTORS
330
9
102
}
330
9
100
AcDbDictionary
281
     1
  3
COLORDICT
350
146
  3
MATERIALDICT
350
145
  0
DICTIONARY
  5
13F
102
{ACAD_REACTORS
330
9
102
}
330
9
100
AcDbDictionary
281
     1
  3
DIMASSOC
350
141
  3
HIDETEXT
350
140
  3
PROJECTNAME
350
142
  0
DICTIONARY
  5
16
102
{ACAD_REACTORS
330
15
102
}
330
15
100
AcDbDictionary
280
     1
281
     1
  0
DICTIONARY
  5
17
102
{ACAD_REACTORS
330
15
102
}
330
15
100
AcDbDictionary
281
     1
  0
XRECORD
  5
4
102
{ACAD_REACTORS
330
3
102
}
330
3
100
AcDbXrecord
280
     1
340
2
  0
XRECORD
  5
10
102
{ACAD_REACTORS
330
F
102
}
330
F
100
AcDbXrecord
280
     1
340
E
  0
LAYOUT
  5
C
102
{ACAD_XDICTIONARY
360
147
102
}
102
{ACAD_REACTORS
330
D
102
}
330
D
100
AcDbPlotSettings
  1

  2
8FPAM09-A4.pc3
  4
A4
  6

 40
4.349750041961669
 41
4.222751140594482
 42
4.3497314453125
 43
4.180419921875
 44
297.0106506347656
 45
210.0156707763672
 46
0.0
 47
6.019999999999999
 48
586.7197439017591
 49
80.03711269102495
140
1246.52177633949
141
483.5407420879955
142
1.0
143
1.367406275946202
 70
 11956
 72
     1
 73
     1
 74
     1
  7
tmsacad.ctb
 75
     0
147
0.7313115477022594
148
0.5975600756119093
149
0.005505254347554
100
AcDbLayout
  1
Model
 70
     1
 71
     0
 10
0.0
 20
0.0
 11
12.0
 21
9.0
 12
0.0
 22
0.0
 32
0.0
 14
0.0
 24
0.0
 34
0.0
 15
0.0
 25
0.0
 35
0.0
146
0.0
 13
0.0
 23
0.0
 33
0.0
 16
1.0
 26
0.0
 36
0.0
 17
0.0
 27
1.0
 37
0.0
 76
     0
330
2
  0
LAYOUT
  5
13
102
{ACAD_XDICTIONARY
360
149
102
}
102
{ACAD_REACTORS
330
D
102
}
330
D
100
AcDbPlotSettings
  1

  2
C:\Program Files\ACAD2000\plotters\DWF ePlot.pc3
  4

  6

 40
0.0
 41
0.0
 42
0.0
 43
0.0
 44
0.0
 45
0.0
 46
0.0
 47
0.0
 48
0.0
 49
0.0
140
0.0
141
0.0
142
1.0
143
1.0
 70
   688
 72
     0
 73
     0
 74
     5
  7
tmsacad.ctb
 75
    16
147
1.0
148
0.0
149
0.0
100
AcDbLayout
  1
ﾚｲｱｳﾄ1
 70
     1
 71
     1
 10
0.0
 20
0.0
 11
12.0
 21
9.0
 12
0.0
 22
0.0
 32
0.0
 14
1.000000000000000E+20
 24
1.000000000000000E+20
 34
1.000000000000000E+20
 15
-1.000000000000000E+20
 25
-1.000000000000000E+20
 35
-1.000000000000000E+20
146
0.0
 13
0.0
 23
0.0
 33
0.0
 16
1.0
 26
0.0
 36
0.0
 17
0.0
 27
1.0
 37
0.0
 76
     0
330
E
  0
MLINESTYLE
  5
33
102
{ACAD_REACTORS
330
2E
102
}
330
2E
100
AcDbMlineStyle
  2
STANDARD
 70
     0
  3

 62
   256
 51
90.0
 52
90.0
 71
     2
 49
0.5
 62
   256
  6
BYLAYER
 49
-0.5
 62
   256
  6
BYLAYER
  0
ACDBPLACEHOLDER
  5
7
102
{ACAD_REACTORS
330
8
102
}
330
8
  0
XRECORD
  5
146
102
{ACAD_REACTORS
330
144
102
}
330
144
100
AcDbXrecord
280
     1
340
31
  0
XRECORD
  5
145
102
{ACAD_REACTORS
330
144
102
}
330
144
100
AcDbXrecord
280
     1
340
30
  0
DICTIONARYVAR
  5
141
102
{ACAD_REACTORS
330
13F
102
}
330
13F
100
DictionaryVariables
280
     0
  1
1
  0
DICTIONARYVAR
  5
140
102
{ACAD_REACTORS
330
13F
102
}
330
13F
100
DictionaryVariables
280
     0
  1
1
  0
DICTIONARYVAR
  5
142
102
{ACAD_REACTORS
330
13F
102
}
330
13F
100
DictionaryVariables
280
     0
  1

  0
DICTIONARY
  5
147
330
C
100
AcDbDictionary
280
     1
281
     1
  3
ACAD_XREC_ROUNDTRIP
360
148
  0
DICTIONARY
  5
149
330
13
100
AcDbDictionary
280
     1
281
     1
  3
ACAD_XREC_ROUNDTRIP
360
14A
  0
XRECORD
  5
148
102
{ACAD_REACTORS
330
147
102
}
330
147
100
AcDbXrecord
280
     1
102
SHADEPLOT
 70
     0
102
SHADEPLOTRESLEVEL
 70
     2
102
SHADEPLOTCUSTOMDPI
 70
   300
  0
XRECORD
  5
14A
102
{ACAD_REACTORS
330
149
102
}
330
149
100
AcDbXrecord
280
     1
102
SHADEPLOT
 70
     0
102
SHADEPLOTRESLEVEL
 70
     2
102
SHADEPLOTCUSTOMDPI
 70
   300
  0
ENDSEC
  0
EOF
