  0
SECTION
  2
HEADER
  9
$ACADVER
  1
AC1015
  9
$ACADMAINTVER
 70
    20
  9
$DWGCODEPAGE
  3
ANSI_932
  9
$INSBASE
 10
129.0
 20
120.4992141396419
 30
0.0
  9
$EXTMIN
 10
-62.33850851989564
 20
-59.95103524735441
 30
-0.0015258207003583
  9
$EXTMAX
 10
62.7420004500691
 20
53.18004666827073
 30
0.0000000349246037
  9
$LIMMIN
 10
-1101.784450318844
 20
-1579.160531687244
  9
$LIMMAX
 10
-508.2420711400536
 20
-1161.440814074914
  9
$ORTHOMODE
 70
     1
  9
$REGENMODE
 70
     1
  9
$FILLMODE
 70
     1
  9
$QTEXTMODE
 70
     0
  9
$MIRRTEXT
 70
     1
  9
$LTSCALE
 40
1.0
  9
$ATTMODE
 70
     1
  9
$TEXTSIZE
 40
3.0
  9
$TRACEWID
 40
0.5
  9
$TEXTSTYLE
  7
STANDARD
  9
$CLAYER
  8
SUNPO
  9
$CELTYPE
  6
BYLAYER
  9
$CECOLOR
 62
   256
  9
$CELTSCALE
 40
1.0
  9
$DISPSILH
 70
     0
  9
$DIMSCALE
 40
1.0
  9
$DIMASZ
 40
2.0
  9
$DIMEXO
 40
2.0
  9
$DIMDLI
 40
8.0
  9
$DIMRND
 40
0.0
  9
$DIMDLE
 40
0.0
  9
$DIMEXE
 40
2.0
  9
$DIMTP
 40
0.0
  9
$DIMTM
 40
0.0
  9
$DIMTXT
 40
2.5
  9
$DIMCEN
 40
0.0
  9
$DIMTSZ
 40
0.0
  9
$DIMTOL
 70
     0
  9
$DIMLIM
 70
     0
  9
$DIMTIH
 70
     0
  9
$DIMTOH
 70
     0
  9
$DIMSE1
 70
     0
  9
$DIMSE2
 70
     0
  9
$DIMTAD
 70
     3
  9
$DIMZIN
 70
     0
  9
$DIMBLK
  1

  9
$DIMASO
 70
     1
  9
$DIMSHO
 70
     1
  9
$DIMPOST
  1

  9
$DIMAPOST
  1

  9
$DIMALT
 70
     0
  9
$DIMALTD
 70
     2
  9
$DIMALTF
 40
25.4
  9
$DIMLFAC
 40
1.0
  9
$DIMTOFL
 70
     1
  9
$DIMTVP
 40
0.0
  9
$DIMTIX
 70
     0
  9
$DIMSOXD
 70
     0
  9
$DIMSAH
 70
     1
  9
$DIMBLK1
  1
OPEN30
  9
$DIMBLK2
  1
OPEN30
  9
$DIMSTYLE
  2
STANDARD
  9
$DIMCLRD
 70
     0
  9
$DIMCLRE
 70
     0
  9
$DIMCLRT
 70
     0
  9
$DIMTFAC
 40
1.0
  9
$DIMGAP
 40
0.5
  9
$DIMJUST
 70
     0
  9
$DIMSD1
 70
     0
  9
$DIMSD2
 70
     0
  9
$DIMTOLJ
 70
     1
  9
$DIMTZIN
 70
     0
  9
$DIMALTZ
 70
     0
  9
$DIMALTTZ
 70
     0
  9
$DIMUPT
 70
     0
  9
$DIMDEC
 70
     4
  9
$DIMTDEC
 70
     4
  9
$DIMALTU
 70
     2
  9
$DIMALTTD
 70
     2
  9
$DIMTXSTY
  7
STANDARD
  9
$DIMAUNIT
 70
     0
  9
$DIMADEC
 70
     0
  9
$DIMALTRND
 40
0.0
  9
$DIMAZIN
 70
     0
  9
$DIMDSEP
 70
    46
  9
$DIMATFIT
 70
     3
  9
$DIMFRAC
 70
     0
  9
$DIMLDRBLK
  1
OPEN30
  9
$DIMLUNIT
 70
     2
  9
$DIMLWD
 70
    -2
  9
$DIMLWE
 70
    -2
  9
$DIMTMOVE
 70
     0
  9
$LUNITS
 70
     2
  9
$LUPREC
 70
     4
  9
$SKETCHINC
 40
0.1
  9
$FILLETRAD
 40
0.0
  9
$AUNITS
 70
     0
  9
$AUPREC
 70
     0
  9
$MENU
  1
ACAD
  9
$ELEVATION
 40
0.0
  9
$PELEVATION
 40
0.0
  9
$THICKNESS
 40
0.0
  9
$LIMCHECK
 70
     0
  9
$CHAMFERA
 40
0.0
  9
$CHAMFERB
 40
0.0
  9
$CHAMFERC
 40
0.0
  9
$CHAMFERD
 40
0.0
  9
$SKPOLY
 70
     0
  9
$TDCREATE
 40
2451815.565532581
  9
$TDUCREATE
 40
2451815.190532581
  9
$TDUPDATE
 40
2454053.397098333
  9
$TDUUPDATE
 40
2454053.022098333
  9
$TDINDWG
 40
0.9287734259
  9
$TDUSRTIMER
 40
0.9287734259
  9
$USRTIMER
 70
     1
  9
$ANGBASE
 50
0.0
  9
$ANGDIR
 70
     0
  9
$PDMODE
 70
     0
  9
$PDSIZE
 40
0.0
  9
$PLINEWID
 40
0.0
  9
$SPLFRAME
 70
     0
  9
$SPLINETYPE
 70
     6
  9
$SPLINESEGS
 70
     8
  9
$HANDSEED
  5
14B
  9
$SURFTAB1
 70
     6
  9
$SURFTAB2
 70
     6
  9
$SURFTYPE
 70
     6
  9
$SURFU
 70
     6
  9
$SURFV
 70
     6
  9
$UCSBASE
  2

  9
$UCSNAME
  2

  9
$UCSORG
 10
0.0
 20
0.0
 30
0.0
  9
$UCSXDIR
 10
1.0
 20
0.0
 30
0.0
  9
$UCSYDIR
 10
0.0
 20
1.0
 30
0.0
  9
$UCSORTHOREF
  2

  9
$UCSORTHOVIEW
 70
     0
  9
$UCSORGTOP
 10
0.0
 20
0.0
 30
0.0
  9
$UCSORGBOTTOM
 10
0.0
 20
0.0
 30
0.0
  9
$UCSORGLEFT
 10
0.0
 20
0.0
 30
0.0
  9
$UCSORGRIGHT
 10
0.0
 20
0.0
 30
0.0
  9
$UCSORGFRONT
 10
0.0
 20
0.0
 30
0.0
  9
$UCSORGBACK
 10
0.0
 20
0.0
 30
0.0
  9
$PUCSBASE
  2

  9
$PUCSNAME
  2

  9
$PUCSORG
 10
0.0
 20
0.0
 30
0.0
  9
$PUCSXDIR
 10
1.0
 20
0.0
 30
0.0
  9
$PUCSYDIR
 10
0.0
 20
1.0
 30
0.0
  9
$PUCSORTHOREF
  2

  9
$PUCSORTHOVIEW
 70
     0
  9
$PUCSORGTOP
 10
0.0
 20
0.0
 30
0.0
  9
$PUCSORGBOTTOM
 10
0.0
 20
0.0
 30
0.0
  9
$PUCSORGLEFT
 10
0.0
 20
0.0
 30
0.0
  9
$PUCSORGRIGHT
 10
0.0
 20
0.0
 30
0.0
  9
$PUCSORGFRONT
 10
0.0
 20
0.0
 30
0.0
  9
$PUCSORGBACK
 10
0.0
 20
0.0
 30
0.0
  9
$USERI1
 70
     0
  9
$USERI2
 70
     0
  9
$USERI3
 70
     0
  9
$USERI4
 70
     0
  9
$USERI5
 70
     0
  9
$USERR1
 40
0.0
  9
$USERR2
 40
0.0
  9
$USERR3
 40
0.0
  9
$USERR4
 40
0.0
  9
$USERR5
 40
0.0
  9
$WORLDVIEW
 70
     1
  9
$SHADEDGE
 70
     3
  9
$SHADEDIF
 70
    70
  9
$TILEMODE
 70
     1
  9
$MAXACTVP
 70
    48
  9
$PINSBASE
 10
0.0
 20
0.0
 30
0.0
  9
$PLIMCHECK
 70
     0
  9
$PEXTMIN
 10
1.000000000000000E+20
 20
1.000000000000000E+20
 30
1.000000000000000E+20
  9
$PEXTMAX
 10
-1.000000000000000E+20
 20
-1.000000000000000E+20
 30
-1.000000000000000E+20
  9
$PLIMMIN
 10
0.0
 20
0.0
  9
$PLIMMAX
 10
12.0
 20
9.0
  9
$UNITMODE
 70
     0
  9
$VISRETAIN
 70
     1
  9
$PLINEGEN
 70
     0
  9
$PSLTSCALE
 70
     1
  9
$TREEDEPTH
 70
  3020
  9
$CMLSTYLE
  2
STANDARD
  9
$CMLJUST
 70
     0
  9
$CMLSCALE
 40
1.0
  9
$PROXYGRAPHICS
 70
     1
  9
$MEASUREMENT
 70
     0
  9
$CELWEIGHT
370
    -1
  9
$ENDCAPS
280
     0
  9
$JOINSTYLE
280
     0
  9
$LWDISPLAY
290
     0
  9
$INSUNITS
 70
     0
  9
$HYPERLINKBASE
  1

  9
$STYLESHEET
  1

  9
$XEDIT
290
     1
  9
$CEPSNTYPE
380
     0
  9
$PSTYLEMODE
290
     1
  9
$FINGERPRINTGUID
  2
{1754B7AB-9B3C-11D4-AD9E-00104B1004F2}
  9
$VERSIONGUID
  2
{EEFCE5B0-C55A-4549-B323-EA966BDE39A1}
  9
$EXTNAMES
290
     1
  9
$PSVPSCALE
 40
0.0
  9
$OLESTARTUP
290
     0
  0
ENDSEC
  0
SECTION
  2
CLASSES
  0
CLASS
  1
ACDBDICTIONARYWDFLT
  2
AcDbDictionaryWithDefault
  3
ObjectDBX Classes
 90
        0
280
     0
281
     0
  0
CLASS
  1
ACDBPLACEHOLDER
  2
AcDbPlaceHolder
  3
ObjectDBX Classes
 90
        0
280
     0
281
     0
  0
CLASS
  1
LAYOUT
  2
AcDbLayout
  3
ObjectDBX Classes
 90
        0
280
     0
281
     0
  0
CLASS
  1
DICTIONARYVAR
  2
AcDbDictionaryVar
  3
ObjectDBX Classes
 90
        0
280
     0
281
     0
  0
ENDSEC
  0
SECTION
  2
TABLES
  0
TABLE
  2
VPORT
  5
20
330
0
100
AcDbSymbolTable
 70
     3
  0
VPORT
  5
143
330
20
100
AcDbSymbolTableRecord
100
AcDbViewportTableRecord
  2
*Active
 70
     0
 10
0.0
 20
0.0
 11
1.0
 21
1.0
 12
0.2017459650867295
 22
-3.385494289541838
 13
0.0
 23
0.0
 14
1.0
 24
1.0
 15
0.0
 25
0.0
 16
0.0
 26
0.0
 36
1.0
 17
0.0
 27
0.0
 37
0.0
 40
114.0137691607405
 41
1.401041666666666
 42
50.0
 43
0.0
 44
0.0
 50
0.0
 51
0.0
 71
     0
 72
 10000
 73
     1
 74
     0
 75
     0
 76
     1
 77
     0
 78
     0
281
     0
 65
     1
110
0.0
120
0.0
130
0.0
111
1.0
121
0.0
131
0.0
112
0.0
122
1.0
132
0.0
 79
     0
146
0.0
  0
ENDTAB
  0
TABLE
  2
LTYPE
  5
1B
330
0
100
AcDbSymbolTable
 70
     3
  0
LTYPE
  5
1C
330
1B
100
AcDbSymbolTableRecord
100
AcDbLinetypeTableRecord
  2
BYBLOCK
 70
     0
  3

 72
    65
 73
     0
 40
0.0
  0
LTYPE
  5
1D
330
1B
100
AcDbSymbolTableRecord
100
AcDbLinetypeTableRecord
  2
BYLAYER
 70
     0
  3

 72
    65
 73
     0
 40
0.0
  0
LTYPE
  5
A
330
1B
100
AcDbSymbolTableRecord
100
AcDbLinetypeTableRecord
  2
CONTINUOUS
 70
     0
  3
Solid line
 72
    65
 73
     0
 40
0.0
  0
LTYPE
  5
DB
330
1B
100
AcDbSymbolTableRecord
100
AcDbLinetypeTableRecord
  2
DOTTED
 70
     0
  3
Dotted
 72
    65
 73
     2
 40
3.5
 49
0.5
 74
     0
 49
-3.0
 74
     0
  0
LTYPE
  5
3B
330
1B
100
AcDbSymbolTableRecord
100
AcDbLinetypeTableRecord
  2
S110
 70
     0
  3
--- - - --- - - --- 3,-1,1,-1,1,-1
 72
    65
 73
     6
 40
8.0
 49
3.0
 74
     0
 49
-1.0
 74
     0
 49
1.0
 74
     0
 49
-1.0
 74
     0
 49
1.0
 74
     0
 49
-1.0
 74
     0
  0
ENDTAB
  0
TABLE
  2
LAYER
  5
14
102
{ACAD_XDICTIONARY
360
15
102
}
330
0
100
AcDbSymbolTable
 70
     7
  0
LAYER
  5
6
330
14
100
AcDbSymbolTableRecord
100
AcDbLayerTableRecord
  2
0
 70
     0
 62
     7
  6
CONTINUOUS
370
    -3
390
7
  0
LAYER
  5
E6
330
14
100
AcDbSymbolTableRecord
100
AcDbLayerTableRecord
  2
DEFPOINTS
 70
     0
 62
     7
  6
CONTINUOUS
290
     0
370
    -3
390
7
  0
LAYER
  5
F8
330
14
100
AcDbSymbolTableRecord
100
AcDbLayerTableRecord
  2
WAKU
 70
     0
 62
     4
  6
CONTINUOUS
370
    -3
390
7
  0
LAYER
  5
35
330
14
100
AcDbSymbolTableRecord
100
AcDbLayerTableRecord
  2
MOJI1
 70
     0
 62
     2
  6
CONTINUOUS
370
    -3
390
7
  0
LAYER
  5
3A
330
14
100
AcDbSymbolTableRecord
100
AcDbLayerTableRecord
  2
GAIKEI
 70
     0
 62
     7
  6
CONTINUOUS
370
    -3
390
7
  0
LAYER
  5
38
330
14
100
AcDbSymbolTableRecord
100
AcDbLayerTableRecord
  2
TOUROKU
 70
     0
 62
     1
  6
CONTINUOUS
370
    -3
390
7
  0
LAYER
  5
32
330
14
100
AcDbSymbolTableRecord
100
AcDbLayerTableRecord
  2
SUNPO
 70
     0
 62
     3
  6
CONTINUOUS
370
    -3
390
7
  0
ENDTAB
  0
TABLE
  2
STYLE
  5
18
330
0
100
AcDbSymbolTable
 70
     2
  0
STYLE
  5
19
330
18
100
AcDbSymbolTableRecord
100
AcDbTextStyleTableRecord
  2
STANDARD
 70
     0
 40
0.0
 41
1.0
 50
0.0
 71
     0
 42
3.0
  3
MONOTXT.shx
  4
BIGFONT.shx
  0
STYLE
  5
36
330
18
100
AcDbSymbolTableRecord
100
AcDbTextStyleTableRecord
  2
KANJI
 70
     0
 40
0.0
 41
1.0
 50
0.0
 71
     0
 42
3.5
  3
MONOTXT
  4
BIGFONT
  0
ENDTAB
  0
TABLE
  2
VIEW
  5
1E
330
0
100
AcDbSymbolTable
 70
     0
  0
ENDTAB
  0
TABLE
  2
UCS
  5
1F
330
0
100
AcDbSymbolTable
 70
     0
  0
ENDTAB
  0
TABLE
  2
APPID
  5
22
330
0
100
AcDbSymbolTable
 70
     1
  0
APPID
  5
23
330
22
100
AcDbSymbolTableRecord
100
AcDbRegAppTableRecord
  2
ACAD
 70
     0
  0
ENDTAB
  0
TABLE
  2
DIMSTYLE
  5
24
330
0
100
AcDbSymbolTable
 70
     1
100
AcDbDimStyleTable
 71
     1
340
25
  0
DIMSTYLE
105
25
102
{ACAD_REACTORS
330
DC
330
EA
102
}
330
24
100
AcDbSymbolTableRecord
100
AcDbDimStyleTableRecord
  2
STANDARD
 70
     0
 40
0.0
 41
2.0
 42
2.0
 43
8.0
 44
2.0
 73
     0
 74
     0
 77
     3
140
3.0
141
0.0
173
     1
279
     2
288
     1
340
19
341
26
343
26
344
26
  0
ENDTAB
  0
TABLE
  2
BLOCK_RECORD
  5
1
330
0
100
AcDbSymbolTable
 70
     5
  0
BLOCK_RECORD
  5
2
102
{ACAD_XDICTIONARY
360
3
102
}
330
1
100
AcDbSymbolTableRecord
100
AcDbBlockTableRecord
  2
*MODEL_SPACE
340
C
  0
BLOCK_RECORD
  5
E
102
{ACAD_XDICTIONARY
360
F
102
}
330
1
100
AcDbSymbolTableRecord
100
AcDbBlockTableRecord
  2
*PAPER_SPACE
340
13
  0
BLOCK_RECORD
  5
26
330
1
100
AcDbSymbolTableRecord
100
AcDbBlockTableRecord
  2
_OPEN30
340
0
102
{BLKREFS
331
E2
331
E3
331
F0
331
F1
331
12B
331
12C
331
137
331
138
102
}
  0
BLOCK_RECORD
  5
DD
330
1
100
AcDbSymbolTableRecord
100
AcDbBlockTableRecord
  2
*D1
340
0
  0
BLOCK_RECORD
  5
EB
330
1
100
AcDbSymbolTableRecord
100
AcDbBlockTableRecord
  2
*D2
340
0
  0
BLOCK_RECORD
  5
127
330
1
100
AcDbSymbolTableRecord
100
AcDbBlockTableRecord
  2
*D3
340
0
  0
BLOCK_RECORD
  5
133
330
1
100
AcDbSymbolTableRecord
100
AcDbBlockTableRecord
  2
*D4
340
0
  0
ENDTAB
  0
ENDSEC
  0
SECTION
  2
BLOCKS
  0
BLOCK
  5
5
330
2
100
AcDbEntity
  8
0
100
AcDbBlockBegin
  2
*MODEL_SPACE
 70
     0
 10
0.0
 20
0.0
 30
0.0
  3
*MODEL_SPACE
  1

  0
ENDBLK
  5
B
330
2
100
AcDbEntity
  8
0
100
AcDbBlockEnd
  0
BLOCK
  5
11
330
E
100
AcDbEntity
 67
     1
  8
0
100
AcDbBlockBegin
  2
*PAPER_SPACE
 70
     0
 10
0.0
 20
0.0
 30
0.0
  3
*PAPER_SPACE
  1

  0
ENDBLK
  5
12
330
E
100
AcDbEntity
 67
     1
  8
0
100
AcDbBlockEnd
  0
BLOCK
  5
27
330
26
100
AcDbEntity
  8
0
100
AcDbBlockBegin
  2
_OPEN30
 70
     0
 10
0.0
 20
0.0
 30
0.0
  3
_OPEN30
  1

  0
LINE
  5
28
330
26
100
AcDbEntity
  8
0
  6
ByBlock
 62
     0
100
AcDbLine
 10
-1.0
 20
0.26794919
 30
0.0
 11
0.0
 21
0.0
 31
0.0
  0
LINE
  5
29
330
26
100
AcDbEntity
  8
0
  6
ByBlock
 62
     0
100
AcDbLine
 10
0.0
 20
0.0
 30
0.0
 11
-1.0
 21
-0.26794919
 31
0.0
  0
LINE
  5
2A
330
26
100
AcDbEntity
  8
0
  6
ByBlock
 62
     0
100
AcDbLine
 10
0.0
 20
0.0
 30
0.0
 11
-1.0
 21
0.0
 31
0.0
  0
ENDBLK
  5
2B
330
26
100
AcDbEntity
  8
0
100
AcDbBlockEnd
  0
BLOCK
  5
DE
330
DD
100
AcDbEntity
  8
0
100
AcDbBlockBegin
  2
*D1
 70
     1
 10
0.0
 20
0.0
 30
0.0
  3
*D1
  1

  0
LINE
  5
DF
330
DD
100
AcDbEntity
  8
SUNPO
 62
     0
370
    -2
100
AcDbLine
 10
187.8925960197762
 20
68.04966980497095
 30
0.0
 11
194.5083162982117
 21
68.04966980497095
 31
0.0
  0
LINE
  5
E0
330
DD
100
AcDbEntity
  8
SUNPO
 62
     0
370
    -2
100
AcDbLine
 10
187.8925960197762
 20
84.34966980497094
 30
0.0
 11
194.5083162982117
 21
84.34966980497094
 31
0.0
  0
LINE
  5
E1
330
DD
100
AcDbEntity
  8
SUNPO
 62
     0
370
    -2
100
AcDbLine
 10
192.5083162982117
 20
70.04966980497094
 30
0.0
 11
192.5083162982117
 21
82.34966980497095
 31
0.0
  0
INSERT
  5
E2
330
DD
100
AcDbEntity
  8
SUNPO
 62
     0
370
    -2
100
AcDbBlockReference
  2
_OPEN30
 10
192.5083162982117
 20
68.04966980497095
 30
0.0
 41
2.0
 42
2.0
 43
2.0
 50
270.0
  0
INSERT
  5
E3
330
DD
100
AcDbEntity
  8
SUNPO
 62
     0
370
    -2
100
AcDbBlockReference
  2
_OPEN30
 10
192.5083162982117
 20
84.34966980497094
 30
0.0
 41
2.0
 42
2.0
 43
2.0
 50
90.0
  0
MTEXT
  5
E4
330
DD
100
AcDbEntity
  8
SUNPO
 62
     0
100
AcDbMText
 10
190.7583162982117
 20
76.19966980497098
 30
0.0
 40
2.5
 41
0.0
 71
     5
 72
     1
  1
\A1;163
 11
0.0000000000000001
 21
1.0
 31
0.0
 73
     1
 44
1.0
1001
ACAD
1000
MTEXTBEGIN
1070
    73
1070
     1
1070
    44
1040
1.0
1070
    74
1070
     0
1000
MTEXTEND
  0
POINT
  5
E5
330
DD
100
AcDbEntity
  8
DEFPOINTS
 62
     0
100
AcDbPoint
 10
185.8925960197762
 20
68.04966980497095
 30
0.0
  0
POINT
  5
E7
330
DD
100
AcDbEntity
  8
DEFPOINTS
 62
     0
100
AcDbPoint
 10
185.8925960197762
 20
84.34966980497094
 30
0.0
  0
POINT
  5
E8
330
DD
100
AcDbEntity
  8
DEFPOINTS
 62
     0
100
AcDbPoint
 10
192.5083162982117
 20
84.34966980497094
 30
0.0
  0
ENDBLK
  5
E9
330
DD
100
AcDbEntity
  8
0
100
AcDbBlockEnd
  0
BLOCK
  5
EC
330
EB
100
AcDbEntity
  8
0
100
AcDbBlockBegin
  2
*D2
 70
     1
 10
0.0
 20
0.0
 30
0.0
  3
*D2
  1

  0
LINE
  5
ED
330
EB
100
AcDbEntity
  8
SUNPO
 62
     0
370
    -2
100
AcDbLine
 10
167.4145889266897
 20
86.34966980497091
 30
0.0
 11
167.4145889266897
 21
94.34966980497092
 31
0.0
  0
LINE
  5
EE
330
EB
100
AcDbEntity
  8
SUNPO
 62
     0
370
    -2
100
AcDbLine
 10
185.9145325056397
 20
86.34966980497091
 30
0.0
 11
185.9145325056397
 21
94.34966980497092
 31
0.0
  0
LINE
  5
EF
330
EB
100
AcDbEntity
  8
SUNPO
 62
     0
370
    -2
100
AcDbLine
 10
169.4145889266897
 20
92.34966980497091
 30
0.0
 11
183.9145325056397
 21
92.34966980497091
 31
0.0
  0
INSERT
  5
F0
330
EB
100
AcDbEntity
  8
SUNPO
 62
     0
370
    -2
100
AcDbBlockReference
  2
_OPEN30
 10
167.4145889266897
 20
92.34966980497091
 30
0.0
 41
2.0
 42
2.0
 43
2.0
 50
180.0
  0
INSERT
  5
F1
330
EB
100
AcDbEntity
  8
SUNPO
 62
     0
370
    -2
100
AcDbBlockReference
  2
_OPEN30
 10
185.9145325056397
 20
92.34966980497091
 30
0.0
 41
2.0
 42
2.0
 43
2.0
  0
MTEXT
  5
F2
330
EB
100
AcDbEntity
  8
SUNPO
 62
     0
100
AcDbMText
 10
176.6645607161647
 20
94.09966980497092
 30
0.0
 40
2.5
 41
0.0
 71
     5
 72
     1
  1
\A1;φ185
 73
     1
 44
1.0
1001
ACAD
1000
MTEXTBEGIN
1070
    73
1070
     1
1070
    44
1040
1.0
1070
    74
1070
     0
1000
MTEXTEND
  0
POINT
  5
F3
330
EB
100
AcDbEntity
  8
DEFPOINTS
 62
     0
100
AcDbPoint
 10
167.4145889266897
 20
84.34966980497092
 30
0.0
  0
POINT
  5
F4
330
EB
100
AcDbEntity
  8
DEFPOINTS
 62
     0
100
AcDbPoint
 10
185.9145325056397
 20
84.34966980497092
 30
0.0
  0
POINT
  5
F5
330
EB
100
AcDbEntity
  8
DEFPOINTS
 62
     0
100
AcDbPoint
 10
185.9145325056397
 20
92.34966980497091
 30
0.0
  0
ENDBLK
  5
F6
330
EB
100
AcDbEntity
  8
0
100
AcDbBlockEnd
  0
BLOCK
  5
131
330
127
100
AcDbEntity
  8
0
100
AcDbBlockBegin
  2
*D3
 70
     1
 10
0.0
 20
0.0
 30
0.0
  3
*D3
  1

  0
LINE
  5
128
330
127
100
AcDbEntity
  8
SUNPO
 62
     0
370
    -2
100
AcDbLine
 10
-25.92187105718267
 20
21.0105742499606
 30
0.0
 11
-25.92187105718267
 21
29.0105742499606
 31
0.0
  0
LINE
  5
129
330
127
100
AcDbEntity
  8
SUNPO
 62
     0
370
    -2
100
AcDbLine
 10
-7.421927478232646
 20
21.0105742499606
 30
0.0
 11
-7.421927478232645
 21
29.0105742499606
 31
0.0
  0
LINE
  5
12A
330
127
100
AcDbEntity
  8
SUNPO
 62
     0
370
    -2
100
AcDbLine
 10
-23.92187105718267
 20
27.0105742499606
 30
0.0
 11
-9.421927478232646
 21
27.0105742499606
 31
0.0
  0
INSERT
  5
12B
330
127
100
AcDbEntity
  8
SUNPO
 62
     0
370
    -2
100
AcDbBlockReference
  2
_OPEN30
 10
-25.92187105718267
 20
27.0105742499606
 30
0.0
 41
2.0
 42
2.0
 43
2.0
 50
180.0
  0
INSERT
  5
12C
330
127
100
AcDbEntity
  8
SUNPO
 62
     0
370
    -2
100
AcDbBlockReference
  2
_OPEN30
 10
-7.421927478232645
 20
27.0105742499606
 30
0.0
 41
2.0
 42
2.0
 43
2.0
  0
MTEXT
  5
12D
330
127
100
AcDbEntity
  8
SUNPO
 62
     0
100
AcDbMText
 10
-16.67189926770766
 20
28.7605742499606
 30
0.0
 40
2.5
 41
0.0
 71
     5
 72
     1
  1
\A1;φ185
 73
     1
 44
1.0
1001
ACAD
1000
MTEXTBEGIN
1070
    73
1070
     1
1070
    44
1040
1.0
1070
    74
1070
     0
1000
MTEXTEND
  0
POINT
  5
12E
330
127
100
AcDbEntity
  8
DEFPOINTS
 62
     0
100
AcDbPoint
 10
-25.92187105718267
 20
19.0105742499606
 30
0.0
  0
POINT
  5
12F
330
127
100
AcDbEntity
  8
DEFPOINTS
 62
     0
100
AcDbPoint
 10
-7.421927478232646
 20
19.0105742499606
 30
0.0
  0
POINT
  5
130
330
127
100
AcDbEntity
  8
DEFPOINTS
 62
     0
100
AcDbPoint
 10
-7.421927478232645
 20
27.0105742499606
 30
0.0
  0
ENDBLK
  5
132
330
127
100
AcDbEntity
  8
0
100
AcDbBlockEnd
  0
BLOCK
  5
13D
330
133
100
AcDbEntity
  8
0
100
AcDbBlockBegin
  2
*D4
 70
     1
 10
0.0
 20
0.0
 30
0.0
  3
*D4
  1

  0
LINE
  5
134
330
133
100
AcDbEntity
  8
SUNPO
 62
     0
370
    -2
100
AcDbLine
 10
-5.443863964096181
 20
2.710574249960628
 30
0.0
 11
1.171856314339375
 21
2.710574249960626
 31
0.0
  0
LINE
  5
135
330
133
100
AcDbEntity
  8
SUNPO
 62
     0
370
    -2
100
AcDbLine
 10
-5.443863964096181
 20
19.01057424996063
 30
0.0
 11
1.171856314339379
 21
19.01057424996063
 31
0.0
  0
LINE
  5
136
330
133
100
AcDbEntity
  8
SUNPO
 62
     0
370
    -2
100
AcDbLine
 10
-0.8281436856606237
 20
4.710574249960627
 30
0.0
 11
-0.8281436856606209
 21
17.01057424996063
 31
0.0
  0
INSERT
  5
137
330
133
100
AcDbEntity
  8
SUNPO
 62
     0
370
    -2
100
AcDbBlockReference
  2
_OPEN30
 10
-0.8281436856606243
 20
2.710574249960627
 30
0.0
 41
2.0
 42
2.0
 43
2.0
 50
270.0
  0
INSERT
  5
138
330
133
100
AcDbEntity
  8
SUNPO
 62
     0
370
    -2
100
AcDbBlockReference
  2
_OPEN30
 10
-0.8281436856606205
 20
19.01057424996063
 30
0.0
 41
2.0
 42
2.0
 43
2.0
 50
90.0
  0
MTEXT
  5
139
330
133
100
AcDbEntity
  8
SUNPO
 62
     0
100
AcDbMText
 10
-2.578143685660624
 20
10.86057424996063
 30
0.0
 40
2.5
 41
0.0
 71
     5
 72
     1
  1
\A1;163
 11
0.0000000000000001
 21
1.0
 31
0.0
 73
     1
 44
1.0
1001
ACAD
1000
MTEXTBEGIN
1070
    73
1070
     1
1070
    44
1040
1.0
1070
    74
1070
     0
1000
MTEXTEND
  0
POINT
  5
13A
330
133
100
AcDbEntity
  8
DEFPOINTS
 62
     0
100
AcDbPoint
 10
-7.443863964096181
 20
2.710574249960629
 30
0.0
  0
POINT
  5
13B
330
133
100
AcDbEntity
  8
DEFPOINTS
 62
     0
100
AcDbPoint
 10
-7.443863964096181
 20
19.01057424996063
 30
0.0
  0
POINT
  5
13C
330
133
100
AcDbEntity
  8
DEFPOINTS
 62
     0
100
AcDbPoint
 10
-0.8281436856606205
 20
19.01057424996063
 30
0.0
  0
ENDBLK
  5
13E
330
133
100
AcDbEntity
  8
0
100
AcDbBlockEnd
  0
ENDSEC
  0
SECTION
  2
ENTITIES
  0
TEXT
  5
34
330
2
100
AcDbEntity
  8
MOJI1
100
AcDbText
 10
-35.33645998387215
 20
49.16011858463173
 30
0.0
 40
4.0
  1
ネットワークカメラ（天井直付金具付）
  7
KANJI
100
AcDbText
  0
TEXT
  5
37
330
2
100
AcDbEntity
  8
TOUROKU
100
AcDbText
 10
27.46349004905507
 20
43.16011858463153
 30
0.0
 40
2.0
  1
ＤＧＮＳ２０２＋ＤＧＱ１５２Ｓ
 72
     2
 11
62.66349004905504
 21
43.16011858463153
 31
0.0
100
AcDbText
  0
ARC
  5
39
330
2
100
AcDbEntity
  8
GAIKEI
  6
S110
 48
0.5
100
AcDbCircle
 10
-16.67189926770265
 20
9.029163010540628
 30
0.0
 40
6.25
100
AcDbArc
 50
181.8337780000488
 51
358.1662219999511
  0
LINE
  5
3C
330
2
100
AcDbEntity
  8
GAIKEI
  6
Continuous
100
AcDbLine
 10
-22.91869844808287
 20
8.829163010540639
 30
0.0
 11
-10.42510008732245
 21
8.829163010540639
 31
0.0
  0
SPLINE
  5
3D
330
2
100
AcDbEntity
  8
GAIKEI
  6
Continuous
 62
     1
100
AcDbSpline
210
0.0
220
0.0
230
1.0
 70
     8
 71
     3
 72
    11
 73
     7
 74
     5
 42
0.0000000001
 43
0.0000000001
 44
0.00000000001
 40
0.0
 40
0.0
 40
0.0
 40
0.0
 40
0.2125606243162255
 40
0.4251224894807093
 40
0.6377022016901242
 40
0.8502878116032135
 40
0.8502878116032135
 40
0.8502878116032135
 40
0.8502878116032135
 10
-9.060131697122642
 20
17.92916301054063
 30
0.0
 10
-9.057259001706029
 20
17.9999589525152
 30
0.0
 10
-9.051513594103084
 20
18.14155124974415
 30
0.0
 10
-9.045607376806941
 20
18.35404112815671
 30
0.0
 10
-9.041509482597859
 20
18.56658189905083
 30
0.0
 10
-9.040586306683053
 20
18.70830198475141
 30
0.0
 10
-9.040124712322665
 20
18.77916301054063
 30
0.0
 11
-9.060131697122642
 21
17.92916301054063
 31
0.0
 11
-9.051965619092243
 21
18.14156671620347
 31
0.0
 11
-9.045908935539273
 21
18.35404227504858
 31
0.0
 11
-9.04196171861065
 21
18.56658533779483
 31
0.0
 11
-9.040124712322665
 21
18.77916301054063
 31
0.0
  0
SPLINE
  5
3E
330
2
100
AcDbEntity
  8
GAIKEI
  6
Continuous
100
AcDbSpline
210
0.0
220
0.0
230
1.0
 70
     8
 71
     3
 72
    13
 73
     9
 74
     7
 42
0.0000000001
 43
0.0000000001
 44
0.00000000001
 40
0.0
 40
0.0
 40
0.0
 40
0.0
 40
0.0942625497322395
 40
0.1900761114696066
 40
0.2827822445438428
 40
0.3744998510567148
 40
0.4556865466384295
 40
0.5343425276846184
 40
0.5343425276846184
 40
0.5343425276846184
 40
0.5343425276846184
 10
-23.77379845606265
 20
15.92574088471062
 30
0.0
 10
-23.75237974266909
 20
15.90272929295364
 30
0.0
 10
-23.70918988873356
 20
15.85632747280004
 30
0.0
 10
-23.65192663386773
 20
15.78129209299696
 30
0.0
 10
-23.59960008827002
 20
15.7038661761533
 30
0.0
 10
-23.55452921383747
 20
15.62760593373748
 30
0.0
 10
-23.5152057342446
 20
15.55350354329326
 30
0.0
 10
-23.49274321687019
 20
15.50518065576598
 30
0.0
 10
-23.48168977746263
 20
15.48140174887064
 30
0.0
 11
-23.77379845606265
 21
15.92574088471062
 31
0.0
 11
-23.71069810558123
 21
15.85571393239121
 31
0.0
 11
-23.65206567467317
 21
15.77993480163206
 31
0.0
 11
-23.60020933646308
 21
15.70308854409782
 31
0.0
 11
-23.55339270075536
 21
15.6242195263186
 31
0.0
 11
-23.51546122973701
 21
15.55243872773107
 31
0.0
 11
-23.48168977746263
 21
15.48140174887064
 31
0.0
  0
SPLINE
  5
3F
330
2
100
AcDbEntity
  8
GAIKEI
  6
Continuous
100
AcDbSpline
210
0.0
220
0.0
230
1.0
 70
     8
 71
     3
 72
    13
 73
     9
 74
     7
 42
0.0000000001
 43
0.0000000001
 44
0.00000000001
 40
0.0
 40
0.0
 40
0.0
 40
0.0
 40
0.1764951563883849
 40
0.3424769439441953
 40
0.6265745080993823
 40
0.944276449620556
 40
1.518773874673731
 40
2.138599801381039
 40
2.138599801381039
 40
2.138599801381039
 40
2.138599801381039
 10
-23.48168977746263
 20
15.48140174887064
 30
0.0
 10
-23.45883800845883
 20
15.42713703240915
 30
0.0
 10
-23.41449569237318
 20
15.32184001101765
 30
0.0
 10
-23.35644378084368
 20
15.12083065334239
 30
0.0
 10
-23.30497717822394
 20
14.86999359274031
 30
0.0
 10
-23.2414072673503
 20
14.48303267083258
 30
0.0
 10
-23.18849880035577
 20
13.98114663595882
 30
0.0
 10
-23.1791790080631
 20
13.58302713543835
 30
0.0
 10
-23.17434225352258
 20
13.37641241256065
 30
0.0
 11
-23.48168977746263
 21
15.48140174887064
 31
0.0
 11
-23.41648400910731
 21
15.3173933710305
 31
0.0
 11
-23.36895520251471
 21
15.15836203341396
 31
0.0
 11
-23.30897202035953
 21
14.88066895856792
 31
0.0
 11
-23.25744030814826
 21
14.56717413200312
 31
0.0
 11
-23.19759834388583
 21
13.99580189719822
 31
0.0
 11
-23.17434225352258
 21
13.37641241256065
 31
0.0
  0
SPLINE
  5
40
330
2
100
AcDbEntity
  8
GAIKEI
  6
Continuous
100
AcDbSpline
210
0.0
220
0.0
230
1.0
 70
    24
 71
     3
 72
     9
 73
     5
 74
     3
 42
0.0000000001
 43
0.0000000001
 44
0.00000000001
 40
0.0
 40
0.0
 40
0.0
 40
0.0
 40
0.5344398718379444
 40
1.06887974367586
 40
1.06887974367586
 40
1.06887974367586
 40
1.06887974367586
 10
-23.17434225352258
 20
13.37641241256065
 30
0.0
 10
-23.17782888771592
 20
13.19829991158065
 30
0.0
 10
-23.18480215610256
 20
12.84207490962063
 30
0.0
 10
-23.19177542448924
 20
12.48584990766065
 30
0.0
 10
-23.1952620586826
 20
12.30773740668064
 30
0.0
 11
-23.17434225352258
 21
13.37641241256065
 31
0.0
 11
-23.18480215610259
 21
12.84207490962063
 31
0.0
 11
-23.1952620586826
 21
12.30773740668064
 31
0.0
  0
SPLINE
  5
41
330
2
100
AcDbEntity
  8
GAIKEI
  6
Continuous
100
AcDbSpline
210
0.0
220
0.0
230
1.0
 70
    24
 71
     3
 72
     9
 73
     5
 74
     3
 42
0.0000000001
 43
0.0000000001
 44
0.00000000001
 40
0.0
 40
0.0
 40
0.0
 40
0.0
 40
0.2681104778408025
 40
0.536220955681687
 40
0.536220955681687
 40
0.536220955681687
 40
0.536220955681687
 10
-23.1952620586826
 20
12.30773740668064
 30
0.0
 10
-23.20036024181596
 20
12.21851278060398
 30
0.0
 10
-23.21055660808267
 20
12.04006352845064
 30
0.0
 10
-23.22075297434929
 20
11.8616142762973
 30
0.0
 10
-23.22585115748262
 20
11.77238965022062
 30
0.0
 11
-23.1952620586826
 21
12.30773740668064
 31
0.0
 11
-23.21055660808264
 21
12.04006352845067
 31
0.0
 11
-23.22585115748262
 21
11.77238965022062
 31
0.0
  0
SPLINE
  5
42
330
2
100
AcDbEntity
  8
GAIKEI
  6
Continuous
100
AcDbSpline
210
0.0
220
0.0
230
1.0
 70
    24
 71
     3
 72
     9
 73
     5
 74
     3
 42
0.0000000001
 43
0.0000000001
 44
0.00000000001
 40
0.0
 40
0.0
 40
0.0
 40
0.0
 40
1.34175798858701
 40
2.683515977173957
 40
2.683515977173957
 40
2.683515977173957
 40
2.683515977173957
 10
-23.22585115748262
 20
11.77238965022062
 30
0.0
 10
-23.25017583350268
 20
11.32579894882394
 30
0.0
 10
-23.29882518554271
 20
10.43261754603062
 30
0.0
 10
-23.34747453758263
 20
9.53943614323731
 30
0.0
 10
-23.37179921360263
 20
9.092845441840637
 30
0.0
 11
-23.22585115748262
 21
11.77238965022062
 31
0.0
 11
-23.29882518554268
 21
10.4326175460306
 31
0.0
 11
-23.37179921360263
 21
9.092845441840637
 31
0.0
  0
SPLINE
  5
43
330
2
100
AcDbEntity
  8
GAIKEI
  6
Continuous
100
AcDbSpline
210
0.0
220
0.0
230
1.0
 70
     8
 71
     3
 72
    19
 73
    15
 74
    13
 42
0.0000000001
 43
0.0000000001
 44
0.00000000001
 40
0.0
 40
0.0
 40
0.0
 40
0.0
 40
0.0935790828629041
 40
0.1873309313325546
 40
0.2816879435114431
 40
0.3728504996690227
 40
0.4784523205496609
 40
0.5837938801004308
 40
0.7158567345110645
 40
0.8037495845359028
 40
1.273052472138235
 40
2.000617835746863
 40
4.318791664505276
 40
6.975500347786299
 40
6.975500347786299
 40
6.975500347786299
 40
6.975500347786299
 10
-9.570000079342662
 20
15.92574088471062
 30
0.0
 10
-9.591286400960655
 20
15.9029169559672
 30
0.0
 10
-9.633898342981638
 20
15.8572269609666
 30
0.0
 10
-9.690987271118842
 20
15.78252006649045
 30
0.0
 10
-9.743187833609141
 20
15.70539913975024
 30
0.0
 10
-9.792769769745348
 20
15.62192151280996
 30
0.0
 10
-9.839220775563063
 20
15.53249257060332
 30
0.0
 10
-9.885761108965823
 20
15.42803437330117
 30
0.0
 10
-9.926833434296582
 20
15.32759589054453
 30
0.0
 10
-9.996578327800335
 20
15.1084529844169
 30
0.0
 10
-10.06022066802245
 20
14.68318873868019
 30
0.0
 10
-10.24968549046898
 20
13.52845380385018
 30
0.0
 10
-10.33138632586477
 20
11.61469633647925
 30
0.0
 10
-10.09710908593485
 20
9.970751896504339
 30
0.0
 10
-9.971999321812688
 20
9.092845441840637
 30
0.0
 11
-9.570000079342662
 21
15.92574088471062
 31
0.0
 11
-9.632699662510049
 21
15.85627285594847
 31
0.0
 11
-9.690128688548838
 21
15.78216944131924
 31
0.0
 11
-9.742988122893279
 21
15.7040085434987
 31
0.0
 11
-9.789611289630272
 21
15.6256702261272
 31
0.0
 11
-9.838305307142491
 21
15.53196517166466
 31
0.0
 11
-9.881695025479302
 21
15.43597466947179
 31
0.0
 11
-9.930422335700086
 21
15.31323002904406
 31
0.0
 11
-9.957267980438871
 21
15.22953735048705
 31
0.0
 11
-10.04823050181647
 21
14.7691342444848
 31
0.0
 11
-10.15707190400309
 21
14.04975610505255
 31
0.0
 11
-10.26019009039328
 21
11.73387688972718
 31
0.0
 11
-9.971999321812688
 21
9.092845441840637
 31
0.0
  0
SPLINE
  5
44
330
2
100
AcDbEntity
  8
GAIKEI
  6
Continuous
 62
     1
100
AcDbSpline
210
0.0
220
0.0
230
1.0
 70
     8
 71
     3
 72
    15
 73
    11
 74
     9
 42
0.0000000001
 43
0.0000000001
 44
0.00000000001
 40
0.0
 40
0.0
 40
0.0
 40
0.0
 40
0.0423758979226332
 40
0.082660441809663
 40
0.1190666983970152
 40
0.1537994012869619
 40
0.1955252717479001
 40
0.2400248929222271
 40
0.302462463401084
 40
0.3680418289194005
 40
0.3680418289194005
 40
0.3680418289194005
 40
0.3680418289194005
 10
-8.907116765802697
 20
17.62916301054062
 30
0.0
 10
-8.921293303790548
 20
17.63131728735466
 30
0.0
 10
-8.94894673300044
 20
17.63551952216167
 30
0.0
 10
-8.981489052939139
 20
17.6604979091139
 30
0.0
 10
-9.004731236722818
 20
17.68948781373891
 30
0.0
 10
-9.023913954177714
 20
17.72204487823415
 30
0.0
 10
-9.038676302313035
 20
17.75970171808615
 30
0.0
 10
-9.052100127228413
 20
17.80744522685242
 30
0.0
 10
-9.061084675125073
 20
17.86454533277907
 30
0.0
 10
-9.060454511619894
 20
17.90727423334965
 30
0.0
 10
-9.060131697122642
 20
17.92916301054063
 30
0.0
 11
-8.907116765802697
 21
17.62916301054062
 31
0.0
 11
-8.948316201015074
 21
17.63907881927872
 31
0.0
 11
-8.981179534126056
 21
17.66237787104103
 31
0.0
 11
-9.004360574639463
 21
17.69045018621844
 31
0.0
 11
-9.021969352379301
 21
17.72038831569492
 31
0.0
 11
-9.037696729006654
 21
17.75903670363212
 31
0.0
 11
-9.049772687083077
 21
17.80186645405393
 31
0.0
 11
-9.059185197612464
 21
17.86359047573785
 31
0.0
 11
-9.060131697122642
 21
17.92916301054063
 31
0.0
  0
SPLINE
  5
45
330
2
100
AcDbEntity
  8
GAIKEI
  6
Continuous
 62
     1
100
AcDbSpline
210
0.0
220
0.0
230
1.0
 70
     8
 71
     3
 72
    11
 73
     7
 74
     5
 42
0.0000000001
 43
0.0000000001
 44
0.00000000001
 40
0.0
 40
0.0
 40
0.0
 40
0.0
 40
0.0505293916368638
 40
0.0998940282741878
 40
0.1434348900308631
 40
0.1858109968203231
 40
0.1858109968203231
 40
0.1858109968203231
 40
0.1858109968203231
 10
-9.179704519382653
 20
18.92916301054063
 30
0.0
 10
-9.16822893407965
 20
18.9168341018773
 30
0.0
 10
-9.145542287643081
 20
18.89246047871049
 30
0.0
 10
-9.112970559856194
 20
18.85745998558732
 30
0.0
 10
-9.082252408139481
 20
18.82444707710255
 30
0.0
 10
-9.062745398522821
 20
18.80347880828674
 30
0.0
 10
-9.053124119552649
 20
18.79313680468061
 30
0.0
 11
-9.179704519382653
 21
18.92916301054063
 31
0.0
 11
-9.145278362021656
 21
18.8921757274754
 31
0.0
 11
-9.11164848216606
 21
18.85603850938611
 31
0.0
 11
-9.08198844360686
 21
18.82416236226666
 31
0.0
 11
-9.053124119552649
 21
18.79313680468061
 31
0.0
  0
SPLINE
  5
46
330
2
100
AcDbEntity
  8
GAIKEI
  6
Continuous
 62
     1
100
AcDbSpline
210
0.0
220
0.0
230
1.0
 70
    24
 71
     3
 72
     9
 73
     5
 74
     3
 42
0.0000000001
 43
0.0000000001
 44
0.00000000001
 40
0.0
 40
0.0
 40
0.0
 40
0.0
 40
0.0095426871345888
 40
0.019085374269258
 40
0.019085374269258
 40
0.019085374269258
 40
0.019085374269258
 10
-9.053124119552649
 20
18.79313680468061
 30
0.0
 10
-9.050957551680994
 20
18.79080783899062
 30
0.0
 10
-9.046624415937714
 20
18.78614990761062
 30
0.0
 10
-9.042291280194319
 20
18.78149197623064
 30
0.0
 10
-9.040124712322665
 20
18.77916301054063
 30
0.0
 11
-9.053124119552649
 21
18.79313680468061
 31
0.0
 11
-9.046624415937685
 21
18.78614990761065
 31
0.0
 11
-9.040124712322665
 21
18.77916301054063
 31
0.0
  0
SPLINE
  5
47
330
2
100
AcDbEntity
  8
GAIKEI
  6
Continuous
 62
     1
100
AcDbSpline
210
0.0
220
0.0
230
1.0
 70
     8
 71
     3
 72
    15
 73
    11
 74
     9
 42
0.0000000001
 43
0.0000000001
 44
0.00000000001
 40
0.0
 40
0.0
 40
0.0
 40
0.0
 40
0.0660799243577013
 40
0.1292534897145219
 40
0.1723384302789525
 40
0.2127985042273341
 40
0.2414039747490496
 40
0.2709474751997913
 40
0.2968473531511446
 40
0.3231636010360525
 40
0.3231636010360525
 40
0.3231636010360525
 40
0.3231636010360525
 10
-7.66450995589264
 20
17.92916301054063
 30
0.0
 10
-7.665737718290529
 20
17.90716557687727
 30
0.0
 10
-7.668139243050347
 20
17.86413821125315
 30
0.0
 10
-7.675381620186783
 20
17.8070952235164
 30
0.0
 10
-7.684175813454999
 20
17.75897301109265
 30
0.0
 10
-7.692688411862178
 20
17.72255095661397
 30
0.0
 10
-7.702727879594846
 20
17.691181073657
 30
0.0
 10
-7.712005257608637
 20
17.66492859529131
 30
0.0
 10
-7.726603224412713
 20
17.64065429817131
 30
0.0
 10
-7.742654720691206
 20
17.6330137482616
 30
0.0
 10
-7.75074446592265
 20
17.62916301054062
 30
0.0
 11
-7.66450995589264
 21
17.92916301054063
 31
0.0
 11
-7.668985255764482
 21
17.86323480645333
 31
0.0
 11
-7.676898687788479
 21
17.80055883854302
 31
0.0
 11
-7.684687858481652
 21
17.75818383502263
 31
0.0
 11
-7.694202284508889
 21
17.71885835624258
 31
0.0
 11
-7.702752974651843
 21
17.69156076217555
 31
0.0
 11
-7.713480557350862
 21
17.66403373203573
 31
0.0
 11
-7.728184274392049
 21
17.64271227844861
 31
0.0
 11
-7.75074446592265
 21
17.62916301054062
 31
0.0
  0
SPLINE
  5
48
330
2
100
AcDbEntity
  8
GAIKEI
  6
Continuous
 62
     1
100
AcDbSpline
210
0.0
220
0.0
230
1.0
 70
    24
 71
     3
 72
     9
 73
     5
 74
     3
 42
0.0000000001
 43
0.0000000001
 44
0.00000000001
 40
0.0
 40
0.0
 40
0.0
 40
0.0
 40
0.0095426871275787
 40
0.0190853742551188
 40
0.0190853742551188
 40
0.0190853742551188
 40
0.0190853742551188
 10
-7.644502971082658
 20
18.77916301054063
 30
0.0
 10
-7.646669538952664
 20
18.78149197622896
 30
0.0
 10
-7.651002674692676
 20
18.7861499076056
 30
0.0
 10
-7.65533581043266
 20
18.79080783898227
 30
0.0
 10
-7.657502378302638
 20
18.79313680467061
 30
0.0
 11
-7.644502971082658
 21
18.77916301054063
 31
0.0
 11
-7.651002674692676
 21
18.78614990760562
 31
0.0
 11
-7.657502378302638
 21
18.79313680467061
 31
0.0
  0
SPLINE
  5
49
330
2
100
AcDbEntity
  8
GAIKEI
  6
Continuous
 62
     1
100
AcDbSpline
210
0.0
220
0.0
230
1.0
 70
     8
 71
     3
 72
    11
 73
     7
 74
     5
 42
0.0000000001
 43
0.0000000001
 44
0.00000000001
 40
0.0
 40
0.0
 40
0.0
 40
0.0
 40
0.0423758478606567
 40
0.0859165246691104
 40
0.1352813462615956
 40
0.1858109968344627
 40
0.1858109968344627
 40
0.1858109968344627
 40
0.1858109968344627
 10
-7.657502378302638
 20
18.79313680467061
 30
0.0
 10
-7.667123598481424
 20
18.80347874508719
 30
0.0
 10
-7.686630507312031
 20
18.82444690557921
 30
0.0
 10
-7.717348600219366
 20
18.85745975089429
 30
0.0
 10
-7.749920386791245
 20
18.89246030721946
 30
0.0
 10
-7.772607134035183
 20
18.91683403869663
 30
0.0
 10
-7.784082778142646
 20
18.92916301054063
 30
0.0
 11
-7.657502378302638
 21
18.79313680467061
 31
0.0
 11
-7.686366525978087
 21
18.82416217269227
 31
0.0
 11
-7.716026438534072
 21
18.85603818442695
 31
0.0
 11
-7.74965644437384
 21
18.89217553792821
 31
0.0
 11
-7.784082778142646
 21
18.92916301054063
 31
0.0
  0
SPLINE
  5
4A
330
2
100
AcDbEntity
  8
GAIKEI
  6
Continuous
 62
     1
100
AcDbSpline
210
0.0
220
0.0
230
1.0
 70
     8
 71
     3
 72
    11
 73
     7
 74
     5
 42
0.0000000001
 43
0.0000000001
 44
0.00000000001
 40
0.0
 40
0.0
 40
0.0
 40
0.0
 40
0.2125858603243021
 40
0.425165751399593
 40
0.637727437712463
 40
0.8502878116034915
 40
0.8502878116034915
 40
0.8502878116034915
 40
0.8502878116034915
 10
-7.644502971082658
 20
18.77916301054063
 30
0.0
 10
-7.644964566043711
 20
18.70830190128056
 30
0.0
 10
-7.645887743004493
 20
18.56658167248643
 30
0.0
 10
-7.649985642865857
 20
18.35404081819348
 30
0.0
 10
-7.655891861885152
 20
18.14155102334851
 30
0.0
 10
-7.661637263802418
 20
17.99995886910382
 30
0.0
 10
-7.66450995589264
 20
17.92916301054063
 30
0.0
 11
-7.644502971082658
 21
18.77916301054063
 31
0.0
 11
-7.646339980426887
 21
18.56658508740068
 31
0.0
 11
-7.650287204404094
 21
18.35404184588862
 31
0.0
 11
-7.656343886588274
 21
18.14156646592875
 31
0.0
 11
-7.66450995589264
 21
17.92916301054063
 31
0.0
  0
SPLINE
  5
4B
330
2
100
AcDbEntity
  8
GAIKEI
  6
Continuous
 62
     1
100
AcDbSpline
210
0.0
220
0.0
230
1.0
 70
     8
 71
     3
 72
    37
 73
    33
 74
    31
 42
0.0000000001
 43
0.0000000001
 44
0.00000000001
 40
0.0
 40
0.0
 40
0.0
 40
0.0
 40
0.0381060979557989
 40
0.0754159358051597
 40
0.117292306769953
 40
0.1591596939657254
 40
0.2159813758092268
 40
0.2742065793088187
 40
0.3548645908666702
 40
0.4367004884820747
 40
0.5372950405999159
 40
0.6379138866275441
 40
0.7465710481887854
 40
0.8539427142955661
 40
0.9635267357813949
 40
1.072022367848206
 40
1.187553114306758
 40
1.303000171741717
 40
1.435834734760204
 40
1.569254537838317
 40
1.729223093377608
 40
1.889486321424147
 40
2.082748923384927
 40
2.276003586400619
 40
2.509019188487632
 40
2.742370901404753
 40
3.018016393097506
 40
3.285087911132506
 40
3.642783298350493
 40
4.015765442759414
 40
4.534704059658482
 40
5.077813441406807
 40
5.077813441406807
 40
5.077813441406807
 40
5.077813441406807
 10
-18.28595315674261
 20
3.394564836260542
 30
0.0
 10
-18.28595424225273
 20
3.407266868866088
 30
0.0
 10
-18.28595639059031
 20
3.432405514042685
 30
0.0
 10
-18.28595970421733
 20
3.471502949492247
 30
0.0
 10
-18.28596310155879
 20
3.511854148019196
 30
0.0
 10
-18.28596701889373
 20
3.558709294523495
 30
0.0
 10
-18.28597135244817
 20
3.611014051856898
 30
0.0
 10
-18.28597670277321
 20
3.676249017271175
 30
0.0
 10
-18.28598266093473
 20
3.749822054587554
 30
0.0
 10
-18.28598965436831
 20
3.83751820807241
 30
0.0
 10
-18.28599705129386
 20
3.931867973036133
 30
0.0
 10
-18.28600498981399
 20
4.03515815930001
 30
0.0
 10
-18.28601293769895
 20
4.140707383566024
 30
0.0
 10
-18.28602093062537
 20
4.249244999656397
 30
0.0
 10
-18.28602873896176
 20
4.357728772595223
 30
0.0
 10
-18.28603655817423
 20
4.468932238990788
 30
0.0
 10
-18.28604431630299
 20
4.582090050711656
 30
0.0
 10
-18.28605241579134
 20
4.703360839411928
 30
0.0
 10
-18.28606066464482
 20
4.830594646988487
 30
0.0
 10
-18.28606957916702
 20
4.972668953920859
 30
0.0
 10
-18.28607871728081
 20
5.123886149199591
 30
0.0
 10
-18.28608862362955
 20
5.295050944095265
 30
0.0
 10
-18.28609865754933
 20
5.477311108160392
 30
0.0
 10
-18.28610938395215
 20
5.683822063569976
 30
0.0
 10
-18.28612004501093
 20
5.903696055985335
 30
0.0
 10
-18.28613108936417
 20
6.151033657971609
 30
0.0
 10
-18.28614159983107
 20
6.409723231973941
 30
0.0
 10
-18.28615239403157
 20
6.709860697429562
 30
0.0
 10
-18.28616246965379
 20
7.042443713832994
 30
0.0
 10
-18.28617294828797
 20
7.458982429877437
 30
0.0
 10
-18.28618146520765
 20
7.93732581083222
 30
0.0
 10
-18.28618337408312
 20
8.291341810379023
 30
0.0
 10
-18.28618435024259
 20
8.472378270960632
 30
0.0
 11
-18.28595315674261
 21
3.394564836260542
 31
0.0
 11
-18.28595640873857
 21
3.432670934077577
 31
0.0
 11
-18.28595957193408
 21
3.469980771792847
 31
0.0
 11
-18.28596309769898
 21
3.511857142609215
 31
0.0
 11
-18.28596659768198
 21
3.553724529658694
 31
0.0
 11
-18.28597130586797
 21
3.610546211307138
 31
0.0
 11
-18.28597608108111
 21
3.668771414610915
 31
0.0
 11
-18.28598261263318
 21
3.74942942590431
 31
0.0
 11
-18.28598913923912
 21
3.831265323259458
 31
0.0
 11
-18.2859970248009
 21
3.931859875068226
 31
0.0
 11
-18.28600475878682
 21
4.032478720798621
 31
0.0
 11
-18.28601293975572
 21
4.141135882051884
 31
0.0
 11
-18.28602084682626
 21
4.248507547867518
 31
0.0
 11
-18.28602873455873
 21
4.358091569069472
 31
0.0
 11
-18.28603636255957
 21
4.466587200868133
 31
0.0
 11
-18.28604428408687
 21
4.58211794705511
 31
0.0
 11
-18.28605199369269
 21
4.697565004232643
 31
0.0
 11
-18.28606060590004
 21
4.830399566971948
 31
0.0
 11
-18.28606897707385
 21
4.963819369787444
 31
0.0
 11
-18.28607864330649
 21
5.12378792503469
 31
0.0
 11
-18.28608791863064
 21
5.284051152812821
 31
0.0
 11
-18.28609855746543
 21
5.477313754480775
 31
0.0
 11
-18.28610859467147
 21
5.670568417235813
 31
0.0
 11
-18.28611989078189
 21
5.90358401904902
 31
0.0
 11
-18.28613031637803
 21
6.136935731733245
 31
0.0
 11
-18.28614149822857
 21
6.412581223199197
 31
0.0
 11
-18.28615109188615
 21
6.679652741061886
 31
0.0
 11
-18.28616201534885
 21
7.03734812811308
 31
0.0
 11
-18.28617134216483
 21
7.410330272405388
 31
0.0
 11
-18.28618027259227
 21
7.929268889227614
 31
0.0
 11
-18.28618435024259
 21
8.472378270960632
 31
0.0
  0
SPLINE
  5
4C
330
2
100
AcDbEntity
  8
GAIKEI
  6
Continuous
 62
     1
100
AcDbSpline
210
0.0
220
0.0
230
1.0
 70
     8
 71
     3
 72
    37
 73
    33
 74
    31
 42
0.0000000001
 43
0.0000000001
 44
0.00000000001
 40
0.0
 40
0.0
 40
0.0
 40
0.0
 40
0.5419777888176443
 40
1.060006982535387
 40
1.433288981854612
 40
1.791446641151083
 40
2.059439052344091
 40
2.335928043794371
 40
2.570018232473814
 40
2.8037547944595
 40
2.99759771464228
 40
3.191446032553262
 40
3.352178802618184
 40
3.512603990531088
 40
3.646434495717675
 40
3.779674573188663
 40
3.895628672692456
 40
4.011697127159955
 40
4.120890122389646
 40
4.231248635443598
 40
4.339127336776206
 40
4.448260222915506
 40
4.548421284539235
 40
4.648414364680293
 40
4.728992472745613
 40
4.808398869866426
 40
4.865549655654013
 40
4.921382603483766
 40
4.962602322548905
 40
5.003840907542596
 40
5.040644291983292
 40
5.078235168748184
 40
5.078235168748184
 40
5.078235168748184
 40
5.078235168748184
 10
-15.05761417968261
 20
8.472378270220531
 30
0.0
 10
-15.05761515483218
 20
8.291719007282509
 30
0.0
 10
-15.05761706204194
 20
7.938383346439707
 30
0.0
 10
-15.05762555535693
 20
7.460620352551899
 30
0.0
 10
-15.05763601707178
 20
7.044130735237928
 30
0.0
 10
-15.05764610285751
 20
6.710986712118867
 30
0.0
 10
-15.05765691960363
 20
6.41010702499895
 30
0.0
 10
-15.05766746407272
 20
6.150583161437992
 30
0.0
 10
-15.05767854627947
 20
5.902477914313124
 30
0.0
 10
-15.05768924605357
 20
5.681921357622826
 30
0.0
 10
-15.05770001277918
 20
5.47477875787581
 30
0.0
 10
-15.05771008516609
 20
5.291970755433453
 30
0.0
 10
-15.05772002984568
 20
5.120301997091701
 30
0.0
 10
-15.05772920405883
 20
4.968639176314212
 30
0.0
 10
-15.05773815477585
 20
4.826140586405045
 30
0.0
 10
-15.05774644150949
 20
4.698465692620104
 30
0.0
 10
-15.05775458305447
 20
4.576711482411468
 30
0.0
 10
-15.05776239089647
 20
4.462972966279068
 30
0.0
 10
-15.05777026804969
 20
4.351099645639322
 30
0.0
 10
-15.05777813559547
 20
4.241956242717378
 30
0.0
 10
-15.05778618413384
 20
4.132832876172201
 30
0.0
 10
-15.05779415836207
 20
4.027108660107671
 30
0.0
 10
-15.05780209455193
 20
3.92401298444507
 30
0.0
 10
-15.05780944171289
 20
3.830435568123419
 30
0.0
 10
-15.05781636143541
 20
3.743776373290614
 30
0.0
 10
-15.05782222846707
 20
3.671397943203785
 30
0.0
 10
-15.05782749208319
 20
3.607267899840451
 30
0.0
 10
-15.05783175327514
 20
3.555866749122884
 30
0.0
 10
-15.0578356088705
 20
3.509769665321272
 30
0.0
 10
-15.05783895697234
 20
3.47001576929577
 30
0.0
 10
-15.05784222440877
 20
3.431471487367787
 30
0.0
 10
-15.05784434384628
 20
3.406673400389848
 30
0.0
 10
-15.0578454147826
 20
3.394143108180657
 30
0.0
 11
-15.05761417968261
 21
8.472378270220531
 31
0.0
 11
-15.05761824863367
 21
7.930400481418161
 31
0.0
 11
-15.05762714988441
 21
7.412371287776892
 31
0.0
 11
-15.05763647109819
 21
7.039089288574047
 31
0.0
 11
-15.05764740035818
 21
6.68093162944433
 31
0.0
 11
-15.05765702354199
 21
6.412939218424099
 31
0.0
 11
-15.05766823978899
 21
6.136450227201322
 31
0.0
 11
-15.05767870168051
 21
5.902360038755659
 31
0.0
 11
-15.05769003873479
 21
5.668623477044917
 31
0.0
 11
-15.05770011350881
 21
5.474780557123949
 31
0.0
 11
-15.05771079338478
 21
5.280932239507166
 31
0.0
 11
-15.05772010446719
 21
5.120199469711934
 31
0.0
 11
-15.05772980799429
 21
4.959774282092496
 31
0.0
 11
-15.05773821390977
 21
4.825943777169896
 31
0.0
 11
-15.05774686212442
 21
4.692703699979574
 31
0.0
 11
-15.05775461486138
 21
4.576749600734956
 31
0.0
 11
-15.05776258339068
 21
4.460681146540991
 31
0.0
 11
-15.05777027098162
 21
4.351488151581918
 31
0.0
 11
-15.0577782262805
 21
4.241129638814697
 31
0.0
 11
-15.05778618312467
 21
4.133250937775528
 31
0.0
 11
-15.05779441340667
 21
4.024118051946572
 31
0.0
 11
-15.05780212451452
 21
3.923956990619672
 31
0.0
 11
-15.05780997448158
 21
3.823963910786744
 31
0.0
 11
-15.05781640900028
 21
3.743385802978338
 31
0.0
 11
-15.05782284546615
 21
3.663979406118386
 31
0.0
 11
-15.05782753607332
 21
3.606828620523288
 31
0.0
 11
-15.0578321650143
 21
3.55099567288542
 31
0.0
 11
-15.05783561232789
 21
3.509775953964435
 31
0.0
 11
-15.05783908548119
 21
3.468537369117001
 31
0.0
 11
-15.05784220638548
 21
3.43173398480863
 31
0.0
 11
-15.0578454147826
 21
3.394143108180657
 31
0.0
  0
SPLINE
  5
4D
330
2
100
AcDbEntity
  8
GAIKEI
  6
Continuous
 62
     1
100
AcDbSpline
210
0.0
220
0.0
230
1.0
 70
     8
 71
     3
 72
     9
 73
     5
 74
     3
 42
0.0000000001
 43
0.0000000001
 44
0.00000000001
 40
0.0
 40
0.0
 40
0.0
 40
0.0
 40
0.1783919549935386
 40
0.3567839100003454
 40
0.3567839100003454
 40
0.3567839100003454
 40
0.3567839100003454
 10
-15.05765791968264
 20
8.829163010540639
 30
0.0
 10
-15.05765002552709
 20
8.769699026065325
 30
0.0
 10
-15.05763423721603
 20
8.650771057110247
 30
0.0
 10
-15.05762069128713
 20
8.531843087878627
 30
0.0
 10
-15.05761391832266
 20
8.472379103260635
 30
0.0
 11
-15.05765791968264
 21
8.829163010540639
 31
0.0
 11
-15.05763479781154
 21
8.650771057045545
 31
0.0
 11
-15.05761391832266
 21
8.472379103260635
 31
0.0
  0
SPLINE
  5
4E
330
2
100
AcDbEntity
  8
GAIKEI
  6
Continuous
 62
     1
100
AcDbSpline
210
0.0
220
0.0
230
1.0
 70
     8
 71
     3
 72
     9
 73
     5
 74
     3
 42
0.0000000001
 43
0.0000000001
 44
0.00000000001
 40
0.0
 40
0.0
 40
0.0
 40
0.0
 40
0.1783919464470673
 40
0.3567838928803274
 40
0.3567838928803274
 40
0.3567838928803274
 40
0.3567838928803274
 10
-18.28618461704263
 20
8.472379120380651
 30
0.0
 10
-18.28617784408399
 20
8.53184310214543
 30
0.0
 10
-18.28616429816674
 20
8.650771065670355
 30
0.0
 10
-18.28614850985733
 20
8.769699028918736
 30
0.0
 10
-18.28614061570261
 20
8.829163010540639
 30
0.0
 11
-18.28618461704263
 21
8.472379120380651
 31
0.0
 11
-18.2861637375687
 21
8.650771065605823
 31
0.0
 11
-18.28614061570261
 21
8.829163010540639
 31
0.0
  0
SPLINE
  5
4F
330
2
100
AcDbEntity
  8
GAIKEI
  6
Continuous
 62
     1
100
AcDbSpline
210
0.0
220
0.0
230
1.0
 70
     8
 71
     3
 72
    19
 73
    15
 74
    13
 42
0.0000000001
 43
0.0000000001
 44
0.00000000001
 40
0.0
 40
0.0
 40
0.0
 40
0.0
 40
0.5651510810066258
 40
1.128869645271079
 40
1.683659515294667
 40
2.237312950727944
 40
2.785573418785355
 40
3.334704815774257
 40
3.877373262282004
 40
4.409663110438333
 40
4.981670026341208
 40
5.564587934965523
 40
6.246582307049009
 40
6.950558832234283
 40
6.950558832234283
 40
6.950558832234283
 40
6.950558832234283
 10
-15.05785438336261
 20
3.360467606100542
 30
0.0
 10
-14.87847388779849
 20
3.418520382195112
 30
0.0
 10
-14.52016758139396
 20
3.534478785105989
 30
0.0
 10
-14.01095312243768
 20
3.773732309144435
 30
0.0
 10
-13.52948130251786
 20
4.055904539619689
 30
0.0
 10
-13.08242136079653
 20
4.381717274230283
 30
0.0
 10
-12.67050879456917
 20
4.748011171297846
 30
0.0
 10
-12.29952180561267
 20
5.150732934630539
 30
0.0
 10
-11.971621703908
 20
5.582559851632396
 30
0.0
 10
-11.68442370979917
 20
6.051511804057071
 30
0.0
 10
-11.44150619240778
 20
6.55992634112772
 30
0.0
 10
-11.2323918912607
 20
7.13611255902407
 30
0.0
 10
-11.07621961542705
 20
7.77652906842303
 30
0.0
 10
-11.04280361934482
 20
8.237989066520412
 30
0.0
 10
-11.02583062456267
 20
8.472378552340643
 30
0.0
 11
-15.05785438336261
 21
3.360467606100542
 31
0.0
 11
-14.52394493914789
 21
3.545768576797655
 31
0.0
 11
-14.01237547653898
 21
3.782570824722796
 31
0.0
 11
-13.53417582877688
 21
4.063848084310194
 31
0.0
 11
-13.08663071951957
 21
4.389785964506614
 31
0.0
 11
-12.67710349650963
 21
4.754308932847834
 31
0.0
 11
-12.30477282023105
 21
5.157936432729741
 31
0.0
 11
-11.97706485811306
 21
5.590483001782843
 31
0.0
 11
-11.69915058396827
 21
6.044461127551983
 31
0.0
 11
-11.45161461902745
 21
6.560133366383524
 31
0.0
 11
-11.25294374250285
 21
7.10815085790719
 31
0.0
 11
-11.09649104328264
 21
7.77195721254705
 31
0.0
 11
-11.02583062456267
 21
8.472378552340643
 31
0.0
  0
SPLINE
  5
50
330
2
100
AcDbEntity
  8
GAIKEI
  6
Continuous
 62
     1
100
AcDbSpline
210
0.0
220
0.0
230
1.0
 70
     8
 71
     3
 72
    19
 73
    15
 74
    13
 42
0.0000000001
 43
0.0000000001
 44
0.00000000001
 40
0.0
 40
0.0
 40
0.0
 40
0.0
 40
0.5651510810067074
 40
1.128869645271383
 40
1.68365951529453
 40
2.237312950727359
 40
2.785573418782028
 40
3.334704815767771
 40
3.877373262272818
 40
4.409663110426598
 40
4.981670026329622
 40
5.564587934954522
 40
6.246582307038694
 40
6.950558832225219
 40
6.950558832225219
 40
6.950558832225219
 40
6.950558832225219
 10
-18.28594415204264
 20
3.360467606100542
 30
0.0
 10
-18.46532464760679
 20
3.418520382195126
 30
0.0
 10
-18.8236309540114
 20
3.534478785106045
 30
0.0
 10
-19.33284541296757
 20
3.773732309144747
 30
0.0
 10
-19.8143172328871
 20
4.055904539619845
 30
0.0
 10
-20.26137717460864
 20
4.381717274228094
 30
0.0
 10
-20.6732897408346
 20
4.748011171294379
 30
0.0
 10
-21.04427672978281
 20
5.150732934631093
 30
0.0
 10
-21.37217683147838
 20
5.582559851636133
 30
0.0
 10
-21.65937482558351
 20
6.051511804060893
 30
0.0
 10
-21.90229234297641
 20
6.559926341129752
 30
0.0
 10
-22.11140664413867
 20
7.136112559020702
 30
0.0
 10
-22.26757891998307
 20
7.776529068419449
 30
0.0
 10
-22.30099491604881
 20
8.237989066519162
 30
0.0
 10
-22.31796791082263
 20
8.472378552340643
 30
0.0
 11
-18.28594415204264
 21
3.360467606100542
 31
0.0
 11
-18.81985359625742
 21
3.54576857679774
 31
0.0
 11
-19.33142305886645
 21
3.782570824723165
 31
0.0
 11
-19.80962270662832
 21
4.06384808431008
 31
0.0
 11
-20.25716781588602
 21
4.389785964505193
 31
0.0
 11
-20.66669503889318
 21
4.754308932845418
 31
0.0
 11
-21.03902571516414
 21
5.157936432730053
 31
0.0
 11
-21.36673367727405
 21
5.590483001785884
 31
0.0
 11
-21.64464795141475
 21
6.044461127554541
 31
0.0
 11
-21.8921839163587
 21
6.560133366384746
 31
0.0
 11
-22.0908547928949
 21
7.108150857904831
 31
0.0
 11
-22.24730749212148
 21
7.771957212543895
 31
0.0
 11
-22.31796791082263
 21
8.472378552340643
 31
0.0
  0
SPLINE
  5
51
330
2
100
AcDbEntity
  8
GAIKEI
  6
Continuous
 62
     1
100
AcDbSpline
210
0.0
220
0.0
230
1.0
 70
     8
 71
     3
 72
    33
 73
    29
 74
    27
 42
0.0000000001
 43
0.0000000001
 44
0.00000000001
 40
0.0
 40
0.0
 40
0.0
 40
0.0
 40
0.1005968769557672
 40
0.1988799726031644
 40
0.2954442468654108
 40
0.3916835301483284
 40
0.4984745677738957
 40
0.607254506456984
 40
0.731367708003136
 40
0.8554812553055221
 40
0.9901599656351031
 40
1.12483936225472
 40
1.265984497394998
 40
1.407130095775146
 40
1.550439906450679
 40
1.69374936029739
 40
1.834854734789944
 40
1.975958799452274
 40
2.110564604107099
 40
2.245168921935959
 40
2.369190358515612
 40
2.493211199146589
 40
2.601900381497237
 40
2.708602472322324
 40
2.80476516379654
 40
2.901254333593556
 40
2.999470406945997
 40
3.100000000000089
 40
3.100000000000089
 40
3.100000000000089
 40
3.100000000000089
 10
-18.22189926770261
 20
3.909258381220638
 30
0.0
 10
-18.18836697538404
 20
3.909258365453723
 30
0.0
 10
-18.12207365118297
 20
3.909258334282569
 30
0.0
 10
-18.02359223556121
 20
3.909258385945292
 30
0.0
 10
-17.92656335116368
 20
3.909258464071839
 30
0.0
 10
-17.8266984861068
 20
3.909258526697158
 30
0.0
 10
-17.72276173290961
 20
3.90925857776331
 30
0.0
 10
-17.60953367362469
 20
3.909258602338681
 30
0.0
 10
-17.49053144444744
 20
3.909258610253232
 30
0.0
 10
-17.36289629138809
 20
3.909258604001365
 30
0.0
 10
-17.23173907330417
 20
3.909258594375103
 30
0.0
 10
-17.09490465927442
 20
3.909258600752878
 30
0.0
 10
-16.95591461589436
 20
3.90925860793331
 30
0.0
 10
-16.81404776782909
 20
3.909258602732535
 30
0.0
 10
-16.67145948019495
 20
3.909258596407767
 30
0.0
 10
-16.52888460052335
 20
3.909258599353421
 30
0.0
 10
-16.38704496952283
 20
3.909258601615931
 30
0.0
 10
-16.24810655491961
 20
3.909258593273847
 30
0.0
 10
-16.11133515920426
 20
3.909258585255273
 30
0.0
 10
-15.98025797284975
 20
3.90925859072152
 30
0.0
 10
-15.85270910783663
 20
3.909258591690246
 30
0.0
 10
-15.73379862131622
 20
3.909258574612721
 30
0.0
 10
-15.6206612500473
 20
3.909258547294342
 30
0.0
 10
-15.51680992849731
 20
3.909258514351279
 30
0.0
 10
-15.41702527779859
 20
3.909258471723006
 30
0.0
 10
-15.32006929959067
 20
3.909258402497385
 30
0.0
 10
-15.22165768752287
 20
3.909258349981755
 30
0.0
 10
-15.15540913205402
 20
3.909258368057535
 30
0.0
 10
-15.12189926770264
 20
3.909258377200643
 30
0.0
 11
-18.22189926770261
 21
3.909258381220638
 31
0.0
 11
-18.12130239074685
 21
3.909258350792839
 31
0.0
 11
-18.02301929509946
 21
3.909258390882683
 31
0.0
 11
-17.92645502083724
 21
3.909258461288089
 31
0.0
 11
-17.83021573755434
 21
3.909258522426767
 31
0.0
 11
-17.72342469992878
 21
3.909258572600919
 31
0.0
 11
-17.6146447612457
 21
3.909258598679826
 31
0.0
 11
-17.49053155969955
 21
3.909258607864245
 31
0.0
 11
-17.36641801239716
 21
3.909258603689494
 31
0.0
 11
-17.23173930206758
 21
3.90925859706877
 31
0.0
 11
-17.09705990544796
 21
3.909258600763166
 31
0.0
 11
-16.95591477030768
 21
3.909258605855626
 31
0.0
 11
-16.81476917192753
 21
3.909258602579285
 31
0.0
 11
-16.671459361252
 21
3.9092585979607
 31
0.0
 11
-16.52814990740529
 21
3.909258599255252
 31
0.0
 11
-16.38704453291274
 21
3.909258599828774
 31
0.0
 11
-16.24594046825041
 21
3.909258593177838
 31
0.0
 11
-16.11133466359558
 21
3.909258587506087
 31
0.0
 11
-15.97673034576672
 21
3.909258590072141
 31
0.0
 11
-15.85270890918707
 21
3.909258588564654
 31
0.0
 11
-15.72868806855609
 21
3.909258571723029
 31
0.0
 11
-15.61999888620545
 21
3.909258545749509
 31
0.0
 11
-15.51329679538037
 21
3.909258511179245
 31
0.0
 11
-15.41713410390616
 21
3.909258467180904
 31
0.0
 11
-15.32064493410917
 21
3.909258405783077
 31
0.0
 11
-15.22242886075673
 21
3.909258363441153
 31
0.0
 11
-15.12189926770264
 21
3.909258377200643
 31
0.0
  0
ARC
  5
52
330
2
100
AcDbEntity
  8
GAIKEI
  6
Continuous
100
AcDbCircle
 10
-23.17180059086269
 20
9.092103213480612
 30
0.0
 40
0.2
100
AcDbArc
 50
179.7873667477061
 51
209.744881296894
  0
ARC
  5
53
330
2
100
AcDbEntity
  8
GAIKEI
  6
Continuous
100
AcDbCircle
 10
-10.17199794455268
 20
9.092103213480612
 30
0.0
 40
0.2
100
AcDbArc
 50
330.25511870209
 51
0.2126332522938907
  0
ARC
  5
54
330
2
100
AcDbEntity
  8
GAIKEI
  6
Continuous
100
AcDbCircle
 10
-24.06428699293269
 20
15.65075650342061
 30
0.0
 40
0.4
100
AcDbArc
 50
43.42945585320284
 51
69.25739241630303
  0
ARC
  5
55
330
2
100
AcDbEntity
  8
GAIKEI
  6
Continuous
100
AcDbCircle
 10
-9.279511542472675
 20
15.65075650342061
 30
0.0
 40
0.4
100
AcDbArc
 50
110.7426075835923
 51
136.5705441466871
  0
ARC
  5
56
330
2
100
AcDbEntity
  8
GAIKEI
  6
Continuous
100
AcDbCircle
 10
-25.6335958371227
 20
16.98869519489062
 30
0.0
 40
0.2
100
AcDbArc
 50
185.4171063131985
 51
243.6303379371909
  0
ARC
  5
57
330
2
100
AcDbEntity
  8
GAIKEI
  6
Continuous
100
AcDbCircle
 10
-7.710202698292675
 20
16.98869519489062
 30
0.0
 40
0.2
100
AcDbArc
 50
296.3696620628014
 51
354.5828936868015
  0
ARC
  5
58
330
2
100
AcDbEntity
  8
GAIKEI
  6
Continuous
 62
     1
100
AcDbCircle
 10
28.94539535097732
 20
6.955222816580601
 30
0.0
 40
40.0
100
AcDbArc
 50
177.3144217014016
 51
177.8263135506983
  0
ARC
  5
59
330
2
100
AcDbEntity
  8
GAIKEI
  6
Continuous
 62
     1
100
AcDbCircle
 10
-62.28919388638269
 20
6.955222816580601
 30
0.0
 40
40.0
100
AcDbArc
 50
2.173686449301628
 51
2.685578298598344
  0
ARC
  5
5A
330
2
100
AcDbEntity
  8
GAIKEI
  6
Continuous
 62
     1
100
AcDbCircle
 10
-16.67189926770265
 20
8.679163010540634
 30
0.0
 40
1.63
100
AcDbArc
 50
198.0252492790309
 51
341.9747507209684
  0
ARC
  5
5B
330
2
100
AcDbEntity
  8
GAIKEI
  6
Continuous
 62
     1
100
AcDbCircle
 10
-16.67189926770265
 20
8.079163010540639
 30
0.0
 40
4.1
100
AcDbArc
 50
247.7806285958969
 51
292.2193714041031
  0
ARC
  5
5C
330
2
100
AcDbEntity
  8
GAIKEI
  6
Continuous
 62
     1
100
AcDbCircle
 10
-16.67189926770265
 20
8.679163010540634
 30
0.0
 40
1.7
100
AcDbArc
 50
204.249628602505
 51
335.7503713974945
  0
LINE
  5
5D
330
2
100
AcDbEntity
  8
GAIKEI
  6
Continuous
 62
     1
100
AcDbLine
 10
-23.70649600036984
 20
15.98951554425144
 30
0.0
 11
-9.706257183504703
 21
15.98951554425144
 31
0.0
  0
LINE
  5
5E
330
2
100
AcDbEntity
  8
GAIKEI
  6
Continuous
 62
     1
100
AcDbLine
 10
-25.60749158602965
 20
16.85511873172262
 30
0.0
 11
-7.80512227854308
 21
16.85511873172262
 31
0.0
  0
LINE
  5
5F
330
2
100
AcDbEntity
  8
GAIKEI
  6
Continuous
100
AcDbLine
 10
-25.92187105718267
 20
18.77916417365063
 30
0.0
 11
-25.77246176336269
 21
18.92916301054063
 31
0.0
  0
LINE
  5
60
330
2
100
AcDbEntity
  8
GAIKEI
  6
Continuous
100
AcDbLine
 10
-25.83270260174265
 20
16.96981408577062
 30
0.0
 11
-25.92187105718267
 21
18.77916417365063
 31
0.0
  0
LINE
  5
61
330
2
100
AcDbEntity
  8
GAIKEI
  6
Continuous
 62
     1
100
AcDbLine
 10
-24.71820049598267
 20
19.07916301054064
 30
0.0
 11
-24.71820049598267
 21
18.95916301054063
 31
0.0
  0
LINE
  5
62
330
2
100
AcDbEntity
  8
GAIKEI
  6
Continuous
100
AcDbLine
 10
-23.2518992677027
 20
8.829163010540639
 30
0.0
 11
-23.34544921928267
 21
8.992875425800605
 31
0.0
  0
LINE
  5
63
330
2
100
AcDbEntity
  8
GAIKEI
  6
Continuous
 62
     1
100
AcDbLine
 10
-21.27189926770268
 20
18.92916301054063
 30
0.0
 11
-21.27189926770268
 21
19.09092510851062
 31
0.0
  0
LINE
  5
64
330
2
100
AcDbEntity
  8
GAIKEI
  6
Continuous
 62
     1
100
AcDbLine
 10
-20.07189926770269
 20
18.92916301054063
 30
0.0
 11
-20.07189926770269
 21
19.09092510851062
 31
0.0
  0
LINE
  5
65
330
2
100
AcDbEntity
  8
GAIKEI
  6
Continuous
100
AcDbLine
 10
-23.2518992677027
 20
8.829163010540639
 30
0.0
 11
-22.91869844808287
 21
8.829163010540639
 31
0.0
  0
LINE
  5
66
330
2
100
AcDbEntity
  8
GAIKEI
  6
Continuous
 62
     1
100
AcDbLine
 10
-23.34544921928267
 20
8.992875425800605
 30
0.0
 11
-9.998349316122698
 21
8.992875425800605
 31
0.0
  0
LINE
  5
67
330
2
100
AcDbEntity
  8
GAIKEI
  6
Continuous
100
AcDbLine
 10
-9.421179695292664
 20
16.02482886872062
 30
0.0
 11
-7.621370530232638
 21
16.80950578137063
 31
0.0
  0
LINE
  5
68
330
2
100
AcDbEntity
  8
GAIKEI
  6
Continuous
100
AcDbLine
 10
-23.92261884012265
 20
16.02482886872062
 30
0.0
 11
-25.72242800518268
 21
16.80950578137063
 31
0.0
  0
LINE
  5
69
330
2
100
AcDbEntity
  8
GAIKEI
  6
Continuous
 62
     1
100
AcDbLine
 10
-8.907116765802697
 20
17.62916301054062
 30
0.0
 11
-7.75074446592265
 21
17.62916301054062
 31
0.0
  0
LINE
  5
6A
330
2
100
AcDbEntity
  8
GAIKEI
  6
Continuous
100
AcDbLine
 10
-10.09189926770267
 20
8.829163010540639
 30
0.0
 11
-9.998349316122698
 21
8.992875425800605
 31
0.0
  0
LINE
  5
6B
330
2
100
AcDbEntity
  8
GAIKEI
  6
Continuous
 62
     1
100
AcDbLine
 10
-7.421927478222642
 20
18.77916417365063
 30
0.0
 11
-7.644502401282693
 21
18.77916359210061
 31
0.0
  0
LINE
  5
6C
330
2
100
AcDbEntity
  8
GAIKEI
  6
Continuous
 62
     1
100
AcDbLine
 10
-7.644502971094311
 20
18.77916300875481
 30
0.0
 11
-25.92187105718267
 21
18.77916417365063
 31
0.0
  0
LINE
  5
6D
330
2
100
AcDbEntity
  8
GAIKEI
  6
Continuous
100
AcDbLine
 10
-25.77238967376269
 20
18.92916301054063
 30
0.0
 11
-7.57140211902265
 21
18.92916301054063
 31
0.0
  0
LINE
  5
6E
330
2
100
AcDbEntity
  8
GAIKEI
  6
Continuous
 62
     1
100
AcDbLine
 10
-24.71818048756268
 20
18.95916301054063
 30
0.0
 11
-21.27189926770268
 21
18.95916301054063
 31
0.0
  0
LINE
  5
6F
330
2
100
AcDbEntity
  8
GAIKEI
  6
Continuous
 62
     1
100
AcDbLine
 10
-20.07189926770269
 20
18.95916301054063
 30
0.0
 11
-8.622786831492703
 21
18.95916301054063
 31
0.0
  0
LINE
  5
70
330
2
100
AcDbEntity
  8
GAIKEI
  6
Continuous
 62
     1
100
AcDbLine
 10
-24.71816810782269
 20
19.07916301054064
 30
0.0
 11
-21.27189926770268
 21
19.07916301054064
 31
0.0
  0
LINE
  5
71
330
2
100
AcDbEntity
  8
GAIKEI
  6
Continuous
 62
     1
100
AcDbLine
 10
-20.07189926770269
 20
19.07916301054064
 30
0.0
 11
-8.622799211232688
 21
19.07916301054064
 31
0.0
  0
LINE
  5
72
330
2
100
AcDbEntity
  8
GAIKEI
  6
Continuous
 62
     1
100
AcDbLine
 10
-21.17189926770266
 20
19.1168070130206
 30
0.0
 11
-20.17189926770265
 21
19.1168070130206
 31
0.0
  0
LINE
  5
73
330
2
100
AcDbEntity
  8
GAIKEI
  6
Continuous
 62
     1
100
AcDbLine
 10
-8.622766823082656
 20
19.07916301054064
 30
0.0
 11
-8.622766823082656
 21
18.95916301054063
 31
0.0
  0
LINE
  5
74
330
2
100
AcDbEntity
  8
GAIKEI
  6
Continuous
100
AcDbLine
 10
-7.511095933662659
 20
16.96981408577062
 30
0.0
 11
-7.421927478222642
 21
18.77916417365063
 31
0.0
  0
LINE
  5
75
330
2
100
AcDbEntity
  8
GAIKEI
  6
Continuous
100
AcDbLine
 10
-7.421927478222642
 20
18.77916417365063
 30
0.0
 11
-7.571336772052688
 21
18.92916301054063
 31
0.0
  0
LINE
  5
76
330
2
100
AcDbEntity
  8
GAIKEI
  6
Continuous
 62
     1
100
AcDbLine
 10
-20.07189926770269
 20
19.09092510851062
 30
0.0
 11
-20.07373176925268
 21
19.09585723969061
 31
0.0
  0
LINE
  5
77
330
2
100
AcDbEntity
  8
GAIKEI
  6
Continuous
 62
     1
100
AcDbLine
 10
-20.07373176925268
 20
19.09585723969061
 30
0.0
 11
-20.07948121357265
 21
19.10081085523063
 31
0.0
  0
LINE
  5
78
330
2
100
AcDbEntity
  8
GAIKEI
  6
Continuous
 62
     1
100
AcDbLine
 10
-20.07948121357265
 20
19.10081085523063
 30
0.0
 11
-20.08878178182266
 21
19.10531573496061
 31
0.0
  0
LINE
  5
79
330
2
100
AcDbEntity
  8
GAIKEI
  6
Continuous
 62
     1
100
AcDbLine
 10
-20.08878178182266
 20
19.10531573496061
 30
0.0
 11
-20.10116188489269
 21
19.10921946441061
 31
0.0
  0
LINE
  5
7A
330
2
100
AcDbEntity
  8
GAIKEI
  6
Continuous
 62
     1
100
AcDbLine
 10
-20.10116188489269
 20
19.10921946441061
 30
0.0
 11
-20.11623214090264
 21
19.11242605730064
 31
0.0
  0
LINE
  5
7B
330
2
100
AcDbEntity
  8
GAIKEI
  6
Continuous
 62
     1
100
AcDbLine
 10
-20.11623214090264
 20
19.11242605730064
 30
0.0
 11
-20.13363673658267
 21
19.11483749339064
 31
0.0
  0
LINE
  5
7C
330
2
100
AcDbEntity
  8
GAIKEI
  6
Continuous
 62
     1
100
AcDbLine
 10
-20.13363673658267
 20
19.11483749339064
 30
0.0
 11
-20.15280152203269
 21
19.11633064163064
 31
0.0
  0
LINE
  5
7D
330
2
100
AcDbEntity
  8
GAIKEI
  6
Continuous
 62
     1
100
AcDbLine
 10
-20.15280152203269
 20
19.11633064163064
 30
0.0
 11
-20.17189926770265
 21
19.1168070130206
 31
0.0
  0
LINE
  5
7E
330
2
100
AcDbEntity
  8
GAIKEI
  6
Continuous
 62
     1
100
AcDbLine
 10
-21.17189926770266
 20
19.1168070130206
 30
0.0
 11
-21.19099701338269
 21
19.11633064163064
 31
0.0
  0
LINE
  5
7F
330
2
100
AcDbEntity
  8
GAIKEI
  6
Continuous
 62
     1
100
AcDbLine
 10
-21.19099701338269
 20
19.11633064163064
 30
0.0
 11
-21.2101617988327
 21
19.11483749339064
 31
0.0
  0
LINE
  5
80
330
2
100
AcDbEntity
  8
GAIKEI
  6
Continuous
 62
     1
100
AcDbLine
 10
-21.2101617988327
 20
19.11483749339064
 30
0.0
 11
-21.22756639451268
 21
19.11242605730064
 31
0.0
  0
LINE
  5
81
330
2
100
AcDbEntity
  8
GAIKEI
  6
Continuous
 62
     1
100
AcDbLine
 10
-21.22756639451268
 20
19.11242605730064
 30
0.0
 11
-21.24263665051268
 21
19.10921946441061
 31
0.0
  0
LINE
  5
82
330
2
100
AcDbEntity
  8
GAIKEI
  6
Continuous
 62
     1
100
AcDbLine
 10
-21.24263665051268
 20
19.10921946441061
 30
0.0
 11
-21.25501675358265
 21
19.10531573496061
 31
0.0
  0
LINE
  5
83
330
2
100
AcDbEntity
  8
GAIKEI
  6
Continuous
 62
     1
100
AcDbLine
 10
-21.25501675358265
 20
19.10531573496061
 30
0.0
 11
-21.26431732184267
 21
19.10081085523063
 31
0.0
  0
LINE
  5
84
330
2
100
AcDbEntity
  8
GAIKEI
  6
Continuous
 62
     1
100
AcDbLine
 10
-21.26431732184267
 20
19.10081085523063
 30
0.0
 11
-21.2700667661627
 21
19.09585723969061
 31
0.0
  0
LINE
  5
85
330
2
100
AcDbEntity
  8
GAIKEI
  6
Continuous
 62
     1
100
AcDbLine
 10
-21.2700667661627
 20
19.09585723969061
 30
0.0
 11
-21.27189926770268
 21
19.09092510851062
 31
0.0
  0
LINE
  5
86
330
2
100
AcDbEntity
  8
GAIKEI
  6
Continuous
 62
     1
100
AcDbLine
 10
-15.1218992677027
 20
8.829163010540639
 30
0.0
 11
-15.1218992677027
 21
3.408431968220639
 31
0.0
  0
LINE
  5
87
330
2
100
AcDbEntity
  8
GAIKEI
  6
Continuous
 62
     1
100
AcDbLine
 10
-18.22189926770267
 20
3.408431968220639
 30
0.0
 11
-18.22189926770267
 21
8.829163010540639
 31
0.0
  0
LINE
  5
88
330
2
100
AcDbEntity
  8
GAIKEI
  6
Continuous
 62
     1
100
AcDbLine
 10
-15.05761391832266
 20
8.472379103260607
 30
0.0
 11
-11.02582228664266
 21
8.472378235340613
 31
0.0
  0
LINE
  5
89
330
2
100
AcDbEntity
  8
GAIKEI
  6
Continuous
 62
     1
100
AcDbLine
 10
-22.31797624874264
 20
8.472378235340613
 30
0.0
 11
-18.28618461704269
 21
8.472379120380622
 31
0.0
  0
LINE
  5
8A
330
2
100
AcDbEntity
  8
GAIKEI
  6
Continuous
 62
     1
100
AcDbLine
 10
-15.1218992677027
 20
3.715545378200602
 30
0.0
 11
-18.22189926770267
 21
3.715545378200602
 31
0.0
  0
LINE
  5
8B
330
2
100
AcDbEntity
  8
GAIKEI
  6
Continuous
 62
     1
100
AcDbLine
 10
-15.1218992677027
 20
3.408431968220639
 30
0.0
 11
-18.22189926770267
 21
3.408431968220639
 31
0.0
  0
LINE
  5
8C
330
2
100
AcDbEntity
  8
GAIKEI
  6
Continuous
 62
     1
100
AcDbLine
 10
-15.07189926770269
 20
3.358431968220628
 30
0.0
 11
-18.27189926770268
 21
3.358431968220628
 31
0.0
  0
LINE
  5
8D
330
2
100
AcDbEntity
  8
GAIKEI
  6
Continuous
100
AcDbLine
 10
-10.42510008732245
 20
8.829163010540639
 30
0.0
 11
-10.09189926770267
 21
8.829163010540639
 31
0.0
  0
ARC
  5
8E
330
2
100
AcDbEntity
  8
GAIKEI
  6
S110
 48
0.5
100
AcDbCircle
 10
19.63849929897117
 20
8.960574249960643
 30
0.0
 40
6.25
100
AcDbArc
 50
269.9999999999544
 51
358.1662219999511
  0
ARC
  5
8F
330
2
100
AcDbEntity
  8
GAIKEI
  6
S110
 48
0.5
100
AcDbCircle
 10
19.63849929897117
 20
8.960574249960643
 30
0.0
 40
6.25
100
AcDbArc
 50
181.8337780000488
 51
269.9999999999544
  0
LINE
  5
90
330
2
100
AcDbEntity
  8
GAIKEI
  6
Continuous
100
AcDbLine
 10
13.39170011859079
 20
8.760574249960626
 30
0.0
 11
25.88529847935155
 21
8.760574249960626
 31
0.0
  0
SPLINE
  5
91
330
2
100
AcDbEntity
  8
GAIKEI
  6
Continuous
 62
     1
100
AcDbSpline
210
0.0
220
0.0
230
1.0
 70
     8
 71
     3
 72
    27
 73
    23
 74
    21
 42
0.0000000001
 43
0.0000000001
 44
0.00000000001
 40
0.0
 40
0.0
 40
0.0
 40
0.0
 40
0.5271079456544388
 40
1.032666699791682
 40
1.439685736633579
 40
1.835807584497243
 40
2.193157034052652
 40
2.560515177865326
 40
2.93456755223512
 40
3.308623058963169
 40
3.684577732581121
 40
4.060553890129336
 40
4.438502382062194
 40
4.816474375278328
 40
5.196299630133348
 40
5.576141159438276
 40
5.952346367125255
 40
6.318069860367398
 40
6.727340926513083
 40
7.148221658487429
 40
7.674868302664917
 40
8.224282862383438
 40
8.224282862383438
 40
8.224282862383438
 40
8.224282862383438
 10
14.22603256217115
 20
8.403707026080525
 30
0.0
 10
14.23758445240162
 20
8.228226590980909
 30
0.0
 10
14.26021596926452
 20
7.884439700105389
 30
0.0
 10
14.35417031201098
 20
7.412494484975781
 30
0.0
 10
14.4746964854643
 20
6.993022675288031
 30
0.0
 10
14.60647393493161
 20
6.628927455504282
 30
0.0
 10
14.76005348586824
 20
6.287987810778517
 30
0.0
 10
14.93395492408027
 20
5.965325069556655
 30
0.0
 10
15.13221797956331
 20
5.650419022753339
 30
0.0
 10
15.35409855621117
 20
5.348102713523843
 30
0.0
 10
15.59696385690517
 20
5.06153795666907
 30
0.0
 10
15.86033130953447
 20
4.791875465106897
 30
0.0
 10
16.14238959466294
 20
4.540812935211036
 30
0.0
 10
16.44241756371861
 20
4.309426947146818
 30
0.0
 10
16.75834405668541
 20
4.099110466932998
 30
0.0
 10
17.08782308586529
 20
3.9119599292478
 30
0.0
 10
17.42484453727331
 20
3.749317953634403
 30
0.0
 10
17.78160352147361
 20
3.607109749122287
 30
0.0
 10
18.16230859962223
 20
3.487648293010408
 30
0.0
 10
18.60207114330285
 20
3.381142297878213
 30
0.0
 10
19.09637858167758
 20
3.303809676596756
 30
0.0
 10
19.45526124530505
 20
3.294564124629985
 30
0.0
 10
19.63849929897117
 20
3.289843537320649
 30
0.0
 11
14.22603256217115
 21
8.403707026080525
 31
0.0
 11
14.27235028632259
 21
7.878638026041983
 31
0.0
 11
14.36811706963794
 21
7.382232569687772
 31
0.0
 11
14.48012605113354
 21
6.99092899902169
 31
0.0
 11
14.61576433391957
 21
6.61875326821999
 31
0.0
 11
14.76242602593731
 21
6.292886766118215
 31
0.0
 11
14.93643927014256
 21
5.969357174478346
 31
0.0
 11
15.13589276214759
 21
5.652918423218835
 31
0.0
 11
15.35713752414096
 21
5.351308944912744
 31
0.0
 11
15.60023036264573
 21
5.064520192548087
 31
0.0
 11
15.86288977661013
 21
4.795506989711128
 31
0.0
 11
16.14521399420977
 21
4.544234033125917
 31
0.0
 11
16.44447974395558
 21
4.313359957740971
 31
0.0
 11
16.76068744253916
 21
4.10293202332599
 31
0.0
 11
17.09085683437917
 21
3.915134898543129
 31
0.0
 11
17.42979912801672
 21
3.751891277306299
 31
0.0
 11
17.76956581398133
 21
3.616568431423331
 31
0.0
 11
18.15977678039814
 21
3.493125297664988
 31
0.0
 11
18.56892974373534
 21
3.394462016046873
 31
0.0
 11
19.08971186445973
 21
3.316086825091986
 31
0.0
 11
19.63849929897117
 21
3.289843537320649
 31
0.0
  0
SPLINE
  5
92
330
2
100
AcDbEntity
  8
GAIKEI
  6
Continuous
 62
     1
100
AcDbSpline
210
0.0
220
0.0
230
1.0
 70
     8
 71
     3
 72
    19
 73
    15
 74
    13
 42
0.0000000001
 43
0.0000000001
 44
0.00000000001
 40
0.0
 40
0.0
 40
0.0
 40
0.0
 40
0.5651539403202141
 40
1.128874970203972
 40
1.683665501406875
 40
2.237319408092941
 40
2.785579591575213
 40
3.334710894600753
 40
3.8773793412363
 40
4.409669189438221
 40
4.981676105322915
 40
5.564594013940703
 40
6.246588386022811
 40
6.950564911205511
 40
6.950564911205511
 40
6.950564911205511
 40
6.950564911205511
 10
21.25253834241119
 20
3.29187713516066
 30
0.0
 10
21.43191980348527
 20
3.349930031508634
 30
0.0
 10
21.79022791580306
 20
3.465888634925477
 30
0.0
 10
22.29944426673791
 20
3.705142873101664
 30
0.0
 10
22.78091711850158
 20
3.98731571385872
 30
0.0
 10
23.22797731221158
 20
4.313128585011583
 30
0.0
 10
23.63988988975746
 20
4.679422517122418
 30
0.0
 10
24.01087677733694
 20
5.082144201247317
 30
0.0
 10
24.33877686340009
 20
5.513971090423055
 30
0.0
 10
24.62597485666885
 20
5.982923043655148
 30
0.0
 10
24.86889237429514
 20
6.491337580521275
 30
0.0
 10
25.07800667538643
 20
7.067523798464378
 30
0.0
 10
25.23417895125991
 20
7.707940307837986
 30
0.0
 10
25.26759494732014
 20
8.169400305938836
 30
0.0
 10
25.28456794209115
 20
8.40378979176063
 30
0.0
 11
21.25253834241119
 21
3.29187713516066
 31
0.0
 11
21.78645064497795
 21
3.477178590706273
 31
0.0
 11
22.29802241981275
 21
3.713981712994751
 31
0.0
 11
22.77622264466493
 21
3.995259295577739
 31
0.0
 11
23.22376814295495
 21
4.321197442085747
 31
0.0
 11
23.63329514401318
 21
4.685720231765998
 31
0.0
 11
24.00562574631056
 21
5.089347672056419
 31
0.0
 11
24.3333337085304
 21
5.521894241192683
 31
0.0
 11
24.611247982701
 21
5.975872366999482
 31
0.0
 11
24.85878394762557
 21
6.49154460581866
 31
0.0
 11
25.05745482415995
 21
7.039562097331838
 31
0.0
 11
25.21390752339176
 21
7.703368451967548
 31
0.0
 11
25.28456794209115
 21
8.40378979176063
 31
0.0
  0
SPLINE
  5
93
330
2
100
AcDbEntity
  8
GAIKEI
  6
Continuous
 62
     1
100
AcDbSpline
210
0.0
220
0.0
230
1.0
 70
     8
 71
     3
 72
     9
 73
     5
 74
     3
 42
0.0000000001
 43
0.0000000001
 44
0.00000000001
 40
0.0
 40
0.0
 40
0.0
 40
0.0
 40
0.1786138805607985
 40
0.3572282677084714
 40
0.3572282677084714
 40
0.3572282677084714
 40
0.3572282677084714
 10
14.21023193423116
 20
8.760584719440544
 30
0.0
 10
14.21307276805689
 20
8.701114370961647
 30
0.0
 10
14.21875444376559
 20
8.582173505333315
 30
0.0
 10
14.22360586162276
 20
8.463195882645763
 30
0.0
 10
14.22603157399118
 20
8.403706986940647
 30
0.0
 11
14.21023193423116
 21
8.760584719440544
 31
0.0
 11
14.21854687183418
 21
8.582164484765087
 31
0.0
 11
14.22603157399118
 21
8.403706986940647
 31
0.0
  0
SPLINE
  5
94
330
2
100
AcDbEntity
  8
GAIKEI
  6
Continuous
 62
     1
100
AcDbSpline
210
0.0
220
0.0
230
1.0
 70
     8
 71
     3
 72
    11
 73
     7
 74
     5
 42
0.0000000001
 43
0.0000000001
 44
0.00000000001
 40
0.0
 40
0.0
 40
0.0
 40
0.0
 40
0.2125578885479547
 40
0.4251027477701707
 40
0.6375846612369
 40
0.8500544262129313
 40
0.8500544262129313
 40
0.8500544262129313
 40
0.8500544262129313
 10
17.62154760762115
 20
18.71057424996059
 30
0.0
 10
17.62174826150945
 20
18.63972177993348
 30
0.0
 10
17.62214955698647
 20
18.49802118297811
 30
0.0
 10
17.62393103384463
 20
18.28549957028747
 30
0.0
 10
17.62649892332115
 20
18.07301537994937
 30
0.0
 10
17.6289975930517
 20
17.93138661033218
 30
0.0
 10
17.63024689220117
 20
17.86057424996059
 30
0.0
 11
17.62154760762115
 21
18.71057424996059
 31
0.0
 11
17.62234620262615
 21
18.49801786160685
 31
0.0
 11
17.62406236734011
 21
18.28547993096748
 31
0.0
 11
17.62669571569438
 21
18.07301433604226
 31
0.0
 11
17.63024689220117
 21
17.86057424996059
 31
0.0
  0
SPLINE
  5
95
330
2
100
AcDbEntity
  8
GAIKEI
  6
Continuous
100
AcDbSpline
210
0.0
220
0.0
230
1.0
 70
    24
 71
     3
 72
     9
 73
     5
 74
     3
 42
0.0000000001
 43
0.0000000001
 44
0.00000000001
 40
0.0
 40
0.0
 40
0.0
 40
0.0
 40
0.1142026968711755
 40
0.2284053937423233
 40
0.2284053937423233
 40
0.2284053937423233
 40
0.2284053937423233
 10
12.94115806093111
 20
9.252647736660634
 30
0.0
 10
12.94073160961778
 20
9.21458255976897
 30
0.0
 10
12.93987870699118
 20
9.138452205985643
 30
0.0
 10
12.93902580436452
 20
9.062321852202302
 30
0.0
 10
12.93859935305119
 20
9.024256675310653
 30
0.0
 11
12.94115806093111
 21
9.252647736660634
 31
0.0
 11
12.93987870699118
 21
9.138452205985629
 31
0.0
 11
12.93859935305119
 21
9.024256675310653
 31
0.0
  0
SPLINE
  5
96
330
2
100
AcDbEntity
  8
GAIKEI
  6
Continuous
100
AcDbSpline
210
0.0
220
0.0
230
1.0
 70
     8
 71
     3
 72
    19
 73
    15
 74
    13
 42
0.0000000001
 43
0.0000000001
 44
0.00000000001
 40
0.0
 40
0.0
 40
0.0
 40
0.0
 40
0.0935790858806224
 40
0.1873309540650582
 40
0.2816879267370136
 40
0.3728503732781729
 40
0.478452465553567
 40
0.583794777547126
 40
0.7171433376420131
 40
0.8089206219499795
 40
1.25592439935331
 40
1.926874893386887
 40
4.002191881906853
 40
6.375336994941096
 40
6.375336994941096
 40
6.375336994941096
 40
6.375336994941096
 10
12.53660011156114
 20
15.85715212312052
 30
0.0
 10
12.55788642383339
 20
15.83432818875167
 30
0.0
 10
12.60049835094264
 20
15.7886381784187
 30
0.0
 10
12.65758742410582
 20
15.7139313596227
 30
0.0
 10
12.70978746262654
 20
15.63681024682849
 30
0.0
 10
12.75937125134101
 20
15.55333337937388
 30
0.0
 10
12.80581406330907
 20
15.46390047424455
 30
0.0
 10
12.85256438833127
 20
15.35906616327847
 30
0.0
 10
12.89412833092052
 20
15.25695936243457
 30
0.0
 10
12.96145768579404
 20
15.04304444122181
 30
0.0
 10
13.02378876006716
 20
14.64319347231394
 30
0.0
 10
13.19612913829655
 20
13.59403225018488
 30
0.0
 10
13.2720557693284
 20
11.87629068419527
 30
0.0
 10
13.06319991698223
 20
10.4061160331443
 30
0.0
 10
12.95178045695115
 20
9.621814018470644
 30
0.0
 11
12.53660011156114
 21
15.85715212312052
 31
0.0
 11
12.59929969640018
 21
15.78768409180205
 31
0.0
 11
12.65672874459335
 21
15.71358066939999
 31
0.0
 11
12.70958814717056
 21
15.63541979778895
 31
0.0
 11
12.75621118678498
 21
15.55708153232129
 31
0.0
 11
12.80490540812656
 21
15.46337627792818
 31
0.0
 11
12.84829597767936
 21
15.36738533476148
 31
0.0
 11
12.89733484456536
 21
15.24338118961336
 31
0.0
 11
12.92511297302877
 21
15.1559086482417
 31
0.0
 11
13.01268698939077
 21
14.71756726453367
 31
0.0
 11
13.11391997409339
 21
14.05429775049575
 31
0.0
 11
13.20782287993177
 21
11.98110628632398
 31
0.0
 11
12.95178045695115
 21
9.621814018470644
 31
0.0
  0
SPLINE
  5
97
330
2
100
AcDbEntity
  8
GAIKEI
  6
Continuous
100
AcDbSpline
210
0.0
220
0.0
230
1.0
 70
    24
 71
     3
 72
     9
 73
     5
 74
     3
 42
0.0000000001
 43
0.0000000001
 44
0.00000000001
 40
0.0
 40
0.0
 40
0.0
 40
0.0
 40
0.0309623030547211
 40
0.0619246061094422
 40
0.0619246061094422
 40
0.0619246061094422
 40
0.0619246061094422
 10
12.95178045695115
 20
9.621814018470644
 30
0.0
 10
12.95140013454448
 20
9.611500260645641
 30
0.0
 10
12.95063948973109
 20
9.590872744995621
 30
0.0
 10
12.94987884491777
 20
9.570245229345644
 30
0.0
 10
12.94949852251113
 20
9.559931471520627
 30
0.0
 11
12.95178045695115
 21
9.621814018470644
 31
0.0
 11
12.95063948973114
 21
9.590872744995635
 31
0.0
 11
12.94949852251113
 21
9.559931471520627
 31
0.0
  0
SPLINE
  5
98
330
2
100
AcDbEntity
  8
GAIKEI
  6
Continuous
100
AcDbSpline
210
0.0
220
0.0
230
1.0
 70
    24
 71
     3
 72
     9
 73
     5
 74
     3
 42
0.0000000001
 43
0.0000000001
 44
0.00000000001
 40
0.0
 40
0.0
 40
0.0
 40
0.0
 40
0.0144119621611371
 40
0.0288239243222741
 40
0.0288239243222741
 40
0.0288239243222741
 40
0.0288239243222741
 10
12.94949852251113
 20
9.559931471520627
 30
0.0
 10
12.94933227262947
 20
9.55513036167062
 30
0.0
 10
12.94899977286621
 20
9.545528141970635
 30
0.0
 10
12.94866727310284
 20
9.535925922270635
 30
0.0
 10
12.94850102322118
 20
9.531124812420642
 30
0.0
 11
12.94949852251113
 21
9.559931471520627
 31
0.0
 11
12.94899977286616
 21
9.545528141970635
 31
0.0
 11
12.94850102322118
 21
9.531124812420642
 31
0.0
  0
SPLINE
  5
99
330
2
100
AcDbEntity
  8
GAIKEI
  6
Continuous
100
AcDbSpline
210
0.0
220
0.0
230
1.0
 70
     8
 71
     3
 72
    19
 73
    15
 74
    13
 42
0.0000000001
 43
0.0000000001
 44
0.00000000001
 40
0.0
 40
0.0
 40
0.0
 40
0.0
 40
0.0935790822119454
 40
0.1873309301194468
 40
0.2816879421467152
 40
0.372850498195611
 40
0.4784523191416543
 40
0.5837938787141991
 40
0.7158567331129962
 40
0.8037495831020331
 40
1.273052470924064
 40
2.000617835096872
 40
4.318791666272441
 40
6.975500352367992
 40
6.975500352367992
 40
6.975500352367992
 40
6.975500352367992
 10
26.7403984863812
 20
15.85715212312052
 30
0.0
 10
26.71911216492771
 20
15.83432819452081
 30
0.0
 10
26.67650022321536
 20
15.78863819978585
 30
0.0
 10
26.61941129537647
 20
15.71393130565673
 30
0.0
 10
26.5672107330434
 20
15.63681037914125
 30
0.0
 10
26.51762879694462
 20
15.55333275225442
 30
0.0
 10
26.47117779112719
 20
15.46390381005582
 30
0.0
 10
26.42463745771181
 20
15.3594456127317
 30
0.0
 10
26.38356513238384
 20
15.25900712998331
 30
0.0
 10
26.31382023885547
 20
15.03986422380325
 30
0.0
 10
26.25017789862173
 20
14.61459997781283
 30
0.0
 10
26.06071307600561
 20
13.45986504193264
 30
0.0
 10
25.9790122405318
 20
11.54610757261702
 30
0.0
 10
26.21328948065485
 20
9.902163130907496
 30
0.0
 10
26.33839924488114
 20
9.024256675310653
 30
0.0
 11
26.7403984863812
 21
15.85715212312052
 31
0.0
 11
26.67769890369397
 21
15.7876840948019
 31
0.0
 11
26.62026987802057
 21
15.7135806806007
 31
0.0
 11
26.56741044376594
 21
15.63541978290246
 31
0.0
 11
26.52078727708659
 21
15.55708146562313
 31
0.0
 11
26.47209325954197
 21
15.46337641110372
 31
0.0
 11
26.42870354119435
 21
15.36738590889183
 31
0.0
 11
26.37997623097658
 21
15.24464126847564
 31
0.0
 11
26.35313058624638
 21
15.16094858995348
 31
0.0
 11
26.26216806483592
 21
14.70054548373378
 31
0.0
 11
26.15332666257393
 21
13.98116734374233
 31
0.0
 11
26.05020847606477
 21
11.66528812600271
 31
0.0
 11
26.33839924488114
 21
9.024256675310653
 31
0.0
  0
SPLINE
  5
9A
330
2
100
AcDbEntity
  8
GAIKEI
  6
Continuous
100
AcDbSpline
210
0.0
220
0.0
230
1.0
 70
    24
 71
     3
 72
     9
 73
     5
 74
     3
 42
0.0000000001
 43
0.0000000001
 44
0.00000000001
 40
0.0
 40
0.0
 40
0.0
 40
0.0
 40
0.0320942225738318
 40
0.0641884451476266
 40
0.0641884451476266
 40
0.0641884451476266
 40
0.0641884451476266
 10
28.73620610904118
 20
18.84057541430059
 30
0.0
 10
28.7443440199512
 20
18.83363112186558
 30
0.0
 10
28.76061984177119
 20
18.81974253699556
 30
0.0
 10
28.77689566359118
 20
18.80585395212557
 30
0.0
 10
28.7850335745012
 20
18.79890965969059
 30
0.0
 11
28.73620610904118
 21
18.84057541430059
 31
0.0
 11
28.76061984177119
 21
18.81974253699556
 31
0.0
 11
28.7850335745012
 21
18.79890965969059
 31
0.0
  0
SPLINE
  5
9B
330
2
100
AcDbEntity
  8
GAIKEI
  6
Continuous
100
AcDbSpline
210
0.0
220
0.0
230
1.0
 70
    24
 71
     3
 72
     9
 73
     5
 74
     3
 42
0.0000000001
 43
0.0000000001
 44
0.00000000001
 40
0.0
 40
0.0
 40
0.0
 40
0.0
 40
0.0164706686618097
 40
0.0329413373236194
 40
0.0329413373236194
 40
0.0329413373236194
 40
0.0329413373236194
 10
28.7850335745012
 20
18.79890965969059
 30
0.0
 10
28.78916390578286
 20
18.79529262902225
 30
0.0
 10
28.7974245683462
 20
18.78805856768559
 30
0.0
 10
28.80568523090946
 20
18.78082450634893
 30
0.0
 10
28.80981556219115
 20
18.7772074756806
 30
0.0
 11
28.7850335745012
 21
18.79890965969059
 31
0.0
 11
28.79742456834618
 21
18.78805856768559
 31
0.0
 11
28.80981556219115
 21
18.7772074756806
 31
0.0
  0
SPLINE
  5
9C
330
2
100
AcDbEntity
  8
GAIKEI
  6
Continuous
100
AcDbSpline
210
0.0
220
0.0
230
1.0
 70
    24
 71
     3
 72
     9
 73
     5
 74
     3
 42
0.0000000001
 43
0.0000000001
 44
0.00000000001
 40
0.0
 40
0.0
 40
0.0
 40
0.0
 40
0.0162583102151243
 40
0.0325166204302485
 40
0.0325166204302485
 40
0.0325166204302485
 40
0.0325166204302485
 10
28.80981556219115
 20
18.7772074756806
 30
0.0
 10
28.81386282452115
 20
18.77360331666726
 30
0.0
 10
28.82195734918116
 20
18.76639499864061
 30
0.0
 10
28.83005187384117
 20
18.75918668061394
 30
0.0
 10
28.83409913617118
 20
18.75558252160061
 30
0.0
 11
28.80981556219115
 21
18.7772074756806
 31
0.0
 11
28.82195734918116
 21
18.76639499864061
 31
0.0
 11
28.83409913617118
 21
18.75558252160061
 31
0.0
  0
SPLINE
  5
9D
330
2
100
AcDbEntity
  8
GAIKEI
  6
Continuous
100
AcDbSpline
210
0.0
220
0.0
230
1.0
 70
    24
 71
     3
 72
     9
 73
     5
 74
     3
 42
0.0000000001
 43
0.0000000001
 44
0.00000000001
 40
0.0
 40
0.0
 40
0.0
 40
0.0
 40
0.0333856128989351
 40
0.0667712257978511
 40
0.0667712257978511
 40
0.0667712257978511
 40
0.0667712257978511
 10
28.83409913617118
 20
18.75558252160061
 30
0.0
 10
28.84231963354785
 20
18.74808133684559
 30
0.0
 10
28.85876062830121
 20
18.73307896733559
 30
0.0
 10
28.87520162305455
 20
18.7180765978256
 30
0.0
 10
28.88342212043119
 20
18.71057541307058
 30
0.0
 11
28.83409913617118
 21
18.75558252160061
 31
0.0
 11
28.85876062830119
 21
18.73307896733559
 31
0.0
 11
28.88342212043119
 21
18.71057541307058
 31
0.0
  0
SPLINE
  5
9E
330
2
100
AcDbEntity
  8
GAIKEI
  6
Continuous
 62
     1
100
AcDbSpline
210
0.0
220
0.0
230
1.0
 70
     8
 71
     3
 72
    15
 73
    11
 74
     9
 42
0.0000000001
 43
0.0000000001
 44
0.00000000001
 40
0.0
 40
0.0
 40
0.0
 40
0.0
 40
0.0688774056321134
 40
0.1343296846576651
 40
0.1852072485105712
 40
0.2334823568339046
 40
0.2801952192140424
 40
0.3294453685820891
 40
0.3895207650111549
 40
0.4520593824182479
 40
0.4520593824182479
 40
0.4520593824182479
 40
0.4520593824182479
 10
17.63024689220117
 20
17.86057424996059
 30
0.0
 10
17.62935183536498
 20
17.83752055001325
 30
0.0
 10
17.62760623096167
 20
17.79255956149026
 30
0.0
 10
17.60678294020209
 20
17.73352218626132
 30
0.0
 10
17.57936235077045
 20
17.6858531164324
 30
0.0
 10
17.54881226146375
 20
17.6477055194387
 30
0.0
 10
17.51228407988432
 20
17.61606324531593
 30
0.0
 10
17.46799986937671
 20
17.58853862450985
 30
0.0
 10
17.41419798601458
 20
17.56688230797211
 30
0.0
 10
17.37334304756103
 20
17.56286979110093
 30
0.0
 10
17.35250520623117
 20
17.56082322848058
 30
0.0
 11
17.63024689220117
 21
17.86057424996059
 31
0.0
 11
17.62404990745256
 21
17.79197618594537
 31
0.0
 11
17.60315005634999
 21
17.72995040861426
 31
0.0
 11
17.57781000769313
 21
17.68583228946039
 31
0.0
 11
17.54741022917255
 21
17.64833109548567
 31
0.0
 11
17.51223187920118
 21
17.61759715325502
 31
0.0
 11
17.47042324527354
 21
17.59156610752345
 31
0.0
 11
17.41437597334715
 21
17.56993842697932
 31
0.0
 11
17.35250520623117
 21
17.56082322848058
 31
0.0
  0
SPLINE
  5
9F
330
2
100
AcDbEntity
  8
GAIKEI
  6
Continuous
 62
     1
100
AcDbSpline
210
0.0
220
0.0
230
1.0
 70
    24
 71
     3
 72
     9
 73
     5
 74
     3
 42
0.0000000001
 43
0.0000000001
 44
0.00000000001
 40
0.0
 40
0.0
 40
0.0
 40
0.0
 40
0.0059487093125529
 40
0.0118974186249934
 40
0.0118974186249934
 40
0.0118974186249934
 40
0.0118974186249934
 10
17.35250520623117
 20
17.56082322848058
 30
0.0
 10
17.35052273737449
 20
17.5607817320606
 30
0.0
 10
17.34655779966121
 20
17.56069873922064
 30
0.0
 10
17.34259286194779
 20
17.56061574638058
 30
0.0
 10
17.3406103930912
 20
17.56057424996058
 30
0.0
 11
17.35250520623117
 21
17.56082322848058
 31
0.0
 11
17.34655779966113
 21
17.56069873922061
 31
0.0
 11
17.3406103930912
 21
17.56057424996058
 31
0.0
  0
SPLINE
  5
A0
330
2
100
AcDbEntity
  8
GAIKEI
  6
Continuous
 62
     1
100
AcDbSpline
210
0.0
220
0.0
230
1.0
 70
    24
 71
     3
 72
     9
 73
     5
 74
     3
 42
0.0000000001
 43
0.0000000001
 44
0.00000000001
 40
0.0
 40
0.0
 40
0.0
 40
0.0
 40
0.0022843617844233
 40
0.0045687235688253
 40
0.0045687235688253
 40
0.0045687235688253
 40
0.0045687235688253
 10
17.62154760762115
 20
18.71057424996059
 30
0.0
 10
17.62183313373947
 20
18.71128014437225
 30
0.0
 10
17.62240418597616
 20
18.7126919331956
 30
0.0
 10
17.6229752382128
 20
18.7141037220189
 30
0.0
 10
17.62326076433112
 20
18.71480961643061
 30
0.0
 11
17.62154760762115
 21
18.71057424996059
 31
0.0
 11
17.62240418597616
 21
18.7126919331956
 31
0.0
 11
17.62326076433112
 21
18.71480961643061
 31
0.0
  0
SPLINE
  5
A1
330
2
100
AcDbEntity
  8
GAIKEI
  6
Continuous
 62
     1
100
AcDbSpline
210
0.0
220
0.0
230
1.0
 70
     8
 71
     3
 72
    11
 73
     7
 74
     5
 42
0.0000000001
 43
0.0000000001
 44
0.00000000001
 40
0.0
 40
0.0
 40
0.0
 40
0.0
 40
0.0383906907548082
 40
0.0770443365777434
 40
0.1170127578021126
 40
0.1572441341176598
 40
0.1572441341176598
 40
0.1572441341176598
 40
0.1572441341176598
 10
17.62326076433112
 20
18.71480961643061
 30
0.0
 10
17.62805936486413
 20
18.72667275276825
 30
0.0
 10
17.63768943369848
 20
18.75048028138771
 30
0.0
 10
17.65231801170017
 20
18.78663738897127
 30
0.0
 10
17.66717844080034
 20
18.82336256931047
 30
0.0
 10
17.677207609242
 20
18.84814327316579
 30
0.0
 10
17.68223863503118
 20
18.86057424996059
 30
0.0
 11
17.62326076433112
 21
18.71480961643061
 31
0.0
 11
17.63765700766936
 21
18.7503988467451
 31
0.0
 11
17.65215391977477
 21
18.78623100932026
 31
0.0
 11
17.66714597645119
 21
18.82328115009974
 31
0.0
 11
17.68223863503118
 21
18.86057424996059
 31
0.0
  0
SPLINE
  5
A2
330
2
100
AcDbEntity
  8
GAIKEI
  6
Continuous
100
AcDbSpline
210
0.0
220
0.0
230
1.0
 70
    24
 71
     3
 72
     9
 73
     5
 74
     3
 42
0.0000000001
 43
0.0000000001
 44
0.00000000001
 40
0.0
 40
0.0
 40
0.0
 40
0.0
 40
0.0001382867496933
 40
0.0002765734993865
 40
0.0002765734993865
 40
0.0002765734993865
 40
0.0002765734993865
 10
12.92859211533112
 20
9.531096483920634
 30
0.0
 10
12.92863797978279
 20
9.53110109422063
 30
0.0
 10
12.92872970868615
 20
9.531110314820637
 30
0.0
 10
12.9288214375895
 20
9.531119535420629
 30
0.0
 10
12.92886730204117
 20
9.531124145720639
 30
0.0
 11
12.92859211533112
 21
9.531096483920634
 31
0.0
 11
12.92872970868615
 21
9.531110314820637
 31
0.0
 11
12.92886730204117
 21
9.531124145720639
 31
0.0
  0
SPLINE
  5
A3
330
2
100
AcDbEntity
  8
GAIKEI
  6
Continuous
100
AcDbSpline
210
0.0
220
0.0
230
1.0
 70
    24
 71
     3
 72
     9
 73
     5
 74
     3
 42
0.0000000001
 43
0.0000000001
 44
0.00000000001
 40
0.0
 40
0.0
 40
0.0
 40
0.0
 40
0.0308218597789062
 40
0.0616437195577931
 40
0.0616437195577931
 40
0.0616437195577931
 40
0.0616437195577931
 10
28.75198958404116
 20
18.84057541430059
 30
0.0
 10
28.75952674185283
 20
18.83359362601226
 30
0.0
 10
28.77460105747611
 20
18.81963004943557
 30
0.0
 10
28.78967537309947
 20
18.8056664728589
 30
0.0
 10
28.79721253091117
 20
18.79868468457059
 30
0.0
 11
28.75198958404116
 21
18.84057541430059
 31
0.0
 11
28.77460105747616
 21
18.81963004943557
 31
0.0
 11
28.79721253091117
 21
18.79868468457059
 31
0.0
  0
SPLINE
  5
A4
330
2
100
AcDbEntity
  8
GAIKEI
  6
Continuous
100
AcDbSpline
210
0.0
220
0.0
230
1.0
 70
    24
 71
     3
 72
     9
 73
     5
 74
     3
 42
0.0000000001
 43
0.0000000001
 44
0.00000000001
 40
0.0
 40
0.0
 40
0.0
 40
0.0
 40
0.0313980546932482
 40
0.0627961093864964
 40
0.0627961093864964
 40
0.0627961093864964
 40
0.0627961093864964
 10
28.79721253091117
 20
18.79868468457059
 30
0.0
 10
28.80478824790115
 20
18.79146346239558
 30
0.0
 10
28.81993968188115
 20
18.77702101804558
 30
0.0
 10
28.83509111586119
 20
18.76257857369559
 30
0.0
 10
28.84266683285119
 20
18.75535735152059
 30
0.0
 11
28.79721253091117
 21
18.79868468457059
 31
0.0
 11
28.81993968188118
 21
18.77702101804558
 31
0.0
 11
28.84266683285119
 21
18.75535735152059
 31
0.0
  0
SPLINE
  5
A5
330
2
100
AcDbEntity
  8
GAIKEI
  6
Continuous
100
AcDbSpline
210
0.0
220
0.0
230
1.0
 70
    24
 71
     3
 72
     9
 73
     5
 74
     3
 42
0.0000000001
 43
0.0000000001
 44
0.00000000001
 40
0.0
 40
0.0
 40
0.0
 40
0.0
 40
0.0302260004086946
 40
0.0604520008173486
 40
0.0604520008173486
 40
0.0604520008173486
 40
0.0604520008173486
 10
28.84266683285119
 20
18.75535735152059
 30
0.0
 10
28.84986588037617
 20
18.74830851762726
 30
0.0
 10
28.86426397542619
 20
18.73421084984062
 30
0.0
 10
28.87866207047617
 20
18.72011318205395
 30
0.0
 10
28.88586111800112
 20
18.7130643481606
 30
0.0
 11
28.84266683285119
 21
18.75535735152059
 31
0.0
 11
28.86426397542619
 21
18.73421084984059
 31
0.0
 11
28.88586111800112
 21
18.7130643481606
 31
0.0
  0
SPLINE
  5
A6
330
2
100
AcDbEntity
  8
GAIKEI
  6
Continuous
100
AcDbSpline
210
0.0
220
0.0
230
1.0
 70
    24
 71
     3
 72
     9
 73
     5
 74
     3
 42
0.0000000001
 43
0.0000000001
 44
0.00000000001
 40
0.0
 40
0.0
 40
0.0
 40
0.0
 40
0.0017667182770289
 40
0.0035334365540578
 40
0.0035334365540578
 40
0.0035334365540578
 40
0.0035334365540578
 10
28.88586111800112
 20
18.7130643481606
 30
0.0
 10
28.88627912836782
 20
18.7126495256456
 30
0.0
 10
28.88711514910113
 20
18.71181988061559
 30
0.0
 10
28.88795116983451
 20
18.71099023558558
 30
0.0
 10
28.88836918020115
 20
18.71057541307058
 30
0.0
 11
28.88586111800112
 21
18.7130643481606
 31
0.0
 11
28.88711514910113
 21
18.71181988061559
 31
0.0
 11
28.88836918020115
 21
18.71057541307058
 31
0.0
  0
SPLINE
  5
A7
330
2
100
AcDbEntity
  8
GAIKEI
  6
Continuous
100
AcDbSpline
210
0.0
220
0.0
230
1.0
 70
    24
 71
     3
 72
     9
 73
     5
 74
     3
 42
0.0000000001
 43
0.0000000001
 44
0.00000000001
 40
0.0
 40
0.0
 40
0.0
 40
0.0
 40
0.0067094860305831
 40
0.0134189720612232
 40
0.0134189720612232
 40
0.0134189720612232
 40
0.0134189720612232
 10
28.75198958404116
 20
18.84057541430059
 30
0.0
 10
28.7519798963545
 20
18.83833893993895
 30
0.0
 10
28.75196052098122
 20
18.83386599121562
 30
0.0
 10
28.75194114560782
 20
18.82939304249225
 30
0.0
 10
28.75193145792116
 20
18.82715656813059
 30
0.0
 11
28.75198958404116
 21
18.84057541430059
 31
0.0
 11
28.75196052098118
 21
18.83386599121562
 31
0.0
 11
28.75193145792116
 21
18.82715656813059
 31
0.0
  0
SPLINE
  5
A8
330
2
100
AcDbEntity
  8
GAIKEI
  6
Continuous
 62
     1
100
AcDbSpline
210
0.0
220
0.0
230
1.0
 70
     8
 71
     3
 72
    15
 73
    11
 74
     9
 42
0.0000000001
 43
0.0000000001
 44
0.00000000001
 40
0.0
 40
0.0
 40
0.0
 40
0.0
 40
0.0617052006856488
 40
0.1203405200966811
 40
0.1672794744531514
 40
0.2116347872157201
 40
0.257753872272596
 40
0.3067263281555163
 40
0.3710424782827018
 40
0.4386612582662966
 40
0.4386612582662966
 40
0.4386612582662966
 40
0.4386612582662966
 10
14.68113617738118
 20
17.56057424996058
 30
0.0
 10
14.66048596701921
 20
17.56215599362313
 30
0.0
 10
14.62021291017061
 20
17.56524078798237
 30
0.0
 10
14.56856249395315
 20
17.58882690929093
 30
0.0
 10
14.5279975084135
 20
17.61819914377695
 30
0.0
 10
14.49533417709116
 20
17.65064228219572
 30
0.0
 10
14.46850211318281
 20
17.68884928115534
 30
0.0
 10
14.44405307199761
 20
17.73612866780297
 30
0.0
 10
14.42497337246033
 20
17.79398053638866
 30
0.0
 10
14.42204002152482
 20
17.83800896834202
 30
0.0
 10
14.42053663185118
 20
17.86057424996059
 30
0.0
 11
14.68113617738118
 21
17.56057424996058
 31
0.0
 11
14.62000475843854
 21
17.56896957066416
 31
0.0
 11
14.56619527668635
 21
17.59226421288068
 31
0.0
 11
14.52809148472556
 21
17.61967527769559
 31
0.0
 11
14.49673813047474
 21
17.65104980474362
 31
0.0
 11
14.46992446364095
 21
17.68857309454356
 31
0.0
 11
14.44742059670915
 21
17.73206881166973
 31
0.0
 11
14.42793131231798
 21
17.79336102129789
 31
0.0
 11
14.42053663185118
 21
17.86057424996059
 31
0.0
  0
SPLINE
  5
A9
330
2
100
AcDbEntity
  8
GAIKEI
  6
Continuous
 62
     1
100
AcDbSpline
210
0.0
220
0.0
230
1.0
 70
     8
 71
     3
 72
    11
 73
     7
 74
     5
 42
0.0000000001
 43
0.0000000001
 44
0.00000000001
 40
0.0
 40
0.0
 40
0.0
 40
0.0
 40
0.0402311718259866
 40
0.0801994469860423
 40
0.1188532388713164
 40
0.1572441341139072
 40
0.1572441341139072
 40
0.1572441341139072
 40
0.1572441341139072
 10
14.47252837468119
 20
18.86057424996059
 30
0.0
 10
14.46749737446467
 20
18.8481433363501
 30
0.0
 10
14.45746824986207
 20
18.82336274081081
 30
0.0
 10
14.44260784631581
 20
18.78663762366426
 30
0.0
 10
14.42797924273617
 20
18.75048045289986
 30
0.0
 10
14.41834913008432
 20
18.726672815957
 30
0.0
 10
14.41355050399113
 20
18.71480961643061
 30
0.0
 11
14.47252837468119
 21
18.86057424996059
 31
0.0
 11
14.45743579281395
 21
18.82328133965484
 31
0.0
 11
14.44244379091316
 21
18.78623133427999
 31
0.0
 11
14.42794682401455
 21
18.75039903630943
 31
0.0
 11
14.41355050399113
 21
18.71480961643061
 31
0.0
  0
SPLINE
  5
AA
330
2
100
AcDbEntity
  8
GAIKEI
  6
Continuous
 62
     1
100
AcDbSpline
210
0.0
220
0.0
230
1.0
 70
    24
 71
     3
 72
     9
 73
     5
 74
     3
 42
0.0000000001
 43
0.0000000001
 44
0.00000000001
 40
0.0
 40
0.0
 40
0.0
 40
0.0
 40
0.0022843617862777
 40
0.0045687235725767
 40
0.0045687235725767
 40
0.0045687235725767
 40
0.0045687235725767
 10
14.41355050399113
 20
18.71480961643061
 30
0.0
 10
14.41326497787114
 20
18.71410372201893
 30
0.0
 10
14.41269392563117
 20
18.7126919331956
 30
0.0
 10
14.41212287339115
 20
18.71128014437224
 30
0.0
 10
14.41183734727116
 20
18.71057424996059
 30
0.0
 11
14.41355050399113
 21
18.71480961643061
 31
0.0
 11
14.41269392563117
 21
18.7126919331956
 31
0.0
 11
14.41183734727116
 21
18.71057424996059
 31
0.0
  0
SPLINE
  5
AB
330
2
100
AcDbEntity
  8
GAIKEI
  6
Continuous
 62
     1
100
AcDbSpline
210
0.0
220
0.0
230
1.0
 70
     8
 71
     3
 72
    11
 73
     7
 74
     5
 42
0.0000000001
 43
0.0000000001
 44
0.00000000001
 40
0.0
 40
0.0
 40
0.0
 40
0.0
 40
0.212470015308936
 40
0.4249521075803601
 40
0.6374967879951914
 40
0.8500544262129533
 40
0.8500544262129533
 40
0.8500544262129533
 40
0.8500544262129533
 10
14.42053663185118
 20
17.86057424996059
 30
0.0
 10
14.41928733125061
 20
17.93138669376437
 30
0.0
 10
14.41678865903827
 20
18.07301560640683
 30
0.0
 10
14.41422077032052
 20
18.2854998802069
 30
0.0
 10
14.41243929593025
 20
18.49802140946772
 30
0.0
 10
14.41203800090159
 20
18.63972186337699
 30
0.0
 10
14.41183734727116
 20
18.71057424996059
 30
0.0
 11
14.42053663185118
 21
17.86057424996059
 31
0.0
 11
14.41698545153997
 21
18.07301458634654
 31
0.0
 11
14.41435210259612
 21
18.28548036008288
 31
0.0
 11
14.41263594095375
 21
18.49801811193384
 31
0.0
 11
14.41183734727116
 21
18.71057424996059
 31
0.0
  0
SPLINE
  5
AC
330
2
100
AcDbEntity
  8
GAIKEI
  6
Continuous
100
AcDbSpline
210
0.0
220
0.0
230
1.0
 70
     8
 71
     3
 72
    11
 73
     7
 74
     5
 42
0.0000000001
 43
0.0000000001
 44
0.00000000001
 40
0.0
 40
0.0
 40
0.0
 40
0.0
 40
0.0070425008787811
 40
0.0144966585155149
 40
0.0240148937138105
 40
0.2783153283160376
 40
0.2783153283160376
 40
0.2783153283160376
 40
0.2783153283160376
 10
12.91895866595115
 20
9.531124145720639
 30
0.0
 10
12.91919127341649
 20
9.52878728705069
 30
0.0
 10
12.91967008499938
 20
9.523976972828478
 30
0.0
 10
12.91981979604358
 20
9.515967649733994
 30
0.0
 10
12.91943966865645
 20
9.425554946966727
 30
0.0
 10
12.91958888504055
 20
9.337610064570782
 30
0.0
 10
12.91973271789118
 20
9.252838119388741
 30
0.0
 11
12.91895866595115
 21
9.531124145720639
 31
0.0
 11
12.91956481569218
 21
9.524107779059818
 31
0.0
 11
12.91978193162697
 21
9.516656784042766
 31
0.0
 11
12.91978335086816
 21
9.50713854895028
 31
0.0
 11
12.91973271789118
 21
9.252838119388741
 31
0.0
  0
ARC
  5
AD
330
2
100
AcDbEntity
  8
GAIKEI
  6
Continuous
 62
     1
100
AcDbCircle
 10
65.2557939176512
 20
6.886634056000616
 30
0.0
 40
40.0000000000002
100
AcDbArc
 50
177.3144217014016
 51
177.8263135506983
  0
ARC
  5
AE
330
2
100
AcDbEntity
  8
GAIKEI
  6
Continuous
100
AcDbCircle
 10
26.13840062212114
 20
9.023514452900627
 30
0.0
 40
0.2000000000002
100
AcDbArc
 50
330.2550822309096
 51
0.2126315456988804
  0
ARC
  5
AF
330
2
100
AcDbEntity
  8
GAIKEI
  6
Continuous
100
AcDbCircle
 10
13.13859797581119
 20
9.023514452900627
 30
0.0
 40
0.2
100
AcDbArc
 50
179.7873684543011
 51
209.7449177691146
  0
ARC
  5
B0
330
2
100
AcDbEntity
  8
GAIKEI
  6
Continuous
100
AcDbCircle
 10
27.03088702420121
 20
15.58216774284062
 30
0.0
 40
0.4
100
AcDbArc
 50
110.7426078286024
 51
136.5705443455903
  0
ARC
  5
B1
330
2
100
AcDbEntity
  8
GAIKEI
  6
Continuous
100
AcDbCircle
 10
12.24611157374113
 20
15.58216774284062
 30
0.0
 40
0.4
100
AcDbArc
 50
43.42945565439127
 51
69.25739217140456
  0
ARC
  5
B2
330
2
100
AcDbEntity
  8
GAIKEI
  6
Continuous
100
AcDbCircle
 10
28.60019586838115
 20
16.92010643431064
 30
0.0
 40
0.2
100
AcDbArc
 50
296.3696619055316
 51
354.5828936667078
  0
ARC
  5
B3
330
2
100
AcDbEntity
  8
GAIKEI
  6
Continuous
100
AcDbCircle
 10
10.67680272955118
 20
16.92010643431064
 30
0.0
 40
0.1999999999998
100
AcDbArc
 50
185.4171063332987
 51
243.6303380945158
  0
LINE
  5
B4
330
2
100
AcDbEntity
  8
GAIKEI
  6
Continuous
 62
     1
100
AcDbLine
 10
14.22811405771119
 20
8.403790342680622
 30
0.0
 11
25.28457628001115
 21
8.403789474760628
 31
0.0
  0
LINE
  5
B5
330
2
100
AcDbEntity
  8
GAIKEI
  6
Continuous
 62
     1
100
AcDbLine
 10
19.63849929897117
 20
3.289843207640615
 30
0.0
 11
21.25253834241119
 21
3.29187713516066
 31
0.0
  0
LINE
  5
B6
330
2
100
AcDbEntity
  8
GAIKEI
  6
Continuous
 62
     1
100
AcDbLine
 10
10.70290698063917
 20
16.85511873172262
 30
0.0
 11
28.50527628812574
 21
16.85511873172262
 31
0.0
  0
LINE
  5
B7
330
2
100
AcDbEntity
  8
GAIKEI
  6
Continuous
 62
     1
100
AcDbLine
 10
12.60390256629893
 20
15.98951554425144
 30
0.0
 11
26.60414138316412
 21
15.98951554425144
 31
0.0
  0
LINE
  5
B8
330
2
100
AcDbEntity
  8
GAIKEI
  6
Continuous
100
AcDbLine
 10
28.88847108844118
 20
18.71057541307061
 30
0.0
 11
28.79930263300116
 21
16.9012253251206
 31
0.0
  0
LINE
  5
B9
330
2
100
AcDbEntity
  8
GAIKEI
  6
Continuous
100
AcDbLine
 10
10.38852750949115
 20
18.71057541307061
 30
0.0
 11
10.53793680331114
 21
18.86057424996062
 31
0.0
  0
LINE
  5
BA
330
2
100
AcDbEntity
  8
GAIKEI
  6
Continuous
100
AcDbLine
 10
10.47769596493117
 20
16.9012253251206
 30
0.0
 11
10.38852750949115
 21
18.71057541307061
 31
0.0
  0
LINE
  5
BB
330
2
100
AcDbEntity
  8
GAIKEI
  6
Continuous
 62
     1
100
AcDbLine
 10
14.98591509339116
 20
18.85882747487062
 30
0.0
 11
14.66798502657116
 21
18.71057424996064
 31
0.0
  0
LINE
  5
BC
330
2
100
AcDbEntity
  8
GAIKEI
  6
Continuous
100
AcDbLine
 10
13.05849929897118
 20
8.760574249960626
 30
0.0
 11
12.96494941055118
 21
8.92428655469061
 31
0.0
  0
LINE
  5
BD
330
2
100
AcDbEntity
  8
GAIKEI
  6
Continuous
 62
     1
100
AcDbLine
 10
14.92019802878116
 20
19.01057424996063
 30
0.0
 11
14.92019802878116
 21
18.89057424996062
 31
0.0
  0
LINE
  5
BE
330
2
100
AcDbEntity
  8
GAIKEI
  6
Continuous
 62
     1
100
AcDbLine
 10
15.53849929897114
 20
18.71057424996064
 30
0.0
 11
15.53849929897114
 21
18.76057424996062
 31
0.0
  0
LINE
  5
BF
330
2
100
AcDbEntity
  8
GAIKEI
  6
Continuous
 62
     1
100
AcDbLine
 10
16.03849929897114
 20
18.71057424996064
 30
0.0
 11
16.03849929897114
 21
18.76057424996062
 31
0.0
  0
LINE
  5
C0
330
2
100
AcDbEntity
  8
GAIKEI
  6
Continuous
100
AcDbLine
 10
13.05857639810114
 20
8.760574249960626
 30
0.0
 11
13.39170011859079
 21
8.760574249960626
 31
0.0
  0
LINE
  5
C1
330
2
100
AcDbEntity
  8
GAIKEI
  6
Continuous
 62
     1
100
AcDbLine
 10
12.96494940982114
 20
8.92428655597061
 30
0.0
 11
26.31204918811119
 21
8.92428655597061
 31
0.0
  0
LINE
  5
C2
330
2
100
AcDbEntity
  8
GAIKEI
  6
Continuous
100
AcDbLine
 10
12.92153907344118
 20
9.252997875170621
 30
0.0
 11
12.95159928013118
 21
9.252997875170621
 31
0.0
  0
LINE
  5
C3
330
2
100
AcDbEntity
  8
GAIKEI
  6
Continuous
100
AcDbLine
 10
12.91895866595115
 20
9.531124145720639
 30
0.0
 11
12.95146309946119
 21
9.531124145720639
 31
0.0
  0
LINE
  5
C4
330
2
100
AcDbEntity
  8
GAIKEI
  6
Continuous
100
AcDbLine
 10
26.88921886979114
 20
15.95624010753062
 30
0.0
 11
28.68902803595114
 21
16.74091702054062
 31
0.0
  0
LINE
  5
C5
330
2
100
AcDbEntity
  8
GAIKEI
  6
Continuous
100
AcDbLine
 10
12.38777972815114
 20
15.95624010753062
 30
0.0
 11
10.58797056199114
 21
16.74091702054062
 31
0.0
  0
LINE
  5
C6
330
2
100
AcDbEntity
  8
GAIKEI
  6
Continuous
 62
     1
100
AcDbLine
 10
15.62030668210116
 20
18.76057424996062
 30
0.0
 11
15.43849929897112
 21
18.89057424996062
 31
0.0
  0
LINE
  5
C7
330
2
100
AcDbEntity
  8
GAIKEI
  6
Continuous
 62
     1
100
AcDbLine
 10
24.95715321720116
 20
18.89057424996062
 30
0.0
 11
24.95715321720116
 21
18.86057424996062
 31
0.0
  0
LINE
  5
C8
330
2
100
AcDbEntity
  8
GAIKEI
  6
Continuous
 62
     1
100
AcDbLine
 10
14.68113617738118
 20
17.56057424996064
 30
0.0
 11
17.3406103930912
 21
17.56057424996064
 31
0.0
  0
LINE
  5
C9
330
2
100
AcDbEntity
  8
GAIKEI
  6
Continuous
100
AcDbLine
 10
26.21849929897115
 20
8.760574249960626
 30
0.0
 11
26.31204918738115
 21
8.92428655469061
 31
0.0
  0
LINE
  5
CA
330
2
100
AcDbEntity
  8
GAIKEI
  6
Continuous
 62
     1
100
AcDbLine
 10
14.41183707605114
 20
18.71057497691063
 30
0.0
 11
10.38852750949115
 21
18.71057541307061
 31
0.0
  0
LINE
  5
CB
330
2
100
AcDbEntity
  8
GAIKEI
  6
Continuous
 62
     1
100
AcDbLine
 10
28.88342212043119
 20
18.71057541307061
 30
0.0
 11
14.42402065877115
 21
18.71057424996064
 31
0.0
  0
LINE
  5
CC
330
2
100
AcDbEntity
  8
GAIKEI
  6
Continuous
 62
     1
100
AcDbLine
 10
15.53849929897114
 20
18.76057424996062
 30
0.0
 11
16.03849929897114
 21
18.76057424996062
 31
0.0
  0
LINE
  5
CD
330
2
100
AcDbEntity
  8
GAIKEI
  6
Continuous
100
AcDbLine
 10
28.73620610904118
 20
18.84057541430064
 30
0.0
 11
28.75198958404116
 21
18.84057541430064
 31
0.0
  0
LINE
  5
CE
330
2
100
AcDbEntity
  8
GAIKEI
  6
Continuous
100
AcDbLine
 10
10.53793736649118
 20
18.86057424996062
 30
0.0
 11
14.99278162548114
 21
18.86057424996062
 31
0.0
  0
LINE
  5
CF
330
2
100
AcDbEntity
  8
GAIKEI
  6
Continuous
100
AcDbLine
 10
17.68223863503118
 20
18.86057424996062
 30
0.0
 11
28.73903844783115
 21
18.86057424996062
 31
0.0
  0
LINE
  5
D0
330
2
100
AcDbEntity
  8
GAIKEI
  6
Continuous
 62
     1
100
AcDbLine
 10
14.92023041693113
 20
18.89057424996062
 30
0.0
 11
15.43849929897112
 21
18.89057424996062
 31
0.0
  0
LINE
  5
D1
330
2
100
AcDbEntity
  8
GAIKEI
  6
Continuous
 62
     1
100
AcDbLine
 10
14.92021803719115
 20
19.01057424996063
 30
0.0
 11
24.86522788402118
 21
19.01057424996063
 31
0.0
  0
LINE
  5
D2
330
2
100
AcDbEntity
  8
GAIKEI
  6
Continuous
 62
     1
100
AcDbLine
 10
14.98591509339116
 20
18.85882747487062
 30
0.0
 11
15.10439567099115
 21
18.89057424996062
 31
0.0
  0
LINE
  5
D3
330
2
100
AcDbEntity
  8
GAIKEI
  6
Continuous
100
AcDbLine
 10
28.88847108794437
 20
18.71057541347681
 30
0.0
 11
28.73906179463114
 21
18.86057424996062
 31
0.0
  0
LINE
  5
D4
330
2
100
AcDbEntity
  8
GAIKEI
  6
Continuous
 62
     1
100
AcDbLine
 10
24.86522788402118
 20
19.01057424996063
 30
0.0
 11
24.89364461840114
 21
19.00469668594061
 31
0.0
  0
LINE
  5
D5
330
2
100
AcDbEntity
  8
GAIKEI
  6
Continuous
 62
     1
100
AcDbLine
 10
24.89364461840114
 20
19.00469668594061
 30
0.0
 11
24.91926622773116
 21
18.9876506090506
 31
0.0
  0
LINE
  5
D6
330
2
100
AcDbEntity
  8
GAIKEI
  6
Continuous
 62
     1
100
AcDbLine
 10
24.91926622773116
 20
18.9876506090506
 30
0.0
 11
24.93956014136114
 21
18.96117473128063
 31
0.0
  0
LINE
  5
D7
330
2
100
AcDbEntity
  8
GAIKEI
  6
Continuous
 62
     1
100
AcDbLine
 10
24.93956014136114
 20
18.96117473128063
 30
0.0
 11
24.95265602833115
 21
18.92764842515061
 31
0.0
  0
LINE
  5
D8
330
2
100
AcDbEntity
  8
GAIKEI
  6
Continuous
 62
     1
100
AcDbLine
 10
24.95265602833115
 20
18.92764842515061
 30
0.0
 11
24.95715321720116
 21
18.89057424996062
 31
0.0
  0
LINE
  5
D9
330
2
100
AcDbEntity
  8
GAIKEI
  6
Continuous
100
AcDbLine
 10
25.88529847935155
 20
8.760574249960626
 30
0.0
 11
26.21842219983114
 21
8.760574249960626
 31
0.0
  0
LINE
  5
DA
330
2
100
AcDbEntity
  8
GAIKEI
  6
DOTTED
 62
     1
100
AcDbLine
 10
14.20221456434166
 20
8.759062132864954
 30
0.0
 11
14.20372668143733
 21
8.760574249960654
 31
0.0
  0
DIMENSION
  5
DC
330
2
100
AcDbEntity
  8
SUNPO
100
AcDbDimension
  2
*D4
 10
-0.8281436856606205
 20
19.01057424996063
 30
0.0
 11
-2.578143685660624
 21
10.86057424996063
 31
0.0
 70
    33
  1
163
 71
     5
 42
16.3
  3
STANDARD
100
AcDbAlignedDimension
 13
-7.443863964096181
 23
2.710574249960629
 33
0.0
 14
-7.443863964096181
 24
19.01057424996063
 34
0.0
1001
ACAD
1000
DSTYLE
1002
{
1070
    40
1040
1.0
1070
   140
1040
2.5
1070
   147
1040
0.5
1070
   172
1070
     1
1070
   279
1070
     0
1070
   288
1070
     0
1002
}
  0
DIMENSION
  5
EA
330
2
100
AcDbEntity
  8
SUNPO
100
AcDbDimension
  2
*D3
 10
-7.421927478232645
 20
27.0105742499606
 30
0.0
 11
-16.67189926770766
 21
28.7605742499606
 31
0.0
 70
    33
  1
φ185
 71
     5
 42
18.49994357895002
  3
STANDARD
100
AcDbAlignedDimension
 13
-25.92187105718267
 23
19.0105742499606
 33
0.0
 14
-7.421927478232646
 24
19.0105742499606
 34
0.0
1001
ACAD
1000
DSTYLE
1002
{
1070
    40
1040
1.0
1070
   140
1040
2.5
1070
   147
1040
0.5
1070
   172
1070
     1
1070
   279
1070
     0
1070
   288
1070
     0
1002
}
  0
LINE
  5
F7
330
2
100
AcDbEntity
  8
WAKU
 62
     4
100
AcDbLine
 10
62.66354001612751
 20
-19.83988141536835
 30
0.0
 11
62.66354001612751
 21
-59.83988141536835
 31
0.0
  0
LINE
  5
F9
330
2
100
AcDbEntity
  8
WAKU
 62
     4
100
AcDbLine
 10
-22.33645998387237
 20
-19.83988141536835
 30
0.0
 11
-22.33645998387237
 21
-59.83988141536835
 31
0.0
  0
TEXT
  5
FA
330
2
100
AcDbEntity
  8
MOJI1
100
AcDbText
 10
-59.83645998387237
 20
-23.83988141536836
 30
0.0
 40
3.0
  1
電　源
100
AcDbText
  0
TEXT
  5
FB
330
2
100
AcDbEntity
  8
MOJI1
100
AcDbText
 10
-19.83645998387237
 20
-23.83988141536836
 30
0.0
 40
3.0
  1
ＤＣ１２Ｖ、ＰｏＥ（ＩＥＥＥ８０２．３ａｆ準拠)
 41
0.95
100
AcDbText
  0
LINE
  5
FC
330
2
100
AcDbEntity
  8
WAKU
 62
     4
100
AcDbLine
 10
-62.33645998387237
 20
-19.83988141536835
 30
0.0
 11
-62.33645998387237
 21
-59.83988141536835
 31
0.0
  0
LINE
  5
FD
330
2
100
AcDbEntity
  8
WAKU
 62
     1
100
AcDbLine
 10
-62.33645998387237
 20
-34.83988141536836
 30
0.0
 11
62.66354001612751
 21
-34.83988141536836
 31
0.0
  0
LINE
  5
FE
330
2
100
AcDbEntity
  8
WAKU
 62
     1
100
AcDbLine
 10
-62.33645998387237
 20
-39.83988141536836
 30
0.0
 11
62.66354001612751
 21
-39.83988141536836
 31
0.0
  0
LINE
  5
FF
330
2
100
AcDbEntity
  8
WAKU
 62
     1
100
AcDbLine
 10
-62.33645998387237
 20
-44.83988141536835
 30
0.0
 11
62.66354001612751
 21
-44.83988141536835
 31
0.0
  0
LINE
  5
100
330
2
100
AcDbEntity
  8
WAKU
 62
     1
100
AcDbLine
 10
-62.33645998387237
 20
-49.83988141536835
 30
0.0
 11
62.66354001612751
 21
-49.83988141536835
 31
0.0
  0
LINE
  5
101
330
2
100
AcDbEntity
  8
WAKU
 62
     4
100
AcDbLine
 10
62.66354001612751
 20
-59.83988141536835
 30
0.0
 11
-62.33645998387237
 21
-59.83988141536835
 31
0.0
  0
LINE
  5
102
330
2
100
AcDbEntity
  8
WAKU
 62
     4
100
AcDbLine
 10
-62.33645998387237
 20
-19.83988141536835
 30
0.0
 11
62.66354001612751
 21
-19.83988141536835
 31
0.0
  0
LINE
  5
103
330
2
100
AcDbEntity
  8
WAKU
 62
     1
100
AcDbLine
 10
-62.33645998387237
 20
-24.83988141536836
 30
0.0
 11
62.66354001612751
 21
-24.83988141536836
 31
0.0
  0
LINE
  5
104
330
2
100
AcDbEntity
  8
WAKU
 62
     1
100
AcDbLine
 10
-62.33645998387237
 20
-29.83988141536836
 30
0.0
 11
62.66354001612751
 21
-29.83988141536836
 31
0.0
  0
TEXT
  5
105
330
2
100
AcDbEntity
  8
MOJI1
100
AcDbText
 10
-19.83645998387237
 20
-28.83988141536836
 30
0.0
 40
3.0
  1
ＤＣ１２Ｖ：約１Ａ、ＰｏＥ：約１２Ｗ（クラス0機器)
 41
0.9
100
AcDbText
  0
TEXT
  5
106
330
2
100
AcDbEntity
  8
MOJI1
100
AcDbText
 10
-59.83645998387237
 20
-28.83988141536836
 30
0.0
 40
3.0
  1
消費電力
100
AcDbText
  0
TEXT
  5
107
330
2
100
AcDbEntity
  8
MOJI1
100
AcDbText
 10
-59.83645998387237
 20
-33.83988141536836
 30
0.0
 40
3.0
  1
撮像素子
100
AcDbText
  0
TEXT
  5
108
330
2
100
AcDbEntity
  8
MOJI1
100
AcDbText
 10
-19.83645998387237
 20
-33.83988141536836
 30
0.0
 40
3.0
  1
１／４型　インターライン転送方式ＣＣＤ
100
AcDbText
  0
TEXT
  5
109
330
2
100
AcDbEntity
  8
MOJI1
100
AcDbText
 10
-19.83645998387237
 20
-43.83988141536835
 30
0.0
 40
3.0
  1
ＭＰＥＧ－４／ＪＰＥＧ　デュアルエンコーディング
 41
0.9
100
AcDbText
  0
TEXT
  5
10A
330
2
100
AcDbEntity
  8
MOJI1
100
AcDbText
 10
-59.83645998387237
 20
-43.83988141536835
 30
0.0
 40
3.0
  1
画像圧縮方式
100
AcDbText
  0
TEXT
  5
10B
330
2
100
AcDbEntity
  8
MOJI1
100
AcDbText
 10
-59.83645998387237
 20
-38.83988141536836
 30
0.0
 40
3.0
  1
最低照度
100
AcDbText
  0
TEXT
  5
10C
330
2
100
AcDbEntity
  8
MOJI1
100
AcDbText
 10
-19.83645998387237
 20
-38.83988141536836
 30
0.0
 40
3.0
  1
０．７ｌｘ（電子感度アップＯＦＦ、ＡＧＣ　ＨＩＧＨ時)
 41
0.85
100
AcDbText
  0
TEXT
  5
10D
330
2
100
AcDbEntity
  8
MOJI1
100
AcDbText
 10
-19.83645998387237
 20
-48.83988141536836
 30
0.0
 40
3.0
  1
ＶＧＡ（６４０×４８０)／ＱＶＧＡ（３２０×２４０）
 41
0.9
100
AcDbText
  0
TEXT
  5
10E
330
2
100
AcDbEntity
  8
MOJI1
100
AcDbText
 10
-59.83645998387237
 20
-48.83988141536836
 30
0.0
 40
3.0
  1
画像解像度
100
AcDbText
  0
TEXT
  5
10F
330
2
100
AcDbEntity
  8
MOJI1
100
AcDbText
 10
-59.83645998387237
 20
-53.83988141536836
 30
0.0
 40
3.0
  1
ネットワーク
100
AcDbText
  0
TEXT
  5
110
330
2
100
AcDbEntity
  8
MOJI1
100
AcDbText
 10
-19.83645998387237
 20
-53.83988141536836
 30
0.0
 40
3.0
  1
１０ＢＡＳＥ－Ｔ／１００ＢＡＳＥ－ＴＸ、ＲＪ４５コネクター
 41
0.75
100
AcDbText
  0
LINE
  5
111
330
2
100
AcDbEntity
  8
WAKU
 62
     1
100
AcDbLine
 10
-62.33645998387237
 20
-54.83988141536835
 30
0.0
 11
62.66354001612751
 21
-54.83988141536835
 31
0.0
  0
TEXT
  5
112
330
2
100
AcDbEntity
  8
MOJI1
100
AcDbText
 10
-19.83645998387237
 20
-58.83988141536836
 30
0.0
 40
3.0
  1
２２倍
100
AcDbText
  0
TEXT
  5
113
330
2
100
AcDbEntity
  8
MOJI1
100
AcDbText
 10
-59.83645998387237
 20
-58.83988141536836
 30
0.0
 40
3.0
  1
ズーム比
100
AcDbText
  0
ENDSEC
  0
SECTION
  2
OBJECTS
  0
DICTIONARY
  5
9
330
0
100
AcDbDictionary
281
     1
  3
ACAD_COLOR
350
31
  3
ACAD_GROUP
350
2D
  3
ACAD_LAYOUT
350
D
  3
ACAD_MATERIAL
350
30
  3
ACAD_MLINESTYLE
350
2E
  3
ACAD_PLOTSETTINGS
350
2F
  3
ACAD_PLOTSTYLENAME
350
8
  3
ACDBHEADERROUNDTRIPXREC
350
144
  3
AcDbVariableDictionary
350
13F
  0
DICTIONARY
  5
15
330
14
100
AcDbDictionary
280
     1
281
     1
  3
ACAD_LAYERFILTERS
360
16
  3
ACAD_LAYERSTATES
360
17
  0
DICTIONARY
  5
3
330
2
100
AcDbDictionary
280
     1
281
     1
  3
ACAD_LAYOUTSELFREF
360
4
  0
DICTIONARY
  5
F
330
E
100
AcDbDictionary
280
     1
281
     1
  3
ACAD_LAYOUTSELFREF
360
10
  0
DICTIONARY
  5
31
102
{ACAD_REACTORS
330
9
102
}
330
9
100
AcDbDictionary
281
     1
  0
DICTIONARY
  5
2D
102
{ACAD_REACTORS
330
9
102
}
330
9
100
AcDbDictionary
281
     1
  0
DICTIONARY
  5
D
102
{ACAD_REACTORS
330
9
102
}
330
9
100
AcDbDictionary
281
     1
  3
Model
350
C
  3
ﾚｲｱｳﾄ1
350
13
  0
DICTIONARY
  5
30
102
{ACAD_REACTORS
330
9
102
}
330
9
100
AcDbDictionary
281
     1
  0
DICTIONARY
  5
2E
102
{ACAD_REACTORS
330
9
102
}
330
9
100
AcDbDictionary
281
     1
  3
STANDARD
350
33
  0
DICTIONARY
  5
2F
102
{ACAD_REACTORS
330
9
102
}
330
9
100
AcDbDictionary
281
     1
  0
ACDBDICTIONARYWDFLT
  5
8
102
{ACAD_REACTORS
330
9
102
}
330
9
100
AcDbDictionary
281
     1
  3
Normal
350
7
100
AcDbDictionaryWithDefault
340
7
  0
DICTIONARY
  5
144
102
{ACAD_REACTORS
330
9
102
}
330
9
100
AcDbDictionary
281
     1
  3
COLORDICT
350
146
  3
MATERIALDICT
350
145
  0
DICTIONARY
  5
13F
102
{ACAD_REACTORS
330
9
102
}
330
9
100
AcDbDictionary
281
     1
  3
DIMASSOC
350
141
  3
HIDETEXT
350
140
  3
PROJECTNAME
350
142
  0
DICTIONARY
  5
16
102
{ACAD_REACTORS
330
15
102
}
330
15
100
AcDbDictionary
280
     1
281
     1
  0
DICTIONARY
  5
17
102
{ACAD_REACTORS
330
15
102
}
330
15
100
AcDbDictionary
281
     1
  0
XRECORD
  5
4
102
{ACAD_REACTORS
330
3
102
}
330
3
100
AcDbXrecord
280
     1
340
2
  0
XRECORD
  5
10
102
{ACAD_REACTORS
330
F
102
}
330
F
100
AcDbXrecord
280
     1
340
E
  0
LAYOUT
  5
C
102
{ACAD_XDICTIONARY
360
147
102
}
102
{ACAD_REACTORS
330
D
102
}
330
D
100
AcDbPlotSettings
  1

  2
8FPAM09-A4.pc3
  4
A4
  6

 40
4.349750041961669
 41
4.222751140594482
 42
4.3497314453125
 43
4.180419921875
 44
297.0106506347656
 45
210.0156707763672
 46
0.0
 47
6.019999999999999
 48
586.7197439017591
 49
80.03711269102495
140
1246.52177633949
141
483.5407420879955
142
1.0
143
1.367406275946202
 70
 11956
 72
     1
 73
     1
 74
     1
  7
tmsacad.ctb
 75
     0
147
0.7313115477022594
148
0.5975600756119093
149
0.005505254347554
100
AcDbLayout
  1
Model
 70
     1
 71
     0
 10
0.0
 20
0.0
 11
12.0
 21
9.0
 12
0.0
 22
0.0
 32
0.0
 14
0.0
 24
0.0
 34
0.0
 15
0.0
 25
0.0
 35
0.0
146
0.0
 13
0.0
 23
0.0
 33
0.0
 16
1.0
 26
0.0
 36
0.0
 17
0.0
 27
1.0
 37
0.0
 76
     0
330
2
  0
LAYOUT
  5
13
102
{ACAD_XDICTIONARY
360
149
102
}
102
{ACAD_REACTORS
330
D
102
}
330
D
100
AcDbPlotSettings
  1

  2
C:\Program Files\ACAD2000\plotters\DWF ePlot.pc3
  4

  6

 40
0.0
 41
0.0
 42
0.0
 43
0.0
 44
0.0
 45
0.0
 46
0.0
 47
0.0
 48
0.0
 49
0.0
140
0.0
141
0.0
142
1.0
143
1.0
 70
   688
 72
     0
 73
     0
 74
     5
  7
tmsacad.ctb
 75
    16
147
1.0
148
0.0
149
0.0
100
AcDbLayout
  1
ﾚｲｱｳﾄ1
 70
     1
 71
     1
 10
0.0
 20
0.0
 11
12.0
 21
9.0
 12
0.0
 22
0.0
 32
0.0
 14
1.000000000000000E+20
 24
1.000000000000000E+20
 34
1.000000000000000E+20
 15
-1.000000000000000E+20
 25
-1.000000000000000E+20
 35
-1.000000000000000E+20
146
0.0
 13
0.0
 23
0.0
 33
0.0
 16
1.0
 26
0.0
 36
0.0
 17
0.0
 27
1.0
 37
0.0
 76
     0
330
E
  0
MLINESTYLE
  5
33
102
{ACAD_REACTORS
330
2E
102
}
330
2E
100
AcDbMlineStyle
  2
STANDARD
 70
     0
  3

 62
   256
 51
90.0
 52
90.0
 71
     2
 49
0.5
 62
   256
  6
BYLAYER
 49
-0.5
 62
   256
  6
BYLAYER
  0
ACDBPLACEHOLDER
  5
7
102
{ACAD_REACTORS
330
8
102
}
330
8
  0
XRECORD
  5
146
102
{ACAD_REACTORS
330
144
102
}
330
144
100
AcDbXrecord
280
     1
340
31
  0
XRECORD
  5
145
102
{ACAD_REACTORS
330
144
102
}
330
144
100
AcDbXrecord
280
     1
340
30
  0
DICTIONARYVAR
  5
141
102
{ACAD_REACTORS
330
13F
102
}
330
13F
100
DictionaryVariables
280
     0
  1
1
  0
DICTIONARYVAR
  5
140
102
{ACAD_REACTORS
330
13F
102
}
330
13F
100
DictionaryVariables
280
     0
  1
1
  0
DICTIONARYVAR
  5
142
102
{ACAD_REACTORS
330
13F
102
}
330
13F
100
DictionaryVariables
280
     0
  1

  0
DICTIONARY
  5
147
330
C
100
AcDbDictionary
280
     1
281
     1
  3
ACAD_XREC_ROUNDTRIP
360
148
  0
DICTIONARY
  5
149
330
13
100
AcDbDictionary
280
     1
281
     1
  3
ACAD_XREC_ROUNDTRIP
360
14A
  0
XRECORD
  5
148
102
{ACAD_REACTORS
330
147
102
}
330
147
100
AcDbXrecord
280
     1
102
SHADEPLOT
 70
     0
102
SHADEPLOTRESLEVEL
 70
     2
102
SHADEPLOTCUSTOMDPI
 70
   300
  0
XRECORD
  5
14A
102
{ACAD_REACTORS
330
149
102
}
330
149
100
AcDbXrecord
280
     1
102
SHADEPLOT
 70
     0
102
SHADEPLOTRESLEVEL
 70
     2
102
SHADEPLOTCUSTOMDPI
 70
   300
  0
ENDSEC
  0
EOF
