  0
SECTION
  2
HEADER
  9
$ACADVER
  1
AC1015
  9
$ACADMAINTVER
 70
    20
  9
$DWGCODEPAGE
  3
ANSI_932
  9
$INSBASE
 10
0.4999999440410648
 20
120.5008351249346
 30
0.0
  9
$EXTMIN
 10
-65.99029450909029
 20
-53.34905942919317
 30
-0.0015258207003583
  9
$EXTMAX
 10
59.04327448346101
 20
59.67553752460003
 30
0.0000000349246037
  9
$LIMMIN
 10
0.0
 20
0.0
  9
$LIMMAX
 10
420.0
 20
297.0
  9
$ORTHOMODE
 70
     1
  9
$REGENMODE
 70
     0
  9
$FILLMODE
 70
     1
  9
$QTEXTMODE
 70
     0
  9
$MIRRTEXT
 70
     0
  9
$LTSCALE
 40
1.0
  9
$ATTMODE
 70
     1
  9
$TEXTSIZE
 40
2.5
  9
$TRACEWID
 40
1.0
  9
$TEXTSTYLE
  7
Standard
  9
$CLAYER
  8
PANEL
  9
$CELTYPE
  6
ByLayer
  9
$CECOLOR
 62
   256
  9
$CELTSCALE
 40
1.0
  9
$DISPSILH
 70
     0
  9
$DIMSCALE
 40
1.0
  9
$DIMASZ
 40
2.0
  9
$DIMEXO
 40
2.0
  9
$DIMDLI
 40
8.0
  9
$DIMRND
 40
0.0
  9
$DIMDLE
 40
0.0
  9
$DIMEXE
 40
2.0
  9
$DIMTP
 40
0.0
  9
$DIMTM
 40
0.0
  9
$DIMTXT
 40
2.5
  9
$DIMCEN
 40
0.0
  9
$DIMTSZ
 40
0.0
  9
$DIMTOL
 70
     0
  9
$DIMLIM
 70
     0
  9
$DIMTIH
 70
     0
  9
$DIMTOH
 70
     0
  9
$DIMSE1
 70
     0
  9
$DIMSE2
 70
     0
  9
$DIMTAD
 70
     3
  9
$DIMZIN
 70
     0
  9
$DIMBLK
  1

  9
$DIMASO
 70
     1
  9
$DIMSHO
 70
     1
  9
$DIMPOST
  1

  9
$DIMAPOST
  1

  9
$DIMALT
 70
     0
  9
$DIMALTD
 70
     2
  9
$DIMALTF
 40
25.4
  9
$DIMLFAC
 40
1.0
  9
$DIMTOFL
 70
     1
  9
$DIMTVP
 40
0.0
  9
$DIMTIX
 70
     0
  9
$DIMSOXD
 70
     0
  9
$DIMSAH
 70
     1
  9
$DIMBLK1
  1
OPEN30
  9
$DIMBLK2
  1
OPEN30
  9
$DIMSTYLE
  2
STANDARD
  9
$DIMCLRD
 70
     0
  9
$DIMCLRE
 70
     0
  9
$DIMCLRT
 70
     0
  9
$DIMTFAC
 40
1.0
  9
$DIMGAP
 40
0.5
  9
$DIMJUST
 70
     0
  9
$DIMSD1
 70
     0
  9
$DIMSD2
 70
     0
  9
$DIMTOLJ
 70
     1
  9
$DIMTZIN
 70
     0
  9
$DIMALTZ
 70
     0
  9
$DIMALTTZ
 70
     0
  9
$DIMUPT
 70
     0
  9
$DIMDEC
 70
     4
  9
$DIMTDEC
 70
     4
  9
$DIMALTU
 70
     2
  9
$DIMALTTD
 70
     2
  9
$DIMTXSTY
  7
Standard
  9
$DIMAUNIT
 70
     0
  9
$DIMADEC
 70
     0
  9
$DIMALTRND
 40
0.0
  9
$DIMAZIN
 70
     0
  9
$DIMDSEP
 70
    46
  9
$DIMATFIT
 70
     3
  9
$DIMFRAC
 70
     0
  9
$DIMLDRBLK
  1
OPEN30
  9
$DIMLUNIT
 70
     2
  9
$DIMLWD
 70
    -2
  9
$DIMLWE
 70
    -2
  9
$DIMTMOVE
 70
     0
  9
$LUNITS
 70
     2
  9
$LUPREC
 70
     4
  9
$SKETCHINC
 40
1.0
  9
$FILLETRAD
 40
0.2
  9
$AUNITS
 70
     0
  9
$AUPREC
 70
     0
  9
$MENU
  1
.
  9
$ELEVATION
 40
0.0
  9
$PELEVATION
 40
0.0
  9
$THICKNESS
 40
0.0
  9
$LIMCHECK
 70
     0
  9
$CHAMFERA
 40
0.0
  9
$CHAMFERB
 40
0.0
  9
$CHAMFERC
 40
0.0
  9
$CHAMFERD
 40
0.0
  9
$SKPOLY
 70
     0
  9
$TDCREATE
 40
2454349.434269746
  9
$TDUCREATE
 40
2454349.059269746
  9
$TDUPDATE
 40
2454504.407548820
  9
$TDUUPDATE
 40
2454504.032548820
  9
$TDINDWG
 40
0.3237364583
  9
$TDUSRTIMER
 40
0.3237364583
  9
$USRTIMER
 70
     1
  9
$ANGBASE
 50
0.0
  9
$ANGDIR
 70
     0
  9
$PDMODE
 70
     0
  9
$PDSIZE
 40
0.0
  9
$PLINEWID
 40
0.0
  9
$SPLFRAME
 70
     0
  9
$SPLINETYPE
 70
     6
  9
$SPLINESEGS
 70
     8
  9
$HANDSEED
  5
245
  9
$SURFTAB1
 70
     6
  9
$SURFTAB2
 70
     6
  9
$SURFTYPE
 70
     6
  9
$SURFU
 70
     6
  9
$SURFV
 70
     6
  9
$UCSBASE
  2

  9
$UCSNAME
  2

  9
$UCSORG
 10
0.0
 20
0.0
 30
0.0
  9
$UCSXDIR
 10
1.0
 20
0.0
 30
0.0
  9
$UCSYDIR
 10
0.0
 20
1.0
 30
0.0
  9
$UCSORTHOREF
  2

  9
$UCSORTHOVIEW
 70
     0
  9
$UCSORGTOP
 10
0.0
 20
0.0
 30
0.0
  9
$UCSORGBOTTOM
 10
0.0
 20
0.0
 30
0.0
  9
$UCSORGLEFT
 10
0.0
 20
0.0
 30
0.0
  9
$UCSORGRIGHT
 10
0.0
 20
0.0
 30
0.0
  9
$UCSORGFRONT
 10
0.0
 20
0.0
 30
0.0
  9
$UCSORGBACK
 10
0.0
 20
0.0
 30
0.0
  9
$PUCSBASE
  2

  9
$PUCSNAME
  2

  9
$PUCSORG
 10
0.0
 20
0.0
 30
0.0
  9
$PUCSXDIR
 10
1.0
 20
0.0
 30
0.0
  9
$PUCSYDIR
 10
0.0
 20
1.0
 30
0.0
  9
$PUCSORTHOREF
  2

  9
$PUCSORTHOVIEW
 70
     0
  9
$PUCSORGTOP
 10
0.0
 20
0.0
 30
0.0
  9
$PUCSORGBOTTOM
 10
0.0
 20
0.0
 30
0.0
  9
$PUCSORGLEFT
 10
0.0
 20
0.0
 30
0.0
  9
$PUCSORGRIGHT
 10
0.0
 20
0.0
 30
0.0
  9
$PUCSORGFRONT
 10
0.0
 20
0.0
 30
0.0
  9
$PUCSORGBACK
 10
0.0
 20
0.0
 30
0.0
  9
$USERI1
 70
     0
  9
$USERI2
 70
     0
  9
$USERI3
 70
     0
  9
$USERI4
 70
     0
  9
$USERI5
 70
     0
  9
$USERR1
 40
0.0
  9
$USERR2
 40
0.0
  9
$USERR3
 40
0.0
  9
$USERR4
 40
0.0
  9
$USERR5
 40
0.0
  9
$WORLDVIEW
 70
     1
  9
$SHADEDGE
 70
     3
  9
$SHADEDIF
 70
    70
  9
$TILEMODE
 70
     1
  9
$MAXACTVP
 70
    64
  9
$PINSBASE
 10
0.0
 20
0.0
 30
0.0
  9
$PLIMCHECK
 70
     0
  9
$PEXTMIN
 10
0.0
 20
0.0
 30
0.0
  9
$PEXTMAX
 10
0.0
 20
0.0
 30
0.0
  9
$PLIMMIN
 10
0.0
 20
0.0
  9
$PLIMMAX
 10
12.0
 20
9.0
  9
$UNITMODE
 70
     0
  9
$VISRETAIN
 70
     1
  9
$PLINEGEN
 70
     0
  9
$PSLTSCALE
 70
     1
  9
$TREEDEPTH
 70
  3020
  9
$CMLSTYLE
  2
Standard
  9
$CMLJUST
 70
     0
  9
$CMLSCALE
 40
20.0
  9
$PROXYGRAPHICS
 70
     1
  9
$MEASUREMENT
 70
     1
  9
$CELWEIGHT
370
    -1
  9
$ENDCAPS
280
     0
  9
$JOINSTYLE
280
     0
  9
$LWDISPLAY
290
     0
  9
$INSUNITS
 70
     4
  9
$HYPERLINKBASE
  1

  9
$STYLESHEET
  1

  9
$XEDIT
290
     1
  9
$CEPSNTYPE
380
     0
  9
$PSTYLEMODE
290
     1
  9
$FINGERPRINTGUID
  2
{FDEAD578-A652-11D2-9A35-0060089B3A3F}
  9
$VERSIONGUID
  2
{FA88965B-339F-4A97-B9C5-B40AFCBD208C}
  9
$EXTNAMES
290
     1
  9
$PSVPSCALE
 40
0.0
  9
$OLESTARTUP
290
     0
  0
ENDSEC
  0
SECTION
  2
CLASSES
  0
CLASS
  1
ACDBDICTIONARYWDFLT
  2
AcDbDictionaryWithDefault
  3
ObjectDBX Classes
 90
        0
280
     0
281
     0
  0
CLASS
  1
ACDBPLACEHOLDER
  2
AcDbPlaceHolder
  3
ObjectDBX Classes
 90
        0
280
     0
281
     0
  0
CLASS
  1
LAYOUT
  2
AcDbLayout
  3
ObjectDBX Classes
 90
        0
280
     0
281
     0
  0
CLASS
  1
DICTIONARYVAR
  2
AcDbDictionaryVar
  3
ObjectDBX Classes
 90
        0
280
     0
281
     0
  0
ENDSEC
  0
SECTION
  2
TABLES
  0
TABLE
  2
VPORT
  5
1B
330
0
100
AcDbSymbolTable
 70
     3
  0
VPORT
  5
23D
330
1B
100
AcDbSymbolTableRecord
100
AcDbViewportTableRecord
  2
*Active
 70
     0
 10
0.0
 20
0.0
 11
1.0
 21
1.0
 12
-3.473510012814646
 22
3.163239047703427
 13
0.0
 23
0.0
 14
10.0
 24
10.0
 15
10.0
 25
10.0
 16
0.0
 26
0.0
 36
1.0
 17
0.0
 27
0.0
 37
0.0
 40
113.9180720285267
 41
1.443271767810026
 42
50.0
 43
0.0
 44
0.0
 50
0.0
 51
0.0
 71
     0
 72
  1000
 73
     1
 74
     2
 75
     0
 76
     0
 77
     0
 78
     0
281
     0
 65
     1
110
0.0
120
0.0
130
0.0
111
1.0
121
0.0
131
0.0
112
0.0
122
1.0
132
0.0
 79
     0
146
0.0
  0
ENDTAB
  0
TABLE
  2
LTYPE
  5
16
330
0
100
AcDbSymbolTable
 70
     5
  0
LTYPE
  5
17
330
16
100
AcDbSymbolTableRecord
100
AcDbLinetypeTableRecord
  2
ByBlock
 70
     0
  3

 72
    65
 73
     0
 40
0.0
  0
LTYPE
  5
18
330
16
100
AcDbSymbolTableRecord
100
AcDbLinetypeTableRecord
  2
ByLayer
 70
     0
  3

 72
    65
 73
     0
 40
0.0
  0
LTYPE
  5
8
330
16
100
AcDbSymbolTableRecord
100
AcDbLinetypeTableRecord
  2
Continuous
 70
     0
  3
Solid line
 72
    65
 73
     0
 40
0.0
  0
LTYPE
  5
1A2
330
16
100
AcDbSymbolTableRecord
100
AcDbLinetypeTableRecord
  2
PHANTOM
 70
     0
  3
Phantom
 72
    65
 73
     6
 40
2.5
 49
1.25
 74
     0
 49
-0.25
 74
     0
 49
0.25
 74
     0
 49
-0.25
 74
     0
 49
0.25
 74
     0
 49
-0.25
 74
     0
  0
LTYPE
  5
8B
330
16
100
AcDbSymbolTableRecord
100
AcDbLinetypeTableRecord
  2
S10
 70
     0
  3
- - - - - - - - - 1,-1,1,-1
 72
    65
 73
     4
 40
4.0
 49
1.0
 74
     0
 49
-1.0
 74
     0
 49
1.0
 74
     0
 49
-1.0
 74
     0
  0
LTYPE
  5
53
330
16
100
AcDbSymbolTableRecord
100
AcDbLinetypeTableRecord
  2
HIDDEN2
 70
     0
  3
Hidden (.5x) _ _ _ _ _ _ _ _ _ _ _ _ _ _ _ _ _
 72
    65
 73
     2
 40
1.399999999999999
 49
0.7
 74
     0
 49
-0.7
 74
     0
  0
LTYPE
  5
56
330
16
100
AcDbSymbolTableRecord
100
AcDbLinetypeTableRecord
  2
DASHED
 70
     0
  3
__ __ __ __ __ __ __ __ __ __ __ __ __ __ __
 72
    65
 73
     2
 40
0.75
 49
0.5
 74
     0
 49
-0.25
 74
     0
  0
ENDTAB
  0
TABLE
  2
LAYER
  5
10
102
{ACAD_XDICTIONARY
360
11
102
}
330
0
100
AcDbSymbolTable
 70
     8
  0
LAYER
  5
4
330
10
100
AcDbSymbolTableRecord
100
AcDbLayerTableRecord
  2
0
 70
     0
 62
     7
  6
Continuous
370
    -3
390
5
  0
LAYER
  5
FB
330
10
100
AcDbSymbolTableRecord
100
AcDbLayerTableRecord
  2
WAKU
 70
     0
 62
     4
  6
Continuous
370
    -3
390
5
  0
LAYER
  5
30
330
10
100
AcDbSymbolTableRecord
100
AcDbLayerTableRecord
  2
MOJI1
 70
     0
 62
     2
  6
Continuous
370
    -3
390
5
  0
LAYER
  5
32
330
10
100
AcDbSymbolTableRecord
100
AcDbLayerTableRecord
  2
TOUROKU
 70
     0
 62
     1
  6
Continuous
370
    -3
390
5
  0
LAYER
  5
52
330
10
100
AcDbSymbolTableRecord
100
AcDbLayerTableRecord
  2
GAIKEI
 70
     0
 62
     7
  6
Continuous
370
    -3
390
5
  0
LAYER
  5
40
330
10
100
AcDbSymbolTableRecord
100
AcDbLayerTableRecord
  2
Defpoints
 70
     0
 62
     7
  6
Continuous
290
     0
370
    -3
390
5
  0
LAYER
  5
34
330
10
100
AcDbSymbolTableRecord
100
AcDbLayerTableRecord
  2
SUNPO
 70
     0
 62
     3
  6
Continuous
370
    -3
390
5
  0
LAYER
  5
2D
330
10
100
AcDbSymbolTableRecord
100
AcDbLayerTableRecord
  2
PANEL
 70
     0
 62
     1
  6
Continuous
370
    -3
390
5
  0
ENDTAB
  0
TABLE
  2
STYLE
  5
13
330
0
100
AcDbSymbolTable
 70
     1
  0
STYLE
  5
14
330
13
100
AcDbSymbolTableRecord
100
AcDbTextStyleTableRecord
  2
Standard
 70
     0
 40
0.0
 41
1.0
 50
0.0
 71
     0
 42
2.5
  3
MONOTXT.shx
  4
BIGFONT.shx
  0
ENDTAB
  0
TABLE
  2
VIEW
  5
19
330
0
100
AcDbSymbolTable
 70
     0
  0
ENDTAB
  0
TABLE
  2
UCS
  5
1A
330
0
100
AcDbSymbolTable
 70
     0
  0
ENDTAB
  0
TABLE
  2
APPID
  5
1D
330
0
100
AcDbSymbolTable
 70
     1
  0
APPID
  5
1E
330
1D
100
AcDbSymbolTableRecord
100
AcDbRegAppTableRecord
  2
ACAD
 70
     0
  0
ENDTAB
  0
TABLE
  2
DIMSTYLE
  5
1F
330
0
100
AcDbSymbolTable
 70
     1
100
AcDbDimStyleTable
 71
     1
340
20
  0
DIMSTYLE
105
20
102
{ACAD_REACTORS
330
11D
330
12A
330
44
330
33
102
}
330
1F
100
AcDbSymbolTableRecord
100
AcDbDimStyleTableRecord
  2
STANDARD
 70
     0
 40
0.0
 41
2.0
 42
2.0
 43
8.0
 44
2.0
 73
     0
 74
     0
 77
     3
140
3.0
141
0.0
173
     1
279
     2
288
     1
340
14
341
21
343
21
344
21
  0
ENDTAB
  0
TABLE
  2
BLOCK_RECORD
  5
1
330
0
100
AcDbSymbolTable
 70
     9
  0
BLOCK_RECORD
  5
2
330
1
100
AcDbSymbolTableRecord
100
AcDbBlockTableRecord
  2
*Model_Space
340
A
  0
BLOCK_RECORD
  5
C
330
1
100
AcDbSymbolTableRecord
100
AcDbBlockTableRecord
  2
*Paper_Space
340
F
  0
BLOCK_RECORD
  5
21
330
1
100
AcDbSymbolTableRecord
100
AcDbBlockTableRecord
  2
_OPEN30
340
0
102
{BLKREFS
331
123
331
124
331
131
331
132
331
3D
331
3E
331
4B
331
4C
331
20B
331
20C
331
217
331
218
331
224
331
225
331
232
331
233
102
}
  0
BLOCK_RECORD
  5
11E
330
1
100
AcDbSymbolTableRecord
100
AcDbBlockTableRecord
  2
*D1
340
0
  0
BLOCK_RECORD
  5
12B
330
1
100
AcDbSymbolTableRecord
100
AcDbBlockTableRecord
  2
*D2
340
0
  0
BLOCK_RECORD
  5
45
330
1
100
AcDbSymbolTableRecord
100
AcDbBlockTableRecord
  2
*D3
340
0
  0
BLOCK_RECORD
  5
35
330
1
100
AcDbSymbolTableRecord
100
AcDbBlockTableRecord
  2
*D4
340
0
  0
BLOCK_RECORD
  5
206
330
1
100
AcDbSymbolTableRecord
100
AcDbBlockTableRecord
  2
*D5
340
0
  0
BLOCK_RECORD
  5
213
330
1
100
AcDbSymbolTableRecord
100
AcDbBlockTableRecord
  2
*D6
340
0
  0
BLOCK_RECORD
  5
21F
330
1
100
AcDbSymbolTableRecord
100
AcDbBlockTableRecord
  2
*D7
340
0
  0
BLOCK_RECORD
  5
22B
330
1
100
AcDbSymbolTableRecord
100
AcDbBlockTableRecord
  2
*D8
340
0
  0
ENDTAB
  0
ENDSEC
  0
SECTION
  2
BLOCKS
  0
BLOCK
  5
3
330
2
100
AcDbEntity
  8
0
100
AcDbBlockBegin
  2
*Model_Space
 70
     0
 10
0.0
 20
0.0
 30
0.0
  3
*Model_Space
  1

  0
ENDBLK
  5
9
330
2
100
AcDbEntity
  8
0
100
AcDbBlockEnd
  0
BLOCK
  5
D
330
C
100
AcDbEntity
 67
     1
  8
0
100
AcDbBlockBegin
  2
*Paper_Space
 70
     0
 10
0.0
 20
0.0
 30
0.0
  3
*Paper_Space
  1

  0
ENDBLK
  5
E
330
C
100
AcDbEntity
 67
     1
  8
0
100
AcDbBlockEnd
  0
BLOCK
  5
22
330
21
100
AcDbEntity
  8
0
100
AcDbBlockBegin
  2
_OPEN30
 70
     0
 10
0.0
 20
0.0
 30
0.0
  3
_OPEN30
  1

  0
LINE
  5
23
330
21
100
AcDbEntity
  8
0
  6
ByBlock
 62
     0
100
AcDbLine
 10
-1.0
 20
0.26794919
 30
0.0
 11
0.0
 21
0.0
 31
0.0
  0
LINE
  5
24
330
21
100
AcDbEntity
  8
0
  6
ByBlock
 62
     0
100
AcDbLine
 10
0.0
 20
0.0
 30
0.0
 11
-1.0
 21
-0.26794919
 31
0.0
  0
LINE
  5
25
330
21
100
AcDbEntity
  8
0
  6
ByBlock
 62
     0
100
AcDbLine
 10
0.0
 20
0.0
 30
0.0
 11
-1.0
 21
0.0
 31
0.0
  0
ENDBLK
  5
26
330
21
100
AcDbEntity
  8
0
100
AcDbBlockEnd
  0
BLOCK
  5
11F
330
11E
100
AcDbEntity
  8
0
100
AcDbBlockBegin
  2
*D1
 70
     1
 10
0.0
 20
0.0
 30
0.0
  3
*D1
  1

  0
LINE
  5
120
330
11E
100
AcDbEntity
  8
SUNPO
 62
     0
370
    -2
100
AcDbLine
 10
52.03897426687607
 20
66.49290814789768
 30
0.0
 11
60.03897426687606
 21
66.49290814789768
 31
0.0
  0
LINE
  5
121
330
11E
100
AcDbEntity
  8
SUNPO
 62
     0
370
    -2
100
AcDbLine
 10
52.03897426687607
 20
89.79219144692164
 30
0.0
 11
60.03897426687607
 21
89.79219144692164
 31
0.0
  0
LINE
  5
122
330
11E
100
AcDbEntity
  8
SUNPO
 62
     0
370
    -2
100
AcDbLine
 10
58.03897426687606
 20
68.49290814789767
 30
0.0
 11
58.03897426687607
 21
87.79219144692163
 31
0.0
  0
INSERT
  5
123
330
11E
100
AcDbEntity
  8
SUNPO
 62
     0
370
    -2
100
AcDbBlockReference
  2
_OPEN30
 10
58.03897426687606
 20
66.49290814789768
 30
0.0
 41
2.0
 42
2.0
 43
2.0
 50
270.0
  0
INSERT
  5
124
330
11E
100
AcDbEntity
  8
SUNPO
 62
     0
370
    -2
100
AcDbBlockReference
  2
_OPEN30
 10
58.03897426687607
 20
89.79219144692164
 30
0.0
 41
2.0
 42
2.0
 43
2.0
 50
90.0
  0
MTEXT
  5
125
330
11E
100
AcDbEntity
  8
SUNPO
 62
     0
100
AcDbMText
 10
56.28897426687605
 20
78.14254979740967
 30
0.0
 40
2.5
 41
0.0
 71
     5
 72
     1
  1
\A1;233
 11
0.0000000000000001
 21
1.0
 31
0.0
 73
     1
 44
1.0
1001
ACAD
1000
MTEXTBEGIN
1070
    73
1070
     1
1070
    44
1040
1.0
1070
    74
1070
     0
1000
MTEXTEND
  0
POINT
  5
126
330
11E
100
AcDbEntity
  8
Defpoints
 62
     0
100
AcDbPoint
 10
50.03897426687607
 20
66.49290814789768
 30
0.0
  0
POINT
  5
127
330
11E
100
AcDbEntity
  8
Defpoints
 62
     0
100
AcDbPoint
 10
50.03897426687607
 20
89.79219144692164
 30
0.0
  0
POINT
  5
128
330
11E
100
AcDbEntity
  8
Defpoints
 62
     0
100
AcDbPoint
 10
58.03897426687607
 20
89.79219144692164
 30
0.0
  0
ENDBLK
  5
129
330
11E
100
AcDbEntity
  8
0
100
AcDbBlockEnd
  0
BLOCK
  5
12C
330
12B
100
AcDbEntity
  8
0
100
AcDbBlockBegin
  2
*D2
 70
     1
 10
0.0
 20
0.0
 30
0.0
  3
*D2
  1

  0
LINE
  5
12D
330
12B
100
AcDbEntity
  8
SUNPO
 62
     0
370
    -2
100
AcDbLine
 10
32.78060090243204
 20
66.37287037886372
 30
0.0
 11
32.78060090243204
 21
58.37287037886373
 31
0.0
  0
LINE
  5
12E
330
12B
100
AcDbEntity
  8
SUNPO
 62
     0
370
    -2
100
AcDbLine
 10
48.23060090243209
 20
66.37287037886372
 30
0.0
 11
48.23060090243209
 21
58.37287037886373
 31
0.0
  0
LINE
  5
12F
330
12B
100
AcDbEntity
  8
SUNPO
 62
     0
370
    -2
100
AcDbLine
 10
34.78060090243204
 20
60.37287037886372
 30
0.0
 11
46.23060090243209
 21
60.37287037886372
 31
0.0
  0
LINE
  5
130
330
12B
100
AcDbEntity
  8
SUNPO
 62
     0
370
    -2
100
AcDbLine
 10
48.23060090243209
 20
60.37287037886372
 30
0.0
 11
65.89726756909874
 21
60.37287037886372
 31
0.0
  0
INSERT
  5
131
330
12B
100
AcDbEntity
  8
SUNPO
 62
     0
370
    -2
100
AcDbBlockReference
  2
_OPEN30
 10
32.78060090243204
 20
60.37287037886372
 30
0.0
 41
2.0
 42
2.0
 43
2.0
 50
180.0
  0
INSERT
  5
132
330
12B
100
AcDbEntity
  8
SUNPO
 62
     0
370
    -2
100
AcDbBlockReference
  2
_OPEN30
 10
48.23060090243209
 20
60.37287037886372
 30
0.0
 41
2.0
 42
2.0
 43
2.0
  0
MTEXT
  5
133
330
12B
100
AcDbEntity
  8
SUNPO
 62
     0
100
AcDbMText
 10
58.06393423576541
 20
62.12287037886373
 30
0.0
 40
2.5
 41
0.0
 71
     5
 72
     1
  1
\A1;φ154.5
 73
     1
 44
1.0
1001
ACAD
1000
MTEXTBEGIN
1070
    73
1070
     1
1070
    44
1040
1.0
1070
    74
1070
     0
1000
MTEXTEND
  0
POINT
  5
134
330
12B
100
AcDbEntity
  8
Defpoints
 62
     0
100
AcDbPoint
 10
32.78060090243204
 20
68.37287037886373
 30
0.0
  0
POINT
  5
135
330
12B
100
AcDbEntity
  8
Defpoints
 62
     0
100
AcDbPoint
 10
48.23060090243209
 20
68.37287037886373
 30
0.0
  0
POINT
  5
136
330
12B
100
AcDbEntity
  8
Defpoints
 62
     0
100
AcDbPoint
 10
48.23060090243209
 20
60.37287037886372
 30
0.0
  0
ENDBLK
  5
137
330
12B
100
AcDbEntity
  8
0
100
AcDbBlockEnd
  0
BLOCK
  5
46
330
45
100
AcDbEntity
  8
0
100
AcDbBlockBegin
  2
*D3
 70
     1
 10
0.0
 20
0.0
 30
0.0
  3
*D3
  1

  0
LINE
  5
47
330
45
100
AcDbEntity
  8
SUNPO
 62
     0
370
    -2
100
AcDbLine
 10
36.33057649143701
 20
94.03311183531712
 30
0.0
 11
36.33057649143701
 21
104.0331118353171
 31
0.0
  0
LINE
  5
48
330
45
100
AcDbEntity
  8
SUNPO
 62
     0
370
    -2
100
AcDbLine
 10
44.68057649143703
 20
94.03311183531712
 30
0.0
 11
44.68057649143703
 21
104.0331118353171
 31
0.0
  0
LINE
  5
49
330
45
100
AcDbEntity
  8
SUNPO
 62
     0
370
    -2
100
AcDbLine
 10
38.33057649143701
 20
102.0331118353171
 30
0.0
 11
42.68057649143703
 21
102.0331118353171
 31
0.0
  0
MTEXT
  5
4A
330
45
100
AcDbEntity
  8
SUNPO
 62
     0
100
AcDbMText
 10
40.50557649143701
 20
106.0331118353171
 30
0.0
 40
2.5
 41
0.0
 71
     5
 72
     1
  1
\A1;83.5
 73
     1
 44
1.0
1001
ACAD
1000
MTEXTBEGIN
1070
    73
1070
     1
1070
    44
1040
1.0
1070
    74
1070
     0
1000
MTEXTEND
  0
INSERT
  5
4B
330
45
100
AcDbEntity
  8
SUNPO
 62
     0
370
    -2
100
AcDbBlockReference
  2
_OPEN30
 10
36.33057649143701
 20
102.0331118353171
 30
0.0
 41
2.0
 42
2.0
 43
2.0
 50
180.0
  0
INSERT
  5
4C
330
45
100
AcDbEntity
  8
SUNPO
 62
     0
370
    -2
100
AcDbBlockReference
  2
_OPEN30
 10
44.68057649143703
 20
102.0331118353171
 30
0.0
 41
2.0
 42
2.0
 43
2.0
  0
POINT
  5
4D
330
45
100
AcDbEntity
  8
Defpoints
 62
     0
100
AcDbPoint
 10
36.33057649143701
 20
92.03311183531713
 30
0.0
  0
POINT
  5
4E
330
45
100
AcDbEntity
  8
Defpoints
 62
     0
100
AcDbPoint
 10
44.68057649143703
 20
92.03311183531713
 30
0.0
  0
POINT
  5
4F
330
45
100
AcDbEntity
  8
Defpoints
 62
     0
100
AcDbPoint
 10
44.68057649143703
 20
102.0331118353171
 30
0.0
  0
ENDBLK
  5
50
330
45
100
AcDbEntity
  8
0
100
AcDbBlockEnd
  0
BLOCK
  5
36
330
35
100
AcDbEntity
  8
0
100
AcDbBlockBegin
  2
*D4
 70
     1
 10
0.0
 20
0.0
 30
0.0
  3
*D4
  1

  0
LINE
  5
37
330
35
100
AcDbEntity
  8
SUNPO
 62
     0
370
    -2
100
AcDbLine
 10
87.77442914225494
 20
94.05102942121191
 30
0.0
 11
87.77442914225494
 21
104.0510294212119
 31
0.0
  0
LINE
  5
38
330
35
100
AcDbEntity
  8
SUNPO
 62
     0
370
    -2
100
AcDbLine
 10
92.37442914225486
 20
94.05102942121191
 30
0.0
 11
92.37442914225486
 21
104.0510294212119
 31
0.0
  0
LINE
  5
39
330
35
100
AcDbEntity
  8
SUNPO
 62
     0
370
    -2
100
AcDbLine
 10
85.77442914225494
 20
102.0510294212119
 30
0.0
 11
83.77442914225495
 21
102.0510294212119
 31
0.0
  0
LINE
  5
3A
330
35
100
AcDbEntity
  8
SUNPO
 62
     0
370
    -2
100
AcDbLine
 10
94.37442914225485
 20
102.0510294212119
 30
0.0
 11
96.37442914225486
 21
102.0510294212119
 31
0.0
  0
MTEXT
  5
3B
330
35
100
AcDbEntity
  8
SUNPO
 62
     0
100
AcDbMText
 10
90.07442914225491
 20
106.0510294212119
 30
0.0
 40
2.5
 41
0.0
 71
     5
 72
     1
  1
\A1;46
 73
     1
 44
1.0
1001
ACAD
1000
MTEXTBEGIN
1070
    73
1070
     1
1070
    44
1040
1.0
1070
    74
1070
     0
1000
MTEXTEND
  0
LINE
  5
3C
330
35
100
AcDbEntity
  8
SUNPO
 62
     0
370
    -2
100
AcDbLine
 10
87.77442914225494
 20
102.0510294212119
 30
0.0
 11
92.37442914225486
 21
102.0510294212119
 31
0.0
  0
INSERT
  5
3D
330
35
100
AcDbEntity
  8
SUNPO
 62
     0
370
    -2
100
AcDbBlockReference
  2
_OPEN30
 10
87.77442914225494
 20
102.0510294212119
 30
0.0
 41
2.0
 42
2.0
 43
2.0
  0
INSERT
  5
3E
330
35
100
AcDbEntity
  8
SUNPO
 62
     0
370
    -2
100
AcDbBlockReference
  2
_OPEN30
 10
92.37442914225486
 20
102.0510294212119
 30
0.0
 41
2.0
 42
2.0
 43
2.0
 50
180.0
  0
POINT
  5
3F
330
35
100
AcDbEntity
  8
Defpoints
 62
     0
100
AcDbPoint
 10
87.77442914225494
 20
92.05102942121191
 30
0.0
  0
POINT
  5
41
330
35
100
AcDbEntity
  8
Defpoints
 62
     0
100
AcDbPoint
 10
92.37442914225486
 20
92.05102942121191
 30
0.0
  0
POINT
  5
42
330
35
100
AcDbEntity
  8
Defpoints
 62
     0
100
AcDbPoint
 10
92.37442914225486
 20
102.0510294212119
 30
0.0
  0
ENDBLK
  5
43
330
35
100
AcDbEntity
  8
0
100
AcDbBlockEnd
  0
BLOCK
  5
211
330
206
100
AcDbEntity
  8
0
100
AcDbBlockBegin
  2
*D5
 70
     1
 10
0.0
 20
0.0
 30
0.0
  3
*D5
  1

  0
LINE
  5
207
330
206
100
AcDbEntity
  8
SUNPO
 62
     0
370
    -2
100
AcDbLine
 10
-35.6831585663862
 20
7.54372276044026
 30
0.0
 11
-35.6831585663862
 21
-0.4562772395597392
 31
0.0
  0
LINE
  5
208
330
206
100
AcDbEntity
  8
SUNPO
 62
     0
370
    -2
100
AcDbLine
 10
-20.23315856638615
 20
7.54372276044026
 30
0.0
 11
-20.23315856638615
 21
-0.4562772395597392
 31
0.0
  0
LINE
  5
209
330
206
100
AcDbEntity
  8
SUNPO
 62
     0
370
    -2
100
AcDbLine
 10
-33.6831585663862
 20
1.54372276044026
 30
0.0
 11
-22.23315856638615
 21
1.54372276044026
 31
0.0
  0
LINE
  5
20A
330
206
100
AcDbEntity
  8
SUNPO
 62
     0
370
    -2
100
AcDbLine
 10
-20.23315856638615
 20
1.54372276044026
 30
0.0
 11
-2.566491899719485
 21
1.54372276044026
 31
0.0
  0
INSERT
  5
20B
330
206
100
AcDbEntity
  8
SUNPO
 62
     0
370
    -2
100
AcDbBlockReference
  2
_OPEN30
 10
-35.6831585663862
 20
1.54372276044026
 30
0.0
 41
2.0
 42
2.0
 43
2.0
 50
180.0
  0
INSERT
  5
20C
330
206
100
AcDbEntity
  8
SUNPO
 62
     0
370
    -2
100
AcDbBlockReference
  2
_OPEN30
 10
-20.23315856638615
 20
1.54372276044026
 30
0.0
 41
2.0
 42
2.0
 43
2.0
  0
MTEXT
  5
20D
330
206
100
AcDbEntity
  8
SUNPO
 62
     0
100
AcDbMText
 10
-10.39982523305282
 20
3.29372276044026
 30
0.0
 40
2.5
 41
0.0
 71
     5
 72
     1
  1
\A1;φ154.5
 73
     1
 44
1.0
1001
ACAD
1000
MTEXTBEGIN
1070
    73
1070
     1
1070
    44
1040
1.0
1070
    74
1070
     0
1000
MTEXTEND
  0
POINT
  5
20E
330
206
100
AcDbEntity
  8
Defpoints
 62
     0
100
AcDbPoint
 10
-35.6831585663862
 20
9.54372276044026
 30
0.0
  0
POINT
  5
20F
330
206
100
AcDbEntity
  8
Defpoints
 62
     0
100
AcDbPoint
 10
-20.23315856638615
 20
9.54372276044026
 30
0.0
  0
POINT
  5
210
330
206
100
AcDbEntity
  8
Defpoints
 62
     0
100
AcDbPoint
 10
-20.23315856638615
 20
1.54372276044026
 30
0.0
  0
ENDBLK
  5
212
330
206
100
AcDbEntity
  8
0
100
AcDbBlockEnd
  0
BLOCK
  5
21D
330
213
100
AcDbEntity
  8
0
100
AcDbBlockBegin
  2
*D6
 70
     1
 10
0.0
 20
0.0
 30
0.0
  3
*D6
  1

  0
LINE
  5
214
330
213
100
AcDbEntity
  8
SUNPO
 62
     0
370
    -2
100
AcDbLine
 10
-16.42478520194217
 20
7.663760529474216
 30
0.0
 11
-8.424785201942176
 21
7.663760529474213
 31
0.0
  0
LINE
  5
215
330
213
100
AcDbEntity
  8
SUNPO
 62
     0
370
    -2
100
AcDbLine
 10
-16.42478520194217
 20
30.96304382849818
 30
0.0
 11
-8.424785201942171
 21
30.96304382849818
 31
0.0
  0
LINE
  5
216
330
213
100
AcDbEntity
  8
SUNPO
 62
     0
370
    -2
100
AcDbLine
 10
-10.42478520194217
 20
9.663760529474213
 30
0.0
 11
-10.42478520194217
 21
28.96304382849817
 31
0.0
  0
INSERT
  5
217
330
213
100
AcDbEntity
  8
SUNPO
 62
     0
370
    -2
100
AcDbBlockReference
  2
_OPEN30
 10
-10.42478520194217
 20
7.663760529474214
 30
0.0
 41
2.0
 42
2.0
 43
2.0
 50
270.0
  0
INSERT
  5
218
330
213
100
AcDbEntity
  8
SUNPO
 62
     0
370
    -2
100
AcDbBlockReference
  2
_OPEN30
 10
-10.42478520194217
 20
30.96304382849818
 30
0.0
 41
2.0
 42
2.0
 43
2.0
 50
90.0
  0
MTEXT
  5
219
330
213
100
AcDbEntity
  8
SUNPO
 62
     0
100
AcDbMText
 10
-12.17478520194217
 20
19.31340217898619
 30
0.0
 40
2.5
 41
0.0
 71
     5
 72
     1
  1
\A1;233
 11
0.0000000000000001
 21
1.0
 31
0.0
 73
     1
 44
1.0
1001
ACAD
1000
MTEXTBEGIN
1070
    73
1070
     1
1070
    44
1040
1.0
1070
    74
1070
     0
1000
MTEXTEND
  0
POINT
  5
21A
330
213
100
AcDbEntity
  8
Defpoints
 62
     0
100
AcDbPoint
 10
-18.42478520194217
 20
7.663760529474217
 30
0.0
  0
POINT
  5
21B
330
213
100
AcDbEntity
  8
Defpoints
 62
     0
100
AcDbPoint
 10
-18.42478520194217
 20
30.96304382849818
 30
0.0
  0
POINT
  5
21C
330
213
100
AcDbEntity
  8
Defpoints
 62
     0
100
AcDbPoint
 10
-10.42478520194217
 20
30.96304382849818
 30
0.0
  0
ENDBLK
  5
21E
330
213
100
AcDbEntity
  8
0
100
AcDbBlockEnd
  0
BLOCK
  5
229
330
21F
100
AcDbEntity
  8
0
100
AcDbBlockBegin
  2
*D7
 70
     1
 10
0.0
 20
0.0
 30
0.0
  3
*D7
  1

  0
LINE
  5
220
330
21F
100
AcDbEntity
  8
SUNPO
 62
     0
370
    -2
100
AcDbLine
 10
-32.13318297738123
 20
35.20396421689367
 30
0.0
 11
-32.13318297738123
 21
45.20396421689366
 31
0.0
  0
LINE
  5
221
330
21F
100
AcDbEntity
  8
SUNPO
 62
     0
370
    -2
100
AcDbLine
 10
-23.78318297738121
 20
35.20396421689367
 30
0.0
 11
-23.78318297738121
 21
45.20396421689366
 31
0.0
  0
LINE
  5
222
330
21F
100
AcDbEntity
  8
SUNPO
 62
     0
370
    -2
100
AcDbLine
 10
-30.13318297738123
 20
43.20396421689366
 30
0.0
 11
-25.78318297738121
 21
43.20396421689366
 31
0.0
  0
MTEXT
  5
223
330
21F
100
AcDbEntity
  8
SUNPO
 62
     0
100
AcDbMText
 10
-27.95818297738122
 20
47.20396421689367
 30
0.0
 40
2.5
 41
0.0
 71
     5
 72
     1
  1
\A1;83.5
 73
     1
 44
1.0
1001
ACAD
1000
MTEXTBEGIN
1070
    73
1070
     1
1070
    44
1040
1.0
1070
    74
1070
     0
1000
MTEXTEND
  0
INSERT
  5
224
330
21F
100
AcDbEntity
  8
SUNPO
 62
     0
370
    -2
100
AcDbBlockReference
  2
_OPEN30
 10
-32.13318297738123
 20
43.20396421689366
 30
0.0
 41
2.0
 42
2.0
 43
2.0
 50
180.0
  0
INSERT
  5
225
330
21F
100
AcDbEntity
  8
SUNPO
 62
     0
370
    -2
100
AcDbBlockReference
  2
_OPEN30
 10
-23.78318297738121
 20
43.20396421689366
 30
0.0
 41
2.0
 42
2.0
 43
2.0
  0
POINT
  5
226
330
21F
100
AcDbEntity
  8
Defpoints
 62
     0
100
AcDbPoint
 10
-32.13318297738123
 20
33.20396421689367
 30
0.0
  0
POINT
  5
227
330
21F
100
AcDbEntity
  8
Defpoints
 62
     0
100
AcDbPoint
 10
-23.78318297738121
 20
33.20396421689367
 30
0.0
  0
POINT
  5
228
330
21F
100
AcDbEntity
  8
Defpoints
 62
     0
100
AcDbPoint
 10
-23.78318297738121
 20
43.20396421689366
 30
0.0
  0
ENDBLK
  5
22A
330
21F
100
AcDbEntity
  8
0
100
AcDbBlockEnd
  0
BLOCK
  5
237
330
22B
100
AcDbEntity
  8
0
100
AcDbBlockBegin
  2
*D8
 70
     1
 10
0.0
 20
0.0
 30
0.0
  3
*D8
  1

  0
LINE
  5
22C
330
22B
100
AcDbEntity
  8
SUNPO
 62
     0
370
    -2
100
AcDbLine
 10
19.3106696734367
 20
35.22188180278845
 30
0.0
 11
19.3106696734367
 21
45.22188180278845
 31
0.0
  0
LINE
  5
22D
330
22B
100
AcDbEntity
  8
SUNPO
 62
     0
370
    -2
100
AcDbLine
 10
23.91066967343661
 20
35.22188180278845
 30
0.0
 11
23.91066967343661
 21
45.22188180278845
 31
0.0
  0
LINE
  5
22E
330
22B
100
AcDbEntity
  8
SUNPO
 62
     0
370
    -2
100
AcDbLine
 10
17.3106696734367
 20
43.22188180278844
 30
0.0
 11
15.3106696734367
 21
43.22188180278844
 31
0.0
  0
LINE
  5
22F
330
22B
100
AcDbEntity
  8
SUNPO
 62
     0
370
    -2
100
AcDbLine
 10
25.91066967343662
 20
43.22188180278844
 30
0.0
 11
27.91066967343662
 21
43.22188180278844
 31
0.0
  0
MTEXT
  5
230
330
22B
100
AcDbEntity
  8
SUNPO
 62
     0
100
AcDbMText
 10
21.61066967343666
 20
47.22188180278844
 30
0.0
 40
2.5
 41
0.0
 71
     5
 72
     1
  1
\A1;46
 73
     1
 44
1.0
1001
ACAD
1000
MTEXTBEGIN
1070
    73
1070
     1
1070
    44
1040
1.0
1070
    74
1070
     0
1000
MTEXTEND
  0
LINE
  5
231
330
22B
100
AcDbEntity
  8
SUNPO
 62
     0
370
    -2
100
AcDbLine
 10
19.3106696734367
 20
43.22188180278844
 30
0.0
 11
23.91066967343661
 21
43.22188180278844
 31
0.0
  0
INSERT
  5
232
330
22B
100
AcDbEntity
  8
SUNPO
 62
     0
370
    -2
100
AcDbBlockReference
  2
_OPEN30
 10
19.3106696734367
 20
43.22188180278844
 30
0.0
 41
2.0
 42
2.0
 43
2.0
  0
INSERT
  5
233
330
22B
100
AcDbEntity
  8
SUNPO
 62
     0
370
    -2
100
AcDbBlockReference
  2
_OPEN30
 10
23.91066967343661
 20
43.22188180278844
 30
0.0
 41
2.0
 42
2.0
 43
2.0
 50
180.0
  0
POINT
  5
234
330
22B
100
AcDbEntity
  8
Defpoints
 62
     0
100
AcDbPoint
 10
19.3106696734367
 20
33.22188180278845
 30
0.0
  0
POINT
  5
235
330
22B
100
AcDbEntity
  8
Defpoints
 62
     0
100
AcDbPoint
 10
23.91066967343661
 20
33.22188180278845
 30
0.0
  0
POINT
  5
236
330
22B
100
AcDbEntity
  8
Defpoints
 62
     0
100
AcDbPoint
 10
23.91066967343661
 20
43.22188180278844
 30
0.0
  0
ENDBLK
  5
238
330
22B
100
AcDbEntity
  8
0
100
AcDbBlockEnd
  0
ENDSEC
  0
SECTION
  2
ENTITIES
  0
TEXT
  5
2F
330
2
100
AcDbEntity
  8
MOJI1
100
AcDbText
 10
-38.96375952477683
 20
55.67168750651103
 30
0.0
 40
4.0
  1
ドーム型プリセットコンビネーションカメラ（天井直付金具付）
 41
0.72
100
AcDbText
  0
TEXT
  5
31
330
2
100
AcDbEntity
  8
TOUROKU
100
AcDbText
 10
26.23619050815062
 20
49.67168750651135
 30
0.0
 40
2.0
  1
ＤＧＮＳ９５０＋ＷＶＱ１０５
 72
     2
 11
59.03619050815058
 21
49.67168750651135
 31
0.0
100
AcDbText
  0
DIMENSION
  5
33
330
2
100
AcDbEntity
  8
SUNPO
100
AcDbDimension
  2
*D8
 10
23.91066967343661
 20
43.22188180278844
 30
0.0
 11
21.61066967343666
 21
47.22188180278844
 31
0.0
 70
    33
  1
46
 71
     5
 42
4.599999999999909
  3
STANDARD
100
AcDbAlignedDimension
 13
19.3106696734367
 23
33.22188180278845
 33
0.0
 14
23.91066967343661
 24
33.22188180278845
 34
0.0
1001
ACAD
1000
DSTYLE
1002
{
1070
   288
1070
     0
1070
   140
1040
2.5
1070
   172
1070
     1
1070
    40
1040
1.0
1070
   147
1040
0.5
1070
   287
1070
     3
1002
}
  0
DIMENSION
  5
44
330
2
100
AcDbEntity
  8
SUNPO
100
AcDbDimension
  2
*D7
 10
-23.78318297738121
 20
43.20396421689366
 30
0.0
 11
-27.95818297738122
 21
47.20396421689367
 31
0.0
 70
    33
  1
83.5
 71
     5
 42
8.350000000000022
  3
STANDARD
100
AcDbAlignedDimension
 13
-32.13318297738123
 23
33.20396421689367
 33
0.0
 14
-23.78318297738121
 24
33.20396421689367
 34
0.0
1001
ACAD
1000
DSTYLE
1002
{
1070
   288
1070
     0
1070
   140
1040
2.5
1070
   172
1070
     1
1070
    40
1040
1.0
1070
   147
1040
0.5
1070
   287
1070
     3
1002
}
  0
LINE
  5
51
330
2
100
AcDbEntity
  8
GAIKEI
  6
HIDDEN2
 62
     1
 48
0.5
100
AcDbLine
 10
22.00913042923589
 20
36.26304382849826
 30
0.0
 11
22.00913042923591
 21
34.45694413829715
 31
0.0
  0
LINE
  5
54
330
2
100
AcDbEntity
  8
GAIKEI
  6
HIDDEN2
 62
     1
 48
0.5
100
AcDbLine
 10
21.21220891763728
 20
36.26304382849824
 30
0.0
 11
21.2122089176373
 21
34.45694413829715
 31
0.0
  0
LINE
  5
55
330
2
100
AcDbEntity
  8
GAIKEI
  6
DASHED
 62
     1
100
AcDbLine
 10
18.21229048859479
 20
32.26304382849825
 30
0.0
 11
17.23552517996299
 21
30.96304382849825
 31
0.0
  0
LINE
  5
57
330
2
100
AcDbEntity
  8
GAIKEI
  6
DASHED
 62
     1
100
AcDbLine
 10
26.52416838614451
 20
32.26304382849825
 30
0.0
 11
25.54740307751271
 21
30.96304382849825
 31
0.0
  0
LINE
  5
58
330
2
100
AcDbEntity
  8
GAIKEI
  6
DASHED
 62
     1
100
AcDbLine
 10
36.33657249350651
 20
30.96304382849825
 30
0.0
 11
31.1106696734366
 21
30.96304382849825
 31
0.0
  0
LINE
  5
59
330
2
100
AcDbEntity
  8
GAIKEI
  6
DASHED
 62
     1
100
AcDbLine
 10
30.91066967343656
 20
30.96304382849825
 30
0.0
 11
21.61066967343663
 21
30.96304382849822
 31
0.0
  0
LINE
  5
5A
330
2
100
AcDbEntity
  8
GAIKEI
  6
DASHED
 62
     1
100
AcDbLine
 10
12.1106696734366
 20
30.96304382849825
 30
0.0
 11
6.062916122897803
 21
30.96304382849825
 31
0.0
  0
LINE
  5
5B
330
2
100
AcDbEntity
  8
GAIKEI
  6
DASHED
 62
     1
100
AcDbLine
 10
21.61066967343663
 20
30.96304382849822
 30
0.0
 11
12.31066967343665
 21
30.96304382849825
 31
0.0
  0
LINE
  5
5C
330
2
100
AcDbEntity
  8
GAIKEI
  6
DASHED
 62
     1
100
AcDbLine
 10
34.21229048859479
 20
32.26304382849825
 30
0.0
 11
33.23552517996299
 21
30.96304382849825
 31
0.0
  0
LINE
  5
5D
330
2
100
AcDbEntity
  8
GAIKEI
  6
DASHED
 62
     1
100
AcDbLine
 10
32.21229048859479
 20
32.26304382849825
 30
0.0
 11
31.23552517996299
 21
30.96304382849825
 31
0.0
  0
LINE
  5
5E
330
2
100
AcDbEntity
  8
GAIKEI
 62
     7
100
AcDbLine
 10
21.2122089176373
 20
40.17040141081922
 30
0.0
 11
21.2122089176373
 21
37.18873269245482
 31
0.0
  0
LINE
  5
5F
330
2
100
AcDbEntity
  8
GAIKEI
 62
     7
100
AcDbLine
 10
22.00913042923591
 20
40.17040141081916
 30
0.0
 11
22.00913042923591
 21
37.18873269245482
 31
0.0
  0
LINE
  5
60
330
2
100
AcDbEntity
  8
GAIKEI
  6
DASHED
 62
     1
100
AcDbLine
 10
14.21229048859479
 20
32.26304382849825
 30
0.0
 11
13.23552517996299
 21
30.96304382849825
 31
0.0
  0
LINE
  5
61
330
2
100
AcDbEntity
  8
GAIKEI
  6
DASHED
 62
     1
100
AcDbLine
 10
11.92394719416219
 20
32.26304382849825
 30
0.0
 11
10.9471818855304
 21
30.96304382849825
 31
0.0
  0
LINE
  5
62
330
2
100
AcDbEntity
  8
GAIKEI
  6
DASHED
 62
     1
100
AcDbLine
 10
10.01074214471848
 20
32.26304382849825
 30
0.0
 11
9.033976836086679
 21
30.96304382849825
 31
0.0
  0
LINE
  5
63
330
2
100
AcDbEntity
  8
GAIKEI
  6
DASHED
 62
     1
100
AcDbLine
 10
21.61066967343662
 20
32.26304382849827
 30
0.0
 11
6.062916122897803
 21
32.26304382849825
 31
0.0
  0
LINE
  5
64
330
2
100
AcDbEntity
  8
GAIKEI
  6
DASHED
 62
     1
100
AcDbLine
 10
36.33657249350651
 20
32.26304382849825
 30
0.0
 11
21.61066967343663
 21
32.26304382849825
 31
0.0
  0
LINE
  5
65
330
2
100
AcDbEntity
  8
GAIKEI
  6
DASHED
 62
     1
100
AcDbLine
 10
29.90041259104507
 20
32.26304382849825
 30
0.0
 11
28.92364728241327
 21
30.96304382849825
 31
0.0
  0
LINE
  5
66
330
2
100
AcDbEntity
  8
GAIKEI
 62
     1
100
AcDbLine
 10
24.08566967343657
 20
32.46304382849825
 30
0.0
 11
24.08566967343657
 21
33.22111771030329
 31
0.0
  0
LINE
  5
67
330
2
100
AcDbEntity
  8
GAIKEI
 62
     1
100
AcDbLine
 10
23.73566967343666
 20
32.46304382849825
 30
0.0
 11
23.73566967343666
 21
33.22111771030329
 31
0.0
  0
LINE
  5
68
330
2
100
AcDbEntity
  8
GAIKEI
  6
HIDDEN2
 62
     1
100
AcDbLine
 10
23.70988971468503
 20
30.81304382849827
 30
0.0
 11
24.1114496321882
 21
30.81304382849827
 31
0.0
  0
LINE
  5
69
330
2
100
AcDbEntity
  8
GAIKEI
  6
HIDDEN2
 62
     1
100
AcDbLine
 10
24.1114496321882
 20
30.81304382849827
 30
0.0
 11
24.30330875643065
 21
30.81304382849827
 31
0.0
  0
ARC
  5
6A
330
2
100
AcDbEntity
  8
GAIKEI
  6
HIDDEN2
 62
     1
100
AcDbCircle
 10
23.91066967343661
 20
30.82329857861104
 30
0.0
 40
0.2010416666666617
100
AcDbArc
 50
182.9238167157427
 51
357.0761832842573
  0
LINE
  5
6B
330
2
100
AcDbEntity
  8
GAIKEI
  6
Continuous
 62
     7
100
AcDbLine
 10
24.63566967343664
 20
32.46304382849825
 30
0.0
 11
18.58566967343662
 21
32.46304382849825
 31
0.0
  0
LINE
  5
6C
330
2
100
AcDbEntity
  8
GAIKEI
 62
     1
100
AcDbLine
 10
23.73566967343666
 20
33.22111771030329
 30
0.0
 11
24.08566967343657
 21
33.22111771030329
 31
0.0
  0
LINE
  5
6D
330
2
100
AcDbEntity
  8
GAIKEI
  6
DASHED
 62
     1
100
AcDbLine
 10
23.73566967343666
 20
30.81304382849827
 30
0.0
 11
23.73566967343666
 21
32.46304382849825
 31
0.0
  0
LINE
  5
6E
330
2
100
AcDbEntity
  8
GAIKEI
  6
DASHED
 62
     1
100
AcDbLine
 10
24.08566967343657
 20
30.81304382849827
 30
0.0
 11
24.08566967343657
 21
32.46304382849825
 31
0.0
  0
LINE
  5
6F
330
2
100
AcDbEntity
  8
GAIKEI
 62
     7
100
AcDbLine
 10
24.63566967343664
 20
32.26304382849825
 30
0.0
 11
24.63566967343664
 21
36.26304382849826
 31
0.0
  0
LINE
  5
70
330
2
100
AcDbEntity
  8
GAIKEI
  6
DASHED
 62
     1
100
AcDbLine
 10
24.6106696734366
 20
30.96304382849823
 30
0.0
 11
24.6106696734366
 21
32.26304382849825
 31
0.0
  0
LINE
  5
71
330
2
100
AcDbEntity
  8
GAIKEI
  6
DASHED
 62
     1
100
AcDbLine
 10
28.21229048859479
 20
32.26304382849825
 30
0.0
 11
27.23552517996299
 21
30.96304382849825
 31
0.0
  0
LINE
  5
72
330
2
100
AcDbEntity
  8
GAIKEI
  6
HIDDEN2
 62
     1
100
AcDbLine
 10
25.89165224672999
 20
30.66304382849823
 30
0.0
 11
25.89165224672999
 21
30.51304382849826
 31
0.0
  0
LINE
  5
73
330
2
100
AcDbEntity
  8
GAIKEI
  6
HIDDEN2
 62
     1
100
AcDbLine
 10
24.67830875643054
 20
30.51304382849826
 30
0.0
 11
25.89165224672999
 21
30.51304382849826
 31
0.0
  0
LINE
  5
74
330
2
100
AcDbEntity
  8
GAIKEI
  6
HIDDEN2
 62
     1
100
AcDbLine
 10
24.73092591533421
 20
30.66304382849823
 30
0.0
 11
25.89165224672999
 21
30.66304382849823
 31
0.0
  0
LINE
  5
75
330
2
100
AcDbEntity
  8
GAIKEI
  6
HIDDEN2
 62
     1
100
AcDbLine
 10
24.73092591533421
 20
30.66304382849823
 30
0.0
 11
24.35592591533421
 21
30.96304382849825
 31
0.0
  0
LINE
  5
76
330
2
100
AcDbEntity
  8
GAIKEI
  6
HIDDEN2
 62
     1
100
AcDbLine
 10
24.67830875643054
 20
30.51304382849826
 30
0.0
 11
24.30330875643065
 21
30.81304382849827
 31
0.0
  0
LINE
  5
77
330
2
100
AcDbEntity
  8
GAIKEI
  6
HIDDEN2
 62
     1
100
AcDbLine
 10
23.14303059044281
 20
30.51304382849826
 30
0.0
 11
23.51803059044269
 21
30.81304382849827
 31
0.0
  0
LINE
  5
78
330
2
100
AcDbEntity
  8
GAIKEI
  6
HIDDEN2
 62
     1
100
AcDbLine
 10
23.09041343153902
 20
30.66304382849823
 30
0.0
 11
23.46541343153902
 21
30.96304382849825
 31
0.0
  0
LINE
  5
79
330
2
100
AcDbEntity
  8
GAIKEI
  6
HIDDEN2
 62
     1
100
AcDbLine
 10
23.51803059044269
 20
30.81304382849827
 30
0.0
 11
23.70988971468503
 21
30.81304382849827
 31
0.0
  0
LINE
  5
7A
330
2
100
AcDbEntity
  8
GAIKEI
 62
     7
100
AcDbLine
 10
21.2122089176373
 20
37.18873269245482
 30
0.0
 11
22.00913042923591
 21
37.18873269245482
 31
0.0
  0
LINE
  5
7B
330
2
100
AcDbEntity
  8
GAIKEI
  6
HIDDEN2
 62
     1
 48
0.5
100
AcDbLine
 10
21.2122089176373
 20
34.45694413829715
 30
0.0
 11
22.00913042923591
 21
34.45694413829715
 31
0.0
  0
LINE
  5
7C
330
2
100
AcDbEntity
  8
GAIKEI
 62
     7
100
AcDbLine
 10
20.94658686259069
 20
36.26304382849826
 30
0.0
 11
22.2747524842824
 21
36.26304382849826
 31
0.0
  0
LINE
  5
7D
330
2
100
AcDbEntity
  8
GAIKEI
  6
HIDDEN2
 62
     1
 48
0.5
100
AcDbLine
 10
21.2122089176373
 20
33.08012270700168
 30
0.0
 11
22.00913042923591
 21
33.08012270700168
 31
0.0
  0
LINE
  5
7E
330
2
100
AcDbEntity
  8
GAIKEI
  6
HIDDEN2
 62
     1
 48
0.5
100
AcDbLine
 10
20.94658686259069
 20
35.02515615756191
 30
0.0
 11
22.2747524842824
 21
35.02515615756191
 31
0.0
  0
LINE
  5
7F
330
2
100
AcDbEntity
  8
GAIKEI
  6
DASHED
 62
     1
100
AcDbLine
 10
21.2122089176373
 20
37.18873269245482
 30
0.0
 11
21.21220891763731
 21
36.26304382849827
 31
0.0
  0
LINE
  5
80
330
2
100
AcDbEntity
  8
GAIKEI
  6
HIDDEN2
 62
     1
 48
0.5
100
AcDbLine
 10
21.2122089176373
 20
34.45694413829715
 30
0.0
 11
21.2122089176373
 21
33.08012270700162
 31
0.0
  0
LINE
  5
81
330
2
100
AcDbEntity
  8
GAIKEI
  6
HIDDEN2
 62
     1
 48
0.5
100
AcDbLine
 10
20.94658686259069
 20
36.06304382849827
 30
0.0
 11
20.94658686259069
 21
34.45694413829715
 31
0.0
  0
LINE
  5
82
330
2
100
AcDbEntity
  8
GAIKEI
  6
HIDDEN2
 62
     1
 48
0.5
100
AcDbLine
 10
20.94658686259069
 20
34.45694413829715
 30
0.0
 11
21.2122089176373
 21
34.45694413829715
 31
0.0
  0
LINE
  5
83
330
2
100
AcDbEntity
  8
GAIKEI
 62
     7
100
AcDbLine
 10
20.94658686259069
 20
37.18873269245482
 30
0.0
 11
21.2122089176373
 21
37.18873269245482
 31
0.0
  0
LINE
  5
84
330
2
100
AcDbEntity
  8
GAIKEI
 62
     7
100
AcDbLine
 10
20.94658686259069
 20
37.18873269245482
 30
0.0
 11
20.94658686259069
 21
36.26304382849826
 31
0.0
  0
LINE
  5
85
330
2
100
AcDbEntity
  8
GAIKEI
 62
     1
100
AcDbLine
 10
19.13566967343662
 20
32.46304382849825
 30
0.0
 11
19.13566967343662
 21
33.22111771030329
 31
0.0
  0
LINE
  5
86
330
2
100
AcDbEntity
  8
GAIKEI
 62
     1
100
AcDbLine
 10
19.48566967343665
 20
32.46304382849825
 30
0.0
 11
19.48566967343665
 21
33.22111771030329
 31
0.0
  0
LINE
  5
87
330
2
100
AcDbEntity
  8
GAIKEI
  6
HIDDEN2
 62
     1
100
AcDbLine
 10
19.10988971468522
 20
30.81304382849827
 30
0.0
 11
19.51144963218805
 21
30.81304382849827
 31
0.0
  0
LINE
  5
88
330
2
100
AcDbEntity
  8
GAIKEI
  6
HIDDEN2
 62
     1
100
AcDbLine
 10
19.10988971468511
 20
30.81304382849827
 30
0.0
 11
18.91803059044265
 21
30.81304382849827
 31
0.0
  0
ARC
  5
89
330
2
100
AcDbEntity
  8
GAIKEI
  6
HIDDEN2
 62
     1
100
AcDbCircle
 10
19.31066967343669
 20
30.82329857861104
 30
0.0
 40
0.2010416666666617
100
AcDbArc
 50
182.9238167157427
 51
357.0761832842573
  0
LINE
  5
8A
330
2
100
AcDbEntity
  8
GAIKEI
  6
S10
 62
     1
100
AcDbLine
 10
18.58566967343661
 20
36.06304382849827
 30
0.0
 11
24.63566967343665
 21
36.06304382849827
 31
0.0
  0
LINE
  5
8C
330
2
100
AcDbEntity
  8
GAIKEI
 62
     7
100
AcDbLine
 10
18.58566967343662
 20
36.26304382849826
 30
0.0
 11
20.94658686259069
 21
36.26304382849826
 31
0.0
  0
LINE
  5
8D
330
2
100
AcDbEntity
  8
GAIKEI
  6
DASHED
 62
     1
100
AcDbLine
 10
19.13566967343662
 20
30.81304382849827
 30
0.0
 11
19.13566967343662
 21
32.46304382849825
 31
0.0
  0
LINE
  5
8E
330
2
100
AcDbEntity
  8
GAIKEI
  6
DASHED
 62
     1
100
AcDbLine
 10
19.48566967343665
 20
30.81304382849827
 30
0.0
 11
19.48566967343665
 21
32.46304382849825
 31
0.0
  0
LINE
  5
8F
330
2
100
AcDbEntity
  8
GAIKEI
 62
     1
100
AcDbLine
 10
19.13566967343662
 20
33.22111771030329
 30
0.0
 11
19.48566967343665
 21
33.22111771030329
 31
0.0
  0
LINE
  5
90
330
2
100
AcDbEntity
  8
GAIKEI
  6
DASHED
 62
     1
100
AcDbLine
 10
18.6106696734366
 20
30.96304382849823
 30
0.0
 11
18.6106696734366
 21
32.26304382849827
 31
0.0
  0
LINE
  5
91
330
2
100
AcDbEntity
  8
GAIKEI
  6
HIDDEN2
 62
     1
100
AcDbLine
 10
19.7033087564305
 20
30.81304382849827
 30
0.0
 11
19.51144963218805
 21
30.81304382849827
 31
0.0
  0
LINE
  5
92
330
2
100
AcDbEntity
  8
GAIKEI
  6
HIDDEN2
 62
     1
100
AcDbLine
 10
20.13092591533429
 20
30.66304382849823
 30
0.0
 11
19.75592591533429
 21
30.96304382849825
 31
0.0
  0
LINE
  5
93
330
2
100
AcDbEntity
  8
GAIKEI
  6
HIDDEN2
 62
     1
100
AcDbLine
 10
20.0783087564305
 20
30.51304382849826
 30
0.0
 11
19.7033087564305
 21
30.81304382849827
 31
0.0
  0
LINE
  5
94
330
2
100
AcDbEntity
  8
GAIKEI
 62
     7
100
AcDbLine
 10
22.00913042923591
 20
37.18873269245482
 30
0.0
 11
22.2747524842824
 21
37.18873269245482
 31
0.0
  0
LINE
  5
95
330
2
100
AcDbEntity
  8
GAIKEI
  6
HIDDEN2
 62
     1
 48
0.5
100
AcDbLine
 10
22.00913042923591
 20
34.45694413829715
 30
0.0
 11
22.2747524842824
 21
34.45694413829715
 31
0.0
  0
LINE
  5
96
330
2
100
AcDbEntity
  8
GAIKEI
  6
DASHED
 62
     1
100
AcDbLine
 10
22.00913042923591
 20
37.18873269245482
 30
0.0
 11
22.00913042923589
 21
36.26304382849824
 31
0.0
  0
LINE
  5
97
330
2
100
AcDbEntity
  8
GAIKEI
  6
HIDDEN2
 62
     1
 48
0.5
100
AcDbLine
 10
22.00913042923591
 20
34.45694413829715
 30
0.0
 11
22.00913042923591
 21
33.08012270700168
 31
0.0
  0
LINE
  5
98
330
2
100
AcDbEntity
  8
GAIKEI
  6
HIDDEN2
 62
     1
 48
0.5
100
AcDbLine
 10
22.2747524842824
 20
36.06304382849827
 30
0.0
 11
22.2747524842824
 21
34.45694413829715
 31
0.0
  0
LINE
  5
99
330
2
100
AcDbEntity
  8
GAIKEI
 62
     7
100
AcDbLine
 10
22.2747524842824
 20
37.18873269245482
 30
0.0
 11
22.2747524842824
 21
36.26304382849826
 31
0.0
  0
LINE
  5
9A
330
2
100
AcDbEntity
  8
GAIKEI
  6
HIDDEN2
 62
     1
100
AcDbLine
 10
20.13092591533429
 20
30.66304382849823
 30
0.0
 11
23.09041343153902
 21
30.66304382849823
 31
0.0
  0
LINE
  5
9B
330
2
100
AcDbEntity
  8
GAIKEI
  6
HIDDEN2
 62
     1
100
AcDbLine
 10
20.0783087564305
 20
30.51304382849826
 30
0.0
 11
23.14303059044269
 21
30.51304382849826
 31
0.0
  0
LINE
  5
9C
330
2
100
AcDbEntity
  8
GAIKEI
 62
     7
100
AcDbLine
 10
22.2747524842824
 20
36.26304382849826
 30
0.0
 11
24.63566967343664
 21
36.26304382849826
 31
0.0
  0
LINE
  5
9D
330
2
100
AcDbEntity
  8
GAIKEI
 62
     7
100
AcDbLine
 10
18.58566967343662
 20
32.26304382849825
 30
0.0
 11
18.58566967343662
 21
36.26304382849826
 31
0.0
  0
LINE
  5
9E
330
2
100
AcDbEntity
  8
GAIKEI
  6
DASHED
 62
     1
100
AcDbLine
 10
16.21229048859479
 20
32.26304382849825
 30
0.0
 11
15.23552517996299
 21
30.96304382849825
 31
0.0
  0
LINE
  5
9F
330
2
100
AcDbEntity
  8
GAIKEI
  6
HIDDEN2
 62
     1
100
AcDbLine
 10
17.29729460394762
 20
30.66304382849823
 30
0.0
 11
18.49041343153898
 21
30.66304382849823
 31
0.0
  0
LINE
  5
A0
330
2
100
AcDbEntity
  8
GAIKEI
  6
HIDDEN2
 62
     1
100
AcDbLine
 10
17.29729460394762
 20
30.51304382849826
 30
0.0
 11
18.54303059044265
 21
30.51304382849826
 31
0.0
  0
LINE
  5
A1
330
2
100
AcDbEntity
  8
GAIKEI
  6
HIDDEN2
 62
     1
100
AcDbLine
 10
18.54303059044265
 20
30.51304382849826
 30
0.0
 11
18.91803059044265
 21
30.81304382849827
 31
0.0
  0
LINE
  5
A2
330
2
100
AcDbEntity
  8
GAIKEI
  6
HIDDEN2
 62
     1
100
AcDbLine
 10
18.49041343153898
 20
30.66304382849823
 30
0.0
 11
18.86541343153887
 21
30.96304382849825
 31
0.0
  0
LINE
  5
A3
330
2
100
AcDbEntity
  8
GAIKEI
  6
HIDDEN2
 62
     1
100
AcDbLine
 10
17.29729460394762
 20
30.66304382849823
 30
0.0
 11
17.29729460394763
 21
30.51304382849826
 31
0.0
  0
LINE
  5
A4
330
2
100
AcDbEntity
  8
GAIKEI
  6
HIDDEN2
 62
     1
100
AcDbLine
 10
-34.95818297738117
 20
30.66304382849825
 30
0.0
 11
-34.95818297738116
 21
30.51304382849827
 31
0.0
  0
LINE
  5
A5
330
2
100
AcDbEntity
  8
GAIKEI
  6
DASHED
 62
     1
100
AcDbLine
 10
-18.65818297738121
 20
30.96304382849826
 30
0.0
 11
-24.95818297738117
 21
30.96304382849825
 31
0.0
  0
LINE
  5
A6
330
2
100
AcDbEntity
  8
GAIKEI
  6
DASHED
 62
     1
100
AcDbLine
 10
-13.23228015731126
 20
32.26304382849827
 30
0.0
 11
-24.95818297738117
 21
32.26304382849827
 31
0.0
  0
LINE
  5
A7
330
2
100
AcDbEntity
  8
GAIKEI
  6
HIDDEN2
 62
     1
100
AcDbLine
 10
-32.95343921927883
 20
30.66304382849825
 30
0.0
 11
-32.57843921927894
 21
30.96304382849826
 31
0.0
  0
LINE
  5
A8
330
2
100
AcDbEntity
  8
GAIKEI
  6
HIDDEN2
 62
     1
100
AcDbLine
 10
-32.90082206037516
 20
30.51304382849827
 30
0.0
 11
-32.52582206037516
 21
30.81304382849828
 31
0.0
  0
LINE
  5
A9
330
2
100
AcDbEntity
  8
GAIKEI
  6
Continuous
 62
     7
100
AcDbLine
 10
-31.30818297738119
 20
32.46304382849826
 30
0.0
 11
-32.85818297738126
 21
32.46304382849826
 31
0.0
  0
LINE
  5
AA
330
2
100
AcDbEntity
  8
GAIKEI
  6
DASHED
 62
     1
100
AcDbLine
 10
-30.95818297738116
 20
30.96304382849825
 30
0.0
 11
-37.25818297738113
 21
30.96304382849826
 31
0.0
  0
LINE
  5
AB
330
2
100
AcDbEntity
  8
GAIKEI
  6
DASHED
 62
     1
100
AcDbLine
 10
-37.45818297738117
 20
30.96304382849826
 30
0.0
 11
-43.50593652791997
 21
30.96304382849826
 31
0.0
  0
LINE
  5
AC
330
2
100
AcDbEntity
  8
GAIKEI
  6
DASHED
 62
     1
100
AcDbLine
 10
-30.95818297738116
 20
32.26304382849829
 30
0.0
 11
-43.50593652791997
 21
32.26304382849827
 31
0.0
  0
LINE
  5
AD
330
2
100
AcDbEntity
  8
GAIKEI
  6
DASHED
 62
     1
100
AcDbLine
 10
-39.5581105060993
 20
32.26304382849827
 30
0.0
 11
-40.53487581473109
 21
30.96304382849826
 31
0.0
  0
LINE
  5
AE
330
2
100
AcDbEntity
  8
GAIKEI
  6
HIDDEN2
 62
     1
100
AcDbLine
 10
-34.80818297738119
 20
30.66304382849825
 30
0.0
 11
-34.80818297738119
 21
30.81304382849828
 31
0.0
  0
LINE
  5
AF
330
2
100
AcDbEntity
  8
GAIKEI
  6
HIDDEN2
 62
     1
100
AcDbLine
 10
-34.60818297738125
 20
30.66304382849825
 30
0.0
 11
-34.60818297738125
 21
30.81304382849828
 31
0.0
  0
LINE
  5
B0
330
2
100
AcDbEntity
  8
GAIKEI
  6
HIDDEN2
 62
     1
100
AcDbLine
 10
-34.95818297738117
 20
30.51304382849827
 30
0.0
 11
-32.90082206037516
 21
30.51304382849827
 31
0.0
  0
LINE
  5
B1
330
2
100
AcDbEntity
  8
GAIKEI
  6
HIDDEN2
 62
     1
100
AcDbLine
 10
-34.95818297738117
 20
30.66304382849825
 30
0.0
 11
-34.80818297738119
 21
30.66304382849825
 31
0.0
  0
LINE
  5
B2
330
2
100
AcDbEntity
  8
GAIKEI
  6
HIDDEN2
 62
     1
100
AcDbLine
 10
-34.60818297738125
 20
30.81304382849828
 30
0.0
 11
-34.80818297738119
 21
30.81304382849828
 31
0.0
  0
LINE
  5
B3
330
2
100
AcDbEntity
  8
GAIKEI
  6
HIDDEN2
 62
     1
100
AcDbLine
 10
-34.60818297738125
 20
30.66304382849825
 30
0.0
 11
-32.95343921927883
 21
30.66304382849825
 31
0.0
  0
LINE
  5
B4
330
2
100
AcDbEntity
  8
GAIKEI
  6
DASHED
 62
     1
100
AcDbLine
 10
-33.35656216222298
 20
32.26304382849827
 30
0.0
 11
-34.33332747085478
 21
30.96304382849826
 31
0.0
  0
LINE
  5
B5
330
2
100
AcDbEntity
  8
GAIKEI
 62
     7
100
AcDbLine
 10
-32.85818297738126
 20
32.26304382849827
 30
0.0
 11
-32.85818297738126
 21
32.46304382849826
 31
0.0
  0
LINE
  5
B6
330
2
100
AcDbEntity
  8
GAIKEI
  6
DASHED
 62
     1
100
AcDbLine
 10
-37.64490545665558
 20
32.26304382849827
 30
0.0
 11
-38.62167076528738
 21
30.96304382849826
 31
0.0
  0
LINE
  5
B7
330
2
100
AcDbEntity
  8
GAIKEI
  6
DASHED
 62
     1
100
AcDbLine
 10
-35.35656216222298
 20
32.26304382849827
 30
0.0
 11
-36.33332747085478
 21
30.96304382849826
 31
0.0
  0
LINE
  5
B8
330
2
100
AcDbEntity
  8
GAIKEI
 62
     7
100
AcDbLine
 10
-27.55972222158186
 20
40.17040141081918
 30
0.0
 11
-27.55972222158186
 21
37.18873269245484
 31
0.0
  0
LINE
  5
B9
330
2
100
AcDbEntity
  8
GAIKEI
 62
     7
100
AcDbLine
 10
-28.35664373318047
 20
40.17040141081923
 30
0.0
 11
-28.35664373318047
 21
37.18873269245484
 31
0.0
  0
LINE
  5
BA
330
2
100
AcDbEntity
  8
GAIKEI
 62
     7
100
AcDbLine
 10
-27.29410016653537
 20
36.26304382849827
 30
0.0
 11
-26.10818297738126
 21
36.26304382849827
 31
0.0
  0
LINE
  5
BB
330
2
100
AcDbEntity
  8
GAIKEI
 62
     7
100
AcDbLine
 10
-27.29410016653537
 20
36.06304382849828
 30
0.0
 11
-26.24425348491615
 21
36.06304382849823
 31
0.0
  0
LINE
  5
BC
330
2
100
AcDbEntity
  8
GAIKEI
  6
HIDDEN2
 62
     1
100
AcDbLine
 10
-31.36554389438731
 20
30.51304382849827
 30
0.0
 11
-24.55082206037513
 21
30.51304382849827
 31
0.0
  0
LINE
  5
BD
330
2
100
AcDbEntity
  8
GAIKEI
  6
HIDDEN2
 62
     1
100
AcDbLine
 10
-31.31292673548352
 20
30.66304382849825
 30
0.0
 11
-24.60343921927881
 21
30.66304382849825
 31
0.0
  0
LINE
  5
BE
330
2
100
AcDbEntity
  8
GAIKEI
 62
     7
100
AcDbLine
 10
-27.29410016653537
 20
37.18873269245484
 30
0.0
 11
-27.29410016653537
 21
36.26304382849827
 31
0.0
  0
LINE
  5
BF
330
2
100
AcDbEntity
  8
GAIKEI
 62
     7
100
AcDbLine
 10
-27.29410016653537
 20
36.06304382849828
 30
0.0
 11
-27.29410016653537
 21
34.45694413829716
 31
0.0
  0
LINE
  5
C0
330
2
100
AcDbEntity
  8
GAIKEI
 62
     7
100
AcDbLine
 10
-27.55972222158186
 20
34.45694413829716
 30
0.0
 11
-27.55972222158186
 21
33.0801227070017
 31
0.0
  0
LINE
  5
C1
330
2
100
AcDbEntity
  8
GAIKEI
  6
DASHED
 62
     7
100
AcDbLine
 10
-27.55972222158186
 20
37.18873269245484
 30
0.0
 11
-27.55972222158186
 21
34.45694413829716
 31
0.0
  0
LINE
  5
C2
330
2
100
AcDbEntity
  8
GAIKEI
 62
     7
100
AcDbLine
 10
-27.55972222158186
 20
34.45694413829716
 30
0.0
 11
-27.29410016653537
 21
34.45694413829716
 31
0.0
  0
LINE
  5
C3
330
2
100
AcDbEntity
  8
GAIKEI
 62
     7
100
AcDbLine
 10
-27.55972222158186
 20
37.18873269245484
 30
0.0
 11
-27.29410016653537
 21
37.18873269245484
 31
0.0
  0
LINE
  5
C4
330
2
100
AcDbEntity
  8
GAIKEI
  6
HIDDEN2
 62
     1
100
AcDbLine
 10
-31.36554389438731
 20
30.51304382849827
 30
0.0
 11
-31.74054389438731
 21
30.81304382849828
 31
0.0
  0
LINE
  5
C5
330
2
100
AcDbEntity
  8
GAIKEI
  6
HIDDEN2
 62
     1
100
AcDbLine
 10
-31.31292673548352
 20
30.66304382849825
 30
0.0
 11
-31.68792673548352
 21
30.96304382849826
 31
0.0
  0
LINE
  5
C6
330
2
100
AcDbEntity
  8
GAIKEI
  6
HIDDEN2
 62
     1
100
AcDbLine
 10
-31.74054389438731
 20
30.81304382849828
 30
0.0
 11
-31.93240301862977
 21
30.81304382849828
 31
0.0
  0
LINE
  5
C7
330
2
100
AcDbEntity
  8
GAIKEI
  6
DASHED
 62
     1
100
AcDbLine
 10
-30.95818297738116
 20
30.96304382849825
 30
0.0
 11
-30.95818297738116
 21
32.26304382849829
 31
0.0
  0
LINE
  5
C8
330
2
100
AcDbEntity
  8
GAIKEI
 62
     1
100
AcDbLine
 10
-32.30818297738119
 20
33.22111771030331
 30
0.0
 11
-31.95818297738116
 21
33.22111771030331
 31
0.0
  0
LINE
  5
C9
330
2
100
AcDbEntity
  8
GAIKEI
  6
DASHED
 62
     1
100
AcDbLine
 10
-31.95818297738116
 20
30.81304382849828
 30
0.0
 11
-31.95818297738116
 21
32.46304382849826
 31
0.0
  0
LINE
  5
CA
330
2
100
AcDbEntity
  8
GAIKEI
  6
DASHED
 62
     1
100
AcDbLine
 10
-32.30818297738119
 20
30.81304382849828
 30
0.0
 11
-32.30818297738119
 21
32.46304382849826
 31
0.0
  0
LINE
  5
CB
330
2
100
AcDbEntity
  8
GAIKEI
 62
     7
100
AcDbLine
 10
-29.80818297738119
 20
36.26304382849827
 30
0.0
 11
-28.62226578822708
 21
36.26304382849827
 31
0.0
  0
LINE
  5
CC
330
2
100
AcDbEntity
  8
GAIKEI
 62
     7
100
AcDbLine
 10
-29.67211246984629
 20
36.06304382849828
 30
0.0
 11
-28.62226578822708
 21
36.06304382849828
 31
0.0
  0
LINE
  5
CD
330
2
100
AcDbEntity
  8
GAIKEI
 62
     7
100
AcDbLine
 10
-29.80818297738119
 20
36.26304382849827
 30
0.0
 11
-31.30818297738119
 21
32.46304382849826
 31
0.0
  0
LINE
  5
CE
330
2
100
AcDbEntity
  8
GAIKEI
 62
     7
100
AcDbLine
 10
-29.67211246984629
 20
36.06304382849828
 30
0.0
 11
-31.17211246984629
 21
32.26304382849827
 31
0.0
  0
ARC
  5
CF
330
2
100
AcDbEntity
  8
GAIKEI
  6
HIDDEN2
 62
     1
100
AcDbCircle
 10
-32.13318297738112
 20
30.82329857861106
 30
0.0
 40
0.2010416666666617
100
AcDbArc
 50
182.9238167157427
 51
357.0761832842573
  0
LINE
  5
D0
330
2
100
AcDbEntity
  8
GAIKEI
  6
HIDDEN2
 62
     1
100
AcDbLine
 10
-32.3339629361327
 20
30.81304382849828
 30
0.0
 11
-32.52582206037516
 21
30.81304382849828
 31
0.0
  0
LINE
  5
D1
330
2
100
AcDbEntity
  8
GAIKEI
  6
HIDDEN2
 62
     1
100
AcDbLine
 10
-32.33396293613259
 20
30.81304382849828
 30
0.0
 11
-31.93240301862977
 21
30.81304382849828
 31
0.0
  0
LINE
  5
D2
330
2
100
AcDbEntity
  8
GAIKEI
 62
     1
100
AcDbLine
 10
-31.95818297738116
 20
32.46304382849826
 30
0.0
 11
-31.95818297738116
 21
33.22111771030331
 31
0.0
  0
LINE
  5
D3
330
2
100
AcDbEntity
  8
GAIKEI
 62
     1
100
AcDbLine
 10
-32.30818297738119
 20
32.46304382849826
 30
0.0
 11
-32.30818297738119
 21
33.22111771030331
 31
0.0
  0
LINE
  5
D4
330
2
100
AcDbEntity
  8
GAIKEI
 62
     7
100
AcDbLine
 10
-28.62226578822708
 20
37.18873269245484
 30
0.0
 11
-28.62226578822708
 21
36.26304382849827
 31
0.0
  0
LINE
  5
D5
330
2
100
AcDbEntity
  8
GAIKEI
 62
     7
100
AcDbLine
 10
-28.62226578822708
 20
37.18873269245484
 30
0.0
 11
-28.35664373318047
 21
37.18873269245484
 31
0.0
  0
LINE
  5
D6
330
2
100
AcDbEntity
  8
GAIKEI
 62
     7
100
AcDbLine
 10
-28.62226578822708
 20
34.45694413829716
 30
0.0
 11
-28.35664373318047
 21
34.45694413829716
 31
0.0
  0
LINE
  5
D7
330
2
100
AcDbEntity
  8
GAIKEI
 62
     7
100
AcDbLine
 10
-28.62226578822708
 20
36.06304382849828
 30
0.0
 11
-28.62226578822708
 21
34.45694413829716
 31
0.0
  0
LINE
  5
D8
330
2
100
AcDbEntity
  8
GAIKEI
 62
     7
100
AcDbLine
 10
-28.35664373318047
 20
34.45694413829716
 30
0.0
 11
-28.35664373318047
 21
33.08012270700164
 31
0.0
  0
LINE
  5
D9
330
2
100
AcDbEntity
  8
GAIKEI
  6
DASHED
 62
     7
100
AcDbLine
 10
-28.35664373318047
 20
37.18873269245484
 30
0.0
 11
-28.35664373318047
 21
34.45694413829716
 31
0.0
  0
LINE
  5
DA
330
2
100
AcDbEntity
  8
GAIKEI
 62
     7
100
AcDbLine
 10
-28.62226578822708
 20
35.02515615756192
 30
0.0
 11
-27.29410016653537
 21
35.02515615756192
 31
0.0
  0
LINE
  5
DB
330
2
100
AcDbEntity
  8
GAIKEI
 62
     7
100
AcDbLine
 10
-28.35664373318047
 20
33.0801227070017
 30
0.0
 11
-27.55972222158186
 21
33.0801227070017
 31
0.0
  0
LINE
  5
DC
330
2
100
AcDbEntity
  8
GAIKEI
 62
     7
100
AcDbLine
 10
-28.62226578822708
 20
36.26304382849827
 30
0.0
 11
-27.29410016653537
 21
36.26304382849827
 31
0.0
  0
LINE
  5
DD
330
2
100
AcDbEntity
  8
GAIKEI
 62
     7
100
AcDbLine
 10
-28.62226578822708
 20
36.06304382849823
 30
0.0
 11
-27.29410016653537
 21
36.06304382849828
 31
0.0
  0
LINE
  5
DE
330
2
100
AcDbEntity
  8
GAIKEI
 62
     7
100
AcDbLine
 10
-28.35664373318047
 20
34.45694413829716
 30
0.0
 11
-27.55972222158186
 21
34.45694413829716
 31
0.0
  0
LINE
  5
DF
330
2
100
AcDbEntity
  8
GAIKEI
 62
     7
100
AcDbLine
 10
-28.35664373318047
 20
37.18873269245484
 30
0.0
 11
-27.55972222158186
 21
37.18873269245484
 31
0.0
  0
LINE
  5
E0
330
2
100
AcDbEntity
  8
GAIKEI
  6
HIDDEN2
 62
     1
100
AcDbLine
 10
-24.17582206037514
 20
30.81304382849828
 30
0.0
 11
-23.98396293613279
 21
30.81304382849828
 31
0.0
  0
LINE
  5
E1
330
2
100
AcDbEntity
  8
GAIKEI
  6
HIDDEN2
 62
     1
100
AcDbLine
 10
-24.60343921927881
 20
30.66304382849825
 30
0.0
 11
-24.22843921927881
 21
30.96304382849826
 31
0.0
  0
LINE
  5
E2
330
2
100
AcDbEntity
  8
GAIKEI
  6
HIDDEN2
 62
     1
100
AcDbLine
 10
-24.55082206037502
 20
30.51304382849827
 30
0.0
 11
-24.17582206037514
 21
30.81304382849828
 31
0.0
  0
LINE
  5
E3
330
2
100
AcDbEntity
  8
GAIKEI
  6
HIDDEN2
 62
     1
100
AcDbLine
 10
-23.01554389438729
 20
30.51304382849827
 30
0.0
 11
-23.39054389438717
 21
30.81304382849828
 31
0.0
  0
LINE
  5
E4
330
2
100
AcDbEntity
  8
GAIKEI
  6
HIDDEN2
 62
     1
100
AcDbLine
 10
-22.96292673548361
 20
30.66304382849825
 30
0.0
 11
-23.33792673548361
 21
30.96304382849826
 31
0.0
  0
LINE
  5
E5
330
2
100
AcDbEntity
  8
GAIKEI
  6
HIDDEN2
 62
     1
100
AcDbLine
 10
-22.96292673548361
 20
30.66304382849825
 30
0.0
 11
-21.75818297738112
 21
30.66304382849825
 31
0.0
  0
LINE
  5
E6
330
2
100
AcDbEntity
  8
GAIKEI
  6
HIDDEN2
 62
     1
100
AcDbLine
 10
-23.01554389438729
 20
30.51304382849827
 30
0.0
 11
-21.75818297738112
 21
30.51304382849827
 31
0.0
  0
LINE
  5
E7
330
2
100
AcDbEntity
  8
GAIKEI
  6
HIDDEN2
 62
     1
100
AcDbLine
 10
-21.75818297738112
 20
30.66304382849825
 30
0.0
 11
-21.75818297738112
 21
30.51304382849827
 31
0.0
  0
LINE
  5
E8
330
2
100
AcDbEntity
  8
GAIKEI
  6
DASHED
 62
     1
100
AcDbLine
 10
-21.35656216222299
 20
32.26304382849827
 30
0.0
 11
-22.33332747085478
 21
30.96304382849826
 31
0.0
  0
LINE
  5
E9
330
2
100
AcDbEntity
  8
GAIKEI
  6
DASHED
 62
     1
100
AcDbLine
 10
-24.95818297738117
 20
30.96304382849825
 30
0.0
 11
-24.95818297738117
 21
32.26304382849827
 31
0.0
  0
LINE
  5
EA
330
2
100
AcDbEntity
  8
GAIKEI
 62
     7
100
AcDbLine
 10
-23.05818297738118
 20
32.26304382849827
 30
0.0
 11
-23.05818297738118
 21
32.46304382849826
 31
0.0
  0
LINE
  5
EB
330
2
100
AcDbEntity
  8
GAIKEI
  6
DASHED
 62
     1
100
AcDbLine
 10
-23.60818297738125
 20
30.81304382849828
 30
0.0
 11
-23.60818297738125
 21
32.46304382849826
 31
0.0
  0
LINE
  5
EC
330
2
100
AcDbEntity
  8
GAIKEI
  6
DASHED
 62
     1
100
AcDbLine
 10
-23.95818297738117
 20
30.81304382849828
 30
0.0
 11
-23.95818297738117
 21
32.46304382849826
 31
0.0
  0
LINE
  5
ED
330
2
100
AcDbEntity
  8
GAIKEI
 62
     1
100
AcDbLine
 10
-23.95818297738117
 20
33.22111771030331
 30
0.0
 11
-23.60818297738125
 21
33.22111771030331
 31
0.0
  0
LINE
  5
EE
330
2
100
AcDbEntity
  8
GAIKEI
  6
Continuous
 62
     7
100
AcDbLine
 10
-23.05818297738118
 20
32.46304382849826
 30
0.0
 11
-24.60818297738125
 21
32.46304382849826
 31
0.0
  0
LINE
  5
EF
330
2
100
AcDbEntity
  8
GAIKEI
 62
     7
100
AcDbLine
 10
-26.10818297738126
 20
36.26304382849827
 30
0.0
 11
-24.60818297738125
 21
32.46304382849826
 31
0.0
  0
LINE
  5
F0
330
2
100
AcDbEntity
  8
GAIKEI
 62
     7
100
AcDbLine
 10
-26.24425348491615
 20
36.06304382849828
 30
0.0
 11
-24.74425348491615
 21
32.26304382849827
 31
0.0
  0
ARC
  5
F1
330
2
100
AcDbEntity
  8
GAIKEI
  6
HIDDEN2
 62
     1
100
AcDbCircle
 10
-23.78318297738121
 20
30.82329857861106
 30
0.0
 40
0.2010416666666617
100
AcDbArc
 50
182.9238167157427
 51
357.0761832842573
  0
LINE
  5
F2
330
2
100
AcDbEntity
  8
GAIKEI
  6
HIDDEN2
 62
     1
100
AcDbLine
 10
-23.58240301862963
 20
30.81304382849828
 30
0.0
 11
-23.39054389438717
 21
30.81304382849828
 31
0.0
  0
LINE
  5
F3
330
2
100
AcDbEntity
  8
GAIKEI
  6
HIDDEN2
 62
     1
100
AcDbLine
 10
-23.98396293613279
 20
30.81304382849828
 30
0.0
 11
-23.58240301862963
 21
30.81304382849828
 31
0.0
  0
LINE
  5
F4
330
2
100
AcDbEntity
  8
GAIKEI
 62
     1
100
AcDbLine
 10
-23.95818297738117
 20
32.46304382849826
 30
0.0
 11
-23.95818297738117
 21
33.22111771030331
 31
0.0
  0
LINE
  5
F5
330
2
100
AcDbEntity
  8
GAIKEI
 62
     1
100
AcDbLine
 10
-23.60818297738125
 20
32.46304382849826
 30
0.0
 11
-23.60818297738125
 21
33.22111771030331
 31
0.0
  0
LINE
  5
F6
330
2
100
AcDbEntity
  8
GAIKEI
  6
DASHED
 62
     1
100
AcDbLine
 10
-13.23228015731126
 20
30.96304382849826
 30
0.0
 11
-18.45818297738117
 21
30.96304382849826
 31
0.0
  0
LINE
  5
F7
330
2
100
AcDbEntity
  8
GAIKEI
  6
DASHED
 62
     1
100
AcDbLine
 10
-17.35656216222298
 20
32.26304382849827
 30
0.0
 11
-18.33332747085478
 21
30.96304382849826
 31
0.0
  0
LINE
  5
F8
330
2
100
AcDbEntity
  8
GAIKEI
  6
DASHED
 62
     1
100
AcDbLine
 10
-15.35656216222298
 20
32.26304382849827
 30
0.0
 11
-16.33332747085478
 21
30.96304382849826
 31
0.0
  0
LINE
  5
F9
330
2
100
AcDbEntity
  8
GAIKEI
  6
DASHED
 62
     1
100
AcDbLine
 10
-19.6684400597727
 20
32.26304382849827
 30
0.0
 11
-20.64520536840451
 21
30.96304382849826
 31
0.0
  0
LINE
  5
FA
330
2
100
AcDbEntity
  8
WAKU
 62
     1
100
AcDbLine
 10
-65.96375952477728
 20
-8.328312493488652
 30
0.0
 11
59.03624047522277
 21
-8.328312493488652
 31
0.0
  0
LINE
  5
FC
330
2
100
AcDbEntity
  8
WAKU
 62
     1
100
AcDbLine
 10
-65.96375952477728
 20
-13.32831249348865
 30
0.0
 11
59.03624047522277
 21
-13.32831249348865
 31
0.0
  0
LINE
  5
FD
330
2
100
AcDbEntity
  8
WAKU
 62
     1
100
AcDbLine
 10
-65.96375952477728
 20
-23.32831249348865
 30
0.0
 11
59.03624047522277
 21
-23.32831249348865
 31
0.0
  0
LINE
  5
FE
330
2
100
AcDbEntity
  8
WAKU
 62
     1
100
AcDbLine
 10
-65.96375952477728
 20
-28.32831249348866
 30
0.0
 11
59.03624047522277
 21
-28.32831249348866
 31
0.0
  0
LINE
  5
FF
330
2
100
AcDbEntity
  8
WAKU
 62
     1
100
AcDbLine
 10
-65.96375952477728
 20
-33.32831249348866
 30
0.0
 11
59.03624047522277
 21
-33.32831249348866
 31
0.0
  0
LINE
  5
100
330
2
100
AcDbEntity
  8
WAKU
 62
     4
100
AcDbLine
 10
59.03624047522277
 20
-3.328312493488652
 30
0.0
 11
-65.96375952477728
 21
-3.328312493488652
 31
0.0
  0
LINE
  5
101
330
2
100
AcDbEntity
  8
WAKU
 62
     4
100
AcDbLine
 10
-65.96375952477728
 20
-53.32831249348865
 30
0.0
 11
59.03624047522277
 21
-53.32831249348865
 31
0.0
  0
LINE
  5
102
330
2
100
AcDbEntity
  8
WAKU
 62
     1
100
AcDbLine
 10
-65.96375952477728
 20
-18.32831249348865
 30
0.0
 11
59.03624047522277
 21
-18.32831249348865
 31
0.0
  0
TEXT
  5
103
330
2
100
AcDbEntity
  8
MOJI1
100
AcDbText
 10
-23.46375952477729
 20
-12.32831249348865
 30
0.0
 40
3.0
  1
１／４型インターライン転送方式ＣＣＤ
100
AcDbText
  0
TEXT
  5
104
330
2
100
AcDbEntity
  8
MOJI1
100
AcDbText
 10
-23.46375952477729
 20
-32.32831249348866
 30
0.0
 40
3.0
  1
３０倍
100
AcDbText
  0
LINE
  5
105
330
2
100
AcDbEntity
  8
WAKU
 62
     4
100
AcDbLine
 10
-65.96375952477728
 20
-3.328312493488652
 30
0.0
 11
-65.96375952477728
 21
-53.32831249348865
 31
0.0
  0
LINE
  5
106
330
2
100
AcDbEntity
  8
WAKU
 62
     4
100
AcDbLine
 10
-25.96375952477729
 20
-53.32831249348865
 30
0.0
 11
-25.96375952477729
 21
-3.328312493488652
 31
0.0
  0
TEXT
  5
107
330
2
100
AcDbEntity
  8
MOJI1
100
AcDbText
 10
-23.46375952477729
 20
-7.328312493488652
 30
0.0
 40
3.0
  1
ＡＣ１００Ｖ　５０／６０Ｈｚ　１５Ｗ
100
AcDbText
  0
TEXT
  5
108
330
2
100
AcDbEntity
  8
MOJI1
100
AcDbText
 10
-23.46375952477729
 20
-17.32831249348865
 30
0.0
 40
3.0
  1
０．５ルクス（カラー)　０．０４ルクス（白黒)
100
AcDbText
  0
TEXT
  5
109
330
2
100
AcDbEntity
  8
MOJI1
100
AcDbText
 10
-23.46375952477729
 20
-22.32831249348866
 30
0.0
 40
3.0
  1
５２ｄＢ／ｔｙｐ
100
AcDbText
  0
TEXT
  5
10A
330
2
100
AcDbEntity
  8
MOJI1
100
AcDbText
 10
-63.46375952477728
 20
-22.32831249348866
 30
0.0
 40
3.0
  1
ダイナミックレンジ
100
AcDbText
  0
TEXT
  5
10B
330
2
100
AcDbEntity
  8
MOJI1
100
AcDbText
 10
-63.46375952477728
 20
-17.32831249348865
 30
0.0
 40
3.0
  1
最低照度
100
AcDbText
  0
TEXT
  5
10C
330
2
100
AcDbEntity
  8
MOJI1
100
AcDbText
 10
-63.46375952477728
 20
-32.32831249348866
 30
0.0
 40
3.0
  1
ズーム比
100
AcDbText
  0
TEXT
  5
10D
330
2
100
AcDbEntity
  8
MOJI1
100
AcDbText
 10
-63.46375952477728
 20
-7.328312493488652
 30
0.0
 40
3.0
  1
電　源
100
AcDbText
  0
TEXT
  5
10E
330
2
100
AcDbEntity
  8
MOJI1
100
AcDbText
 10
-63.46375952477728
 20
-12.32831249348865
 30
0.0
 40
3.0
  1
撮像素子
100
AcDbText
  0
LINE
  5
10F
330
2
100
AcDbEntity
  8
WAKU
 62
     4
100
AcDbLine
 10
59.03624047522277
 20
-53.32831249348865
 30
0.0
 11
59.03624047522277
 21
-3.328312493488652
 31
0.0
  0
TEXT
  5
110
330
2
100
AcDbEntity
  8
MOJI1
100
AcDbText
 10
-63.46375952477728
 20
-37.32831249348866
 30
0.0
 40
3.0
  1
画　角
100
AcDbText
  0
LINE
  5
111
330
2
100
AcDbEntity
  8
WAKU
 62
     1
100
AcDbLine
 10
-65.96375952477728
 20
-38.32831249348866
 30
0.0
 11
59.03624047522277
 21
-38.32831249348866
 31
0.0
  0
TEXT
  5
112
330
2
100
AcDbEntity
  8
MOJI1
100
AcDbText
 10
-23.46375952477729
 20
-37.32831249348866
 30
0.0
 40
3.0
  1
水平：１．９° ～５２°垂直：１．４° ～４０°
100
AcDbText
  0
TEXT
  5
113
330
2
100
AcDbEntity
  8
MOJI1
100
AcDbText
 10
-23.46375952477729
 20
-42.32831249348865
 30
0.0
 40
3.0
  1
１０ＢＡＳＥ－Ｔ／１００ＢＡＳＥ－ＴＸ、ＲＪ４５コネクター
 41
0.75
100
AcDbText
  0
LINE
  5
114
330
2
100
AcDbEntity
  8
WAKU
 62
     1
100
AcDbLine
 10
-65.96375952477728
 20
-43.32831249348865
 30
0.0
 11
59.03624047522277
 21
-43.32831249348865
 31
0.0
  0
TEXT
  5
115
330
2
100
AcDbEntity
  8
MOJI1
100
AcDbText
 10
-63.46375952477728
 20
-42.32831249348865
 30
0.0
 40
3.0
  1
ネットワーク
100
AcDbText
  0
TEXT
  5
116
330
2
100
AcDbEntity
  8
MOJI1
100
AcDbText
 10
-63.46375952477728
 20
-47.32831249348865
 30
0.0
 40
3.0
  1
画像解像度
100
AcDbText
  0
LINE
  5
117
330
2
100
AcDbEntity
  8
WAKU
 62
     1
100
AcDbLine
 10
-65.96375952477728
 20
-48.32831249348865
 30
0.0
 11
59.03624047522277
 21
-48.32831249348865
 31
0.0
  0
TEXT
  5
118
330
2
100
AcDbEntity
  8
MOJI1
100
AcDbText
 10
-23.46375952477729
 20
-47.32831249348865
 30
0.0
 40
3.0
  1
ＶＧＡ（６４０×４８０)／ＱＶＧＡ（３２０×２４０）
 41
0.85
100
AcDbText
  0
TEXT
  5
119
330
2
100
AcDbEntity
  8
MOJI1
100
AcDbText
 10
-63.46375952477728
 20
-52.32831249348866
 30
0.0
 40
3.0
  1
画像圧縮方式
100
AcDbText
  0
TEXT
  5
11A
330
2
100
AcDbEntity
  8
MOJI1
100
AcDbText
 10
-23.46375952477729
 20
-52.32831249348866
 30
0.0
 40
3.0
  1
ＭＰＥＧ－４／ＪＰＥＧ   デュアルエンコーディング
 41
0.9
100
AcDbText
  0
TEXT
  5
11B
330
2
100
AcDbEntity
  8
MOJI1
100
AcDbText
 10
-63.46375952477728
 20
-27.32831249348866
 30
0.0
 40
3.0
  1
電子感度アップ
100
AcDbText
  0
TEXT
  5
11C
330
2
100
AcDbEntity
  8
MOJI1
100
AcDbText
 10
-23.46375952477729
 20
-27.32831249348866
 30
0.0
 40
3.0
  1
最大３２倍
100
AcDbText
  0
DIMENSION
  5
11D
330
2
100
AcDbEntity
  8
SUNPO
100
AcDbDimension
  2
*D6
 10
-10.42478520194217
 20
30.96304382849818
 30
0.0
 11
-12.17478520194217
 21
19.31340217898619
 31
0.0
 70
    33
  1
233
 71
     5
 42
23.29928329902395
  3
STANDARD
100
AcDbAlignedDimension
 13
-18.42478520194217
 23
7.663760529474217
 33
0.0
 14
-18.42478520194217
 24
30.96304382849818
 34
0.0
1001
ACAD
1000
DSTYLE
1002
{
1070
   287
1070
     3
1070
    40
1040
1.0
1070
   140
1040
2.5
1070
   147
1040
0.5
1070
   172
1070
     1
1070
   279
1070
     0
1002
}
  0
DIMENSION
  5
12A
330
2
100
AcDbEntity
  8
SUNPO
100
AcDbDimension
  2
*D5
 10
-20.23315856638615
 20
1.54372276044026
 30
0.0
 11
-10.39982523305282
 21
3.29372276044026
 31
0.0
 70
    33
  1
φ154.5
 71
     5
 42
15.45000000000004
  3
STANDARD
100
AcDbAlignedDimension
 13
-35.6831585663862
 23
9.54372276044026
 33
0.0
 14
-20.23315856638615
 24
9.54372276044026
 34
0.0
1001
ACAD
1000
DSTYLE
1002
{
1070
   287
1070
     3
1070
    40
1040
1.0
1070
   140
1040
2.5
1070
   147
1040
0.5
1070
   172
1070
     1
1070
   279
1070
     0
1002
}
  0
LINE
  5
138
330
2
100
AcDbEntity
  8
GAIKEI
  6
Continuous
100
AcDbLine
 10
12.11067254833557
 20
30.96304382849823
 30
0.0
 11
12.14908564971057
 21
29.86304035249825
 31
0.0
  0
LINE
  5
139
330
2
100
AcDbEntity
  8
GAIKEI
  6
Continuous
100
AcDbLine
 10
15.12950251931812
 20
29.38706620520466
 30
0.0
 11
15.3512972641173
 21
28.49102233854492
 31
0.0
  0
LINE
  5
13A
330
2
100
AcDbEntity
  8
GAIKEI
  6
Continuous
100
AcDbLine
 10
31.11066679853769
 20
30.96304382849823
 30
0.0
 11
12.11067254833557
 21
30.96304382849823
 31
0.0
  0
LINE
  5
13B
330
2
100
AcDbEntity
  8
GAIKEI
  6
Continuous
 62
     1
100
AcDbLine
 10
12.20083203332865
 20
29.80454436675151
 30
0.0
 11
31.02050731354462
 21
29.80454436675151
 31
0.0
  0
LINE
  5
13C
330
2
100
AcDbEntity
  8
GAIKEI
  6
Continuous
100
AcDbLine
 10
21.58566959443164
 20
29.46303908849822
 30
0.0
 11
14.21068851941504
 21
29.46303908849822
 31
0.0
  0
LINE
  5
13D
330
2
100
AcDbEntity
  8
GAIKEI
  6
Continuous
100
AcDbLine
 10
29.01065082744819
 20
29.46303908849822
 30
0.0
 11
21.63566975243162
 21
29.46303908849822
 31
0.0
  0
LINE
  5
13E
330
2
100
AcDbEntity
  8
GAIKEI
  6
Continuous
100
AcDbLine
 10
27.82978395969065
 20
28.45303589689823
 30
0.0
 11
15.39155538718256
 21
28.45303589689823
 31
0.0
  0
LINE
  5
13F
330
2
100
AcDbEntity
  8
GAIKEI
  6
Continuous
100
AcDbLine
 10
28.09183682755512
 20
29.38706620520466
 30
0.0
 11
27.87004208274593
 21
28.49102233854492
 31
0.0
  0
LINE
  5
140
330
2
100
AcDbEntity
  8
GAIKEI
  6
Continuous
100
AcDbLine
 10
31.07225369716264
 20
29.86304035249825
 30
0.0
 11
31.02050731354462
 21
29.80454436675151
 31
0.0
  0
LINE
  5
141
330
2
100
AcDbEntity
  8
GAIKEI
  6
Continuous
100
AcDbLine
 10
12.14908564971057
 20
29.86304035249825
 30
0.0
 11
12.20083203332865
 21
29.80454436675151
 31
0.0
  0
LINE
  5
142
330
2
100
AcDbEntity
  8
GAIKEI
  6
Continuous
100
AcDbLine
 10
31.11066679853769
 20
30.96304382849823
 30
0.0
 11
31.07225369716264
 21
29.86304035249825
 31
0.0
  0
SPLINE
  5
143
330
2
100
AcDbEntity
  8
GAIKEI
  6
Continuous
100
AcDbSpline
210
0.0
220
0.0
230
1.0
 70
    24
 71
     3
 72
     9
 73
     5
 74
     0
 42
0.0000000001
 43
0.0000000001
 40
0.0
 40
0.0
 40
0.0
 40
0.0
 40
0.1650447652640032
 40
0.3300895305284162
 40
0.3300895305284162
 40
0.3300895305284162
 40
0.3300895305284162
 10
28.1563519806424
 20
29.45759119329287
 30
0.0
 10
28.16177804506873
 20
29.45849917582703
 30
0.0
 10
28.17263017392131
 20
29.46031514089546
 30
0.0
 10
28.18348230277394
 20
29.46213110596395
 30
0.0
 10
28.18890836720021
 20
29.46303908849822
 30
0.0
  0
SPLINE
  5
144
330
2
100
AcDbEntity
  8
GAIKEI
  6
Continuous
100
AcDbSpline
210
0.0
220
0.0
230
1.0
 70
    24
 71
     3
 72
     9
 73
     5
 74
     0
 42
0.0000000001
 43
0.0000000001
 40
0.0
 40
0.0
 40
0.0
 40
0.0
 40
0.1647700680406615
 40
0.3295401360812876
 40
0.3295401360812876
 40
0.3295401360812876
 40
0.3295401360812876
 10
28.09183682755514
 20
29.38706620520466
 30
0.0
 10
28.0940169345526
 20
29.39210734341796
 30
0.0
 10
28.09837714854751
 20
29.40218961984451
 30
0.0
 10
28.10273736254243
 20
29.41227189627105
 30
0.0
 10
28.10491746953985
 20
29.41731303448435
 30
0.0
  0
SPLINE
  5
145
330
2
100
AcDbEntity
  8
GAIKEI
  6
Continuous
100
AcDbSpline
210
0.0
220
0.0
230
1.0
 70
    24
 71
     3
 72
     9
 73
     5
 74
     0
 42
0.0000000001
 43
0.0000000001
 40
0.0
 40
0.0
 40
0.0
 40
0.0
 40
0.0716285654436668
 40
0.1432571308873368
 40
0.1432571308873368
 40
0.1432571308873368
 40
0.1432571308873368
 10
27.84358894474431
 20
28.45817650156246
 30
0.0
 10
27.84131782528428
 20
28.45743976810278
 30
0.0
 10
27.83677558636416
 20
28.45596630118328
 30
0.0
 10
27.83223334744406
 20
28.45449283426379
 30
0.0
 10
27.829962227984
 20
28.45375610080404
 30
0.0
  0
SPLINE
  5
146
330
2
100
AcDbEntity
  8
GAIKEI
  6
Continuous
100
AcDbSpline
210
0.0
220
0.0
230
1.0
 70
    24
 71
     3
 72
     9
 73
     5
 74
     0
 42
0.0000000001
 43
0.0000000001
 40
0.0
 40
0.0
 40
0.0
 40
0.0
 40
0.072702488194442
 40
0.1454049763887844
 40
0.1454049763887844
 40
0.1454049763887844
 40
0.1454049763887844
 10
27.85556217834963
 20
28.46642690063371
 30
0.0
 10
27.85356663941542
 20
28.4650518341218
 30
0.0
 10
27.849575561547
 20
28.46230170109809
 30
0.0
 10
27.84558448367858
 20
28.45955156807432
 30
0.0
 10
27.84358894474431
 20
28.45817650156246
 30
0.0
  0
SPLINE
  5
147
330
2
100
AcDbEntity
  8
GAIKEI
  6
Continuous
100
AcDbSpline
210
0.0
220
0.0
230
1.0
 70
    24
 71
     3
 72
     9
 73
     5
 74
     0
 42
0.0000000001
 43
0.0000000001
 40
0.0
 40
0.0
 40
0.0
 40
0.0
 40
0.0723687746622808
 40
0.1447375493246261
 40
0.1447375493246261
 40
0.1447375493246261
 40
0.1447375493246261
 10
27.86462121624612
 20
28.47771515728434
 30
0.0
 10
27.86311137659669
 20
28.47583378117591
 30
0.0
 10
27.86009169729783
 20
28.47207102895905
 30
0.0
 10
27.85707201799903
 20
28.46830827674214
 30
0.0
 10
27.85556217834963
 20
28.46642690063371
 30
0.0
  0
SPLINE
  5
148
330
2
100
AcDbEntity
  8
GAIKEI
  6
Continuous
100
AcDbSpline
210
0.0
220
0.0
230
1.0
 70
    24
 71
     3
 72
     9
 73
     5
 74
     0
 42
0.0000000001
 43
0.0000000001
 40
0.0
 40
0.0
 40
0.0
 40
0.0
 40
0.0718445477829367
 40
0.143689095565847
 40
0.143689095565847
 40
0.143689095565847
 40
0.143689095565847
 10
27.87004208274595
 20
28.49102233854487
 30
0.0
 10
27.86913860499598
 20
28.48880447500145
 30
0.0
 10
27.86733164949607
 20
28.4843687479146
 30
0.0
 10
27.86552469399607
 20
28.47993302082776
 30
0.0
 10
27.86462121624612
 20
28.47771515728434
 30
0.0
  0
SPLINE
  5
149
330
2
100
AcDbEntity
  8
GAIKEI
  6
Continuous
100
AcDbSpline
210
0.0
220
0.0
230
1.0
 70
     8
 71
     3
 72
     9
 73
     5
 74
     0
 42
0.0000000001
 43
0.0000000001
 40
0.0
 40
0.0
 40
0.0
 40
0.0
 40
0.3312202241026973
 40
0.6624318988797987
 40
0.6624318988797987
 40
0.6624318988797987
 40
0.6624318988797987
 10
28.1563519806424
 20
29.45759119329287
 30
0.0
 10
28.14608849800848
 20
29.45303738885125
 30
0.0
 10
28.12556179765755
 20
29.44392989750898
 30
0.0
 10
28.11179885303772
 20
29.42618524582193
 30
0.0
 10
28.10491746953985
 20
29.41731303448435
 30
0.0
  0
SPLINE
  5
14A
330
2
100
AcDbEntity
  8
GAIKEI
  6
Continuous
100
AcDbSpline
210
0.0
220
0.0
230
1.0
 70
     8
 71
     3
 72
    13
 73
     9
 74
     0
 42
0.0000000001
 43
0.0000000001
 40
0.0
 40
0.0
 40
0.0
 40
0.0
 40
0.2417903715270264
 40
0.4656823122323485
 40
0.6626358765535211
 40
0.8596131070356582
 40
1.083822907673216
 40
1.325965550234858
 40
1.325965550234858
 40
1.325965550234858
 40
1.325965550234858
 10
15.12950251931812
 20
29.38706620520466
 30
0.0
 10
15.12709657223195
 20
29.39480355446952
 30
0.0
 10
15.12246277728332
 20
29.40970549896568
 30
0.0
 10
15.10950140021947
 20
29.42801779431315
 30
0.0
 10
15.09424066065182
 20
29.44195755348372
 30
0.0
 10
15.07704146170192
 20
29.45343921328541
 30
0.0
 10
15.056132992365
 20
29.46164119766317
 30
0.0
 10
15.04053162581437
 20
29.46256133080081
 30
0.0
 10
15.03243097966304
 20
29.46303908849822
 30
0.0
  0
SPLINE
  5
14B
330
2
100
AcDbEntity
  8
GAIKEI
  6
Continuous
100
AcDbSpline
210
0.0
220
0.0
230
1.0
 70
     8
 71
     3
 72
    11
 73
     7
 74
     0
 42
0.0000000001
 43
0.0000000001
 40
0.0
 40
0.0
 40
0.0
 40
0.0
 40
0.1093056512981868
 40
0.217906875631057
 40
0.3259655563749153
 40
0.4344878781328403
 40
0.4344878781328403
 40
0.4344878781328403
 40
0.4344878781328403
 10
15.37775040211897
 20
28.45817650156246
 30
0.0
 10
15.37457327257391
 20
28.45999421574723
 30
0.0
 10
15.36823948868965
 20
28.46361792974633
 30
0.0
 10
15.36060539054324
 20
28.47150656130279
 30
0.0
 10
15.35456352586965
 20
28.4806378600517
 30
0.0
 10
15.35238757074413
 20
28.48755590916002
 30
0.0
 10
15.35129726411736
 20
28.49102233854487
 30
0.0
  0
SPLINE
  5
14C
330
2
100
AcDbEntity
  8
GAIKEI
  6
Continuous
100
AcDbSpline
210
0.0
220
0.0
230
1.0
 70
    24
 71
     3
 72
     9
 73
     5
 74
     0
 42
0.0000000001
 43
0.0000000001
 40
0.0
 40
0.0
 40
0.0
 40
0.0
 40
0.0716285654910351
 40
0.1432571309820669
 40
0.1432571309820669
 40
0.1432571309820669
 40
0.1432571309820669
 10
15.39137711888929
 20
28.45375610080404
 30
0.0
 10
15.38910599942755
 20
28.45449283426379
 30
0.0
 10
15.38456376050413
 20
28.45596630118328
 30
0.0
 10
15.38002152158071
 20
28.45743976810278
 30
0.0
 10
15.37775040211897
 20
28.45817650156246
 30
0.0
  0
LINE
  5
14D
330
2
100
AcDbEntity
  8
GAIKEI
100
AcDbLine
 10
14.2106885194151
 20
29.46303908849822
 30
0.0
 11
12.20083203332865
 21
29.80454436675151
 31
0.0
  0
LINE
  5
14E
330
2
100
AcDbEntity
  8
GAIKEI
100
AcDbLine
 10
29.01065082744819
 20
29.46303908849822
 30
0.0
 11
31.02050731354467
 21
29.80454436675157
 31
0.0
  0
LINE
  5
14F
330
2
100
AcDbEntity
  8
GAIKEI
 62
     1
100
AcDbLine
 10
23.78302961814734
 20
24.83302445295547
 30
0.0
 11
27.32806688524764
 21
24.83302445769604
 31
0.0
  0
LINE
  5
150
330
2
100
AcDbEntity
  8
GAIKEI
 62
     1
100
AcDbLine
 10
27.32806688524767
 20
26.48302967170039
 30
0.0
 11
23.78302961814734
 21
26.48302967169823
 31
0.0
  0
LINE
  5
151
330
2
100
AcDbEntity
  8
GAIKEI
 62
     1
100
AcDbLine
 10
27.43601545617611
 20
25.1830255636983
 30
0.0
 11
27.43601545617611
 21
26.1330285656982
 31
0.0
  0
ARC
  5
152
330
2
100
AcDbEntity
  8
GAIKEI
 62
     1
100
AcDbCircle
 10
27.02892071907405
 20
25.11693566116716
 30
0.0
 40
0.4124245387859142
100
AcDbArc
 50
316.4967660715257
 51
9.221248394889121
  0
ARC
  5
153
330
2
100
AcDbEntity
  8
GAIKEI
 62
     1
100
AcDbCircle
 10
27.02892071907405
 20
26.19911846822933
 30
0.0
 40
0.4124245387859142
100
AcDbArc
 50
350.7787516051109
 51
43.50323392846678
  0
ELLIPSE
  5
154
330
2
100
AcDbEntity
  8
GAIKEI
 62
     1
100
AcDbEllipse
 10
27.20882864835278
 20
25.74683018514057
 30
0.0
 11
0.0
 21
0.3133044041439916
 31
0.0
210
0.0
220
0.0
230
1.0
 40
0.381100583251265
 41
0.0
 42
6.283185307179586
  0
ARC
  5
155
330
2
100
AcDbEntity
  8
GAIKEI
 62
     1
100
AcDbCircle
 10
23.77693705621812
 20
25.20123302628676
 30
0.0
 40
0.3682589751594978
100
AcDbArc
 50
182.8339744478567
 51
270.9479579180167
  0
LINE
  5
156
330
2
100
AcDbEntity
  8
GAIKEI
 62
     1
100
AcDbLine
 10
23.40912846344344
 20
26.13302856569826
 30
0.0
 11
23.4025108046917
 21
25.18302556369824
 31
0.0
  0
ARC
  5
157
330
2
100
AcDbEntity
  8
GAIKEI
 62
     1
100
AcDbCircle
 10
23.77693705621812
 20
26.11482109836695
 30
0.0
 40
0.3682589751594978
100
AcDbArc
 50
89.0520420819833
 51
177.1660255521432
  0
CIRCLE
  5
158
330
2
100
AcDbEntity
  8
GAIKEI
 62
     1
100
AcDbCircle
 10
24.0220281841572
 20
25.73007197665712
 30
0.0
 40
0.3197493652335197
  0
ARC
  5
159
330
2
100
AcDbEntity
  8
GAIKEI
 62
     1
100
AcDbCircle
 10
110.6445187882681
 20
15.47039070658044
 30
0.0
 40
86.55583311522651
100
AcDbArc
 50
182.3370169465525
 51
184.1064942127295
  0
ARC
  5
15A
330
2
100
AcDbEntity
  8
GAIKEI
 62
     1
100
AcDbCircle
 10
-67.42317944140491
 20
15.47039070658044
 30
0.0
 40
86.55583311522651
100
AcDbArc
 50
355.8935057872704
 51
357.6629830534474
  0
ARC
  5
15B
330
2
100
AcDbEntity
  8
GAIKEI
 62
     1
100
AcDbCircle
 10
21.63246611546648
 20
18.10905183464629
 30
0.0
 40
7.726607106069062
100
AcDbArc
 50
250.9606457289118
 51
288.4859593219277
  0
ARC
  5
15C
330
2
100
AcDbEntity
  8
GAIKEI
 62
     1
100
AcDbCircle
 10
61.07566613745041
 20
15.47039070658039
 30
0.0
 40
86.55583311522651
100
AcDbArc
 50
182.3370169465525
 51
184.1064942127295
  0
ARC
  5
15D
330
2
100
AcDbEntity
  8
GAIKEI
 62
     1
100
AcDbCircle
 10
-116.9920320922227
 20
15.47039070658039
 30
0.0
 40
86.55583311522651
100
AcDbArc
 50
355.8935057872704
 51
357.6629830534474
  0
ELLIPSE
  5
15E
330
2
100
AcDbEntity
  8
GAIKEI
 62
     1
100
AcDbEllipse
 10
-27.95812585533079
 20
10.58387385801907
 30
0.0
 11
1.66966613035094
 21
0.0
 31
0.0
210
0.0
220
0.0
230
1.0
 40
0.7073540300442244
 41
0.0
 42
6.283185307179586
  0
ELLIPSE
  5
15F
330
2
100
AcDbEntity
  8
GAIKEI
 62
     1
100
AcDbEllipse
 10
-27.95812585533079
 20
10.61913126790958
 30
0.0
 11
1.900054192730082
 21
0.0
 31
0.0
210
0.0
220
0.0
230
1.0
 40
0.7044805537448961
 41
0.0
 42
6.283185307179586
  0
LINE
  5
160
330
2
100
AcDbEntity
  8
GAIKEI
100
AcDbLine
 10
-20.55820182336959
 20
29.46303908849822
 30
0.0
 11
-18.54834533727313
 21
29.80454436675157
 31
0.0
  0
LINE
  5
161
330
2
100
AcDbEntity
  8
GAIKEI
100
AcDbLine
 10
-35.35816413140267
 20
29.46303908849822
 30
0.0
 11
-37.36802061748913
 21
29.80454436675151
 31
0.0
  0
SPLINE
  5
162
330
2
100
AcDbEntity
  8
GAIKEI
  6
Continuous
100
AcDbSpline
210
0.0
220
0.0
230
1.0
 70
     8
 71
     3
 72
    73
 73
    69
 74
     0
 42
0.0000000001
 43
0.0000000001
 40
0.0
 40
0.0
 40
0.0
 40
0.0
 40
3.10110928284824
 40
6.093144994953785
 40
8.590328321010648
 40
11.02990704043857
 40
13.3054312673828
 40
15.63559664308765
 40
18.06166365591407
 40
20.49101961530273
 40
22.98938869216635
 40
25.49177815902084
 40
28.02872735846928
 40
30.56250670295642
 40
33.09066485868184
 40
35.61287494294728
 40
38.12830406644774
 40
40.63597259222879
 40
43.19959263472195
 40
45.77086922751623
 40
48.46717427390915
 40
51.17762842778248
 40
53.9635900888439
 40
56.71305977855173
 40
59.59851890165534
 40
62.50099093443238
 40
65.72212852288271
 40
68.97815909325652
 40
72.4694426057648
 40
75.91319121553695
 40
79.56194266847063
 40
83.21516011828643
 40
87.28463112304934
 40
91.39478266775871
 40
95.91980471887394
 40
100.4378030589039
 40
105.1976574787196
 40
109.9413260858165
 40
114.8773506178369
 40
119.8257036449153
 40
124.9437138619846
 40
130.0880197230435
 40
135.1820920899974
 40
140.2472736047699
 40
145.059831431541
 40
149.8653018186792
 40
154.3948186573637
 40
158.9314270840294
 40
163.1439794372666
 40
167.3312986525603
 40
171.2382915521807
 40
175.1659890617588
 40
178.8664165742121
 40
182.5559482755329
 40
186.013333395276
 40
189.462342296396
 40
192.7803849814532
 40
196.1250462204839
 40
199.3466497993195
 40
202.5645654884405
 40
205.5581122520827
 40
208.5393861132216
 40
211.2553821140658
 40
213.9134482131036
 40
216.6022399213651
 40
219.3431434704363
 40
222.4887907651438
 40
225.7401653655908
 40
225.7401653655908
 40
225.7401653655908
 40
225.7401653655908
 10
28.8600027352617
 20
14.81299279657824
 30
0.0
 10
28.85741648397263
 20
14.7096379711219
 30
0.0
 10
28.852334946155
 20
14.50656356129164
 30
0.0
 10
28.829325495761
 20
14.22100339259819
 30
0.0
 10
28.79860088857615
 20
13.95847360109351
 30
0.0
 10
28.7633359891276
 20
13.7206160621682
 30
0.0
 10
28.72094098652969
 20
13.48958806713816
 30
0.0
 10
28.67115636733416
 20
13.26050335987301
 30
0.0
 10
28.61282217890332
 20
13.02814961802411
 30
0.0
 10
28.54511671837452
 20
12.79250995565749
 30
0.0
 10
28.46867724192907
 20
12.55687820061527
 30
0.0
 10
28.38293928852181
 20
12.32064901530842
 30
0.0
 10
28.28864151275937
 20
12.08642869230599
 30
0.0
 10
28.18578687022256
 20
11.85489744143379
 30
0.0
 10
28.0751499056025
 20
11.62753030416891
 30
0.0
 10
27.95698071838823
 20
11.40467748258132
 30
0.0
 10
27.83149272629527
 20
11.18664980535428
 30
0.0
 10
27.69775496204176
 20
10.97195418130073
 30
0.0
 10
27.55549992080131
 20
10.76055539929692
 30
0.0
 10
27.40228623758267
 20
10.54914269097972
 30
0.0
 10
27.23846316906645
 20
10.3395769284979
 30
0.0
 10
27.06219131783641
 20
10.13091135303247
 30
0.0
 10
26.8771185906063
 20
9.927601747153033
 30
0.0
 10
26.68020319204948
 20
9.727463318359895
 30
0.0
 10
26.47265933802743
 20
9.532646503565871
 30
0.0
 10
26.24601063275688
 20
9.335527606153249
 30
0.0
 10
26.00150299619654
 20
9.140487619090123
 30
0.0
 10
25.73233488850269
 20
8.945466489345136
 30
0.0
 10
25.44843804655901
 20
8.758683340237581
 30
0.0
 10
25.14455704773985
 20
8.579190732796263
 30
0.0
 10
24.82734455773095
 20
8.41250393447504
 30
0.0
 10
24.48348452607769
 20
8.252652727735068
 30
0.0
 10
24.11718152272019
 20
8.105779138375083
 30
0.0
 10
23.71553278161034
 20
7.970846406266588
 30
0.0
 10
23.29217702799033
 20
7.855722553998788
 30
0.0
 10
22.84117916175237
 20
7.763178718624459
 30
0.0
 10
22.3779545231852
 20
7.698479535764846
 30
0.0
 10
21.89758106235411
 20
7.66325211488143
 30
0.0
 10
21.40960757579674
 20
7.660250553452982
 30
0.0
 10
20.91009581572675
 20
7.691061293722185
 30
0.0
 10
20.40698857625236
 20
7.757355559644935
 30
0.0
 10
19.90514651303033
 20
7.860363835081926
 30
0.0
 10
19.41335968197847
 20
7.997457264073403
 30
0.0
 10
18.94301037622077
 20
8.16556268574962
 30
0.0
 10
18.49411061445153
 20
8.361470770205556
 30
0.0
 10
18.07476532097735
 20
8.577951827813791
 30
0.0
 10
17.67814188193827
 20
8.81623127920929
 30
0.0
 10
17.31380406637336
 20
9.068100379572598
 30
0.0
 10
16.97416902136268
 20
9.33417391074127
 30
0.0
 10
16.66614785070118
 20
9.605475017927034
 30
0.0
 10
16.38071381080422
 20
9.887025220684137
 30
0.0
 10
16.12172013824715
 20
10.17146925176436
 30
0.0
 10
15.88246693040395
 20
10.46336723378115
 30
0.0
 10
15.6680792260403
 20
10.7547381330568
 30
0.0
 10
15.4729508524853
 20
11.04929400409978
 30
0.0
 10
15.29805534152518
 20
11.34196064378417
 30
0.0
 10
15.13893580049668
 20
11.63923293006965
 30
0.0
 10
14.99704249716041
 20
11.93672050181052
 30
0.0
 10
14.86989038434655
 20
12.2371685812304
 30
0.0
 10
14.76042486691753
 20
12.53204828212543
 30
0.0
 10
14.66607166701817
 20
12.8236755932401
 30
0.0
 10
14.58837061398486
 20
13.10284068649238
 30
0.0
 10
14.52407044377065
 20
13.3738932930876
 30
0.0
 10
14.47195190612606
 20
13.63762163305674
 30
0.0
 10
14.42992276038322
 20
13.9039826102094
 30
0.0
 10
14.39504388930592
 20
14.18773136480459
 30
0.0
 10
14.36958773491281
 20
14.49142794784993
 30
0.0
 10
14.36411712712544
 20
14.70462994258517
 30
0.0
 10
14.36133661527157
 20
14.81299279670824
 30
0.0
  0
SPLINE
  5
163
330
2
100
AcDbEntity
  8
GAIKEI
  6
Continuous
 62
     1
100
AcDbSpline
210
0.0
220
0.0
230
1.0
 70
     8
 71
     3
 72
     9
 73
     5
 74
     0
 42
0.0000000001
 43
0.0000000001
 40
0.0
 40
0.0
 40
0.0
 40
0.0
 40
0.1319440924166182
 40
0.2638876592699304
 40
0.2638876592699304
 40
0.2638876592699304
 40
0.2638876592699304
 10
19.08363466100624
 20
14.20599641242134
 30
0.0
 10
19.07980019988562
 20
14.20384218552456
 30
0.0
 10
19.07213129291793
 20
14.19953374031169
 30
0.0
 10
19.0644827363561
 20
14.19518927063748
 30
0.0
 10
19.06065846569169
 20
14.19301704012665
 30
0.0
  0
SPLINE
  5
164
330
2
100
AcDbEntity
  8
GAIKEI
  6
Continuous
 62
     1
100
AcDbSpline
210
0.0
220
0.0
230
1.0
 70
    24
 71
     3
 72
     9
 73
     5
 74
     0
 42
0.0000000001
 43
0.0000000001
 40
0.0
 40
0.0
 40
0.0
 40
0.0
 40
0.1150712519937914
 40
0.2301425039884941
 40
0.2301425039884941
 40
0.2301425039884941
 40
0.2301425039884941
 10
24.16067636560729
 20
14.19144780574791
 30
0.0
 10
24.15684775231725
 20
14.19121441297201
 30
0.0
 10
24.14919052573717
 20
14.19074762742028
 30
0.0
 10
24.14153329915709
 20
14.1902808418686
 30
0.0
 10
24.13770468586705
 20
14.19004744909276
 30
0.0
  0
SPLINE
  5
165
330
2
100
AcDbEntity
  8
GAIKEI
  6
Continuous
 62
     1
100
AcDbSpline
210
0.0
220
0.0
230
1.0
 70
     8
 71
     3
 72
    17
 73
    13
 74
     0
 42
0.0000000001
 43
0.0000000001
 40
0.0
 40
0.0
 40
0.0
 40
0.0
 40
0.0629046034820484
 40
0.1231539990803899
 40
0.1724858163668224
 40
0.2205259608780721
 40
0.2648436024565153
 40
0.3087889581771849
 40
0.3629271886241765
 40
0.419257833334933
 40
0.4954655609075777
 40
0.5757325956748965
 40
0.5757325956748965
 40
0.5757325956748965
 40
0.5757325956748965
 10
19.08363466100624
 20
14.20599641242134
 30
0.0
 10
19.08543026940953
 20
14.20708491375083
 30
0.0
 10
19.08894569345494
 20
14.20921597068971
 30
0.0
 10
19.09333340222645
 20
14.21296822856803
 30
0.0
 10
19.09696189908442
 20
14.21677345971571
 30
0.0
 10
19.09993381489292
 20
14.22045232797089
 30
0.0
 10
19.10247208882609
 20
14.22422736540815
 30
0.0
 10
19.10477187704262
 20
14.22838637408873
 30
0.0
 10
19.10683620308205
 20
14.23311026957677
 30
0.0
 10
19.10884619747247
 20
14.23900361306747
 30
0.0
 10
19.11038241861124
 20
14.24596738631342
 30
0.0
 10
19.11056705850015
 20
14.25118903239328
 30
0.0
 10
19.11066177343164
 20
14.25386758605376
 30
0.0
  0
SPLINE
  5
166
330
2
100
AcDbEntity
  8
GAIKEI
  6
Continuous
 62
     1
100
AcDbSpline
210
0.0
220
0.0
230
1.0
 70
     8
 71
     3
 72
    17
 73
    13
 74
     0
 42
0.0000000001
 43
0.0000000001
 40
0.0
 40
0.0
 40
0.0
 40
0.0
 40
0.066348055516583
 40
0.1289313602800825
 40
0.1724679504347737
 40
0.2137274148135526
 40
0.2455805332551352
 40
0.2776985145799586
 40
0.3147059005317349
 40
0.3532878852618061
 40
0.4043247568685419
 40
0.4581817482117144
 40
0.4581817482117144
 40
0.4581817482117144
 40
0.4581817482117144
 10
24.11067757343165
 20
14.21857897954206
 30
0.0
 10
24.11071637575179
 20
14.21636347139409
 30
0.0
 10
24.11079177865372
 20
14.21205816844278
 30
0.0
 10
24.1120339861439
 20
14.20640282005891
 30
0.0
 10
24.11378672887906
 20
14.20180217284192
 30
0.0
 10
24.11569068443086
 20
14.19839034066942
 30
0.0
 10
24.11791103277207
 20
14.19565146779044
 30
0.0
 10
24.12050394098879
 20
14.19347586906943
 30
0.0
 10
24.12364299890629
 20
14.19168834248498
 30
0.0
 10
24.12764535861675
 20
14.1902984720314
 30
0.0
 10
24.13241953774244
 20
14.18954688747979
 30
0.0
 10
24.13591167392977
 20
14.18987763115646
 30
0.0
 10
24.13770468586705
 20
14.19004744909276
 30
0.0
  0
SPLINE
  5
167
330
2
100
AcDbEntity
  8
GAIKEI
  6
Continuous
 62
     1
100
AcDbSpline
210
0.0
220
0.0
230
1.0
 70
     8
 71
     3
 72
    11
 73
     7
 74
     0
 42
0.0000000001
 43
0.0000000001
 40
0.0
 40
0.0
 40
0.0
 40
0.0
 40
1.890317798381647
 40
3.874574183562534
 40
6.328523370605466
 40
8.876411424440856
 40
8.876411424440856
 40
8.876411424440856
 40
8.876411424440856
 10
24.16061528117428
 20
12.7486684869896
 30
0.0
 10
24.15902645207169
 20
12.81165924888049
 30
0.0
 10
24.15576983763989
 20
12.94077107337583
 30
0.0
 10
24.15067210263027
 20
13.15166094401402
 30
0.0
 10
24.14523520022453
 20
13.38446805213127
 30
0.0
 10
24.14157367323131
 20
13.55115629489054
 30
0.0
 10
24.13970852639918
 20
13.63606569157591
 30
0.0
  0
SPLINE
  5
168
330
2
100
AcDbEntity
  8
GAIKEI
  6
Continuous
 62
     1
100
AcDbSpline
210
0.0
220
0.0
230
1.0
 70
     8
 71
     3
 72
     9
 73
     5
 74
     0
 42
0.0000000001
 43
0.0000000001
 40
0.0
 40
0.0
 40
0.0
 40
0.0
 40
0.1325079096080535
 40
0.2650164912490732
 40
0.2650164912490732
 40
0.2650164912490732
 40
0.2650164912490732
 10
19.06066076736886
 20
13.96191262345886
 30
0.0
 10
19.06448436890187
 20
13.96412385220313
 30
0.0
 10
19.07213159135992
 20
13.9685463209062
 30
0.0
 10
19.07980029797528
 20
13.97293142975334
 30
0.0
 10
19.08363466100624
 20
13.97512398973677
 30
0.0
  0
SPLINE
  5
169
330
2
100
AcDbEntity
  8
GAIKEI
  6
Continuous
 62
     1
100
AcDbSpline
210
0.0
220
0.0
230
1.0
 70
    24
 71
     3
 72
     9
 73
     5
 74
     0
 42
0.0000000001
 43
0.0000000001
 40
0.0
 40
0.0
 40
0.0
 40
0.0
 40
0.0472245263559561
 40
0.0944490527121964
 40
0.0944490527121964
 40
0.0944490527121964
 40
0.0944490527121964
 10
24.13970852639918
 20
13.63606569157591
 30
0.0
 10
24.13968397805991
 20
13.63763965600631
 30
0.0
 10
24.13963488138143
 20
13.64078758486707
 30
0.0
 10
24.13958578470289
 20
13.64393551372782
 30
0.0
 10
24.13956123636362
 20
13.64550947815823
 30
0.0
  0
SPLINE
  5
16A
330
2
100
AcDbEntity
  8
GAIKEI
  6
Continuous
 62
     1
100
AcDbSpline
210
0.0
220
0.0
230
1.0
 70
     8
 71
     3
 72
     9
 73
     5
 74
     0
 42
0.0000000001
 43
0.0000000001
 40
0.0
 40
0.0
 40
0.0
 40
0.0
 40
0.4189301408518677
 40
0.8378673714011032
 40
0.8378673714011032
 40
0.8378673714011032
 40
0.8378673714011032
 10
24.13956123636362
 20
13.64550947815823
 30
0.0
 10
24.13961068235952
 20
13.65948329376672
 30
0.0
 10
24.13970957518802
 20
13.68743116146734
 30
0.0
 10
24.1425724153828
 20
13.71523219124012
 30
0.0
 10
24.14400384759233
 20
13.7291328237471
 30
0.0
  0
SPLINE
  5
16B
330
2
100
AcDbEntity
  8
GAIKEI
  6
Continuous
 62
     1
100
AcDbSpline
210
0.0
220
0.0
230
1.0
 70
    24
 71
     3
 72
     9
 73
     5
 74
     0
 42
0.0000000001
 43
0.0000000001
 40
0.0
 40
0.0
 40
0.0
 40
0.0
 40
0.018290189138719
 40
0.0365803782785664
 40
0.0365803782785664
 40
0.0365803782785664
 40
0.0365803782785664
 10
24.14400384759233
 20
13.7291328237471
 30
0.0
 10
24.14408114270992
 20
13.72973757902477
 30
0.0
 10
24.14423573294511
 20
13.73094708958015
 30
0.0
 10
24.14439032318026
 20
13.73215660013559
 30
0.0
 10
24.14446761829785
 20
13.73276135541326
 30
0.0
  0
SPLINE
  5
16C
330
2
100
AcDbEntity
  8
GAIKEI
  6
Continuous
 62
     1
100
AcDbSpline
210
0.0
220
0.0
230
1.0
 70
     8
 71
     3
 72
     9
 73
     5
 74
     0
 42
0.0000000001
 43
0.0000000001
 40
0.0
 40
0.0
 40
0.0
 40
0.0
 40
0.375160298214346
 40
0.7501545058700766
 40
0.7501545058700766
 40
0.7501545058700766
 40
0.7501545058700766
 10
24.14446761829785
 20
13.73276135541326
 30
0.0
 10
24.14629623191732
 20
13.74514900014233
 30
0.0
 10
24.14995264959439
 20
13.7699188053559
 30
0.0
 10
24.15697683723136
 20
13.79395154451376
 30
0.0
 10
24.16048815344254
 20
13.80596525356677
 30
0.0
  0
SPLINE
  5
16D
330
2
100
AcDbEntity
  8
GAIKEI
  6
Continuous
 62
     1
100
AcDbSpline
210
0.0
220
0.0
230
1.0
 70
     8
 71
     3
 72
    11
 73
     7
 74
     0
 42
0.0000000001
 43
0.0000000001
 40
0.0
 40
0.0
 40
0.0
 40
0.0
 40
1.66198266104346
 40
3.326164444913814
 40
5.001341955374267
 40
6.678718632989793
 40
6.678718632989793
 40
6.678718632989793
 40
6.678718632989793
 10
19.08363466100624
 20
13.31271663189611
 30
0.0
 10
19.08430587065308
 20
13.36811216336983
 30
0.0
 10
19.08564917808632
 20
13.47897652526356
 30
0.0
 10
19.0875938973835
 20
13.64567711192072
 30
0.0
 10
19.08949498349852
 20
13.81289137045675
 30
0.0
 10
19.09071630548033
 20
13.92463685707744
 30
0.0
 10
19.09132736704509
 20
13.98054625110094
 30
0.0
  0
SPLINE
  5
16E
330
2
100
AcDbEntity
  8
GAIKEI
  6
Continuous
 62
     1
100
AcDbSpline
210
0.0
220
0.0
230
1.0
 70
     8
 71
     3
 72
     9
 73
     5
 74
     0
 42
0.0000000001
 43
0.0000000001
 40
0.0
 40
0.0
 40
0.0
 40
0.0
 40
0.0471121132319887
 40
0.0942211789330094
 40
0.0942211789330094
 40
0.0942211789330094
 40
0.0942211789330094
 10
19.09132736704509
 20
13.98054625110094
 30
0.0
 10
19.09010933483506
 20
13.97955153276771
 30
0.0
 10
19.08767334920563
 20
13.97756216044629
 30
0.0
 10
19.08498086137703
 20
13.97593669578171
 30
0.0
 10
19.08363466100624
 20
13.97512398973677
 30
0.0
  0
SPLINE
  5
16F
330
2
100
AcDbEntity
  8
GAIKEI
  6
Continuous
100
AcDbSpline
210
0.0
220
0.0
230
1.0
 70
     8
 71
     3
 72
    45
 73
    41
 74
     0
 42
0.0000000001
 43
0.0000000001
 40
0.0
 40
0.0
 40
0.0
 40
0.0
 40
3.101109282847382
 40
6.093144994951134
 40
8.590328321007579
 40
11.02990704043499
 40
13.3054312673786
 40
15.63559664308224
 40
18.06166365591091
 40
20.49101961530331
 40
22.98938869217151
 40
25.49177815903125
 40
28.0287273584806
 40
30.56250670296581
 40
33.09066485868186
 40
35.61287494293972
 40
38.12830406643829
 40
40.63597259221783
 40
43.19959263471111
 40
45.77086922750523
 40
48.46717427389851
 40
51.17762842777178
 40
53.96359008883313
 40
56.71305977854092
 40
59.59851890164494
 40
62.50099093442205
 40
65.72212852287218
 40
68.97815909324529
 40
72.46944260575332
 40
75.91319121552576
 40
79.56194266845944
 40
83.21516011827304
 40
87.28463112303982
 40
91.39478266775389
 40
96.03629405991888
 40
100.9051102701243
 40
105.1074848008203
 40
109.1119620374084
 40
111.204363714991
 40
112.8744037389284
 40
112.8744037389284
 40
112.8744037389284
 40
112.8744037389284
 10
-35.20751603921622
 20
14.81299279657824
 30
0.0
 10
-35.20492978793061
 20
14.70963797112179
 30
0.0
 10
-35.19984825011963
 20
14.50656356129141
 30
0.0
 10
-35.17683879972665
 20
14.22100339259791
 30
0.0
 10
-35.14611419254027
 20
13.95847360109351
 30
0.0
 10
-35.11084929309197
 20
13.7206160621682
 30
0.0
 10
-35.06845429049417
 20
13.48958806713821
 30
0.0
 10
-35.0186696712986
 20
13.26050335987307
 30
0.0
 10
-34.96033548286758
 20
13.02814961802406
 30
0.0
 10
-34.89263002233994
 20
12.79250995565681
 30
0.0
 10
-34.81619054589436
 20
12.55687820061408
 30
0.0
 10
-34.73045259248045
 20
12.32064901530921
 30
0.0
 10
-34.63615481671292
 20
12.08642869230877
 30
0.0
 10
-34.53330017418114
 20
11.85489744143476
 30
0.0
 10
-34.42266320956731
 20
11.62753030416749
 30
0.0
 10
-34.30449402235331
 20
11.40467748258041
 30
0.0
 10
-34.17900603025942
 20
11.18664980535439
 30
0.0
 10
-34.04526826600602
 20
10.97195418130079
 30
0.0
 10
-33.90301322476574
 20
10.76055539929726
 30
0.0
 10
-33.7497995415475
 20
10.54914269097858
 30
0.0
 10
-33.58597647302975
 20
10.33957692850217
 30
0.0
 10
-33.40970462180553
 20
10.13091135301633
 30
0.0
 10
-33.22463189455317
 20
9.927601747214936
 30
0.0
 10
-33.02771649608042
 20
9.72746331812786
 30
0.0
 10
-32.82017264172953
 20
9.532646504482073
 30
0.0
 10
-32.59352393775106
 20
9.335527602557164
 30
0.0
 10
-32.34901629582683
 20
9.140487634225991
 30
0.0
 10
-32.07984820927965
 20
8.945466430633274
 30
0.0
 10
-31.7959512831473
 20
8.758683575527328
 30
0.0
 10
-31.49207060497972
 20
8.579189848314769
 30
0.0
 10
-31.17485685277873
 20
8.412507457789075
 30
0.0
 10
-30.83100177465031
 20
8.252638952474484
 30
0.0
 10
-30.46467815824346
 20
8.105837347484992
 30
0.0
 10
-30.05942945699337
 20
7.969378359631235
 30
0.0
 10
-29.62057323294818
 20
7.851744901042224
 30
0.0
 10
-29.17229831552771
 20
7.761138629753276
 30
0.0
 10
-28.74070872488284
 20
7.698207102928137
 30
0.0
 10
-28.39803457540824
 20
7.673418413238351
 30
0.0
 10
-28.13926076868276
 20
7.664900183858691
 30
0.0
 10
-28.0138494617292
 20
7.663567203162784
 30
0.0
 10
-27.95818297738683
 20
7.662975531240675
 30
0.0
  0
SPLINE
  5
170
330
2
100
AcDbEntity
  8
GAIKEI
  6
Continuous
100
AcDbSpline
210
0.0
220
0.0
230
1.0
 70
     8
 71
     3
 72
    37
 73
    33
 74
     0
 42
0.0000000001
 43
0.0000000001
 40
0.0
 40
0.0
 40
0.0
 40
0.0
 40
3.562584757577607
 40
7.339150606872141
 40
12.12054031739309
 40
17.02543826339361
 40
22.26307475195874
 40
27.37587439225994
 40
32.18843221903396
 40
36.99390260617315
 40
41.52341944485719
 40
46.06002787152259
 40
50.27258022475994
 40
54.45989944005292
 40
58.36689233967529
 40
62.29458984925627
 40
65.99501736171966
 40
69.68454906305305
 40
73.14193418279899
 40
76.59094308391821
 40
79.90898576896845
 40
83.25364700799156
 40
86.47525058682136
 40
89.69316627593938
 40
92.68671303958347
 40
95.66798690072316
 40
98.38398290156712
 40
101.042049000605
 40
103.7308407088664
 40
106.4717442579375
 40
109.6173915526451
 40
112.8687661530921
 40
112.8687661530921
 40
112.8687661530921
 40
112.8687661530921
 10
-27.95818297738683
 20
7.662975531240675
 30
0.0
 10
-27.83942400201261
 20
7.664913545761947
 30
0.0
 10
-27.59477297880949
 20
7.668905978621211
 30
0.0
 10
-27.19169645111231
 20
7.699550451999385
 30
0.0
 10
-26.74636832244388
 20
7.757689178843321
 30
0.0
 10
-26.25895449862827
 20
7.859285816744574
 30
0.0
 10
-25.76856259811123
 20
7.995261735063337
 30
0.0
 10
-25.29193830093613
 20
8.164820256811111
 30
0.0
 10
-24.84163467146018
 20
8.36149873745299
 30
0.0
 10
-24.4222759286078
 20
8.57794481500494
 30
0.0
 10
-24.02565589322589
 20
8.816233118863266
 30
0.0
 10
-23.6613171956385
 20
9.06809992520229
 30
0.0
 10
-23.32168237046435
 20
9.334174028136857
 30
0.0
 10
-23.01366114349821
 20
9.605474988881866
 30
0.0
 10
-22.72822711769575
 20
9.887025228297403
 30
0.0
 10
-22.46923344147638
 20
10.17146924985192
 30
0.0
 10
-22.22998023456057
 20
10.46336723428246
 30
0.0
 10
-22.01559252995162
 20
10.75473813293135
 30
0.0
 10
-21.82046415645232
 20
11.04929400412882
 30
0.0
 10
-21.64556864548109
 20
11.34196064377519
 30
0.0
 10
-21.48644910446228
 20
11.63923293007352
 30
0.0
 10
-21.34455580112538
 20
11.93672050181098
 30
0.0
 10
-21.2174036883109
 20
12.23716858123069
 30
0.0
 10
-21.10793817088188
 20
12.53204828212526
 30
0.0
 10
-21.01358497098266
 20
12.82367559323998
 30
0.0
 10
-20.93588391794936
 20
13.10284068649233
 30
0.0
 10
-20.87158374773526
 20
13.3738932930876
 30
0.0
 10
-20.81946521009053
 20
13.63762163305674
 30
0.0
 10
-20.77743606434774
 20
13.9039826102094
 30
0.0
 10
-20.74255719327044
 20
14.18773136480459
 30
0.0
 10
-20.71710103887739
 20
14.49142794784987
 30
0.0
 10
-20.71163043108993
 20
14.70462994258517
 30
0.0
 10
-20.70884991923606
 20
14.81299279670824
 30
0.0
  0
SPLINE
  5
171
330
2
100
AcDbEntity
  8
GAIKEI
  6
Continuous
100
AcDbSpline
210
0.0
220
0.0
230
1.0
 70
    24
 71
     3
 72
     9
 73
     5
 74
     0
 42
0.0000000001
 43
0.0000000001
 40
0.0
 40
0.0
 40
0.0
 40
0.0
 40
0.0716285654910351
 40
0.1432571309820669
 40
0.1432571309820669
 40
0.1432571309820669
 40
0.1432571309820669
 10
-34.17747553192851
 20
28.45375610080404
 30
0.0
 10
-34.17974665139022
 20
28.45449283426379
 30
0.0
 10
-34.18428889031367
 20
28.45596630118328
 30
0.0
 10
-34.18883112923709
 20
28.45743976810278
 30
0.0
 10
-34.1911022486988
 20
28.45817650156246
 30
0.0
  0
SPLINE
  5
172
330
2
100
AcDbEntity
  8
GAIKEI
  6
Continuous
100
AcDbSpline
210
0.0
220
0.0
230
1.0
 70
     8
 71
     3
 72
    11
 73
     7
 74
     0
 42
0.0000000001
 43
0.0000000001
 40
0.0
 40
0.0
 40
0.0
 40
0.0
 40
0.1093056512981868
 40
0.217906875631057
 40
0.3259655563749153
 40
0.4344878781328403
 40
0.4344878781328403
 40
0.4344878781328403
 40
0.4344878781328403
 10
-34.1911022486988
 20
28.45817650156246
 30
0.0
 10
-34.19427937824389
 20
28.45999421574723
 30
0.0
 10
-34.20061316212812
 20
28.46361792974633
 30
0.0
 10
-34.20824726027456
 20
28.47150656130279
 30
0.0
 10
-34.21428912494813
 20
28.4806378600517
 30
0.0
 10
-34.21646508007365
 20
28.48755590916002
 30
0.0
 10
-34.21755538670044
 20
28.49102233854487
 30
0.0
  0
SPLINE
  5
173
330
2
100
AcDbEntity
  8
GAIKEI
  6
Continuous
100
AcDbSpline
210
0.0
220
0.0
230
1.0
 70
     8
 71
     3
 72
    13
 73
     9
 74
     0
 42
0.0000000001
 43
0.0000000001
 40
0.0
 40
0.0
 40
0.0
 40
0.0
 40
0.2417903715270264
 40
0.4656823122323485
 40
0.6626358765535211
 40
0.8596131070356582
 40
1.083822907673216
 40
1.325965550234858
 40
1.325965550234858
 40
1.325965550234858
 40
1.325965550234858
 10
-34.43935013149965
 20
29.38706620520466
 30
0.0
 10
-34.44175607858586
 20
29.39480355446952
 30
0.0
 10
-34.44638987353449
 20
29.40970549896568
 30
0.0
 10
-34.4593512505983
 20
29.42801779431315
 30
0.0
 10
-34.47461199016596
 20
29.44195755348372
 30
0.0
 10
-34.49181118911588
 20
29.45343921328541
 30
0.0
 10
-34.51271965845279
 20
29.46164119766317
 30
0.0
 10
-34.52832102500344
 20
29.46256133080081
 30
0.0
 10
-34.53642167115476
 20
29.46303908849822
 30
0.0
  0
SPLINE
  5
174
330
2
100
AcDbEntity
  8
GAIKEI
  6
Continuous
100
AcDbSpline
210
0.0
220
0.0
230
1.0
 70
     8
 71
     3
 72
     9
 73
     5
 74
     0
 42
0.0000000001
 43
0.0000000001
 40
0.0
 40
0.0
 40
0.0
 40
0.0
 40
0.3312202241026973
 40
0.6624318988797987
 40
0.6624318988797987
 40
0.6624318988797987
 40
0.6624318988797987
 10
-21.41250067017538
 20
29.45759119329287
 30
0.0
 10
-21.42276415280929
 20
29.45303738885125
 30
0.0
 10
-21.44329085316022
 20
29.44392989750898
 30
0.0
 10
-21.45705379778008
 20
29.42618524582193
 30
0.0
 10
-21.46393518127795
 20
29.41731303448435
 30
0.0
  0
SPLINE
  5
175
330
2
100
AcDbEntity
  8
GAIKEI
  6
Continuous
100
AcDbSpline
210
0.0
220
0.0
230
1.0
 70
    24
 71
     3
 72
     9
 73
     5
 74
     0
 42
0.0000000001
 43
0.0000000001
 40
0.0
 40
0.0
 40
0.0
 40
0.0
 40
0.0718445477829367
 40
0.143689095565847
 40
0.143689095565847
 40
0.143689095565847
 40
0.143689095565847
 10
-21.69881056807185
 20
28.49102233854487
 30
0.0
 10
-21.69971404582179
 20
28.48880447500145
 30
0.0
 10
-21.70152100132174
 20
28.4843687479146
 30
0.0
 10
-21.70332795682174
 20
28.47993302082776
 30
0.0
 10
-21.70423143457168
 20
28.47771515728434
 30
0.0
  0
SPLINE
  5
176
330
2
100
AcDbEntity
  8
GAIKEI
  6
Continuous
100
AcDbSpline
210
0.0
220
0.0
230
1.0
 70
    24
 71
     3
 72
     9
 73
     5
 74
     0
 42
0.0000000001
 43
0.0000000001
 40
0.0
 40
0.0
 40
0.0
 40
0.0
 40
0.0723687746622808
 40
0.1447375493246261
 40
0.1447375493246261
 40
0.1447375493246261
 40
0.1447375493246261
 10
-21.70423143457168
 20
28.47771515728434
 30
0.0
 10
-21.70574127422111
 20
28.47583378117591
 30
0.0
 10
-21.70876095351994
 20
28.47207102895905
 30
0.0
 10
-21.71178063281877
 20
28.46830827674214
 30
0.0
 10
-21.71329047246814
 20
28.46642690063371
 30
0.0
  0
SPLINE
  5
177
330
2
100
AcDbEntity
  8
GAIKEI
  6
Continuous
100
AcDbSpline
210
0.0
220
0.0
230
1.0
 70
    24
 71
     3
 72
     9
 73
     5
 74
     0
 42
0.0000000001
 43
0.0000000001
 40
0.0
 40
0.0
 40
0.0
 40
0.0
 40
0.072702488194442
 40
0.1454049763887844
 40
0.1454049763887844
 40
0.1454049763887844
 40
0.1454049763887844
 10
-21.71329047246814
 20
28.46642690063371
 30
0.0
 10
-21.71528601140238
 20
28.4650518341218
 30
0.0
 10
-21.7192770892708
 20
28.46230170109809
 30
0.0
 10
-21.72326816713923
 20
28.45955156807432
 30
0.0
 10
-21.72526370607346
 20
28.45817650156246
 30
0.0
  0
SPLINE
  5
178
330
2
100
AcDbEntity
  8
GAIKEI
  6
Continuous
100
AcDbSpline
210
0.0
220
0.0
230
1.0
 70
    24
 71
     3
 72
     9
 73
     5
 74
     0
 42
0.0000000001
 43
0.0000000001
 40
0.0
 40
0.0
 40
0.0
 40
0.0
 40
0.0716285654436668
 40
0.1432571308873368
 40
0.1432571308873368
 40
0.1432571308873368
 40
0.1432571308873368
 10
-21.72526370607346
 20
28.45817650156246
 30
0.0
 10
-21.7275348255335
 20
28.45743976810278
 30
0.0
 10
-21.73207706445362
 20
28.45596630118328
 30
0.0
 10
-21.73661930337374
 20
28.45449283426379
 30
0.0
 10
-21.73889042283381
 20
28.45375610080404
 30
0.0
  0
SPLINE
  5
179
330
2
100
AcDbEntity
  8
GAIKEI
  6
Continuous
100
AcDbSpline
210
0.0
220
0.0
230
1.0
 70
    24
 71
     3
 72
     9
 73
     5
 74
     0
 42
0.0000000001
 43
0.0000000001
 40
0.0
 40
0.0
 40
0.0
 40
0.0
 40
0.1647700680406615
 40
0.3295401360812876
 40
0.3295401360812876
 40
0.3295401360812876
 40
0.3295401360812876
 10
-21.47701582326266
 20
29.38706620520466
 30
0.0
 10
-21.47483571626521
 20
29.39210734341796
 30
0.0
 10
-21.47047550227026
 20
29.40218961984451
 30
0.0
 10
-21.46611528827538
 20
29.41227189627105
 30
0.0
 10
-21.46393518127795
 20
29.41731303448435
 30
0.0
  0
SPLINE
  5
17A
330
2
100
AcDbEntity
  8
GAIKEI
  6
Continuous
100
AcDbSpline
210
0.0
220
0.0
230
1.0
 70
    24
 71
     3
 72
     9
 73
     5
 74
     0
 42
0.0000000001
 43
0.0000000001
 40
0.0
 40
0.0
 40
0.0
 40
0.0
 40
0.1650447652640032
 40
0.3300895305284162
 40
0.3300895305284162
 40
0.3300895305284162
 40
0.3300895305284162
 10
-21.41250067017538
 20
29.45759119329287
 30
0.0
 10
-21.40707460574907
 20
29.45849917582703
 30
0.0
 10
-21.39622247689647
 20
29.46031514089546
 30
0.0
 10
-21.38537034804386
 20
29.46213110596395
 30
0.0
 10
-21.37994428361759
 20
29.46303908849822
 30
0.0
  0
ELLIPSE
  5
17B
330
2
100
AcDbEntity
  8
GAIKEI
  6
Continuous
100
AcDbEllipse
 10
-2.167367581848651
 20
26.50861006358198
 30
0.0
 11
-12.72796228159023
 21
12.72796228159023
 31
0.0
210
0.0
220
0.0
230
1.0
 40
0.9999999999997642
 41
3.58581066537886
 42
3.715867884260042
  0
ELLIPSE
  5
17C
330
2
100
AcDbEntity
  8
GAIKEI
  6
Continuous
100
AcDbEllipse
 10
31.75771559703543
 20
14.46299168849819
 30
0.0
 11
12.72796228159198
 21
12.72796228159198
 31
0.0
210
0.0
220
0.0
230
1.0
 40
0.9999999999999861
 41
2.01501433858385
 42
2.144619530434053
  0
ELLIPSE
  5
17D
330
2
100
AcDbEntity
  8
GAIKEI
  6
Continuous
100
AcDbEllipse
 10
21.98067084263152
 20
16.56299832449824
 30
0.0
 11
5.656872125153435
 21
5.656872125153434
 31
0.0
210
0.0
220
0.0
230
1.0
 40
0.999999999999887
 41
2.144619530434007
 42
2.306173633386499
  0
ELLIPSE
  5
17E
330
2
100
AcDbEntity
  8
GAIKEI
  6
Continuous
100
AcDbEllipse
 10
7.610625433431636
 20
24.41302313049821
 30
0.0
 11
-5.656872125151578
 21
5.65687212515158
 31
0.0
210
0.0
220
0.0
230
1.0
 40
0.9999999999999875
 41
3.71586788425994
 42
3.926990816987265
  0
ELLIPSE
  5
17F
330
2
100
AcDbEntity
  8
GAIKEI
  6
Continuous
100
AcDbEllipse
 10
45.38870692871188
 20
26.50861006358198
 30
0.0
 11
12.72796228159022
 21
12.72796228159022
 31
0.0
210
0.0
220
0.0
230
1.0
 40
0.9999999999997697
 41
2.567317422919579
 42
2.697374641800762
  0
ELLIPSE
  5
180
330
2
100
AcDbEntity
  8
GAIKEI
  6
Continuous
100
AcDbEllipse
 10
11.46362374981783
 20
14.46299168849819
 30
0.0
 11
12.72796228159094
 21
12.72796228159093
 31
0.0
210
0.0
220
0.0
230
1.0
 40
0.9999999999998866
 41
5.709362103540372
 42
5.838967295390583
  0
ELLIPSE
  5
181
330
2
100
AcDbEntity
  8
GAIKEI
  6
Continuous
100
AcDbEllipse
 10
21.24066850423162
 20
16.56299832449824
 30
0.0
 11
-5.656872125152195
 21
5.656872125152196
 31
0.0
210
0.0
220
0.0
230
1.0
 40
0.999999999999966
 41
3.977011673793048
 42
4.138565776745542
  0
ELLIPSE
  5
182
330
2
100
AcDbEntity
  8
GAIKEI
  6
Continuous
100
AcDbEllipse
 10
35.61071391343165
 20
24.41302313049821
 30
0.0
 11
5.656872125151043
 21
5.656872125151043
 31
0.0
210
0.0
220
0.0
230
1.0
 40
0.9999999999999282
 41
2.356194490192326
 42
2.567317422919651
  0
ELLIPSE
  5
183
330
2
100
AcDbEntity
  8
GAIKEI
  6
Continuous
100
AcDbEllipse
 10
14.0793165934611
 20
15.33220769507201
 30
0.0
 11
-0.0494976310950848
 21
0.0494976310950848
 31
0.0
210
0.0
220
0.0
230
1.0
 40
0.9999999999996404
 41
0.812783798094593
 42
2.001488925675452
  0
ELLIPSE
  5
184
330
2
100
AcDbEntity
  8
GAIKEI
  6
Continuous
100
AcDbEllipse
 10
29.14202275339213
 20
15.33220769507201
 30
0.0
 11
-0.049497631095023
 21
0.049497631095023
 31
0.0
210
0.0
220
0.0
230
1.0
 40
0.9999999999990025
 41
2.710900054710589
 42
3.899605182290819
  0
ELLIPSE
  5
185
330
2
100
AcDbEntity
  8
GAIKEI
  6
Continuous
 62
     1
100
AcDbEllipse
 10
21.61066967343163
 20
14.41299686124066
 30
0.0
 11
4.030521389170678
 21
4.030521389170678
 31
0.0
210
0.0
220
0.0
230
1.0
 40
0.999999999999995
 41
3.472954477474718
 42
4.381027156499765
  0
ELLIPSE
  5
186
330
2
100
AcDbEntity
  8
GAIKEI
  6
Continuous
 62
     1
100
AcDbEllipse
 10
21.61066967343163
 20
15.51300033724064
 30
0.0
 11
4.808341306379119
 21
4.808341306379119
 31
0.0
210
0.0
220
0.0
230
1.0
 40
0.9999999999999847
 41
2.634441312926653
 42
3.518644826391934
  0
ELLIPSE
  5
187
330
2
100
AcDbEntity
  8
GAIKEI
  6
Continuous
 62
     1
100
AcDbEllipse
 10
21.61066967343163
 20
15.51300033724064
 30
0.0
 11
4.808341306379119
 21
4.808341306379117
 31
0.0
210
0.0
220
0.0
230
1.0
 40
0.9999999999999955
 41
4.335336807582548
 42
5.21954032104782
  0
ELLIPSE
  5
188
330
2
100
AcDbEntity
  8
GAIKEI
  6
Continuous
100
AcDbEllipse
 10
-28.32818414658613
 20
16.56299832449824
 30
0.0
 11
5.656872125151932
 21
5.65687212515193
 31
0.0
210
0.0
220
0.0
230
1.0
 40
0.9999999999999932
 41
5.547808000587925
 42
5.709362103540421
  0
ELLIPSE
  5
189
330
2
100
AcDbEntity
  8
GAIKEI
  6
Continuous
100
AcDbEllipse
 10
-27.58818180818617
 20
16.56299832449824
 30
0.0
 11
5.656872125152755
 21
5.656872125152755
 31
0.0
210
0.0
220
0.0
230
1.0
 40
0.9999999999999308
 41
2.144619530434027
 42
2.30617363338652
  0
ELLIPSE
  5
18A
330
2
100
AcDbEntity
  8
GAIKEI
  6
Continuous
100
AcDbEllipse
 10
-20.42682989742562
 20
15.33220769507201
 30
0.0
 11
-0.0494976310950069
 21
0.0494976310950069
 31
0.0
210
0.0
220
0.0
230
1.0
 40
0.9999999999998191
 41
2.710900054707487
 42
3.89960518229037
  0
ELLIPSE
  5
18B
330
2
100
AcDbEntity
  8
GAIKEI
  6
Continuous
100
AcDbEllipse
 10
-35.4895360573467
 20
15.33220769507201
 30
0.0
 11
-0.0494976310950947
 21
0.0494976310950947
 31
0.0
210
0.0
220
0.0
230
1.0
 40
0.9999999999993832
 41
0.8127837980947214
 42
2.001488925675022
  0
ELLIPSE
  5
18C
330
2
100
AcDbEntity
  8
GAIKEI
  6
Continuous
 62
     1
100
AcDbEllipse
 10
-27.95818297738617
 20
14.41299686124066
 30
0.0
 11
4.030521389170719
 21
4.030521389170719
 31
0.0
210
0.0
220
0.0
230
1.0
 40
1.0
 41
3.472954477474724
 42
4.381027156499757
  0
ELLIPSE
  5
18D
330
2
100
AcDbEntity
  8
GAIKEI
  6
Continuous
 62
     1
100
AcDbEllipse
 10
-27.95818297738617
 20
15.51300033724064
 30
0.0
 11
4.808341306379108
 21
4.808341306379108
 31
0.0
210
0.0
220
0.0
230
1.0
 40
0.999999999999995
 41
2.634441312926657
 42
3.518644826391934
  0
ELLIPSE
  5
18E
330
2
100
AcDbEntity
  8
GAIKEI
  6
Continuous
 62
     1
100
AcDbEllipse
 10
-27.95818297738617
 20
15.51300033724064
 30
0.0
 11
-4.808341306379109
 21
4.80834130637911
 31
0.0
210
0.0
220
0.0
230
1.0
 40
0.9999999999999944
 41
2.764540480787651
 42
3.648743994252927
  0
ELLIPSE
  5
18F
330
2
100
AcDbEntity
  8
GAIKEI
  6
Continuous
100
AcDbEllipse
 10
-13.95813873738615
 20
24.41302313049821
 30
0.0
 11
-5.656872125152349
 21
5.656872125152349
 31
0.0
210
0.0
220
0.0
230
1.0
 40
0.9999999999999651
 41
0.785398163397483
 42
0.996521096124804
  0
ELLIPSE
  5
190
330
2
100
AcDbEntity
  8
GAIKEI
  6
Continuous
100
AcDbEllipse
 10
-41.95822721738617
 20
24.41302313049821
 30
0.0
 11
-5.656872125151578
 21
5.65687212515158
 31
0.0
210
0.0
220
0.0
230
1.0
 40
0.9999999999999875
 41
3.71586788425994
 42
3.926990816987265
  0
ELLIPSE
  5
191
330
2
100
AcDbEntity
  8
GAIKEI
  6
Continuous
100
AcDbEllipse
 10
-4.180145722105891
 20
26.50861006358198
 30
0.0
 11
-12.72796228159273
 21
12.72796228159273
 31
0.0
210
0.0
220
0.0
230
1.0
 40
0.9999999999999426
 41
0.9965210961248143
 42
1.126578315005977
  0
ELLIPSE
  5
192
330
2
100
AcDbEntity
  8
GAIKEI
  6
Continuous
100
AcDbEllipse
 10
-38.10522890099995
 20
14.46299168849819
 30
0.0
 11
12.72796228159085
 21
12.72796228159085
 31
0.0
210
0.0
220
0.0
230
1.0
 40
0.9999999999998882
 41
5.709362103540373
 42
5.838967295390584
  0
ELLIPSE
  5
193
330
2
100
AcDbEntity
  8
GAIKEI
  6
Continuous
100
AcDbEllipse
 10
-51.73622023266645
 20
26.50861006358198
 30
0.0
 11
-12.72796228159116
 21
12.72796228159116
 31
0.0
210
0.0
220
0.0
230
1.0
 40
0.9999999999999468
 41
3.585810665378789
 42
3.715867884259959
  0
ELLIPSE
  5
194
330
2
100
AcDbEntity
  8
GAIKEI
  6
Continuous
100
AcDbEllipse
 10
-17.81113705378237
 20
14.46299168849819
 30
0.0
 11
-12.7279622815909
 21
12.7279622815909
 31
0.0
210
0.0
220
0.0
230
1.0
 40
0.9999999999998912
 41
0.4442180117890007
 42
0.5738232036392122
  0
LINE
  5
195
330
2
100
AcDbEntity
  8
GAIKEI
  6
Continuous
 62
     1
100
AcDbLine
 10
14.05281917918674
 20
15.29720758447215
 30
0.0
 11
29.16852016767652
 21
15.29720758447215
 31
0.0
  0
LINE
  5
196
330
2
100
AcDbEntity
  8
GAIKEI
  6
Continuous
100
AcDbLine
 10
29.33569408443162
 20
16.7129987984982
 30
0.0
 11
29.28569392643164
 21
16.56299832449824
 31
0.0
  0
LINE
  5
197
330
2
100
AcDbEntity
  8
GAIKEI
  6
Continuous
100
AcDbLine
 10
29.24069378423161
 20
16.56299832449824
 30
0.0
 11
29.2119967270892
 21
15.33029093419517
 31
0.0
  0
LINE
  5
198
330
2
100
AcDbEntity
  8
GAIKEI
  6
Continuous
100
AcDbLine
 10
28.87861332477098
 20
15.18299396369824
 30
0.0
 11
28.86569259923161
 21
14.81299279449823
 31
0.0
  0
LINE
  5
199
330
2
100
AcDbEntity
  8
GAIKEI
  6
Continuous
100
AcDbLine
 10
29.23506678751039
 20
16.86299927249823
 30
0.0
 11
29.23068749478185
 21
16.9629995884982
 31
0.0
  0
LINE
  5
19A
330
2
100
AcDbEntity
  8
GAIKEI
  6
Continuous
100
AcDbLine
 10
29.28569392643164
 20
16.86299927249823
 30
0.0
 11
29.33569408443162
 21
16.7129987984982
 31
0.0
  0
LINE
  5
19B
330
2
100
AcDbEntity
  8
GAIKEI
  6
Continuous
100
AcDbLine
 10
29.16633482937806
 20
15.26656507227213
 30
0.0
 11
28.9524582774003
 21
15.1873515344981
 31
0.0
  0
LINE
  5
19C
330
2
100
AcDbEntity
  8
GAIKEI
  6
Continuous
100
AcDbLine
 10
27.64441357221688
 20
28.45303589689823
 30
0.0
 11
27.61052084766652
 21
24.41302313049826
 31
0.0
  0
LINE
  5
19D
330
2
100
AcDbEntity
  8
GAIKEI
  6
Continuous
100
AcDbLine
 10
27.61068799079959
 20
24.41302313049826
 30
0.0
 11
15.61065135605366
 21
24.41302313049826
 31
0.0
  0
LINE
  5
19E
330
2
100
AcDbEntity
  8
GAIKEI
  6
Continuous
 62
     1
100
AcDbLine
 10
29.28569319744932
 20
16.86299927249823
 30
0.0
 11
13.93564614940393
 21
16.86299927249823
 31
0.0
  0
LINE
  5
19F
330
2
100
AcDbEntity
  8
GAIKEI
  6
Continuous
 62
     1
100
AcDbLine
 10
13.88564526243164
 20
16.7129987984982
 30
0.0
 11
29.33569408443162
 21
16.7129987984982
 31
0.0
  0
LINE
  5
1A0
330
2
100
AcDbEntity
  8
GAIKEI
  6
Continuous
 62
     1
100
AcDbLine
 10
29.28569319744932
 20
16.56299832449824
 30
0.0
 11
13.93564614940393
 21
16.56299832449824
 31
0.0
  0
LINE
  5
1A1
330
2
100
AcDbEntity
  8
GAIKEI
  6
PHANTOM
 62
     1
100
AcDbLine
 10
14.3556493408397
 20
14.81299279449823
 30
0.0
 11
28.86569000601341
 21
14.81299279449823
 31
0.0
  0
LINE
  5
1A3
330
2
100
AcDbEntity
  8
GAIKEI
  6
Continuous
100
AcDbLine
 10
14.26888106945296
 20
15.1873515344981
 30
0.0
 11
14.29319307095864
 21
15.18299396369824
 31
0.0
  0
LINE
  5
1A4
330
2
100
AcDbEntity
  8
GAIKEI
  6
Continuous
100
AcDbLine
 10
28.9524582774003
 20
15.1873515344981
 30
0.0
 11
28.92814627589462
 21
15.18299396369824
 31
0.0
  0
LINE
  5
1A5
330
2
100
AcDbEntity
  8
GAIKEI
  6
Continuous
100
AcDbLine
 10
15.57692577464647
 20
28.45303589689823
 30
0.0
 11
15.61081849919674
 21
24.41302313049826
 31
0.0
  0
LINE
  5
1A6
330
2
100
AcDbEntity
  8
GAIKEI
  6
Continuous
100
AcDbLine
 10
14.05500451747508
 20
15.26656507227213
 30
0.0
 11
14.26888106945296
 21
15.1873515344981
 31
0.0
  0
LINE
  5
1A7
330
2
100
AcDbEntity
  8
GAIKEI
  6
Continuous
100
AcDbLine
 10
13.93564542043163
 20
16.86299927249823
 30
0.0
 11
13.88564526243164
 21
16.7129987984982
 31
0.0
  0
LINE
  5
1A8
330
2
100
AcDbEntity
  8
GAIKEI
  6
Continuous
100
AcDbLine
 10
13.88564526243164
 20
16.7129987984982
 30
0.0
 11
13.93564542043163
 21
16.56299832449824
 31
0.0
  0
LINE
  5
1A9
330
2
100
AcDbEntity
  8
GAIKEI
  6
Continuous
100
AcDbLine
 10
13.98627255934286
 20
16.86299927249823
 30
0.0
 11
13.99065185207138
 21
16.9629995884982
 31
0.0
  0
LINE
  5
1AA
330
2
100
AcDbEntity
  8
GAIKEI
  6
Continuous
100
AcDbLine
 10
13.98064556263153
 20
16.56299832449824
 30
0.0
 11
14.00934261976405
 21
15.33029093419517
 31
0.0
  0
LINE
  5
1AB
330
2
100
AcDbEntity
  8
GAIKEI
  6
Continuous
100
AcDbLine
 10
14.34272298305265
 20
15.18308099031324
 30
0.0
 11
14.35564674763151
 21
14.81299279449823
 31
0.0
  0
LINE
  5
1AC
330
2
100
AcDbEntity
  8
GAIKEI
  6
Continuous
 62
     1
100
AcDbLine
 10
28.16069037143163
 20
13.72763758838223
 30
0.0
 11
28.14915187343007
 21
13.64523623074464
 31
0.0
  0
LINE
  5
1AD
330
2
100
AcDbEntity
  8
GAIKEI
  6
Continuous
 62
     1
100
AcDbLine
 10
28.16069037143163
 20
15.18299396369824
 30
0.0
 11
28.16069037143163
 21
13.72763758838223
 31
0.0
  0
LINE
  5
1AE
330
2
100
AcDbEntity
  8
GAIKEI
  6
Continuous
 62
     1
100
AcDbLine
 10
24.16067773143164
 20
15.01299875724069
 30
0.0
 11
24.16067773143164
 21
14.71299780924065
 31
0.0
  0
LINE
  5
1AF
330
2
100
AcDbEntity
  8
GAIKEI
  6
Continuous
 62
     1
100
AcDbLine
 10
24.11067757343165
 20
9.290481284196317
 30
0.0
 11
24.11067757343165
 21
14.71299780924065
 31
0.0
  0
LINE
  5
1B0
330
2
100
AcDbEntity
  8
GAIKEI
  6
Continuous
 62
     1
100
AcDbLine
 10
20.11066493343162
 20
14.91299844124066
 30
0.0
 11
20.11066493343162
 21
15.01299875724069
 31
0.0
  0
LINE
  5
1B1
330
2
100
AcDbEntity
  8
GAIKEI
  6
Continuous
 62
     1
100
AcDbLine
 10
19.06066161543163
 20
15.01299875724069
 30
0.0
 11
20.11066493343162
 21
15.01299875724069
 31
0.0
  0
LINE
  5
1B2
330
2
100
AcDbEntity
  8
GAIKEI
  6
Continuous
 62
     1
100
AcDbLine
 10
23.11067441343164
 20
15.01299875724069
 30
0.0
 11
24.16067773143164
 21
15.01299875724069
 31
0.0
  0
LINE
  5
1B3
330
2
100
AcDbEntity
  8
GAIKEI
  6
Continuous
 62
     1
100
AcDbLine
 10
23.11067441343164
 20
14.91299844124066
 30
0.0
 11
20.11066493343162
 21
14.91299844124066
 31
0.0
  0
LINE
  5
1B4
330
2
100
AcDbEntity
  8
GAIKEI
  6
Continuous
 62
     1
100
AcDbLine
 10
19.06066161543163
 20
14.71299780924065
 30
0.0
 11
24.16067773143164
 21
14.71299780924065
 31
0.0
  0
LINE
  5
1B5
330
2
100
AcDbEntity
  8
GAIKEI
  6
Continuous
 62
     1
100
AcDbLine
 10
19.11066177343161
 20
14.71299780924065
 30
0.0
 11
19.11066177343161
 21
9.29048128419626
 31
0.0
  0
LINE
  5
1B6
330
2
100
AcDbEntity
  8
GAIKEI
  6
Continuous
 62
     1
100
AcDbLine
 10
19.06066161543163
 20
15.01299875724069
 30
0.0
 11
19.06066161543163
 21
14.71299780924065
 31
0.0
  0
LINE
  5
1B7
330
2
100
AcDbEntity
  8
GAIKEI
  6
Continuous
 62
     1
100
AcDbLine
 10
19.09132736704509
 20
13.98054625110094
 30
0.0
 11
19.0699463488512
 21
12.8978221434937
 31
0.0
  0
LINE
  5
1B8
330
2
100
AcDbEntity
  8
GAIKEI
  6
Continuous
 62
     1
100
AcDbLine
 10
15.06064897543163
 20
15.18299396369824
 30
0.0
 11
15.06064897543163
 21
13.72763758838223
 31
0.0
  0
LINE
  5
1B9
330
2
100
AcDbEntity
  8
GAIKEI
  6
Continuous
 62
     1
100
AcDbLine
 10
15.06064897543163
 20
13.72763758838223
 30
0.0
 11
15.07218747343313
 21
13.64523623074464
 31
0.0
  0
LINE
  5
1BA
330
2
100
AcDbEntity
  8
GAIKEI
  6
Continuous
 62
     1
100
AcDbLine
 10
23.11067441343164
 20
15.18299396369824
 30
0.0
 11
23.11067441343164
 21
15.01299875724069
 31
0.0
  0
LINE
  5
1BB
330
2
100
AcDbEntity
  8
GAIKEI
  6
Continuous
 62
     1
100
AcDbLine
 10
14.2932113862565
 20
15.18299396369824
 30
0.0
 11
28.92812796059676
 21
15.18299396369824
 31
0.0
  0
LINE
  5
1BC
330
2
100
AcDbEntity
  8
GAIKEI
  6
Continuous
 62
     1
100
AcDbLine
 10
20.11066493343162
 20
15.01299875724069
 30
0.0
 11
20.11066493343162
 21
15.18299396369824
 31
0.0
  0
LINE
  5
1BD
330
2
100
AcDbEntity
  8
GAIKEI
  6
Continuous
 62
     1
100
AcDbLine
 10
19.06066161543163
 20
14.71299780924065
 30
0.0
 11
19.06066161543163
 21
11.94087482946972
 31
0.0
  0
LINE
  5
1BE
330
2
100
AcDbEntity
  8
GAIKEI
  6
Continuous
 62
     1
100
AcDbLine
 10
24.16067773143164
 20
14.71299780924065
 30
0.0
 11
24.16067773143164
 21
11.94087482946972
 31
0.0
  0
LINE
  5
1BF
330
2
100
AcDbEntity
  8
GAIKEI
  6
Continuous
 62
     1
100
AcDbLine
 10
23.11067441343164
 20
15.01299875724069
 30
0.0
 11
23.11067441343164
 21
14.91299844124066
 31
0.0
  0
LINE
  5
1C0
330
2
100
AcDbEntity
  8
GAIKEI
  6
Continuous
 62
     1
100
AcDbLine
 10
-35.55015802717648
 20
15.29720758447215
 30
0.0
 11
-20.36620792759592
 21
15.29720758447215
 31
0.0
  0
LINE
  5
1C1
330
2
100
AcDbEntity
  8
GAIKEI
  6
Continuous
100
AcDbLine
 10
-20.23315856638615
 20
16.7129987984982
 30
0.0
 11
-20.28315872438617
 21
16.56299832449824
 31
0.0
  0
LINE
  5
1C2
330
2
100
AcDbEntity
  8
GAIKEI
  6
Continuous
100
AcDbLine
 10
-20.32815886658617
 20
16.56299832449824
 30
0.0
 11
-20.35685592372869
 21
15.33029093419517
 31
0.0
  0
LINE
  5
1C3
330
2
100
AcDbEntity
  8
GAIKEI
  6
Continuous
100
AcDbLine
 10
-20.69023932604679
 20
15.18299396369824
 30
0.0
 11
-20.70316005158617
 21
14.81299279449823
 31
0.0
  0
LINE
  5
1C4
330
2
100
AcDbEntity
  8
GAIKEI
  6
Continuous
100
AcDbLine
 10
-20.33378586329741
 20
16.86299927249823
 30
0.0
 11
-20.33816515603596
 21
16.9629995884982
 31
0.0
  0
LINE
  5
1C5
330
2
100
AcDbEntity
  8
GAIKEI
  6
Continuous
100
AcDbLine
 10
-20.28315872438617
 20
16.86299927249823
 30
0.0
 11
-20.23315856638615
 21
16.7129987984982
 31
0.0
  0
LINE
  5
1C6
330
2
100
AcDbEntity
  8
GAIKEI
  6
Continuous
100
AcDbLine
 10
-20.40251782143969
 20
15.26656507227213
 30
0.0
 11
-20.61639437341751
 21
15.1873515344981
 31
0.0
  0
LINE
  5
1C7
330
2
100
AcDbEntity
  8
GAIKEI
  6
Continuous
 62
     1
100
AcDbLine
 10
-20.28315945336857
 20
16.86299927249823
 30
0.0
 11
-35.63320650141384
 21
16.86299927249823
 31
0.0
  0
LINE
  5
1C8
330
2
100
AcDbEntity
  8
GAIKEI
  6
Continuous
 62
     1
100
AcDbLine
 10
-35.68320738838617
 20
16.7129987984982
 30
0.0
 11
-20.23315856638615
 21
16.7129987984982
 31
0.0
  0
LINE
  5
1C9
330
2
100
AcDbEntity
  8
GAIKEI
  6
Continuous
 62
     1
100
AcDbLine
 10
-20.28315945336857
 20
16.56299832449824
 30
0.0
 11
-35.63320650141384
 21
16.56299832449824
 31
0.0
  0
LINE
  5
1CA
330
2
100
AcDbEntity
  8
GAIKEI
  6
PHANTOM
 62
     1
100
AcDbLine
 10
-35.21320330997796
 20
14.81299279449823
 30
0.0
 11
-20.70316264480434
 21
14.81299279449823
 31
0.0
  0
LINE
  5
1CB
330
2
100
AcDbEntity
  8
GAIKEI
  6
Continuous
100
AcDbLine
 10
-35.29997158135484
 20
15.1873515344981
 30
0.0
 11
-35.27565957985917
 21
15.18299396369824
 31
0.0
  0
LINE
  5
1CC
330
2
100
AcDbEntity
  8
GAIKEI
  6
Continuous
100
AcDbLine
 10
-20.61639437341751
 20
15.1873515344981
 30
0.0
 11
-20.64070637492315
 21
15.18299396369824
 31
0.0
  0
LINE
  5
1CD
330
2
100
AcDbEntity
  8
GAIKEI
  6
Continuous
100
AcDbLine
 10
-35.51384813334261
 20
15.26656507227213
 30
0.0
 11
-35.29997158135484
 21
15.1873515344981
 31
0.0
  0
LINE
  5
1CE
330
2
100
AcDbEntity
  8
GAIKEI
  6
Continuous
100
AcDbLine
 10
-35.63320723038618
 20
16.86299927249823
 30
0.0
 11
-35.68320738838617
 21
16.7129987984982
 31
0.0
  0
LINE
  5
1CF
330
2
100
AcDbEntity
  8
GAIKEI
  6
Continuous
100
AcDbLine
 10
-35.68320738838617
 20
16.7129987984982
 30
0.0
 11
-35.63320723038618
 21
16.56299832449824
 31
0.0
  0
LINE
  5
1D0
330
2
100
AcDbEntity
  8
GAIKEI
  6
Continuous
100
AcDbLine
 10
-35.58258009147491
 20
16.86299927249823
 30
0.0
 11
-35.57820079874637
 21
16.9629995884982
 31
0.0
  0
LINE
  5
1D1
330
2
100
AcDbEntity
  8
GAIKEI
  6
Continuous
100
AcDbLine
 10
-35.58820708818615
 20
16.56299832449824
 30
0.0
 11
-35.55951003105375
 21
15.33029093419517
 31
0.0
  0
LINE
  5
1D2
330
2
100
AcDbEntity
  8
GAIKEI
  6
Continuous
100
AcDbLine
 10
-35.22612966776512
 20
15.18308099031324
 30
0.0
 11
-35.21320590318615
 21
14.81299279449823
 31
0.0
  0
LINE
  5
1D3
330
2
100
AcDbEntity
  8
GAIKEI
  6
Continuous
 62
     1
100
AcDbLine
 10
-21.40816227938615
 20
15.18299396369824
 30
0.0
 11
-21.40816227938615
 21
13.72763758838223
 31
0.0
  0
LINE
  5
1D4
330
2
100
AcDbEntity
  8
GAIKEI
  6
Continuous
 62
     1
100
AcDbLine
 10
-21.40816227938615
 20
13.72763758838223
 30
0.0
 11
-21.41970077738782
 21
13.64523623074464
 31
0.0
  0
LINE
  5
1D5
330
2
100
AcDbEntity
  8
GAIKEI
  6
Continuous
 62
     1
100
AcDbLine
 10
-25.40817491938617
 20
15.01299875724069
 30
0.0
 11
-25.40817491938617
 21
14.71299780924065
 31
0.0
  0
LINE
  5
1D6
330
2
100
AcDbEntity
  8
GAIKEI
  6
Continuous
 62
     1
100
AcDbLine
 10
-25.45817507738616
 20
9.290481284196204
 30
0.0
 11
-25.45817507738616
 21
14.71299780924065
 31
0.0
  0
LINE
  5
1D7
330
2
100
AcDbEntity
  8
GAIKEI
  6
Continuous
 62
     1
100
AcDbLine
 10
-26.45817823738616
 20
15.18299396369824
 30
0.0
 11
-26.45817823738616
 21
15.01299875724069
 31
0.0
  0
LINE
  5
1D8
330
2
100
AcDbEntity
  8
GAIKEI
  6
Continuous
 62
     1
100
AcDbLine
 10
-29.45818771738615
 20
14.91299844124066
 30
0.0
 11
-29.45818771738615
 21
15.01299875724069
 31
0.0
  0
LINE
  5
1D9
330
2
100
AcDbEntity
  8
GAIKEI
  6
Continuous
 62
     1
100
AcDbLine
 10
-30.45819087738616
 20
14.71299780924065
 30
0.0
 11
-30.45819087738616
 21
9.290481284196204
 31
0.0
  0
LINE
  5
1DA
330
2
100
AcDbEntity
  8
GAIKEI
  6
Continuous
 62
     1
100
AcDbLine
 10
-30.50819103538618
 20
15.01299875724069
 30
0.0
 11
-30.50819103538618
 21
14.71299780924065
 31
0.0
  0
LINE
  5
1DB
330
2
100
AcDbEntity
  8
GAIKEI
  6
Continuous
 62
     1
100
AcDbLine
 10
-30.50819103538618
 20
15.01299875724069
 30
0.0
 11
-29.45818771738615
 21
15.01299875724069
 31
0.0
  0
LINE
  5
1DC
330
2
100
AcDbEntity
  8
GAIKEI
  6
Continuous
 62
     1
100
AcDbLine
 10
-26.45817823738616
 20
15.01299875724069
 30
0.0
 11
-25.40817491938617
 21
15.01299875724069
 31
0.0
  0
LINE
  5
1DD
330
2
100
AcDbEntity
  8
GAIKEI
  6
Continuous
 62
     1
100
AcDbLine
 10
-26.45817823738616
 20
14.91299844124066
 30
0.0
 11
-29.45818771738615
 21
14.91299844124066
 31
0.0
  0
LINE
  5
1DE
330
2
100
AcDbEntity
  8
GAIKEI
  6
Continuous
 62
     1
100
AcDbLine
 10
-30.50819103538618
 20
14.71299780924065
 30
0.0
 11
-25.40817491938617
 21
14.71299780924065
 31
0.0
  0
LINE
  5
1DF
330
2
100
AcDbEntity
  8
GAIKEI
  6
Continuous
 62
     1
100
AcDbLine
 10
-34.50820367538614
 20
15.18299396369824
 30
0.0
 11
-34.50820367538614
 21
13.72763758838223
 31
0.0
  0
LINE
  5
1E0
330
2
100
AcDbEntity
  8
GAIKEI
  6
Continuous
 62
     1
100
AcDbLine
 10
-34.50820367538614
 20
13.72763758838223
 30
0.0
 11
-34.49666517739462
 21
13.64523623074464
 31
0.0
  0
LINE
  5
1E1
330
2
100
AcDbEntity
  8
GAIKEI
  6
Continuous
 62
     1
100
AcDbLine
 10
-29.45818771738615
 20
15.01299875724069
 30
0.0
 11
-29.45818771738615
 21
15.18299396369824
 31
0.0
  0
LINE
  5
1E2
330
2
100
AcDbEntity
  8
GAIKEI
  6
Continuous
 62
     1
100
AcDbLine
 10
-35.27564126456127
 20
15.18299396369824
 30
0.0
 11
-20.64072469022105
 21
15.18299396369824
 31
0.0
  0
LINE
  5
1E3
330
2
100
AcDbEntity
  8
GAIKEI
  6
Continuous
 62
     1
100
AcDbLine
 10
-26.45817823738616
 20
15.01299875724069
 30
0.0
 11
-26.45817823738616
 21
14.91299844124066
 31
0.0
  0
LINE
  5
1E4
330
2
100
AcDbEntity
  8
GAIKEI
  6
Continuous
 62
     1
100
AcDbLine
 10
-25.40817491938617
 20
14.71299780924065
 30
0.0
 11
-25.40817491938617
 21
11.94087482946972
 31
0.0
  0
LINE
  5
1E5
330
2
100
AcDbEntity
  8
GAIKEI
  6
Continuous
 62
     1
100
AcDbLine
 10
-30.50819103538618
 20
14.71299780924065
 30
0.0
 11
-30.50819103538618
 21
11.94087482946972
 31
0.0
  0
LINE
  5
1E6
330
2
100
AcDbEntity
  8
GAIKEI
  6
Continuous
100
AcDbLine
 10
-18.45818585228011
 20
30.96304382849823
 30
0.0
 11
-18.49659895365514
 21
29.86304035249825
 31
0.0
  0
LINE
  5
1E7
330
2
100
AcDbEntity
  8
GAIKEI
  6
Continuous
100
AcDbLine
 10
-37.41976700110721
 20
29.86304035249825
 30
0.0
 11
-37.36802061748913
 21
29.80454436675151
 31
0.0
  0
LINE
  5
1E8
330
2
100
AcDbEntity
  8
GAIKEI
  6
Continuous
100
AcDbLine
 10
-18.49659895365514
 20
29.86304035249825
 30
0.0
 11
-18.54834533727316
 21
29.80454436675151
 31
0.0
  0
LINE
  5
1E9
330
2
100
AcDbEntity
  8
GAIKEI
  6
Continuous
100
AcDbLine
 10
-21.47701582326266
 20
29.38706620520466
 30
0.0
 11
-21.69881056807185
 21
28.49102233854492
 31
0.0
  0
LINE
  5
1EA
330
2
100
AcDbEntity
  8
GAIKEI
  6
Continuous
100
AcDbLine
 10
-21.73906869112713
 20
28.45303589689823
 30
0.0
 11
-34.17729726363521
 21
28.45303589689823
 31
0.0
  0
LINE
  5
1EB
330
2
100
AcDbEntity
  8
GAIKEI
  6
Continuous
100
AcDbLine
 10
-35.35816413140273
 20
29.46303908849822
 30
0.0
 11
-20.55820182336959
 21
29.46303908849822
 31
0.0
  0
LINE
  5
1EC
330
2
100
AcDbEntity
  8
GAIKEI
  6
Continuous
 62
     1
100
AcDbLine
 10
-18.54834533727316
 20
29.80454436675151
 30
0.0
 11
-37.36802061748913
 21
29.80454436675151
 31
0.0
  0
LINE
  5
1ED
330
2
100
AcDbEntity
  8
GAIKEI
  6
Continuous
100
AcDbLine
 10
-18.45818585228011
 20
30.96304382849823
 30
0.0
 11
-37.4581801024822
 21
30.96304382849823
 31
0.0
  0
LINE
  5
1EE
330
2
100
AcDbEntity
  8
GAIKEI
  6
Continuous
100
AcDbLine
 10
-34.43935013149965
 20
29.38706620520466
 30
0.0
 11
-34.21755538670047
 21
28.49102233854492
 31
0.0
  0
LINE
  5
1EF
330
2
100
AcDbEntity
  8
GAIKEI
  6
Continuous
100
AcDbLine
 10
-37.4581801024822
 20
30.96304382849823
 30
0.0
 11
-37.41976700110721
 21
29.86304035249825
 31
0.0
  0
LINE
  5
1F0
330
2
100
AcDbEntity
  8
GAIKEI
  6
Continuous
100
AcDbLine
 10
-21.9244390786009
 20
28.45303589689823
 30
0.0
 11
-21.95833180315125
 21
24.41302313049826
 31
0.0
  0
LINE
  5
1F1
330
2
100
AcDbEntity
  8
GAIKEI
  6
Continuous
100
AcDbLine
 10
-21.95816466001819
 20
24.41302313049826
 30
0.0
 11
-33.95820129476414
 21
24.41302313049826
 31
0.0
  0
LINE
  5
1F2
330
2
100
AcDbEntity
  8
GAIKEI
  6
Continuous
100
AcDbLine
 10
-33.99192687617142
 20
28.45303589689823
 30
0.0
 11
-33.95803415162106
 21
24.41302313049826
 31
0.0
  0
ENDSEC
  0
SECTION
  2
OBJECTS
  0
DICTIONARY
  5
7
330
0
100
AcDbDictionary
281
     1
  3
ACAD_COLOR
350
2C
  3
ACAD_GROUP
350
28
  3
ACAD_LAYOUT
350
B
  3
ACAD_MATERIAL
350
2B
  3
ACAD_MLINESTYLE
350
29
  3
ACAD_PLOTSETTINGS
350
2A
  3
ACAD_PLOTSTYLENAME
350
6
  3
ACDBHEADERROUNDTRIPXREC
350
23E
  3
AcDbVariableDictionary
350
239
  0
DICTIONARY
  5
11
330
10
100
AcDbDictionary
280
     1
281
     1
  3
ACAD_LAYERSTATES
360
12
  0
DICTIONARY
  5
2C
102
{ACAD_REACTORS
330
7
102
}
330
7
100
AcDbDictionary
281
     1
  0
DICTIONARY
  5
28
102
{ACAD_REACTORS
330
7
102
}
330
7
100
AcDbDictionary
281
     1
  0
DICTIONARY
  5
B
102
{ACAD_REACTORS
330
7
102
}
330
7
100
AcDbDictionary
281
     1
  3
Model
350
A
  3
レイアウト1
350
F
  0
DICTIONARY
  5
2B
102
{ACAD_REACTORS
330
7
102
}
330
7
100
AcDbDictionary
281
     1
  0
DICTIONARY
  5
29
102
{ACAD_REACTORS
330
7
102
}
330
7
100
AcDbDictionary
281
     1
  3
Standard
350
2E
  0
DICTIONARY
  5
2A
102
{ACAD_REACTORS
330
7
102
}
330
7
100
AcDbDictionary
281
     1
  0
ACDBDICTIONARYWDFLT
  5
6
102
{ACAD_REACTORS
330
7
102
}
330
7
100
AcDbDictionary
281
     1
  3
Normal
350
5
100
AcDbDictionaryWithDefault
340
5
  0
DICTIONARY
  5
23E
102
{ACAD_REACTORS
330
7
102
}
330
7
100
AcDbDictionary
281
     1
  3
COLORDICT
350
240
  3
MATERIALDICT
350
23F
  0
DICTIONARY
  5
239
102
{ACAD_REACTORS
330
7
102
}
330
7
100
AcDbDictionary
281
     1
  3
DIMASSOC
350
23B
  3
HIDETEXT
350
23A
  3
PROJECTNAME
350
23C
  0
DICTIONARY
  5
12
102
{ACAD_REACTORS
330
11
102
}
330
11
100
AcDbDictionary
281
     1
  0
LAYOUT
  5
A
102
{ACAD_XDICTIONARY
360
241
102
}
102
{ACAD_REACTORS
330
B
102
}
330
B
100
AcDbPlotSettings
  1

  2
FX78BC34-A4縦.pc3
  4
A4
  6

 40
4.900083065032958
 41
4.900057315826416
 42
4.90008544921875
 43
4.90008544921875
 44
210.0156707763672
 45
297.0106506347656
 46
5.75
 47
0.0
 48
0.0
 49
0.0
140
0.0
141
0.0
142
1.0
143
1.372671634650981
 70
 11956
 72
     1
 73
     0
 74
     1
  7
tmsacad.ctb
 75
     0
147
0.7285063483185201
148
0.0286644328706416
149
0.018569600704268
100
AcDbLayout
  1
Model
 70
     1
 71
     0
 10
0.0
 20
0.0
 11
12.0
 21
9.0
 12
0.0
 22
0.0
 32
0.0
 14
0.0
 24
0.0
 34
0.0
 15
0.0
 25
0.0
 35
0.0
146
0.0
 13
0.0
 23
0.0
 33
0.0
 16
1.0
 26
0.0
 36
0.0
 17
0.0
 27
1.0
 37
0.0
 76
     0
330
2
  0
LAYOUT
  5
F
102
{ACAD_XDICTIONARY
360
243
102
}
102
{ACAD_REACTORS
330
B
102
}
330
B
100
AcDbPlotSettings
  1

  2
None
  4

  6

 40
0.0
 41
0.0
 42
0.0
 43
0.0
 44
0.0
 45
0.0
 46
0.0
 47
0.0
 48
0.0
 49
0.0
140
0.0
141
0.0
142
1.0
143
1.0
 70
   688
 72
     0
 73
     0
 74
     5
  7
tmsacad.ctb
 75
    16
147
1.0
148
0.0
149
0.0
100
AcDbLayout
  1
レイアウト1
 70
     1
 71
     1
 10
0.0
 20
0.0
 11
12.0
 21
9.0
 12
0.0
 22
0.0
 32
0.0
 14
0.0
 24
0.0
 34
0.0
 15
0.0
 25
0.0
 35
0.0
146
0.0
 13
0.0
 23
0.0
 33
0.0
 16
1.0
 26
0.0
 36
0.0
 17
0.0
 27
1.0
 37
0.0
 76
     0
330
C
  0
MLINESTYLE
  5
2E
102
{ACAD_REACTORS
330
29
102
}
330
29
100
AcDbMlineStyle
  2
STANDARD
 70
     0
  3

 62
   256
 51
90.0
 52
90.0
 71
     2
 49
0.5
 62
   256
  6
BYLAYER
 49
-0.5
 62
   256
  6
BYLAYER
  0
ACDBPLACEHOLDER
  5
5
102
{ACAD_REACTORS
330
6
102
}
330
6
  0
XRECORD
  5
240
102
{ACAD_REACTORS
330
23E
102
}
330
23E
100
AcDbXrecord
280
     1
340
2C
  0
XRECORD
  5
23F
102
{ACAD_REACTORS
330
23E
102
}
330
23E
100
AcDbXrecord
280
     1
340
2B
  0
DICTIONARYVAR
  5
23B
102
{ACAD_REACTORS
330
239
102
}
330
239
100
DictionaryVariables
280
     0
  1
1
  0
DICTIONARYVAR
  5
23A
102
{ACAD_REACTORS
330
239
102
}
330
239
100
DictionaryVariables
280
     0
  1
1
  0
DICTIONARYVAR
  5
23C
102
{ACAD_REACTORS
330
239
102
}
330
239
100
DictionaryVariables
280
     0
  1

  0
DICTIONARY
  5
241
330
A
100
AcDbDictionary
280
     1
281
     1
  3
ACAD_XREC_ROUNDTRIP
360
242
  0
DICTIONARY
  5
243
330
F
100
AcDbDictionary
280
     1
281
     1
  3
ACAD_XREC_ROUNDTRIP
360
244
  0
XRECORD
  5
242
102
{ACAD_REACTORS
330
241
102
}
330
241
100
AcDbXrecord
280
     1
102
SHADEPLOT
 70
     0
102
SHADEPLOTRESLEVEL
 70
     2
102
SHADEPLOTCUSTOMDPI
 70
   300
  0
XRECORD
  5
244
102
{ACAD_REACTORS
330
243
102
}
330
243
100
AcDbXrecord
280
     1
102
SHADEPLOT
 70
     0
102
SHADEPLOTRESLEVEL
 70
     2
102
SHADEPLOTCUSTOMDPI
 70
   300
  0
ENDSEC
  0
EOF
