  0
SECTION
  2
HEADER
  9
$ACADVER
  1
AC1015
  9
$ACADMAINTVER
 70
    20
  9
$DWGCODEPAGE
  3
ANSI_932
  9
$INSBASE
 10
0.4999999440410648
 20
372.5008351249344
 30
0.0
  9
$EXTMIN
 10
-67.46429353424378
 20
-57.40507444856348
 30
-0.0015258207003583
  9
$EXTMAX
 10
57.56927545830762
 20
55.61952250522972
 30
0.0000000349246037
  9
$LIMMIN
 10
0.0
 20
0.0
  9
$LIMMAX
 10
420.0
 20
297.0
  9
$ORTHOMODE
 70
     1
  9
$REGENMODE
 70
     0
  9
$FILLMODE
 70
     1
  9
$QTEXTMODE
 70
     0
  9
$MIRRTEXT
 70
     0
  9
$LTSCALE
 40
1.0
  9
$ATTMODE
 70
     1
  9
$TEXTSIZE
 40
2.5
  9
$TRACEWID
 40
1.0
  9
$TEXTSTYLE
  7
Standard
  9
$CLAYER
  8
PANEL
  9
$CELTYPE
  6
ByLayer
  9
$CECOLOR
 62
   256
  9
$CELTSCALE
 40
1.0
  9
$DISPSILH
 70
     0
  9
$DIMSCALE
 40
1.0
  9
$DIMASZ
 40
2.0
  9
$DIMEXO
 40
2.0
  9
$DIMDLI
 40
8.0
  9
$DIMRND
 40
0.0
  9
$DIMDLE
 40
0.0
  9
$DIMEXE
 40
2.0
  9
$DIMTP
 40
0.0
  9
$DIMTM
 40
0.0
  9
$DIMTXT
 40
2.5
  9
$DIMCEN
 40
0.0
  9
$DIMTSZ
 40
0.0
  9
$DIMTOL
 70
     0
  9
$DIMLIM
 70
     0
  9
$DIMTIH
 70
     0
  9
$DIMTOH
 70
     0
  9
$DIMSE1
 70
     0
  9
$DIMSE2
 70
     0
  9
$DIMTAD
 70
     3
  9
$DIMZIN
 70
     0
  9
$DIMBLK
  1

  9
$DIMASO
 70
     1
  9
$DIMSHO
 70
     1
  9
$DIMPOST
  1

  9
$DIMAPOST
  1

  9
$DIMALT
 70
     0
  9
$DIMALTD
 70
     2
  9
$DIMALTF
 40
25.4
  9
$DIMLFAC
 40
1.0
  9
$DIMTOFL
 70
     1
  9
$DIMTVP
 40
0.0
  9
$DIMTIX
 70
     0
  9
$DIMSOXD
 70
     0
  9
$DIMSAH
 70
     1
  9
$DIMBLK1
  1
OPEN30
  9
$DIMBLK2
  1
OPEN30
  9
$DIMSTYLE
  2
STANDARD
  9
$DIMCLRD
 70
     0
  9
$DIMCLRE
 70
     0
  9
$DIMCLRT
 70
     0
  9
$DIMTFAC
 40
1.0
  9
$DIMGAP
 40
0.5
  9
$DIMJUST
 70
     0
  9
$DIMSD1
 70
     0
  9
$DIMSD2
 70
     0
  9
$DIMTOLJ
 70
     1
  9
$DIMTZIN
 70
     0
  9
$DIMALTZ
 70
     0
  9
$DIMALTTZ
 70
     0
  9
$DIMUPT
 70
     0
  9
$DIMDEC
 70
     4
  9
$DIMTDEC
 70
     4
  9
$DIMALTU
 70
     2
  9
$DIMALTTD
 70
     2
  9
$DIMTXSTY
  7
Standard
  9
$DIMAUNIT
 70
     0
  9
$DIMADEC
 70
     0
  9
$DIMALTRND
 40
0.0
  9
$DIMAZIN
 70
     0
  9
$DIMDSEP
 70
    46
  9
$DIMATFIT
 70
     3
  9
$DIMFRAC
 70
     0
  9
$DIMLDRBLK
  1
OPEN30
  9
$DIMLUNIT
 70
     2
  9
$DIMLWD
 70
    -2
  9
$DIMLWE
 70
    -2
  9
$DIMTMOVE
 70
     0
  9
$LUNITS
 70
     2
  9
$LUPREC
 70
     4
  9
$SKETCHINC
 40
1.0
  9
$FILLETRAD
 40
0.2
  9
$AUNITS
 70
     0
  9
$AUPREC
 70
     0
  9
$MENU
  1
.
  9
$ELEVATION
 40
0.0
  9
$PELEVATION
 40
0.0
  9
$THICKNESS
 40
0.0
  9
$LIMCHECK
 70
     0
  9
$CHAMFERA
 40
0.0
  9
$CHAMFERB
 40
0.0
  9
$CHAMFERC
 40
0.0
  9
$CHAMFERD
 40
0.0
  9
$SKPOLY
 70
     0
  9
$TDCREATE
 40
2454349.434269746
  9
$TDUCREATE
 40
2454349.059269746
  9
$TDUPDATE
 40
2454504.407894422
  9
$TDUUPDATE
 40
2454504.032894421
  9
$TDINDWG
 40
0.3230720370
  9
$TDUSRTIMER
 40
0.3230720370
  9
$USRTIMER
 70
     1
  9
$ANGBASE
 50
0.0
  9
$ANGDIR
 70
     0
  9
$PDMODE
 70
     0
  9
$PDSIZE
 40
0.0
  9
$PLINEWID
 40
0.0
  9
$SPLFRAME
 70
     0
  9
$SPLINETYPE
 70
     6
  9
$SPLINESEGS
 70
     8
  9
$HANDSEED
  5
232
  9
$SURFTAB1
 70
     6
  9
$SURFTAB2
 70
     6
  9
$SURFTYPE
 70
     6
  9
$SURFU
 70
     6
  9
$SURFV
 70
     6
  9
$UCSBASE
  2

  9
$UCSNAME
  2

  9
$UCSORG
 10
0.0
 20
0.0
 30
0.0
  9
$UCSXDIR
 10
1.0
 20
0.0
 30
0.0
  9
$UCSYDIR
 10
0.0
 20
1.0
 30
0.0
  9
$UCSORTHOREF
  2

  9
$UCSORTHOVIEW
 70
     0
  9
$UCSORGTOP
 10
0.0
 20
0.0
 30
0.0
  9
$UCSORGBOTTOM
 10
0.0
 20
0.0
 30
0.0
  9
$UCSORGLEFT
 10
0.0
 20
0.0
 30
0.0
  9
$UCSORGRIGHT
 10
0.0
 20
0.0
 30
0.0
  9
$UCSORGFRONT
 10
0.0
 20
0.0
 30
0.0
  9
$UCSORGBACK
 10
0.0
 20
0.0
 30
0.0
  9
$PUCSBASE
  2

  9
$PUCSNAME
  2

  9
$PUCSORG
 10
0.0
 20
0.0
 30
0.0
  9
$PUCSXDIR
 10
1.0
 20
0.0
 30
0.0
  9
$PUCSYDIR
 10
0.0
 20
1.0
 30
0.0
  9
$PUCSORTHOREF
  2

  9
$PUCSORTHOVIEW
 70
     0
  9
$PUCSORGTOP
 10
0.0
 20
0.0
 30
0.0
  9
$PUCSORGBOTTOM
 10
0.0
 20
0.0
 30
0.0
  9
$PUCSORGLEFT
 10
0.0
 20
0.0
 30
0.0
  9
$PUCSORGRIGHT
 10
0.0
 20
0.0
 30
0.0
  9
$PUCSORGFRONT
 10
0.0
 20
0.0
 30
0.0
  9
$PUCSORGBACK
 10
0.0
 20
0.0
 30
0.0
  9
$USERI1
 70
     0
  9
$USERI2
 70
     0
  9
$USERI3
 70
     0
  9
$USERI4
 70
     0
  9
$USERI5
 70
     0
  9
$USERR1
 40
0.0
  9
$USERR2
 40
0.0
  9
$USERR3
 40
0.0
  9
$USERR4
 40
0.0
  9
$USERR5
 40
0.0
  9
$WORLDVIEW
 70
     1
  9
$SHADEDGE
 70
     3
  9
$SHADEDIF
 70
    70
  9
$TILEMODE
 70
     1
  9
$MAXACTVP
 70
    64
  9
$PINSBASE
 10
0.0
 20
0.0
 30
0.0
  9
$PLIMCHECK
 70
     0
  9
$PEXTMIN
 10
0.0
 20
0.0
 30
0.0
  9
$PEXTMAX
 10
0.0
 20
0.0
 30
0.0
  9
$PLIMMIN
 10
0.0
 20
0.0
  9
$PLIMMAX
 10
12.0
 20
9.0
  9
$UNITMODE
 70
     0
  9
$VISRETAIN
 70
     1
  9
$PLINEGEN
 70
     0
  9
$PSLTSCALE
 70
     1
  9
$TREEDEPTH
 70
  3020
  9
$CMLSTYLE
  2
Standard
  9
$CMLJUST
 70
     0
  9
$CMLSCALE
 40
20.0
  9
$PROXYGRAPHICS
 70
     1
  9
$MEASUREMENT
 70
     1
  9
$CELWEIGHT
370
    -1
  9
$ENDCAPS
280
     0
  9
$JOINSTYLE
280
     0
  9
$LWDISPLAY
290
     0
  9
$INSUNITS
 70
     4
  9
$HYPERLINKBASE
  1

  9
$STYLESHEET
  1

  9
$XEDIT
290
     1
  9
$CEPSNTYPE
380
     0
  9
$PSTYLEMODE
290
     1
  9
$FINGERPRINTGUID
  2
{FDEAD578-A652-11D2-9A35-0060089B3A3F}
  9
$VERSIONGUID
  2
{6FECE45B-1DA7-45E4-AF1C-20BC9DE4606C}
  9
$EXTNAMES
290
     1
  9
$PSVPSCALE
 40
0.0
  9
$OLESTARTUP
290
     0
  0
ENDSEC
  0
SECTION
  2
CLASSES
  0
CLASS
  1
ACDBDICTIONARYWDFLT
  2
AcDbDictionaryWithDefault
  3
ObjectDBX Classes
 90
        0
280
     0
281
     0
  0
CLASS
  1
ACDBPLACEHOLDER
  2
AcDbPlaceHolder
  3
ObjectDBX Classes
 90
        0
280
     0
281
     0
  0
CLASS
  1
LAYOUT
  2
AcDbLayout
  3
ObjectDBX Classes
 90
        0
280
     0
281
     0
  0
CLASS
  1
DICTIONARYVAR
  2
AcDbDictionaryVar
  3
ObjectDBX Classes
 90
        0
280
     0
281
     0
  0
ENDSEC
  0
SECTION
  2
TABLES
  0
TABLE
  2
VPORT
  5
1B
330
0
100
AcDbSymbolTable
 70
     3
  0
VPORT
  5
22A
330
1B
100
AcDbSymbolTableRecord
100
AcDbViewportTableRecord
  2
*Active
 70
     0
 10
0.0
 20
0.0
 11
1.0
 21
1.0
 12
-4.947509037968071
 22
-0.8927759716668788
 13
0.0
 23
0.0
 14
10.0
 24
10.0
 15
10.0
 25
10.0
 16
0.0
 26
0.0
 36
1.0
 17
0.0
 27
0.0
 37
0.0
 40
113.9180720285267
 41
1.443271767810026
 42
50.0
 43
0.0
 44
0.0
 50
0.0
 51
0.0
 71
     0
 72
  1000
 73
     1
 74
     2
 75
     0
 76
     0
 77
     0
 78
     0
281
     0
 65
     1
110
0.0
120
0.0
130
0.0
111
1.0
121
0.0
131
0.0
112
0.0
122
1.0
132
0.0
 79
     0
146
0.0
  0
ENDTAB
  0
TABLE
  2
LTYPE
  5
16
330
0
100
AcDbSymbolTable
 70
     1
  0
LTYPE
  5
17
330
16
100
AcDbSymbolTableRecord
100
AcDbLinetypeTableRecord
  2
ByBlock
 70
     0
  3

 72
    65
 73
     0
 40
0.0
  0
LTYPE
  5
18
330
16
100
AcDbSymbolTableRecord
100
AcDbLinetypeTableRecord
  2
ByLayer
 70
     0
  3

 72
    65
 73
     0
 40
0.0
  0
LTYPE
  5
8
330
16
100
AcDbSymbolTableRecord
100
AcDbLinetypeTableRecord
  2
Continuous
 70
     0
  3
Solid line
 72
    65
 73
     0
 40
0.0
  0
ENDTAB
  0
TABLE
  2
LAYER
  5
10
102
{ACAD_XDICTIONARY
360
11
102
}
330
0
100
AcDbSymbolTable
 70
     8
  0
LAYER
  5
4
330
10
100
AcDbSymbolTableRecord
100
AcDbLayerTableRecord
  2
0
 70
     0
 62
     7
  6
Continuous
370
    -3
390
5
  0
LAYER
  5
1D8
330
10
100
AcDbSymbolTableRecord
100
AcDbLayerTableRecord
  2
WAKU
 70
     0
 62
     4
  6
Continuous
370
    -3
390
5
  0
LAYER
  5
30
330
10
100
AcDbSymbolTableRecord
100
AcDbLayerTableRecord
  2
MOJI1
 70
     0
 62
     2
  6
Continuous
370
    -3
390
5
  0
LAYER
  5
32
330
10
100
AcDbSymbolTableRecord
100
AcDbLayerTableRecord
  2
TOUROKU
 70
     0
 62
     1
  6
Continuous
370
    -3
390
5
  0
LAYER
  5
51
330
10
100
AcDbSymbolTableRecord
100
AcDbLayerTableRecord
  2
GAIKEI
 70
     0
 62
     7
  6
Continuous
370
    -3
390
5
  0
LAYER
  5
3F
330
10
100
AcDbSymbolTableRecord
100
AcDbLayerTableRecord
  2
Defpoints
 70
     0
 62
     7
  6
Continuous
290
     0
370
    -3
390
5
  0
LAYER
  5
34
330
10
100
AcDbSymbolTableRecord
100
AcDbLayerTableRecord
  2
SUNPO
 70
     0
 62
     3
  6
Continuous
370
    -3
390
5
  0
LAYER
  5
2D
330
10
100
AcDbSymbolTableRecord
100
AcDbLayerTableRecord
  2
PANEL
 70
     0
 62
     1
  6
Continuous
370
    -3
390
5
  0
ENDTAB
  0
TABLE
  2
STYLE
  5
13
330
0
100
AcDbSymbolTable
 70
     1
  0
STYLE
  5
14
330
13
100
AcDbSymbolTableRecord
100
AcDbTextStyleTableRecord
  2
Standard
 70
     0
 40
0.0
 41
1.0
 50
0.0
 71
     0
 42
2.5
  3
MONOTXT.shx
  4
BIGFONT.shx
  0
ENDTAB
  0
TABLE
  2
VIEW
  5
19
330
0
100
AcDbSymbolTable
 70
     0
  0
ENDTAB
  0
TABLE
  2
UCS
  5
1A
330
0
100
AcDbSymbolTable
 70
     0
  0
ENDTAB
  0
TABLE
  2
APPID
  5
1D
330
0
100
AcDbSymbolTable
 70
     1
  0
APPID
  5
1E
330
1D
100
AcDbSymbolTableRecord
100
AcDbRegAppTableRecord
  2
ACAD
 70
     0
  0
ENDTAB
  0
TABLE
  2
DIMSTYLE
  5
1F
330
0
100
AcDbSymbolTable
 70
     1
100
AcDbDimStyleTable
 71
     1
340
20
  0
DIMSTYLE
105
20
102
{ACAD_REACTORS
330
33
330
43
102
}
330
1F
100
AcDbSymbolTableRecord
100
AcDbDimStyleTableRecord
  2
STANDARD
 70
     0
 40
0.0
 41
2.0
 42
2.0
 43
8.0
 44
2.0
 73
     0
 74
     0
 77
     3
140
3.0
141
0.0
173
     1
279
     2
288
     1
340
14
341
21
343
21
344
21
  0
ENDTAB
  0
TABLE
  2
BLOCK_RECORD
  5
1
330
0
100
AcDbSymbolTable
 70
     5
  0
BLOCK_RECORD
  5
2
330
1
100
AcDbSymbolTableRecord
100
AcDbBlockTableRecord
  2
*Model_Space
340
A
  0
BLOCK_RECORD
  5
C
330
1
100
AcDbSymbolTableRecord
100
AcDbBlockTableRecord
  2
*Paper_Space
340
F
  0
BLOCK_RECORD
  5
21
330
1
100
AcDbSymbolTableRecord
100
AcDbBlockTableRecord
  2
_OPEN30
340
0
102
{BLKREFS
331
3B
331
3C
331
49
331
4A
331
211
331
212
331
21E
331
21F
102
}
  0
BLOCK_RECORD
  5
35
330
1
100
AcDbSymbolTableRecord
100
AcDbBlockTableRecord
  2
*D1
340
0
  0
BLOCK_RECORD
  5
44
330
1
100
AcDbSymbolTableRecord
100
AcDbBlockTableRecord
  2
*D2
340
0
  0
BLOCK_RECORD
  5
20D
330
1
100
AcDbSymbolTableRecord
100
AcDbBlockTableRecord
  2
*D3
340
0
  0
BLOCK_RECORD
  5
219
330
1
100
AcDbSymbolTableRecord
100
AcDbBlockTableRecord
  2
*D4
340
0
  0
ENDTAB
  0
ENDSEC
  0
SECTION
  2
BLOCKS
  0
BLOCK
  5
3
330
2
100
AcDbEntity
  8
0
100
AcDbBlockBegin
  2
*Model_Space
 70
     0
 10
0.0
 20
0.0
 30
0.0
  3
*Model_Space
  1

  0
ENDBLK
  5
9
330
2
100
AcDbEntity
  8
0
100
AcDbBlockEnd
  0
BLOCK
  5
D
330
C
100
AcDbEntity
 67
     1
  8
0
100
AcDbBlockBegin
  2
*Paper_Space
 70
     0
 10
0.0
 20
0.0
 30
0.0
  3
*Paper_Space
  1

  0
ENDBLK
  5
E
330
C
100
AcDbEntity
 67
     1
  8
0
100
AcDbBlockEnd
  0
BLOCK
  5
22
330
21
100
AcDbEntity
  8
0
100
AcDbBlockBegin
  2
_OPEN30
 70
     0
 10
0.0
 20
0.0
 30
0.0
  3
_OPEN30
  1

  0
LINE
  5
23
330
21
100
AcDbEntity
  8
0
  6
ByBlock
 62
     0
100
AcDbLine
 10
-1.0
 20
0.26794919
 30
0.0
 11
0.0
 21
0.0
 31
0.0
  0
LINE
  5
24
330
21
100
AcDbEntity
  8
0
  6
ByBlock
 62
     0
100
AcDbLine
 10
0.0
 20
0.0
 30
0.0
 11
-1.0
 21
-0.26794919
 31
0.0
  0
LINE
  5
25
330
21
100
AcDbEntity
  8
0
  6
ByBlock
 62
     0
100
AcDbLine
 10
0.0
 20
0.0
 30
0.0
 11
-1.0
 21
0.0
 31
0.0
  0
ENDBLK
  5
26
330
21
100
AcDbEntity
  8
0
100
AcDbBlockEnd
  0
BLOCK
  5
36
330
35
100
AcDbEntity
  8
0
100
AcDbBlockBegin
  2
*D1
 70
     1
 10
0.0
 20
0.0
 30
0.0
  3
*D1
  1

  0
LINE
  5
37
330
35
100
AcDbEntity
  8
SUNPO
 62
     0
370
    -2
100
AcDbLine
 10
60.38717640057985
 20
325.1194819009246
 30
0.0
 11
68.38717640057985
 21
325.1194819009246
 31
0.0
  0
LINE
  5
38
330
35
100
AcDbEntity
  8
SUNPO
 62
     0
370
    -2
100
AcDbLine
 10
60.38717640057985
 20
334.6394819009246
 30
0.0
 11
68.38717640057985
 21
334.6394819009246
 31
0.0
  0
LINE
  5
39
330
35
100
AcDbEntity
  8
SUNPO
 62
     0
370
    -2
100
AcDbLine
 10
66.38717640057985
 20
327.1194819009246
 30
0.0
 11
66.38717640057985
 21
332.6394819009246
 31
0.0
  0
LINE
  5
3A
330
35
100
AcDbEntity
  8
SUNPO
 62
     0
370
    -2
100
AcDbLine
 10
66.38717640057985
 20
334.6394819009246
 30
0.0
 11
66.38717640057985
 21
346.8061485675913
 31
0.0
  0
INSERT
  5
3B
330
35
100
AcDbEntity
  8
SUNPO
 62
     0
370
    -2
100
AcDbBlockReference
  2
_OPEN30
 10
66.38717640057985
 20
325.1194819009246
 30
0.0
 41
2.0
 42
2.0
 43
2.0
 50
270.0
  0
INSERT
  5
3C
330
35
100
AcDbEntity
  8
SUNPO
 62
     0
370
    -2
100
AcDbBlockReference
  2
_OPEN30
 10
66.38717640057985
 20
334.6394819009246
 30
0.0
 41
2.0
 42
2.0
 43
2.0
 50
90.0
  0
MTEXT
  5
3D
330
35
100
AcDbEntity
  8
SUNPO
 62
     0
100
AcDbMText
 10
64.63717640057978
 20
341.7228152342579
 30
0.0
 40
2.5
 41
0.0
 71
     5
 72
     1
  1
\A1;95.2
 11
0.0000000000000001
 21
1.0
 31
0.0
 73
     1
 44
1.0
1001
ACAD
1000
MTEXTBEGIN
1070
    73
1070
     1
1070
    44
1040
1.0
1070
    74
1070
     0
1000
MTEXTEND
  0
POINT
  5
3E
330
35
100
AcDbEntity
  8
Defpoints
 62
     0
100
AcDbPoint
 10
58.38717640057985
 20
325.1194819009246
 30
0.0
  0
POINT
  5
40
330
35
100
AcDbEntity
  8
Defpoints
 62
     0
100
AcDbPoint
 10
58.38717640057985
 20
334.6394819009246
 30
0.0
  0
POINT
  5
41
330
35
100
AcDbEntity
  8
Defpoints
 62
     0
100
AcDbPoint
 10
66.38717640057985
 20
334.6394819009246
 30
0.0
  0
ENDBLK
  5
42
330
35
100
AcDbEntity
  8
0
100
AcDbBlockEnd
  0
BLOCK
  5
45
330
44
100
AcDbEntity
  8
0
100
AcDbBlockBegin
  2
*D2
 70
     1
 10
0.0
 20
0.0
 30
0.0
  3
*D2
  1

  0
LINE
  5
46
330
44
100
AcDbEntity
  8
SUNPO
 62
     0
370
    -2
100
AcDbLine
 10
29.23180668689145
 20
331.9202974082974
 30
0.0
 11
29.23180668689145
 21
318.4065477519033
 31
0.0
  0
LINE
  5
47
330
44
100
AcDbEntity
  8
SUNPO
 62
     0
370
    -2
100
AcDbLine
 10
53.231806301721
 20
331.9202974082974
 30
0.0
 11
53.231806301721
 21
318.4065477519033
 31
0.0
  0
LINE
  5
48
330
44
100
AcDbEntity
  8
SUNPO
 62
     0
370
    -2
100
AcDbLine
 10
31.23180668689145
 20
320.4065477519033
 30
0.0
 11
51.231806301721
 21
320.4065477519033
 31
0.0
  0
INSERT
  5
49
330
44
100
AcDbEntity
  8
SUNPO
 62
     0
370
    -2
100
AcDbBlockReference
  2
_OPEN30
 10
29.23180668689145
 20
320.4065477519033
 30
0.0
 41
2.0
 42
2.0
 43
2.0
 50
180.0
  0
INSERT
  5
4A
330
44
100
AcDbEntity
  8
SUNPO
 62
     0
370
    -2
100
AcDbBlockReference
  2
_OPEN30
 10
53.231806301721
 20
320.4065477519033
 30
0.0
 41
2.0
 42
2.0
 43
2.0
  0
MTEXT
  5
4B
330
44
100
AcDbEntity
  8
SUNPO
 62
     0
100
AcDbMText
 10
41.23180649430622
 20
322.1565477519033
 30
0.0
 40
2.5
 41
0.0
 71
     5
 72
     1
  1
\A1;φ240
 73
     1
 44
1.0
1001
ACAD
1000
MTEXTBEGIN
1070
    73
1070
     1
1070
    44
1040
1.0
1070
    74
1070
     0
1000
MTEXTEND
  0
POINT
  5
4C
330
44
100
AcDbEntity
  8
Defpoints
 62
     0
100
AcDbPoint
 10
29.23180668689145
 20
333.9202974082974
 30
0.0
  0
POINT
  5
4D
330
44
100
AcDbEntity
  8
Defpoints
 62
     0
100
AcDbPoint
 10
53.231806301721
 20
333.9202974082974
 30
0.0
  0
POINT
  5
4E
330
44
100
AcDbEntity
  8
Defpoints
 62
     0
100
AcDbPoint
 10
53.231806301721
 20
320.4065477519033
 30
0.0
  0
ENDBLK
  5
4F
330
44
100
AcDbEntity
  8
0
100
AcDbBlockEnd
  0
BLOCK
  5
217
330
20D
100
AcDbEntity
  8
0
100
AcDbBlockBegin
  2
*D3
 70
     1
 10
0.0
 20
0.0
 30
0.0
  3
*D3
  1

  0
LINE
  5
20E
330
20D
100
AcDbEntity
  8
SUNPO
 62
     0
370
    -2
100
AcDbLine
 10
-40.71373220744146
 20
17.01672601285838
 30
0.0
 11
-40.71373220744146
 21
3.502976356464273
 31
0.0
  0
LINE
  5
20F
330
20D
100
AcDbEntity
  8
SUNPO
 62
     0
370
    -2
100
AcDbLine
 10
-16.7137325926119
 20
17.01672601285838
 30
0.0
 11
-16.7137325926119
 21
3.502976356464273
 31
0.0
  0
LINE
  5
210
330
20D
100
AcDbEntity
  8
SUNPO
 62
     0
370
    -2
100
AcDbLine
 10
-38.71373220744147
 20
5.502976356464273
 30
0.0
 11
-18.7137325926119
 21
5.502976356464273
 31
0.0
  0
INSERT
  5
211
330
20D
100
AcDbEntity
  8
SUNPO
 62
     0
370
    -2
100
AcDbBlockReference
  2
_OPEN30
 10
-40.71373220744146
 20
5.502976356464273
 30
0.0
 41
2.0
 42
2.0
 43
2.0
 50
180.0
  0
INSERT
  5
212
330
20D
100
AcDbEntity
  8
SUNPO
 62
     0
370
    -2
100
AcDbBlockReference
  2
_OPEN30
 10
-16.7137325926119
 20
5.502976356464273
 30
0.0
 41
2.0
 42
2.0
 43
2.0
  0
MTEXT
  5
213
330
20D
100
AcDbEntity
  8
SUNPO
 62
     0
100
AcDbMText
 10
-28.71373240002668
 20
7.252976356464273
 30
0.0
 40
2.5
 41
0.0
 71
     5
 72
     1
  1
\A1;φ240
 73
     1
 44
1.0
1001
ACAD
1000
MTEXTBEGIN
1070
    73
1070
     1
1070
    44
1040
1.0
1070
    74
1070
     0
1000
MTEXTEND
  0
POINT
  5
214
330
20D
100
AcDbEntity
  8
Defpoints
 62
     0
100
AcDbPoint
 10
-40.71373220744146
 20
19.01672601285838
 30
0.0
  0
POINT
  5
215
330
20D
100
AcDbEntity
  8
Defpoints
 62
     0
100
AcDbPoint
 10
-16.7137325926119
 20
19.01672601285838
 30
0.0
  0
POINT
  5
216
330
20D
100
AcDbEntity
  8
Defpoints
 62
     0
100
AcDbPoint
 10
-16.7137325926119
 20
5.502976356464273
 30
0.0
  0
ENDBLK
  5
218
330
20D
100
AcDbEntity
  8
0
100
AcDbBlockEnd
  0
BLOCK
  5
224
330
219
100
AcDbEntity
  8
0
100
AcDbBlockBegin
  2
*D4
 70
     1
 10
0.0
 20
0.0
 30
0.0
  3
*D4
  1

  0
LINE
  5
21A
330
219
100
AcDbEntity
  8
SUNPO
 62
     0
370
    -2
100
AcDbLine
 10
-9.558362493753065
 20
10.21591050548557
 30
0.0
 11
-1.558362493753068
 21
10.21591050548556
 31
0.0
  0
LINE
  5
21B
330
219
100
AcDbEntity
  8
SUNPO
 62
     0
370
    -2
100
AcDbLine
 10
-9.558362493753065
 20
19.73591050548555
 30
0.0
 11
-1.558362493753064
 21
19.73591050548554
 31
0.0
  0
LINE
  5
21C
330
219
100
AcDbEntity
  8
SUNPO
 62
     0
370
    -2
100
AcDbLine
 10
-3.558362493753067
 20
12.21591050548556
 30
0.0
 11
-3.558362493753066
 21
17.73591050548554
 31
0.0
  0
LINE
  5
21D
330
219
100
AcDbEntity
  8
SUNPO
 62
     0
370
    -2
100
AcDbLine
 10
-3.558362493753065
 20
19.73591050548554
 30
0.0
 11
-3.558362493753063
 21
31.90257717215221
 31
0.0
  0
INSERT
  5
21E
330
219
100
AcDbEntity
  8
SUNPO
 62
     0
370
    -2
100
AcDbBlockReference
  2
_OPEN30
 10
-3.558362493753068
 20
10.21591050548556
 30
0.0
 41
2.0
 42
2.0
 43
2.0
 50
270.0
  0
INSERT
  5
21F
330
219
100
AcDbEntity
  8
SUNPO
 62
     0
370
    -2
100
AcDbBlockReference
  2
_OPEN30
 10
-3.558362493753065
 20
19.73591050548554
 30
0.0
 41
2.0
 42
2.0
 43
2.0
 50
90.0
  0
MTEXT
  5
220
330
219
100
AcDbEntity
  8
SUNPO
 62
     0
100
AcDbMText
 10
-5.308362493753068
 20
26.81924383881888
 30
0.0
 40
2.5
 41
0.0
 71
     5
 72
     1
  1
\A1;95.2
 11
0.0000000000000001
 21
1.0
 31
0.0
 73
     1
 44
1.0
1001
ACAD
1000
MTEXTBEGIN
1070
    73
1070
     1
1070
    44
1040
1.0
1070
    74
1070
     0
1000
MTEXTEND
  0
POINT
  5
221
330
219
100
AcDbEntity
  8
Defpoints
 62
     0
100
AcDbPoint
 10
-11.55836249375306
 20
10.21591050548557
 30
0.0
  0
POINT
  5
222
330
219
100
AcDbEntity
  8
Defpoints
 62
     0
100
AcDbPoint
 10
-11.55836249375306
 20
19.73591050548555
 30
0.0
  0
POINT
  5
223
330
219
100
AcDbEntity
  8
Defpoints
 62
     0
100
AcDbPoint
 10
-3.558362493753065
 20
19.73591050548554
 30
0.0
  0
ENDBLK
  5
225
330
219
100
AcDbEntity
  8
0
100
AcDbBlockEnd
  0
ENDSEC
  0
SECTION
  2
ENTITIES
  0
TEXT
  5
2F
330
2
100
AcDbEntity
  8
MOJI1
100
AcDbText
 10
-40.44553895029184
 20
51.59726372949546
 30
0.0
 40
4.0
  1
ドーム型プリセットコンビネーションカメラ（金具付）
 41
0.8
100
AcDbText
  0
TEXT
  5
31
330
2
100
AcDbEntity
  8
TOUROKU
100
AcDbText
 10
24.75441108263571
 20
45.59726372949557
 30
0.0
 40
2.0
  1
ＤＧＮＳ９５０＋ＷＶＱ１１６
 72
     2
 11
57.55441108263568
 21
45.59726372949557
 31
0.0
100
AcDbText
  0
DIMENSION
  5
33
330
2
100
AcDbEntity
  8
SUNPO
100
AcDbDimension
  2
*D4
 10
-3.558362493753065
 20
19.73591050548554
 30
0.0
 11
-5.308362493753068
 21
26.81924383881888
 31
0.0
 70
    33
  1
95.2
 71
     5
 42
9.51999999999998
  3
STANDARD
100
AcDbAlignedDimension
 13
-11.55836249375306
 23
10.21591050548557
 33
0.0
 14
-11.55836249375306
 24
19.73591050548555
 34
0.0
1001
ACAD
1000
DSTYLE
1002
{
1070
    40
1040
1.0
1070
   140
1040
2.5
1070
   147
1040
0.5
1070
   172
1070
     1
1070
   279
1070
     0
1070
   288
1070
     0
1002
}
  0
DIMENSION
  5
43
330
2
100
AcDbEntity
  8
SUNPO
100
AcDbDimension
  2
*D3
 10
-16.7137325926119
 20
5.502976356464273
 30
0.0
 11
-28.71373240002668
 21
7.252976356464273
 31
0.0
 70
    33
  1
φ240
 71
     5
 42
23.99999961482956
  3
STANDARD
100
AcDbAlignedDimension
 13
-40.71373220744146
 23
19.01672601285838
 33
0.0
 14
-16.7137325926119
 24
19.01672601285838
 34
0.0
1001
ACAD
1000
DSTYLE
1002
{
1070
    40
1040
1.0
1070
   140
1040
2.5
1070
   147
1040
0.5
1070
   172
1070
     1
1070
   279
1070
     0
1070
   288
1070
     0
1002
}
  0
ELLIPSE
  5
50
330
2
100
AcDbEntity
  8
GAIKEI
  6
Continuous
 62
     1
100
AcDbEllipse
 10
-28.71347765546398
 20
13.38889496526815
 30
0.0
 11
1.953148022011873
 21
0.0
 31
0.0
210
0.0
220
0.0
230
1.0
 40
0.7232875059620131
 41
0.0
 42
6.283185307179586
  0
ELLIPSE
  5
52
330
2
100
AcDbEntity
  8
GAIKEI
  6
Continuous
 62
     1
100
AcDbEllipse
 10
-28.71347765546398
 20
13.23933929879229
 30
0.0
 11
1.716917848806484
 21
0.0
 31
0.0
210
0.0
220
0.0
230
1.0
 40
0.7073540300442245
 41
0.0
 42
6.283185307179586
  0
ARC
  5
53
330
2
100
AcDbEntity
  8
GAIKEI
  6
Continuous
 62
     1
100
AcDbCircle
 10
-28.71347505890231
 20
17.15570611468342
 30
0.0
 40
5.860286474540267
100
AcDbArc
 50
243.980706156567
 51
296.0200126658303
  0
ARC
  5
54
330
2
100
AcDbEntity
  8
GAIKEI
  6
Continuous
 62
     1
100
AcDbCircle
 10
-28.71305663622445
 20
18.28769089154821
 30
0.0
 40
6.992146908633298
100
AcDbArc
 50
293.3949657443416
 51
344.4138217110169
  0
ARC
  5
55
330
2
100
AcDbEntity
  8
GAIKEI
  6
Continuous
 62
     1
100
AcDbCircle
 10
-28.71361362159723
 20
18.28769089154821
 30
0.0
 40
6.992146908633298
100
AcDbArc
 50
195.586178288983
 51
246.6050342556584
  0
LINE
  5
56
330
2
100
AcDbEntity
  8
GAIKEI
  6
Continuous
 62
     1
100
AcDbLine
 10
-26.09155918324814
 20
14.61472053693558
 30
0.0
 11
-25.93698913632932
 21
11.87037175554189
 31
0.0
  0
LINE
  5
57
330
2
100
AcDbEntity
  8
GAIKEI
  6
Continuous
 62
     1
100
AcDbLine
 10
-31.33539612767981
 20
14.61472053693558
 30
0.0
 11
-31.48996617459864
 21
11.87037175554189
 31
0.0
  0
LINE
  5
58
330
2
100
AcDbEntity
  8
GAIKEI
100
AcDbLine
 10
-36.46438016520733
 20
17.7577556471366
 30
0.0
 11
-36.25145091147789
 21
17.67885713715645
 31
0.0
  0
LINE
  5
59
330
2
100
AcDbEntity
  8
GAIKEI
100
AcDbLine
 10
-36.53268419103546
 20
17.90453310631858
 30
0.0
 11
-36.53145360369456
 21
17.8517809405472
 31
0.0
  0
LINE
  5
5A
330
2
100
AcDbEntity
  8
GAIKEI
 62
     1
100
AcDbLine
 10
-36.51374203199509
 20
17.79644154352616
 30
0.0
 11
-35.94794377416582
 21
17.79644154352616
 31
0.0
  0
ARC
  5
5B
330
2
100
AcDbEntity
  8
GAIKEI
100
AcDbCircle
 10
-36.42865156140869
 20
17.85417907700298
 30
0.0
 40
0.10283001
100
AcDbArc
 50
181.3363370862014
 51
249.6683869260026
  0
LINE
  5
5C
330
2
100
AcDbEntity
  8
GAIKEI
  6
Continuous
 62
     1
100
AcDbLine
 10
-35.89452314047981
 20
17.77667849810757
 30
0.0
 11
-36.11552945710343
 21
17.85844012412826
 31
0.0
  0
LINE
  5
5D
330
2
100
AcDbEntity
  8
GAIKEI
  6
Continuous
 62
     1
100
AcDbLine
 10
-36.11552945710343
 20
17.85844012412826
 30
0.0
 11
-36.64867281352622
 21
17.91734912175809
 31
0.0
  0
LINE
  5
5E
330
2
100
AcDbEntity
  8
GAIKEI
  6
Continuous
100
AcDbLine
 10
-36.64867281352622
 20
17.91734912175809
 30
0.0
 11
-37.23784742918883
 21
17.9275058454873
 31
0.0
  0
LINE
  5
5F
330
2
100
AcDbEntity
  8
GAIKEI
  6
Continuous
100
AcDbLine
 10
-20.77896126525605
 20
17.91734912175809
 30
0.0
 11
-20.18978664959343
 21
17.9275058454873
 31
0.0
  0
LINE
  5
60
330
2
100
AcDbEntity
  8
GAIKEI
  6
Continuous
 62
     1
100
AcDbLine
 10
-21.31210462167871
 20
17.85844012412826
 30
0.0
 11
-20.77896126525605
 21
17.91734912175809
 31
0.0
  0
LINE
  5
61
330
2
100
AcDbEntity
  8
GAIKEI
  6
Continuous
 62
     1
100
AcDbLine
 10
-21.53311093830246
 20
17.77667849810757
 30
0.0
 11
-21.31210462167871
 21
17.85844012412826
 31
0.0
  0
ARC
  5
62
330
2
100
AcDbEntity
  8
GAIKEI
100
AcDbCircle
 10
-20.99898251737352
 20
17.85417907700298
 30
0.0
 40
0.10283001
100
AcDbArc
 50
290.3316130739973
 51
358.6636629137986
  0
LINE
  5
63
330
2
100
AcDbEntity
  8
GAIKEI
100
AcDbLine
 10
-40.62004510266376
 20
18.89006405151599
 30
0.0
 11
-40.71373220744146
 21
19.73591050548555
 31
0.0
  0
LINE
  5
64
330
2
100
AcDbEntity
  8
GAIKEI
100
AcDbLine
 10
-40.62004510266376
 20
18.89006405151599
 30
0.0
 11
-40.71373220744146
 21
19.73591050548555
 31
0.0
  0
ARC
  5
65
330
2
100
AcDbEntity
  8
GAIKEI
  6
Continuous
100
AcDbCircle
 10
-36.95555300688795
 20
26.22530045037434
 30
0.0
 40
8.302583598772761
100
AcDbArc
 50
249.2240372029359
 51
268.0538602622265
  0
ARC
  5
66
330
2
100
AcDbEntity
  8
GAIKEI
  6
Continuous
100
AcDbCircle
 10
-38.86515664853829
 20
21.20364357446067
 30
0.0
 40
2.930100517875416
100
AcDbArc
 50
234.0196894466521
 51
249.3056781176216
  0
ARC
  5
67
330
2
100
AcDbEntity
  8
GAIKEI
  6
Continuous
100
AcDbCircle
 10
-40.53828110935557
 20
18.89912034272834
 30
0.0
 40
0.082264008
100
AcDbArc
 50
186.3203961847766
 51
234.0196894466625
  0
ARC
  5
68
330
2
100
AcDbEntity
  8
GAIKEI
  6
Continuous
100
AcDbCircle
 10
-16.88901441196901
 20
18.89912034272834
 30
0.0
 40
0.082264008
100
AcDbArc
 50
305.9803105533374
 51
353.6796038152234
  0
ARC
  5
69
330
2
100
AcDbEntity
  8
GAIKEI
  6
Continuous
100
AcDbCircle
 10
-18.56213887278625
 20
21.20364357446067
 30
0.0
 40
2.930100517875416
100
AcDbArc
 50
290.6943218823784
 51
305.9803105533479
  0
ARC
  5
6A
330
2
100
AcDbEntity
  8
GAIKEI
  6
Continuous
100
AcDbCircle
 10
-20.47174251443664
 20
26.22530045037434
 30
0.0
 40
8.302583598772761
100
AcDbArc
 50
271.9461397377735
 51
290.775962797064
  0
ARC
  5
6B
330
2
100
AcDbEntity
  8
GAIKEI
  6
Continuous
100
AcDbCircle
 10
-18.26119359305574
 20
28.33698183090348
 30
0.0
 40
0.3427043031280215
100
AcDbArc
 50
359.9826537621502
 51
81.79298928752343
  0
LINE
  5
6C
330
2
100
AcDbEntity
  8
GAIKEI
  6
Continuous
100
AcDbLine
 10
-17.77147072965192
 20
27.49437784418876
 30
0.0
 11
-17.77147072965192
 21
27.37689840638677
 31
0.0
  0
LINE
  5
6D
330
2
100
AcDbEntity
  8
GAIKEI
  6
Continuous
100
AcDbLine
 10
-17.77147072965192
 20
27.49437784418876
 30
0.0
 11
-18.84909911732848
 21
27.49437784418876
 31
0.0
  0
LINE
  5
6E
330
2
100
AcDbEntity
  8
GAIKEI
  6
Continuous
100
AcDbLine
 10
-17.80871204999266
 20
28.33687807753256
 30
0.0
 11
-17.80871204999266
 21
27.94508245967563
 31
0.0
  0
ARC
  5
6F
330
2
100
AcDbEntity
  8
GAIKEI
100
AcDbCircle
 10
-18.52076256950272
 20
32.94535838453578
 30
0.0
 40
0.30849003
100
AcDbArc
 50
0.0
 51
90.0
  0
LINE
  5
70
330
2
100
AcDbEntity
  8
GAIKEI
  6
Continuous
100
AcDbLine
 10
-19.06442166038926
 20
33.63591050548553
 30
0.0
 11
-19.06442166038926
 21
33.51817714959032
 31
0.0
  0
LINE
  5
71
330
2
100
AcDbEntity
  8
GAIKEI
100
AcDbLine
 10
-22.51016993795906
 20
32.79341027214173
 30
0.0
 11
-22.5438890182071
 21
27.16998536621691
 31
0.0
  0
ARC
  5
72
330
2
100
AcDbEntity
  8
GAIKEI
  6
Continuous
100
AcDbCircle
 10
-14.31734497948662
 20
27.17024899930482
 30
0.0
 40
8.226371983065714
100
AcDbArc
 50
180.0018361755698
 51
192.0985275364357
  0
ARC
  5
73
330
2
100
AcDbEntity
  8
GAIKEI
  6
Continuous
100
AcDbCircle
 10
-38.84392977318754
 20
17.03623152644081
 30
0.0
 40
18.19048609279576
100
AcDbArc
 50
11.29129762565755
 51
19.57786545782755
  0
ARC
  5
74
330
2
100
AcDbEntity
  8
GAIKEI
  6
Continuous
100
AcDbCircle
 10
-4.310264613852837
 20
29.31149242543859
 30
0.0
 40
18.45997226048191
100
AcDbArc
 50
192.0869352714604
 51
199.5585836765966
  0
ARC
  5
75
330
2
100
AcDbEntity
  8
GAIKEI
  6
Continuous
100
AcDbCircle
 10
-38.90653295182188
 20
32.94535838453578
 30
0.0
 40
0.30849003
100
AcDbArc
 50
90.0
 51
180.0
  0
LINE
  5
76
330
2
100
AcDbEntity
  8
GAIKEI
  6
Continuous
100
AcDbLine
 10
-38.90653295182188
 20
33.25384841453581
 30
0.0
 11
-38.57853496145367
 21
33.25384841453581
 31
0.0
  0
ARC
  5
77
330
2
100
AcDbEntity
  8
GAIKEI
  6
Continuous
100
AcDbCircle
 10
-38.4037239444537
 20
33.34336613259029
 30
0.0
 40
0.174811017
100
AcDbArc
 50
89.99999999999349
 51
179.9999999999935
  0
ARC
  5
78
330
2
100
AcDbEntity
  8
GAIKEI
  6
Continuous
100
AcDbCircle
 10
-43.10946780488819
 20
27.17024899930482
 30
0.0
 40
8.226371983065714
100
AcDbArc
 50
347.9014724635643
 51
359.9981638244302
  0
ARC
  5
79
330
2
100
AcDbEntity
  8
GAIKEI
  6
Continuous
100
AcDbCircle
 10
-53.11654817052204
 20
29.31149242543859
 30
0.0
 40
18.45997226048191
100
AcDbArc
 50
340.4414163234033
 51
347.9130647285396
  0
ARC
  5
7A
330
2
100
AcDbEntity
  8
GAIKEI
  6
Continuous
100
AcDbCircle
 10
-18.58288301118728
 20
17.03623152644081
 30
0.0
 40
18.19048609279576
100
AcDbArc
 50
160.4221345421724
 51
168.7087023743425
  0
ARC
  5
7B
330
2
100
AcDbEntity
  8
GAIKEI
100
AcDbCircle
 10
-20.46086125851593
 20
32.31584970285201
 30
0.0
 40
0.257075025
100
AcDbArc
 50
90.0
 51
180.0
  0
ARC
  5
7C
330
2
100
AcDbEntity
  8
GAIKEI
100
AcDbCircle
 10
-19.42861802768937
 20
33.41534713959027
 30
0.0
 40
0.10283001
100
AcDbArc
 50
0.0
 51
90.0
  0
ARC
  5
7D
330
2
100
AcDbEntity
  8
GAIKEI
100
AcDbCircle
 10
-18.95192912732852
 20
33.41534713959027
 30
0.0
 40
0.10283001
100
AcDbArc
 50
0.0
 51
90.0
  0
ARC
  5
7E
330
2
100
AcDbEntity
  8
GAIKEI
100
AcDbCircle
 10
-19.03656849173922
 20
33.41534713959027
 30
0.0
 40
0.10283001
100
AcDbArc
 50
0.0
 51
90.0
  0
ARC
  5
7F
330
2
100
AcDbEntity
  8
GAIKEI
  6
Continuous
100
AcDbCircle
 10
-24.82777671896338
 20
32.89624028214177
 30
0.0
 40
0.10283001
100
AcDbArc
 50
180.0
 51
270.0
  0
LINE
  5
80
330
2
100
AcDbEntity
  8
GAIKEI
  6
Continuous
100
AcDbLine
 10
-24.93060672896343
 20
32.89624028214177
 30
0.0
 11
-24.93060672896343
 21
33.51817714959032
 31
0.0
  0
LINE
  5
81
330
2
100
AcDbEntity
  8
GAIKEI
  6
Continuous
100
AcDbLine
 10
-18.01624777152756
 20
23.16465115776145
 30
0.0
 11
-18.01624777152756
 21
27.37689840638677
 31
0.0
  0
LINE
  5
82
330
2
100
AcDbEntity
  8
GAIKEI
  6
Continuous
100
AcDbLine
 10
-39.61875275006071
 20
28.33687807753256
 30
0.0
 11
-39.61875275006071
 21
27.94508245967552
 31
0.0
  0
LINE
  5
83
330
2
100
AcDbEntity
  8
GAIKEI
100
AcDbLine
 10
-45.85692782521971
 20
20.59787779264377
 30
0.0
 11
-45.85692782521971
 21
19.73591050548555
 31
0.0
  0
LINE
  5
84
330
2
100
AcDbEntity
  8
GAIKEI
 62
     1
100
AcDbLine
 10
-30.11806873432841
 20
36.60421301536735
 30
0.0
 11
-27.24422375512882
 21
36.60421301536735
 31
0.0
  0
LINE
  5
85
330
2
100
AcDbEntity
  8
GAIKEI
 62
     1
100
AcDbLine
 10
-30.11806873432841
 20
36.48647965947214
 30
0.0
 11
-27.24422375512882
 21
36.48647965947214
 31
0.0
  0
LINE
  5
86
330
2
100
AcDbEntity
  8
GAIKEI
100
AcDbLine
 10
-19.25629909950817
 20
26.7892472992836
 30
0.0
 11
-19.25401383666917
 21
26.81937891301379
 31
0.0
  0
LINE
  5
87
330
2
100
AcDbEntity
  8
GAIKEI
100
AcDbLine
 10
-19.25401383666917
 20
26.81937891301379
 30
0.0
 11
-19.24724268751629
 21
26.84663278835399
 31
0.0
  0
LINE
  5
88
330
2
100
AcDbEntity
  8
GAIKEI
100
AcDbLine
 10
-19.24724268751629
 20
26.84663278835399
 30
0.0
 11
-19.23640884887175
 21
26.86830046564319
 31
0.0
  0
LINE
  5
89
330
2
100
AcDbEntity
  8
GAIKEI
100
AcDbLine
 10
-19.23640884887175
 20
26.86830046564319
 30
0.0
 11
-19.22286655056598
 21
26.88235060013528
 31
0.0
  0
LINE
  5
8A
330
2
100
AcDbEntity
  8
GAIKEI
100
AcDbLine
 10
-19.22286655056598
 20
26.88235060013528
 30
0.0
 11
-19.20763146497211
 21
26.88700576517795
 31
0.0
  0
LINE
  5
8B
330
2
100
AcDbEntity
  8
GAIKEI
100
AcDbLine
 10
-39.33250241962389
 20
20.95065466350741
 30
0.0
 11
-39.33250241962389
 21
23.00781441550851
 31
0.0
  0
LINE
  5
8C
330
2
100
AcDbEntity
  8
GAIKEI
100
AcDbLine
 10
-36.84435902404369
 20
33.63591050548553
 30
0.0
 11
-36.84435902404369
 21
34.3020223033974
 31
0.0
  0
LINE
  5
8D
330
2
100
AcDbEntity
  8
GAIKEI
100
AcDbLine
 10
-36.72687958624164
 20
34.3020223033974
 30
0.0
 11
-36.72687958624164
 21
33.63591050548553
 31
0.0
  0
LINE
  5
8E
330
2
100
AcDbEntity
  8
GAIKEI
 62
     1
100
AcDbLine
 10
-30.21751998751085
 20
36.54902814977163
 30
0.0
 11
-32.04437602895064
 21
33.63591050548553
 31
0.0
  0
LINE
  5
8F
330
2
100
AcDbEntity
  8
GAIKEI
 62
     1
100
AcDbLine
 10
-31.90556747131712
 20
33.63591050548553
 30
0.0
 11
-30.11806873432841
 21
36.48647965947214
 31
0.0
  0
LINE
  5
90
330
2
100
AcDbEntity
  8
GAIKEI
100
AcDbLine
 10
-39.61875275006071
 20
28.33687807753256
 30
0.0
 11
-39.21502298182185
 21
28.33687807753256
 31
0.0
  0
LINE
  5
91
330
2
100
AcDbEntity
  8
GAIKEI
100
AcDbLine
 10
-18.71359149490706
 20
28.33687807753256
 30
0.0
 11
-17.80871204999266
 21
28.33687807753256
 31
0.0
  0
LINE
  5
92
330
2
100
AcDbEntity
  8
GAIKEI
100
AcDbLine
 10
-39.61875275006071
 20
27.94508245967552
 30
0.0
 11
-39.21502298182185
 21
27.94508245967552
 31
0.0
  0
LINE
  5
93
330
2
100
AcDbEntity
  8
GAIKEI
100
AcDbLine
 10
-18.71359149490706
 20
27.94508245967552
 30
0.0
 11
-17.80871204999266
 21
27.94508245967552
 31
0.0
  0
LINE
  5
94
330
2
100
AcDbEntity
  8
GAIKEI
100
AcDbLine
 10
-39.65582479167256
 20
27.49437784418876
 30
0.0
 11
-39.21502298182185
 21
27.49437784418876
 31
0.0
  0
LINE
  5
95
330
2
100
AcDbEntity
  8
GAIKEI
100
AcDbLine
 10
-39.65582479167256
 20
27.37689840638677
 30
0.0
 11
-39.21502298182185
 21
27.37689840638677
 31
0.0
  0
LINE
  5
96
330
2
100
AcDbEntity
  8
GAIKEI
100
AcDbLine
 10
-18.84909911732848
 20
27.37689840638677
 30
0.0
 11
-17.77147072965192
 21
27.37689840638677
 31
0.0
  0
LINE
  5
97
330
2
100
AcDbEntity
  8
GAIKEI
100
AcDbLine
 10
-19.20763146497211
 20
26.88700576517784
 30
0.0
 11
-18.84909911732848
 21
26.88700576517784
 31
0.0
  0
LINE
  5
98
330
2
100
AcDbEntity
  8
GAIKEI
100
AcDbLine
 10
-19.20763146497211
 20
23.94815775411087
 30
0.0
 11
-19.22286655056598
 21
23.95289755851786
 31
0.0
  0
LINE
  5
99
330
2
100
AcDbEntity
  8
GAIKEI
100
AcDbLine
 10
-19.22286655056598
 20
23.95289755851786
 30
0.0
 11
-19.23640884887175
 21
23.96694769301007
 31
0.0
  0
LINE
  5
9A
330
2
100
AcDbEntity
  8
GAIKEI
100
AcDbLine
 10
-19.23640884887175
 20
23.96694769301007
 30
0.0
 11
-19.24724268751629
 21
23.98861537029916
 31
0.0
  0
LINE
  5
9B
330
2
100
AcDbEntity
  8
GAIKEI
100
AcDbLine
 10
-19.24724268751629
 20
23.98861537029916
 30
0.0
 11
-19.25401383666917
 21
24.0159538850038
 31
0.0
  0
LINE
  5
9C
330
2
100
AcDbEntity
  8
GAIKEI
100
AcDbLine
 10
-19.25401383666917
 20
24.0159538850038
 30
0.0
 11
-19.25629909950817
 21
24.04633941682732
 31
0.0
  0
LINE
  5
9D
330
2
100
AcDbEntity
  8
GAIKEI
 62
     1
100
AcDbLine
 10
-28.7136477606623
 20
36.48647965947214
 30
0.0
 11
-28.7136477606623
 21
36.60421301536735
 31
0.0
  0
LINE
  5
9E
330
2
100
AcDbEntity
  8
GAIKEI
100
AcDbLine
 10
-39.75375253629574
 20
23.16465115776145
 30
0.0
 11
-39.21502298182185
 21
23.16465115776145
 31
0.0
  0
LINE
  5
9F
330
2
100
AcDbEntity
  8
GAIKEI
100
AcDbLine
 10
-18.83648785203138
 20
23.16465115776145
 30
0.0
 11
-17.67337370630002
 21
23.16465115776145
 31
0.0
  0
LINE
  5
A0
330
2
100
AcDbEntity
  8
GAIKEI
100
AcDbLine
 10
-39.99886813562898
 20
23.00781441550851
 30
0.0
 11
-39.21502298182185
 21
23.00781441550851
 31
0.0
  0
LINE
  5
A1
330
2
100
AcDbEntity
  8
GAIKEI
100
AcDbLine
 10
-17.67337370630002
 20
23.00781441550851
 30
0.0
 11
-17.42859666442439
 21
23.00781441550851
 31
0.0
  0
LINE
  5
A2
330
2
100
AcDbEntity
  8
GAIKEI
 62
     1
100
AcDbLine
 10
-27.24422375512882
 20
36.48647965947214
 30
0.0
 11
-27.24422375512882
 21
36.60421301536735
 31
0.0
  0
LINE
  5
A3
330
2
100
AcDbEntity
  8
GAIKEI
100
AcDbLine
 10
-18.65307434935346
 20
21.31308042191381
 30
0.0
 11
-18.35929111548398
 21
21.31308042191381
 31
0.0
  0
LINE
  5
A4
330
2
100
AcDbEntity
  8
GAIKEI
100
AcDbLine
 10
-39.46013858115515
 20
20.95065466350741
 30
0.0
 11
-39.21502298182185
 21
20.95065466350741
 31
0.0
  0
LINE
  5
A5
330
2
100
AcDbEntity
  8
GAIKEI
100
AcDbLine
 10
-39.99886813562898
 20
20.85264227951984
 30
0.0
 11
-39.21502298182185
 21
20.85264227951984
 31
0.0
  0
LINE
  5
A6
330
2
100
AcDbEntity
  8
GAIKEI
100
AcDbLine
 10
-17.67337370630002
 20
20.85264227951984
 30
0.0
 11
-17.42859666442439
 21
20.85264227951984
 31
0.0
  0
LINE
  5
A7
330
2
100
AcDbEntity
  8
GAIKEI
100
AcDbLine
 10
-17.67337370630002
 20
20.77426622807548
 30
0.0
 11
-18.35929111548398
 21
20.77426622807548
 31
0.0
  0
LINE
  5
A8
330
2
100
AcDbEntity
  8
GAIKEI
100
AcDbLine
 10
-18.65307434935346
 20
20.77426622807548
 30
0.0
 11
-18.84909911732848
 21
20.77426622807548
 31
0.0
  0
LINE
  5
A9
330
2
100
AcDbEntity
  8
GAIKEI
 62
     1
100
AcDbLine
 10
-31.50031419451887
 20
20.59787779264377
 30
0.0
 11
-31.50031419451887
 21
20.75462989553228
 31
0.0
  0
LINE
  5
AA
330
2
100
AcDbEntity
  8
GAIKEI
 62
     1
100
AcDbLine
 10
-30.37909653417091
 20
20.75462989553228
 30
0.0
 11
-30.37909653417091
 21
24.24202562734468
 31
0.0
  0
LINE
  5
AB
330
2
100
AcDbEntity
  8
GAIKEI
 62
     1
100
AcDbLine
 10
-30.37909653417091
 20
26.44620395532718
 30
0.0
 11
-30.37909653417091
 21
33.51817714959032
 31
0.0
  0
LINE
  5
AC
330
2
100
AcDbEntity
  8
GAIKEI
 62
     1
100
AcDbLine
 10
-30.2809995108189
 20
24.34012265069668
 30
0.0
 11
-30.2809995108189
 21
26.34827621070406
 31
0.0
  0
LINE
  5
AD
330
2
100
AcDbEntity
  8
GAIKEI
 62
     1
100
AcDbLine
 10
-30.37909653417091
 20
24.24202562734468
 30
0.0
 11
-30.2809995108189
 21
24.34012265069668
 31
0.0
  0
LINE
  5
AE
330
2
100
AcDbEntity
  8
GAIKEI
100
AcDbLine
 10
-19.20763146497211
 20
23.94815775411087
 30
0.0
 11
-18.84909911732848
 21
23.94815775411087
 31
0.0
  0
LINE
  5
AF
330
2
100
AcDbEntity
  8
GAIKEI
 62
     1
100
AcDbLine
 10
-30.2809995108189
 20
26.34827621070406
 30
0.0
 11
-30.37909653417091
 21
26.44620395532718
 31
0.0
  0
SPLINE
  5
B0
330
2
100
AcDbEntity
  8
GAIKEI
100
AcDbSpline
210
0.0
220
0.0
230
1.0
 70
    24
 71
     3
 72
     8
 73
     4
 74
     0
 42
0.0000000001
 43
0.0000000001
 40
7.0
 40
7.0
 40
7.0
 40
7.0
 40
8.0
 40
8.0
 40
8.0
 40
8.0
 10
-17.80871204999266
 20
28.33687807753256
 30
0.0
 10
-17.80871204999266
 20
28.33687807753256
 30
0.0
 10
-17.91848930563333
 20
28.33687807753256
 30
0.0
 10
-17.91848930563333
 20
28.33687807753256
 30
0.0
  0
SPLINE
  5
B1
330
2
100
AcDbEntity
  8
GAIKEI
100
AcDbSpline
210
0.0
220
0.0
230
1.0
 70
    24
 71
     3
 72
     8
 73
     4
 74
     0
 42
0.0000000001
 43
0.0000000001
 40
6.0
 40
6.0
 40
6.0
 40
6.0
 40
7.0
 40
7.0
 40
7.0
 40
7.0
 10
-17.80871204999266
 20
27.94508245967563
 30
0.0
 10
-17.80871204999266
 20
27.94508245967563
 30
0.0
 10
-17.80871204999266
 20
28.33687807753256
 30
0.0
 10
-17.80871204999266
 20
28.33687807753256
 30
0.0
  0
SPLINE
  5
B2
330
2
100
AcDbEntity
  8
GAIKEI
100
AcDbSpline
210
0.0
220
0.0
230
1.0
 70
    24
 71
     3
 72
     8
 73
     4
 74
     0
 42
0.0000000001
 43
0.0000000001
 40
5.0
 40
5.0
 40
5.0
 40
5.0
 40
6.0
 40
6.0
 40
6.0
 40
6.0
 10
-18.01624777152767
 20
27.94508245967563
 30
0.0
 10
-18.01624777152767
 20
27.94508245967563
 30
0.0
 10
-17.80871204999266
 20
27.94508245967563
 30
0.0
 10
-17.80871204999266
 20
27.94508245967563
 30
0.0
  0
SPLINE
  5
B3
330
2
100
AcDbEntity
  8
GAIKEI
100
AcDbSpline
210
0.0
220
0.0
230
1.0
 70
    24
 71
     3
 72
     8
 73
     4
 74
     0
 42
0.0000000001
 43
0.0000000001
 40
0.0
 40
0.0
 40
0.0
 40
0.0
 40
1.0
 40
1.0
 40
1.0
 40
1.0
 10
-38.36287386093534
 20
33.63591050548553
 30
0.0
 10
-38.36287386093534
 20
33.63591050548553
 30
0.0
 10
-38.36287386093534
 20
33.51817714959032
 30
0.0
 10
-38.36287386093534
 20
33.51817714959032
 30
0.0
  0
SPLINE
  5
B4
330
2
100
AcDbEntity
  8
GAIKEI
100
AcDbSpline
210
0.0
220
0.0
230
1.0
 70
    24
 71
     3
 72
     8
 73
     4
 74
     0
 42
0.0000000001
 43
0.0000000001
 40
1.0
 40
1.0
 40
1.0
 40
1.0
 40
2.0
 40
2.0
 40
2.0
 40
2.0
 10
-39.61875275006071
 20
28.33687807753256
 30
0.0
 10
-39.61875275006071
 20
28.33687807753256
 30
0.0
 10
-39.5089754944201
 20
28.33687807753256
 30
0.0
 10
-39.5089754944201
 20
28.33687807753256
 30
0.0
  0
SPLINE
  5
B5
330
2
100
AcDbEntity
  8
GAIKEI
100
AcDbSpline
210
0.0
220
0.0
230
1.0
 70
    24
 71
     3
 72
     8
 73
     4
 74
     0
 42
0.0000000001
 43
0.0000000001
 40
0.0
 40
0.0
 40
0.0
 40
0.0
 40
1.0
 40
1.0
 40
1.0
 40
1.0
 10
-39.61875275006071
 20
27.94508245967563
 30
0.0
 10
-39.61875275006071
 20
27.94508245967563
 30
0.0
 10
-39.61875275006071
 20
28.33687807753256
 30
0.0
 10
-39.61875275006071
 20
28.33687807753256
 30
0.0
  0
LINE
  5
B6
330
2
100
AcDbEntity
  8
GAIKEI
100
AcDbLine
 10
-39.41087847106814
 20
27.49437784418876
 30
0.0
 11
-39.41087847106814
 21
27.94508245967552
 31
0.0
  0
LINE
  5
B7
330
2
100
AcDbEntity
  8
GAIKEI
100
AcDbLine
 10
-39.65582479167262
 20
27.49437784418876
 30
0.0
 11
-39.41087847106814
 21
27.49437784418876
 31
0.0
  0
LINE
  5
B8
330
2
100
AcDbEntity
  8
GAIKEI
100
AcDbLine
 10
-39.65582479167262
 20
27.37689840638677
 30
0.0
 11
-39.65582479167262
 21
27.49437784418876
 31
0.0
  0
LINE
  5
B9
330
2
100
AcDbEntity
  8
GAIKEI
100
AcDbLine
 10
-39.41087847106814
 20
27.37689840638677
 30
0.0
 11
-39.65582479167262
 21
27.37689840638677
 31
0.0
  0
LINE
  5
BA
330
2
100
AcDbEntity
  8
GAIKEI
100
AcDbLine
 10
-39.41087847106814
 20
23.16465115776145
 30
0.0
 11
-39.41087847106814
 21
27.37689840638677
 31
0.0
  0
LINE
  5
BB
330
2
100
AcDbEntity
  8
GAIKEI
100
AcDbLine
 10
-45.85692782521971
 20
20.59787779264377
 30
0.0
 11
-45.85692782521971
 21
19.73591050548555
 31
0.0
  0
LINE
  5
BC
330
2
100
AcDbEntity
  8
GAIKEI
 62
     1
100
AcDbLine
 10
-30.11806873432841
 20
36.60421301536735
 30
0.0
 11
-27.24422375512882
 21
36.60421301536735
 31
0.0
  0
LINE
  5
BD
330
2
100
AcDbEntity
  8
GAIKEI
 62
     1
100
AcDbLine
 10
-30.11806873432841
 20
36.48647965947214
 30
0.0
 11
-27.24422375512882
 21
36.48647965947214
 31
0.0
  0
LINE
  5
BE
330
2
100
AcDbEntity
  8
GAIKEI
100
AcDbLine
 10
-42.77300794355284
 20
20.59787779264366
 30
0.0
 11
-42.77300794355284
 21
21.18558275412715
 31
0.0
  0
LINE
  5
BF
330
2
100
AcDbEntity
  8
GAIKEI
100
AcDbLine
 10
-38.36287386093534
 20
33.63591050548553
 30
0.0
 11
-19.06442166038926
 21
33.63591050548553
 31
0.0
  0
LINE
  5
C0
330
2
100
AcDbEntity
  8
GAIKEI
100
AcDbLine
 10
-39.75375253629574
 20
23.00781441550851
 30
0.0
 11
-39.75375253629574
 21
23.16465115776145
 31
0.0
  0
LINE
  5
C1
330
2
100
AcDbEntity
  8
GAIKEI
100
AcDbLine
 10
-22.78313677513609
 20
32.79341027214173
 30
0.0
 11
-20.8765504524215
 21
32.79341027214173
 31
0.0
  0
LINE
  5
C2
330
2
100
AcDbEntity
  8
GAIKEI
100
AcDbLine
 10
-20.86038433381907
 20
32.64647633552488
 30
0.0
 11
-20.56973275643281
 21
32.64647633552488
 31
0.0
  0
LINE
  5
C3
330
2
100
AcDbEntity
  8
GAIKEI
100
AcDbLine
 10
-40.59879195057175
 20
18.84144170239369
 30
0.0
 11
-16.82850357075279
 21
18.84144170239369
 31
0.0
  0
LINE
  5
C4
330
2
100
AcDbEntity
  8
GAIKEI
100
AcDbLine
 10
-39.90094039100586
 20
18.46259590729153
 30
0.0
 11
-17.52669368777629
 21
18.46259590729153
 31
0.0
  0
LINE
  5
C5
330
2
100
AcDbEntity
  8
GAIKEI
100
AcDbLine
 10
-37.23733959300239
 20
17.9275058454873
 30
0.0
 11
-20.18978664959343
 21
17.9275058454873
 31
0.0
  0
LINE
  5
C6
330
2
100
AcDbEntity
  8
GAIKEI
100
AcDbLine
 10
-36.64765714115328
 20
17.91734912175809
 30
0.0
 11
-20.77980765890016
 21
17.91734912175809
 31
0.0
  0
LINE
  5
C7
330
2
100
AcDbEntity
  8
GAIKEI
100
AcDbLine
 10
-26.90134968990117
 20
33.25384841453581
 30
0.0
 11
-26.78378561273473
 21
33.25384841453581
 31
0.0
  0
LINE
  5
C8
330
2
100
AcDbEntity
  8
GAIKEI
100
AcDbLine
 10
-18.93373848173917
 20
33.25384841453581
 30
0.0
 11
-18.52076256950272
 21
33.25384841453581
 31
0.0
  0
LINE
  5
C9
330
2
100
AcDbEntity
  8
GAIKEI
  6
Continuous
100
AcDbLine
 10
-26.90134968990117
 20
32.96014982003078
 30
0.0
 11
-24.93060672896343
 21
32.96014982003078
 31
0.0
  0
LINE
  5
CA
330
2
100
AcDbEntity
  8
GAIKEI
  6
Continuous
100
AcDbLine
 10
-30.37909653417091
 20
32.96014982003078
 30
0.0
 11
-34.91769570515902
 21
32.96014982003078
 31
0.0
  0
LINE
  5
CB
330
2
100
AcDbEntity
  8
GAIKEI
 62
     1
100
AcDbLine
 10
-31.33539612767981
 20
17.19569212189162
 30
0.0
 11
-31.33539612767981
 21
14.61472053693558
 31
0.0
  0
LINE
  5
CC
330
2
100
AcDbEntity
  8
GAIKEI
 62
     1
100
AcDbLine
 10
-26.14265495256154
 20
11.88941315430668
 30
0.0
 11
-26.14265495256154
 21
17.19569212189162
 31
0.0
  0
LINE
  5
CD
330
2
100
AcDbEntity
  8
GAIKEI
 62
     1
100
AcDbLine
 10
-31.28422909508993
 20
17.19569212189162
 30
0.0
 11
-31.28422909508993
 21
11.88938090168096
 31
0.0
  0
LINE
  5
CE
330
2
100
AcDbEntity
  8
GAIKEI
 62
     1
100
AcDbLine
 10
-26.09127413014187
 20
17.19569212189162
 30
0.0
 11
-26.09127413014187
 21
14.61472053693558
 31
0.0
  0
ARC
  5
CF
330
2
100
AcDbEntity
  8
GAIKEI
100
AcDbCircle
 10
-28.91792639657399
 20
17.48470558586769
 30
0.0
 40
7.271669767551897
100
AcDbArc
 50
178.4689134659207
 51
271.6111284254683
  0
ARC
  5
D0
330
2
100
AcDbEntity
  8
GAIKEI
100
AcDbCircle
 10
-28.50902891435408
 20
17.48470558586769
 30
0.0
 40
7.271669767551917
100
AcDbArc
 50
268.3888715745317
 51
1.531086534079226
  0
LINE
  5
D1
330
2
100
AcDbEntity
  8
GAIKEI
 62
     1
100
AcDbLine
 10
-20.91389204678717
 20
17.79644154352616
 30
0.0
 11
-21.47969030461638
 21
17.79644154352616
 31
0.0
  0
LINE
  5
D2
330
2
100
AcDbEntity
  8
GAIKEI
 62
     1
100
AcDbLine
 10
-21.17618316730432
 20
17.67885713715645
 30
0.0
 11
-21.9780290687745
 21
17.67885713715645
 31
0.0
  0
LINE
  5
D3
330
2
100
AcDbEntity
  8
GAIKEI
 62
     1
100
AcDbLine
 10
-34.88309582604689
 20
27.19043792659761
 30
0.0
 11
-22.54371695832788
 21
27.19043792659761
 31
0.0
  0
LINE
  5
D4
330
2
100
AcDbEntity
  8
GAIKEI
 62
     1
100
AcDbLine
 10
-30.25582875065231
 20
17.67885713715645
 30
0.0
 11
-36.25145091147789
 21
17.67885713715645
 31
0.0
  0
LINE
  5
D5
330
2
100
AcDbEntity
  8
GAIKEI
 62
     1
100
AcDbLine
 10
-35.44864118904712
 20
17.67885713715645
 30
0.0
 11
-35.44864118904712
 21
16.40898866458406
 31
0.0
  0
LINE
  5
D6
330
2
100
AcDbEntity
  8
GAIKEI
100
AcDbLine
 10
-34.91769570515902
 20
32.96014982003078
 30
0.0
 11
-34.88292376616778
 21
27.16998536621691
 31
0.0
  0
LINE
  5
D7
330
2
100
AcDbEntity
  8
GAIKEI
 62
     1
100
AcDbLine
 10
-27.17112656027576
 20
17.40135793812374
 30
0.0
 11
-30.25582875065231
 21
17.40135793812374
 31
0.0
  0
LINE
  5
D8
330
2
100
AcDbEntity
  8
GAIKEI
 62
     1
100
AcDbLine
 10
-31.33539612767981
 20
17.19569212189162
 30
0.0
 11
-26.09127413014187
 21
17.19569212189162
 31
0.0
  0
LINE
  5
D9
330
2
100
AcDbEntity
  8
GAIKEI
 62
     1
100
AcDbLine
 10
-27.17112656027576
 20
17.67885713715645
 30
0.0
 11
-30.25582875065231
 21
17.67885713715645
 31
0.0
  0
LINE
  5
DA
330
2
100
AcDbEntity
  8
GAIKEI
 62
     1
100
AcDbLine
 10
-30.25582875065231
 20
17.40135793812374
 30
0.0
 11
-30.25582875065231
 21
17.5042621095165
 31
0.0
  0
LINE
  5
DB
330
2
100
AcDbEntity
  8
GAIKEI
 62
     1
100
AcDbLine
 10
-31.33539612767981
 20
17.5042621095165
 30
0.0
 11
-31.33539612767981
 21
17.19569212189162
 31
0.0
  0
LINE
  5
DC
330
2
100
AcDbEntity
  8
GAIKEI
 62
     1
100
AcDbLine
 10
-31.33539612767981
 20
17.5042621095165
 30
0.0
 11
-30.25582875065231
 21
17.5042621095165
 31
0.0
  0
LINE
  5
DD
330
2
100
AcDbEntity
  8
GAIKEI
 62
     1
100
AcDbLine
 10
-30.25582875065231
 20
17.5042621095165
 30
0.0
 11
-30.25582875065231
 21
17.67885713715645
 31
0.0
  0
LINE
  5
DE
330
2
100
AcDbEntity
  8
GAIKEI
 62
     1
100
AcDbLine
 10
-26.09127413014187
 20
17.5042621095165
 30
0.0
 11
-26.09127413014187
 21
17.19569212189162
 31
0.0
  0
LINE
  5
DF
330
2
100
AcDbEntity
  8
GAIKEI
 62
     1
100
AcDbLine
 10
-27.17112656027576
 20
17.67885713715645
 30
0.0
 11
-27.17112656027576
 21
17.5042621095165
 31
0.0
  0
LINE
  5
E0
330
2
100
AcDbEntity
  8
GAIKEI
 62
     1
100
AcDbLine
 10
-27.17112656027576
 20
17.5042621095165
 30
0.0
 11
-26.09127413014187
 21
17.5042621095165
 31
0.0
  0
LINE
  5
E1
330
2
100
AcDbEntity
  8
GAIKEI
 62
     1
100
AcDbLine
 10
-27.17112656027576
 20
17.5042621095165
 30
0.0
 11
-27.17112656027576
 21
17.40135793812374
 31
0.0
  0
LINE
  5
E2
330
2
100
AcDbEntity
  8
GAIKEI
 62
     1
100
AcDbLine
 10
-21.9780290687745
 20
17.67885713715645
 30
0.0
 11
-27.17112656027576
 21
17.67885713715645
 31
0.0
  0
LINE
  5
E3
330
2
100
AcDbEntity
  8
GAIKEI
 62
     1
100
AcDbLine
 10
-21.9780290687745
 20
17.67885713715645
 30
0.0
 11
-21.9780290687745
 21
16.40898866458417
 31
0.0
  0
LINE
  5
E4
330
2
100
AcDbEntity
  8
GAIKEI
100
AcDbLine
 10
-20.89494988774675
 20
17.90453310631858
 30
0.0
 11
-20.8961804750877
 21
17.8517809405472
 31
0.0
  0
LINE
  5
E5
330
2
100
AcDbEntity
  8
GAIKEI
100
AcDbLine
 10
-20.96325391357493
 20
17.7577556471366
 30
0.0
 11
-21.17618316730432
 21
17.67885713715645
 31
0.0
  0
LINE
  5
E6
330
2
100
AcDbEntity
  8
GAIKEI
100
AcDbLine
 10
-24.82777671896338
 20
32.79341027214173
 30
0.0
 11
-19.81060229703359
 21
32.79341027214173
 31
0.0
  0
LINE
  5
E7
330
2
100
AcDbEntity
  8
GAIKEI
100
AcDbLine
 10
-19.81060229703359
 20
32.79341027214173
 30
0.0
 11
-19.32578801768932
 21
32.79341027214184
 31
0.0
  0
LINE
  5
E8
330
2
100
AcDbEntity
  8
GAIKEI
100
AcDbLine
 10
-20.86038433381907
 20
32.76395577332687
 30
0.0
 11
-19.32578801768932
 21
32.76395577332687
 31
0.0
  0
LINE
  5
E9
330
2
100
AcDbEntity
  8
GAIKEI
100
AcDbLine
 10
-19.32578801768932
 20
32.64647633552488
 30
0.0
 11
-20.03946713840003
 21
32.64647633552488
 31
0.0
  0
LINE
  5
EA
330
2
100
AcDbEntity
  8
GAIKEI
100
AcDbLine
 10
-20.86038433381907
 20
32.64647633552488
 30
0.0
 11
-20.03946713840003
 21
32.64647633552488
 31
0.0
  0
LINE
  5
EB
330
2
100
AcDbEntity
  8
GAIKEI
100
AcDbLine
 10
-20.46086125851593
 20
32.57292472785195
 30
0.0
 11
-20.00603458945784
 21
32.57292472785195
 31
0.0
  0
LINE
  5
EC
330
2
100
AcDbEntity
  8
GAIKEI
100
AcDbLine
 10
-38.36287386093534
 20
33.51817714959032
 30
0.0
 11
-38.36287386093534
 21
33.63591050548553
 31
0.0
  0
LINE
  5
ED
330
2
100
AcDbEntity
  8
GAIKEI
100
AcDbLine
 10
-19.32578801768932
 20
33.41534713959027
 30
0.0
 11
-19.32578801768932
 21
32.64647633552488
 31
0.0
  0
LINE
  5
EE
330
2
100
AcDbEntity
  8
GAIKEI
100
AcDbLine
 10
-19.25629909950817
 20
26.7892472992836
 30
0.0
 11
-19.25629909950817
 21
24.04633941682732
 31
0.0
  0
LINE
  5
EF
330
2
100
AcDbEntity
  8
GAIKEI
100
AcDbLine
 10
-18.93373848173917
 20
33.41534713959027
 30
0.0
 11
-18.93373848173917
 21
33.25384841453581
 31
0.0
  0
LINE
  5
F0
330
2
100
AcDbEntity
  8
GAIKEI
100
AcDbLine
 10
-18.84909911732848
 20
20.59787779264377
 30
0.0
 11
-18.84909911732848
 21
33.41534713959027
 31
0.0
  0
LINE
  5
F1
330
2
100
AcDbEntity
  8
GAIKEI
100
AcDbLine
 10
-18.71359149490706
 20
28.33687807753256
 30
0.0
 11
-18.71359149490706
 21
27.94508245967563
 31
0.0
  0
LINE
  5
F2
330
2
100
AcDbEntity
  8
GAIKEI
100
AcDbLine
 10
-18.65307434935346
 20
20.59787779264377
 30
0.0
 11
-18.65307434935346
 21
21.31308042191381
 31
0.0
  0
LINE
  5
F3
330
2
100
AcDbEntity
  8
GAIKEI
100
AcDbLine
 10
-18.50605577337205
 20
23.16465115776145
 30
0.0
 11
-18.50605577337205
 21
27.37689840638677
 31
0.0
  0
LINE
  5
F4
330
2
100
AcDbEntity
  8
GAIKEI
100
AcDbLine
 10
-18.50605577337205
 20
27.49437784418876
 30
0.0
 11
-18.50605577337205
 21
27.94508245967563
 31
0.0
  0
LINE
  5
F5
330
2
100
AcDbEntity
  8
GAIKEI
100
AcDbLine
 10
-18.48751975256618
 20
27.94508245967563
 30
0.0
 11
-18.48751975256618
 21
28.33687807753256
 31
0.0
  0
LINE
  5
F6
330
2
100
AcDbEntity
  8
GAIKEI
100
AcDbLine
 10
-18.35929111548398
 20
20.59787779264377
 30
0.0
 11
-18.35929111548398
 21
21.31308042191381
 31
0.0
  0
LINE
  5
F7
330
2
100
AcDbEntity
  8
GAIKEI
100
AcDbLine
 10
-18.21227253950269
 20
28.67617642092853
 30
0.0
 11
-18.21227253950269
 21
32.94535838453578
 31
0.0
  0
LINE
  5
F8
330
2
100
AcDbEntity
  8
GAIKEI
100
AcDbLine
 10
-18.03478379233354
 20
27.94508245967563
 30
0.0
 11
-18.03478379233354
 21
28.33687807753256
 31
0.0
  0
LINE
  5
F9
330
2
100
AcDbEntity
  8
GAIKEI
100
AcDbLine
 10
-18.01624777152756
 20
27.49437784418876
 30
0.0
 11
-18.01624777152756
 21
27.94508245967563
 31
0.0
  0
LINE
  5
FA
330
2
100
AcDbEntity
  8
GAIKEI
100
AcDbLine
 10
-17.80871204999266
 20
28.33687807753256
 30
0.0
 11
-17.80871204999266
 21
27.94508245967563
 31
0.0
  0
LINE
  5
FB
330
2
100
AcDbEntity
  8
GAIKEI
100
AcDbLine
 10
-17.67337370630002
 20
20.85264227951984
 30
0.0
 11
-17.67337370630002
 21
20.77426622807559
 31
0.0
  0
LINE
  5
FC
330
2
100
AcDbEntity
  8
GAIKEI
100
AcDbLine
 10
-17.67337370630002
 20
23.00781441550851
 30
0.0
 11
-17.67337370630002
 21
23.16465115776145
 31
0.0
  0
LINE
  5
FD
330
2
100
AcDbEntity
  8
GAIKEI
100
AcDbLine
 10
-17.42859666442439
 20
20.85264227951984
 30
0.0
 11
-17.42859666442439
 21
20.59787779264377
 31
0.0
  0
LINE
  5
FE
330
2
100
AcDbEntity
  8
GAIKEI
100
AcDbLine
 10
-17.00997036804927
 20
20.59787779264377
 30
0.0
 11
-17.00997036804927
 21
20.75462989553228
 31
0.0
  0
LINE
  5
FF
330
2
100
AcDbEntity
  8
GAIKEI
100
AcDbLine
 10
-16.56756041027472
 20
22.44233882188087
 30
0.0
 11
-16.56756041027472
 21
20.75462989553228
 31
0.0
  0
LINE
  5
100
330
2
100
AcDbEntity
  8
GAIKEI
100
AcDbLine
 10
-16.80725041866083
 20
18.89006405151599
 30
0.0
 11
-16.71356331388313
 21
19.73591050548555
 31
0.0
  0
LINE
  5
101
330
2
100
AcDbEntity
  8
GAIKEI
100
AcDbLine
 10
-14.65445685650059
 20
20.59787779264377
 30
0.0
 11
-14.65445685650059
 21
21.18564019066685
 31
0.0
  0
LINE
  5
102
330
2
100
AcDbEntity
  8
GAIKEI
100
AcDbLine
 10
-11.57053697483366
 20
20.59787779264377
 30
0.0
 11
-11.57053697483366
 21
19.73591050548555
 31
0.0
  0
LINE
  5
103
330
2
100
AcDbEntity
  8
GAIKEI
100
AcDbLine
 10
-20.86038433381907
 20
32.76395577332687
 30
0.0
 11
-20.86038433381907
 21
32.64647633552488
 31
0.0
  0
LINE
  5
104
330
2
100
AcDbEntity
  8
GAIKEI
100
AcDbLine
 10
-20.71793628351588
 20
20.59787779264377
 30
0.0
 11
-20.71793628351588
 21
32.31584970285201
 31
0.0
  0
LINE
  5
105
330
2
100
AcDbEntity
  8
GAIKEI
100
AcDbLine
 10
-20.16634154565168
 20
32.57292472785195
 30
0.0
 11
-20.16634154565168
 21
20.59787779264377
 31
0.0
  0
LINE
  5
106
330
2
100
AcDbEntity
  8
GAIKEI
100
AcDbLine
 10
-20.00603458945784
 20
32.57292472785195
 30
0.0
 11
-20.00603458945784
 21
20.59787779264377
 31
0.0
  0
LINE
  5
107
330
2
100
AcDbEntity
  8
GAIKEI
100
AcDbLine
 10
-40.88047175533046
 20
20.75462989553228
 30
0.0
 11
-40.63552543472598
 21
20.75462989553228
 31
0.0
  0
LINE
  5
108
330
2
100
AcDbEntity
  8
GAIKEI
 62
     1
100
AcDbLine
 10
-31.50031419451887
 20
20.75462989553228
 30
0.0
 11
-30.37909653417091
 21
20.75462989553228
 31
0.0
  0
LINE
  5
109
330
2
100
AcDbEntity
  8
GAIKEI
100
AcDbLine
 10
-17.00997036804927
 20
20.75462989553228
 30
0.0
 11
-14.65445685650059
 21
20.75462989553228
 31
0.0
  0
LINE
  5
10A
330
2
100
AcDbEntity
  8
GAIKEI
100
AcDbLine
 10
-40.88047175533046
 20
20.67625384408803
 30
0.0
 11
-42.77300794355284
 21
20.67625384408803
 31
0.0
  0
LINE
  5
10B
330
2
100
AcDbEntity
  8
GAIKEI
100
AcDbLine
 10
-11.57053697483366
 20
20.59787779264366
 30
0.0
 11
-45.85692782521971
 21
20.59787779264366
 31
0.0
  0
LINE
  5
10C
330
2
100
AcDbEntity
  8
GAIKEI
 62
     1
100
AcDbLine
 10
-26.90134968990117
 20
20.59787779264366
 30
0.0
 11
-26.90134968990117
 21
33.25384841453581
 31
0.0
  0
LINE
  5
10D
330
2
100
AcDbEntity
  8
GAIKEI
 62
     1
100
AcDbLine
 10
-26.78378561273473
 20
20.59787779264366
 30
0.0
 11
-26.78378561273473
 21
33.25384841453581
 31
0.0
  0
LINE
  5
10E
330
2
100
AcDbEntity
  8
GAIKEI
100
AcDbLine
 10
-11.57053697483366
 20
19.73591050548555
 30
0.0
 11
-45.85692782521971
 21
19.73591050548555
 31
0.0
  0
LINE
  5
10F
330
2
100
AcDbEntity
  8
GAIKEI
100
AcDbLine
 10
-40.88047175533046
 20
22.42854260548188
 30
0.0
 11
-40.88047175533046
 21
20.59787779264366
 31
0.0
  0
LINE
  5
110
330
2
100
AcDbEntity
  8
GAIKEI
100
AcDbLine
 10
-40.63552543472598
 20
20.59787779264377
 30
0.0
 11
-40.63552543472598
 21
20.75462989553228
 31
0.0
  0
LINE
  5
111
330
2
100
AcDbEntity
  8
GAIKEI
100
AcDbLine
 10
-39.99886813562898
 20
20.85264227951984
 30
0.0
 11
-39.99886813562898
 21
20.59787779264377
 31
0.0
  0
LINE
  5
112
330
2
100
AcDbEntity
  8
GAIKEI
100
AcDbLine
 10
-36.72687958624164
 20
34.3020223033974
 30
0.0
 11
-36.84435902404369
 21
34.3020223033974
 31
0.0
  0
LINE
  5
113
330
2
100
AcDbEntity
  8
GAIKEI
100
AcDbLine
 10
-38.36287386093534
 20
33.63591050548553
 30
0.0
 11
-19.06442166038926
 21
33.63591050548553
 31
0.0
  0
LINE
  5
114
330
2
100
AcDbEntity
  8
GAIKEI
100
AcDbLine
 10
-38.4037239444537
 20
33.51817714959032
 30
0.0
 11
-18.95192912732852
 21
33.51817714959032
 31
0.0
  0
LINE
  5
115
330
2
100
AcDbEntity
  8
GAIKEI
100
AcDbLine
 10
-39.75375253629574
 20
23.00781441550851
 30
0.0
 11
-39.75375253629574
 21
23.08602118822398
 31
0.0
  0
LINE
  5
116
330
2
100
AcDbEntity
  8
GAIKEI
100
AcDbLine
 10
-39.65582479167262
 20
27.37689840638677
 30
0.0
 11
-39.65582479167262
 21
27.49437784418876
 31
0.0
  0
LINE
  5
117
330
2
100
AcDbEntity
  8
GAIKEI
100
AcDbLine
 10
-39.64990003616384
 20
23.00781441550851
 30
0.0
 11
-39.64990003616384
 21
23.16465115776145
 31
0.0
  0
LINE
  5
118
330
2
100
AcDbEntity
  8
GAIKEI
100
AcDbLine
 10
-39.61875275006071
 20
28.33687807753256
 30
0.0
 11
-39.61875275006071
 21
27.94508245967563
 31
0.0
  0
LINE
  5
119
330
2
100
AcDbEntity
  8
GAIKEI
100
AcDbLine
 10
-39.46013858115515
 20
20.85264227951984
 30
0.0
 11
-39.46013858115515
 21
20.95065466350741
 31
0.0
  0
LINE
  5
11A
330
2
100
AcDbEntity
  8
GAIKEI
100
AcDbLine
 10
-39.41087847106814
 20
20.95065466350741
 30
0.0
 11
-39.41087847106814
 21
23.00781441550851
 31
0.0
  0
LINE
  5
11B
330
2
100
AcDbEntity
  8
GAIKEI
100
AcDbLine
 10
-39.41087847106814
 20
23.16465115776145
 30
0.0
 11
-39.41087847106814
 21
27.37689840638677
 31
0.0
  0
LINE
  5
11C
330
2
100
AcDbEntity
  8
GAIKEI
100
AcDbLine
 10
-39.41087847106814
 20
27.49437784418876
 30
0.0
 11
-39.41087847106814
 21
27.94508245967563
 31
0.0
  0
LINE
  5
11D
330
2
100
AcDbEntity
  8
GAIKEI
100
AcDbLine
 10
-39.39251172899105
 20
27.94508245967563
 30
0.0
 11
-39.39251172899105
 21
28.33687807753256
 31
0.0
  0
LINE
  5
11E
330
2
100
AcDbEntity
  8
GAIKEI
100
AcDbLine
 10
-39.33317953453917
 20
27.37689840638677
 30
0.0
 11
-39.33317953453917
 21
27.49437784418876
 31
0.0
  0
LINE
  5
11F
330
2
100
AcDbEntity
  8
GAIKEI
100
AcDbLine
 10
-39.21502298182185
 20
20.59787779264377
 30
0.0
 11
-39.21502298182185
 21
32.94535838453578
 31
0.0
  0
LINE
  5
120
330
2
100
AcDbEntity
  8
GAIKEI
100
AcDbLine
 10
-38.57853496145367
 20
20.59787779264377
 30
0.0
 11
-38.57853496145367
 21
33.34336613259029
 31
0.0
  0
LINE
  5
121
330
2
100
AcDbEntity
  8
GAIKEI
100
AcDbLine
 10
-18.93373848173917
 20
33.40078235115266
 30
0.0
 11
-19.32578801768932
 21
33.40078235115266
 31
0.0
  0
LINE
  5
122
330
2
100
AcDbEntity
  8
GAIKEI
 62
     1
100
AcDbLine
 10
-30.21751998751097
 20
36.54902814977163
 30
0.0
 11
-32.04437602895064
 21
33.63591050548553
 31
0.0
  0
LINE
  5
123
330
2
100
AcDbEntity
  8
GAIKEI
 62
     1
100
AcDbLine
 10
-31.90556747131712
 20
33.63591050548553
 30
0.0
 11
-30.11806873432841
 21
36.48647965947214
 31
0.0
  0
LINE
  5
124
330
2
100
AcDbEntity
  8
GAIKEI
100
AcDbLine
 10
-17.42859666442439
 20
23.00781441550851
 30
0.0
 11
-14.65445685650059
 21
21.18564019066685
 31
0.0
  0
LINE
  5
125
330
2
100
AcDbEntity
  8
GAIKEI
100
AcDbLine
 10
-42.77300794355284
 20
21.18558275412715
 30
0.0
 11
-39.99886813562898
 21
23.00781441550851
 31
0.0
  0
LINE
  5
126
330
2
100
AcDbEntity
  8
GAIKEI
100
AcDbLine
 10
-39.61875275006071
 20
27.94508245967563
 30
0.0
 11
-39.42772170458585
 21
27.94508245967563
 31
0.0
  0
LINE
  5
127
330
2
100
AcDbEntity
  8
GAIKEI
100
AcDbLine
 10
-39.74164910718503
 20
23.16465115776145
 30
0.0
 11
-39.42061199797536
 21
23.16465115776145
 31
0.0
  0
LINE
  5
128
330
2
100
AcDbEntity
  8
GAIKEI
100
AcDbLine
 10
-39.99886813562898
 20
23.00781441550851
 30
0.0
 11
-39.76729483460145
 21
23.00781441550851
 31
0.0
  0
LINE
  5
129
330
2
100
AcDbEntity
  8
GAIKEI
100
AcDbLine
 10
-17.67337370630002
 20
23.00781441550851
 30
0.0
 11
-17.42859666442439
 21
23.00781441550851
 31
0.0
  0
LINE
  5
12A
330
2
100
AcDbEntity
  8
GAIKEI
 62
     1
100
AcDbLine
 10
-27.24422375512882
 20
36.48647965947214
 30
0.0
 11
-27.24422375512882
 21
36.60421301536735
 31
0.0
  0
LINE
  5
12B
330
2
100
AcDbEntity
  8
GAIKEI
100
AcDbLine
 10
-11.57053697483366
 20
20.59787779264377
 30
0.0
 11
-45.85692782521971
 21
20.59787779264377
 31
0.0
  0
LINE
  5
12C
330
2
100
AcDbEntity
  8
GAIKEI
100
AcDbLine
 10
-11.57053697483366
 20
19.73591050548555
 30
0.0
 11
-16.7137325926119
 21
19.73591050548555
 31
0.0
  0
LINE
  5
12D
330
2
100
AcDbEntity
  8
GAIKEI
100
AcDbLine
 10
-20.86038433381907
 20
32.76395577332687
 30
0.0
 11
-20.86038433381907
 21
32.64647633552488
 31
0.0
  0
LINE
  5
12E
330
2
100
AcDbEntity
  8
GAIKEI
100
AcDbLine
 10
-20.71793628351588
 20
20.59787779264377
 30
0.0
 11
-20.71793628351588
 21
32.27914149398259
 31
0.0
  0
LINE
  5
12F
330
2
100
AcDbEntity
  8
GAIKEI
100
AcDbLine
 10
-18.21227253950269
 20
28.67628192881932
 30
0.0
 11
-18.21227253950269
 21
32.96014982003078
 31
0.0
  0
LINE
  5
130
330
2
100
AcDbEntity
  8
GAIKEI
100
AcDbLine
 10
-17.67337370630002
 20
23.00781441550851
 30
0.0
 11
-17.67337370630002
 21
23.08602118822398
 31
0.0
  0
LINE
  5
131
330
2
100
AcDbEntity
  8
GAIKEI
100
AcDbLine
 10
-16.80725041866083
 20
18.89006405151599
 30
0.0
 11
-16.71356331388313
 21
19.73591050548555
 31
0.0
  0
LINE
  5
132
330
2
100
AcDbEntity
  8
GAIKEI
100
AcDbLine
 10
-11.57053697483366
 20
20.59787779264377
 30
0.0
 11
-11.57053697483366
 21
19.73591050548555
 31
0.0
  0
SPLINE
  5
133
330
2
100
AcDbEntity
  8
GAIKEI
 62
     1
100
AcDbSpline
210
0.0
220
0.0
230
1.0
 70
     8
 71
     3
 72
     8
 73
     4
 74
     0
 42
0.0000000001
 43
0.0000000001
 40
0.0
 40
0.0
 40
0.0
 40
0.0
 40
1.0
 40
1.0
 40
1.0
 40
1.0
 10
-30.11806873432841
 20
36.60421301536747
 30
0.0
 10
-30.15844171115225
 20
36.60421301536747
 30
0.0
 10
-30.19619086767943
 20
36.58339173172237
 30
0.0
 10
-30.21751998751097
 20
36.54902814977163
 30
0.0
  0
LINE
  5
134
330
2
100
AcDbEntity
  8
GAIKEI
100
AcDbLine
 10
-30.37909653417091
 20
33.40078235115266
 30
0.0
 11
-24.93060672896343
 21
33.40078235115266
 31
0.0
  0
LINE
  5
135
330
2
100
AcDbEntity
  8
GAIKEI
 62
     1
100
AcDbLine
 10
-21.53311093830246
 20
17.77667849810757
 30
0.0
 11
-35.89452314047981
 21
17.77667849810757
 31
0.0
  0
LINE
  5
136
330
2
100
AcDbEntity
  8
GAIKEI
 62
     1
100
AcDbLine
 10
14.28703318677765
 20
17.67885713715645
 30
0.0
 11
14.28703318677765
 21
16.0762932829549
 31
0.0
  0
ARC
  5
137
330
2
100
AcDbEntity
  8
GAIKEI
100
AcDbCircle
 10
20.81767671597436
 20
17.48470558586769
 30
0.0
 40
7.271669767551909
100
AcDbArc
 50
178.4689134659207
 51
271.6111284254683
  0
ARC
  5
138
330
2
100
AcDbEntity
  8
GAIKEI
  6
Continuous
 62
     1
100
AcDbCircle
 10
19.8988242941964
 20
16.17095269414562
 30
0.0
 40
4.499576400114587
100
AcDbArc
 50
216.4736642382187
 51
250.2051514528015
  0
ARC
  5
139
330
2
100
AcDbEntity
  8
GAIKEI
  6
Continuous
 62
     1
100
AcDbCircle
 10
21.76959660632963
 20
16.52237826048713
 30
0.0
 40
5.704953249048968
100
AcDbArc
 50
223.1704197338505
 51
240.6206122022599
  0
ARC
  5
13A
330
2
100
AcDbEntity
  8
GAIKEI
100
AcDbCircle
 10
21.22657419819416
 20
17.48470558586769
 30
0.0
 40
7.271669767551917
100
AcDbArc
 50
268.3888715745317
 51
1.531086534079226
  0
ARC
  5
13B
330
2
100
AcDbEntity
  8
GAIKEI
  6
Continuous
 62
     1
100
AcDbCircle
 10
21.00896023360042
 20
18.34728384544849
 30
0.0
 40
7.095188606213575
100
AcDbArc
 50
198.6674441700658
 51
342.017999478755
  0
ARC
  5
13C
330
2
100
AcDbEntity
  8
GAIKEI
  6
Continuous
 62
     1
100
AcDbCircle
 10
21.00382471318778
 20
19.20582308910764
 30
0.0
 40
7.410077274688399
100
AcDbArc
 50
204.9820496257351
 51
335.7047332337932
  0
LINE
  5
13D
330
2
100
AcDbEntity
  8
GAIKEI
  6
Continuous
 62
     1
100
AcDbLine
 10
24.89683191671679
 20
12.89813609148211
 30
0.0
 11
25.18242845634336
 21
12.6093517831548
 31
0.0
  0
LINE
  5
13E
330
2
100
AcDbEntity
  8
GAIKEI
 62
     1
100
AcDbLine
 10
27.75764530705032
 20
17.67885713715645
 30
0.0
 11
27.75764530705032
 21
16.15702781838684
 31
0.0
  0
LINE
  5
13F
330
2
100
AcDbEntity
  8
GAIKEI
 62
     1
100
AcDbLine
 10
22.49138018388896
 20
33.63591050548553
 30
0.0
 11
22.49138018388896
 21
36.63591050548553
 31
0.0
  0
LINE
  5
140
330
2
100
AcDbEntity
  8
GAIKEI
 62
     1
100
AcDbLine
 10
19.55270145155077
 20
33.63591050548553
 30
0.0
 11
19.55270145155077
 21
36.63591050548553
 31
0.0
  0
LINE
  5
141
330
2
100
AcDbEntity
  8
GAIKEI
 62
     1
100
AcDbLine
 10
19.55270145155077
 20
36.63591050548553
 30
0.0
 11
22.49138018388896
 21
36.63591050548553
 31
0.0
  0
LINE
  5
142
330
2
100
AcDbEntity
  8
GAIKEI
  6
Continuous
100
AcDbLine
 10
27.22814548835675
 20
33.22295504652584
 30
0.0
 11
14.81624795236496
 21
33.22295504652596
 31
0.0
  0
LINE
  5
143
330
2
100
AcDbEntity
  8
GAIKEI
 62
     1
100
AcDbLine
 10
16.51313259683513
 20
24.21096298060604
 30
0.0
 11
19.45468906756332
 21
24.21096298060604
 31
0.0
  0
LINE
  5
144
330
2
100
AcDbEntity
  8
GAIKEI
 62
     1
100
AcDbLine
 10
22.95181832628293
 20
20.59787779264366
 30
0.0
 11
22.95181832628293
 21
33.51656900166654
 31
0.0
  0
LINE
  5
145
330
2
100
AcDbEntity
  8
GAIKEI
 62
     1
100
AcDbLine
 10
19.45468906756332
 20
24.21096298060604
 30
0.0
 11
19.45468906756332
 21
27.14981099167301
 31
0.0
  0
LINE
  5
146
330
2
100
AcDbEntity
  8
GAIKEI
 62
     1
100
AcDbLine
 10
16.51313259683513
 20
27.14981099167301
 30
0.0
 11
19.45468906756332
 21
27.14981099167301
 31
0.0
  0
LINE
  5
147
330
2
100
AcDbEntity
  8
GAIKEI
 62
     1
100
AcDbLine
 10
16.51313259683513
 20
27.14981099167301
 30
0.0
 11
16.51313259683513
 21
24.21096298060604
 31
0.0
  0
LINE
  5
148
330
2
100
AcDbEntity
  8
GAIKEI
 62
     1
100
AcDbLine
 10
17.19177102067988
 20
24.21096298060604
 30
0.0
 11
17.19177102067988
 21
20.59787779264366
 31
0.0
  0
LINE
  5
149
330
2
100
AcDbEntity
  8
GAIKEI
 62
     1
100
AcDbLine
 10
17.19177102067988
 20
33.22295504652596
 30
0.0
 11
17.19177102067988
 21
27.14981099167301
 31
0.0
  0
LINE
  5
14A
330
2
100
AcDbEntity
  8
GAIKEI
 62
     1
100
AcDbLine
 10
28.20249217424589
 20
17.77667849810757
 30
0.0
 11
13.84107997206843
 21
17.77667849810757
 31
0.0
  0
LINE
  5
14B
330
2
100
AcDbEntity
  8
GAIKEI
100
AcDbLine
 10
38.16506613771458
 20
20.59787779264377
 30
0.0
 11
38.16506613771458
 21
19.73591050548555
 31
0.0
  0
LINE
  5
14C
330
2
100
AcDbEntity
  8
GAIKEI
100
AcDbLine
 10
32.92835269388752
 20
18.89006405151599
 30
0.0
 11
33.02203979866511
 21
19.73591050548555
 31
0.0
  0
LINE
  5
14D
330
2
100
AcDbEntity
  8
GAIKEI
100
AcDbLine
 10
32.06222940624832
 20
23.00781441550851
 30
0.0
 11
32.06222940624832
 21
23.08602118822398
 31
0.0
  0
LINE
  5
14E
330
2
100
AcDbEntity
  8
GAIKEI
100
AcDbLine
 10
31.52333057304554
 20
28.67628192881932
 30
0.0
 11
31.52333057304554
 21
32.96014982003078
 31
0.0
  0
LINE
  5
14F
330
2
100
AcDbEntity
  8
GAIKEI
100
AcDbLine
 10
38.16506613771458
 20
19.73591050548555
 30
0.0
 11
33.02187051993633
 21
19.73591050548555
 31
0.0
  0
LINE
  5
150
330
2
100
AcDbEntity
  8
GAIKEI
100
AcDbLine
 10
38.16506613771458
 20
20.59787779264377
 30
0.0
 11
3.878675287328519
 21
20.59787779264377
 31
0.0
  0
LINE
  5
151
330
2
100
AcDbEntity
  8
GAIKEI
100
AcDbLine
 10
32.06222940624832
 20
23.00781441550851
 30
0.0
 11
32.30700644812384
 21
23.00781441550851
 31
0.0
  0
LINE
  5
152
330
2
100
AcDbEntity
  8
GAIKEI
100
AcDbLine
 10
9.736734976919251
 20
23.00781441550851
 30
0.0
 11
9.968308277946903
 21
23.00781441550851
 31
0.0
  0
LINE
  5
153
330
2
100
AcDbEntity
  8
GAIKEI
100
AcDbLine
 10
9.993954005363207
 20
23.16465115776145
 30
0.0
 11
10.31499111457288
 21
23.16465115776145
 31
0.0
  0
LINE
  5
154
330
2
100
AcDbEntity
  8
GAIKEI
100
AcDbLine
 10
10.11685036248752
 20
27.94508245967563
 30
0.0
 11
10.30788140796244
 21
27.94508245967563
 31
0.0
  0
LINE
  5
155
330
2
100
AcDbEntity
  8
GAIKEI
100
AcDbLine
 10
6.671870712521581
 20
21.18558275412715
 30
0.0
 11
9.736734976919251
 21
23.00781441550851
 31
0.0
  0
LINE
  5
156
330
2
100
AcDbEntity
  8
GAIKEI
100
AcDbLine
 10
32.30700644812384
 20
23.00781441550851
 30
0.0
 11
35.37187071252163
 21
21.18564019066685
 31
0.0
  0
LINE
  5
157
330
2
100
AcDbEntity
  8
GAIKEI
100
AcDbLine
 10
11.15706815109456
 20
20.59787779264377
 30
0.0
 11
11.15706815109456
 21
33.34336613259029
 31
0.0
  0
LINE
  5
158
330
2
100
AcDbEntity
  8
GAIKEI
100
AcDbLine
 10
10.52058013072644
 20
20.59787779264377
 30
0.0
 11
10.52058013072644
 21
32.94535838453578
 31
0.0
  0
LINE
  5
159
330
2
100
AcDbEntity
  8
GAIKEI
100
AcDbLine
 10
10.40242357800912
 20
27.37689840638677
 30
0.0
 11
10.40242357800912
 21
27.49437784418876
 31
0.0
  0
LINE
  5
15A
330
2
100
AcDbEntity
  8
GAIKEI
100
AcDbLine
 10
10.34309138355729
 20
27.94508245967563
 30
0.0
 11
10.34309138355729
 21
28.33687807753256
 31
0.0
  0
LINE
  5
15B
330
2
100
AcDbEntity
  8
GAIKEI
100
AcDbLine
 10
10.3247246414802
 20
27.49437784418876
 30
0.0
 11
10.3247246414802
 21
27.94508245967563
 31
0.0
  0
LINE
  5
15C
330
2
100
AcDbEntity
  8
GAIKEI
100
AcDbLine
 10
10.3247246414802
 20
23.16465115776145
 30
0.0
 11
10.3247246414802
 21
27.37689840638677
 31
0.0
  0
LINE
  5
15D
330
2
100
AcDbEntity
  8
GAIKEI
100
AcDbLine
 10
10.3247246414802
 20
20.95065466350741
 30
0.0
 11
10.3247246414802
 21
23.00781441550851
 31
0.0
  0
LINE
  5
15E
330
2
100
AcDbEntity
  8
GAIKEI
100
AcDbLine
 10
10.27546453139314
 20
20.85264227951984
 30
0.0
 11
10.27546453139314
 21
20.95065466350741
 31
0.0
  0
LINE
  5
15F
330
2
100
AcDbEntity
  8
GAIKEI
100
AcDbLine
 10
10.11685036248752
 20
28.33687807753256
 30
0.0
 11
10.11685036248752
 21
27.94508245967563
 31
0.0
  0
LINE
  5
160
330
2
100
AcDbEntity
  8
GAIKEI
100
AcDbLine
 10
10.08570307638445
 20
23.00781441550851
 30
0.0
 11
10.08570307638445
 21
23.16465115776145
 31
0.0
  0
LINE
  5
161
330
2
100
AcDbEntity
  8
GAIKEI
100
AcDbLine
 10
10.07977832087567
 20
27.37689840638677
 30
0.0
 11
10.07977832087567
 21
27.49437784418876
 31
0.0
  0
LINE
  5
162
330
2
100
AcDbEntity
  8
GAIKEI
100
AcDbLine
 10
9.981850576252554
 20
23.00781441550851
 30
0.0
 11
9.981850576252554
 21
23.08602118822398
 31
0.0
  0
LINE
  5
163
330
2
100
AcDbEntity
  8
GAIKEI
100
AcDbLine
 10
11.33187916809458
 20
33.51817714959032
 30
0.0
 11
30.78367398521971
 21
33.51817714959032
 31
0.0
  0
LINE
  5
164
330
2
100
AcDbEntity
  8
GAIKEI
100
AcDbLine
 10
11.37272925161289
 20
33.63591050548553
 30
0.0
 11
30.67118145215898
 21
33.63591050548553
 31
0.0
  0
LINE
  5
165
330
2
100
AcDbEntity
  8
GAIKEI
100
AcDbLine
 10
9.736734976919251
 20
20.85264227951984
 30
0.0
 11
9.736734976919251
 21
20.59787779264377
 31
0.0
  0
LINE
  5
166
330
2
100
AcDbEntity
  8
GAIKEI
100
AcDbLine
 10
9.100077677822241
 20
20.59787779264377
 30
0.0
 11
9.100077677822241
 21
20.75462989553228
 31
0.0
  0
LINE
  5
167
330
2
100
AcDbEntity
  8
GAIKEI
100
AcDbLine
 10
8.855131357217828
 20
22.42854260548188
 30
0.0
 11
8.855131357217828
 21
20.59787779264366
 31
0.0
  0
LINE
  5
168
330
2
100
AcDbEntity
  8
GAIKEI
100
AcDbLine
 10
38.16506613771458
 20
19.73591050548555
 30
0.0
 11
3.878675287328519
 21
19.73591050548555
 31
0.0
  0
LINE
  5
169
330
2
100
AcDbEntity
  8
GAIKEI
100
AcDbLine
 10
38.16506613771458
 20
20.59787779264366
 30
0.0
 11
3.878675287328519
 21
20.59787779264366
 31
0.0
  0
LINE
  5
16A
330
2
100
AcDbEntity
  8
GAIKEI
100
AcDbLine
 10
8.855131357217828
 20
20.67625384408803
 30
0.0
 11
6.671870712521581
 21
20.67625384408803
 31
0.0
  0
LINE
  5
16B
330
2
100
AcDbEntity
  8
GAIKEI
100
AcDbLine
 10
32.72563274449897
 20
20.75462989553228
 30
0.0
 11
35.37187071252163
 21
20.75462989553228
 31
0.0
  0
LINE
  5
16C
330
2
100
AcDbEntity
  8
GAIKEI
100
AcDbLine
 10
8.855131357217828
 20
20.75462989553228
 30
0.0
 11
9.100077677822241
 21
20.75462989553228
 31
0.0
  0
LINE
  5
16D
330
2
100
AcDbEntity
  8
GAIKEI
100
AcDbLine
 10
38.16506613771458
 20
20.59787779264377
 30
0.0
 11
38.16506613771458
 21
19.73591050548555
 31
0.0
  0
LINE
  5
16E
330
2
100
AcDbEntity
  8
GAIKEI
100
AcDbLine
 10
35.37187071252163
 20
20.59787779264377
 30
0.0
 11
35.37187071252163
 21
21.18564019066685
 31
0.0
  0
LINE
  5
16F
330
2
100
AcDbEntity
  8
GAIKEI
100
AcDbLine
 10
32.92835269388752
 20
18.89006405151599
 30
0.0
 11
33.02203979866511
 21
19.73591050548555
 31
0.0
  0
LINE
  5
170
330
2
100
AcDbEntity
  8
GAIKEI
100
AcDbLine
 10
33.16804270227351
 20
22.44233882188087
 30
0.0
 11
33.16804270227351
 21
20.75462989553228
 31
0.0
  0
LINE
  5
171
330
2
100
AcDbEntity
  8
GAIKEI
100
AcDbLine
 10
32.72563274449897
 20
20.59787779264377
 30
0.0
 11
32.72563274449897
 21
20.75462989553228
 31
0.0
  0
LINE
  5
172
330
2
100
AcDbEntity
  8
GAIKEI
100
AcDbLine
 10
32.30700644812384
 20
20.85264227951984
 30
0.0
 11
32.30700644812384
 21
20.59787779264377
 31
0.0
  0
LINE
  5
173
330
2
100
AcDbEntity
  8
GAIKEI
100
AcDbLine
 10
32.06222940624832
 20
23.00781441550851
 30
0.0
 11
32.06222940624832
 21
23.16465115776145
 31
0.0
  0
LINE
  5
174
330
2
100
AcDbEntity
  8
GAIKEI
100
AcDbLine
 10
32.06222940624832
 20
20.85264227951984
 30
0.0
 11
32.06222940624832
 21
20.77426622807559
 31
0.0
  0
LINE
  5
175
330
2
100
AcDbEntity
  8
GAIKEI
100
AcDbLine
 10
31.92689106255557
 20
28.33687807753256
 30
0.0
 11
31.92689106255557
 21
27.94508245967563
 31
0.0
  0
LINE
  5
176
330
2
100
AcDbEntity
  8
GAIKEI
100
AcDbLine
 10
31.71935534102067
 20
27.49437784418876
 30
0.0
 11
31.71935534102067
 21
27.94508245967563
 31
0.0
  0
LINE
  5
177
330
2
100
AcDbEntity
  8
GAIKEI
100
AcDbLine
 10
31.70081932021469
 20
27.94508245967563
 30
0.0
 11
31.70081932021469
 21
28.33687807753256
 31
0.0
  0
LINE
  5
178
330
2
100
AcDbEntity
  8
GAIKEI
100
AcDbLine
 10
31.52333057304554
 20
28.67617642092853
 30
0.0
 11
31.52333057304554
 21
32.94535838453578
 31
0.0
  0
LINE
  5
179
330
2
100
AcDbEntity
  8
GAIKEI
100
AcDbLine
 10
31.37631199706425
 20
20.59787779264377
 30
0.0
 11
31.37631199706425
 21
21.31308042191381
 31
0.0
  0
LINE
  5
17A
330
2
100
AcDbEntity
  8
GAIKEI
100
AcDbLine
 10
31.24808335998216
 20
27.94508245967563
 30
0.0
 11
31.24808335998216
 21
28.33687807753256
 31
0.0
  0
LINE
  5
17B
330
2
100
AcDbEntity
  8
GAIKEI
100
AcDbLine
 10
31.22954733917618
 20
27.49437784418876
 30
0.0
 11
31.22954733917618
 21
27.94508245967563
 31
0.0
  0
LINE
  5
17C
330
2
100
AcDbEntity
  8
GAIKEI
100
AcDbLine
 10
31.22954733917618
 20
23.16465115776145
 30
0.0
 11
31.22954733917618
 21
27.37689840638677
 31
0.0
  0
LINE
  5
17D
330
2
100
AcDbEntity
  8
GAIKEI
100
AcDbLine
 10
31.08252876319489
 20
20.59787779264377
 30
0.0
 11
31.08252876319489
 21
21.31308042191381
 31
0.0
  0
LINE
  5
17E
330
2
100
AcDbEntity
  8
GAIKEI
100
AcDbLine
 10
31.02201161764128
 20
28.33687807753256
 30
0.0
 11
31.02201161764128
 21
27.94508245967563
 31
0.0
  0
LINE
  5
17F
330
2
100
AcDbEntity
  8
GAIKEI
100
AcDbLine
 10
30.88650399521976
 20
20.59787779264377
 30
0.0
 11
30.88650399521976
 21
33.41534713959027
 31
0.0
  0
LINE
  5
180
330
2
100
AcDbEntity
  8
GAIKEI
100
AcDbLine
 10
30.80186463080906
 20
33.41534713959027
 30
0.0
 11
30.80186463080906
 21
33.25384841453581
 31
0.0
  0
LINE
  5
181
330
2
100
AcDbEntity
  8
GAIKEI
100
AcDbLine
 10
11.37272925161289
 20
33.51817714959032
 30
0.0
 11
11.37272925161289
 21
33.63591050548553
 31
0.0
  0
LINE
  5
182
330
2
100
AcDbEntity
  8
GAIKEI
100
AcDbLine
 10
28.77234919897342
 20
17.7577556471366
 30
0.0
 11
28.55941994524403
 21
17.67885713715645
 31
0.0
  0
LINE
  5
183
330
2
100
AcDbEntity
  8
GAIKEI
100
AcDbLine
 10
28.84065322480149
 20
17.90453310631858
 30
0.0
 11
28.83942263746064
 21
17.8517809405472
 31
0.0
  0
LINE
  5
184
330
2
100
AcDbEntity
  8
GAIKEI
100
AcDbLine
 10
14.81624795236496
 20
33.22295504652596
 30
0.0
 11
14.85267934638045
 21
27.16998536621691
 31
0.0
  0
LINE
  5
185
330
2
100
AcDbEntity
  8
GAIKEI
 62
     1
100
AcDbLine
 10
13.4841522010704
 20
17.67885713715645
 30
0.0
 11
27.75757404377373
 21
17.67885713715645
 31
0.0
  0
LINE
  5
186
330
2
100
AcDbEntity
  8
GAIKEI
 62
     1
100
AcDbLine
 10
14.85250728650135
 20
27.19043792659761
 30
0.0
 11
27.19188615422036
 21
27.19043792659761
 31
0.0
  0
LINE
  5
187
330
2
100
AcDbEntity
  8
GAIKEI
 62
     1
100
AcDbLine
 10
28.55941994524403
 20
17.67885713715645
 30
0.0
 11
27.75757404377373
 21
17.67885713715645
 31
0.0
  0
LINE
  5
188
330
2
100
AcDbEntity
  8
GAIKEI
 62
     1
100
AcDbLine
 10
28.82171106576118
 20
17.79644154352616
 30
0.0
 11
28.25591280793185
 21
17.79644154352616
 31
0.0
  0
LINE
  5
189
330
2
100
AcDbEntity
  8
GAIKEI
100
AcDbLine
 10
30.80186463080906
 20
33.25384841453581
 30
0.0
 11
31.21484054304563
 21
33.25384841453581
 31
0.0
  0
LINE
  5
18A
330
2
100
AcDbEntity
  8
GAIKEI
 62
     1
100
AcDbLine
 10
13.08794597139501
 20
17.91734912175809
 30
0.0
 11
28.9557954536482
 21
17.91734912175809
 31
0.0
  0
LINE
  5
18B
330
2
100
AcDbEntity
  8
GAIKEI
100
AcDbLine
 10
12.49826351954596
 20
17.9275058454873
 30
0.0
 11
29.54581646295492
 21
17.9275058454873
 31
0.0
  0
LINE
  5
18C
330
2
100
AcDbEntity
  8
GAIKEI
100
AcDbLine
 10
9.834662721542372
 20
18.46259590729153
 30
0.0
 11
32.20890942477195
 21
18.46259590729153
 31
0.0
  0
LINE
  5
18D
330
2
100
AcDbEntity
  8
GAIKEI
100
AcDbLine
 10
9.136811161976538
 20
18.84144170239369
 30
0.0
 11
32.90709954179545
 21
18.84144170239369
 31
0.0
  0
LINE
  5
18E
330
2
100
AcDbEntity
  8
GAIKEI
100
AcDbLine
 10
9.981850576252554
 20
23.00781441550851
 30
0.0
 11
9.981850576252554
 21
23.16465115776145
 31
0.0
  0
LINE
  5
18F
330
2
100
AcDbEntity
  8
GAIKEI
100
AcDbLine
 10
11.37272925161289
 20
33.63591050548553
 30
0.0
 11
30.67118145215898
 21
33.63591050548553
 31
0.0
  0
LINE
  5
190
330
2
100
AcDbEntity
  8
GAIKEI
100
AcDbLine
 10
6.671870712521581
 20
20.59787779264366
 30
0.0
 11
6.671870712521581
 21
21.18558275412715
 31
0.0
  0
LINE
  5
191
330
2
100
AcDbEntity
  8
GAIKEI
100
AcDbLine
 10
3.878675287328519
 20
20.59787779264377
 30
0.0
 11
3.878675287328519
 21
19.73591050548555
 31
0.0
  0
LINE
  5
192
330
2
100
AcDbEntity
  8
GAIKEI
100
AcDbLine
 10
10.3247246414802
 20
23.16465115776145
 30
0.0
 11
10.3247246414802
 21
27.37689840638677
 31
0.0
  0
LINE
  5
193
330
2
100
AcDbEntity
  8
GAIKEI
100
AcDbLine
 10
10.3247246414802
 20
27.37689840638677
 30
0.0
 11
10.07977832087567
 21
27.37689840638677
 31
0.0
  0
LINE
  5
194
330
2
100
AcDbEntity
  8
GAIKEI
100
AcDbLine
 10
10.07977832087567
 20
27.37689840638677
 30
0.0
 11
10.07977832087567
 21
27.49437784418876
 31
0.0
  0
LINE
  5
195
330
2
100
AcDbEntity
  8
GAIKEI
100
AcDbLine
 10
10.07977832087567
 20
27.49437784418876
 30
0.0
 11
10.3247246414802
 21
27.49437784418876
 31
0.0
  0
LINE
  5
196
330
2
100
AcDbEntity
  8
GAIKEI
100
AcDbLine
 10
10.3247246414802
 20
27.49437784418876
 30
0.0
 11
10.3247246414802
 21
27.94508245967552
 31
0.0
  0
SPLINE
  5
197
330
2
100
AcDbEntity
  8
GAIKEI
100
AcDbSpline
210
0.0
220
0.0
230
1.0
 70
    24
 71
     3
 72
     8
 73
     4
 74
     0
 42
0.0000000001
 43
0.0000000001
 40
0.0
 40
0.0
 40
0.0
 40
0.0
 40
1.0
 40
1.0
 40
1.0
 40
1.0
 10
10.11685036248752
 20
27.94508245967563
 30
0.0
 10
10.11685036248752
 20
27.94508245967563
 30
0.0
 10
10.11685036248752
 20
28.33687807753256
 30
0.0
 10
10.11685036248752
 20
28.33687807753256
 30
0.0
  0
SPLINE
  5
198
330
2
100
AcDbEntity
  8
GAIKEI
100
AcDbSpline
210
0.0
220
0.0
230
1.0
 70
    24
 71
     3
 72
     8
 73
     4
 74
     0
 42
0.0000000001
 43
0.0000000001
 40
1.0
 40
1.0
 40
1.0
 40
1.0
 40
2.0
 40
2.0
 40
2.0
 40
2.0
 10
10.11685036248752
 20
28.33687807753256
 30
0.0
 10
10.11685036248752
 20
28.33687807753256
 30
0.0
 10
10.22662761812819
 20
28.33687807753256
 30
0.0
 10
10.22662761812819
 20
28.33687807753256
 30
0.0
  0
SPLINE
  5
199
330
2
100
AcDbEntity
  8
GAIKEI
100
AcDbSpline
210
0.0
220
0.0
230
1.0
 70
    24
 71
     3
 72
     8
 73
     4
 74
     0
 42
0.0000000001
 43
0.0000000001
 40
0.0
 40
0.0
 40
0.0
 40
0.0
 40
1.0
 40
1.0
 40
1.0
 40
1.0
 10
11.37272925161289
 20
33.63591050548553
 30
0.0
 10
11.37272925161289
 20
33.63591050548553
 30
0.0
 10
11.37272925161289
 20
33.51817714959032
 30
0.0
 10
11.37272925161289
 20
33.51817714959032
 30
0.0
  0
SPLINE
  5
19A
330
2
100
AcDbEntity
  8
GAIKEI
100
AcDbSpline
210
0.0
220
0.0
230
1.0
 70
    24
 71
     3
 72
     8
 73
     4
 74
     0
 42
0.0000000001
 43
0.0000000001
 40
5.0
 40
5.0
 40
5.0
 40
5.0
 40
6.0
 40
6.0
 40
6.0
 40
6.0
 10
31.71935534102067
 20
27.94508245967563
 30
0.0
 10
31.71935534102067
 20
27.94508245967563
 30
0.0
 10
31.92689106255557
 20
27.94508245967563
 30
0.0
 10
31.92689106255557
 20
27.94508245967563
 30
0.0
  0
SPLINE
  5
19B
330
2
100
AcDbEntity
  8
GAIKEI
100
AcDbSpline
210
0.0
220
0.0
230
1.0
 70
    24
 71
     3
 72
     8
 73
     4
 74
     0
 42
0.0000000001
 43
0.0000000001
 40
6.0
 40
6.0
 40
6.0
 40
6.0
 40
7.0
 40
7.0
 40
7.0
 40
7.0
 10
31.92689106255557
 20
27.94508245967563
 30
0.0
 10
31.92689106255557
 20
27.94508245967563
 30
0.0
 10
31.92689106255557
 20
28.33687807753256
 30
0.0
 10
31.92689106255557
 20
28.33687807753256
 30
0.0
  0
SPLINE
  5
19C
330
2
100
AcDbEntity
  8
GAIKEI
100
AcDbSpline
210
0.0
220
0.0
230
1.0
 70
    24
 71
     3
 72
     8
 73
     4
 74
     0
 42
0.0000000001
 43
0.0000000001
 40
7.0
 40
7.0
 40
7.0
 40
7.0
 40
8.0
 40
8.0
 40
8.0
 40
8.0
 10
31.92689106255557
 20
28.33687807753256
 30
0.0
 10
31.92689106255557
 20
28.33687807753256
 30
0.0
 10
31.81711380691502
 20
28.33687807753256
 30
0.0
 10
31.81711380691502
 20
28.33687807753256
 30
0.0
  0
LINE
  5
19D
330
2
100
AcDbEntity
  8
GAIKEI
100
AcDbLine
 10
31.08252876319489
 20
20.77426622807548
 30
0.0
 11
30.88650399521976
 21
20.77426622807548
 31
0.0
  0
LINE
  5
19E
330
2
100
AcDbEntity
  8
GAIKEI
100
AcDbLine
 10
32.06222940624832
 20
20.77426622807548
 30
0.0
 11
31.37631199706425
 21
20.77426622807548
 31
0.0
  0
LINE
  5
19F
330
2
100
AcDbEntity
  8
GAIKEI
100
AcDbLine
 10
32.06222940624832
 20
20.85264227951984
 30
0.0
 11
32.30700644812384
 21
20.85264227951984
 31
0.0
  0
LINE
  5
1A0
330
2
100
AcDbEntity
  8
GAIKEI
100
AcDbLine
 10
9.736734976919251
 20
20.85264227951984
 30
0.0
 11
10.52058013072644
 21
20.85264227951984
 31
0.0
  0
LINE
  5
1A1
330
2
100
AcDbEntity
  8
GAIKEI
100
AcDbLine
 10
10.27546453139314
 20
20.95065466350741
 30
0.0
 11
10.52058013072644
 21
20.95065466350741
 31
0.0
  0
LINE
  5
1A2
330
2
100
AcDbEntity
  8
GAIKEI
100
AcDbLine
 10
31.08252876319489
 20
21.31308042191381
 30
0.0
 11
31.37631199706425
 21
21.31308042191381
 31
0.0
  0
LINE
  5
1A3
330
2
100
AcDbEntity
  8
GAIKEI
100
AcDbLine
 10
32.06222940624832
 20
23.00781441550851
 30
0.0
 11
32.30700644812384
 21
23.00781441550851
 31
0.0
  0
LINE
  5
1A4
330
2
100
AcDbEntity
  8
GAIKEI
100
AcDbLine
 10
9.736734976919251
 20
23.00781441550851
 30
0.0
 11
10.52058013072644
 21
23.00781441550851
 31
0.0
  0
LINE
  5
1A5
330
2
100
AcDbEntity
  8
GAIKEI
100
AcDbLine
 10
30.89911526051697
 20
23.16465115776145
 30
0.0
 11
32.06222940624832
 21
23.16465115776145
 31
0.0
  0
LINE
  5
1A6
330
2
100
AcDbEntity
  8
GAIKEI
100
AcDbLine
 10
9.981850576252554
 20
23.16465115776145
 30
0.0
 11
10.52058013072644
 21
23.16465115776145
 31
0.0
  0
LINE
  5
1A7
330
2
100
AcDbEntity
  8
GAIKEI
100
AcDbLine
 10
30.88650399521976
 20
27.37689840638677
 30
0.0
 11
31.96413238289631
 21
27.37689840638677
 31
0.0
  0
LINE
  5
1A8
330
2
100
AcDbEntity
  8
GAIKEI
100
AcDbLine
 10
10.07977832087567
 20
27.37689840638677
 30
0.0
 11
10.52058013072644
 21
27.37689840638677
 31
0.0
  0
LINE
  5
1A9
330
2
100
AcDbEntity
  8
GAIKEI
100
AcDbLine
 10
10.07977832087567
 20
27.49437784418876
 30
0.0
 11
10.52058013072644
 21
27.49437784418876
 31
0.0
  0
LINE
  5
1AA
330
2
100
AcDbEntity
  8
GAIKEI
100
AcDbLine
 10
31.02201161764128
 20
27.94508245967552
 30
0.0
 11
31.92689106255568
 21
27.94508245967552
 31
0.0
  0
LINE
  5
1AB
330
2
100
AcDbEntity
  8
GAIKEI
100
AcDbLine
 10
10.11685036248752
 20
27.94508245967552
 30
0.0
 11
10.52058013072644
 21
27.94508245967552
 31
0.0
  0
LINE
  5
1AC
330
2
100
AcDbEntity
  8
GAIKEI
100
AcDbLine
 10
31.02201161764128
 20
28.33687807753256
 30
0.0
 11
31.92689106255568
 21
28.33687807753256
 31
0.0
  0
LINE
  5
1AD
330
2
100
AcDbEntity
  8
GAIKEI
100
AcDbLine
 10
10.11685036248752
 20
28.33687807753256
 30
0.0
 11
10.52058013072644
 21
28.33687807753256
 31
0.0
  0
LINE
  5
1AE
330
2
100
AcDbEntity
  8
GAIKEI
100
AcDbLine
 10
10.40310069292445
 20
20.95065466350741
 30
0.0
 11
10.40310069292445
 21
23.00781441550851
 31
0.0
  0
LINE
  5
1AF
330
2
100
AcDbEntity
  8
GAIKEI
100
AcDbLine
 10
3.878675287328519
 20
20.59787779264377
 30
0.0
 11
3.878675287328519
 21
19.73591050548555
 31
0.0
  0
LINE
  5
1B0
330
2
100
AcDbEntity
  8
GAIKEI
  6
Continuous
100
AcDbLine
 10
10.11685036248752
 20
28.33687807753256
 30
0.0
 11
10.11685036248752
 21
27.94508245967552
 31
0.0
  0
LINE
  5
1B1
330
2
100
AcDbEntity
  8
GAIKEI
  6
Continuous
100
AcDbLine
 10
31.71935534102067
 20
23.16465115776145
 30
0.0
 11
31.71935534102067
 21
27.37689840638677
 31
0.0
  0
ARC
  5
1B2
330
2
100
AcDbEntity
  8
GAIKEI
100
AcDbCircle
 10
30.69903462080913
 20
33.41534713959027
 30
0.0
 40
0.10283001
100
AcDbArc
 50
0.0
 51
90.0
  0
ARC
  5
1B3
330
2
100
AcDbEntity
  8
GAIKEI
100
AcDbCircle
 10
30.78367398521971
 20
33.41534713959027
 30
0.0
 40
0.10283001
100
AcDbArc
 50
0.0
 51
90.0
  0
ARC
  5
1B4
330
2
100
AcDbEntity
  8
GAIKEI
  6
Continuous
100
AcDbCircle
 10
31.15272010136096
 20
17.03623152644081
 30
0.0
 40
18.19048609279576
100
AcDbArc
 50
160.4221345421724
 51
168.7087023743425
  0
ARC
  5
1B5
330
2
100
AcDbEntity
  8
GAIKEI
  6
Continuous
100
AcDbCircle
 10
-3.38094505797369
 20
29.31149242543859
 30
0.0
 40
18.45997226048191
100
AcDbArc
 50
340.4414163234033
 51
347.9130647285396
  0
ARC
  5
1B6
330
2
100
AcDbEntity
  8
GAIKEI
  6
Continuous
100
AcDbCircle
 10
6.626135307660092
 20
27.17024899930482
 30
0.0
 40
8.226371983065714
100
AcDbArc
 50
347.9014724635643
 51
359.9981638244302
  0
ARC
  5
1B7
330
2
100
AcDbEntity
  8
GAIKEI
  6
Continuous
100
AcDbCircle
 10
11.33187916809458
 20
33.34336613259029
 30
0.0
 40
0.174811017
100
AcDbArc
 50
89.99999999999349
 51
179.9999999999935
  0
LINE
  5
1B8
330
2
100
AcDbEntity
  8
GAIKEI
  6
Continuous
100
AcDbLine
 10
10.82907016072636
 20
33.25384841453581
 30
0.0
 11
11.15706815109456
 21
33.25384841453581
 31
0.0
  0
ARC
  5
1B9
330
2
100
AcDbEntity
  8
GAIKEI
  6
Continuous
100
AcDbCircle
 10
10.82907016072636
 20
32.94535838453578
 30
0.0
 40
0.30849003
100
AcDbArc
 50
90.0
 51
180.0
  0
ARC
  5
1BA
330
2
100
AcDbEntity
  8
GAIKEI
  6
Continuous
100
AcDbCircle
 10
45.42533849869551
 20
29.31149242543859
 30
0.0
 40
18.45997226048191
100
AcDbArc
 50
192.0869352714604
 51
199.5585836765966
  0
ARC
  5
1BB
330
2
100
AcDbEntity
  8
GAIKEI
  6
Continuous
100
AcDbCircle
 10
10.89167333936075
 20
17.03623152644081
 30
0.0
 40
18.19048609279576
100
AcDbArc
 50
11.29129762565755
 51
19.57786545782755
  0
ARC
  5
1BC
330
2
100
AcDbEntity
  8
GAIKEI
  6
Continuous
100
AcDbCircle
 10
35.41825813306161
 20
27.17024899930482
 30
0.0
 40
8.226371983065714
100
AcDbArc
 50
180.0018361755698
 51
192.0985275364357
  0
LINE
  5
1BD
330
2
100
AcDbEntity
  8
GAIKEI
100
AcDbLine
 10
27.22814548835675
 20
33.22295504652584
 30
0.0
 11
27.19171409434125
 21
27.16998536621691
 31
0.0
  0
LINE
  5
1BE
330
2
100
AcDbEntity
  8
GAIKEI
  6
Continuous
100
AcDbLine
 10
30.67118145215898
 20
33.63591050548553
 30
0.0
 11
30.67118145215898
 21
33.51817714959032
 31
0.0
  0
ARC
  5
1BF
330
2
100
AcDbEntity
  8
GAIKEI
100
AcDbCircle
 10
31.21484054304563
 20
32.94535838453578
 30
0.0
 40
0.30849003
100
AcDbArc
 50
0.0
 51
90.0
  0
LINE
  5
1C0
330
2
100
AcDbEntity
  8
GAIKEI
  6
Continuous
100
AcDbLine
 10
31.92689106255557
 20
28.33687807753256
 30
0.0
 11
31.92689106255557
 21
27.94508245967563
 31
0.0
  0
LINE
  5
1C1
330
2
100
AcDbEntity
  8
GAIKEI
  6
Continuous
100
AcDbLine
 10
31.96413238289631
 20
27.49437784418876
 30
0.0
 11
30.88650399521976
 21
27.49437784418876
 31
0.0
  0
LINE
  5
1C2
330
2
100
AcDbEntity
  8
GAIKEI
  6
Continuous
100
AcDbLine
 10
31.96413238289631
 20
27.49437784418876
 30
0.0
 11
31.96413238289631
 21
27.37689840638677
 31
0.0
  0
ARC
  5
1C3
330
2
100
AcDbEntity
  8
GAIKEI
  6
Continuous
100
AcDbCircle
 10
31.47440951949261
 20
28.33698183090348
 30
0.0
 40
0.3427043031280215
100
AcDbArc
 50
359.9826537621502
 51
81.79298928752343
  0
ARC
  5
1C4
330
2
100
AcDbEntity
  8
GAIKEI
  6
Continuous
100
AcDbCircle
 10
29.26386059811171
 20
26.22530045037434
 30
0.0
 40
8.302583598772761
100
AcDbArc
 50
271.9461397377735
 51
290.775962797064
  0
ARC
  5
1C5
330
2
100
AcDbEntity
  8
GAIKEI
  6
Continuous
100
AcDbCircle
 10
31.17346423976198
 20
21.20364357446067
 30
0.0
 40
2.930100517875416
100
AcDbArc
 50
290.6943218823784
 51
305.9803105533479
  0
ARC
  5
1C6
330
2
100
AcDbEntity
  8
GAIKEI
  6
Continuous
100
AcDbCircle
 10
32.84658870057933
 20
18.89912034272834
 30
0.0
 40
0.082264008
100
AcDbArc
 50
305.9803105533374
 51
353.6796038152234
  0
ARC
  5
1C7
330
2
100
AcDbEntity
  8
GAIKEI
  6
Continuous
100
AcDbCircle
 10
9.197322003192653
 20
18.89912034272834
 30
0.0
 40
0.082264008
100
AcDbArc
 50
186.3203961847766
 51
234.0196894466625
  0
ARC
  5
1C8
330
2
100
AcDbEntity
  8
GAIKEI
  6
Continuous
100
AcDbCircle
 10
10.87044646401
 20
21.20364357446067
 30
0.0
 40
2.930100517875416
100
AcDbArc
 50
234.0196894466521
 51
249.3056781176216
  0
ARC
  5
1C9
330
2
100
AcDbEntity
  8
GAIKEI
  6
Continuous
100
AcDbCircle
 10
12.78005010566028
 20
26.22530045037434
 30
0.0
 40
8.302583598772761
100
AcDbArc
 50
249.2240372029359
 51
268.0538602622265
  0
LINE
  5
1CA
330
2
100
AcDbEntity
  8
GAIKEI
100
AcDbLine
 10
9.115558009884466
 20
18.89006405151599
 30
0.0
 11
9.021870905106879
 21
19.73591050548555
 31
0.0
  0
LINE
  5
1CB
330
2
100
AcDbEntity
  8
GAIKEI
100
AcDbLine
 10
9.115558009884466
 20
18.89006405151599
 30
0.0
 11
9.021870905106879
 21
19.73591050548555
 31
0.0
  0
ARC
  5
1CC
330
2
100
AcDbEntity
  8
GAIKEI
100
AcDbCircle
 10
28.73662059517471
 20
17.85417907700298
 30
0.0
 40
0.10283001
100
AcDbArc
 50
290.3316130739973
 51
358.6636629137986
  0
LINE
  5
1CD
330
2
100
AcDbEntity
  8
GAIKEI
  6
Continuous
 62
     1
100
AcDbLine
 10
28.20249217424589
 20
17.77667849810757
 30
0.0
 11
28.42349849086952
 21
17.85844012412826
 31
0.0
  0
LINE
  5
1CE
330
2
100
AcDbEntity
  8
GAIKEI
  6
Continuous
 62
     1
100
AcDbLine
 10
28.42349849086952
 20
17.85844012412826
 30
0.0
 11
28.95664184729231
 21
17.91734912175809
 31
0.0
  0
LINE
  5
1CF
330
2
100
AcDbEntity
  8
GAIKEI
  6
Continuous
100
AcDbLine
 10
28.95664184729231
 20
17.91734912175809
 30
0.0
 11
29.54581646295492
 21
17.9275058454873
 31
0.0
  0
LINE
  5
1D0
330
2
100
AcDbEntity
  8
GAIKEI
  6
Continuous
100
AcDbLine
 10
13.08693029902201
 20
17.91734912175809
 30
0.0
 11
12.4977556833594
 21
17.9275058454873
 31
0.0
  0
LINE
  5
1D1
330
2
100
AcDbEntity
  8
GAIKEI
  6
Continuous
 62
     1
100
AcDbLine
 10
13.6200736554448
 20
17.85844012412826
 30
0.0
 11
13.08693029902201
 21
17.91734912175809
 31
0.0
  0
LINE
  5
1D2
330
2
100
AcDbEntity
  8
GAIKEI
  6
Continuous
 62
     1
100
AcDbLine
 10
13.84107997206843
 20
17.77667849810757
 30
0.0
 11
13.6200736554448
 21
17.85844012412826
 31
0.0
  0
ARC
  5
1D3
330
2
100
AcDbEntity
  8
GAIKEI
100
AcDbCircle
 10
13.3069515511396
 20
17.85417907700298
 30
0.0
 40
0.10283001
100
AcDbArc
 50
181.3363370862014
 51
249.6683869260026
  0
LINE
  5
1D4
330
2
100
AcDbEntity
  8
GAIKEI
 62
     1
100
AcDbLine
 10
13.22186108055314
 20
17.79644154352616
 30
0.0
 11
13.78765933838247
 21
17.79644154352616
 31
0.0
  0
LINE
  5
1D5
330
2
100
AcDbEntity
  8
GAIKEI
100
AcDbLine
 10
13.20291892151283
 20
17.90453310631858
 30
0.0
 11
13.20414950885367
 21
17.8517809405472
 31
0.0
  0
LINE
  5
1D6
330
2
100
AcDbEntity
  8
GAIKEI
100
AcDbLine
 10
13.2712229473409
 20
17.7577556471366
 30
0.0
 11
13.4841522010704
 21
17.67885713715645
 31
0.0
  0
LINE
  5
1D7
330
2
100
AcDbEntity
  8
WAKU
 62
     1
100
AcDbLine
 10
-67.44553895029207
 20
-12.4027362705043
 30
0.0
 11
57.55446104970798
 21
-12.4027362705043
 31
0.0
  0
LINE
  5
1D9
330
2
100
AcDbEntity
  8
WAKU
 62
     1
100
AcDbLine
 10
-67.44553895029207
 20
-17.4027362705043
 30
0.0
 11
57.55446104970798
 21
-17.4027362705043
 31
0.0
  0
LINE
  5
1DA
330
2
100
AcDbEntity
  8
WAKU
 62
     1
100
AcDbLine
 10
-67.44553895029207
 20
-27.40273627050431
 30
0.0
 11
57.55446104970798
 21
-27.40273627050431
 31
0.0
  0
LINE
  5
1DB
330
2
100
AcDbEntity
  8
WAKU
 62
     1
100
AcDbLine
 10
-67.44553895029207
 20
-32.40273627050431
 30
0.0
 11
57.55446104970798
 21
-32.40273627050431
 31
0.0
  0
LINE
  5
1DC
330
2
100
AcDbEntity
  8
WAKU
 62
     1
100
AcDbLine
 10
-67.44553895029207
 20
-37.40273627050431
 30
0.0
 11
57.55446104970798
 21
-37.40273627050431
 31
0.0
  0
LINE
  5
1DD
330
2
100
AcDbEntity
  8
WAKU
 62
     4
100
AcDbLine
 10
57.55446104970798
 20
-7.402736270504306
 30
0.0
 11
-67.44553895029207
 21
-7.402736270504306
 31
0.0
  0
LINE
  5
1DE
330
2
100
AcDbEntity
  8
WAKU
 62
     4
100
AcDbLine
 10
-67.44553895029207
 20
-57.40273627050431
 30
0.0
 11
57.55446104970798
 21
-57.40273627050431
 31
0.0
  0
LINE
  5
1DF
330
2
100
AcDbEntity
  8
WAKU
 62
     1
100
AcDbLine
 10
-67.44553895029207
 20
-22.40273627050431
 30
0.0
 11
57.55446104970798
 21
-22.40273627050431
 31
0.0
  0
TEXT
  5
1E0
330
2
100
AcDbEntity
  8
MOJI1
100
AcDbText
 10
-24.94553895029208
 20
-16.4027362705043
 30
0.0
 40
3.0
  1
１／４型インターライン転送方式ＣＣＤ
100
AcDbText
  0
TEXT
  5
1E1
330
2
100
AcDbEntity
  8
MOJI1
100
AcDbText
 10
-24.94553895029208
 20
-36.40273627050431
 30
0.0
 40
3.0
  1
３０倍
100
AcDbText
  0
LINE
  5
1E2
330
2
100
AcDbEntity
  8
WAKU
 62
     4
100
AcDbLine
 10
-67.44553895029207
 20
-7.402736270504306
 30
0.0
 11
-67.44553895029207
 21
-57.40273627050431
 31
0.0
  0
LINE
  5
1E3
330
2
100
AcDbEntity
  8
WAKU
 62
     4
100
AcDbLine
 10
-27.44553895029208
 20
-57.40273627050431
 30
0.0
 11
-27.44553895029208
 21
-7.402736270504306
 31
0.0
  0
TEXT
  5
1E4
330
2
100
AcDbEntity
  8
MOJI1
100
AcDbText
 10
-24.94553895029208
 20
-11.4027362705043
 30
0.0
 40
3.0
  1
ＡＣ１００Ｖ　５０／６０Ｈｚ　１５Ｗ
100
AcDbText
  0
TEXT
  5
1E5
330
2
100
AcDbEntity
  8
MOJI1
100
AcDbText
 10
-24.94553895029208
 20
-21.40273627050431
 30
0.0
 40
3.0
  1
０．５ルクス（カラー)　０．０４ルクス（白黒)
100
AcDbText
  0
TEXT
  5
1E6
330
2
100
AcDbEntity
  8
MOJI1
100
AcDbText
 10
-24.94553895029208
 20
-26.40273627050431
 30
0.0
 40
3.0
  1
５２ｄＢ／ｔｙｐ
100
AcDbText
  0
TEXT
  5
1E7
330
2
100
AcDbEntity
  8
MOJI1
100
AcDbText
 10
-64.94553895029207
 20
-26.40273627050431
 30
0.0
 40
3.0
  1
ダイナミックレンジ
100
AcDbText
  0
TEXT
  5
1E8
330
2
100
AcDbEntity
  8
MOJI1
100
AcDbText
 10
-64.94553895029207
 20
-21.40273627050431
 30
0.0
 40
3.0
  1
最低照度
100
AcDbText
  0
TEXT
  5
1E9
330
2
100
AcDbEntity
  8
MOJI1
100
AcDbText
 10
-64.94553895029207
 20
-36.40273627050431
 30
0.0
 40
3.0
  1
ズーム比
100
AcDbText
  0
TEXT
  5
1EA
330
2
100
AcDbEntity
  8
MOJI1
100
AcDbText
 10
-64.94553895029207
 20
-11.4027362705043
 30
0.0
 40
3.0
  1
電　源
100
AcDbText
  0
TEXT
  5
1EB
330
2
100
AcDbEntity
  8
MOJI1
100
AcDbText
 10
-64.94553895029207
 20
-16.4027362705043
 30
0.0
 40
3.0
  1
撮像素子
100
AcDbText
  0
LINE
  5
1EC
330
2
100
AcDbEntity
  8
WAKU
 62
     4
100
AcDbLine
 10
57.55446104970798
 20
-57.40273627050431
 30
0.0
 11
57.55446104970798
 21
-7.402736270504306
 31
0.0
  0
TEXT
  5
1ED
330
2
100
AcDbEntity
  8
MOJI1
100
AcDbText
 10
-64.94553895029207
 20
-41.4027362705043
 30
0.0
 40
3.0
  1
画　角
100
AcDbText
  0
LINE
  5
1EE
330
2
100
AcDbEntity
  8
WAKU
 62
     1
100
AcDbLine
 10
-67.44553895029207
 20
-42.4027362705043
 30
0.0
 11
57.55446104970798
 21
-42.4027362705043
 31
0.0
  0
TEXT
  5
1EF
330
2
100
AcDbEntity
  8
MOJI1
100
AcDbText
 10
-24.94553895029208
 20
-41.4027362705043
 30
0.0
 40
3.0
  1
水平：１．９° ～５２°垂直：１．４° ～４０°
100
AcDbText
  0
TEXT
  5
1F0
330
2
100
AcDbEntity
  8
MOJI1
100
AcDbText
 10
-24.94553895029208
 20
-46.4027362705043
 30
0.0
 40
3.0
  1
１０ＢＡＳＥ－Ｔ／１００ＢＡＳＥ－ＴＸ、ＲＪ４５コネクター
 41
0.75
100
AcDbText
  0
LINE
  5
1F1
330
2
100
AcDbEntity
  8
WAKU
 62
     1
100
AcDbLine
 10
-67.44553895029207
 20
-47.4027362705043
 30
0.0
 11
57.55446104970798
 21
-47.4027362705043
 31
0.0
  0
TEXT
  5
1F2
330
2
100
AcDbEntity
  8
MOJI1
100
AcDbText
 10
-64.94553895029207
 20
-46.4027362705043
 30
0.0
 40
3.0
  1
ネットワーク
100
AcDbText
  0
TEXT
  5
1F3
330
2
100
AcDbEntity
  8
MOJI1
100
AcDbText
 10
-64.94553895029207
 20
-51.4027362705043
 30
0.0
 40
3.0
  1
画像解像度
100
AcDbText
  0
LINE
  5
1F4
330
2
100
AcDbEntity
  8
WAKU
 62
     1
100
AcDbLine
 10
-67.44553895029207
 20
-52.40273627050431
 30
0.0
 11
57.55446104970798
 21
-52.40273627050431
 31
0.0
  0
TEXT
  5
1F5
330
2
100
AcDbEntity
  8
MOJI1
100
AcDbText
 10
-24.94553895029208
 20
-51.4027362705043
 30
0.0
 40
3.0
  1
ＶＧＡ（６４０×４８０)／ＱＶＧＡ（３２０×２４０）
 41
0.85
100
AcDbText
  0
TEXT
  5
1F6
330
2
100
AcDbEntity
  8
MOJI1
100
AcDbText
 10
-64.94553895029207
 20
-56.4027362705043
 30
0.0
 40
3.0
  1
画像圧縮方式
100
AcDbText
  0
TEXT
  5
1F7
330
2
100
AcDbEntity
  8
MOJI1
100
AcDbText
 10
-24.94553895029208
 20
-56.4027362705043
 30
0.0
 40
3.0
  1
ＭＰＥＧ－４／ＪＰＥＧ   デュアルエンコーディング
 41
0.9
100
AcDbText
  0
TEXT
  5
1F8
330
2
100
AcDbEntity
  8
MOJI1
100
AcDbText
 10
-64.94553895029207
 20
-31.40273627050431
 30
0.0
 40
3.0
  1
電子感度アップ
100
AcDbText
  0
TEXT
  5
1F9
330
2
100
AcDbEntity
  8
MOJI1
100
AcDbText
 10
-24.94553895029208
 20
-31.40273627050431
 30
0.0
 40
3.0
  1
最大３２倍
100
AcDbText
  0
ENDSEC
  0
SECTION
  2
OBJECTS
  0
DICTIONARY
  5
7
330
0
100
AcDbDictionary
281
     1
  3
ACAD_COLOR
350
2C
  3
ACAD_GROUP
350
28
  3
ACAD_LAYOUT
350
B
  3
ACAD_MATERIAL
350
2B
  3
ACAD_MLINESTYLE
350
29
  3
ACAD_PLOTSETTINGS
350
2A
  3
ACAD_PLOTSTYLENAME
350
6
  3
ACDBHEADERROUNDTRIPXREC
350
22B
  3
AcDbVariableDictionary
350
226
  0
DICTIONARY
  5
11
330
10
100
AcDbDictionary
280
     1
281
     1
  3
ACAD_LAYERSTATES
360
12
  0
DICTIONARY
  5
2C
102
{ACAD_REACTORS
330
7
102
}
330
7
100
AcDbDictionary
281
     1
  0
DICTIONARY
  5
28
102
{ACAD_REACTORS
330
7
102
}
330
7
100
AcDbDictionary
281
     1
  0
DICTIONARY
  5
B
102
{ACAD_REACTORS
330
7
102
}
330
7
100
AcDbDictionary
281
     1
  3
Model
350
A
  3
レイアウト1
350
F
  0
DICTIONARY
  5
2B
102
{ACAD_REACTORS
330
7
102
}
330
7
100
AcDbDictionary
281
     1
  0
DICTIONARY
  5
29
102
{ACAD_REACTORS
330
7
102
}
330
7
100
AcDbDictionary
281
     1
  3
Standard
350
2E
  0
DICTIONARY
  5
2A
102
{ACAD_REACTORS
330
7
102
}
330
7
100
AcDbDictionary
281
     1
  0
ACDBDICTIONARYWDFLT
  5
6
102
{ACAD_REACTORS
330
7
102
}
330
7
100
AcDbDictionary
281
     1
  3
Normal
350
5
100
AcDbDictionaryWithDefault
340
5
  0
DICTIONARY
  5
22B
102
{ACAD_REACTORS
330
7
102
}
330
7
100
AcDbDictionary
281
     1
  3
COLORDICT
350
22D
  3
MATERIALDICT
350
22C
  0
DICTIONARY
  5
226
102
{ACAD_REACTORS
330
7
102
}
330
7
100
AcDbDictionary
281
     1
  3
DIMASSOC
350
228
  3
HIDETEXT
350
227
  3
PROJECTNAME
350
229
  0
DICTIONARY
  5
12
102
{ACAD_REACTORS
330
11
102
}
330
11
100
AcDbDictionary
281
     1
  0
LAYOUT
  5
A
102
{ACAD_XDICTIONARY
360
22E
102
}
102
{ACAD_REACTORS
330
B
102
}
330
B
100
AcDbPlotSettings
  1

  2
FX78BC34-A4縦.pc3
  4
A4
  6

 40
4.900083065032958
 41
4.900057315826416
 42
4.90008544921875
 43
4.90008544921875
 44
210.0156707763672
 45
297.0106506347656
 46
5.75
 47
0.0
 48
0.0
 49
0.0
140
0.0
141
0.0
142
1.0
143
1.372671634650981
 70
 11956
 72
     1
 73
     0
 74
     1
  7
tmsacad.ctb
 75
     0
147
0.7285063483185201
148
0.0286644328706416
149
0.018569600704268
100
AcDbLayout
  1
Model
 70
     1
 71
     0
 10
0.0
 20
0.0
 11
12.0
 21
9.0
 12
0.0
 22
0.0
 32
0.0
 14
0.0
 24
0.0
 34
0.0
 15
0.0
 25
0.0
 35
0.0
146
0.0
 13
0.0
 23
0.0
 33
0.0
 16
1.0
 26
0.0
 36
0.0
 17
0.0
 27
1.0
 37
0.0
 76
     0
330
2
  0
LAYOUT
  5
F
102
{ACAD_XDICTIONARY
360
230
102
}
102
{ACAD_REACTORS
330
B
102
}
330
B
100
AcDbPlotSettings
  1

  2
None
  4

  6

 40
0.0
 41
0.0
 42
0.0
 43
0.0
 44
0.0
 45
0.0
 46
0.0
 47
0.0
 48
0.0
 49
0.0
140
0.0
141
0.0
142
1.0
143
1.0
 70
   688
 72
     0
 73
     0
 74
     5
  7
tmsacad.ctb
 75
    16
147
1.0
148
0.0
149
0.0
100
AcDbLayout
  1
レイアウト1
 70
     1
 71
     1
 10
0.0
 20
0.0
 11
12.0
 21
9.0
 12
0.0
 22
0.0
 32
0.0
 14
0.0
 24
0.0
 34
0.0
 15
0.0
 25
0.0
 35
0.0
146
0.0
 13
0.0
 23
0.0
 33
0.0
 16
1.0
 26
0.0
 36
0.0
 17
0.0
 27
1.0
 37
0.0
 76
     0
330
C
  0
MLINESTYLE
  5
2E
102
{ACAD_REACTORS
330
29
102
}
330
29
100
AcDbMlineStyle
  2
STANDARD
 70
     0
  3

 62
   256
 51
90.0
 52
90.0
 71
     2
 49
0.5
 62
   256
  6
BYLAYER
 49
-0.5
 62
   256
  6
BYLAYER
  0
ACDBPLACEHOLDER
  5
5
102
{ACAD_REACTORS
330
6
102
}
330
6
  0
XRECORD
  5
22D
102
{ACAD_REACTORS
330
22B
102
}
330
22B
100
AcDbXrecord
280
     1
340
2C
  0
XRECORD
  5
22C
102
{ACAD_REACTORS
330
22B
102
}
330
22B
100
AcDbXrecord
280
     1
340
2B
  0
DICTIONARYVAR
  5
228
102
{ACAD_REACTORS
330
226
102
}
330
226
100
DictionaryVariables
280
     0
  1
1
  0
DICTIONARYVAR
  5
227
102
{ACAD_REACTORS
330
226
102
}
330
226
100
DictionaryVariables
280
     0
  1
1
  0
DICTIONARYVAR
  5
229
102
{ACAD_REACTORS
330
226
102
}
330
226
100
DictionaryVariables
280
     0
  1

  0
DICTIONARY
  5
22E
330
A
100
AcDbDictionary
280
     1
281
     1
  3
ACAD_XREC_ROUNDTRIP
360
22F
  0
DICTIONARY
  5
230
330
F
100
AcDbDictionary
280
     1
281
     1
  3
ACAD_XREC_ROUNDTRIP
360
231
  0
XRECORD
  5
22F
102
{ACAD_REACTORS
330
22E
102
}
330
22E
100
AcDbXrecord
280
     1
102
SHADEPLOT
 70
     0
102
SHADEPLOTRESLEVEL
 70
     2
102
SHADEPLOTCUSTOMDPI
 70
   300
  0
XRECORD
  5
231
102
{ACAD_REACTORS
330
230
102
}
330
230
100
AcDbXrecord
280
     1
102
SHADEPLOT
 70
     0
102
SHADEPLOTRESLEVEL
 70
     2
102
SHADEPLOTCUSTOMDPI
 70
   300
  0
ENDSEC
  0
EOF
