  0
SECTION
  2
HEADER
  9
$ACADVER
  1
AC1015
  9
$ACADMAINTVER
 70
    20
  9
$DWGCODEPAGE
  3
ANSI_932
  9
$INSBASE
 10
129.0
 20
246.4992141396418
 30
0.0
  9
$EXTMIN
 10
-57.63117748888316
 20
-55.13181975197586
 30
-0.0015258207003583
  9
$EXTMAX
 10
67.44933148108157
 20
57.63782100149637
 30
0.0000000349246037
  9
$LIMMIN
 10
-1101.784450318844
 20
-1579.160531687244
  9
$LIMMAX
 10
-508.2420711400536
 20
-1161.440814074914
  9
$ORTHOMODE
 70
     1
  9
$REGENMODE
 70
     1
  9
$FILLMODE
 70
     1
  9
$QTEXTMODE
 70
     0
  9
$MIRRTEXT
 70
     1
  9
$LTSCALE
 40
1.0
  9
$ATTMODE
 70
     1
  9
$TEXTSIZE
 40
3.0
  9
$TRACEWID
 40
0.5
  9
$TEXTSTYLE
  7
STANDARD
  9
$CLAYER
  8
MOJI1
  9
$CELTYPE
  6
BYLAYER
  9
$CECOLOR
 62
   256
  9
$CELTSCALE
 40
1.0
  9
$DISPSILH
 70
     0
  9
$DIMSCALE
 40
1.0
  9
$DIMASZ
 40
2.0
  9
$DIMEXO
 40
2.0
  9
$DIMDLI
 40
8.0
  9
$DIMRND
 40
0.0
  9
$DIMDLE
 40
0.0
  9
$DIMEXE
 40
2.0
  9
$DIMTP
 40
0.0
  9
$DIMTM
 40
0.0
  9
$DIMTXT
 40
2.5
  9
$DIMCEN
 40
0.0
  9
$DIMTSZ
 40
0.0
  9
$DIMTOL
 70
     0
  9
$DIMLIM
 70
     0
  9
$DIMTIH
 70
     0
  9
$DIMTOH
 70
     0
  9
$DIMSE1
 70
     0
  9
$DIMSE2
 70
     0
  9
$DIMTAD
 70
     3
  9
$DIMZIN
 70
     0
  9
$DIMBLK
  1

  9
$DIMASO
 70
     1
  9
$DIMSHO
 70
     1
  9
$DIMPOST
  1

  9
$DIMAPOST
  1

  9
$DIMALT
 70
     0
  9
$DIMALTD
 70
     2
  9
$DIMALTF
 40
25.4
  9
$DIMLFAC
 40
1.0
  9
$DIMTOFL
 70
     1
  9
$DIMTVP
 40
0.0
  9
$DIMTIX
 70
     0
  9
$DIMSOXD
 70
     0
  9
$DIMSAH
 70
     1
  9
$DIMBLK1
  1
OPEN30
  9
$DIMBLK2
  1
OPEN30
  9
$DIMSTYLE
  2
STANDARD
  9
$DIMCLRD
 70
     0
  9
$DIMCLRE
 70
     0
  9
$DIMCLRT
 70
     0
  9
$DIMTFAC
 40
1.0
  9
$DIMGAP
 40
0.5
  9
$DIMJUST
 70
     0
  9
$DIMSD1
 70
     0
  9
$DIMSD2
 70
     0
  9
$DIMTOLJ
 70
     1
  9
$DIMTZIN
 70
     0
  9
$DIMALTZ
 70
     0
  9
$DIMALTTZ
 70
     0
  9
$DIMUPT
 70
     0
  9
$DIMDEC
 70
     4
  9
$DIMTDEC
 70
     4
  9
$DIMALTU
 70
     2
  9
$DIMALTTD
 70
     2
  9
$DIMTXSTY
  7
STANDARD
  9
$DIMAUNIT
 70
     0
  9
$DIMADEC
 70
     0
  9
$DIMALTRND
 40
0.0
  9
$DIMAZIN
 70
     0
  9
$DIMDSEP
 70
    46
  9
$DIMATFIT
 70
     3
  9
$DIMFRAC
 70
     0
  9
$DIMLDRBLK
  1
OPEN30
  9
$DIMLUNIT
 70
     2
  9
$DIMLWD
 70
    -2
  9
$DIMLWE
 70
    -2
  9
$DIMTMOVE
 70
     0
  9
$LUNITS
 70
     2
  9
$LUPREC
 70
     4
  9
$SKETCHINC
 40
0.1
  9
$FILLETRAD
 40
0.0
  9
$AUNITS
 70
     0
  9
$AUPREC
 70
     0
  9
$MENU
  1
ACAD
  9
$ELEVATION
 40
0.0
  9
$PELEVATION
 40
0.0
  9
$THICKNESS
 40
0.0
  9
$LIMCHECK
 70
     0
  9
$CHAMFERA
 40
0.0
  9
$CHAMFERB
 40
0.0
  9
$CHAMFERC
 40
0.0
  9
$CHAMFERD
 40
0.0
  9
$SKPOLY
 70
     0
  9
$TDCREATE
 40
2451815.565532581
  9
$TDUCREATE
 40
2451815.190532581
  9
$TDUPDATE
 40
2454287.356325764
  9
$TDUUPDATE
 40
2454286.981325764
  9
$TDINDWG
 40
0.7304187963
  9
$TDUSRTIMER
 40
0.7304187963
  9
$USRTIMER
 70
     1
  9
$ANGBASE
 50
0.0
  9
$ANGDIR
 70
     0
  9
$PDMODE
 70
     0
  9
$PDSIZE
 40
0.0
  9
$PLINEWID
 40
0.0
  9
$SPLFRAME
 70
     0
  9
$SPLINETYPE
 70
     6
  9
$SPLINESEGS
 70
     8
  9
$HANDSEED
  5
1B4
  9
$SURFTAB1
 70
     6
  9
$SURFTAB2
 70
     6
  9
$SURFTYPE
 70
     6
  9
$SURFU
 70
     6
  9
$SURFV
 70
     6
  9
$UCSBASE
  2

  9
$UCSNAME
  2

  9
$UCSORG
 10
0.0
 20
0.0
 30
0.0
  9
$UCSXDIR
 10
1.0
 20
0.0
 30
0.0
  9
$UCSYDIR
 10
0.0
 20
1.0
 30
0.0
  9
$UCSORTHOREF
  2

  9
$UCSORTHOVIEW
 70
     0
  9
$UCSORGTOP
 10
0.0
 20
0.0
 30
0.0
  9
$UCSORGBOTTOM
 10
0.0
 20
0.0
 30
0.0
  9
$UCSORGLEFT
 10
0.0
 20
0.0
 30
0.0
  9
$UCSORGRIGHT
 10
0.0
 20
0.0
 30
0.0
  9
$UCSORGFRONT
 10
0.0
 20
0.0
 30
0.0
  9
$UCSORGBACK
 10
0.0
 20
0.0
 30
0.0
  9
$PUCSBASE
  2

  9
$PUCSNAME
  2

  9
$PUCSORG
 10
0.0
 20
0.0
 30
0.0
  9
$PUCSXDIR
 10
1.0
 20
0.0
 30
0.0
  9
$PUCSYDIR
 10
0.0
 20
1.0
 30
0.0
  9
$PUCSORTHOREF
  2

  9
$PUCSORTHOVIEW
 70
     0
  9
$PUCSORGTOP
 10
0.0
 20
0.0
 30
0.0
  9
$PUCSORGBOTTOM
 10
0.0
 20
0.0
 30
0.0
  9
$PUCSORGLEFT
 10
0.0
 20
0.0
 30
0.0
  9
$PUCSORGRIGHT
 10
0.0
 20
0.0
 30
0.0
  9
$PUCSORGFRONT
 10
0.0
 20
0.0
 30
0.0
  9
$PUCSORGBACK
 10
0.0
 20
0.0
 30
0.0
  9
$USERI1
 70
     0
  9
$USERI2
 70
     0
  9
$USERI3
 70
     0
  9
$USERI4
 70
     0
  9
$USERI5
 70
     0
  9
$USERR1
 40
0.0
  9
$USERR2
 40
0.0
  9
$USERR3
 40
0.0
  9
$USERR4
 40
0.0
  9
$USERR5
 40
0.0
  9
$WORLDVIEW
 70
     1
  9
$SHADEDGE
 70
     3
  9
$SHADEDIF
 70
    70
  9
$TILEMODE
 70
     1
  9
$MAXACTVP
 70
    48
  9
$PINSBASE
 10
0.0
 20
0.0
 30
0.0
  9
$PLIMCHECK
 70
     0
  9
$PEXTMIN
 10
1.000000000000000E+20
 20
1.000000000000000E+20
 30
1.000000000000000E+20
  9
$PEXTMAX
 10
-1.000000000000000E+20
 20
-1.000000000000000E+20
 30
-1.000000000000000E+20
  9
$PLIMMIN
 10
0.0
 20
0.0
  9
$PLIMMAX
 10
12.0
 20
9.0
  9
$UNITMODE
 70
     0
  9
$VISRETAIN
 70
     1
  9
$PLINEGEN
 70
     0
  9
$PSLTSCALE
 70
     1
  9
$TREEDEPTH
 70
  3020
  9
$CMLSTYLE
  2
STANDARD
  9
$CMLJUST
 70
     0
  9
$CMLSCALE
 40
1.0
  9
$PROXYGRAPHICS
 70
     1
  9
$MEASUREMENT
 70
     0
  9
$CELWEIGHT
370
    -1
  9
$ENDCAPS
280
     0
  9
$JOINSTYLE
280
     0
  9
$LWDISPLAY
290
     0
  9
$INSUNITS
 70
     0
  9
$HYPERLINKBASE
  1

  9
$STYLESHEET
  1

  9
$XEDIT
290
     1
  9
$CEPSNTYPE
380
     0
  9
$PSTYLEMODE
290
     1
  9
$FINGERPRINTGUID
  2
{1754B7AB-9B3C-11D4-AD9E-00104B1004F2}
  9
$VERSIONGUID
  2
{B997A6B1-2422-4023-9DF2-65F7185DEB3B}
  9
$EXTNAMES
290
     1
  9
$PSVPSCALE
 40
0.0
  9
$OLESTARTUP
290
     0
  0
ENDSEC
  0
SECTION
  2
CLASSES
  0
CLASS
  1
ACDBDICTIONARYWDFLT
  2
AcDbDictionaryWithDefault
  3
ObjectDBX Classes
 90
        0
280
     0
281
     0
  0
CLASS
  1
ACDBPLACEHOLDER
  2
AcDbPlaceHolder
  3
ObjectDBX Classes
 90
        0
280
     0
281
     0
  0
CLASS
  1
LAYOUT
  2
AcDbLayout
  3
ObjectDBX Classes
 90
        0
280
     0
281
     0
  0
CLASS
  1
DICTIONARYVAR
  2
AcDbDictionaryVar
  3
ObjectDBX Classes
 90
        0
280
     0
281
     0
  0
ENDSEC
  0
SECTION
  2
TABLES
  0
TABLE
  2
VPORT
  5
20
330
0
100
AcDbSymbolTable
 70
     3
  0
VPORT
  5
1AC
330
20
100
AcDbSymbolTableRecord
100
AcDbViewportTableRecord
  2
*Active
 70
     0
 10
0.0
 20
0.0
 11
1.0
 21
1.0
 12
4.909076996099202
 22
1.253000624760261
 13
0.0
 23
0.0
 14
1.0
 24
1.0
 15
0.0
 25
0.0
 16
0.0
 26
0.0
 36
1.0
 17
0.0
 27
0.0
 37
0.0
 40
113.6393294996429
 41
1.405405405405405
 42
50.0
 43
0.0
 44
0.0
 50
0.0
 51
0.0
 71
     0
 72
 10000
 73
     1
 74
     0
 75
     0
 76
     1
 77
     0
 78
     0
281
     0
 65
     1
110
0.0
120
0.0
130
0.0
111
1.0
121
0.0
131
0.0
112
0.0
122
1.0
132
0.0
 79
     0
146
0.0
  0
ENDTAB
  0
TABLE
  2
LTYPE
  5
1B
330
0
100
AcDbSymbolTable
 70
     1
  0
LTYPE
  5
1C
330
1B
100
AcDbSymbolTableRecord
100
AcDbLinetypeTableRecord
  2
BYBLOCK
 70
     0
  3

 72
    65
 73
     0
 40
0.0
  0
LTYPE
  5
1D
330
1B
100
AcDbSymbolTableRecord
100
AcDbLinetypeTableRecord
  2
BYLAYER
 70
     0
  3

 72
    65
 73
     0
 40
0.0
  0
LTYPE
  5
A
330
1B
100
AcDbSymbolTableRecord
100
AcDbLinetypeTableRecord
  2
CONTINUOUS
 70
     0
  3
Solid line
 72
    65
 73
     0
 40
0.0
  0
ENDTAB
  0
TABLE
  2
LAYER
  5
14
102
{ACAD_XDICTIONARY
360
15
102
}
330
0
100
AcDbSymbolTable
 70
     7
  0
LAYER
  5
6
330
14
100
AcDbSymbolTableRecord
100
AcDbLayerTableRecord
  2
0
 70
     0
 62
     7
  6
CONTINUOUS
370
    -3
390
7
  0
LAYER
  5
43
330
14
100
AcDbSymbolTableRecord
100
AcDbLayerTableRecord
  2
DEFPOINTS
 70
     0
 62
     7
  6
CONTINUOUS
290
     0
370
    -3
390
7
  0
LAYER
  5
158
330
14
100
AcDbSymbolTableRecord
100
AcDbLayerTableRecord
  2
WAKU
 70
     0
 62
     4
  6
CONTINUOUS
370
    -3
390
7
  0
LAYER
  5
2B
330
14
100
AcDbSymbolTableRecord
100
AcDbLayerTableRecord
  2
MOJI1
 70
     0
 62
     2
  6
CONTINUOUS
370
    -3
390
7
  0
LAYER
  5
62
330
14
100
AcDbSymbolTableRecord
100
AcDbLayerTableRecord
  2
GAIKEI
 70
     0
 62
     7
  6
CONTINUOUS
370
    -3
390
7
  0
LAYER
  5
37
330
14
100
AcDbSymbolTableRecord
100
AcDbLayerTableRecord
  2
TOUROKU
 70
     0
 62
     1
  6
CONTINUOUS
370
    -3
390
7
  0
LAYER
  5
39
330
14
100
AcDbSymbolTableRecord
100
AcDbLayerTableRecord
  2
SUNPO
 70
     0
 62
     3
  6
CONTINUOUS
370
    -3
390
7
  0
ENDTAB
  0
TABLE
  2
STYLE
  5
18
330
0
100
AcDbSymbolTable
 70
     2
  0
STYLE
  5
19
330
18
100
AcDbSymbolTableRecord
100
AcDbTextStyleTableRecord
  2
STANDARD
 70
     0
 40
0.0
 41
1.0
 50
0.0
 71
     0
 42
3.0
  3
MONOTXT.shx
  4
BIGFONT.shx
  0
STYLE
  5
35
330
18
100
AcDbSymbolTableRecord
100
AcDbTextStyleTableRecord
  2
KANJI
 70
     0
 40
0.0
 41
1.0
 50
0.0
 71
     0
 42
3.5
  3
MONOTXT
  4
BIGFONT
  0
ENDTAB
  0
TABLE
  2
VIEW
  5
1E
330
0
100
AcDbSymbolTable
 70
     0
  0
ENDTAB
  0
TABLE
  2
UCS
  5
1F
330
0
100
AcDbSymbolTable
 70
     0
  0
ENDTAB
  0
TABLE
  2
APPID
  5
22
330
0
100
AcDbSymbolTable
 70
     1
  0
APPID
  5
23
330
22
100
AcDbSymbolTableRecord
100
AcDbRegAppTableRecord
  2
ACAD
 70
     0
  0
ENDTAB
  0
TABLE
  2
DIMSTYLE
  5
24
330
0
100
AcDbSymbolTable
 70
     1
100
AcDbDimStyleTable
 71
     0
  0
DIMSTYLE
105
33
102
{ACAD_REACTORS
330
38
330
47
330
54
102
}
330
24
100
AcDbSymbolTableRecord
100
AcDbDimStyleTableRecord
  2
STANDARD
 70
     0
 40
0.0
 41
2.0
 42
2.0
 43
8.0
 44
2.0
 73
     0
 74
     0
 77
     3
140
3.0
141
0.0
173
     1
279
     2
288
     1
340
19
341
2C
343
2C
344
2C
  0
ENDTAB
  0
TABLE
  2
BLOCK_RECORD
  5
1
330
0
100
AcDbSymbolTable
 70
     7
  0
BLOCK_RECORD
  5
2
102
{ACAD_XDICTIONARY
360
3
102
}
330
1
100
AcDbSymbolTableRecord
100
AcDbBlockTableRecord
  2
*MODEL_SPACE
340
C
  0
BLOCK_RECORD
  5
E
102
{ACAD_XDICTIONARY
360
F
102
}
330
1
100
AcDbSymbolTableRecord
100
AcDbBlockTableRecord
  2
*PAPER_SPACE
340
13
  0
BLOCK_RECORD
  5
2C
330
1
100
AcDbSymbolTableRecord
100
AcDbBlockTableRecord
  2
_OPEN30
340
0
102
{BLKREFS
331
3F
331
40
331
4D
331
4E
331
5A
331
5B
331
188
331
189
331
194
331
195
331
1A0
331
1A1
102
}
  0
BLOCK_RECORD
  5
3A
330
1
100
AcDbSymbolTableRecord
100
AcDbBlockTableRecord
  2
*D1
340
0
  0
BLOCK_RECORD
  5
48
330
1
100
AcDbSymbolTableRecord
100
AcDbBlockTableRecord
  2
*D2
340
0
  0
BLOCK_RECORD
  5
55
330
1
100
AcDbSymbolTableRecord
100
AcDbBlockTableRecord
  2
*D3
340
0
  0
BLOCK_RECORD
  5
184
330
1
100
AcDbSymbolTableRecord
100
AcDbBlockTableRecord
  2
*D4
340
0
  0
BLOCK_RECORD
  5
190
330
1
100
AcDbSymbolTableRecord
100
AcDbBlockTableRecord
  2
*D5
340
0
  0
BLOCK_RECORD
  5
19C
330
1
100
AcDbSymbolTableRecord
100
AcDbBlockTableRecord
  2
*D6
340
0
  0
ENDTAB
  0
ENDSEC
  0
SECTION
  2
BLOCKS
  0
BLOCK
  5
5
330
2
100
AcDbEntity
  8
0
100
AcDbBlockBegin
  2
*MODEL_SPACE
 70
     0
 10
0.0
 20
0.0
 30
0.0
  3
*MODEL_SPACE
  1

  0
ENDBLK
  5
B
330
2
100
AcDbEntity
  8
0
100
AcDbBlockEnd
  0
BLOCK
  5
11
330
E
100
AcDbEntity
 67
     1
  8
0
100
AcDbBlockBegin
  2
*PAPER_SPACE
 70
     0
 10
0.0
 20
0.0
 30
0.0
  3
*PAPER_SPACE
  1

  0
ENDBLK
  5
12
330
E
100
AcDbEntity
 67
     1
  8
0
100
AcDbBlockEnd
  0
BLOCK
  5
2D
330
2C
100
AcDbEntity
  8
0
100
AcDbBlockBegin
  2
_OPEN30
 70
     0
 10
0.0
 20
0.0
 30
0.0
  3
_OPEN30
  1

  0
LINE
  5
2E
330
2C
100
AcDbEntity
  8
0
  6
ByBlock
 62
     0
100
AcDbLine
 10
-1.0
 20
0.26794919
 30
0.0
 11
0.0
 21
0.0
 31
0.0
  0
LINE
  5
2F
330
2C
100
AcDbEntity
  8
0
  6
ByBlock
 62
     0
100
AcDbLine
 10
0.0
 20
0.0
 30
0.0
 11
-1.0
 21
-0.26794919
 31
0.0
  0
LINE
  5
30
330
2C
100
AcDbEntity
  8
0
  6
ByBlock
 62
     0
100
AcDbLine
 10
0.0
 20
0.0
 30
0.0
 11
-1.0
 21
0.0
 31
0.0
  0
ENDBLK
  5
31
330
2C
100
AcDbEntity
  8
0
100
AcDbBlockEnd
  0
BLOCK
  5
3B
330
3A
100
AcDbEntity
  8
0
100
AcDbBlockBegin
  2
*D1
 70
     1
 10
0.0
 20
0.0
 30
0.0
  3
*D1
  1

  0
LINE
  5
3C
330
3A
100
AcDbEntity
  8
SUNPO
 62
     0
370
    -2
100
AcDbLine
 10
190.7969531305812
 20
212.3031224615943
 30
0.0
 11
190.7969531305812
 21
220.3031224615943
 31
0.0
  0
LINE
  5
3D
330
3A
100
AcDbEntity
  8
SUNPO
 62
     0
370
    -2
100
AcDbLine
 10
252.1969486531034
 20
212.3031224615943
 30
0.0
 11
252.1969486531034
 21
220.3031224615943
 31
0.0
  0
LINE
  5
3E
330
3A
100
AcDbEntity
  8
SUNPO
 62
     0
370
    -2
100
AcDbLine
 10
192.7969531305812
 20
218.3031224615943
 30
0.0
 11
250.1969486531034
 21
218.3031224615943
 31
0.0
  0
INSERT
  5
3F
330
3A
100
AcDbEntity
  8
SUNPO
 62
     0
370
    -2
100
AcDbBlockReference
  2
_OPEN30
 10
190.7969531305812
 20
218.3031224615943
 30
0.0
 41
2.0
 42
2.0
 43
2.0
 50
180.0
  0
INSERT
  5
40
330
3A
100
AcDbEntity
  8
SUNPO
 62
     0
370
    -2
100
AcDbBlockReference
  2
_OPEN30
 10
252.1969486531034
 20
218.3031224615943
 30
0.0
 41
2.0
 42
2.0
 43
2.0
  0
MTEXT
  5
41
330
3A
100
AcDbEntity
  8
SUNPO
 62
     0
100
AcDbMText
 10
221.4969508918423
 20
220.0531224615943
 30
0.0
 40
2.5
 41
0.0
 71
     5
 72
     1
  1
\A1;307
 73
     1
 44
1.0
1001
ACAD
1000
MTEXTBEGIN
1070
    73
1070
     1
1070
    44
1040
1.0
1070
    74
1070
     0
1000
MTEXTEND
  0
POINT
  5
42
330
3A
100
AcDbEntity
  8
DEFPOINTS
 62
     0
100
AcDbPoint
 10
190.7969531305812
 20
210.3031224615943
 30
0.0
  0
POINT
  5
44
330
3A
100
AcDbEntity
  8
DEFPOINTS
 62
     0
100
AcDbPoint
 10
252.1969486531034
 20
210.3031224615943
 30
0.0
  0
POINT
  5
45
330
3A
100
AcDbEntity
  8
DEFPOINTS
 62
     0
100
AcDbPoint
 10
252.1969486531034
 20
218.3031224615943
 30
0.0
  0
ENDBLK
  5
46
330
3A
100
AcDbEntity
  8
0
100
AcDbBlockEnd
  0
BLOCK
  5
49
330
48
100
AcDbEntity
  8
0
100
AcDbBlockBegin
  2
*D2
 70
     1
 10
0.0
 20
0.0
 30
0.0
  3
*D2
  1

  0
LINE
  5
4A
330
48
100
AcDbEntity
  8
SUNPO
 62
     0
370
    -2
100
AcDbLine
 10
133.7511795119824
 20
212.3031224615943
 30
0.0
 11
133.7511795119824
 21
220.3031224615943
 31
0.0
  0
LINE
  5
4B
330
48
100
AcDbEntity
  8
SUNPO
 62
     0
370
    -2
100
AcDbLine
 10
175.7511727508056
 20
212.3031224615943
 30
0.0
 11
175.7511727508056
 21
220.3031224615943
 31
0.0
  0
LINE
  5
4C
330
48
100
AcDbEntity
  8
SUNPO
 62
     0
370
    -2
100
AcDbLine
 10
135.7511795119824
 20
218.3031224615943
 30
0.0
 11
173.7511727508056
 21
218.3031224615943
 31
0.0
  0
INSERT
  5
4D
330
48
100
AcDbEntity
  8
SUNPO
 62
     0
370
    -2
100
AcDbBlockReference
  2
_OPEN30
 10
133.7511795119824
 20
218.3031224615943
 30
0.0
 41
2.0
 42
2.0
 43
2.0
 50
180.0
  0
INSERT
  5
4E
330
48
100
AcDbEntity
  8
SUNPO
 62
     0
370
    -2
100
AcDbBlockReference
  2
_OPEN30
 10
175.7511727508056
 20
218.3031224615943
 30
0.0
 41
2.0
 42
2.0
 43
2.0
  0
MTEXT
  5
4F
330
48
100
AcDbEntity
  8
SUNPO
 62
     0
100
AcDbMText
 10
154.751176131394
 20
220.0531224615943
 30
0.0
 40
2.5
 41
0.0
 71
     5
 72
     1
  1
\A1;210
 73
     1
 44
1.0
1001
ACAD
1000
MTEXTBEGIN
1070
    73
1070
     1
1070
    44
1040
1.0
1070
    74
1070
     0
1000
MTEXTEND
  0
POINT
  5
50
330
48
100
AcDbEntity
  8
DEFPOINTS
 62
     0
100
AcDbPoint
 10
133.7511795119824
 20
210.3031224615943
 30
0.0
  0
POINT
  5
51
330
48
100
AcDbEntity
  8
DEFPOINTS
 62
     0
100
AcDbPoint
 10
175.7511727508056
 20
210.3031224615943
 30
0.0
  0
POINT
  5
52
330
48
100
AcDbEntity
  8
DEFPOINTS
 62
     0
100
AcDbPoint
 10
175.7511727508056
 20
218.3031224615943
 30
0.0
  0
ENDBLK
  5
53
330
48
100
AcDbEntity
  8
0
100
AcDbBlockEnd
  0
BLOCK
  5
56
330
55
100
AcDbEntity
  8
0
100
AcDbBlockBegin
  2
*D3
 70
     1
 10
0.0
 20
0.0
 30
0.0
  3
*D3
  1

  0
LINE
  5
57
330
55
100
AcDbEntity
  8
SUNPO
 62
     0
370
    -2
100
AcDbLine
 10
177.7511727508056
 20
201.5031236809735
 30
0.0
 11
185.7511727508056
 21
201.5031236809735
 31
0.0
  0
LINE
  5
58
330
55
100
AcDbEntity
  8
SUNPO
 62
     0
370
    -2
100
AcDbLine
 10
177.7511727508056
 20
210.3031224615943
 30
0.0
 11
185.7511727508056
 21
210.3031224615943
 31
0.0
  0
LINE
  5
59
330
55
100
AcDbEntity
  8
SUNPO
 62
     0
370
    -2
100
AcDbLine
 10
183.7511727508056
 20
203.5031236809735
 30
0.0
 11
183.7511727508056
 21
208.3031224615943
 31
0.0
  0
INSERT
  5
5A
330
55
100
AcDbEntity
  8
SUNPO
 62
     0
370
    -2
100
AcDbBlockReference
  2
_OPEN30
 10
183.7511727508056
 20
201.5031236809735
 30
0.0
 41
2.0
 42
2.0
 43
2.0
 50
270.0
  0
INSERT
  5
5B
330
55
100
AcDbEntity
  8
SUNPO
 62
     0
370
    -2
100
AcDbBlockReference
  2
_OPEN30
 10
183.7511727508056
 20
210.3031224615943
 30
0.0
 41
2.0
 42
2.0
 43
2.0
 50
90.0
  0
MTEXT
  5
5C
330
55
100
AcDbEntity
  8
SUNPO
 62
     0
100
AcDbMText
 10
182.0011727508055
 20
205.9031230712839
 30
0.0
 40
2.5
 41
0.0
 71
     5
 72
     1
  1
\A1;44
 11
0.0000000000000001
 21
1.0
 31
0.0
 73
     1
 44
1.0
1001
ACAD
1000
MTEXTBEGIN
1070
    73
1070
     1
1070
    44
1040
1.0
1070
    74
1070
     0
1000
MTEXTEND
  0
POINT
  5
5D
330
55
100
AcDbEntity
  8
DEFPOINTS
 62
     0
100
AcDbPoint
 10
175.7511727508056
 20
201.5031236809735
 30
0.0
  0
POINT
  5
5E
330
55
100
AcDbEntity
  8
DEFPOINTS
 62
     0
100
AcDbPoint
 10
175.7511727508056
 20
210.3031224615943
 30
0.0
  0
POINT
  5
5F
330
55
100
AcDbEntity
  8
DEFPOINTS
 62
     0
100
AcDbPoint
 10
183.7511727508056
 20
210.3031224615943
 30
0.0
  0
ENDBLK
  5
60
330
55
100
AcDbEntity
  8
0
100
AcDbBlockEnd
  0
BLOCK
  5
18E
330
184
100
AcDbEntity
  8
0
100
AcDbBlockBegin
  2
*D4
 70
     1
 10
0.0
 20
0.0
 30
0.0
  3
*D4
  1

  0
LINE
  5
185
330
184
100
AcDbEntity
  8
SUNPO
 62
     0
370
    -2
100
AcDbLine
 10
-10.85779758376407
 20
14.87430516180745
 30
0.0
 11
-2.85779758376407
 21
14.87430516180745
 31
0.0
  0
LINE
  5
186
330
184
100
AcDbEntity
  8
SUNPO
 62
     0
370
    -2
100
AcDbLine
 10
-10.85779758376407
 20
23.6743039424282
 30
0.0
 11
-2.857797583764067
 21
23.67430394242819
 31
0.0
  0
LINE
  5
187
330
184
100
AcDbEntity
  8
SUNPO
 62
     0
370
    -2
100
AcDbLine
 10
-4.857797583764069
 20
16.87430516180745
 30
0.0
 11
-4.857797583764068
 21
21.67430394242819
 31
0.0
  0
INSERT
  5
188
330
184
100
AcDbEntity
  8
SUNPO
 62
     0
370
    -2
100
AcDbBlockReference
  2
_OPEN30
 10
-4.857797583764069
 20
14.87430516180745
 30
0.0
 41
2.0
 42
2.0
 43
2.0
 50
270.0
  0
INSERT
  5
189
330
184
100
AcDbEntity
  8
SUNPO
 62
     0
370
    -2
100
AcDbBlockReference
  2
_OPEN30
 10
-4.857797583764067
 20
23.67430394242819
 30
0.0
 41
2.0
 42
2.0
 43
2.0
 50
90.0
  0
MTEXT
  5
18A
330
184
100
AcDbEntity
  8
SUNPO
 62
     0
100
AcDbMText
 10
-6.607797583764072
 20
19.27430455211782
 30
0.0
 40
2.5
 41
0.0
 71
     5
 72
     1
  1
\A1;44
 11
0.0000000000000001
 21
1.0
 31
0.0
 73
     1
 44
1.0
1001
ACAD
1000
MTEXTBEGIN
1070
    73
1070
     1
1070
    44
1040
1.0
1070
    74
1070
     0
1000
MTEXTEND
  0
POINT
  5
18B
330
184
100
AcDbEntity
  8
DEFPOINTS
 62
     0
100
AcDbPoint
 10
-12.85779758376407
 20
14.87430516180745
 30
0.0
  0
POINT
  5
18C
330
184
100
AcDbEntity
  8
DEFPOINTS
 62
     0
100
AcDbPoint
 10
-12.85779758376407
 20
23.6743039424282
 30
0.0
  0
POINT
  5
18D
330
184
100
AcDbEntity
  8
DEFPOINTS
 62
     0
100
AcDbPoint
 10
-4.857797583764067
 20
23.67430394242819
 30
0.0
  0
ENDBLK
  5
18F
330
184
100
AcDbEntity
  8
0
100
AcDbBlockEnd
  0
BLOCK
  5
19A
330
190
100
AcDbEntity
  8
0
100
AcDbBlockBegin
  2
*D5
 70
     1
 10
0.0
 20
0.0
 30
0.0
  3
*D5
  1

  0
LINE
  5
191
330
190
100
AcDbEntity
  8
SUNPO
 62
     0
370
    -2
100
AcDbLine
 10
-54.85779082258727
 20
25.6743039424282
 30
0.0
 11
-54.85779082258727
 21
33.6743039424282
 31
0.0
  0
LINE
  5
192
330
190
100
AcDbEntity
  8
SUNPO
 62
     0
370
    -2
100
AcDbLine
 10
-12.85779758376407
 20
25.6743039424282
 30
0.0
 11
-12.85779758376407
 21
33.6743039424282
 31
0.0
  0
LINE
  5
193
330
190
100
AcDbEntity
  8
SUNPO
 62
     0
370
    -2
100
AcDbLine
 10
-52.85779082258727
 20
31.6743039424282
 30
0.0
 11
-14.85779758376407
 21
31.6743039424282
 31
0.0
  0
INSERT
  5
194
330
190
100
AcDbEntity
  8
SUNPO
 62
     0
370
    -2
100
AcDbBlockReference
  2
_OPEN30
 10
-54.85779082258727
 20
31.6743039424282
 30
0.0
 41
2.0
 42
2.0
 43
2.0
 50
180.0
  0
INSERT
  5
195
330
190
100
AcDbEntity
  8
SUNPO
 62
     0
370
    -2
100
AcDbBlockReference
  2
_OPEN30
 10
-12.85779758376407
 20
31.6743039424282
 30
0.0
 41
2.0
 42
2.0
 43
2.0
  0
MTEXT
  5
196
330
190
100
AcDbEntity
  8
SUNPO
 62
     0
100
AcDbMText
 10
-33.85779420317567
 20
33.4243039424282
 30
0.0
 40
2.5
 41
0.0
 71
     5
 72
     1
  1
\A1;210
 73
     1
 44
1.0
1001
ACAD
1000
MTEXTBEGIN
1070
    73
1070
     1
1070
    44
1040
1.0
1070
    74
1070
     0
1000
MTEXTEND
  0
POINT
  5
197
330
190
100
AcDbEntity
  8
DEFPOINTS
 62
     0
100
AcDbPoint
 10
-54.85779082258727
 20
23.6743039424282
 30
0.0
  0
POINT
  5
198
330
190
100
AcDbEntity
  8
DEFPOINTS
 62
     0
100
AcDbPoint
 10
-12.85779758376407
 20
23.6743039424282
 30
0.0
  0
POINT
  5
199
330
190
100
AcDbEntity
  8
DEFPOINTS
 62
     0
100
AcDbPoint
 10
-12.85779758376407
 20
31.6743039424282
 30
0.0
  0
ENDBLK
  5
19B
330
190
100
AcDbEntity
  8
0
100
AcDbBlockEnd
  0
BLOCK
  5
1A6
330
19C
100
AcDbEntity
  8
0
100
AcDbBlockBegin
  2
*D6
 70
     1
 10
0.0
 20
0.0
 30
0.0
  3
*D6
  1

  0
LINE
  5
19D
330
19C
100
AcDbEntity
  8
SUNPO
 62
     0
370
    -2
100
AcDbLine
 10
2.18798279601151
 20
25.6743039424282
 30
0.0
 11
2.187982796011511
 21
33.6743039424282
 31
0.0
  0
LINE
  5
19E
330
19C
100
AcDbEntity
  8
SUNPO
 62
     0
370
    -2
100
AcDbLine
 10
63.58797831853371
 20
25.6743039424282
 30
0.0
 11
63.58797831853371
 21
33.6743039424282
 31
0.0
  0
LINE
  5
19F
330
19C
100
AcDbEntity
  8
SUNPO
 62
     0
370
    -2
100
AcDbLine
 10
4.18798279601151
 20
31.6743039424282
 30
0.0
 11
61.58797831853371
 21
31.6743039424282
 31
0.0
  0
INSERT
  5
1A0
330
19C
100
AcDbEntity
  8
SUNPO
 62
     0
370
    -2
100
AcDbBlockReference
  2
_OPEN30
 10
2.187982796011511
 20
31.6743039424282
 30
0.0
 41
2.0
 42
2.0
 43
2.0
 50
180.0
  0
INSERT
  5
1A1
330
19C
100
AcDbEntity
  8
SUNPO
 62
     0
370
    -2
100
AcDbBlockReference
  2
_OPEN30
 10
63.58797831853371
 20
31.6743039424282
 30
0.0
 41
2.0
 42
2.0
 43
2.0
  0
MTEXT
  5
1A2
330
19C
100
AcDbEntity
  8
SUNPO
 62
     0
100
AcDbMText
 10
32.88798055727261
 20
33.4243039424282
 30
0.0
 40
2.5
 41
0.0
 71
     5
 72
     1
  1
\A1;307
 73
     1
 44
1.0
1001
ACAD
1000
MTEXTBEGIN
1070
    73
1070
     1
1070
    44
1040
1.0
1070
    74
1070
     0
1000
MTEXTEND
  0
POINT
  5
1A3
330
19C
100
AcDbEntity
  8
DEFPOINTS
 62
     0
100
AcDbPoint
 10
2.18798279601151
 20
23.6743039424282
 30
0.0
  0
POINT
  5
1A4
330
19C
100
AcDbEntity
  8
DEFPOINTS
 62
     0
100
AcDbPoint
 10
63.58797831853371
 20
23.6743039424282
 30
0.0
  0
POINT
  5
1A5
330
19C
100
AcDbEntity
  8
DEFPOINTS
 62
     0
100
AcDbPoint
 10
63.58797831853371
 20
31.6743039424282
 30
0.0
  0
ENDBLK
  5
1A7
330
19C
100
AcDbEntity
  8
0
100
AcDbBlockEnd
  0
ENDSEC
  0
SECTION
  2
ENTITIES
  0
TEXT
  5
34
330
2
100
AcDbEntity
  8
MOJI1
100
AcDbText
 10
-30.60897033456968
 20
53.87039562047585
 30
0.0
 40
4.0
  1
ネットワークインターフェースユニット
  7
KANJI
100
AcDbText
  0
TEXT
  5
36
330
2
100
AcDbEntity
  8
TOUROKU
100
AcDbText
 10
51.39097969835773
 20
47.87039562047584
 30
0.0
 40
2.0
  1
ＤＧＮＴ３０４
 72
     2
 11
67.39097969835774
 21
47.87039562047584
 31
0.0
100
AcDbText
  0
DIMENSION
  5
38
330
2
100
AcDbEntity
  8
SUNPO
100
AcDbDimension
  2
*D6
 10
63.58797831853371
 20
31.6743039424282
 30
0.0
 11
32.88798055727261
 21
33.4243039424282
 31
0.0
 70
    33
  1
307
 71
     5
 42
61.3999955225222
  3
STANDARD
100
AcDbAlignedDimension
 13
2.18798279601151
 23
23.6743039424282
 33
0.0
 14
63.58797831853371
 24
23.6743039424282
 34
0.0
1001
ACAD
1000
DSTYLE
1002
{
1070
    40
1040
1.0
1070
   140
1040
2.5
1070
   147
1040
0.5
1070
   172
1070
     1
1070
   279
1070
     0
1070
   288
1070
     0
1002
}
  0
DIMENSION
  5
47
330
2
100
AcDbEntity
  8
SUNPO
100
AcDbDimension
  2
*D5
 10
-12.85779758376407
 20
31.6743039424282
 30
0.0
 11
-33.85779420317567
 21
33.4243039424282
 31
0.0
 70
    33
  1
210
 71
     5
 42
41.99999323882321
  3
STANDARD
100
AcDbAlignedDimension
 13
-54.85779082258727
 23
23.6743039424282
 33
0.0
 14
-12.85779758376407
 24
23.6743039424282
 34
0.0
1001
ACAD
1000
DSTYLE
1002
{
1070
    40
1040
1.0
1070
   140
1040
2.5
1070
   147
1040
0.5
1070
   172
1070
     1
1070
   279
1070
     0
1070
   288
1070
     0
1002
}
  0
DIMENSION
  5
54
330
2
100
AcDbEntity
  8
SUNPO
100
AcDbDimension
  2
*D4
 10
-4.857797583764067
 20
23.67430394242819
 30
0.0
 11
-6.607797583764072
 21
19.27430455211782
 31
0.0
 70
    33
  1
44
 71
     5
 42
8.79999878062074
  3
STANDARD
100
AcDbAlignedDimension
 13
-12.85779758376407
 23
14.87430516180745
 33
0.0
 14
-12.85779758376407
 24
23.6743039424282
 34
0.0
1001
ACAD
1000
DSTYLE
1002
{
1070
    40
1040
1.0
1070
   140
1040
2.5
1070
   147
1040
0.5
1070
   172
1070
     1
1070
   279
1070
     0
1070
   288
1070
     0
1002
}
  0
ARC
  5
61
330
2
100
AcDbEntity
  8
GAIKEI
100
AcDbCircle
 10
55.5879827960116
 20
15.18114100308008
 30
0.0
 40
1.026835841272647
100
AcDbArc
 50
189.2311624778274
 51
350.7688375221726
  0
ARC
  5
63
330
2
100
AcDbEntity
  8
GAIKEI
100
AcDbCircle
 10
11.5879827960116
 20
15.18114100308008
 30
0.0
 40
1.026835841272647
100
AcDbArc
 50
189.2311624778274
 51
350.7688375221726
  0
ARC
  5
64
330
2
100
AcDbEntity
  8
GAIKEI
100
AcDbCircle
 10
-17.89138335172379
 20
15.18114100308008
 30
0.0
 40
1.026835841272647
100
AcDbArc
 50
197.3865536512792
 51
342.6134463487209
  0
ARC
  5
65
330
2
100
AcDbEntity
  8
GAIKEI
 62
     1
100
AcDbCircle
 10
62.94500985379113
 20
20.49743523295473
 30
0.0
 40
0.8670642435237558
100
AcDbArc
 50
338.686745923922
 51
1.63419567673571
  0
ARC
  5
66
330
2
100
AcDbEntity
  8
GAIKEI
 62
     1
100
AcDbCircle
 10
63.18143287713678
 20
21.66075684728224
 30
0.0
 40
1.106676725723384
100
AcDbArc
 50
338.6638013048508
 51
21.3361986951368
  0
LINE
  5
67
330
2
100
AcDbEntity
  8
GAIKEI
 62
     1
100
AcDbLine
 10
64.21225968930162
 20
22.16421411354503
 30
0.0
 11
64.21225968930162
 21
22.06340987233028
 31
0.0
  0
LINE
  5
68
330
2
100
AcDbEntity
  8
GAIKEI
 62
     1
100
AcDbLine
 10
64.21225968930162
 20
21.15729958101923
 30
0.0
 11
64.21225968930139
 21
21.25810382223404
 31
0.0
  0
ARC
  5
69
330
2
100
AcDbEntity
  8
GAIKEI
 62
     1
100
AcDbCircle
 10
63.96814006623094
 20
22.10872252714705
 30
0.0
 40
0.2566841395380561
100
AcDbArc
 50
14.13445805870495
 51
90.42391603792585
  0
LINE
  5
6A
330
2
100
AcDbEntity
  8
GAIKEI
 62
     1
100
AcDbLine
 10
63.96624094675644
 20
22.36539964111637
 30
0.0
 11
63.58797831853371
 21
22.36539964111637
 31
0.0
  0
ARC
  5
6B
330
2
100
AcDbEntity
  8
GAIKEI
 62
     1
100
AcDbCircle
 10
63.97591239546295
 20
21.2062758990063
 30
0.0
 40
0.2503487285632601
100
AcDbArc
 50
267.7860038589756
 51
348.7183320772385
  0
LINE
  5
6C
330
2
100
AcDbEntity
  8
GAIKEI
 62
     1
100
AcDbLine
 10
64.01093317677737
 20
21.15729958101929
 30
0.0
 11
63.98611982509374
 21
21.15729958101929
 31
0.0
  0
LINE
  5
6D
330
2
100
AcDbEntity
  8
GAIKEI
 62
     1
100
AcDbLine
 10
64.01093317677737
 20
21.25810382223404
 30
0.0
 11
64.01093317677737
 21
21.15729958101929
 31
0.0
  0
ARC
  5
6E
330
2
100
AcDbEntity
  8
GAIKEI
 62
     1
100
AcDbCircle
 10
66.22138351817307
 20
21.66075684728219
 30
0.0
 40
2.246824463627904
100
AcDbArc
 50
169.6762621028093
 51
190.3237378971913
  0
LINE
  5
6F
330
2
100
AcDbEntity
  8
GAIKEI
 62
     1
100
AcDbLine
 10
64.01093317677737
 20
22.16421411354503
 30
0.0
 11
63.58797831853371
 21
22.16421411354503
 31
0.0
  0
LINE
  5
70
330
2
100
AcDbEntity
  8
GAIKEI
 62
     1
100
AcDbLine
 10
64.01093317677737
 20
22.06340987233034
 30
0.0
 11
64.01093317677737
 21
22.16421411354503
 31
0.0
  0
LINE
  5
71
330
2
100
AcDbEntity
  8
GAIKEI
 62
     1
100
AcDbLine
 10
65.78255009300801
 20
22.33536984618104
 30
0.0
 11
64.0880519459306
 21
22.33536984618104
 31
0.0
  0
LINE
  5
72
330
2
100
AcDbEntity
  8
GAIKEI
 62
     1
100
AcDbLine
 10
65.78255009300801
 20
22.16421411354503
 30
0.0
 11
65.78255009300801
 21
22.33536984618104
 31
0.0
  0
LINE
  5
73
330
2
100
AcDbEntity
  8
GAIKEI
 62
     1
100
AcDbLine
 10
66.42713329697153
 20
22.16421411354503
 30
0.0
 11
64.21225968930162
 21
22.16421411354503
 31
0.0
  0
LINE
  5
74
330
2
100
AcDbEntity
  8
GAIKEI
 62
     1
100
AcDbLine
 10
66.42713329697153
 20
21.15729958101929
 30
0.0
 11
66.42713329697153
 21
22.16421411354503
 31
0.0
  0
LINE
  5
75
330
2
100
AcDbEntity
  8
GAIKEI
 62
     1
100
AcDbLine
 10
64.21225968930162
 20
21.15729958101923
 30
0.0
 11
66.42713329697153
 21
21.15729958101929
 31
0.0
  0
LINE
  5
76
330
2
100
AcDbEntity
  8
GAIKEI
 62
     1
100
AcDbLine
 10
65.78255009300801
 20
20.42276797720251
 30
0.0
 11
65.78255009300801
 21
21.15729958101929
 31
0.0
  0
LINE
  5
77
330
2
100
AcDbEntity
  8
GAIKEI
 62
     1
100
AcDbLine
 10
64.81623922687368
 20
20.42276797720251
 30
0.0
 11
65.78255009300801
 21
20.42276797720251
 31
0.0
  0
LINE
  5
78
330
2
100
AcDbEntity
  8
GAIKEI
 62
     1
100
AcDbLine
 10
64.81623922687368
 20
20.24146132796864
 30
0.0
 11
64.81623922687368
 21
21.15729958101929
 31
0.0
  0
LINE
  5
79
330
2
100
AcDbEntity
  8
GAIKEI
 62
     1
100
AcDbLine
 10
63.77509960901261
 20
20.24146132796864
 30
0.0
 11
64.81623922687368
 21
20.24146132796864
 31
0.0
  0
ARC
  5
7A
330
2
100
AcDbEntity
  8
GAIKEI
 62
     1
100
AcDbCircle
 10
62.94500985379113
 20
20.65079541500023
 30
0.0
 40
0.8670642435237558
100
AcDbArc
 50
358.3658043232643
 51
4.897690551617271
  0
LINE
  5
7B
330
2
100
AcDbEntity
  8
GAIKEI
 62
     1
100
AcDbLine
 10
63.81172143854474
 20
20.52216236888989
 30
0.0
 11
63.76900299786189
 21
20.52216236888989
 31
0.0
  0
LINE
  5
7C
330
2
100
AcDbEntity
  8
GAIKEI
 62
     1
100
AcDbLine
 10
63.76900299786189
 20
20.52216236888989
 30
0.0
 11
63.76900299786189
 21
20.62606827906507
 31
0.0
  0
LINE
  5
7D
330
2
100
AcDbEntity
  8
GAIKEI
 62
     1
100
AcDbLine
 10
63.76900299786189
 20
20.62606827906507
 30
0.0
 11
63.81172143854474
 21
20.62606827906507
 31
0.0
  0
ARC
  5
7E
330
2
100
AcDbEntity
  8
GAIKEI
 62
     1
100
AcDbCircle
 10
63.50685071855128
 20
20.27289677576357
 30
0.0
 40
0.2620841518554704
100
AcDbArc
 50
288.8767987338966
 51
339.7735873925902
  0
ARC
  5
7F
330
2
100
AcDbEntity
  8
GAIKEI
 62
     1
100
AcDbCircle
 10
63.06159476523408
 20
19.76013005477102
 30
0.0
 40
0.7511058015160924
100
AcDbArc
 50
357.0741366279185
 51
28.5975709832431
  0
LINE
  5
80
330
2
100
AcDbEntity
  8
GAIKEI
 62
     1
100
AcDbLine
 10
63.76900299786189
 20
19.72179079213976
 30
0.0
 11
63.81172143854451
 21
19.72179079213976
 31
0.0
  0
LINE
  5
81
330
2
100
AcDbEntity
  8
GAIKEI
 62
     1
100
AcDbLine
 10
63.76900299786189
 20
19.61774389701179
 30
0.0
 11
63.76900299786189
 21
19.72179079213976
 31
0.0
  0
LINE
  5
82
330
2
100
AcDbEntity
  8
GAIKEI
 62
     1
100
AcDbLine
 10
63.81172143854451
 20
19.61774389701179
 30
0.0
 11
63.76900299786189
 21
19.61774389701179
 31
0.0
  0
ARC
  5
83
330
2
100
AcDbEntity
  8
GAIKEI
 62
     1
100
AcDbCircle
 10
62.64040923402626
 20
19.61195423641249
 30
0.0
 40
1.17132651324192
100
AcDbArc
 50
352.2390716860112
 51
0.2832040973776834
  0
ARC
  5
84
330
2
100
AcDbEntity
  8
GAIKEI
 62
     1
100
AcDbCircle
 10
63.50685071855128
 20
18.95130382870434
 30
0.0
 40
0.2620841518554704
100
AcDbArc
 50
288.8767987338966
 51
339.7735873925902
  0
ARC
  5
85
330
2
100
AcDbEntity
  8
GAIKEI
 62
     1
100
AcDbCircle
 10
62.94500985379113
 20
19.1758422858955
 30
0.0
 40
0.8670642435237558
100
AcDbArc
 50
338.686745923922
 51
1.63419567673571
  0
ARC
  5
86
330
2
100
AcDbEntity
  8
GAIKEI
 62
     1
100
AcDbCircle
 10
63.50685071855128
 20
19.55374092513216
 30
0.0
 40
0.2620841518554704
100
AcDbArc
 50
20.22641260740984
 51
71.12320126610335
  0
ARC
  5
87
330
2
100
AcDbEntity
  8
GAIKEI
 62
     1
100
AcDbCircle
 10
62.94500985379113
 20
19.329202467941
 30
0.0
 40
0.8670642435237558
100
AcDbArc
 50
358.3658043232643
 51
21.31325407607797
  0
LINE
  5
88
330
2
100
AcDbEntity
  8
GAIKEI
 62
     1
100
AcDbLine
 10
63.76900299786189
 20
19.30447533200589
 30
0.0
 11
63.81172143854474
 21
19.30447533200589
 31
0.0
  0
LINE
  5
89
330
2
100
AcDbEntity
  8
GAIKEI
 62
     1
100
AcDbLine
 10
63.76900299786189
 20
19.20056942183066
 30
0.0
 11
63.76900299786189
 21
19.30447533200589
 31
0.0
  0
LINE
  5
8A
330
2
100
AcDbEntity
  8
GAIKEI
 62
     1
100
AcDbLine
 10
63.81172143854474
 20
19.20056942183066
 30
0.0
 11
63.76900299786189
 21
19.20056942183066
 31
0.0
  0
LINE
  5
8B
330
2
100
AcDbEntity
  8
GAIKEI
 62
     1
100
AcDbLine
 10
63.73375675967508
 20
20.70318704821819
 30
0.0
 11
63.58797831853371
 21
20.70318704821819
 31
0.0
  0
ARC
  5
8C
330
2
100
AcDbEntity
  8
GAIKEI
 62
     1
100
AcDbCircle
 10
63.71153921063842
 20
20.92169822481219
 30
0.0
 40
0.2196377785848121
100
AcDbArc
 50
275.8057078626552
 51
331.997127660979
  0
LINE
  5
8D
330
2
100
AcDbEntity
  8
GAIKEI
 62
     1
100
AcDbLine
 10
63.98865755424322
 20
21.30829446541236
 30
0.0
 11
63.9459391135606
 21
21.30829446541236
 31
0.0
  0
LINE
  5
8E
330
2
100
AcDbEntity
  8
GAIKEI
 62
     1
100
AcDbLine
 10
63.9459391135606
 20
21.30829446541236
 30
0.0
 11
63.9459391135606
 21
21.20438855523713
 31
0.0
  0
LINE
  5
8F
330
2
100
AcDbEntity
  8
GAIKEI
 62
     1
100
AcDbLine
 10
63.9459391135606
 20
21.20438855523713
 30
0.0
 11
63.98865755424322
 21
21.20438855523713
 31
0.0
  0
ARC
  5
90
330
2
100
AcDbEntity
  8
GAIKEI
 62
     1
100
AcDbCircle
 10
63.21609423557015
 20
21.16910335823417
 30
0.0
 40
0.773368687294031
100
AcDbArc
 50
333.0476748466616
 51
2.61504632260214
  0
ARC
  5
91
330
2
100
AcDbEntity
  8
GAIKEI
 62
     1
100
AcDbCircle
 10
63.21609423557015
 20
21.34357966241532
 30
0.0
 40
0.773368687294031
100
AcDbArc
 50
357.3849536773979
 51
26.95232515333847
  0
LINE
  5
92
330
2
100
AcDbEntity
  8
GAIKEI
 62
     1
100
AcDbLine
 10
63.73375675967508
 20
21.80991892728952
 30
0.0
 11
63.58797831853371
 21
21.80991892728952
 31
0.0
  0
ARC
  5
93
330
2
100
AcDbEntity
  8
GAIKEI
 62
     1
100
AcDbCircle
 10
63.71153921063842
 20
21.5909847958373
 30
0.0
 40
0.2196377785848121
100
AcDbArc
 50
28.00287233902098
 51
84.19429213734476
  0
ARC
  5
94
330
2
100
AcDbEntity
  8
GAIKEI
 62
     1
100
AcDbCircle
 10
63.71153921063842
 20
17.56544144002538
 30
0.0
 40
0.2196377785848121
100
AcDbArc
 50
28.00287233902098
 51
84.19429213734476
  0
ARC
  5
95
330
2
100
AcDbEntity
  8
GAIKEI
 62
     1
100
AcDbCircle
 10
63.21609423557015
 20
17.3180363066034
 30
0.0
 40
0.773368687294031
100
AcDbArc
 50
357.3849536773979
 51
26.95232515333847
  0
ARC
  5
96
330
2
100
AcDbEntity
  8
GAIKEI
 62
     1
100
AcDbCircle
 10
63.21609423557015
 20
17.14356000242225
 30
0.0
 40
0.773368687294031
100
AcDbArc
 50
333.0476748466616
 51
2.61504632260214
  0
ARC
  5
97
330
2
100
AcDbEntity
  8
GAIKEI
 62
     1
100
AcDbCircle
 10
63.71153921063842
 20
16.89615486900027
 30
0.0
 40
0.2196377785848121
100
AcDbArc
 50
275.8057078626552
 51
331.997127660979
  0
LINE
  5
98
330
2
100
AcDbEntity
  8
GAIKEI
 62
     1
100
AcDbLine
 10
63.9459391135606
 20
17.17884519942521
 30
0.0
 11
63.98865755424322
 21
17.17884519942521
 31
0.0
  0
LINE
  5
99
330
2
100
AcDbEntity
  8
GAIKEI
 62
     1
100
AcDbLine
 10
63.9459391135606
 20
17.28275110960044
 30
0.0
 11
63.9459391135606
 21
17.17884519942521
 31
0.0
  0
LINE
  5
9A
330
2
100
AcDbEntity
  8
GAIKEI
 62
     1
100
AcDbLine
 10
63.98865755424322
 20
17.28275110960044
 30
0.0
 11
63.9459391135606
 21
17.28275110960044
 31
0.0
  0
LINE
  5
9B
330
2
100
AcDbEntity
  8
GAIKEI
 62
     1
100
AcDbLine
 10
63.73375675967508
 20
16.67764369240626
 30
0.0
 11
63.58797831853371
 21
16.67764369240626
 31
0.0
  0
LINE
  5
9C
330
2
100
AcDbEntity
  8
GAIKEI
 62
     1
100
AcDbLine
 10
63.73375675967508
 20
17.7843755714776
 30
0.0
 11
63.58797831853371
 21
17.7843755714776
 31
0.0
  0
ARC
  5
9D
330
2
100
AcDbEntity
  8
GAIKEI
 62
     1
100
AcDbCircle
 10
64.99744621644026
 20
17.95606500744554
 30
0.0
 40
0.1993216009665379
100
AcDbArc
 50
204.6161584731517
 51
155.3838415268482
  0
LINE
  5
9E
330
2
100
AcDbEntity
  8
GAIKEI
 62
     1
100
AcDbLine
 10
65.78255009300801
 20
16.99979430943534
 30
0.0
 11
63.96962458562234
 21
16.99979430943534
 31
0.0
  0
LINE
  5
9F
330
2
100
AcDbEntity
  8
GAIKEI
 62
     1
100
AcDbLine
 10
65.78255009300801
 20
18.91267814831934
 30
0.0
 11
65.78255009300801
 21
16.99979430943534
 31
0.0
  0
LINE
  5
A0
330
2
100
AcDbEntity
  8
GAIKEI
 62
     1
100
AcDbLine
 10
64.81623922687368
 20
18.91267814831934
 30
0.0
 11
65.78255009300801
 21
18.91267814831934
 31
0.0
  0
LINE
  5
A1
330
2
100
AcDbEntity
  8
GAIKEI
 62
     1
100
AcDbLine
 10
64.81623922687368
 20
17.42274916767911
 30
0.0
 11
63.97596890849581
 21
17.42274916767911
 31
0.0
  0
LINE
  5
A2
330
2
100
AcDbEntity
  8
GAIKEI
 62
     1
100
AcDbLine
 10
64.81623922687368
 20
19.09370282764769
 30
0.0
 11
64.81623922687368
 21
17.42274916767911
 31
0.0
  0
LINE
  5
A3
330
2
100
AcDbEntity
  8
GAIKEI
 62
     1
100
AcDbLine
 10
63.80016067241922
 20
19.09370282764769
 30
0.0
 11
64.81623922687368
 21
19.09370282764769
 31
0.0
  0
ARC
  5
A4
330
2
100
AcDbEntity
  8
GAIKEI
100
AcDbCircle
 10
63.41690473827771
 20
23.50318626134492
 30
0.0
 40
0.1713767339330314
100
AcDbArc
 50
356.5915481752757
 51
93.15072579205954
  0
LINE
  5
A5
330
2
100
AcDbEntity
  8
GAIKEI
 62
     1
100
AcDbLine
 10
63.50761689546743
 20
15.01641799417734
 30
0.0
 11
63.40695363920531
 21
15.01641799417734
 31
0.0
  0
LINE
  5
A6
330
2
100
AcDbEntity
  8
GAIKEI
 62
     1
100
AcDbLine
 10
63.50761689546743
 20
15.21774450670136
 30
0.0
 11
63.50761689546743
 21
15.01641799417734
 31
0.0
  0
LINE
  5
A7
330
2
100
AcDbEntity
  8
GAIKEI
 62
     1
100
AcDbLine
 10
63.40695363920531
 20
15.21774450670136
 30
0.0
 11
63.50761689546743
 21
15.21774450670136
 31
0.0
  0
ARC
  5
A8
330
2
100
AcDbEntity
  8
GAIKEI
 62
     1
100
AcDbCircle
 10
63.2057180483655
 20
15.01646804312946
 30
0.0
 40
0.2012355970634457
100
AcDbArc
 50
269.9741127860284
 51
359.9857500670932
  0
LINE
  5
A9
330
2
100
AcDbEntity
  8
GAIKEI
 62
     1
100
AcDbLine
 10
60.18544746891484
 20
14.815232466606
 30
0.0
 11
60.18544746891484
 21
15.01641799417734
 31
0.0
  0
LINE
  5
AA
330
2
100
AcDbEntity
  8
GAIKEI
 62
     1
100
AcDbLine
 10
63.20562712668106
 20
14.815232466606
 30
0.0
 11
60.18544746891484
 21
14.815232466606
 31
0.0
  0
LINE
  5
AB
330
2
100
AcDbEntity
  8
GAIKEI
100
AcDbLine
 10
63.40695363920531
 20
15.41921200417817
 30
0.0
 11
63.40695363920531
 21
15.01641799417734
 31
0.0
  0
LINE
  5
AC
330
2
100
AcDbEntity
  8
GAIKEI
100
AcDbLine
 10
63.58797831853371
 20
15.41921200417817
 30
0.0
 11
63.40695363920531
 21
15.41921200417817
 31
0.0
  0
LINE
  5
AD
330
2
100
AcDbEntity
  8
GAIKEI
100
AcDbLine
 10
63.58797831853371
 20
23.49299729319438
 30
0.0
 11
63.58797831853371
 21
15.41921200417817
 31
0.0
  0
LINE
  5
AE
330
2
100
AcDbEntity
  8
GAIKEI
 62
     1
100
AcDbLine
 10
46.2925082552274
 20
14.87557402638214
 30
0.0
 11
46.2925082552274
 21
15.01641799417734
 31
0.0
  0
LINE
  5
AF
330
2
100
AcDbEntity
  8
GAIKEI
 62
     1
100
AcDbLine
 10
45.38682091877467
 20
14.87557402638214
 30
0.0
 11
46.2925082552274
 21
14.87557402638214
 31
0.0
  0
LINE
  5
B0
330
2
100
AcDbEntity
  8
GAIKEI
 62
     1
100
AcDbLine
 10
45.38682091877467
 20
15.01641799417734
 30
0.0
 11
45.38682091877467
 21
14.87557402638214
 31
0.0
  0
ARC
  5
B1
330
2
100
AcDbEntity
  8
GAIKEI
 62
     1
100
AcDbCircle
 10
60.5878890052727
 20
17.63401511937178
 30
0.0
 40
0.2013970173411334
100
AcDbArc
 50
270.0200577292868
 51
89.97994227071314
  0
ARC
  5
B2
330
2
100
AcDbEntity
  8
GAIKEI
 62
     1
100
AcDbCircle
 10
60.58831186577049
 20
17.63401511937189
 30
0.0
 40
0.6039091478888511
100
AcDbArc
 50
269.966570209625
 51
90.03342979037176
  0
LINE
  5
B3
330
2
100
AcDbEntity
  8
GAIKEI
 62
     1
100
AcDbLine
 10
60.58795950901253
 20
17.8354121243724
 30
0.0
 11
51.40550626933396
 21
17.8354121243724
 31
0.0
  0
LINE
  5
B4
330
2
100
AcDbEntity
  8
GAIKEI
 62
     1
100
AcDbLine
 10
60.58795950901253
 20
17.4326181143715
 30
0.0
 11
51.40547413582999
 21
17.4326181143715
 31
0.0
  0
LINE
  5
B5
330
2
100
AcDbEntity
  8
GAIKEI
 62
     1
100
AcDbLine
 10
60.58795950901322
 20
18.2379241644677
 30
0.0
 11
51.68344652709766
 21
18.2379241644677
 31
0.0
  0
LINE
  5
B6
330
2
100
AcDbEntity
  8
GAIKEI
 62
     1
100
AcDbLine
 10
60.58795950901322
 20
17.03010607427614
 30
0.0
 11
51.68337322631441
 21
17.03010607427614
 31
0.0
  0
CIRCLE
  5
B7
330
2
100
AcDbEntity
  8
GAIKEI
 62
     1
100
AcDbCircle
 10
50.52186583184743
 20
17.63408561184832
 30
0.0
 40
0.5536479094411528
  0
ARC
  5
B8
330
2
100
AcDbEntity
  8
GAIKEI
 62
     1
100
AcDbCircle
 10
50.52186583184743
 20
17.63408561184832
 30
0.0
 40
0.9062851578872145
100
AcDbArc
 50
12.83503725375178
 51
167.1649627462482
  0
ARC
  5
B9
330
2
100
AcDbEntity
  8
GAIKEI
 62
     1
100
AcDbCircle
 10
50.52186583184743
 20
17.63408561184832
 30
0.0
 40
1.309156487669617
100
AcDbArc
 50
207.4742643666105
 51
332.5257356333967
  0
ARC
  5
BA
330
2
100
AcDbEntity
  8
GAIKEI
 62
     1
100
AcDbCircle
 10
50.52186583184743
 20
17.63408561184832
 30
0.0
 40
1.309156487669617
100
AcDbArc
 50
27.46730996587175
 51
152.5326900341217
  0
ARC
  5
BB
330
2
100
AcDbEntity
  8
GAIKEI
 62
     1
100
AcDbCircle
 10
50.52186583184743
 20
17.63408561184832
 30
0.0
 40
0.9062851578872145
100
AcDbArc
 50
192.8441789694127
 51
347.1558210305873
  0
LINE
  5
BC
330
2
100
AcDbEntity
  8
GAIKEI
 62
     1
100
AcDbLine
 10
50.86276744759198
 20
17.68413527007379
 30
0.0
 11
50.57459420417536
 21
17.68413527007379
 31
0.0
  0
LINE
  5
BD
330
2
100
AcDbEntity
  8
GAIKEI
 62
     1
100
AcDbLine
 10
50.57459420417536
 20
17.68413527007379
 30
0.0
 11
50.57459420417536
 21
17.97428230282906
 31
0.0
  0
LINE
  5
BE
330
2
100
AcDbEntity
  8
GAIKEI
 62
     1
100
AcDbLine
 10
50.57459420417536
 20
17.97428230282906
 30
0.0
 11
50.46998336923616
 21
17.97428230282906
 31
0.0
  0
LINE
  5
BF
330
2
100
AcDbEntity
  8
GAIKEI
 62
     1
100
AcDbLine
 10
50.46998336923616
 20
17.97428230282906
 30
0.0
 11
50.46998336923616
 21
17.68413527007379
 31
0.0
  0
LINE
  5
C0
330
2
100
AcDbEntity
  8
GAIKEI
 62
     1
100
AcDbLine
 10
50.46998336923616
 20
17.68413527007379
 30
0.0
 11
50.18209209572501
 21
17.68413527007379
 31
0.0
  0
LINE
  5
C1
330
2
100
AcDbEntity
  8
GAIKEI
 62
     1
100
AcDbLine
 10
50.18209209572501
 20
17.68413527007379
 30
0.0
 11
50.18209209572501
 21
17.58361299876452
 31
0.0
  0
LINE
  5
C2
330
2
100
AcDbEntity
  8
GAIKEI
 62
     1
100
AcDbLine
 10
50.18209209572501
 20
17.58361299876452
 30
0.0
 11
50.46998336923616
 21
17.58361299876452
 31
0.0
  0
LINE
  5
C3
330
2
100
AcDbEntity
  8
GAIKEI
 62
     1
100
AcDbLine
 10
50.46998336923616
 20
17.58361299876452
 30
0.0
 11
50.46998336923616
 21
17.29374793591478
 31
0.0
  0
LINE
  5
C4
330
2
100
AcDbEntity
  8
GAIKEI
 62
     1
100
AcDbLine
 10
50.46998336923616
 20
17.29374793591478
 30
0.0
 11
50.57459420417536
 21
17.29374793591478
 31
0.0
  0
LINE
  5
C5
330
2
100
AcDbEntity
  8
GAIKEI
 62
     1
100
AcDbLine
 10
50.57459420417536
 20
17.29374793591478
 30
0.0
 11
50.57459420417536
 21
17.58361299876452
 31
0.0
  0
LINE
  5
C6
330
2
100
AcDbEntity
  8
GAIKEI
 62
     1
100
AcDbLine
 10
50.57459420417536
 20
17.58361299876452
 30
0.0
 11
50.86276744759198
 21
17.58361299876452
 31
0.0
  0
LINE
  5
C7
330
2
100
AcDbEntity
  8
GAIKEI
 62
     1
100
AcDbLine
 10
50.86276744759198
 20
17.58361299876452
 30
0.0
 11
50.86276744759198
 21
17.68413527007379
 31
0.0
  0
LINE
  5
C8
330
2
100
AcDbEntity
  8
GAIKEI
 62
     1
100
AcDbLine
 10
14.82461454296481
 20
17.03010607427614
 30
0.0
 11
49.36035843738046
 21
17.03010607427614
 31
0.0
  0
LINE
  5
C9
330
2
100
AcDbEntity
  8
GAIKEI
 62
     1
100
AcDbLine
 10
14.54687418605135
 20
17.4326181143715
 30
0.0
 11
49.63825752786488
 21
17.4326181143715
 31
0.0
  0
LINE
  5
CA
330
2
100
AcDbEntity
  8
GAIKEI
 62
     1
100
AcDbLine
 10
14.54687418605135
 20
17.8354121243724
 30
0.0
 11
49.63822539436091
 21
17.8354121243724
 31
0.0
  0
LINE
  5
CB
330
2
100
AcDbEntity
  8
GAIKEI
 62
     1
100
AcDbLine
 10
14.82461454296481
 20
18.2379241644677
 30
0.0
 11
49.36028513659721
 21
18.2379241644677
 31
0.0
  0
CIRCLE
  5
CC
330
2
100
AcDbEntity
  8
GAIKEI
 62
     1
100
AcDbCircle
 10
33.60809205649548
 20
21.76149059602057
 30
0.0
 40
0.6341503174602199
  0
LINE
  5
CD
330
2
100
AcDbEntity
  8
GAIKEI
 62
     1
100
AcDbLine
 10
33.50742880023358
 20
22.11395297789045
 30
0.0
 11
33.70903728266308
 21
22.11395297789045
 31
0.0
  0
LINE
  5
CE
330
2
100
AcDbEntity
  8
GAIKEI
 62
     1
100
AcDbLine
 10
33.70903728266308
 20
22.11395297789045
 30
0.0
 11
33.70903728266308
 21
21.86215385228257
 31
0.0
  0
LINE
  5
CF
330
2
100
AcDbEntity
  8
GAIKEI
 62
     1
100
AcDbLine
 10
33.70903728266308
 20
21.86215385228257
 30
0.0
 11
33.96055443836531
 21
21.86215385228257
 31
0.0
  0
LINE
  5
D0
330
2
100
AcDbEntity
  8
GAIKEI
 62
     1
100
AcDbLine
 10
33.96055443836531
 20
21.86215385228257
 30
0.0
 11
33.96055443836531
 21
21.66082733975855
 31
0.0
  0
LINE
  5
D1
330
2
100
AcDbEntity
  8
GAIKEI
 62
     1
100
AcDbLine
 10
33.96055443836531
 20
21.66082733975855
 30
0.0
 11
33.70903728266308
 21
21.66082733975855
 31
0.0
  0
LINE
  5
D2
330
2
100
AcDbEntity
  8
GAIKEI
 62
     1
100
AcDbLine
 10
33.70903728266308
 20
21.66082733975855
 30
0.0
 11
33.70903728266308
 21
21.40902821415068
 31
0.0
  0
LINE
  5
D3
330
2
100
AcDbEntity
  8
GAIKEI
 62
     1
100
AcDbLine
 10
33.70903728266308
 20
21.40902821415068
 30
0.0
 11
33.50742880023358
 21
21.40902821415068
 31
0.0
  0
LINE
  5
D4
330
2
100
AcDbEntity
  8
GAIKEI
 62
     1
100
AcDbLine
 10
33.50742880023358
 20
21.40902821415068
 30
0.0
 11
33.50742880023358
 21
21.66082733975855
 31
0.0
  0
LINE
  5
D5
330
2
100
AcDbEntity
  8
GAIKEI
 62
     1
100
AcDbLine
 10
33.50742880023358
 20
21.66082733975855
 30
0.0
 11
33.25562967462565
 21
21.66082733975855
 31
0.0
  0
LINE
  5
D6
330
2
100
AcDbEntity
  8
GAIKEI
 62
     1
100
AcDbLine
 10
33.25562967462565
 20
21.66082733975855
 30
0.0
 11
33.25562967462565
 21
21.86215385228257
 31
0.0
  0
LINE
  5
D7
330
2
100
AcDbEntity
  8
GAIKEI
 62
     1
100
AcDbLine
 10
33.25562967462565
 20
21.86215385228257
 30
0.0
 11
33.50742880023358
 21
21.86215385228257
 31
0.0
  0
LINE
  5
D8
330
2
100
AcDbEntity
  8
GAIKEI
 62
     1
100
AcDbLine
 10
33.50742880023358
 20
21.86215385228257
 30
0.0
 11
33.50742880023358
 21
22.11395297789045
 31
0.0
  0
LINE
  5
D9
330
2
100
AcDbEntity
  8
GAIKEI
 62
     1
100
AcDbLine
 10
13.32284282629393
 20
17.58361299876452
 30
0.0
 11
13.32284282629393
 21
17.68413527007379
 31
0.0
  0
LINE
  5
DA
330
2
100
AcDbEntity
  8
GAIKEI
 62
     1
100
AcDbLine
 10
13.61101606971056
 20
17.58361299876452
 30
0.0
 11
13.32284282629393
 21
17.58361299876452
 31
0.0
  0
LINE
  5
DB
330
2
100
AcDbEntity
  8
GAIKEI
 62
     1
100
AcDbLine
 10
13.61101606971056
 20
17.29374793591478
 30
0.0
 11
13.61101606971056
 21
17.58361299876452
 31
0.0
  0
LINE
  5
DC
330
2
100
AcDbEntity
  8
GAIKEI
 62
     1
100
AcDbLine
 10
13.71562690464952
 20
17.29374793591478
 30
0.0
 11
13.61101606971056
 21
17.29374793591478
 31
0.0
  0
LINE
  5
DD
330
2
100
AcDbEntity
  8
GAIKEI
 62
     1
100
AcDbLine
 10
13.71562690464952
 20
17.58361299876452
 30
0.0
 11
13.71562690464952
 21
17.29374793591478
 31
0.0
  0
LINE
  5
DE
330
2
100
AcDbEntity
  8
GAIKEI
 62
     1
100
AcDbLine
 10
14.0035181781609
 20
17.58361299876452
 30
0.0
 11
13.71562690464952
 21
17.58361299876452
 31
0.0
  0
LINE
  5
DF
330
2
100
AcDbEntity
  8
GAIKEI
 62
     1
100
AcDbLine
 10
14.0035181781609
 20
17.68413527007379
 30
0.0
 11
14.0035181781609
 21
17.58361299876452
 31
0.0
  0
LINE
  5
E0
330
2
100
AcDbEntity
  8
GAIKEI
 62
     1
100
AcDbLine
 10
13.71562690464952
 20
17.68413527007379
 30
0.0
 11
14.0035181781609
 21
17.68413527007379
 31
0.0
  0
LINE
  5
E1
330
2
100
AcDbEntity
  8
GAIKEI
 62
     1
100
AcDbLine
 10
13.71562690464952
 20
17.97428230282906
 30
0.0
 11
13.71562690464952
 21
17.68413527007379
 31
0.0
  0
LINE
  5
E2
330
2
100
AcDbEntity
  8
GAIKEI
 62
     1
100
AcDbLine
 10
13.61101606971056
 20
17.97428230282906
 30
0.0
 11
13.71562690464952
 21
17.97428230282906
 31
0.0
  0
LINE
  5
E3
330
2
100
AcDbEntity
  8
GAIKEI
 62
     1
100
AcDbLine
 10
13.61101606971056
 20
17.68413527007379
 30
0.0
 11
13.61101606971056
 21
17.97428230282906
 31
0.0
  0
LINE
  5
E4
330
2
100
AcDbEntity
  8
GAIKEI
 62
     1
100
AcDbLine
 10
13.32284282629393
 20
17.68413527007379
 30
0.0
 11
13.61101606971056
 21
17.68413527007379
 31
0.0
  0
ARC
  5
E5
330
2
100
AcDbEntity
  8
GAIKEI
 62
     1
100
AcDbCircle
 10
13.66374444203848
 20
17.63408561184832
 30
0.0
 40
0.9062851578872145
100
AcDbArc
 50
192.8441789694126
 51
347.1558210305873
  0
ARC
  5
E6
330
2
100
AcDbEntity
  8
GAIKEI
 62
     1
100
AcDbCircle
 10
13.66374444203848
 20
17.63408561184832
 30
0.0
 40
1.309156487669617
100
AcDbArc
 50
27.46730996587827
 51
152.5326900341282
  0
ARC
  5
E7
330
2
100
AcDbEntity
  8
GAIKEI
 62
     1
100
AcDbCircle
 10
13.66374444203848
 20
17.63408561184832
 30
0.0
 40
1.309156487669617
100
AcDbArc
 50
207.4742643666034
 51
332.5257356333894
  0
ARC
  5
E8
330
2
100
AcDbEntity
  8
GAIKEI
 62
     1
100
AcDbCircle
 10
13.66374444203848
 20
17.63408561184832
 30
0.0
 40
0.9062851578872145
100
AcDbArc
 50
12.83503725375175
 51
167.1649627462482
  0
CIRCLE
  5
E9
330
2
100
AcDbEntity
  8
GAIKEI
 62
     1
100
AcDbCircle
 10
13.66374444203848
 20
17.63408561184832
 30
0.0
 40
0.5536479094411528
  0
ARC
  5
EA
330
2
100
AcDbEntity
  8
GAIKEI
 62
     1
100
AcDbCircle
 10
10.64363528801254
 20
17.63401511937189
 30
0.0
 40
0.2013970173411334
100
AcDbArc
 50
90.02005772928686
 51
269.9799422707132
  0
ARC
  5
EB
330
2
100
AcDbEntity
  8
GAIKEI
 62
     1
100
AcDbCircle
 10
10.64321242751475
 20
17.63401511937201
 30
0.0
 40
0.6039091478888511
100
AcDbArc
 50
89.96657020962826
 51
270.033429790375
  0
LINE
  5
EC
330
2
100
AcDbEntity
  8
GAIKEI
 62
     1
100
AcDbLine
 10
12.50231040130074
 20
17.03010607427614
 30
0.0
 11
10.64356478427203
 21
17.0301060742762
 31
0.0
  0
LINE
  5
ED
330
2
100
AcDbEntity
  8
GAIKEI
 62
     1
100
AcDbLine
 10
12.7803327281199
 20
17.4326181143715
 30
0.0
 11
10.64356478427203
 21
17.4326181143715
 31
0.0
  0
LINE
  5
EE
330
2
100
AcDbEntity
  8
GAIKEI
 62
     1
100
AcDbLine
 10
12.7803327281199
 20
17.8354121243724
 30
0.0
 11
10.64356478427203
 21
17.8354121243724
 31
0.0
  0
LINE
  5
EF
330
2
100
AcDbEntity
  8
GAIKEI
 62
     1
100
AcDbLine
 10
12.50231040130074
 20
18.2379241644677
 30
0.0
 11
10.64356478427203
 21
18.2379241644677
 31
0.0
  0
CIRCLE
  5
F0
330
2
100
AcDbEntity
  8
GAIKEI
 62
     1
100
AcDbCircle
 10
8.227082694172395
 20
21.7623365057371
 30
0.0
 40
0.6341503174602199
  0
LINE
  5
F1
330
2
100
AcDbEntity
  8
GAIKEI
 62
     1
100
AcDbLine
 10
8.126419437910271
 20
22.11479888760692
 30
0.0
 11
8.328027920339991
 21
22.11479888760692
 31
0.0
  0
LINE
  5
F2
330
2
100
AcDbEntity
  8
GAIKEI
 62
     1
100
AcDbLine
 10
8.328027920339991
 20
22.11479888760692
 30
0.0
 11
8.328027920339991
 21
21.86299976199911
 31
0.0
  0
LINE
  5
F3
330
2
100
AcDbEntity
  8
GAIKEI
 62
     1
100
AcDbLine
 10
8.328027920339991
 20
21.86299976199911
 30
0.0
 11
8.579545076042222
 21
21.86299976199911
 31
0.0
  0
LINE
  5
F4
330
2
100
AcDbEntity
  8
GAIKEI
 62
     1
100
AcDbLine
 10
8.579545076042222
 20
21.86299976199911
 30
0.0
 11
8.579545076042222
 21
21.66167324947503
 31
0.0
  0
LINE
  5
F5
330
2
100
AcDbEntity
  8
GAIKEI
 62
     1
100
AcDbLine
 10
8.579545076042222
 20
21.66167324947503
 30
0.0
 11
8.328027920339991
 21
21.66167324947503
 31
0.0
  0
LINE
  5
F6
330
2
100
AcDbEntity
  8
GAIKEI
 62
     1
100
AcDbLine
 10
8.328027920339991
 20
21.66167324947503
 30
0.0
 11
8.328027920339991
 21
21.40987412386721
 31
0.0
  0
LINE
  5
F7
330
2
100
AcDbEntity
  8
GAIKEI
 62
     1
100
AcDbLine
 10
8.328027920339991
 20
21.40987412386721
 30
0.0
 11
8.126419437910271
 21
21.40987412386721
 31
0.0
  0
LINE
  5
F8
330
2
100
AcDbEntity
  8
GAIKEI
 62
     1
100
AcDbLine
 10
8.126419437910271
 20
21.40987412386721
 30
0.0
 11
8.126419437910271
 21
21.66167324947503
 31
0.0
  0
LINE
  5
F9
330
2
100
AcDbEntity
  8
GAIKEI
 62
     1
100
AcDbLine
 10
8.126419437910271
 20
21.66167324947503
 30
0.0
 11
7.874620312302567
 21
21.66167324947503
 31
0.0
  0
LINE
  5
FA
330
2
100
AcDbEntity
  8
GAIKEI
 62
     1
100
AcDbLine
 10
7.874620312302567
 20
21.66167324947503
 30
0.0
 11
7.874620312302567
 21
21.86299976199911
 31
0.0
  0
LINE
  5
FB
330
2
100
AcDbEntity
  8
GAIKEI
 62
     1
100
AcDbLine
 10
7.874620312302567
 20
21.86299976199911
 30
0.0
 11
8.126419437910271
 21
21.86299976199911
 31
0.0
  0
LINE
  5
FC
330
2
100
AcDbEntity
  8
GAIKEI
 62
     1
100
AcDbLine
 10
8.126419437910271
 20
21.86299976199911
 30
0.0
 11
8.126419437910271
 21
22.11479888760692
 31
0.0
  0
LINE
  5
FD
330
2
100
AcDbEntity
  8
GAIKEI
 62
     1
100
AcDbLine
 10
8.126419437910271
 20
16.82863857679933
 30
0.0
 11
8.126419437910271
 21
17.08043770240715
 31
0.0
  0
LINE
  5
FE
330
2
100
AcDbEntity
  8
GAIKEI
 62
     1
100
AcDbLine
 10
7.874620312302567
 20
16.82863857679933
 30
0.0
 11
8.126419437910271
 21
16.82863857679933
 31
0.0
  0
LINE
  5
FF
330
2
100
AcDbEntity
  8
GAIKEI
 62
     1
100
AcDbLine
 10
7.874620312302567
 20
16.62731206427526
 30
0.0
 11
7.874620312302567
 21
16.82863857679933
 31
0.0
  0
LINE
  5
100
330
2
100
AcDbEntity
  8
GAIKEI
 62
     1
100
AcDbLine
 10
8.126419437910271
 20
16.62731206427526
 30
0.0
 11
7.874620312302567
 21
16.62731206427526
 31
0.0
  0
LINE
  5
101
330
2
100
AcDbEntity
  8
GAIKEI
 62
     1
100
AcDbLine
 10
8.126419437910271
 20
16.37551293866744
 30
0.0
 11
8.126419437910271
 21
16.62731206427526
 31
0.0
  0
LINE
  5
102
330
2
100
AcDbEntity
  8
GAIKEI
 62
     1
100
AcDbLine
 10
8.328027920339991
 20
16.37551293866744
 30
0.0
 11
8.126419437910271
 21
16.37551293866744
 31
0.0
  0
LINE
  5
103
330
2
100
AcDbEntity
  8
GAIKEI
 62
     1
100
AcDbLine
 10
8.328027920339991
 20
16.62731206427526
 30
0.0
 11
8.328027920339991
 21
16.37551293866744
 31
0.0
  0
LINE
  5
104
330
2
100
AcDbEntity
  8
GAIKEI
 62
     1
100
AcDbLine
 10
8.579545076042222
 20
16.62731206427526
 30
0.0
 11
8.328027920339991
 21
16.62731206427526
 31
0.0
  0
LINE
  5
105
330
2
100
AcDbEntity
  8
GAIKEI
 62
     1
100
AcDbLine
 10
8.579545076042222
 20
16.82863857679933
 30
0.0
 11
8.579545076042222
 21
16.62731206427526
 31
0.0
  0
LINE
  5
106
330
2
100
AcDbEntity
  8
GAIKEI
 62
     1
100
AcDbLine
 10
8.328027920339991
 20
16.82863857679933
 30
0.0
 11
8.579545076042222
 21
16.82863857679933
 31
0.0
  0
LINE
  5
107
330
2
100
AcDbEntity
  8
GAIKEI
 62
     1
100
AcDbLine
 10
8.328027920339991
 20
17.08043770240715
 30
0.0
 11
8.328027920339991
 21
16.82863857679933
 31
0.0
  0
LINE
  5
108
330
2
100
AcDbEntity
  8
GAIKEI
 62
     1
100
AcDbLine
 10
8.126419437910271
 20
17.08043770240715
 30
0.0
 11
8.328027920339991
 21
17.08043770240715
 31
0.0
  0
CIRCLE
  5
109
330
2
100
AcDbEntity
  8
GAIKEI
 62
     1
100
AcDbCircle
 10
8.227082694172395
 20
16.72797532053732
 30
0.0
 40
0.6341503174602199
  0
LINE
  5
10A
330
2
100
AcDbEntity
  8
GAIKEI
 62
     1
100
AcDbLine
 10
9.032388744268473
 20
15.31854874791617
 30
0.0
 11
9.032388744268473
 21
15.01641799417734
 31
0.0
  0
LINE
  5
10B
330
2
100
AcDbEntity
  8
GAIKEI
 62
     1
100
AcDbLine
 10
8.629735719220434
 20
15.31854874791617
 30
0.0
 11
9.032388744268473
 21
15.31854874791617
 31
0.0
  0
LINE
  5
10C
330
2
100
AcDbEntity
  8
GAIKEI
 62
     1
100
AcDbLine
 10
8.629735719220434
 20
15.01641799417734
 30
0.0
 11
8.629735719220434
 21
15.31854874791617
 31
0.0
  0
LINE
  5
10D
330
2
100
AcDbEntity
  8
GAIKEI
 62
     1
100
AcDbLine
 10
2.388049891163745
 20
22.41361649495616
 30
0.0
 11
2.388049891163745
 21
21.82046774672301
 31
0.0
  0
LINE
  5
10E
330
2
100
AcDbEntity
  8
GAIKEI
 62
     1
100
AcDbLine
 10
2.469821163757615
 20
22.41361649495616
 30
0.0
 11
2.388049891163745
 21
22.41361649495616
 31
0.0
  0
ARC
  5
10F
330
2
100
AcDbEntity
  8
GAIKEI
 62
     1
100
AcDbCircle
 10
2.658329979044765
 20
20.39489906898126
 30
0.0
 40
0.7688067618532458
100
AcDbArc
 50
180.1820556435282
 51
232.639719823239
  0
LINE
  5
110
330
2
100
AcDbEntity
  8
GAIKEI
 62
     1
100
AcDbLine
 10
2.211536730323359
 20
20.39245621236171
 30
0.0
 11
1.889527098247071
 21
20.39245621236171
 31
0.0
  0
ARC
  5
111
330
2
100
AcDbEntity
  8
GAIKEI
100
AcDbCircle
 10
19.37788748119169
 20
19.21241215786148
 30
0.0
 40
17.19093585624751
100
AcDbArc
 50
166.096658331451
 51
193.9033416685489
  0
LINE
  5
112
330
2
100
AcDbEntity
  8
GAIKEI
100
AcDbLine
 10
2.891648142379381
 20
23.54403384608912
 30
0.0
 11
2.690603599760834
 21
23.34313028842331
 31
0.0
  0
LINE
  5
113
330
2
100
AcDbEntity
  8
GAIKEI
100
AcDbLine
 10
3.596290936213563
 20
23.56884719777281
 30
0.0
 11
2.891648142379381
 21
23.54403384608912
 31
0.0
  0
LINE
  5
114
330
2
100
AcDbEntity
  8
GAIKEI
100
AcDbLine
 10
2.891648142379381
 20
14.88022652982283
 30
0.0
 11
2.690603599760834
 21
15.08169402729959
 31
0.0
  0
LINE
  5
115
330
2
100
AcDbEntity
  8
GAIKEI
100
AcDbLine
 10
3.596290936213563
 20
14.815232466606
 30
0.0
 11
2.891648142379381
 21
14.88022652982283
 31
0.0
  0
LINE
  5
116
330
2
100
AcDbEntity
  8
GAIKEI
100
AcDbLine
 10
4.300933730047745
 20
15.01641799417734
 30
0.0
 11
63.40695363920531
 21
15.01641799417734
 31
0.0
  0
ARC
  5
117
330
2
100
AcDbEntity
  8
GAIKEI
100
AcDbCircle
 10
4.301143842456212
 20
15.21795461910972
 30
0.0
 40
0.2015367344589423
100
AcDbArc
 50
180.0597338070121
 51
269.940266192961
  0
LINE
  5
118
330
2
100
AcDbEntity
  8
GAIKEI
100
AcDbLine
 10
6.616470593980011
 20
14.815232466606
 30
0.0
 11
3.596290936213563
 21
14.815232466606
 31
0.0
  0
LINE
  5
119
330
2
100
AcDbEntity
  8
GAIKEI
100
AcDbLine
 10
6.616470593980011
 20
15.01641799417734
 30
0.0
 11
6.616470593980011
 21
14.815232466606
 31
0.0
  0
LINE
  5
11A
330
2
100
AcDbEntity
  8
GAIKEI
100
AcDbLine
 10
3.59629093621379
 20
23.67430394242825
 30
0.0
 11
63.40748538828802
 21
23.67430394242825
 31
0.0
  0
LINE
  5
11B
330
2
100
AcDbEntity
  8
GAIKEI
100
AcDbLine
 10
3.59629093621379
 20
23.67430394242825
 30
0.0
 11
3.596290936213563
 21
14.815232466606
 31
0.0
  0
ARC
  5
11C
330
2
100
AcDbEntity
  8
GAIKEI
 62
     1
100
AcDbCircle
 10
4.300933026833945
 20
23.03000336267758
 30
0.0
 40
0.2013258582178773
100
AcDbArc
 50
89.99979987080843
 51
179.9600629822894
  0
LINE
  5
11D
330
2
100
AcDbEntity
  8
GAIKEI
 62
     1
100
AcDbLine
 10
6.616470593980011
 20
23.23132922089422
 30
0.0
 11
4.300933730047745
 21
23.23132922089422
 31
0.0
  0
LINE
  5
11E
330
2
100
AcDbEntity
  8
GAIKEI
 62
     1
100
AcDbLine
 10
6.616470593980011
 20
23.67430394242825
 30
0.0
 11
6.616470593980011
 21
23.23132922089422
 31
0.0
  0
LINE
  5
11F
330
2
100
AcDbEntity
  8
GAIKEI
 62
     1
100
AcDbLine
 10
4.097069488374245
 20
23.27150993242736
 30
0.0
 11
3.596290936213563
 21
23.27150993242736
 31
0.0
  0
LINE
  5
120
330
2
100
AcDbEntity
  8
GAIKEI
 62
     1
100
AcDbLine
 10
4.102990856389624
 20
15.21774450670136
 30
0.0
 11
3.596290936213563
 21
15.21774450670136
 31
0.0
  0
LINE
  5
121
330
2
100
AcDbEntity
  8
GAIKEI
 62
     1
100
AcDbLine
 10
4.099607217523725
 20
23.67458591233372
 30
0.0
 11
4.099607217523725
 21
14.82270466910165
 31
0.0
  0
ARC
  5
122
330
2
100
AcDbEntity
  8
GAIKEI
100
AcDbCircle
 10
-13.08696851344393
 20
23.44513301274822
 30
0.0
 40
0.22917092968
100
AcDbArc
 50
0.0
 51
90.0
  0
ARC
  5
123
330
2
100
AcDbEntity
  8
GAIKEI
100
AcDbCircle
 10
-49.82420505462755
 20
15.18114100308008
 30
0.0
 40
1.026835841272647
100
AcDbArc
 50
197.3865536512791
 51
342.6134463487208
  0
ELLIPSE
  5
124
330
2
100
AcDbEntity
  8
GAIKEI
 62
     1
100
AcDbEllipse
 10
-39.08072870037631
 20
16.95298730512303
 30
0.0
 11
0.9025835400483698
 21
-0.0006581286661209
 31
0.0
210
0.0
220
0.0
230
1.0
 40
0.3358338760887368
 41
0.0
 42
6.283185307179586
  0
ELLIPSE
  5
125
330
2
100
AcDbEntity
  8
GAIKEI
 62
     1
100
AcDbEllipse
 10
-41.75916083268179
 20
16.95298730512303
 30
0.0
 11
0.9025835400483698
 21
-0.0006581286661209
 31
0.0
210
0.0
220
0.0
230
1.0
 40
0.3358338760887368
 41
0.0
 42
6.283185307179586
  0
ELLIPSE
  5
126
330
2
100
AcDbEntity
  8
GAIKEI
 62
     1
100
AcDbEllipse
 10
-44.45239638502562
 20
16.95298730512303
 30
0.0
 11
0.9025835400483698
 21
-0.0006581286661209
 31
0.0
210
0.0
220
0.0
230
1.0
 40
0.3358338760887368
 41
0.0
 42
6.283185307179586
  0
ELLIPSE
  5
127
330
2
100
AcDbEntity
  8
GAIKEI
 62
     1
100
AcDbEllipse
 10
-47.81136288424522
 20
16.95298730512303
 30
0.0
 11
0.9025835400483698
 21
-0.0006581286661209
 31
0.0
210
0.0
220
0.0
230
1.0
 40
0.3358338760887368
 41
0.0
 42
6.283185307179586
  0
LINE
  5
128
330
2
100
AcDbEntity
  8
GAIKEI
 62
     1
100
AcDbLine
 10
-21.70685912794102
 20
21.02801637934943
 30
0.0
 11
-15.0828221080319
 21
21.02801637934943
 31
0.0
  0
LINE
  5
129
330
2
100
AcDbEntity
  8
GAIKEI
 62
     1
100
AcDbLine
 10
-21.68035395682455
 20
21.21806409565369
 30
0.0
 11
-15.10960924905407
 21
21.21806409565369
 31
0.0
  0
LINE
  5
12A
330
2
100
AcDbEntity
  8
GAIKEI
 62
     1
100
AcDbLine
 10
-14.83125226654192
 20
22.52753233677617
 30
0.0
 11
-14.83125226654192
 21
21.27953353505143
 31
0.0
  0
LINE
  5
12B
330
2
100
AcDbEntity
  8
GAIKEI
 62
     1
100
AcDbLine
 10
-15.04244772575839
 20
22.48185321208592
 30
0.0
 11
-15.04244772575839
 21
21.28489096325592
 31
0.0
  0
ARC
  5
12C
330
2
100
AcDbEntity
  8
GAIKEI
 62
     1
100
AcDbCircle
 10
-15.0826991625097
 20
22.52788432986012
 30
0.0
 40
0.2514471423399748
100
AcDbArc
 50
359.9197933827209
 51
90.01600967215415
  0
ARC
  5
12D
330
2
100
AcDbEntity
  8
GAIKEI
 62
     1
100
AcDbCircle
 10
-15.10995875168805
 20
22.48144992617068
 30
0.0
 40
0.0675122304594405
100
AcDbArc
 50
0.3422597378665895
 51
89.89797378652268
  0
ARC
  5
12E
330
2
100
AcDbEntity
  8
GAIKEI
 62
     1
100
AcDbCircle
 10
-13.21016631446696
 20
21.88431789900016
 30
0.0
 40
2.012586988290905
100
AcDbArc
 50
160.7164329415595
 51
199.3321228008769
  0
ARC
  5
12F
330
2
100
AcDbEntity
  8
GAIKEI
 62
     1
100
AcDbCircle
 10
-15.10995875168805
 20
21.2852942491711
 30
0.0
 40
0.0675122304594405
100
AcDbArc
 50
270.1020262134675
 51
359.6577402621242
  0
ARC
  5
130
330
2
100
AcDbEntity
  8
GAIKEI
 62
     1
100
AcDbCircle
 10
-15.0826991625097
 20
21.2791815419676
 30
0.0
 40
0.2514471423399748
100
AcDbArc
 50
269.9839903278361
 51
0.0802066172698396
  0
ARC
  5
131
330
2
100
AcDbEntity
  8
GAIKEI
 62
     1
100
AcDbCircle
 10
-21.7069293876757
 20
21.27918154196789
 30
0.0
 40
0.2514471423399748
100
AcDbArc
 50
179.9197933827255
 51
270.0160096721575
  0
ARC
  5
132
330
2
100
AcDbEntity
  8
GAIKEI
 62
     1
100
AcDbCircle
 10
-21.67966979849734
 20
21.28529424917139
 30
0.0
 40
0.0675122304594405
100
AcDbArc
 50
180.3422597378712
 51
269.897973786526
  0
ARC
  5
133
330
2
100
AcDbEntity
  8
GAIKEI
 62
     1
100
AcDbCircle
 10
-23.57946223571844
 20
21.88431789900056
 30
0.0
 40
2.012586988290905
100
AcDbArc
 50
340.6678771991179
 51
19.2835670584364
  0
ARC
  5
134
330
2
100
AcDbEntity
  8
GAIKEI
 62
     1
100
AcDbCircle
 10
-21.67966979849734
 20
22.48144992617097
 30
0.0
 40
0.0675122304594405
100
AcDbArc
 50
90.10202621347408
 51
179.6577402621288
  0
ARC
  5
135
330
2
100
AcDbEntity
  8
GAIKEI
 62
     1
100
AcDbCircle
 10
-21.7069293876757
 20
22.5278843298604
 30
0.0
 40
0.2514471423399748
100
AcDbArc
 50
89.98399032784259
 51
180.0802066172744
  0
LINE
  5
136
330
2
100
AcDbEntity
  8
GAIKEI
 62
     1
100
AcDbLine
 10
-21.74718082442701
 20
22.48185321208615
 30
0.0
 11
-21.74718082442701
 21
21.2848909632562
 31
0.0
  0
LINE
  5
137
330
2
100
AcDbEntity
  8
GAIKEI
 62
     1
100
AcDbLine
 10
-21.95837628364348
 20
22.52753233677652
 30
0.0
 11
-21.95837628364348
 21
21.27953353505177
 31
0.0
  0
LINE
  5
138
330
2
100
AcDbEntity
  8
GAIKEI
 62
     1
100
AcDbLine
 10
-21.67979001701338
 20
22.5489620495942
 30
0.0
 11
-15.10960924905407
 21
22.5489620495942
 31
0.0
  0
LINE
  5
139
330
2
100
AcDbEntity
  8
GAIKEI
 62
     1
100
AcDbLine
 10
-21.70685912794102
 20
22.77933146238433
 30
0.0
 11
-15.0828221080319
 21
22.77933146238433
 31
0.0
  0
ARC
  5
13A
330
2
100
AcDbEntity
  8
GAIKEI
100
AcDbCircle
 10
-54.77594406198727
 20
14.9561519224074
 30
0.0
 40
0.0818467606
100
AcDbArc
 50
180.0
 51
270.0
  0
ARC
  5
13B
330
2
100
AcDbEntity
  8
GAIKEI
100
AcDbCircle
 10
-12.93964434436407
 20
14.9561519224074
 30
0.0
 40
0.0818467606
100
AcDbArc
 50
270.0
 51
0.0
  0
LINE
  5
13C
330
2
100
AcDbEntity
  8
GAIKEI
100
AcDbLine
 10
-12.93964434436407
 20
14.87430516180745
 30
0.0
 11
-37.78197531566252
 21
14.87430516180745
 31
0.0
  0
LINE
  5
13D
330
2
100
AcDbEntity
  8
GAIKEI
 62
     1
100
AcDbLine
 10
-12.92124081250063
 20
15.08183501225238
 30
0.0
 11
-37.78205235792757
 21
15.08183501225238
 31
0.0
  0
LINE
  5
13E
330
2
100
AcDbEntity
  8
GAIKEI
 62
     1
100
AcDbLine
 10
-12.92124081250063
 20
18.39498140182894
 30
0.0
 11
-12.92124081250063
 21
15.08183501225238
 31
0.0
  0
LINE
  5
13F
330
2
100
AcDbEntity
  8
GAIKEI
 62
     1
100
AcDbLine
 10
-13.0210581590461
 20
20.39245621236171
 30
0.0
 11
-13.02162209885705
 21
18.39498140182894
 31
0.0
  0
ARC
  5
140
330
2
100
AcDbEntity
  8
GAIKEI
 62
     1
100
AcDbCircle
 10
-16.17996701031643
 20
21.49537385394643
 30
0.0
 40
1.711408697644791
100
AcDbArc
 50
220.1244642906331
 51
319.8755357093668
  0
LINE
  5
141
330
2
100
AcDbEntity
  8
GAIKEI
 62
     1
100
AcDbLine
 10
-15.42908115198088
 20
20.39245621236171
 30
0.0
 11
-15.3805823282355
 21
19.98275393967623
 31
0.0
  0
LINE
  5
142
330
2
100
AcDbEntity
  8
GAIKEI
 62
     1
100
AcDbLine
 10
-16.93141680846293
 20
20.39245621236171
 30
0.0
 11
-16.9799156322083
 21
19.98275393967623
 31
0.0
  0
LINE
  5
143
330
2
100
AcDbEntity
  8
GAIKEI
 62
     1
100
AcDbLine
 10
-15.3805823282355
 20
19.98275393967623
 30
0.0
 11
-13.02162209885705
 21
19.98275393967623
 31
0.0
  0
LINE
  5
144
330
2
100
AcDbEntity
  8
GAIKEI
 62
     1
100
AcDbLine
 10
-37.78402384437232
 20
20.39245621236171
 30
0.0
 11
-37.78197531566252
 21
14.87430516180745
 31
0.0
  0
LINE
  5
145
330
2
100
AcDbEntity
  8
GAIKEI
 62
     1
100
AcDbLine
 10
-37.78394910500083
 20
19.98275393967623
 30
0.0
 11
-16.9799156322083
 21
19.98275393967623
 31
0.0
  0
LINE
  5
146
330
2
100
AcDbEntity
  8
GAIKEI
 62
     1
100
AcDbLine
 10
-37.78402384437232
 20
20.39245621236171
 30
0.0
 11
-13.0210581590461
 21
20.39245621236171
 31
0.0
  0
LINE
  5
147
330
2
100
AcDbEntity
  8
GAIKEI
 62
     1
100
AcDbLine
 10
-37.78394910500083
 20
18.39498140182894
 30
0.0
 11
-12.92124081250063
 21
18.39498140182894
 31
0.0
  0
LINE
  5
148
330
2
100
AcDbEntity
  8
GAIKEI
100
AcDbLine
 10
-12.85779758376407
 20
14.9561519224074
 30
0.0
 11
-12.85779758376407
 21
23.44513301274822
 31
0.0
  0
LINE
  5
149
330
2
100
AcDbEntity
  8
GAIKEI
 62
     1
100
AcDbLine
 10
-54.85511210848494
 20
15.08127107244138
 30
0.0
 11
-37.78205214857371
 21
15.08127107244138
 31
0.0
  0
LINE
  5
14A
330
2
100
AcDbEntity
  8
GAIKEI
100
AcDbLine
 10
-54.77594406198727
 20
14.87430516180745
 30
0.0
 11
-37.78197531566252
 21
14.87430516180745
 31
0.0
  0
ARC
  5
14B
330
2
100
AcDbEntity
  8
GAIKEI
100
AcDbCircle
 10
-54.66766313427024
 20
23.4845008375745
 30
0.0
 40
0.1901331961434718
100
AcDbArc
 50
86.62333061770123
 51
179.5638862027397
  0
LINE
  5
14C
330
2
100
AcDbEntity
  8
GAIKEI
100
AcDbLine
 10
-54.85779082258727
 20
23.485948045557
 30
0.0
 11
-54.85779082258727
 21
14.9561519224074
 31
0.0
  0
LINE
  5
14D
330
2
100
AcDbEntity
  8
GAIKEI
100
AcDbLine
 10
-54.65646431006303
 20
23.67430394242825
 30
0.0
 11
-13.08696851344393
 21
23.6743039424282
 31
0.0
  0
LINE
  5
14E
330
2
100
AcDbEntity
  8
GAIKEI
 62
     1
100
AcDbLine
 10
-37.9046322245531
 20
18.39469943192341
 30
0.0
 11
-54.69396630749407
 21
18.39469943192341
 31
0.0
  0
LINE
  5
14F
330
2
100
AcDbEntity
  8
GAIKEI
 62
     1
100
AcDbLine
 10
-37.9046322245531
 20
19.96047831714207
 30
0.0
 11
-54.69396630749407
 21
19.96047831714207
 31
0.0
  0
LINE
  5
150
330
2
100
AcDbEntity
  8
GAIKEI
 62
     1
100
AcDbLine
 10
-12.8665386508344
 20
23.3427073335651
 30
0.0
 11
-54.85511210848494
 21
23.3427073335651
 31
0.0
  0
TEXT
  5
151
330
2
100
AcDbEntity
  8
MOJI1
100
AcDbText
 10
-55.10897033456967
 20
-54.12960437952438
 30
0.0
 40
3.0
  1
ネットワーク
100
AcDbText
  0
TEXT
  5
152
330
2
100
AcDbEntity
  8
MOJI1
100
AcDbText
 10
-15.10897033456967
 20
-54.12960437952438
 30
0.0
 40
3.0
  1
１０ＢＡＳＥ－Ｔ／１００ＢＡＳＥ－ＴＸ
100
AcDbText
  0
TEXT
  5
153
330
2
100
AcDbEntity
  8
MOJI1
100
AcDbText
 10
-55.10897033456967
 20
-44.12960437952437
 30
0.0
 40
3.0
  1
画像解像度
100
AcDbText
  0
TEXT
  5
154
330
2
100
AcDbEntity
  8
MOJI1
100
AcDbText
 10
-55.10897033456967
 20
-49.12960437952438
 30
0.0
 40
3.0
  1
圧縮方式
100
AcDbText
  0
TEXT
  5
155
330
2
100
AcDbEntity
  8
MOJI1
100
AcDbText
 10
-15.10897033456967
 20
-44.12960437952437
 30
0.0
 40
3.0
  1
６４０（Ｈ）×４８０（Ｖ）／３２０（Ｈ）×２４０（Ｖ）から選択
 41
0.73
100
AcDbText
  0
TEXT
  5
156
330
2
100
AcDbEntity
  8
MOJI1
100
AcDbText
 10
-15.10897033456967
 20
-49.12960437952438
 30
0.0
 40
3.0
  1
（画像）ＪＰＥＧ／ＭＰＥＧ－４／（音声）Ｇ ７２６
 41
0.9
100
AcDbText
  0
LINE
  5
157
330
2
100
AcDbEntity
  8
WAKU
 62
     1
100
AcDbLine
 10
-57.60897033456967
 20
-50.12960437952438
 30
0.0
 11
67.39102966543033
 21
-50.12960437952438
 31
0.0
  0
LINE
  5
159
330
2
100
AcDbEntity
  8
WAKU
 62
     1
100
AcDbLine
 10
-57.60897033456967
 20
-45.12960437952438
 30
0.0
 11
67.39102966543033
 21
-45.12960437952438
 31
0.0
  0
TEXT
  5
15A
330
2
100
AcDbEntity
  8
MOJI1
100
AcDbText
 10
-15.10897033456967
 20
-34.12960437952438
 30
0.0
 40
3.0
  1
ＲＣＡピンジャック×１
100
AcDbText
  0
TEXT
  5
15B
330
2
100
AcDbEntity
  8
MOJI1
100
AcDbText
 10
-15.10897033456967
 20
-29.12960437952438
 30
0.0
 40
3.0
  1
ＲＣＡピンジャック×１
100
AcDbText
  0
TEXT
  5
15C
330
2
100
AcDbEntity
  8
MOJI1
100
AcDbText
 10
-15.10897033456967
 20
-24.12960437952438
 30
0.0
 40
3.0
  1
ＢＮＣコネクター×４
100
AcDbText
  0
TEXT
  5
15D
330
2
100
AcDbEntity
  8
MOJI1
100
AcDbText
 10
-15.10897033456967
 20
-14.12960437952438
 30
0.0
 40
3.0
  1
ＤＣ１２Ｖ　１．０Ａ（ＡＣアダプター付属）約１２Ｗ
 41
0.9
100
AcDbText
  0
LINE
  5
15E
330
2
100
AcDbEntity
  8
WAKU
 62
     4
100
AcDbLine
 10
67.39102966543033
 20
-55.12960437952438
 30
0.0
 11
-57.60897033456967
 21
-55.12960437952438
 31
0.0
  0
LINE
  5
15F
330
2
100
AcDbEntity
  8
WAKU
 62
     1
100
AcDbLine
 10
-57.60897033456967
 20
-40.12960437952438
 30
0.0
 11
67.39102966543033
 21
-40.12960437952438
 31
0.0
  0
LINE
  5
160
330
2
100
AcDbEntity
  8
WAKU
 62
     1
100
AcDbLine
 10
-57.60897033456967
 20
-35.12960437952438
 30
0.0
 11
67.39102966543033
 21
-35.12960437952438
 31
0.0
  0
LINE
  5
161
330
2
100
AcDbEntity
  8
WAKU
 62
     1
100
AcDbLine
 10
-57.60897033456967
 20
-20.12960437952438
 30
0.0
 11
67.39102966543033
 21
-20.12960437952438
 31
0.0
  0
LINE
  5
162
330
2
100
AcDbEntity
  8
WAKU
 62
     1
100
AcDbLine
 10
-57.60897033456967
 20
-15.12960437952438
 30
0.0
 11
67.39102966543033
 21
-15.12960437952438
 31
0.0
  0
LINE
  5
163
330
2
100
AcDbEntity
  8
WAKU
 62
     4
100
AcDbLine
 10
-57.60897033456967
 20
-10.12960437952438
 30
0.0
 11
67.39102966543033
 21
-10.12960437952438
 31
0.0
  0
LINE
  5
164
330
2
100
AcDbEntity
  8
WAKU
 62
     1
100
AcDbLine
 10
-57.60897033456967
 20
-30.12960437952438
 30
0.0
 11
67.39102966543033
 21
-30.12960437952438
 31
0.0
  0
LINE
  5
165
330
2
100
AcDbEntity
  8
WAKU
 62
     1
100
AcDbLine
 10
-57.60897033456967
 20
-25.12960437952438
 30
0.0
 11
67.39102966543033
 21
-25.12960437952438
 31
0.0
  0
TEXT
  5
166
330
2
100
AcDbEntity
  8
MOJI1
100
AcDbText
 10
-55.10897033456967
 20
-34.12960437952438
 30
0.0
 40
3.0
  1
音声出力
100
AcDbText
  0
LINE
  5
167
330
2
100
AcDbEntity
  8
WAKU
 62
     4
100
AcDbLine
 10
-57.60897033456967
 20
-10.12960437952438
 30
0.0
 11
-57.60897033456967
 21
-55.12960437952438
 31
0.0
  0
LINE
  5
168
330
2
100
AcDbEntity
  8
WAKU
 62
     4
100
AcDbLine
 10
-17.60897033456967
 20
-10.12960437952438
 30
0.0
 11
-17.60897033456967
 21
-55.12960437952438
 31
0.0
  0
TEXT
  5
169
330
2
100
AcDbEntity
  8
MOJI1
100
AcDbText
 10
-55.10897033456967
 20
-24.12960437952438
 30
0.0
 40
3.0
  1
映像出力
100
AcDbText
  0
TEXT
  5
16A
330
2
100
AcDbEntity
  8
MOJI1
100
AcDbText
 10
-55.10897033456967
 20
-29.12960437952438
 30
0.0
 40
3.0
  1
音声入力
100
AcDbText
  0
TEXT
  5
16B
330
2
100
AcDbEntity
  8
MOJI1
100
AcDbText
 10
-55.10897033456967
 20
-14.12960437952438
 30
0.0
 40
3.0
  1
電源／消費電力
100
AcDbText
  0
LINE
  5
16C
330
2
100
AcDbEntity
  8
WAKU
 62
     4
100
AcDbLine
 10
67.39102966543033
 20
-10.12960437952438
 30
0.0
 11
67.39102966543033
 21
-55.12960437952438
 31
0.0
  0
TEXT
  5
16D
330
2
100
AcDbEntity
  8
MOJI1
100
AcDbText
 10
-15.10897033456967
 20
-39.12960437952438
 30
0.0
 40
3.0
  1
Ｄ－ＳＵＢ９ピン×１、ＲＪ－１１×１
100
AcDbText
  0
TEXT
  5
16E
330
2
100
AcDbEntity
  8
MOJI1
100
AcDbText
 10
-55.10897033456967
 20
-39.12960437952438
 30
0.0
 40
3.0
  1
シリアルポート
100
AcDbText
  0
TEXT
  5
16F
330
2
100
AcDbEntity
  8
MOJI1
100
AcDbText
 10
-55.10897033456967
 20
-19.12960437952438
 30
0.0
 40
3.0
  1
映像入力
100
AcDbText
  0
TEXT
  5
170
330
2
100
AcDbEntity
  8
MOJI1
100
AcDbText
 10
-15.10897033456967
 20
-19.12960437952438
 30
0.0
 40
3.0
  1
ＢＮＣコネクター×４
100
AcDbText
  0
ENDSEC
  0
SECTION
  2
OBJECTS
  0
DICTIONARY
  5
9
330
0
100
AcDbDictionary
281
     1
  3
ACAD_COLOR
350
2A
  3
ACAD_GROUP
350
26
  3
ACAD_LAYOUT
350
D
  3
ACAD_MATERIAL
350
29
  3
ACAD_MLINESTYLE
350
27
  3
ACAD_PLOTSETTINGS
350
28
  3
ACAD_PLOTSTYLENAME
350
8
  3
ACDBHEADERROUNDTRIPXREC
350
1AD
  3
AcDbVariableDictionary
350
1A8
  0
DICTIONARY
  5
15
330
14
100
AcDbDictionary
280
     1
281
     1
  3
ACAD_LAYERFILTERS
360
16
  3
ACAD_LAYERSTATES
360
17
  0
DICTIONARY
  5
3
330
2
100
AcDbDictionary
280
     1
281
     1
  3
ACAD_LAYOUTSELFREF
360
4
  0
DICTIONARY
  5
F
330
E
100
AcDbDictionary
280
     1
281
     1
  3
ACAD_LAYOUTSELFREF
360
10
  0
DICTIONARY
  5
2A
102
{ACAD_REACTORS
330
9
102
}
330
9
100
AcDbDictionary
281
     1
  0
DICTIONARY
  5
26
102
{ACAD_REACTORS
330
9
102
}
330
9
100
AcDbDictionary
281
     1
  0
DICTIONARY
  5
D
102
{ACAD_REACTORS
330
9
102
}
330
9
100
AcDbDictionary
281
     1
  3
Model
350
C
  3
ﾚｲｱｳﾄ1
350
13
  0
DICTIONARY
  5
29
102
{ACAD_REACTORS
330
9
102
}
330
9
100
AcDbDictionary
281
     1
  0
DICTIONARY
  5
27
102
{ACAD_REACTORS
330
9
102
}
330
9
100
AcDbDictionary
281
     1
  3
STANDARD
350
32
  0
DICTIONARY
  5
28
102
{ACAD_REACTORS
330
9
102
}
330
9
100
AcDbDictionary
281
     1
  0
ACDBDICTIONARYWDFLT
  5
8
102
{ACAD_REACTORS
330
9
102
}
330
9
100
AcDbDictionary
281
     1
  3
Normal
350
7
100
AcDbDictionaryWithDefault
340
7
  0
DICTIONARY
  5
1AD
102
{ACAD_REACTORS
330
9
102
}
330
9
100
AcDbDictionary
281
     1
  3
COLORDICT
350
1AF
  3
MATERIALDICT
350
1AE
  0
DICTIONARY
  5
1A8
102
{ACAD_REACTORS
330
9
102
}
330
9
100
AcDbDictionary
281
     1
  3
DIMASSOC
350
1AA
  3
HIDETEXT
350
1A9
  3
PROJECTNAME
350
1AB
  0
DICTIONARY
  5
16
102
{ACAD_REACTORS
330
15
102
}
330
15
100
AcDbDictionary
280
     1
281
     1
  0
DICTIONARY
  5
17
102
{ACAD_REACTORS
330
15
102
}
330
15
100
AcDbDictionary
281
     1
  0
XRECORD
  5
4
102
{ACAD_REACTORS
330
3
102
}
330
3
100
AcDbXrecord
280
     1
340
2
  0
XRECORD
  5
10
102
{ACAD_REACTORS
330
F
102
}
330
F
100
AcDbXrecord
280
     1
340
E
  0
LAYOUT
  5
C
102
{ACAD_XDICTIONARY
360
1B0
102
}
102
{ACAD_REACTORS
330
D
102
}
330
D
100
AcDbPlotSettings
  1

  2
FX78BC34-A4縦.pc3
  4
A4
  6

 40
4.900083065032958
 41
4.900057315826416
 42
4.90008544921875
 43
4.90008544921875
 44
210.0156707763672
 45
297.0106506347656
 46
5.73
 47
0.0
 48
0.0
 49
0.0
140
0.0
141
0.0
142
1.0
143
1.372886859422437
 70
 11956
 72
     1
 73
     0
 74
     1
  7
tmsacad.ctb
 75
     0
147
0.7283921418118108
148
0.6007982431128767
149
0.0333771406676533
100
AcDbLayout
  1
Model
 70
     1
 71
     0
 10
0.0
 20
0.0
 11
12.0
 21
9.0
 12
0.0
 22
0.0
 32
0.0
 14
0.0
 24
0.0
 34
0.0
 15
0.0
 25
0.0
 35
0.0
146
0.0
 13
0.0
 23
0.0
 33
0.0
 16
1.0
 26
0.0
 36
0.0
 17
0.0
 27
1.0
 37
0.0
 76
     0
330
2
  0
LAYOUT
  5
13
102
{ACAD_XDICTIONARY
360
1B2
102
}
102
{ACAD_REACTORS
330
D
102
}
330
D
100
AcDbPlotSettings
  1

  2
C:\Program Files\ACAD2000\plotters\DWF ePlot.pc3
  4

  6

 40
0.0
 41
0.0
 42
0.0
 43
0.0
 44
0.0
 45
0.0
 46
0.0
 47
0.0
 48
0.0
 49
0.0
140
0.0
141
0.0
142
1.0
143
1.0
 70
   688
 72
     0
 73
     0
 74
     5
  7
tmsacad.ctb
 75
    16
147
1.0
148
0.0
149
0.0
100
AcDbLayout
  1
ﾚｲｱｳﾄ1
 70
     1
 71
     1
 10
0.0
 20
0.0
 11
12.0
 21
9.0
 12
0.0
 22
0.0
 32
0.0
 14
1.000000000000000E+20
 24
1.000000000000000E+20
 34
1.000000000000000E+20
 15
-1.000000000000000E+20
 25
-1.000000000000000E+20
 35
-1.000000000000000E+20
146
0.0
 13
0.0
 23
0.0
 33
0.0
 16
1.0
 26
0.0
 36
0.0
 17
0.0
 27
1.0
 37
0.0
 76
     0
330
E
  0
MLINESTYLE
  5
32
102
{ACAD_REACTORS
330
27
102
}
330
27
100
AcDbMlineStyle
  2
STANDARD
 70
     0
  3

 62
   256
 51
90.0
 52
90.0
 71
     2
 49
0.5
 62
   256
  6
BYLAYER
 49
-0.5
 62
   256
  6
BYLAYER
  0
ACDBPLACEHOLDER
  5
7
102
{ACAD_REACTORS
330
8
102
}
330
8
  0
XRECORD
  5
1AF
102
{ACAD_REACTORS
330
1AD
102
}
330
1AD
100
AcDbXrecord
280
     1
340
2A
  0
XRECORD
  5
1AE
102
{ACAD_REACTORS
330
1AD
102
}
330
1AD
100
AcDbXrecord
280
     1
340
29
  0
DICTIONARYVAR
  5
1AA
102
{ACAD_REACTORS
330
1A8
102
}
330
1A8
100
DictionaryVariables
280
     0
  1
1
  0
DICTIONARYVAR
  5
1A9
102
{ACAD_REACTORS
330
1A8
102
}
330
1A8
100
DictionaryVariables
280
     0
  1
1
  0
DICTIONARYVAR
  5
1AB
102
{ACAD_REACTORS
330
1A8
102
}
330
1A8
100
DictionaryVariables
280
     0
  1

  0
DICTIONARY
  5
1B0
330
C
100
AcDbDictionary
280
     1
281
     1
  3
ACAD_XREC_ROUNDTRIP
360
1B1
  0
DICTIONARY
  5
1B2
330
13
100
AcDbDictionary
280
     1
281
     1
  3
ACAD_XREC_ROUNDTRIP
360
1B3
  0
XRECORD
  5
1B1
102
{ACAD_REACTORS
330
1B0
102
}
330
1B0
100
AcDbXrecord
280
     1
102
SHADEPLOT
 70
     0
102
SHADEPLOTRESLEVEL
 70
     2
102
SHADEPLOTCUSTOMDPI
 70
   300
  0
XRECORD
  5
1B3
102
{ACAD_REACTORS
330
1B2
102
}
330
1B2
100
AcDbXrecord
280
     1
102
SHADEPLOT
 70
     0
102
SHADEPLOTRESLEVEL
 70
     2
102
SHADEPLOTCUSTOMDPI
 70
   300
  0
ENDSEC
  0
EOF
