  0
SECTION
  2
HEADER
  9
$ACADVER
  1
AC1015
  9
$ACADMAINTVER
 70
    20
  9
$DWGCODEPAGE
  3
ANSI_932
  9
$INSBASE
 10
0.4999999440410648
 20
372.5008351249344
 30
0.0
  9
$EXTMIN
 10
-60.51086335036768
 20
-60.64535460370279
 30
-0.0015258207003583
  9
$EXTMAX
 10
64.52270564218372
 20
52.37924235009029
 30
0.0000000349246037
  9
$LIMMIN
 10
0.0
 20
0.0
  9
$LIMMAX
 10
420.0
 20
297.0
  9
$ORTHOMODE
 70
     1
  9
$REGENMODE
 70
     0
  9
$FILLMODE
 70
     1
  9
$QTEXTMODE
 70
     0
  9
$MIRRTEXT
 70
     0
  9
$LTSCALE
 40
1.0
  9
$ATTMODE
 70
     1
  9
$TEXTSIZE
 40
2.5
  9
$TRACEWID
 40
1.0
  9
$TEXTSTYLE
  7
Standard
  9
$CLAYER
  8
GAIKEI
  9
$CELTYPE
  6
ByLayer
  9
$CECOLOR
 62
   256
  9
$CELTSCALE
 40
1.0
  9
$DISPSILH
 70
     0
  9
$DIMSCALE
 40
1.0
  9
$DIMASZ
 40
2.0
  9
$DIMEXO
 40
2.0
  9
$DIMDLI
 40
8.0
  9
$DIMRND
 40
0.0
  9
$DIMDLE
 40
0.0
  9
$DIMEXE
 40
2.0
  9
$DIMTP
 40
0.0
  9
$DIMTM
 40
0.0
  9
$DIMTXT
 40
2.5
  9
$DIMCEN
 40
0.0
  9
$DIMTSZ
 40
0.0
  9
$DIMTOL
 70
     0
  9
$DIMLIM
 70
     0
  9
$DIMTIH
 70
     0
  9
$DIMTOH
 70
     0
  9
$DIMSE1
 70
     0
  9
$DIMSE2
 70
     0
  9
$DIMTAD
 70
     3
  9
$DIMZIN
 70
     0
  9
$DIMBLK
  1

  9
$DIMASO
 70
     1
  9
$DIMSHO
 70
     1
  9
$DIMPOST
  1

  9
$DIMAPOST
  1

  9
$DIMALT
 70
     0
  9
$DIMALTD
 70
     2
  9
$DIMALTF
 40
25.4
  9
$DIMLFAC
 40
1.0
  9
$DIMTOFL
 70
     1
  9
$DIMTVP
 40
0.0
  9
$DIMTIX
 70
     0
  9
$DIMSOXD
 70
     0
  9
$DIMSAH
 70
     1
  9
$DIMBLK1
  1
OPEN30
  9
$DIMBLK2
  1
OPEN30
  9
$DIMSTYLE
  2
STANDARD
  9
$DIMCLRD
 70
     0
  9
$DIMCLRE
 70
     0
  9
$DIMCLRT
 70
     0
  9
$DIMTFAC
 40
1.0
  9
$DIMGAP
 40
0.5
  9
$DIMJUST
 70
     0
  9
$DIMSD1
 70
     0
  9
$DIMSD2
 70
     0
  9
$DIMTOLJ
 70
     1
  9
$DIMTZIN
 70
     0
  9
$DIMALTZ
 70
     0
  9
$DIMALTTZ
 70
     0
  9
$DIMUPT
 70
     0
  9
$DIMDEC
 70
     4
  9
$DIMTDEC
 70
     4
  9
$DIMALTU
 70
     2
  9
$DIMALTTD
 70
     2
  9
$DIMTXSTY
  7
Standard
  9
$DIMAUNIT
 70
     0
  9
$DIMADEC
 70
     0
  9
$DIMALTRND
 40
0.0
  9
$DIMAZIN
 70
     0
  9
$DIMDSEP
 70
    46
  9
$DIMATFIT
 70
     3
  9
$DIMFRAC
 70
     0
  9
$DIMLDRBLK
  1
OPEN30
  9
$DIMLUNIT
 70
     2
  9
$DIMLWD
 70
    -2
  9
$DIMLWE
 70
    -2
  9
$DIMTMOVE
 70
     0
  9
$LUNITS
 70
     2
  9
$LUPREC
 70
     4
  9
$SKETCHINC
 40
1.0
  9
$FILLETRAD
 40
0.0
  9
$AUNITS
 70
     0
  9
$AUPREC
 70
     0
  9
$MENU
  1
.
  9
$ELEVATION
 40
0.0
  9
$PELEVATION
 40
0.0
  9
$THICKNESS
 40
0.0
  9
$LIMCHECK
 70
     0
  9
$CHAMFERA
 40
0.0
  9
$CHAMFERB
 40
0.0
  9
$CHAMFERC
 40
0.0
  9
$CHAMFERD
 40
0.0
  9
$SKPOLY
 70
     0
  9
$TDCREATE
 40
2454349.434269746
  9
$TDUCREATE
 40
2454349.059269746
  9
$TDUPDATE
 40
2455456.636063727
  9
$TDUUPDATE
 40
2455456.261063727
  9
$TDINDWG
 40
0.1931247685
  9
$TDUSRTIMER
 40
0.1931247685
  9
$USRTIMER
 70
     1
  9
$ANGBASE
 50
0.0
  9
$ANGDIR
 70
     0
  9
$PDMODE
 70
     0
  9
$PDSIZE
 40
0.0
  9
$PLINEWID
 40
0.0
  9
$SPLFRAME
 70
     0
  9
$SPLINETYPE
 70
     6
  9
$SPLINESEGS
 70
     8
  9
$HANDSEED
  5
3FC
  9
$SURFTAB1
 70
     6
  9
$SURFTAB2
 70
     6
  9
$SURFTYPE
 70
     6
  9
$SURFU
 70
     6
  9
$SURFV
 70
     6
  9
$UCSBASE
  2

  9
$UCSNAME
  2

  9
$UCSORG
 10
0.0
 20
0.0
 30
0.0
  9
$UCSXDIR
 10
1.0
 20
0.0
 30
0.0
  9
$UCSYDIR
 10
0.0
 20
1.0
 30
0.0
  9
$UCSORTHOREF
  2

  9
$UCSORTHOVIEW
 70
     0
  9
$UCSORGTOP
 10
0.0
 20
0.0
 30
0.0
  9
$UCSORGBOTTOM
 10
0.0
 20
0.0
 30
0.0
  9
$UCSORGLEFT
 10
0.0
 20
0.0
 30
0.0
  9
$UCSORGRIGHT
 10
0.0
 20
0.0
 30
0.0
  9
$UCSORGFRONT
 10
0.0
 20
0.0
 30
0.0
  9
$UCSORGBACK
 10
0.0
 20
0.0
 30
0.0
  9
$PUCSBASE
  2

  9
$PUCSNAME
  2

  9
$PUCSORG
 10
0.0
 20
0.0
 30
0.0
  9
$PUCSXDIR
 10
1.0
 20
0.0
 30
0.0
  9
$PUCSYDIR
 10
0.0
 20
1.0
 30
0.0
  9
$PUCSORTHOREF
  2

  9
$PUCSORTHOVIEW
 70
     0
  9
$PUCSORGTOP
 10
0.0
 20
0.0
 30
0.0
  9
$PUCSORGBOTTOM
 10
0.0
 20
0.0
 30
0.0
  9
$PUCSORGLEFT
 10
0.0
 20
0.0
 30
0.0
  9
$PUCSORGRIGHT
 10
0.0
 20
0.0
 30
0.0
  9
$PUCSORGFRONT
 10
0.0
 20
0.0
 30
0.0
  9
$PUCSORGBACK
 10
0.0
 20
0.0
 30
0.0
  9
$USERI1
 70
     0
  9
$USERI2
 70
     0
  9
$USERI3
 70
     0
  9
$USERI4
 70
     0
  9
$USERI5
 70
     0
  9
$USERR1
 40
0.0
  9
$USERR2
 40
0.0
  9
$USERR3
 40
0.0
  9
$USERR4
 40
0.0
  9
$USERR5
 40
0.0
  9
$WORLDVIEW
 70
     1
  9
$SHADEDGE
 70
     3
  9
$SHADEDIF
 70
    70
  9
$TILEMODE
 70
     1
  9
$MAXACTVP
 70
    64
  9
$PINSBASE
 10
0.0
 20
0.0
 30
0.0
  9
$PLIMCHECK
 70
     0
  9
$PEXTMIN
 10
0.0
 20
0.0
 30
0.0
  9
$PEXTMAX
 10
0.0
 20
0.0
 30
0.0
  9
$PLIMMIN
 10
0.0
 20
0.0
  9
$PLIMMAX
 10
12.0
 20
9.0
  9
$UNITMODE
 70
     0
  9
$VISRETAIN
 70
     1
  9
$PLINEGEN
 70
     0
  9
$PSLTSCALE
 70
     1
  9
$TREEDEPTH
 70
  3020
  9
$CMLSTYLE
  2
Standard
  9
$CMLJUST
 70
     0
  9
$CMLSCALE
 40
20.0
  9
$PROXYGRAPHICS
 70
     1
  9
$MEASUREMENT
 70
     1
  9
$CELWEIGHT
370
    -1
  9
$ENDCAPS
280
     0
  9
$JOINSTYLE
280
     0
  9
$LWDISPLAY
290
     0
  9
$INSUNITS
 70
     4
  9
$HYPERLINKBASE
  1

  9
$STYLESHEET
  1

  9
$XEDIT
290
     1
  9
$CEPSNTYPE
380
     0
  9
$PSTYLEMODE
290
     1
  9
$FINGERPRINTGUID
  2
{FDEAD578-A652-11D2-9A35-0060089B3A3F}
  9
$VERSIONGUID
  2
{362B46B4-2B0E-4096-8457-CED088EC7EE8}
  9
$EXTNAMES
290
     1
  9
$PSVPSCALE
 40
0.0
  9
$OLESTARTUP
290
     0
  0
ENDSEC
  0
SECTION
  2
CLASSES
  0
CLASS
  1
ACDBDICTIONARYWDFLT
  2
AcDbDictionaryWithDefault
  3
ObjectDBX Classes
 90
        0
280
     0
281
     0
  0
CLASS
  1
ACDBPLACEHOLDER
  2
AcDbPlaceHolder
  3
ObjectDBX Classes
 90
        0
280
     0
281
     0
  0
CLASS
  1
LAYOUT
  2
AcDbLayout
  3
ObjectDBX Classes
 90
        0
280
     0
281
     0
  0
CLASS
  1
DICTIONARYVAR
  2
AcDbDictionaryVar
  3
ObjectDBX Classes
 90
        0
280
     0
281
     0
  0
ENDSEC
  0
SECTION
  2
TABLES
  0
TABLE
  2
VPORT
  5
1B
330
0
100
AcDbSymbolTable
 70
     2
  0
VPORT
  5
3F4
330
1B
100
AcDbSymbolTableRecord
100
AcDbViewportTableRecord
  2
*Active
 70
     0
 10
0.0
 20
0.0
 11
1.0
 21
1.0
 12
2.005921145908015
 22
-4.133056126806252
 13
0.0
 23
0.0
 14
10.0
 24
10.0
 15
10.0
 25
10.0
 16
0.0
 26
0.0
 36
1.0
 17
0.0
 27
0.0
 37
0.0
 40
113.9216175645375
 41
1.451655629139072
 42
50.0
 43
0.0
 44
0.0
 50
0.0
 51
0.0
 71
     0
 72
  1000
 73
     1
 74
     2
 75
     0
 76
     0
 77
     0
 78
     0
281
     0
 65
     1
110
0.0
120
0.0
130
0.0
111
1.0
121
0.0
131
0.0
112
0.0
122
1.0
132
0.0
 79
     0
146
0.0
  0
ENDTAB
  0
TABLE
  2
LTYPE
  5
16
330
0
100
AcDbSymbolTable
 70
     1
  0
LTYPE
  5
17
330
16
100
AcDbSymbolTableRecord
100
AcDbLinetypeTableRecord
  2
ByBlock
 70
     0
  3

 72
    65
 73
     0
 40
0.0
  0
LTYPE
  5
18
330
16
100
AcDbSymbolTableRecord
100
AcDbLinetypeTableRecord
  2
ByLayer
 70
     0
  3

 72
    65
 73
     0
 40
0.0
  0
LTYPE
  5
8
330
16
100
AcDbSymbolTableRecord
100
AcDbLinetypeTableRecord
  2
Continuous
 70
     0
  3
Solid line
 72
    65
 73
     0
 40
0.0
  0
ENDTAB
  0
TABLE
  2
LAYER
  5
10
102
{ACAD_XDICTIONARY
360
11
102
}
330
0
100
AcDbSymbolTable
 70
     7
  0
LAYER
  5
4
330
10
100
AcDbSymbolTableRecord
100
AcDbLayerTableRecord
  2
0
 70
     0
 62
     7
  6
Continuous
370
    -3
390
5
  0
LAYER
  5
72
330
10
100
AcDbSymbolTableRecord
100
AcDbLayerTableRecord
  2
WAKU
 70
     0
 62
     4
  6
Continuous
370
    -3
390
5
  0
LAYER
  5
6A
330
10
100
AcDbSymbolTableRecord
100
AcDbLayerTableRecord
  2
MOJI1
 70
     0
 62
     2
  6
Continuous
370
    -3
390
5
  0
LAYER
  5
3C2
330
10
100
AcDbSymbolTableRecord
100
AcDbLayerTableRecord
  2
TOUROKU
 70
     0
 62
     1
  6
Continuous
370
    -3
390
5
  0
LAYER
  5
3A
330
10
100
AcDbSymbolTableRecord
100
AcDbLayerTableRecord
  2
Defpoints
 70
     0
 62
     7
  6
Continuous
290
     0
370
    -3
390
5
  0
LAYER
  5
2D
330
10
100
AcDbSymbolTableRecord
100
AcDbLayerTableRecord
  2
GAIKEI
 70
     0
 62
     7
  6
Continuous
370
    -3
390
5
  0
LAYER
  5
30
330
10
100
AcDbSymbolTableRecord
100
AcDbLayerTableRecord
  2
SUNPO
 70
     0
 62
     3
  6
Continuous
370
    -3
390
5
  0
ENDTAB
  0
TABLE
  2
STYLE
  5
13
330
0
100
AcDbSymbolTable
 70
     2
  0
STYLE
  5
14
330
13
100
AcDbSymbolTableRecord
100
AcDbTextStyleTableRecord
  2
Standard
 70
     0
 40
0.0
 41
1.0
 50
0.0
 71
     0
 42
2.5
  3
MONOTXT.shx
  4
BIGFONT.shx
  0
STYLE
  5
3C4
330
13
100
AcDbSymbolTableRecord
100
AcDbTextStyleTableRecord
  2
KANJI
 70
     0
 40
0.0
 41
1.0
 50
0.0
 71
     0
 42
3.5
  3
MONOTXT
  4
BIGFONT
  0
ENDTAB
  0
TABLE
  2
VIEW
  5
19
330
0
100
AcDbSymbolTable
 70
     0
  0
ENDTAB
  0
TABLE
  2
UCS
  5
1A
330
0
100
AcDbSymbolTable
 70
     0
  0
ENDTAB
  0
TABLE
  2
APPID
  5
1D
330
0
100
AcDbSymbolTable
 70
     1
  0
APPID
  5
1E
330
1D
100
AcDbSymbolTableRecord
100
AcDbRegAppTableRecord
  2
ACAD
 70
     0
  0
ENDTAB
  0
TABLE
  2
DIMSTYLE
  5
1F
330
0
100
AcDbSymbolTable
 70
     1
100
AcDbDimStyleTable
 71
     1
340
20
  0
DIMSTYLE
105
20
102
{ACAD_REACTORS
330
4B
330
3E
330
2F
102
}
330
1F
100
AcDbSymbolTableRecord
100
AcDbDimStyleTableRecord
  2
STANDARD
 70
     0
 40
0.0
 41
2.0
 42
2.0
 43
8.0
 44
2.0
 73
     0
 74
     0
 77
     3
140
3.0
141
0.0
173
     1
279
     2
288
     1
340
14
341
21
343
21
344
21
  0
ENDTAB
  0
TABLE
  2
BLOCK_RECORD
  5
1
330
0
100
AcDbSymbolTable
 70
     7
  0
BLOCK_RECORD
  5
2
330
1
100
AcDbSymbolTableRecord
100
AcDbBlockTableRecord
  2
*Model_Space
340
A
  0
BLOCK_RECORD
  5
C
330
1
100
AcDbSymbolTableRecord
100
AcDbBlockTableRecord
  2
*Paper_Space
340
F
  0
BLOCK_RECORD
  5
21
330
1
100
AcDbSymbolTableRecord
100
AcDbBlockTableRecord
  2
_OPEN30
340
0
102
{BLKREFS
331
36
331
37
331
44
331
45
331
51
331
52
331
3D0
331
3D1
331
3DC
331
3DD
331
3E8
331
3E9
102
}
  0
BLOCK_RECORD
  5
4C
330
1
100
AcDbSymbolTableRecord
100
AcDbBlockTableRecord
  2
*D1
340
0
  0
BLOCK_RECORD
  5
3F
330
1
100
AcDbSymbolTableRecord
100
AcDbBlockTableRecord
  2
*D2
340
0
  0
BLOCK_RECORD
  5
31
330
1
100
AcDbSymbolTableRecord
100
AcDbBlockTableRecord
  2
*D3
340
0
  0
BLOCK_RECORD
  5
3CC
330
1
100
AcDbSymbolTableRecord
100
AcDbBlockTableRecord
  2
*D4
340
0
  0
BLOCK_RECORD
  5
3D8
330
1
100
AcDbSymbolTableRecord
100
AcDbBlockTableRecord
  2
*D5
340
0
  0
BLOCK_RECORD
  5
3E4
330
1
100
AcDbSymbolTableRecord
100
AcDbBlockTableRecord
  2
*D6
340
0
  0
ENDTAB
  0
ENDSEC
  0
SECTION
  2
BLOCKS
  0
BLOCK
  5
3
330
2
100
AcDbEntity
  8
0
100
AcDbBlockBegin
  2
*Model_Space
 70
     0
 10
0.0
 20
0.0
 30
0.0
  3
*Model_Space
  1

  0
ENDBLK
  5
9
330
2
100
AcDbEntity
  8
0
100
AcDbBlockEnd
  0
BLOCK
  5
D
330
C
100
AcDbEntity
 67
     1
  8
0
100
AcDbBlockBegin
  2
*Paper_Space
 70
     0
 10
0.0
 20
0.0
 30
0.0
  3
*Paper_Space
  1

  0
ENDBLK
  5
E
330
C
100
AcDbEntity
 67
     1
  8
0
100
AcDbBlockEnd
  0
BLOCK
  5
22
330
21
100
AcDbEntity
  8
0
100
AcDbBlockBegin
  2
_OPEN30
 70
     0
 10
0.0
 20
0.0
 30
0.0
  3
_OPEN30
  1

  0
LINE
  5
23
330
21
100
AcDbEntity
  8
0
  6
ByBlock
 62
     0
100
AcDbLine
 10
-1.0
 20
0.26794919
 30
0.0
 11
0.0
 21
0.0
 31
0.0
  0
LINE
  5
24
330
21
100
AcDbEntity
  8
0
  6
ByBlock
 62
     0
100
AcDbLine
 10
0.0
 20
0.0
 30
0.0
 11
-1.0
 21
-0.26794919
 31
0.0
  0
LINE
  5
25
330
21
100
AcDbEntity
  8
0
  6
ByBlock
 62
     0
100
AcDbLine
 10
0.0
 20
0.0
 30
0.0
 11
-1.0
 21
0.0
 31
0.0
  0
ENDBLK
  5
26
330
21
100
AcDbEntity
  8
0
100
AcDbBlockEnd
  0
BLOCK
  5
4D
330
4C
100
AcDbEntity
  8
0
100
AcDbBlockBegin
  2
*D1
 70
     1
 10
0.0
 20
0.0
 30
0.0
  3
*D1
  1

  0
LINE
  5
4E
330
4C
100
AcDbEntity
  8
SUNPO
 62
     0
370
    -2
100
AcDbLine
 10
19.12358382616936
 20
337.9588745998883
 30
0.0
 11
19.12358382616936
 21
345.9588745998883
 31
0.0
  0
LINE
  5
4F
330
4C
100
AcDbEntity
  8
SUNPO
 62
     0
370
    -2
100
AcDbLine
 10
61.12358382616942
 20
337.9588745998883
 30
0.0
 11
61.12358382616942
 21
345.9588745998883
 31
0.0
  0
LINE
  5
50
330
4C
100
AcDbEntity
  8
SUNPO
 62
     0
370
    -2
100
AcDbLine
 10
21.12358382616937
 20
343.9588745998883
 30
0.0
 11
59.12358382616942
 21
343.9588745998883
 31
0.0
  0
INSERT
  5
51
330
4C
100
AcDbEntity
  8
SUNPO
 62
     0
370
    -2
100
AcDbBlockReference
  2
_OPEN30
 10
19.12358382616936
 20
343.9588745998883
 30
0.0
 41
2.0
 42
2.0
 43
2.0
 50
180.0
  0
INSERT
  5
52
330
4C
100
AcDbEntity
  8
SUNPO
 62
     0
370
    -2
100
AcDbBlockReference
  2
_OPEN30
 10
61.12358382616942
 20
343.9588745998883
 30
0.0
 41
2.0
 42
2.0
 43
2.0
  0
MTEXT
  5
53
330
4C
100
AcDbEntity
  8
SUNPO
 62
     0
100
AcDbMText
 10
40.12358382616939
 20
345.7088745998883
 30
0.0
 40
2.5
 41
0.0
 71
     5
 72
     1
  1
\A1;420
 73
     1
 44
1.0
1001
ACAD
1000
MTEXTBEGIN
1070
    73
1070
     1
1070
    44
1040
1.0
1070
    74
1070
     0
1000
MTEXTEND
  0
POINT
  5
54
330
4C
100
AcDbEntity
  8
Defpoints
 62
     0
100
AcDbPoint
 10
19.12358382616936
 20
335.9588745998883
 30
0.0
  0
POINT
  5
55
330
4C
100
AcDbEntity
  8
Defpoints
 62
     0
100
AcDbPoint
 10
61.12358382616942
 20
335.9588745998883
 30
0.0
  0
POINT
  5
56
330
4C
100
AcDbEntity
  8
Defpoints
 62
     0
100
AcDbPoint
 10
61.12358382616942
 20
343.9588745998883
 30
0.0
  0
ENDBLK
  5
57
330
4C
100
AcDbEntity
  8
0
100
AcDbBlockEnd
  0
BLOCK
  5
40
330
3F
100
AcDbEntity
  8
0
100
AcDbBlockBegin
  2
*D2
 70
     1
 10
0.0
 20
0.0
 30
0.0
  3
*D2
  1

  0
LINE
  5
41
330
3F
100
AcDbEntity
  8
SUNPO
 62
     0
370
    -2
100
AcDbLine
 10
63.12260458605061
 20
335.9890761481562
 30
0.0
 11
71.12260458605061
 21
335.9890761481562
 31
0.0
  0
LINE
  5
42
330
3F
100
AcDbEntity
  8
SUNPO
 62
     0
370
    -2
100
AcDbLine
 10
63.12260458605061
 20
327.1890761481562
 30
0.0
 11
71.12260458605061
 21
327.1890761481562
 31
0.0
  0
LINE
  5
43
330
3F
100
AcDbEntity
  8
SUNPO
 62
     0
370
    -2
100
AcDbLine
 10
69.12260458605061
 20
333.9890761481563
 30
0.0
 11
69.12260458605061
 21
329.1890761481562
 31
0.0
  0
INSERT
  5
44
330
3F
100
AcDbEntity
  8
SUNPO
 62
     0
370
    -2
100
AcDbBlockReference
  2
_OPEN30
 10
69.12260458605061
 20
335.9890761481562
 30
0.0
 41
2.0
 42
2.0
 43
2.0
 50
90.0
  0
INSERT
  5
45
330
3F
100
AcDbEntity
  8
SUNPO
 62
     0
370
    -2
100
AcDbBlockReference
  2
_OPEN30
 10
69.12260458605061
 20
327.1890761481562
 30
0.0
 41
2.0
 42
2.0
 43
2.0
 50
270.0
  0
MTEXT
  5
46
330
3F
100
AcDbEntity
  8
SUNPO
 62
     0
100
AcDbMText
 10
67.37260458605056
 20
331.5890761481562
 30
0.0
 40
2.5
 41
0.0
 71
     5
 72
     1
  1
\A1;88
 11
0.0000000000000001
 21
1.0
 31
0.0
 73
     1
 44
1.0
1001
ACAD
1000
MTEXTBEGIN
1070
    73
1070
     1
1070
    44
1040
1.0
1070
    74
1070
     0
1000
MTEXTEND
  0
POINT
  5
47
330
3F
100
AcDbEntity
  8
Defpoints
 62
     0
100
AcDbPoint
 10
61.12260458605061
 20
335.9890761481562
 30
0.0
  0
POINT
  5
48
330
3F
100
AcDbEntity
  8
Defpoints
 62
     0
100
AcDbPoint
 10
61.12260458605061
 20
327.1890761481562
 30
0.0
  0
POINT
  5
49
330
3F
100
AcDbEntity
  8
Defpoints
 62
     0
100
AcDbPoint
 10
69.12260458605061
 20
327.1890761481562
 30
0.0
  0
ENDBLK
  5
4A
330
3F
100
AcDbEntity
  8
0
100
AcDbBlockEnd
  0
BLOCK
  5
32
330
31
100
AcDbEntity
  8
0
100
AcDbBlockBegin
  2
*D3
 70
     1
 10
0.0
 20
0.0
 30
0.0
  3
*D3
  1

  0
LINE
  5
33
330
31
100
AcDbEntity
  8
SUNPO
 62
     0
370
    -2
100
AcDbLine
 10
83.45546207878328
 20
337.9588745998883
 30
0.0
 11
83.45546207878328
 21
345.9588745998882
 31
0.0
  0
LINE
  5
34
330
31
100
AcDbEntity
  8
SUNPO
 62
     0
370
    -2
100
AcDbLine
 10
113.4554620787832
 20
337.9588745998883
 30
0.0
 11
113.4554620787832
 21
345.9588745998882
 31
0.0
  0
LINE
  5
35
330
31
100
AcDbEntity
  8
SUNPO
 62
     0
370
    -2
100
AcDbLine
 10
85.45546207878329
 20
343.9588745998883
 30
0.0
 11
111.4554620787832
 21
343.9588745998883
 31
0.0
  0
INSERT
  5
36
330
31
100
AcDbEntity
  8
SUNPO
 62
     0
370
    -2
100
AcDbBlockReference
  2
_OPEN30
 10
83.45546207878328
 20
343.9588745998883
 30
0.0
 41
2.0
 42
2.0
 43
2.0
 50
180.0
  0
INSERT
  5
37
330
31
100
AcDbEntity
  8
SUNPO
 62
     0
370
    -2
100
AcDbBlockReference
  2
_OPEN30
 10
113.4554620787832
 20
343.9588745998883
 30
0.0
 41
2.0
 42
2.0
 43
2.0
  0
MTEXT
  5
38
330
31
100
AcDbEntity
  8
SUNPO
 62
     0
100
AcDbMText
 10
98.45546207878326
 20
345.7088745998882
 30
0.0
 40
2.5
 41
0.0
 71
     5
 72
     1
  1
\A1;300
 73
     1
 44
1.0
1001
ACAD
1000
MTEXTBEGIN
1070
    73
1070
     1
1070
    44
1040
1.0
1070
    74
1070
     0
1000
MTEXTEND
  0
POINT
  5
39
330
31
100
AcDbEntity
  8
Defpoints
 62
     0
100
AcDbPoint
 10
83.45546207878328
 20
335.9588745998883
 30
0.0
  0
POINT
  5
3B
330
31
100
AcDbEntity
  8
Defpoints
 62
     0
100
AcDbPoint
 10
113.4554620787832
 20
335.9588745998883
 30
0.0
  0
POINT
  5
3C
330
31
100
AcDbEntity
  8
Defpoints
 62
     0
100
AcDbPoint
 10
113.4554620787832
 20
343.9588745998883
 30
0.0
  0
ENDBLK
  5
3D
330
31
100
AcDbEntity
  8
0
100
AcDbBlockEnd
  0
BLOCK
  5
3D6
330
3CC
100
AcDbEntity
  8
0
100
AcDbBlockBegin
  2
*D4
 70
     1
 10
0.0
 20
0.0
 30
0.0
  3
*D4
  1

  0
LINE
  5
3CD
330
3CC
100
AcDbEntity
  8
SUNPO
 62
     0
370
    -2
100
AcDbLine
 10
-43.8679572459839
 20
19.82594258053461
 30
0.0
 11
-43.8679572459839
 21
27.82594258053462
 31
0.0
  0
LINE
  5
3CE
330
3CC
100
AcDbEntity
  8
SUNPO
 62
     0
370
    -2
100
AcDbLine
 10
-1.867957245983845
 20
19.82594258053461
 30
0.0
 11
-1.867957245983844
 21
27.82594258053462
 31
0.0
  0
LINE
  5
3CF
330
3CC
100
AcDbEntity
  8
SUNPO
 62
     0
370
    -2
100
AcDbLine
 10
-41.8679572459839
 20
25.82594258053461
 30
0.0
 11
-3.867957245983845
 21
25.82594258053461
 31
0.0
  0
INSERT
  5
3D0
330
3CC
100
AcDbEntity
  8
SUNPO
 62
     0
370
    -2
100
AcDbBlockReference
  2
_OPEN30
 10
-43.8679572459839
 20
25.82594258053461
 30
0.0
 41
2.0
 42
2.0
 43
2.0
 50
180.0
  0
INSERT
  5
3D1
330
3CC
100
AcDbEntity
  8
SUNPO
 62
     0
370
    -2
100
AcDbBlockReference
  2
_OPEN30
 10
-1.867957245983845
 20
25.82594258053461
 30
0.0
 41
2.0
 42
2.0
 43
2.0
  0
MTEXT
  5
3D2
330
3CC
100
AcDbEntity
  8
SUNPO
 62
     0
100
AcDbMText
 10
-22.86795724598388
 20
27.57594258053462
 30
0.0
 40
2.5
 41
0.0
 71
     5
 72
     1
  1
\A1;420
 73
     1
 44
1.0
1001
ACAD
1000
MTEXTBEGIN
1070
    73
1070
     1
1070
    44
1040
1.0
1070
    74
1070
     0
1000
MTEXTEND
  0
POINT
  5
3D3
330
3CC
100
AcDbEntity
  8
Defpoints
 62
     0
100
AcDbPoint
 10
-43.8679572459839
 20
17.82594258053461
 30
0.0
  0
POINT
  5
3D4
330
3CC
100
AcDbEntity
  8
Defpoints
 62
     0
100
AcDbPoint
 10
-1.867957245983845
 20
17.82594258053461
 30
0.0
  0
POINT
  5
3D5
330
3CC
100
AcDbEntity
  8
Defpoints
 62
     0
100
AcDbPoint
 10
-1.867957245983845
 20
25.82594258053461
 30
0.0
  0
ENDBLK
  5
3D7
330
3CC
100
AcDbEntity
  8
0
100
AcDbBlockEnd
  0
BLOCK
  5
3E2
330
3D8
100
AcDbEntity
  8
0
100
AcDbBlockBegin
  2
*D5
 70
     1
 10
0.0
 20
0.0
 30
0.0
  3
*D5
  1

  0
LINE
  5
3D9
330
3D8
100
AcDbEntity
  8
SUNPO
 62
     0
370
    -2
100
AcDbLine
 10
0.1310635138973452
 20
17.85614412880255
 30
0.0
 11
8.131063513897347
 21
17.85614412880255
 31
0.0
  0
LINE
  5
3DA
330
3D8
100
AcDbEntity
  8
SUNPO
 62
     0
370
    -2
100
AcDbLine
 10
0.1310635138973453
 20
9.056144128802486
 30
0.0
 11
8.131063513897345
 21
9.056144128802484
 31
0.0
  0
LINE
  5
3DB
330
3D8
100
AcDbEntity
  8
SUNPO
 62
     0
370
    -2
100
AcDbLine
 10
6.131063513897347
 20
15.85614412880255
 30
0.0
 11
6.131063513897346
 21
11.05614412880248
 31
0.0
  0
INSERT
  5
3DC
330
3D8
100
AcDbEntity
  8
SUNPO
 62
     0
370
    -2
100
AcDbBlockReference
  2
_OPEN30
 10
6.131063513897347
 20
17.85614412880255
 30
0.0
 41
2.0
 42
2.0
 43
2.0
 50
90.0
  0
INSERT
  5
3DD
330
3D8
100
AcDbEntity
  8
SUNPO
 62
     0
370
    -2
100
AcDbBlockReference
  2
_OPEN30
 10
6.131063513897345
 20
9.056144128802484
 30
0.0
 41
2.0
 42
2.0
 43
2.0
 50
270.0
  0
MTEXT
  5
3DE
330
3D8
100
AcDbEntity
  8
SUNPO
 62
     0
100
AcDbMText
 10
4.381063513897344
 20
13.45614412880252
 30
0.0
 40
2.5
 41
0.0
 71
     5
 72
     1
  1
\A1;88
 11
0.0000000000000001
 21
1.0
 31
0.0
 73
     1
 44
1.0
1001
ACAD
1000
MTEXTBEGIN
1070
    73
1070
     1
1070
    44
1040
1.0
1070
    74
1070
     0
1000
MTEXTEND
  0
POINT
  5
3DF
330
3D8
100
AcDbEntity
  8
Defpoints
 62
     0
100
AcDbPoint
 10
-1.868936486102654
 20
17.85614412880255
 30
0.0
  0
POINT
  5
3E0
330
3D8
100
AcDbEntity
  8
Defpoints
 62
     0
100
AcDbPoint
 10
-1.868936486102654
 20
9.056144128802486
 30
0.0
  0
POINT
  5
3E1
330
3D8
100
AcDbEntity
  8
Defpoints
 62
     0
100
AcDbPoint
 10
6.131063513897345
 20
9.056144128802484
 30
0.0
  0
ENDBLK
  5
3E3
330
3D8
100
AcDbEntity
  8
0
100
AcDbBlockEnd
  0
BLOCK
  5
3EE
330
3E4
100
AcDbEntity
  8
0
100
AcDbBlockBegin
  2
*D6
 70
     1
 10
0.0
 20
0.0
 30
0.0
  3
*D6
  1

  0
LINE
  5
3E5
330
3E4
100
AcDbEntity
  8
SUNPO
 62
     0
370
    -2
100
AcDbLine
 10
20.46392100663002
 20
19.82594258053456
 30
0.0
 11
20.46392100663002
 21
27.82594258053456
 31
0.0
  0
LINE
  5
3E6
330
3E4
100
AcDbEntity
  8
SUNPO
 62
     0
370
    -2
100
AcDbLine
 10
50.46392100662996
 20
19.82594258053456
 30
0.0
 11
50.46392100662996
 21
27.82594258053456
 31
0.0
  0
LINE
  5
3E7
330
3E4
100
AcDbEntity
  8
SUNPO
 62
     0
370
    -2
100
AcDbLine
 10
22.46392100663002
 20
25.82594258053456
 30
0.0
 11
48.46392100662995
 21
25.82594258053456
 31
0.0
  0
INSERT
  5
3E8
330
3E4
100
AcDbEntity
  8
SUNPO
 62
     0
370
    -2
100
AcDbBlockReference
  2
_OPEN30
 10
20.46392100663002
 20
25.82594258053456
 30
0.0
 41
2.0
 42
2.0
 43
2.0
 50
180.0
  0
INSERT
  5
3E9
330
3E4
100
AcDbEntity
  8
SUNPO
 62
     0
370
    -2
100
AcDbBlockReference
  2
_OPEN30
 10
50.46392100662996
 20
25.82594258053456
 30
0.0
 41
2.0
 42
2.0
 43
2.0
  0
MTEXT
  5
3EA
330
3E4
100
AcDbEntity
  8
SUNPO
 62
     0
100
AcDbMText
 10
35.46392100662999
 20
27.57594258053456
 30
0.0
 40
2.5
 41
0.0
 71
     5
 72
     1
  1
\A1;300
 73
     1
 44
1.0
1001
ACAD
1000
MTEXTBEGIN
1070
    73
1070
     1
1070
    44
1040
1.0
1070
    74
1070
     0
1000
MTEXTEND
  0
POINT
  5
3EB
330
3E4
100
AcDbEntity
  8
Defpoints
 62
     0
100
AcDbPoint
 10
20.46392100663002
 20
17.82594258053456
 30
0.0
  0
POINT
  5
3EC
330
3E4
100
AcDbEntity
  8
Defpoints
 62
     0
100
AcDbPoint
 10
50.46392100662996
 20
17.82594258053456
 30
0.0
  0
POINT
  5
3ED
330
3E4
100
AcDbEntity
  8
Defpoints
 62
     0
100
AcDbPoint
 10
50.46392100662996
 20
25.82594258053456
 30
0.0
  0
ENDBLK
  5
3EF
330
3E4
100
AcDbEntity
  8
0
100
AcDbBlockEnd
  0
ENDSEC
  0
SECTION
  2
ENTITIES
  0
DIMENSION
  5
2F
330
2
100
AcDbEntity
  8
SUNPO
 62
     3
100
AcDbDimension
  2
*D6
 10
50.46392100662996
 20
25.82594258053456
 30
0.0
 11
35.46392100662999
 21
27.57594258053456
 31
0.0
 70
    33
  1
300
 71
     5
 42
29.99999999999995
  3
STANDARD
100
AcDbAlignedDimension
 13
20.46392100663002
 23
17.82594258053456
 33
0.0
 14
50.46392100662996
 24
17.82594258053456
 34
0.0
1001
ACAD
1000
DSTYLE
1002
{
1070
    40
1040
1.0
1070
   140
1040
2.5
1070
   147
1040
0.5
1070
   172
1070
     1
1070
   279
1070
     0
1070
   288
1070
     0
1002
}
  0
DIMENSION
  5
3E
330
2
100
AcDbEntity
  8
SUNPO
100
AcDbDimension
  2
*D5
 10
6.131063513897345
 20
9.056144128802484
 30
0.0
 11
4.381063513897344
 21
13.45614412880252
 31
0.0
 70
    33
  1
88
 71
     5
 42
8.800000000000068
  3
STANDARD
100
AcDbAlignedDimension
 13
-1.868936486102654
 23
17.85614412880255
 33
0.0
 14
-1.868936486102654
 24
9.056144128802486
 34
0.0
1001
ACAD
1000
DSTYLE
1002
{
1070
    40
1040
1.0
1070
   140
1040
2.5
1070
   147
1040
0.5
1070
   172
1070
     1
1070
   279
1070
     0
1070
   288
1070
     0
1002
}
  0
DIMENSION
  5
4B
330
2
100
AcDbEntity
  8
SUNPO
 62
     3
100
AcDbDimension
  2
*D4
 10
-1.867957245983845
 20
25.82594258053461
 30
0.0
 11
-22.86795724598388
 21
27.57594258053462
 31
0.0
 70
    33
  1
420
 71
     5
 42
42.00000000000005
  3
STANDARD
100
AcDbAlignedDimension
 13
-43.8679572459839
 23
17.82594258053461
 33
0.0
 14
-1.867957245983845
 24
17.82594258053461
 34
0.0
1001
ACAD
1000
DSTYLE
1002
{
1070
    40
1040
1.0
1070
   140
1040
2.5
1070
   147
1040
0.5
1070
   172
1070
     1
1070
   279
1070
     0
1070
   288
1070
     0
1002
}
  0
LINE
  5
58
330
2
100
AcDbEntity
  8
GAIKEI
  6
Continuous
 62
     1
100
AcDbLine
 10
-39.13341910378404
 20
9.845818600402594
 30
0.0
 11
-39.13341910378404
 21
11.20212484026251
 31
0.0
  0
LINE
  5
59
330
2
100
AcDbEntity
  8
GAIKEI
  6
Continuous
 62
     1
100
AcDbLine
 10
-41.6024953880439
 20
11.20212484026251
 30
0.0
 11
-41.6024953880439
 21
9.845818600402594
 31
0.0
  0
ARC
  5
5A
330
2
100
AcDbEntity
  8
GAIKEI
 62
     1
100
AcDbCircle
 10
21.10308105708952
 20
11.86018643098208
 30
0.0
 40
1.000453675170747
100
AcDbArc
 50
226.3299826965488
 51
247.4618688776137
  0
LINE
  5
5B
330
2
100
AcDbEntity
  8
GAIKEI
  6
Continuous
 62
     1
100
AcDbLine
 10
-2.847046802563852
 20
15.99605178466254
 30
0.0
 11
-2.842540772037864
 21
13.23704602312261
 31
0.0
  0
LINE
  5
5C
330
2
100
AcDbEntity
  8
GAIKEI
  6
Continuous
 62
   251
100
AcDbLine
 10
-4.087465251380763
 20
16.66409157270169
 30
0.0
 11
-4.087075886360821
 21
16.66448093772163
 31
0.0
  0
LINE
  5
5D
330
2
100
AcDbEntity
  8
GAIKEI
  6
Continuous
 62
   251
100
AcDbLine
 10
-4.481126666249167
 20
16.75126276904012
 30
0.0
 11
-4.471502170701086
 21
16.76088726458823
 31
0.0
  0
SPLINE
  5
5E
330
2
100
AcDbEntity
  8
GAIKEI
  6
Continuous
 62
     7
100
AcDbSpline
210
0.0
220
0.0
230
1.0
 70
     8
 71
     3
 72
    11
 73
     7
 74
     5
 42
0.0000000001
 43
0.0000000001
 44
0.00000001
 40
0.0
 40
0.0
 40
0.0
 40
0.0
 40
0.0196440508789127
 40
0.0389149682855792
 40
0.0539677134570678
 40
0.0689667954924709
 40
0.0689667954924709
 40
0.0689667954924709
 40
0.0689667954924709
 10
-1.917883199023719
 20
9.056144128802543
 30
0.0
 10
-1.911277064173148
 20
9.056888262402196
 30
0.0
 10
-1.898190279486428
 20
9.058362409154256
 30
0.0
 10
-1.883067879420067
 20
9.069231429889441
 30
0.0
 10
-1.872770551194165
 20
9.082421176435559
 30
0.0
 10
-1.870119670081002
 20
9.09218226321326
 30
0.0
 10
-1.868796603123712
 20
9.097054093922565
 30
0.0
 11
-1.917883199023719
 21
9.056144128802543
 31
0.0
 11
-1.898620893314443
 21
9.059998005747047
 31
0.0
 11
-1.882658816139098
 21
9.070795250342939
 31
0.0
 11
-1.873668369986546
 21
9.082868241395658
 31
0.0
 11
-1.868796603123712
 21
9.097054093922565
 31
0.0
  0
SPLINE
  5
5F
330
2
100
AcDbEntity
  8
GAIKEI
  6
Continuous
 62
     7
100
AcDbSpline
210
0.0
220
0.0
230
1.0
 70
    24
 71
     3
 72
     9
 73
     5
 74
     3
 42
0.0000000001
 43
0.0000000001
 44
0.00000001
 40
0.0
 40
0.0
 40
0.0
 40
0.0
 40
0.0045274871126831
 40
0.0090549742252609
 40
0.0090549742252609
 40
0.0090549742252609
 40
0.0090549742252609
 10
-1.868796603123712
 20
9.097054093922565
 30
0.0
 10
-1.868656710267103
 20
9.098556758572499
 30
0.0
 10
-1.868376924553857
 20
9.101562087872594
 30
0.0
 10
-1.868097138840525
 20
9.104567417172575
 30
0.0
 10
-1.867957245983859
 20
9.106070081822508
 30
0.0
 11
-1.868796603123712
 21
9.097054093922565
 31
0.0
 11
-1.868376924553842
 21
9.101562087872594
 31
0.0
 11
-1.867957245983859
 21
9.106070081822508
 31
0.0
  0
SPLINE
  5
60
330
2
100
AcDbEntity
  8
GAIKEI
  6
Continuous
 62
     7
100
AcDbSpline
210
0.0
220
0.0
230
1.0
 70
     8
 71
     3
 72
     9
 73
     5
 74
     3
 42
0.0000000001
 43
0.0000000001
 44
0.00000001
 40
0.0
 40
0.0
 40
0.0
 40
0.0
 40
0.0258597097346221
 40
0.0517313154234812
 40
0.0517313154234812
 40
0.0517313154234812
 40
0.0517313154234812
 10
-1.867957245983859
 20
17.80621091442253
 30
0.0
 10
-1.869222714068726
 20
17.81509520072876
 30
0.0
 10
-1.871754249785503
 20
17.83286785311361
 30
0.0
 10
-1.885887620301289
 20
17.84393751639959
 30
0.0
 10
-1.892955938043712
 20
17.84947361506261
 30
0.0
 11
-1.867957245983859
 21
17.80621091442253
 31
0.0
 11
-1.87465278387782
 21
17.83118879451331
 31
0.0
 11
-1.892955938043712
 21
17.84947361506261
 31
0.0
  0
SPLINE
  5
61
330
2
100
AcDbEntity
  8
GAIKEI
  6
Continuous
 62
     7
100
AcDbSpline
210
0.0
220
0.0
230
1.0
 70
    24
 71
     3
 72
     9
 73
     5
 74
     3
 42
0.0000000001
 43
0.0000000001
 44
0.00000001
 40
0.0
 40
0.0
 40
0.0
 40
0.0
 40
0.0041794457296438
 40
0.0083588914592911
 40
0.0083588914592911
 40
0.0083588914592911
 40
0.0083588914592911
 10
-1.892955938043712
 20
17.84947361506261
 30
0.0
 10
-1.894218462510373
 20
17.85006259292925
 30
0.0
 10
-1.896743511443652
 20
17.85124054866264
 30
0.0
 10
-1.899268560377024
 20
17.85241850439598
 30
0.0
 10
-1.900531084843692
 20
17.85300748226257
 30
0.0
 11
-1.892955938043712
 21
17.84947361506261
 31
0.0
 11
-1.896743511443673
 21
17.85124054866258
 31
0.0
 11
-1.900531084843692
 21
17.85300748226257
 31
0.0
  0
SPLINE
  5
62
330
2
100
AcDbEntity
  8
GAIKEI
  6
Continuous
 62
     7
100
AcDbSpline
210
0.0
220
0.0
230
1.0
 70
    24
 71
     3
 72
     9
 73
     5
 74
     3
 42
0.0000000001
 43
0.0000000001
 44
0.00000001
 40
0.0
 40
0.0
 40
0.0
 40
0.0
 40
0.0088202390835518
 40
0.0176404781672155
 40
0.0176404781672155
 40
0.0176404781672155
 40
0.0176404781672155
 10
-1.900531084843692
 20
17.85300748226257
 30
0.0
 10
-1.903424314097037
 20
17.85353025668598
 30
0.0
 10
-1.909210772603763
 20
17.85457580553259
 30
0.0
 10
-1.914997231110497
 20
17.85562135437925
 30
0.0
 10
-1.917890460363878
 20
17.85614412880261
 30
0.0
 11
-1.900531084843692
 21
17.85300748226257
 31
0.0
 11
-1.909210772603728
 21
17.85457580553259
 31
0.0
 11
-1.917890460363878
 21
17.85614412880261
 31
0.0
  0
SPLINE
  5
63
330
2
100
AcDbEntity
  8
GAIKEI
  6
Continuous
 62
     1
100
AcDbSpline
210
0.0
220
0.0
230
1.0
 70
     8
 71
     3
 72
    21
 73
    17
 74
    15
 42
0.0000000001
 43
0.0000000001
 44
0.00000001
 40
0.0
 40
0.0
 40
0.0
 40
0.0
 40
0.5949914731516339
 40
1.189982893289416
 40
1.587224733100116
 40
1.984466567058542
 40
2.381813503299778
 40
2.779160440532375
 40
3.176243593550697
 40
3.573326746709405
 40
3.969764396359911
 40
4.366202045229103
 40
4.76162454138767
 40
5.15704704388417
 40
5.74772030653817
 40
6.338393623559555
 40
6.338393623559555
 40
6.338393623559555
 40
6.338393623559555
 10
-1.953858965763686
 20
11.25614412880259
 30
0.0
 10
-1.954400445282601
 20
11.45447389106795
 30
0.0
 10
-1.955483389559958
 20
11.85113339796487
 30
0.0
 10
-1.956387729539031
 20
12.38020762733407
 30
0.0
 10
-1.956896652718469
 20
12.84336572392362
 30
0.0
 10
-1.957116504890059
 20
13.24064255487047
 30
0.0
 10
-1.957125727061097
 20
13.63795447513394
 30
0.0
 10
-1.956922847069101
 20
14.03521345128342
 30
0.0
 10
-1.956508126843829
 20
14.43238433467775
 30
0.0
 10
-1.955881858220678
 20
14.82925184465807
 30
0.0
 10
-1.955043832134521
 20
15.22590379581641
 30
0.0
 10
-1.953994508944944
 20
15.62200168886943
 30
0.0
 10
-1.952734813264314
 20
16.01776058861946
 30
0.0
 10
-1.951015655974799
 20
16.47826347840163
 30
0.0
 10
-1.948728827093766
 20
17.0038482906462
 30
0.0
 10
-1.946607344503469
 20
17.39762479042866
 30
0.0
 10
-1.945546595803705
 20
17.59451304934259
 30
0.0
 11
-1.953858965763686
 21
11.25614412880259
 31
0.0
 11
-1.955382165220783
 21
11.85113365223174
 31
0.0
 11
-1.956427806739725
 21
12.44612415356789
 31
0.0
 11
-1.956860552614102
 21
12.8433657576719
 31
0.0
 11
-1.957081398105628
 21
13.24060753024616
 31
0.0
 11
-1.957090379081023
 21
13.63795446639108
 31
0.0
 11
-1.956887470607512
 21
14.03530135182058
 31
0.0
 11
-1.956472806885244
 21
14.43238428833291
 31
0.0
 11
-1.955846112041001
 21
14.82946694695749
 31
0.0
 11
-1.955008400779433
 21
15.22590371152989
 31
0.0
 11
-1.953958305600565
 21
15.62233996964147
 31
0.0
 11
-1.952698561739339
 21
16.01776045914357
 31
0.0
 11
-1.951225982638334
 21
16.41318021964599
 31
0.0
 11
-1.948626800890224
 21
17.0038477635984
 31
0.0
 11
-1.945546595803705
 21
17.59451304934259
 31
0.0
  0
LINE
  5
64
330
2
100
AcDbEntity
  8
GAIKEI
  6
Continuous
 62
     7
100
AcDbLine
 10
-1.867957245983859
 20
17.80621091442253
 30
0.0
 11
-1.867957245983859
 21
9.106070081822508
 31
0.0
  0
LINE
  5
65
330
2
100
AcDbEntity
  8
GAIKEI
  6
Continuous
 62
     1
100
AcDbLine
 10
-28.9154572161039
 20
9.097919712222562
 30
0.0
 11
-28.9154572161039
 21
11.20009484596255
 31
0.0
  0
CIRCLE
  5
66
330
2
100
AcDbEntity
  8
GAIKEI
 62
     1
100
AcDbCircle
 10
-35.88795724598401
 20
12.12614412880259
 30
0.0
 40
0.3698958003777232
  0
ELLIPSE
  5
67
330
2
100
AcDbEntity
  8
GAIKEI
 62
     1
100
AcDbEllipse
 10
-35.87980495985283
 20
13.9956422768426
 30
0.0
 11
0.3149938999998994
 21
0.0
 31
0.0
210
0.0
220
0.0
230
1.0
 40
0.3650569226601744
 41
0.0
 42
6.283185307179586
  0
ELLIPSE
  5
68
330
2
100
AcDbEntity
  8
GAIKEI
 62
     1
100
AcDbEllipse
 10
-35.87980495985283
 20
14.9543272384505
 30
0.0
 11
0.3149938999998994
 21
0.0
 31
0.0
210
0.0
220
0.0
230
1.0
 40
0.3650569226601744
 41
0.0
 42
6.283185307179586
  0
TEXT
  5
69
330
2
100
AcDbEntity
  8
MOJI1
100
AcDbText
 10
-57.9915411281122
 20
-59.63209689441907
 30
0.0
 40
3.0
  1
機　能
100
AcDbText
  0
TEXT
  5
6B
330
2
100
AcDbEntity
  8
MOJI1
100
AcDbText
 10
-57.9915411281122
 20
-54.63209689441907
 30
0.0
 40
3.0
  1
コピー出力
100
AcDbText
  0
TEXT
  5
6C
330
2
100
AcDbEntity
  8
MOJI1
100
AcDbText
 10
-57.9915411281122
 20
-49.63209689441907
 30
0.0
 40
3.0
  1
スポット出力
100
AcDbText
  0
TEXT
  5
6D
330
2
100
AcDbEntity
  8
MOJI1
100
AcDbText
 10
-17.9915411281122
 20
-54.63209689441907
 30
0.0
 40
3.0
  1
ＳＤＨＣ／ＳＤメモリーカード
 41
0.85
100
AcDbText
  0
TEXT
  5
6E
330
2
100
AcDbEntity
  8
MOJI1
100
AcDbText
 10
-17.9915411281122
 20
-59.63209689441907
 30
0.0
 40
3.0
  1
高精細画像監視、かんたん操作・簡単設定
100
AcDbText
  0
TEXT
  5
6F
330
2
100
AcDbEntity
  8
MOJI1
100
AcDbText
 10
-17.9915411281122
 20
-34.63209689441908
 30
0.0
 40
3.0
  1
３．５インチ　ＨＤＤ×１（５００ＧＢ）
 41
0.9
100
AcDbText
  0
TEXT
  5
70
330
2
100
AcDbEntity
  8
MOJI1
100
AcDbText
 10
-17.9915411281122
 20
-29.63209689441908
 30
0.0
 40
3.0
  1
入力数を９、１２、１６に増設可能
 41
0.9
100
AcDbText
  0
LINE
  5
71
330
2
100
AcDbEntity
  8
WAKU
 62
     1
100
AcDbLine
 10
-60.4915411281122
 20
-55.63209689441908
 30
0.0
 11
64.50845887188768
 21
-55.63209689441908
 31
0.0
  0
LINE
  5
73
330
2
100
AcDbEntity
  8
WAKU
 62
     1
100
AcDbLine
 10
-60.4915411281122
 20
-50.63209689441908
 30
0.0
 11
64.50845887188768
 21
-50.63209689441908
 31
0.0
  0
LINE
  5
74
330
2
100
AcDbEntity
  8
WAKU
 62
     1
100
AcDbLine
 10
-60.4915411281122
 20
-45.63209689441907
 30
0.0
 11
64.50845887188768
 21
-45.63209689441907
 31
0.0
  0
LINE
  5
75
330
2
100
AcDbEntity
  8
WAKU
 62
     4
100
AcDbLine
 10
64.50845887188768
 20
-60.63209689441908
 30
0.0
 11
-60.4915411281122
 21
-60.63209689441908
 31
0.0
  0
LINE
  5
76
330
2
100
AcDbEntity
  8
WAKU
 62
     4
100
AcDbLine
 10
-60.4915411281122
 20
-10.63209689441908
 30
0.0
 11
-60.4915411281122
 21
-60.63209689441908
 31
0.0
  0
LINE
  5
77
330
2
100
AcDbEntity
  8
WAKU
 62
     4
100
AcDbLine
 10
-20.4915411281122
 20
-10.63209689441908
 30
0.0
 11
-20.4915411281122
 21
-60.63209689441908
 31
0.0
  0
LINE
  5
78
330
2
100
AcDbEntity
  8
WAKU
 62
     4
100
AcDbLine
 10
64.50845887188768
 20
-10.63209689441908
 30
0.0
 11
64.50845887188768
 21
-60.63209689441908
 31
0.0
  0
TEXT
  5
79
330
2
100
AcDbEntity
  8
MOJI1
100
AcDbText
 10
-17.9915411281122
 20
-44.63209689441907
 30
0.0
 40
3.0
  1
ＨＤＭＩ端子×１（ライブ画、再生画）
 41
0.85
100
AcDbText
  0
TEXT
  5
7A
330
2
100
AcDbEntity
  8
MOJI1
100
AcDbText
 10
-57.9915411281122
 20
-39.63209689441908
 30
0.0
 40
3.0
  1
ネットワークポート
100
AcDbText
  0
TEXT
  5
7B
330
2
100
AcDbEntity
  8
MOJI1
100
AcDbText
 10
-57.9915411281122
 20
-44.63209689441907
 30
0.0
 40
3.0
  1
モニター出力
100
AcDbText
  0
TEXT
  5
7C
330
2
100
AcDbEntity
  8
MOJI1
100
AcDbText
 10
-17.9915411281122
 20
-39.63209689441908
 30
0.0
 40
3.0
  1
１０ＢＡＳＥ－Ｔ／１００ＢＡＳＥ－ＴＸ／１０００ＢＡＳＥ－Ｔ（ＲＪ－４５）
 41
0.6200000000000001
100
AcDbText
  0
TEXT
  5
7D
330
2
100
AcDbEntity
  8
MOJI1
100
AcDbText
 10
-17.9915411281122
 20
-24.63209689441908
 30
0.0
 40
3.0
  1
カメラ拡張キット（ＤＧ－ＮＶＥ２０）により、
 41
0.9
100
AcDbText
  0
TEXT
  5
7E
330
2
100
AcDbEntity
  8
MOJI1
100
AcDbText
 10
-57.9915411281122
 20
-34.63209689441908
 30
0.0
 40
3.0
  1
ＨＤＤ
100
AcDbText
  0
TEXT
  5
7F
330
2
100
AcDbEntity
  8
MOJI1
100
AcDbText
 10
-57.9915411281122
 20
-19.63209689441908
 30
0.0
 40
3.0
  1
カメラ入力
100
AcDbText
  0
TEXT
  5
80
330
2
100
AcDbEntity
  8
MOJI1
100
AcDbText
 10
-17.9915411281122
 20
-19.63209689441908
 30
0.0
 40
3.0
  1
４台／最大１６台（ネットワーク経由)
 41
0.9
100
AcDbText
  0
LINE
  5
81
330
2
100
AcDbEntity
  8
WAKU
 62
     1
100
AcDbLine
 10
-60.4915411281122
 20
-20.63209689441908
 30
0.0
 11
64.50845887188768
 21
-20.63209689441908
 31
0.0
  0
LINE
  5
82
330
2
100
AcDbEntity
  8
WAKU
 62
     1
100
AcDbLine
 10
-60.4915411281122
 20
-15.63209689441908
 30
0.0
 11
64.50845887188768
 21
-15.63209689441908
 31
0.0
  0
LINE
  5
83
330
2
100
AcDbEntity
  8
WAKU
 62
     4
100
AcDbLine
 10
-60.4915411281122
 20
-10.63209689441908
 30
0.0
 11
64.50845887188768
 21
-10.63209689441908
 31
0.0
  0
LINE
  5
84
330
2
100
AcDbEntity
  8
WAKU
 62
     1
100
AcDbLine
 10
-60.4915411281122
 20
-40.63209689441907
 30
0.0
 11
64.50845887188768
 21
-40.63209689441907
 31
0.0
  0
LINE
  5
85
330
2
100
AcDbEntity
  8
WAKU
 62
     1
100
AcDbLine
 10
-60.4915411281122
 20
-35.63209689441908
 30
0.0
 11
64.50845887188768
 21
-35.63209689441908
 31
0.0
  0
LINE
  5
86
330
2
100
AcDbEntity
  8
WAKU
 62
     1
100
AcDbLine
 10
-60.4915411281122
 20
-30.63209689441908
 30
0.0
 11
64.50845887188768
 21
-30.63209689441908
 31
0.0
  0
LINE
  5
87
330
2
100
AcDbEntity
  8
WAKU
 62
     1
100
AcDbLine
 10
-60.4915411281122
 20
-25.63209689441908
 30
0.0
 11
64.50845887188768
 21
-25.63209689441908
 31
0.0
  0
TEXT
  5
88
330
2
100
AcDbEntity
  8
MOJI1
100
AcDbText
 10
-17.9915411281122
 20
-14.63209689441908
 30
0.0
 40
3.0
  1
ＡＣ１００Ｖ、５０ Ｈｚ／６０ Ｈｚ
 41
0.95
100
AcDbText
  0
TEXT
  5
89
330
2
100
AcDbEntity
  8
MOJI1
100
AcDbText
 10
-57.9915411281122
 20
-14.63209689441908
 30
0.0
 40
3.0
  1
電　源
100
AcDbText
  0
TEXT
  5
8A
330
2
100
AcDbEntity
  8
MOJI1
100
AcDbText
 10
-17.9915411281122
 20
-49.63209689441907
 30
0.0
 40
3.0
  1
ＢＮＣ×１（ライブ画）
100
AcDbText
  0
ELLIPSE
  5
8B
330
2
100
AcDbEntity
  8
GAIKEI
 62
     1
100
AcDbEllipse
 10
-38.12046828407529
 20
14.9543272384505
 30
0.0
 11
0.3149938999998994
 21
0.0
 31
0.0
210
0.0
220
0.0
230
1.0
 40
0.3650569226601744
 41
0.0
 42
6.283185307179586
  0
ELLIPSE
  5
8C
330
2
100
AcDbEntity
  8
GAIKEI
 62
     1
100
AcDbEllipse
 10
-38.12046828407529
 20
13.9956422768426
 30
0.0
 11
0.3149938999998994
 21
0.0
 31
0.0
210
0.0
220
0.0
230
1.0
 40
0.3650569226601744
 41
0.0
 42
6.283185307179586
  0
ELLIPSE
  5
8D
330
2
100
AcDbEntity
  8
GAIKEI
 62
     1
100
AcDbEllipse
 10
-40.36293919598398
 20
14.9543272384505
 30
0.0
 11
0.3149938999998994
 21
0.0
 31
0.0
210
0.0
220
0.0
230
1.0
 40
0.3650569226601744
 41
0.0
 42
6.283185307179586
  0
ELLIPSE
  5
8E
330
2
100
AcDbEntity
  8
GAIKEI
 62
     1
100
AcDbEllipse
 10
-40.36293919598398
 20
13.9956422768426
 30
0.0
 11
0.3149938999998994
 21
0.0
 31
0.0
210
0.0
220
0.0
230
1.0
 40
0.3650569226601744
 41
0.0
 42
6.283185307179586
  0
LINE
  5
8F
330
2
100
AcDbEntity
  8
GAIKEI
  6
Continuous
 62
     1
100
AcDbLine
 10
-4.954047197583861
 20
15.45830069860761
 30
0.0
 11
-3.354047197583895
 21
15.45830069860761
 31
0.0
  0
LINE
  5
90
330
2
100
AcDbEntity
  8
GAIKEI
  6
Continuous
 62
     1
100
AcDbLine
 10
-3.354047197583895
 20
15.45830069860761
 30
0.0
 11
-3.354047197583895
 21
13.85830069860765
 31
0.0
  0
LINE
  5
91
330
2
100
AcDbEntity
  8
GAIKEI
  6
Continuous
 62
     1
100
AcDbLine
 10
-3.354047197583895
 20
13.85830069860765
 30
0.0
 11
-4.954047197583861
 21
13.85830069860765
 31
0.0
  0
LINE
  5
92
330
2
100
AcDbEntity
  8
GAIKEI
  6
Continuous
 62
     1
100
AcDbLine
 10
-4.954047197583861
 20
13.85830069860765
 30
0.0
 11
-4.954047197583861
 21
15.45830069860761
 31
0.0
  0
LINE
  5
93
330
2
100
AcDbEntity
  8
GAIKEI
  6
Continuous
 62
   251
100
AcDbLine
 10
-5.963041545984083
 20
16.60348932880259
 30
0.0
 11
-5.964117245984084
 21
16.60094402880259
 31
0.0
  0
LINE
  5
94
330
2
100
AcDbEntity
  8
GAIKEI
  6
Continuous
 62
   251
100
AcDbLine
 10
-5.964117245984084
 20
16.60094402880259
 30
0.0
 11
-5.96490344598385
 21
16.59843682880262
 31
0.0
  0
LINE
  5
95
330
2
100
AcDbEntity
  8
GAIKEI
  6
Continuous
 62
   251
100
AcDbLine
 10
-5.96490344598385
 20
16.59843682880262
 30
0.0
 11
-5.965191845983895
 21
16.59719722880254
 31
0.0
  0
LINE
  5
96
330
2
100
AcDbEntity
  8
GAIKEI
  6
Continuous
 62
   251
100
AcDbLine
 10
-5.965191845983895
 20
16.59719722880254
 30
0.0
 11
-5.965411845983851
 21
16.59596802880253
 31
0.0
  0
LINE
  5
97
330
2
100
AcDbEntity
  8
GAIKEI
  6
Continuous
 62
   251
100
AcDbLine
 10
-5.965411845983851
 20
16.59596802880253
 30
0.0
 11
-5.965651745983848
 21
16.59354242880261
 31
0.0
  0
LINE
  5
98
330
2
100
AcDbEntity
  8
GAIKEI
  6
Continuous
 62
   251
100
AcDbLine
 10
-5.965651745983848
 20
16.59354242880261
 30
0.0
 11
-5.96563124598407
 21
16.59115892880254
 31
0.0
  0
LINE
  5
99
330
2
100
AcDbEntity
  8
GAIKEI
  6
Continuous
 62
   251
100
AcDbLine
 10
-5.96563124598407
 20
16.59115892880254
 30
0.0
 11
-5.965355445983846
 21
16.58881682880258
 31
0.0
  0
LINE
  5
9A
330
2
100
AcDbEntity
  8
GAIKEI
  6
Continuous
 62
   251
100
AcDbLine
 10
-5.965355445983846
 20
16.58881682880258
 30
0.0
 11
-5.964826445983874
 21
16.58651632880259
 31
0.0
  0
LINE
  5
9B
330
2
100
AcDbEntity
  8
GAIKEI
  6
Continuous
 62
   251
100
AcDbLine
 10
-5.964826445983874
 20
16.58651632880259
 30
0.0
 11
-5.964043845983837
 21
16.58425892880257
 31
0.0
  0
LINE
  5
9C
330
2
100
AcDbEntity
  8
GAIKEI
  6
Continuous
 62
   251
100
AcDbLine
 10
-5.964043845983837
 20
16.58425892880257
 30
0.0
 11
-5.963004845983846
 21
16.58204862880257
 31
0.0
  0
LINE
  5
9D
330
2
100
AcDbEntity
  8
GAIKEI
  6
Continuous
 62
   251
100
AcDbLine
 10
-5.963004845983846
 20
16.58204862880257
 30
0.0
 11
-5.961705645984068
 21
16.57989152880259
 31
0.0
  0
LINE
  5
9E
330
2
100
AcDbEntity
  8
GAIKEI
  6
Continuous
 62
   251
100
AcDbLine
 10
-5.961705645984068
 20
16.57989152880259
 30
0.0
 11
-5.960142045983843
 21
16.57779702880259
 31
0.0
  0
LINE
  5
9F
330
2
100
AcDbEntity
  8
GAIKEI
  6
Continuous
 62
   251
100
AcDbLine
 10
-5.960142045983843
 20
16.57779702880259
 30
0.0
 11
-5.958310845984044
 21
16.57577732880259
 31
0.0
  0
LINE
  5
A0
330
2
100
AcDbEntity
  8
GAIKEI
  6
Continuous
 62
   251
100
AcDbLine
 10
-5.958310845984044
 20
16.57577732880259
 30
0.0
 11
-5.956210545983879
 21
16.57384762880258
 31
0.0
  0
LINE
  5
A1
330
2
100
AcDbEntity
  8
GAIKEI
  6
Continuous
 62
   251
100
AcDbLine
 10
-5.956210545983879
 20
16.57384762880258
 30
0.0
 11
-5.953843045984058
 21
16.5720257288026
 31
0.0
  0
LINE
  5
A2
330
2
100
AcDbEntity
  8
GAIKEI
  6
Continuous
 62
   251
100
AcDbLine
 10
-5.953843045984058
 20
16.5720257288026
 30
0.0
 11
-5.951213945983852
 21
16.57033122880261
 31
0.0
  0
LINE
  5
A3
330
2
100
AcDbEntity
  8
GAIKEI
  6
Continuous
 62
   251
100
AcDbLine
 10
-5.951213945983852
 20
16.57033122880261
 30
0.0
 11
-5.948333245984031
 21
16.5687852288026
 31
0.0
  0
LINE
  5
A4
330
2
100
AcDbEntity
  8
GAIKEI
  6
Continuous
 62
   251
100
AcDbLine
 10
-5.948333245984031
 20
16.5687852288026
 30
0.0
 11
-5.945215645984035
 21
16.56740862880258
 31
0.0
  0
LINE
  5
A5
330
2
100
AcDbEntity
  8
GAIKEI
  6
Continuous
 62
   251
100
AcDbLine
 10
-5.945215645984035
 20
16.56740862880258
 30
0.0
 11
-5.941880345983861
 21
16.56622212880256
 31
0.0
  0
LINE
  5
A6
330
2
100
AcDbEntity
  8
GAIKEI
  6
Continuous
 62
   251
100
AcDbLine
 10
-5.941880345983861
 20
16.56622212880256
 30
0.0
 11
-5.938350345983849
 21
16.5652444288026
 31
0.0
  0
LINE
  5
A7
330
2
100
AcDbEntity
  8
GAIKEI
  6
Continuous
 62
   251
100
AcDbLine
 10
-5.938350345983849
 20
16.5652444288026
 30
0.0
 11
-5.936393745984048
 21
16.56481362880254
 31
0.0
  0
LINE
  5
A8
330
2
100
AcDbEntity
  8
GAIKEI
  6
Continuous
 62
   251
100
AcDbLine
 10
-5.936393745984048
 20
16.56481362880254
 30
0.0
 11
-5.932624845984037
 21
16.56418892880259
 31
0.0
  0
LINE
  5
A9
330
2
100
AcDbEntity
  8
GAIKEI
  6
Continuous
 62
   251
100
AcDbLine
 10
-5.932624845984037
 20
16.56418892880259
 30
0.0
 11
-5.928740245983874
 21
16.56380902880255
 31
0.0
  0
LINE
  5
AA
330
2
100
AcDbEntity
  8
GAIKEI
  6
Continuous
 62
   251
100
AcDbLine
 10
-5.928740245983874
 20
16.56380902880255
 30
0.0
 11
-5.924766545984084
 21
16.56368122880258
 31
0.0
  0
LINE
  5
AB
330
2
100
AcDbEntity
  8
GAIKEI
  6
Continuous
 62
   251
100
AcDbLine
 10
-5.924766545984084
 20
16.56368122880258
 30
0.0
 11
-5.86938654598407
 21
16.56366612880259
 31
0.0
  0
LINE
  5
AC
330
2
100
AcDbEntity
  8
GAIKEI
  6
Continuous
 62
   251
100
AcDbLine
 10
-5.86938654598407
 20
16.56366612880259
 30
0.0
 11
-5.77928004598408
 21
16.56387072880255
 31
0.0
  0
LINE
  5
AD
330
2
100
AcDbEntity
  8
GAIKEI
  6
Continuous
 62
   251
100
AcDbLine
 10
-5.866062045984051
 20
16.80466582880257
 30
0.0
 11
-5.884011045984038
 21
16.76640802880263
 31
0.0
  0
LINE
  5
AE
330
2
100
AcDbEntity
  8
GAIKEI
  6
Continuous
 62
   251
100
AcDbLine
 10
-5.682266145984044
 20
16.76640802880263
 30
0.0
 11
-5.664179345984052
 21
16.80466582880257
 31
0.0
  0
LINE
  5
AF
330
2
100
AcDbEntity
  8
GAIKEI
  6
Continuous
 62
   251
100
AcDbLine
 10
-5.77928004598408
 20
16.56387072880255
 30
0.0
 11
-5.696046445984052
 21
16.73765872880256
 31
0.0
  0
LINE
  5
B0
330
2
100
AcDbEntity
  8
GAIKEI
  6
Continuous
 62
   251
100
AcDbLine
 10
-5.473527645983836
 20
16.64784502880263
 30
0.0
 11
-5.459919445983871
 21
16.67611202880255
 31
0.0
  0
LINE
  5
B1
330
2
100
AcDbEntity
  8
GAIKEI
  6
Continuous
 62
   251
100
AcDbLine
 10
-2.934628345984037
 20
16.58698732880259
 30
0.0
 11
-2.869860545984067
 21
16.72146672880257
 31
0.0
  0
LINE
  5
B2
330
2
100
AcDbEntity
  8
GAIKEI
  6
Continuous
 62
   251
100
AcDbLine
 10
-2.869860545984067
 20
16.72146672880257
 30
0.0
 11
-2.867662645983841
 21
16.72673012880261
 31
0.0
  0
LINE
  5
B3
330
2
100
AcDbEntity
  8
GAIKEI
  6
Continuous
 62
   251
100
AcDbLine
 10
-2.867662645983841
 20
16.72673012880261
 30
0.0
 11
-2.866305645984084
 21
16.73158672880254
 31
0.0
  0
LINE
  5
B4
330
2
100
AcDbEntity
  8
GAIKEI
  6
Continuous
 62
   251
100
AcDbLine
 10
-2.866305645984084
 20
16.73158672880254
 30
0.0
 11
-2.865701645984074
 21
16.73608512880258
 31
0.0
  0
LINE
  5
B5
330
2
100
AcDbEntity
  8
GAIKEI
  6
Continuous
 62
   251
100
AcDbLine
 10
-2.865701645984074
 20
16.73608512880258
 30
0.0
 11
-2.865661245984028
 21
16.73821592880256
 31
0.0
  0
LINE
  5
B6
330
2
100
AcDbEntity
  8
GAIKEI
  6
Continuous
 62
   251
100
AcDbLine
 10
-2.865661245984028
 20
16.73821592880256
 30
0.0
 11
-2.865786945984041
 21
16.7402681288026
 31
0.0
  0
LINE
  5
B7
330
2
100
AcDbEntity
  8
GAIKEI
  6
Continuous
 62
   251
100
AcDbLine
 10
-2.865786945984041
 20
16.7402681288026
 30
0.0
 11
-2.866513245984037
 21
16.74414392880254
 31
0.0
  0
LINE
  5
B8
330
2
100
AcDbEntity
  8
GAIKEI
  6
Continuous
 62
   251
100
AcDbLine
 10
-2.866513245984037
 20
16.74414392880254
 30
0.0
 11
-2.867851845984091
 21
16.74775422880259
 31
0.0
  0
LINE
  5
B9
330
2
100
AcDbEntity
  8
GAIKEI
  6
Continuous
 62
   251
100
AcDbLine
 10
-2.867851845984091
 20
16.74775422880259
 30
0.0
 11
-2.869801545983875
 21
16.7511305288026
 31
0.0
  0
LINE
  5
BA
330
2
100
AcDbEntity
  8
GAIKEI
  6
Continuous
 62
   251
100
AcDbLine
 10
-2.869801545983875
 20
16.7511305288026
 30
0.0
 11
-2.872384445984039
 21
16.75428892880256
 31
0.0
  0
LINE
  5
BB
330
2
100
AcDbEntity
  8
GAIKEI
  6
Continuous
 62
   251
100
AcDbLine
 10
-2.872384445984039
 20
16.75428892880256
 30
0.0
 11
-2.875637645984056
 21
16.75722552880256
 31
0.0
  0
LINE
  5
BC
330
2
100
AcDbEntity
  8
GAIKEI
  6
Continuous
 62
   251
100
AcDbLine
 10
-2.875637645984056
 20
16.75722552880256
 30
0.0
 11
-2.879602245983846
 21
16.75991472880258
 31
0.0
  0
LINE
  5
BD
330
2
100
AcDbEntity
  8
GAIKEI
  6
Continuous
 62
   251
100
AcDbLine
 10
-2.879602245983846
 20
16.75991472880258
 30
0.0
 11
-2.88430704598386
 21
16.76230772880257
 31
0.0
  0
LINE
  5
BE
330
2
100
AcDbEntity
  8
GAIKEI
  6
Continuous
 62
   251
100
AcDbLine
 10
-2.88430704598386
 20
16.76230772880257
 30
0.0
 11
-2.889748945983853
 21
16.76433522880256
 31
0.0
  0
LINE
  5
BF
330
2
100
AcDbEntity
  8
GAIKEI
  6
Continuous
 62
   251
100
AcDbLine
 10
-2.889748945983853
 20
16.76433522880256
 30
0.0
 11
-2.895870245983871
 21
16.76591192880255
 31
0.0
  0
LINE
  5
C0
330
2
100
AcDbEntity
  8
GAIKEI
  6
Continuous
 62
   251
100
AcDbLine
 10
-2.895870245983871
 20
16.76591192880255
 30
0.0
 11
-2.902534945983859
 21
16.76694812880259
 31
0.0
  0
LINE
  5
C1
330
2
100
AcDbEntity
  8
GAIKEI
  6
Continuous
 62
   251
100
AcDbLine
 10
-2.902534945983859
 20
16.76694812880259
 30
0.0
 11
-2.909515345984061
 21
16.76736642880257
 31
0.0
  0
LINE
  5
C2
330
2
100
AcDbEntity
  8
GAIKEI
  6
Continuous
 62
   251
100
AcDbLine
 10
-2.909515345984061
 20
16.76736642880257
 30
0.0
 11
-2.910478245983881
 21
16.7673726288026
 31
0.0
  0
LINE
  5
C3
330
2
100
AcDbEntity
  8
GAIKEI
  6
Continuous
 62
   251
100
AcDbLine
 10
-2.910478245983881
 20
16.7673726288026
 30
0.0
 11
-3.564771245983877
 21
16.7673726288026
 31
0.0
  0
LINE
  5
C4
330
2
100
AcDbEntity
  8
GAIKEI
  6
Continuous
 62
   251
100
AcDbLine
 10
-5.608162045983874
 20
16.67611202880255
 30
0.0
 11
-5.621839045983847
 21
16.64784502880263
 31
0.0
  0
LINE
  5
C5
330
2
100
AcDbEntity
  8
GAIKEI
  6
Continuous
 62
   251
100
AcDbLine
 10
-3.564771245983877
 20
16.7673726288026
 30
0.0
 11
-3.569497245984052
 21
16.7671759288026
 31
0.0
  0
LINE
  5
C6
330
2
100
AcDbEntity
  8
GAIKEI
  6
Continuous
 62
   251
100
AcDbLine
 10
-3.569497245984052
 20
16.7671759288026
 30
0.0
 11
-3.575197545984053
 21
16.76637952880259
 31
0.0
  0
LINE
  5
C7
330
2
100
AcDbEntity
  8
GAIKEI
  6
Continuous
 62
   251
100
AcDbLine
 10
-3.575197545984053
 20
16.76637952880259
 30
0.0
 11
-3.580487045983886
 21
16.76501232880258
 31
0.0
  0
LINE
  5
C8
330
2
100
AcDbEntity
  8
GAIKEI
  6
Continuous
 62
   251
100
AcDbLine
 10
-3.580487045983886
 20
16.76501232880258
 30
0.0
 11
-3.58532864598385
 21
16.76311692880256
 31
0.0
  0
LINE
  5
C9
330
2
100
AcDbEntity
  8
GAIKEI
  6
Continuous
 62
   251
100
AcDbLine
 10
-3.58532864598385
 20
16.76311692880256
 30
0.0
 11
-3.589709545984078
 21
16.7607268288026
 31
0.0
  0
LINE
  5
CA
330
2
100
AcDbEntity
  8
GAIKEI
  6
Continuous
 62
   251
100
AcDbLine
 10
-3.589709545984078
 20
16.7607268288026
 30
0.0
 11
-3.593630645984035
 21
16.75786262880263
 31
0.0
  0
LINE
  5
CB
330
2
100
AcDbEntity
  8
GAIKEI
  6
Continuous
 62
   251
100
AcDbLine
 10
-3.593630645984035
 20
16.75786262880263
 30
0.0
 11
-3.597097145984037
 21
16.75453012880257
 31
0.0
  0
LINE
  5
CC
330
2
100
AcDbEntity
  8
GAIKEI
  6
Continuous
 62
   251
100
AcDbLine
 10
-3.597097145984037
 20
16.75453012880257
 30
0.0
 11
-3.600111245983839
 21
16.75072002880256
 31
0.0
  0
LINE
  5
CD
330
2
100
AcDbEntity
  8
GAIKEI
  6
Continuous
 62
   251
100
AcDbLine
 10
-3.600111245983839
 20
16.75072002880256
 30
0.0
 11
-3.602667245983866
 21
16.74640922880257
 31
0.0
  0
LINE
  5
CE
330
2
100
AcDbEntity
  8
GAIKEI
  6
Continuous
 62
   251
100
AcDbLine
 10
-3.602667245983866
 20
16.74640922880257
 30
0.0
 11
-3.604007145983871
 21
16.74358832880256
 31
0.0
  0
LINE
  5
CF
330
2
100
AcDbEntity
  8
GAIKEI
  6
Continuous
 62
   251
100
AcDbLine
 10
-3.604007145983871
 20
16.74358832880256
 30
0.0
 11
-3.652218545984055
 21
16.64232882880253
 31
0.0
  0
LINE
  5
D0
330
2
100
AcDbEntity
  8
GAIKEI
  6
Continuous
 62
   251
100
AcDbLine
 10
-3.652218545984055
 20
16.64232882880253
 30
0.0
 11
-3.674084145984068
 21
16.59678862880258
 31
0.0
  0
LINE
  5
D1
330
2
100
AcDbEntity
  8
GAIKEI
  6
Continuous
 62
   251
100
AcDbLine
 10
-3.674084145984068
 20
16.59678862880258
 30
0.0
 11
-3.675731945984068
 21
16.59266222880262
 31
0.0
  0
LINE
  5
D2
330
2
100
AcDbEntity
  8
GAIKEI
  6
Continuous
 62
   251
100
AcDbLine
 10
-3.675731945984068
 20
16.59266222880262
 30
0.0
 11
-3.676617945984048
 21
16.5887426288026
 31
0.0
  0
LINE
  5
D3
330
2
100
AcDbEntity
  8
GAIKEI
  6
Continuous
 62
   251
100
AcDbLine
 10
-3.676617945984048
 20
16.5887426288026
 30
0.0
 11
-3.676794245983842
 21
16.58685642880255
 31
0.0
  0
LINE
  5
D4
330
2
100
AcDbEntity
  8
GAIKEI
  6
Continuous
 62
   251
100
AcDbLine
 10
-3.676794245983842
 20
16.58685642880255
 30
0.0
 11
-3.676800045983839
 21
16.58502312880262
 31
0.0
  0
LINE
  5
D5
330
2
100
AcDbEntity
  8
GAIKEI
  6
Continuous
 62
   251
100
AcDbLine
 10
-3.676800045983839
 20
16.58502312880262
 30
0.0
 11
-3.676321645984046
 21
16.58152292880254
 31
0.0
  0
LINE
  5
D6
330
2
100
AcDbEntity
  8
GAIKEI
  6
Continuous
 62
   251
100
AcDbLine
 10
-3.676321645984046
 20
16.58152292880254
 30
0.0
 11
-3.675212145983891
 21
16.57823532880263
 31
0.0
  0
LINE
  5
D7
330
2
100
AcDbEntity
  8
GAIKEI
  6
Continuous
 62
   251
100
AcDbLine
 10
-3.675212145983891
 20
16.57823532880263
 30
0.0
 11
-3.673479545984037
 21
16.57516352880259
 31
0.0
  0
LINE
  5
D8
330
2
100
AcDbEntity
  8
GAIKEI
  6
Continuous
 62
   251
100
AcDbLine
 10
-3.673479545984037
 20
16.57516352880259
 30
0.0
 11
-3.671117445983838
 21
16.57232742880262
 31
0.0
  0
LINE
  5
D9
330
2
100
AcDbEntity
  8
GAIKEI
  6
Continuous
 62
   251
100
AcDbLine
 10
-3.671117445983838
 20
16.57232742880262
 30
0.0
 11
-3.668115645984073
 21
16.56976792880255
 31
0.0
  0
LINE
  5
DA
330
2
100
AcDbEntity
  8
GAIKEI
  6
Continuous
 62
   251
100
AcDbLine
 10
-3.668115645984073
 20
16.56976792880255
 30
0.0
 11
-3.664474445984069
 21
16.5675467288026
 31
0.0
  0
LINE
  5
DB
330
2
100
AcDbEntity
  8
GAIKEI
  6
Continuous
 62
   251
100
AcDbLine
 10
-3.664474445984069
 20
16.5675467288026
 30
0.0
 11
-3.660217645984062
 21
16.56574152880256
 31
0.0
  0
LINE
  5
DC
330
2
100
AcDbEntity
  8
GAIKEI
  6
Continuous
 62
   251
100
AcDbLine
 10
-3.660217645984062
 20
16.56574152880256
 30
0.0
 11
-3.655401045984035
 21
16.56443612880264
 31
0.0
  0
LINE
  5
DD
330
2
100
AcDbEntity
  8
GAIKEI
  6
Continuous
 62
   251
100
AcDbLine
 10
-3.655401045984035
 20
16.56443612880264
 30
0.0
 11
-3.650113445984061
 21
16.56370942880255
 31
0.0
  0
LINE
  5
DE
330
2
100
AcDbEntity
  8
GAIKEI
  6
Continuous
 62
   251
100
AcDbLine
 10
-3.650113445984061
 20
16.56370942880255
 30
0.0
 11
-3.646592245984038
 21
16.56357792880254
 31
0.0
  0
LINE
  5
DF
330
2
100
AcDbEntity
  8
GAIKEI
  6
Continuous
 62
   251
100
AcDbLine
 10
-3.646592245984038
 20
16.56357792880254
 30
0.0
 11
-3.551031045984075
 21
16.56374872880258
 31
0.0
  0
LINE
  5
E0
330
2
100
AcDbEntity
  8
GAIKEI
  6
Continuous
 62
   251
100
AcDbLine
 10
-3.551031045984075
 20
16.56374872880258
 30
0.0
 11
-3.534867745983888
 21
16.56378462880264
 31
0.0
  0
LINE
  5
E1
330
2
100
AcDbEntity
  8
GAIKEI
  6
Continuous
 62
   251
100
AcDbLine
 10
-3.534867745983888
 20
16.56378462880264
 30
0.0
 11
-3.45208204598407
 21
16.73650452880258
 31
0.0
  0
LINE
  5
E2
330
2
100
AcDbEntity
  8
GAIKEI
  6
Continuous
 62
   251
100
AcDbLine
 10
-3.45208204598407
 20
16.73650452880258
 30
0.0
 11
-3.098683945984078
 21
16.73650452880258
 31
0.0
  0
LINE
  5
E3
330
2
100
AcDbEntity
  8
GAIKEI
  6
Continuous
 62
   251
100
AcDbLine
 10
-3.098683945984078
 20
16.73650452880258
 30
0.0
 11
-3.168516045983892
 21
16.59146592880256
 31
0.0
  0
LINE
  5
E4
330
2
100
AcDbEntity
  8
GAIKEI
  6
Continuous
 62
   251
100
AcDbLine
 10
-3.168516045983892
 20
16.59146592880256
 30
0.0
 11
-3.426450545984039
 21
16.59146592880256
 31
0.0
  0
LINE
  5
E5
330
2
100
AcDbEntity
  8
GAIKEI
  6
Continuous
 62
   251
100
AcDbLine
 10
-3.426450545984039
 20
16.59146592880256
 30
0.0
 11
-3.39547914598404
 21
16.56349172880254
 31
0.0
  0
LINE
  5
E6
330
2
100
AcDbEntity
  8
GAIKEI
  6
Continuous
 62
   251
100
AcDbLine
 10
-3.39547914598404
 20
16.56349172880254
 30
0.0
 11
-2.982480745983878
 21
16.56349172880254
 31
0.0
  0
LINE
  5
E7
330
2
100
AcDbEntity
  8
GAIKEI
  6
Continuous
 62
   251
100
AcDbLine
 10
-2.940015945984043
 20
16.57889372880254
 30
0.0
 11
-2.93705404598387
 21
16.58274092880259
 31
0.0
  0
LINE
  5
E8
330
2
100
AcDbEntity
  8
GAIKEI
  6
Continuous
 62
   251
100
AcDbLine
 10
-2.93705404598387
 20
16.58274092880259
 30
0.0
 11
-2.934628345984037
 21
16.58698732880259
 31
0.0
  0
LINE
  5
E9
330
2
100
AcDbEntity
  8
GAIKEI
  6
Continuous
 62
   251
100
AcDbLine
 10
-4.445441545984067
 20
16.76707982880259
 30
0.0
 11
-4.452576545984072
 21
16.76678502880259
 31
0.0
  0
LINE
  5
EA
330
2
100
AcDbEntity
  8
GAIKEI
  6
Continuous
 62
   251
100
AcDbLine
 10
-4.452576545984072
 20
16.76678502880259
 30
0.0
 11
-4.458565545984072
 21
16.76594942880263
 31
0.0
  0
LINE
  5
EB
330
2
100
AcDbEntity
  8
GAIKEI
  6
Continuous
 62
   251
100
AcDbLine
 10
-4.458565545984072
 20
16.76594942880263
 30
0.0
 11
-4.463697845983858
 21
16.76461632880261
 31
0.0
  0
LINE
  5
EC
330
2
100
AcDbEntity
  8
GAIKEI
  6
Continuous
 62
   251
100
AcDbLine
 10
-4.463697845983858
 20
16.76461632880261
 30
0.0
 11
-4.468192645984061
 21
16.76278952880261
 31
0.0
  0
LINE
  5
ED
330
2
100
AcDbEntity
  8
GAIKEI
  6
Continuous
 62
   251
100
AcDbLine
 10
-4.468192645984061
 20
16.76278952880261
 30
0.0
 11
-4.470260645984069
 21
16.76167772880257
 31
0.0
  0
LINE
  5
EE
330
2
100
AcDbEntity
  8
GAIKEI
  6
Continuous
 62
   251
100
AcDbLine
 10
-4.470260645984069
 20
16.76167772880257
 30
0.0
 11
-4.472220945983849
 21
16.76042962880262
 31
0.0
  0
LINE
  5
EF
330
2
100
AcDbEntity
  8
GAIKEI
  6
Continuous
 62
   251
100
AcDbLine
 10
-4.472220945983849
 20
16.76042962880262
 30
0.0
 11
-4.475845845984053
 21
16.75751482880258
 31
0.0
  0
LINE
  5
F0
330
2
100
AcDbEntity
  8
GAIKEI
  6
Continuous
 62
   251
100
AcDbLine
 10
-4.475845845984053
 20
16.75751482880258
 30
0.0
 11
-4.479190945983873
 21
16.7539437288026
 31
0.0
  0
LINE
  5
F1
330
2
100
AcDbEntity
  8
GAIKEI
  6
Continuous
 62
   251
100
AcDbLine
 10
-4.479190945983873
 20
16.7539437288026
 30
0.0
 11
-4.482365545984066
 21
16.7495469288026
 31
0.0
  0
LINE
  5
F2
330
2
100
AcDbEntity
  8
GAIKEI
  6
Continuous
 62
   251
100
AcDbLine
 10
-4.482365545984066
 20
16.7495469288026
 30
0.0
 11
-4.485473345984075
 21
16.74406492880257
 31
0.0
  0
LINE
  5
F3
330
2
100
AcDbEntity
  8
GAIKEI
  6
Continuous
 62
   251
100
AcDbLine
 10
-4.485473345984075
 20
16.74406492880257
 30
0.0
 11
-4.485714745984068
 21
16.74358422880255
 31
0.0
  0
LINE
  5
F4
330
2
100
AcDbEntity
  8
GAIKEI
  6
Continuous
 62
   251
100
AcDbLine
 10
-4.485714745984068
 20
16.74358422880255
 30
0.0
 11
-4.572462345984035
 21
16.56368122880258
 31
0.0
  0
LINE
  5
F5
330
2
100
AcDbEntity
  8
GAIKEI
  6
Continuous
 62
   251
100
AcDbLine
 10
-4.572462345984035
 20
16.56368122880258
 30
0.0
 11
-4.416985045984063
 21
16.56378462880264
 31
0.0
  0
LINE
  5
F6
330
2
100
AcDbEntity
  8
GAIKEI
  6
Continuous
 62
   251
100
AcDbLine
 10
-4.416985045984063
 20
16.56378462880264
 30
0.0
 11
-4.330685345984079
 21
16.74261962880257
 31
0.0
  0
LINE
  5
F7
330
2
100
AcDbEntity
  8
GAIKEI
  6
Continuous
 62
   251
100
AcDbLine
 10
-4.330685345984079
 20
16.74261962880257
 30
0.0
 11
-3.995132845984073
 21
16.74261962880257
 31
0.0
  0
LINE
  5
F8
330
2
100
AcDbEntity
  8
GAIKEI
  6
Continuous
 62
   251
100
AcDbLine
 10
-3.995132845984073
 20
16.74261962880257
 30
0.0
 11
-4.007394345984039
 21
16.73182942880259
 31
0.0
  0
LINE
  5
F9
330
2
100
AcDbEntity
  8
GAIKEI
  6
Continuous
 62
   251
100
AcDbLine
 10
-4.007394345984039
 20
16.73182942880259
 30
0.0
 11
-4.037641445984036
 21
16.70601202880255
 31
0.0
  0
LINE
  5
FA
330
2
100
AcDbEntity
  8
GAIKEI
  6
Continuous
 62
   251
100
AcDbLine
 10
-4.037641445984036
 20
16.70601202880255
 30
0.0
 11
-4.082845045983845
 21
16.66834332880256
 31
0.0
  0
LINE
  5
FB
330
2
100
AcDbEntity
  8
GAIKEI
  6
Continuous
 62
   251
100
AcDbLine
 10
-4.082845045983845
 20
16.66834332880256
 30
0.0
 11
-4.087325645984037
 21
16.66425292880257
 31
0.0
  0
LINE
  5
FC
330
2
100
AcDbEntity
  8
GAIKEI
  6
Continuous
 62
   251
100
AcDbLine
 10
-4.087325645984037
 20
16.66425292880257
 30
0.0
 11
-4.09050854598405
 21
16.66057412880258
 31
0.0
  0
LINE
  5
FD
330
2
100
AcDbEntity
  8
GAIKEI
  6
Continuous
 62
   251
100
AcDbLine
 10
-4.09050854598405
 20
16.66057412880258
 30
0.0
 11
-4.092661045983845
 21
16.65718682880259
 31
0.0
  0
LINE
  5
FE
330
2
100
AcDbEntity
  8
GAIKEI
  6
Continuous
 62
   251
100
AcDbLine
 10
-4.092661045983845
 20
16.65718682880259
 30
0.0
 11
-4.09397154598389
 21
16.65397622880255
 31
0.0
  0
LINE
  5
FF
330
2
100
AcDbEntity
  8
GAIKEI
  6
Continuous
 62
   251
100
AcDbLine
 10
-4.09397154598389
 20
16.65397622880255
 30
0.0
 11
-4.094349845984083
 21
16.65239422880256
 31
0.0
  0
LINE
  5
100
330
2
100
AcDbEntity
  8
GAIKEI
  6
Continuous
 62
   251
100
AcDbLine
 10
-4.094349845984083
 20
16.65239422880256
 30
0.0
 11
-4.094550345983861
 21
16.65082372880261
 31
0.0
  0
LINE
  5
101
330
2
100
AcDbEntity
  8
GAIKEI
  6
Continuous
 62
   251
100
AcDbLine
 10
-4.094550345983861
 20
16.65082372880261
 30
0.0
 11
-4.094439245983835
 21
16.64770342880263
 31
0.0
  0
LINE
  5
102
330
2
100
AcDbEntity
  8
GAIKEI
  6
Continuous
 62
   251
100
AcDbLine
 10
-4.094439245983835
 20
16.64770342880263
 30
0.0
 11
-4.093644345984046
 21
16.64448442880257
 31
0.0
  0
LINE
  5
103
330
2
100
AcDbEntity
  8
GAIKEI
  6
Continuous
 62
   251
100
AcDbLine
 10
-4.093644345984046
 20
16.64448442880257
 30
0.0
 11
-4.09208454598405
 21
16.64102082880254
 31
0.0
  0
LINE
  5
104
330
2
100
AcDbEntity
  8
GAIKEI
  6
Continuous
 62
   251
100
AcDbLine
 10
-4.09208454598405
 20
16.64102082880254
 30
0.0
 11
-4.089584045984054
 21
16.63713352880256
 31
0.0
  0
LINE
  5
105
330
2
100
AcDbEntity
  8
GAIKEI
  6
Continuous
 62
   251
100
AcDbLine
 10
-4.089584045984054
 20
16.63713352880256
 30
0.0
 11
-4.085835445983889
 21
16.63255922880256
 31
0.0
  0
LINE
  5
106
330
2
100
AcDbEntity
  8
GAIKEI
  6
Continuous
 62
   251
100
AcDbLine
 10
-4.085835445983889
 20
16.63255922880256
 30
0.0
 11
-4.080263945983858
 21
16.6268055288026
 31
0.0
  0
LINE
  5
107
330
2
100
AcDbEntity
  8
GAIKEI
  6
Continuous
 62
   251
100
AcDbLine
 10
-4.080263945983858
 20
16.6268055288026
 30
0.0
 11
-4.076264845983871
 21
16.62300582880255
 31
0.0
  0
LINE
  5
108
330
2
100
AcDbEntity
  8
GAIKEI
  6
Continuous
 62
   251
100
AcDbLine
 10
-4.076264845983871
 20
16.62300582880255
 30
0.0
 11
-4.01287504598406
 21
16.56378462880264
 31
0.0
  0
LINE
  5
109
330
2
100
AcDbEntity
  8
GAIKEI
  6
Continuous
 62
   251
100
AcDbLine
 10
-4.01287504598406
 20
16.56378462880264
 30
0.0
 11
-3.752012245983848
 21
16.56378462880264
 31
0.0
  0
LINE
  5
10A
330
2
100
AcDbEntity
  8
GAIKEI
  6
Continuous
 62
   251
100
AcDbLine
 10
-3.752012245983848
 20
16.56378462880264
 30
0.0
 11
-3.817283345984037
 21
16.62476852880257
 31
0.0
  0
LINE
  5
10B
330
2
100
AcDbEntity
  8
GAIKEI
  6
Continuous
 62
   251
100
AcDbLine
 10
-3.817283345984037
 20
16.62476852880257
 30
0.0
 11
-3.848543945983863
 21
16.65387392880257
 31
0.0
  0
LINE
  5
10C
330
2
100
AcDbEntity
  8
GAIKEI
  6
Continuous
 62
   251
100
AcDbLine
 10
-3.848543945983863
 20
16.65387392880257
 30
0.0
 11
-3.850948945983873
 21
16.65630652880259
 31
0.0
  0
LINE
  5
10D
330
2
100
AcDbEntity
  8
GAIKEI
  6
Continuous
 62
   251
100
AcDbLine
 10
-3.850948945983873
 20
16.65630652880259
 30
0.0
 11
-3.85219644598385
 21
16.65812352880255
 31
0.0
  0
LINE
  5
10E
330
2
100
AcDbEntity
  8
GAIKEI
  6
Continuous
 62
   251
100
AcDbLine
 10
-3.85219644598385
 20
16.65812352880255
 30
0.0
 11
-3.852639145983857
 21
16.65966382880253
 31
0.0
  0
LINE
  5
10F
330
2
100
AcDbEntity
  8
GAIKEI
  6
Continuous
 62
   251
100
AcDbLine
 10
-3.852639145983857
 20
16.65966382880253
 30
0.0
 11
-3.852391845984072
 21
16.66114392880257
 31
0.0
  0
LINE
  5
110
330
2
100
AcDbEntity
  8
GAIKEI
  6
Continuous
 62
   251
100
AcDbLine
 10
-3.852391845984072
 20
16.66114392880257
 30
0.0
 11
-3.851395945983881
 21
16.66276812880255
 31
0.0
  0
LINE
  5
111
330
2
100
AcDbEntity
  8
GAIKEI
  6
Continuous
 62
   251
100
AcDbLine
 10
-3.851395945983881
 20
16.66276812880255
 30
0.0
 11
-3.849186045984083
 21
16.66500962880258
 31
0.0
  0
LINE
  5
112
330
2
100
AcDbEntity
  8
GAIKEI
  6
Continuous
 62
   251
100
AcDbLine
 10
-3.849186045984083
 20
16.66500962880258
 30
0.0
 11
-3.847096945983878
 21
16.6667930288026
 31
0.0
  0
LINE
  5
113
330
2
100
AcDbEntity
  8
GAIKEI
  6
Continuous
 62
   251
100
AcDbLine
 10
-3.847096945983878
 20
16.6667930288026
 30
0.0
 11
-3.817866345984043
 21
16.69102832880253
 31
0.0
  0
LINE
  5
114
330
2
100
AcDbEntity
  8
GAIKEI
  6
Continuous
 62
   251
100
AcDbLine
 10
-3.817866345984043
 20
16.69102832880253
 30
0.0
 11
-3.813541345983878
 21
16.69457542880258
 31
0.0
  0
LINE
  5
115
330
2
100
AcDbEntity
  8
GAIKEI
  6
Continuous
 62
   251
100
AcDbLine
 10
-3.813541345983878
 20
16.69457542880258
 30
0.0
 11
-3.786704445984071
 21
16.71679862880262
 31
0.0
  0
LINE
  5
116
330
2
100
AcDbEntity
  8
GAIKEI
  6
Continuous
 62
   251
100
AcDbLine
 10
-3.786704445984071
 20
16.71679862880262
 30
0.0
 11
-3.783082045984087
 21
16.72027072880257
 31
0.0
  0
LINE
  5
117
330
2
100
AcDbEntity
  8
GAIKEI
  6
Continuous
 62
   251
100
AcDbLine
 10
-3.783082045984087
 20
16.72027072880257
 30
0.0
 11
-3.78022304598403
 21
16.72391932880259
 31
0.0
  0
LINE
  5
118
330
2
100
AcDbEntity
  8
GAIKEI
  6
Continuous
 62
   251
100
AcDbLine
 10
-3.78022304598403
 20
16.72391932880259
 30
0.0
 11
-3.77907024598403
 21
16.72579732880251
 31
0.0
  0
LINE
  5
119
330
2
100
AcDbEntity
  8
GAIKEI
  6
Continuous
 62
   251
100
AcDbLine
 10
-3.77907024598403
 20
16.72579732880251
 30
0.0
 11
-3.778098645984073
 21
16.72770302880258
 31
0.0
  0
LINE
  5
11A
330
2
100
AcDbEntity
  8
GAIKEI
  6
Continuous
 62
   251
100
AcDbLine
 10
-3.778098645984073
 20
16.72770302880258
 30
0.0
 11
-3.776689445984061
 21
16.73157252880258
 31
0.0
  0
LINE
  5
11B
330
2
100
AcDbEntity
  8
GAIKEI
  6
Continuous
 62
   251
100
AcDbLine
 10
-3.776689445984061
 20
16.73157252880258
 30
0.0
 11
-3.775975445984045
 21
16.73549032880259
 31
0.0
  0
LINE
  5
11C
330
2
100
AcDbEntity
  8
GAIKEI
  6
Continuous
 62
   251
100
AcDbLine
 10
-3.775975445984045
 20
16.73549032880259
 30
0.0
 11
-3.775944945984065
 21
16.73941862880258
 31
0.0
  0
LINE
  5
11D
330
2
100
AcDbEntity
  8
GAIKEI
  6
Continuous
 62
   251
100
AcDbLine
 10
-3.775944945984065
 20
16.73941862880258
 30
0.0
 11
-3.776593645984064
 21
16.74331582880256
 31
0.0
  0
LINE
  5
11E
330
2
100
AcDbEntity
  8
GAIKEI
  6
Continuous
 62
   251
100
AcDbLine
 10
-3.776593645984064
 20
16.74331582880256
 30
0.0
 11
-3.777922445983847
 21
16.74713372880262
 31
0.0
  0
LINE
  5
11F
330
2
100
AcDbEntity
  8
GAIKEI
  6
Continuous
 62
   251
100
AcDbLine
 10
-3.777922445983847
 20
16.74713372880262
 30
0.0
 11
-3.779932645984047
 21
16.75081492880258
 31
0.0
  0
LINE
  5
120
330
2
100
AcDbEntity
  8
GAIKEI
  6
Continuous
 62
   251
100
AcDbLine
 10
-3.779932645984047
 20
16.75081492880258
 30
0.0
 11
-3.782622045983885
 21
16.75429392880255
 31
0.0
  0
LINE
  5
121
330
2
100
AcDbEntity
  8
GAIKEI
  6
Continuous
 62
   251
100
AcDbLine
 10
-3.782622045983885
 20
16.75429392880255
 30
0.0
 11
-3.78598044598408
 21
16.75749852880256
 31
0.0
  0
LINE
  5
122
330
2
100
AcDbEntity
  8
GAIKEI
  6
Continuous
 62
   251
100
AcDbLine
 10
-3.78598044598408
 20
16.75749852880256
 30
0.0
 11
-3.789988445983851
 21
16.76035472880255
 31
0.0
  0
LINE
  5
123
330
2
100
AcDbEntity
  8
GAIKEI
  6
Continuous
 62
   251
100
AcDbLine
 10
-3.789988445983851
 20
16.76035472880255
 30
0.0
 11
-3.793213745984076
 21
16.76213112880259
 31
0.0
  0
LINE
  5
124
330
2
100
AcDbEntity
  8
GAIKEI
  6
Continuous
 62
   251
100
AcDbLine
 10
-3.793213745984076
 20
16.76213112880259
 30
0.0
 11
-3.798252045983872
 21
16.76422102880258
 31
0.0
  0
LINE
  5
125
330
2
100
AcDbEntity
  8
GAIKEI
  6
Continuous
 62
   251
100
AcDbLine
 10
-3.798252045983872
 20
16.76422102880258
 30
0.0
 11
-3.80383764598389
 21
16.76577732880258
 31
0.0
  0
LINE
  5
126
330
2
100
AcDbEntity
  8
GAIKEI
  6
Continuous
 62
   251
100
AcDbLine
 10
-3.80383764598389
 20
16.76577732880258
 30
0.0
 11
-3.809933445983858
 21
16.76674652880263
 31
0.0
  0
LINE
  5
127
330
2
100
AcDbEntity
  8
GAIKEI
  6
Continuous
 62
   251
100
AcDbLine
 10
-3.809933445983858
 20
16.76674652880263
 30
0.0
 11
-3.816504545984059
 21
16.76707982880259
 31
0.0
  0
LINE
  5
128
330
2
100
AcDbEntity
  8
GAIKEI
  6
Continuous
 62
   251
100
AcDbLine
 10
-3.816504545984059
 20
16.76707982880259
 30
0.0
 11
-4.445441545984067
 21
16.76707982880259
 31
0.0
  0
LINE
  5
129
330
2
100
AcDbEntity
  8
GAIKEI
  6
Continuous
 62
   251
100
AcDbLine
 10
-5.696046445984052
 20
16.73765872880256
 30
0.0
 11
-5.898381265249042
 21
16.73738302305338
 31
0.0
  0
LINE
  5
12A
330
2
100
AcDbEntity
  8
GAIKEI
  6
Continuous
 62
   251
100
AcDbLine
 10
-5.898381265249042
 20
16.73738302305338
 30
0.0
 11
-5.940419745984058
 21
16.65043302880252
 31
0.0
  0
LINE
  5
12B
330
2
100
AcDbEntity
  8
GAIKEI
  6
Continuous
 62
   251
100
AcDbLine
 10
-5.940419745984058
 20
16.65043302880252
 30
0.0
 11
-5.963041545984083
 21
16.60348932880259
 31
0.0
  0
LINE
  5
12C
330
2
100
AcDbEntity
  8
GAIKEI
  6
Continuous
 62
   251
100
AcDbLine
 10
-5.621839045983847
 20
16.64784502880263
 30
0.0
 11
-5.473527645983836
 21
16.64784502880263
 31
0.0
  0
LINE
  5
12D
330
2
100
AcDbEntity
  8
GAIKEI
  6
Continuous
 62
   251
100
AcDbLine
 10
-5.459919445983871
 20
16.67611202880255
 30
0.0
 11
-5.608162045983874
 21
16.67611202880255
 31
0.0
  0
LINE
  5
12E
330
2
100
AcDbEntity
  8
GAIKEI
  6
Continuous
 62
   251
100
AcDbLine
 10
-5.884011045984038
 20
16.76640802880263
 30
0.0
 11
-5.682266145984044
 21
16.76640802880263
 31
0.0
  0
LINE
  5
12F
330
2
100
AcDbEntity
  8
GAIKEI
  6
Continuous
 62
   251
100
AcDbLine
 10
-4.620280245984076
 20
16.7673726288026
 30
0.0
 11
-5.25776114598409
 21
16.7673726288026
 31
0.0
  0
LINE
  5
130
330
2
100
AcDbEntity
  8
GAIKEI
  6
Continuous
 62
   251
100
AcDbLine
 10
-5.25776114598409
 20
16.7673726288026
 30
0.0
 11
-5.26531054598405
 21
16.76705352880253
 31
0.0
  0
LINE
  5
131
330
2
100
AcDbEntity
  8
GAIKEI
  6
Continuous
 62
   251
100
AcDbLine
 10
-5.26531054598405
 20
16.76705352880253
 30
0.0
 11
-5.272126845984075
 21
16.7661361288026
 31
0.0
  0
LINE
  5
132
330
2
100
AcDbEntity
  8
GAIKEI
  6
Continuous
 62
   251
100
AcDbLine
 10
-5.272126845984075
 20
16.7661361288026
 30
0.0
 11
-5.278246345983859
 21
16.76467572880256
 31
0.0
  0
LINE
  5
133
330
2
100
AcDbEntity
  8
GAIKEI
  6
Continuous
 62
   251
100
AcDbLine
 10
-5.278246345983859
 20
16.76467572880256
 30
0.0
 11
-5.283704345983892
 21
16.76272052880256
 31
0.0
  0
LINE
  5
134
330
2
100
AcDbEntity
  8
GAIKEI
  6
Continuous
 62
   251
100
AcDbLine
 10
-5.283704345983892
 20
16.76272052880256
 30
0.0
 11
-5.288533645984045
 21
16.76031112880258
 31
0.0
  0
LINE
  5
135
330
2
100
AcDbEntity
  8
GAIKEI
  6
Continuous
 62
   251
100
AcDbLine
 10
-5.288533645984045
 20
16.76031112880258
 30
0.0
 11
-5.292755445984084
 21
16.75748442880251
 31
0.0
  0
LINE
  5
136
330
2
100
AcDbEntity
  8
GAIKEI
  6
Continuous
 62
   251
100
AcDbLine
 10
-5.292755445984084
 20
16.75748442880251
 30
0.0
 11
-5.296384545984039
 21
16.75427552880262
 31
0.0
  0
LINE
  5
137
330
2
100
AcDbEntity
  8
GAIKEI
  6
Continuous
 62
   251
100
AcDbLine
 10
-5.296384545984039
 20
16.75427552880262
 30
0.0
 11
-5.299439145984081
 21
16.75070702880259
 31
0.0
  0
LINE
  5
138
330
2
100
AcDbEntity
  8
GAIKEI
  6
Continuous
 62
   251
100
AcDbLine
 10
-5.299439145984081
 20
16.75070702880259
 30
0.0
 11
-5.301928045983856
 21
16.74679602880258
 31
0.0
  0
LINE
  5
139
330
2
100
AcDbEntity
  8
GAIKEI
  6
Continuous
 62
   251
100
AcDbLine
 10
-5.301928045983856
 20
16.74679602880258
 30
0.0
 11
-5.302134045984075
 21
16.74640922880257
 31
0.0
  0
LINE
  5
13A
330
2
100
AcDbEntity
  8
GAIKEI
  6
Continuous
 62
   251
100
AcDbLine
 10
-5.302134045984075
 20
16.74640922880257
 30
0.0
 11
-5.389708445984069
 21
16.56378462880264
 31
0.0
  0
LINE
  5
13B
330
2
100
AcDbEntity
  8
GAIKEI
  6
Continuous
 62
   251
100
AcDbLine
 10
-5.389708445984069
 20
16.56378462880264
 30
0.0
 11
-5.234334445983847
 21
16.56349172880254
 31
0.0
  0
LINE
  5
13C
330
2
100
AcDbEntity
  8
GAIKEI
  6
Continuous
 62
   251
100
AcDbLine
 10
-5.234334445983847
 20
16.56349172880254
 30
0.0
 11
-5.150377445984076
 21
16.73755532880261
 31
0.0
  0
LINE
  5
13D
330
2
100
AcDbEntity
  8
GAIKEI
  6
Continuous
 62
   251
100
AcDbLine
 10
-5.150377445984076
 20
16.73755532880261
 30
0.0
 11
-4.817684345984048
 21
16.73765872880256
 31
0.0
  0
LINE
  5
13E
330
2
100
AcDbEntity
  8
GAIKEI
  6
Continuous
 62
   251
100
AcDbLine
 10
-4.817684345984048
 20
16.73765872880256
 30
0.0
 11
-4.910426445984057
 21
16.63611442880255
 31
0.0
  0
LINE
  5
13F
330
2
100
AcDbEntity
  8
GAIKEI
  6
Continuous
 62
   251
100
AcDbLine
 10
-4.910426445984057
 20
16.63611442880255
 30
0.0
 11
-5.089743745984037
 21
16.63611442880255
 31
0.0
  0
LINE
  5
140
330
2
100
AcDbEntity
  8
GAIKEI
  6
Continuous
 62
   251
100
AcDbLine
 10
-5.089743745984037
 20
16.63611442880255
 30
0.0
 11
-5.059599145984066
 21
16.60845032880252
 31
0.0
  0
LINE
  5
141
330
2
100
AcDbEntity
  8
GAIKEI
  6
Continuous
 62
   251
100
AcDbLine
 10
-5.059599145984066
 20
16.60845032880252
 30
0.0
 11
-4.952904445983847
 21
16.60845032880252
 31
0.0
  0
LINE
  5
142
330
2
100
AcDbEntity
  8
GAIKEI
  6
Continuous
 62
   251
100
AcDbLine
 10
-4.952904445983847
 20
16.60845032880252
 30
0.0
 11
-4.953042245984079
 21
16.60834692880257
 31
0.0
  0
LINE
  5
143
330
2
100
AcDbEntity
  8
GAIKEI
  6
Continuous
 62
   251
100
AcDbLine
 10
-4.953042245984079
 20
16.60834692880257
 30
0.0
 11
-4.716880845983837
 21
16.60834692880257
 31
0.0
  0
LINE
  5
144
330
2
100
AcDbEntity
  8
GAIKEI
  6
Continuous
 62
   251
100
AcDbLine
 10
-4.716880845983837
 20
16.60834692880257
 30
0.0
 11
-4.711957745983852
 21
16.60843902880253
 31
0.0
  0
LINE
  5
145
330
2
100
AcDbEntity
  8
GAIKEI
  6
Continuous
 62
   251
100
AcDbLine
 10
-4.711957745983852
 20
16.60843902880253
 30
0.0
 11
-4.705372245984051
 21
16.6089641288026
 31
0.0
  0
LINE
  5
146
330
2
100
AcDbEntity
  8
GAIKEI
  6
Continuous
 62
   251
100
AcDbLine
 10
-4.705372245984051
 20
16.6089641288026
 30
0.0
 11
-4.699495545984063
 21
16.6099804288026
 31
0.0
  0
LINE
  5
147
330
2
100
AcDbEntity
  8
GAIKEI
  6
Continuous
 62
   251
100
AcDbLine
 10
-4.699495545984063
 20
16.6099804288026
 30
0.0
 11
-4.694082545984088
 21
16.61151122880255
 31
0.0
  0
LINE
  5
148
330
2
100
AcDbEntity
  8
GAIKEI
  6
Continuous
 62
   251
100
AcDbLine
 10
-4.694082545984088
 20
16.61151122880255
 30
0.0
 11
-4.688998545984077
 21
16.61358662880263
 31
0.0
  0
LINE
  5
149
330
2
100
AcDbEntity
  8
GAIKEI
  6
Continuous
 62
   251
100
AcDbLine
 10
-4.688998545984077
 20
16.61358662880263
 30
0.0
 11
-4.684157445983828
 21
16.61624992880263
 31
0.0
  0
LINE
  5
14A
330
2
100
AcDbEntity
  8
GAIKEI
  6
Continuous
 62
   251
100
AcDbLine
 10
-4.684157445983828
 20
16.61624992880263
 30
0.0
 11
-4.679500645984035
 21
16.61955992880257
 31
0.0
  0
LINE
  5
14B
330
2
100
AcDbEntity
  8
GAIKEI
  6
Continuous
 62
   251
100
AcDbLine
 10
-4.679500645984035
 20
16.61955992880257
 30
0.0
 11
-4.67498844598407
 21
16.62359152880253
 31
0.0
  0
LINE
  5
14C
330
2
100
AcDbEntity
  8
GAIKEI
  6
Continuous
 62
   251
100
AcDbLine
 10
-4.67498844598407
 20
16.62359152880253
 30
0.0
 11
-4.665048645983858
 21
16.63400562880258
 31
0.0
  0
LINE
  5
14D
330
2
100
AcDbEntity
  8
GAIKEI
  6
Continuous
 62
   251
100
AcDbLine
 10
-4.665048645983858
 20
16.63400562880258
 30
0.0
 11
-4.636201345983863
 21
16.66513472880263
 31
0.0
  0
LINE
  5
14E
330
2
100
AcDbEntity
  8
GAIKEI
  6
Continuous
 62
   251
100
AcDbLine
 10
-4.636201345983863
 20
16.66513472880263
 30
0.0
 11
-4.590788645983877
 21
16.71470652880259
 31
0.0
  0
LINE
  5
14F
330
2
100
AcDbEntity
  8
GAIKEI
  6
Continuous
 62
   251
100
AcDbLine
 10
-4.590788645983877
 20
16.71470652880259
 30
0.0
 11
-4.587827445984089
 21
16.71795272880257
 31
0.0
  0
LINE
  5
150
330
2
100
AcDbEntity
  8
GAIKEI
  6
Continuous
 62
   251
100
AcDbLine
 10
-4.587827445984089
 20
16.71795272880257
 30
0.0
 11
-4.584593845983874
 21
16.72164752880258
 31
0.0
  0
LINE
  5
151
330
2
100
AcDbEntity
  8
GAIKEI
  6
Continuous
 62
   251
100
AcDbLine
 10
-4.584593845983874
 20
16.72164752880258
 30
0.0
 11
-4.582129145984026
 21
16.72542632880254
 31
0.0
  0
LINE
  5
152
330
2
100
AcDbEntity
  8
GAIKEI
  6
Continuous
 62
   251
100
AcDbLine
 10
-4.582129145984026
 20
16.72542632880254
 30
0.0
 11
-4.581171145984058
 21
16.72734042880256
 31
0.0
  0
LINE
  5
153
330
2
100
AcDbEntity
  8
GAIKEI
  6
Continuous
 62
   251
100
AcDbLine
 10
-4.581171145984058
 20
16.72734042880256
 30
0.0
 11
-4.580391445984048
 21
16.72926442880259
 31
0.0
  0
LINE
  5
154
330
2
100
AcDbEntity
  8
GAIKEI
  6
Continuous
 62
   251
100
AcDbLine
 10
-4.580391445984048
 20
16.72926442880259
 30
0.0
 11
-4.579353245984066
 21
16.73312382880249
 31
0.0
  0
LINE
  5
155
330
2
100
AcDbEntity
  8
GAIKEI
  6
Continuous
 62
   251
100
AcDbLine
 10
-4.579353245984066
 20
16.73312382880249
 30
0.0
 11
-4.578987545983864
 21
16.7369849288026
 31
0.0
  0
LINE
  5
156
330
2
100
AcDbEntity
  8
GAIKEI
  6
Continuous
 62
   251
100
AcDbLine
 10
-4.578987545983864
 20
16.7369849288026
 30
0.0
 11
-4.579280445984068
 21
16.74082762880255
 31
0.0
  0
LINE
  5
157
330
2
100
AcDbEntity
  8
GAIKEI
  6
Continuous
 62
   251
100
AcDbLine
 10
-4.579280445984068
 20
16.74082762880255
 30
0.0
 11
-4.580230245984068
 21
16.74462562880257
 31
0.0
  0
LINE
  5
158
330
2
100
AcDbEntity
  8
GAIKEI
  6
Continuous
 62
   251
100
AcDbLine
 10
-4.580230245984068
 20
16.74462562880257
 30
0.0
 11
-4.581842645984067
 21
16.74834242880263
 31
0.0
  0
LINE
  5
159
330
2
100
AcDbEntity
  8
GAIKEI
  6
Continuous
 62
   251
100
AcDbLine
 10
-4.581842645984067
 20
16.74834242880263
 30
0.0
 11
-4.584124445984059
 21
16.75192772880257
 31
0.0
  0
LINE
  5
15A
330
2
100
AcDbEntity
  8
GAIKEI
  6
Continuous
 62
   251
100
AcDbLine
 10
-4.584124445984059
 20
16.75192772880257
 30
0.0
 11
-4.587076245983894
 21
16.75531732880256
 31
0.0
  0
LINE
  5
15B
330
2
100
AcDbEntity
  8
GAIKEI
  6
Continuous
 62
   251
100
AcDbLine
 10
-4.587076245983894
 20
16.75531732880256
 30
0.0
 11
-4.590685445984036
 21
16.75843602880258
 31
0.0
  0
LINE
  5
15C
330
2
100
AcDbEntity
  8
GAIKEI
  6
Continuous
 62
   251
100
AcDbLine
 10
-4.590685445984036
 20
16.75843602880258
 30
0.0
 11
-4.594922845983887
 21
16.76120332880259
 31
0.0
  0
LINE
  5
15D
330
2
100
AcDbEntity
  8
GAIKEI
  6
Continuous
 62
   251
100
AcDbLine
 10
-4.594922845983887
 20
16.76120332880259
 30
0.0
 11
-4.597366645984038
 21
16.7624800288026
 31
0.0
  0
LINE
  5
15E
330
2
100
AcDbEntity
  8
GAIKEI
  6
Continuous
 62
   251
100
AcDbLine
 10
-4.597366645984038
 20
16.7624800288026
 30
0.0
 11
-4.602459145984084
 21
16.7645591288026
 31
0.0
  0
LINE
  5
15F
330
2
100
AcDbEntity
  8
GAIKEI
  6
Continuous
 62
   251
100
AcDbLine
 10
-4.602459145984084
 20
16.7645591288026
 30
0.0
 11
-4.608017945984045
 21
16.76609782880257
 31
0.0
  0
LINE
  5
160
330
2
100
AcDbEntity
  8
GAIKEI
  6
Continuous
 62
   251
100
AcDbLine
 10
-4.608017945984045
 20
16.76609782880257
 30
0.0
 11
-4.613978445983889
 21
16.7670485288026
 31
0.0
  0
LINE
  5
161
330
2
100
AcDbEntity
  8
GAIKEI
  6
Continuous
 62
   251
100
AcDbLine
 10
-4.613978445983889
 20
16.7670485288026
 30
0.0
 11
-4.620280245984076
 21
16.7673726288026
 31
0.0
  0
LINE
  5
162
330
2
100
AcDbEntity
  8
GAIKEI
  6
Continuous
 62
   251
100
AcDbLine
 10
-5.664179345984052
 20
16.80466582880257
 30
0.0
 11
-5.866062045984051
 21
16.80466582880257
 31
0.0
  0
LINE
  5
163
330
2
100
AcDbEntity
  8
GAIKEI
  6
Continuous
 62
     1
100
AcDbLine
 10
53.45480079687002
 20
14.34500687768258
 30
0.0
 11
52.91536730234998
 21
13.00986212710256
 31
0.0
  0
LINE
  5
164
330
2
100
AcDbEntity
  8
GAIKEI
  6
Continuous
 62
     1
100
AcDbLine
 10
53.28790770304999
 20
14.4124360645024
 30
0.0
 11
52.79064645794995
 21
13.1816712940024
 31
0.0
  0
LINE
  5
165
330
2
100
AcDbEntity
  8
GAIKEI
  6
Continuous
 62
     1
100
AcDbLine
 10
51.63392100662997
 20
14.95614412880257
 30
0.0
 11
51.63392100662997
 21
16.25614412880259
 31
0.0
  0
LINE
  5
166
330
2
100
AcDbEntity
  8
GAIKEI
  6
Continuous
 62
     1
100
AcDbLine
 10
51.51392100662997
 20
11.43364412880237
 30
0.0
 11
51.51392100662997
 21
10.49864412880259
 31
0.0
  0
LINE
  5
167
330
2
100
AcDbEntity
  8
GAIKEI
  6
Continuous
 62
     1
100
AcDbLine
 10
51.22336372572994
 20
16.21142276926258
 30
0.0
 11
51.22336372572994
 21
15.00086548836259
 31
0.0
  0
LINE
  5
168
330
2
100
AcDbEntity
  8
GAIKEI
  6
Continuous
 62
     1
100
AcDbLine
 10
50.96392100662995
 20
11.02856232114237
 30
0.0
 11
50.96392100662995
 21
10.55372593646257
 31
0.0
  0
LINE
  5
169
330
2
100
AcDbEntity
  8
GAIKEI
  6
Continuous
 62
     1
100
AcDbLine
 10
50.92211760776996
 20
16.15614412880256
 30
0.0
 11
50.92211760776996
 21
15.0561441288026
 31
0.0
  0
LINE
  5
16A
330
2
100
AcDbEntity
  8
GAIKEI
  6
Continuous
 62
     1
100
AcDbLine
 10
50.84592100662996
 20
11.03014412880259
 30
0.0
 11
50.84592100662996
 21
11.18614412880259
 31
0.0
  0
LINE
  5
16B
330
2
100
AcDbEntity
  8
GAIKEI
  6
Continuous
 62
     1
100
AcDbLine
 10
50.84592100662996
 20
10.39614412880235
 30
0.0
 11
50.84592100662996
 21
10.55214412880258
 31
0.0
  0
LINE
  5
16C
330
2
100
AcDbEntity
  8
GAIKEI
  6
Continuous
 62
     7
100
AcDbLine
 10
21.26762481867002
 20
9.147919712222574
 30
0.0
 11
21.06361809616999
 21
9.349193355022407
 31
0.0
  0
LINE
  5
16D
330
2
100
AcDbEntity
  8
GAIKEI
  6
Continuous
 62
     1
100
AcDbLine
 10
50.96392100662995
 20
10.55364412880237
 30
0.0
 11
50.96095154576994
 21
10.55067466792258
 31
0.0
  0
LINE
  5
16E
330
2
100
AcDbEntity
  8
GAIKEI
  6
Continuous
 62
     1
100
AcDbLine
 10
50.63392100662998
 20
14.4571187715224
 30
0.0
 11
50.63392100662998
 21
13.3061441288026
 31
0.0
  0
LINE
  5
16F
330
2
100
AcDbEntity
  8
GAIKEI
  6
Continuous
 62
     1
100
AcDbLine
 10
50.63392100662998
 20
16.50614412880259
 30
0.0
 11
50.63392100662998
 21
14.67610838836236
 31
0.0
  0
LINE
  5
170
330
2
100
AcDbEntity
  8
GAIKEI
  6
Continuous
 62
     1
100
AcDbLine
 10
50.60693550056999
 20
16.92365627574236
 30
0.0
 11
50.60693550056999
 21
17.52863198186236
 31
0.0
  0
LINE
  5
171
330
2
100
AcDbEntity
  8
GAIKEI
  6
Continuous
 62
     7
100
AcDbLine
 10
50.46392100662996
 20
17.77614412880257
 30
0.0
 11
50.46392100662996
 21
9.3061441288026
 31
0.0
  0
LINE
  5
172
330
2
100
AcDbEntity
  8
GAIKEI
  6
Continuous
 62
     1
100
AcDbLine
 10
50.38392100662997
 20
17.6761441288026
 30
0.0
 11
50.38392100662997
 21
9.3061441288026
 31
0.0
  0
LINE
  5
173
330
2
100
AcDbEntity
  8
GAIKEI
  6
Continuous
 62
     1
100
AcDbLine
 10
50.38392100662997
 20
17.77614412880257
 30
0.0
 11
50.38392100662997
 21
17.6761441288026
 31
0.0
  0
LINE
  5
174
330
2
100
AcDbEntity
  8
GAIKEI
  6
Continuous
 62
     1
100
AcDbLine
 10
50.35392100663
 20
9.3061441288026
 30
0.0
 11
50.35392100663
 21
9.206144128802577
 31
0.0
  0
LINE
  5
175
330
2
100
AcDbEntity
  8
GAIKEI
  6
Continuous
 62
     1
100
AcDbLine
 10
50.33392100662997
 20
9.3061441288026
 30
0.0
 11
50.33392100662997
 21
9.186144128802595
 31
0.0
  0
LINE
  5
176
330
2
100
AcDbEntity
  8
GAIKEI
  6
Continuous
 62
     1
100
AcDbLine
 10
50.28392100662995
 20
17.85614412880261
 30
0.0
 11
50.28392100662995
 21
17.6761441288026
 31
0.0
  0
LINE
  5
177
330
2
100
AcDbEntity
  8
GAIKEI
  6
Continuous
 62
     7
100
AcDbLine
 10
50.23392100662994
 20
9.186144128802595
 30
0.0
 11
50.23392100662994
 21
9.3061441288026
 31
0.0
  0
LINE
  5
178
330
2
100
AcDbEntity
  8
GAIKEI
  6
Continuous
 62
     1
100
AcDbLine
 10
50.13392100662997
 20
9.3061441288026
 30
0.0
 11
50.13392100662997
 21
9.206144128802577
 31
0.0
  0
LINE
  5
179
330
2
100
AcDbEntity
  8
GAIKEI
  6
Continuous
 62
     1
100
AcDbLine
 10
48.73392100662994
 20
9.186144128802595
 30
0.0
 11
48.73392100662994
 21
9.086144128802573
 31
0.0
  0
LINE
  5
17A
330
2
100
AcDbEntity
  8
GAIKEI
  6
Continuous
 62
     1
100
AcDbLine
 10
48.13392100662998
 20
10.77614412880257
 30
0.0
 11
48.13392100662998
 21
10.6761441288026
 31
0.0
  0
LINE
  5
17B
330
2
100
AcDbEntity
  8
GAIKEI
  6
Continuous
 62
     1
100
AcDbLine
 10
47.98392100662994
 20
10.6761441288026
 30
0.0
 11
47.98392100662994
 21
10.52614412880257
 31
0.0
  0
LINE
  5
17C
330
2
100
AcDbEntity
  8
GAIKEI
  6
Continuous
 62
     1
100
AcDbLine
 10
47.98392100662994
 20
10.9261441288026
 30
0.0
 11
47.98392100662994
 21
10.77614412880257
 31
0.0
  0
LINE
  5
17D
330
2
100
AcDbEntity
  8
GAIKEI
  6
Continuous
 62
     1
100
AcDbLine
 10
47.88392100662997
 20
10.77614412880257
 30
0.0
 11
47.88392100662997
 21
10.9261441288026
 31
0.0
  0
LINE
  5
17E
330
2
100
AcDbEntity
  8
GAIKEI
  6
Continuous
 62
     1
100
AcDbLine
 10
47.88392100662997
 20
10.52614412880257
 30
0.0
 11
47.88392100662997
 21
10.6761441288026
 31
0.0
  0
LINE
  5
17F
330
2
100
AcDbEntity
  8
GAIKEI
  6
Continuous
 62
     1
100
AcDbLine
 10
47.73392100662994
 20
10.6761441288026
 30
0.0
 11
47.73392100662994
 21
10.77614412880257
 31
0.0
  0
LINE
  5
180
330
2
100
AcDbEntity
  8
GAIKEI
  6
Continuous
 62
     7
100
AcDbLine
 10
46.36392100662999
 20
9.206144128802577
 30
0.0
 11
46.27186335780999
 21
8.147481167162368
 31
0.0
  0
LINE
  5
181
330
2
100
AcDbEntity
  8
GAIKEI
  6
Continuous
 62
     1
100
AcDbLine
 10
51.22336372572994
 20
16.21142276926258
 30
0.0
 11
50.94447828752993
 21
16.07198005016238
 31
0.0
  0
LINE
  5
182
330
2
100
AcDbEntity
  8
GAIKEI
  6
Continuous
 62
     1
100
AcDbLine
 10
51.22336372572994
 20
16.3008654883626
 30
0.0
 11
50.94447828752993
 21
16.16142276926257
 31
0.0
  0
LINE
  5
183
330
2
100
AcDbEntity
  8
GAIKEI
  6
Continuous
 62
     7
100
AcDbLine
 10
44.16392100662995
 20
9.206144128802577
 30
0.0
 11
44.25597865546996
 21
8.147481167162368
 31
0.0
  0
LINE
  5
184
330
2
100
AcDbEntity
  8
GAIKEI
  6
Continuous
 62
     7
100
AcDbLine
 10
21.26762481867002
 20
9.147919712222574
 30
0.0
 11
22.46392100662996
 21
9.106144128802611
 31
0.0
  0
LINE
  5
185
330
2
100
AcDbEntity
  8
GAIKEI
  6
Continuous
 62
     7
100
AcDbLine
 10
44.35561026316998
 20
8.0561441288026
 30
0.0
 11
46.17223929898995
 21
8.0561441288026
 31
0.0
  0
LINE
  5
186
330
2
100
AcDbEntity
  8
GAIKEI
  6
Continuous
 62
     7
100
AcDbLine
 10
23.35561026316998
 20
8.0561441288026
 30
0.0
 11
25.17223929899001
 21
8.0561441288026
 31
0.0
  0
LINE
  5
187
330
2
100
AcDbEntity
  8
GAIKEI
  6
Continuous
 62
     1
100
AcDbLine
 10
50.23392100662994
 20
9.086144128802573
 30
0.0
 11
48.73392100662994
 21
9.086144128802573
 31
0.0
  0
LINE
  5
188
330
2
100
AcDbEntity
  8
GAIKEI
  6
Continuous
 62
     7
100
AcDbLine
 10
22.46392100662996
 20
9.106144128802611
 30
0.0
 11
25.26392100662997
 21
9.106144128802611
 31
0.0
  0
LINE
  5
189
330
2
100
AcDbEntity
  8
GAIKEI
  6
Continuous
 62
     1
100
AcDbLine
 10
48.73392100662994
 20
9.186144128802595
 30
0.0
 11
50.23392100662994
 21
9.186144128802595
 31
0.0
  0
LINE
  5
18A
330
2
100
AcDbEntity
  8
GAIKEI
  6
Continuous
 62
     7
100
AcDbLine
 10
22.46392100662996
 20
9.206144128802577
 30
0.0
 11
50.23392100662994
 21
9.206144128802577
 31
0.0
  0
LINE
  5
18B
330
2
100
AcDbEntity
  8
GAIKEI
  6
Continuous
 62
     1
100
AcDbLine
 10
50.35392100663
 20
9.206144128802577
 30
0.0
 11
50.33392100662997
 21
9.206144128802577
 31
0.0
  0
LINE
  5
18C
330
2
100
AcDbEntity
  8
GAIKEI
  6
Continuous
 62
     1
100
AcDbLine
 10
22.69392100662998
 20
9.3061441288026
 30
0.0
 11
22.46392100662996
 21
9.3061441288026
 31
0.0
  0
LINE
  5
18D
330
2
100
AcDbEntity
  8
GAIKEI
  6
Continuous
 62
     7
100
AcDbLine
 10
50.46392100662996
 20
9.3061441288026
 30
0.0
 11
50.13392100662997
 21
9.3061441288026
 31
0.0
  0
LINE
  5
18E
330
2
100
AcDbEntity
  8
GAIKEI
  6
Continuous
 62
     1
100
AcDbLine
 10
21.02275520328993
 20
9.44581860040239
 30
0.0
 11
21.05282237423001
 21
9.44581860040239
 31
0.0
  0
LINE
  5
18F
330
2
100
AcDbEntity
  8
GAIKEI
  6
Continuous
 62
     1
100
AcDbLine
 10
50.50653615512999
 20
9.506144128802588
 30
0.0
 11
50.50544080419001
 21
9.506144128802588
 31
0.0
  0
LINE
  5
190
330
2
100
AcDbEntity
  8
GAIKEI
  6
Continuous
 62
     1
100
AcDbLine
 10
50.52176218630996
 20
9.656144128802566
 30
0.0
 11
50.50544080419001
 21
9.656144128802566
 31
0.0
  0
LINE
  5
191
330
2
100
AcDbEntity
  8
GAIKEI
  6
Continuous
 62
     1
100
AcDbLine
 10
50.46392100662996
 20
9.40251765506241
 30
0.0
 11
50.47693550056999
 21
9.403656275742605
 31
0.0
  0
LINE
  5
192
330
2
100
AcDbEntity
  8
GAIKEI
  6
Continuous
 62
     1
100
AcDbLine
 10
50.46392100662996
 20
10.0911441288024
 30
0.0
 11
50.60693550056999
 21
10.10365627574259
 31
0.0
  0
LINE
  5
193
330
2
100
AcDbEntity
  8
GAIKEI
  6
Continuous
 62
     1
100
AcDbLine
 10
20.99344632938994
 20
9.745818600402401
 30
0.0
 11
21.02369118025001
 21
9.745818600402401
 31
0.0
  0
LINE
  5
194
330
2
100
AcDbEntity
  8
GAIKEI
  6
Continuous
 62
     1
100
AcDbLine
 10
50.50544080419001
 20
9.756144128802588
 30
0.0
 11
50.52176218630996
 21
9.756144128802588
 31
0.0
  0
LINE
  5
195
330
2
100
AcDbEntity
  8
GAIKEI
  6
Continuous
 62
     1
100
AcDbLine
 10
50.50544080419001
 20
9.906144128802566
 30
0.0
 11
50.50653615512999
 21
9.906144128802566
 31
0.0
  0
LINE
  5
196
330
2
100
AcDbEntity
  8
GAIKEI
  6
Continuous
 62
     1
100
AcDbLine
 10
50.63653615512999
 20
10.20614412880258
 30
0.0
 11
50.63544080418996
 21
10.20614412880258
 31
0.0
  0
LINE
  5
197
330
2
100
AcDbEntity
  8
GAIKEI
  6
Continuous
 62
     1
100
AcDbLine
 10
50.65176218631001
 20
10.35614412880261
 30
0.0
 11
50.63544080418996
 21
10.35614412880261
 31
0.0
  0
LINE
  5
198
330
2
100
AcDbEntity
  8
GAIKEI
  6
Continuous
 62
     1
100
AcDbLine
 10
50.84592100662996
 20
10.39614412880235
 30
0.0
 11
50.63649019346996
 21
10.39614412880235
 31
0.0
  0
LINE
  5
199
330
2
100
AcDbEntity
  8
GAIKEI
  6
Continuous
 62
     1
100
AcDbLine
 10
50.63544080418996
 20
10.45614412880258
 30
0.0
 11
50.65176218631001
 21
10.45614412880258
 31
0.0
  0
LINE
  5
19A
330
2
100
AcDbEntity
  8
GAIKEI
  6
Continuous
 62
     1
100
AcDbLine
 10
50.65066612134995
 20
10.47707739722238
 30
0.0
 11
50.84592100662996
 21
10.47707739722238
 31
0.0
  0
LINE
  5
19B
330
2
100
AcDbEntity
  8
GAIKEI
  6
Continuous
 62
     1
100
AcDbLine
 10
20.83752309906993
 20
10.49614412880237
 30
0.0
 11
20.86874953769001
 21
10.49614412880237
 31
0.0
  0
LINE
  5
19C
330
2
100
AcDbEntity
  8
GAIKEI
  6
Continuous
 62
     1
100
AcDbLine
 10
51.51392100662997
 20
10.49864412880259
 30
0.0
 11
50.84592100662996
 21
10.49864412880259
 31
0.0
  0
LINE
  5
19D
330
2
100
AcDbEntity
  8
GAIKEI
  6
Continuous
 62
     1
100
AcDbLine
 10
26.71392100662996
 20
10.52614412880257
 30
0.0
 11
26.61392100662999
 21
10.52614412880257
 31
0.0
  0
LINE
  5
19E
330
2
100
AcDbEntity
  8
GAIKEI
  6
Continuous
 62
     1
100
AcDbLine
 10
47.98392100662994
 20
10.52614412880257
 30
0.0
 11
47.88392100662997
 21
10.52614412880257
 31
0.0
  0
LINE
  5
19F
330
2
100
AcDbEntity
  8
GAIKEI
  6
Continuous
 62
     1
100
AcDbLine
 10
50.96242893148996
 20
10.55214412880258
 30
0.0
 11
50.64359894044997
 21
10.55214412880258
 31
0.0
  0
LINE
  5
1A0
330
2
100
AcDbEntity
  8
GAIKEI
  6
Continuous
 62
     1
100
AcDbLine
 10
50.63544080418996
 20
10.60614412880261
 30
0.0
 11
50.63653615512999
 21
10.60614412880261
 31
0.0
  0
LINE
  5
1A1
330
2
100
AcDbEntity
  8
GAIKEI
  6
Continuous
 62
     1
100
AcDbLine
 10
26.61392100662999
 20
10.6761441288026
 30
0.0
 11
26.46392100662996
 21
10.6761441288026
 31
0.0
  0
LINE
  5
1A2
330
2
100
AcDbEntity
  8
GAIKEI
  6
Continuous
 62
     1
100
AcDbLine
 10
26.86392100662999
 20
10.6761441288026
 30
0.0
 11
26.71392100662996
 21
10.6761441288026
 31
0.0
  0
LINE
  5
1A3
330
2
100
AcDbEntity
  8
GAIKEI
  6
Continuous
 62
     1
100
AcDbLine
 10
47.88392100662997
 20
10.6761441288026
 30
0.0
 11
47.73392100662994
 21
10.6761441288026
 31
0.0
  0
LINE
  5
1A4
330
2
100
AcDbEntity
  8
GAIKEI
  6
Continuous
 62
     1
100
AcDbLine
 10
48.13392100662998
 20
10.6761441288026
 30
0.0
 11
47.98392100662994
 21
10.6761441288026
 31
0.0
  0
LINE
  5
1A5
330
2
100
AcDbEntity
  8
GAIKEI
  6
Continuous
 62
     1
100
AcDbLine
 10
50.50544080419001
 20
10.72614412880261
 30
0.0
 11
50.50653615512999
 21
10.72614412880261
 31
0.0
  0
LINE
  5
1A6
330
2
100
AcDbEntity
  8
GAIKEI
  6
Continuous
 62
     1
100
AcDbLine
 10
20.76477560552996
 20
10.72614412880261
 30
0.0
 11
20.79648207229002
 21
10.72614412880261
 31
0.0
  0
LINE
  5
1A7
330
2
100
AcDbEntity
  8
GAIKEI
  6
Continuous
 62
     1
100
AcDbLine
 10
47.98392100662994
 20
10.77614412880257
 30
0.0
 11
48.13392100662998
 21
10.77614412880257
 31
0.0
  0
LINE
  5
1A8
330
2
100
AcDbEntity
  8
GAIKEI
  6
Continuous
 62
     1
100
AcDbLine
 10
47.73392100662994
 20
10.77614412880257
 30
0.0
 11
47.88392100662997
 21
10.77614412880257
 31
0.0
  0
LINE
  5
1A9
330
2
100
AcDbEntity
  8
GAIKEI
  6
Continuous
 62
     1
100
AcDbLine
 10
26.71392100662996
 20
10.77614412880257
 30
0.0
 11
26.86392100662999
 21
10.77614412880257
 31
0.0
  0
LINE
  5
1AA
330
2
100
AcDbEntity
  8
GAIKEI
  6
Continuous
 62
     1
100
AcDbLine
 10
26.46392100662996
 20
10.77614412880257
 30
0.0
 11
26.61392100662999
 21
10.77614412880257
 31
0.0
  0
LINE
  5
1AB
330
2
100
AcDbEntity
  8
GAIKEI
  6
Continuous
 62
     1
100
AcDbLine
 10
50.92544757796997
 20
10.79114412880239
 30
0.0
 11
50.49317266889
 21
10.79114412880239
 31
0.0
  0
LINE
  5
1AC
330
2
100
AcDbEntity
  8
GAIKEI
  6
Continuous
 62
     1
100
AcDbLine
 10
47.88392100662997
 20
10.9261441288026
 30
0.0
 11
47.98392100662994
 21
10.9261441288026
 31
0.0
  0
LINE
  5
1AD
330
2
100
AcDbEntity
  8
GAIKEI
  6
Continuous
 62
     1
100
AcDbLine
 10
26.61392100662999
 20
10.9261441288026
 30
0.0
 11
26.71392100662996
 21
10.9261441288026
 31
0.0
  0
LINE
  5
1AE
330
2
100
AcDbEntity
  8
GAIKEI
  6
Continuous
 62
     1
100
AcDbLine
 10
50.46392100662996
 20
11.03014412880259
 30
0.0
 11
50.96242893148996
 21
11.03014412880259
 31
0.0
  0
LINE
  5
1AF
330
2
100
AcDbEntity
  8
GAIKEI
  6
Continuous
 62
     1
100
AcDbLine
 10
50.46392100662996
 20
11.18614412880259
 30
0.0
 11
50.84592100662996
 21
11.18614412880259
 31
0.0
  0
LINE
  5
1B0
330
2
100
AcDbEntity
  8
GAIKEI
  6
Continuous
 62
     1
100
AcDbLine
 10
50.46392100662996
 20
11.86251765506262
 30
0.0
 11
50.47693550056999
 21
11.86365627574241
 31
0.0
  0
LINE
  5
1B1
330
2
100
AcDbEntity
  8
GAIKEI
  6
Continuous
 62
     1
100
AcDbLine
 10
50.46392100662996
 20
12.20251765506236
 30
0.0
 11
50.47693550056999
 21
12.20365627574262
 31
0.0
  0
LINE
  5
1B2
330
2
100
AcDbEntity
  8
GAIKEI
  6
Continuous
 62
     1
100
AcDbLine
 10
50.46392100662996
 20
10.0097706025424
 30
0.0
 11
50.47693550056999
 21
10.00863198186238
 31
0.0
  0
LINE
  5
1B3
330
2
100
AcDbEntity
  8
GAIKEI
  6
Continuous
 62
     1
100
AcDbLine
 10
50.46392100662996
 20
10.72114412880239
 30
0.0
 11
50.60693550056999
 21
10.70863198186237
 31
0.0
  0
LINE
  5
1B4
330
2
100
AcDbEntity
  8
GAIKEI
  6
Continuous
 62
     1
100
AcDbLine
 10
50.46392100662996
 20
10.82977060254257
 30
0.0
 11
50.47693550056999
 21
10.82863198186237
 31
0.0
  0
LINE
  5
1B5
330
2
100
AcDbEntity
  8
GAIKEI
  6
Continuous
 62
     1
100
AcDbLine
 10
20.42750282874994
 20
11.88487626434238
 30
0.0
 11
20.51490793078995
 21
11.8818240109224
 31
0.0
  0
LINE
  5
1B6
330
2
100
AcDbEntity
  8
GAIKEI
  6
Continuous
 62
     1
100
AcDbLine
 10
24.11392100662999
 20
11.3061441288026
 30
0.0
 11
24.01392100662997
 21
11.3061441288026
 31
0.0
  0
LINE
  5
1B7
330
2
100
AcDbEntity
  8
GAIKEI
  6
Continuous
 62
     1
100
AcDbLine
 10
51.51392100662997
 20
11.43364412880237
 30
0.0
 11
50.46392100662996
 21
11.43364412880237
 31
0.0
  0
LINE
  5
1B8
330
2
100
AcDbEntity
  8
GAIKEI
  6
Continuous
 62
     1
100
AcDbLine
 10
50.50544080419001
 20
11.44614412880236
 30
0.0
 11
50.52176218630996
 21
11.44614412880236
 31
0.0
  0
LINE
  5
1B9
330
2
100
AcDbEntity
  8
GAIKEI
  6
Continuous
 62
     1
100
AcDbLine
 10
24.01392100662997
 20
11.45614412880258
 30
0.0
 11
23.86392100663
 21
11.45614412880258
 31
0.0
  0
LINE
  5
1BA
330
2
100
AcDbEntity
  8
GAIKEI
  6
Continuous
 62
     1
100
AcDbLine
 10
24.26392100662997
 20
11.45614412880258
 30
0.0
 11
24.11392100662999
 21
11.45614412880258
 31
0.0
  0
LINE
  5
1BB
330
2
100
AcDbEntity
  8
GAIKEI
  6
Continuous
 62
     1
100
AcDbLine
 10
50.50653615512999
 20
11.4661441288024
 30
0.0
 11
50.50544080419001
 21
11.4661441288024
 31
0.0
  0
LINE
  5
1BC
330
2
100
AcDbEntity
  8
GAIKEI
  6
Continuous
 62
     1
100
AcDbLine
 10
24.11392100662999
 20
11.5561441288026
 30
0.0
 11
24.26392100662997
 21
11.5561441288026
 31
0.0
  0
LINE
  5
1BD
330
2
100
AcDbEntity
  8
GAIKEI
  6
Continuous
 62
     1
100
AcDbLine
 10
23.86392100663
 20
11.5561441288026
 30
0.0
 11
24.01392100662997
 21
11.5561441288026
 31
0.0
  0
LINE
  5
1BE
330
2
100
AcDbEntity
  8
GAIKEI
  6
Continuous
 62
     1
100
AcDbLine
 10
50.52176218630996
 20
11.61614412880237
 30
0.0
 11
50.50544080419001
 21
11.61614412880237
 31
0.0
  0
LINE
  5
1BF
330
2
100
AcDbEntity
  8
GAIKEI
  6
Continuous
 62
     1
100
AcDbLine
 10
24.01392100662997
 20
11.70614412880258
 30
0.0
 11
24.11392100662999
 21
11.70614412880258
 31
0.0
  0
LINE
  5
1C0
330
2
100
AcDbEntity
  8
GAIKEI
  6
Continuous
 62
     1
100
AcDbLine
 10
50.50544080419001
 20
11.7161441288024
 30
0.0
 11
50.52176218630996
 21
11.7161441288024
 31
0.0
  0
LINE
  5
1C1
330
2
100
AcDbEntity
  8
GAIKEI
  6
Continuous
 62
     1
100
AcDbLine
 10
50.50544080419001
 20
11.86614412880237
 30
0.0
 11
50.50653615512999
 21
11.86614412880237
 31
0.0
  0
LINE
  5
1C2
330
2
100
AcDbEntity
  8
GAIKEI
  6
Continuous
 62
     1
100
AcDbLine
 10
50.50653615512999
 20
11.9661441288024
 30
0.0
 11
50.50544080419001
 21
11.9661441288024
 31
0.0
  0
LINE
  5
1C3
330
2
100
AcDbEntity
  8
GAIKEI
  6
Continuous
 62
     1
100
AcDbLine
 10
50.52176218630996
 20
12.11614412880237
 30
0.0
 11
50.50544080419001
 21
12.11614412880237
 31
0.0
  0
LINE
  5
1C4
330
2
100
AcDbEntity
  8
GAIKEI
  6
Continuous
 62
     1
100
AcDbLine
 10
50.50544080419001
 20
12.2161441288024
 30
0.0
 11
50.52176218630996
 21
12.2161441288024
 31
0.0
  0
LINE
  5
1C5
330
2
100
AcDbEntity
  8
GAIKEI
  6
Continuous
 62
     1
100
AcDbLine
 10
50.50653615512999
 20
12.3061441288026
 30
0.0
 11
50.50544080419001
 21
12.3061441288026
 31
0.0
  0
LINE
  5
1C6
330
2
100
AcDbEntity
  8
GAIKEI
  6
Continuous
 62
     1
100
AcDbLine
 10
50.52176218630996
 20
12.45614412880257
 30
0.0
 11
50.50544080419001
 21
12.45614412880257
 31
0.0
  0
LINE
  5
1C7
330
2
100
AcDbEntity
  8
GAIKEI
  6
Continuous
 62
     1
100
AcDbLine
 10
50.50544080419001
 20
12.5561441288026
 30
0.0
 11
50.52176218630996
 21
12.5561441288026
 31
0.0
  0
LINE
  5
1C8
330
2
100
AcDbEntity
  8
GAIKEI
  6
Continuous
 62
     1
100
AcDbLine
 10
50.50544080419001
 20
12.70614412880258
 30
0.0
 11
50.50653615512999
 21
12.70614412880258
 31
0.0
  0
LINE
  5
1C9
330
2
100
AcDbEntity
  8
GAIKEI
  6
Continuous
 62
     1
100
AcDbLine
 10
20.42572842950995
 20
11.17099217262262
 30
0.0
 11
20.61909999148998
 21
11.17436748580257
 31
0.0
  0
LINE
  5
1CA
330
2
100
AcDbEntity
  8
GAIKEI
  6
Continuous
 62
     1
100
AcDbLine
 10
50.46392100662996
 20
12.80977060254241
 30
0.0
 11
50.47693550056999
 21
12.80863198186239
 31
0.0
  0
LINE
  5
1CB
330
2
100
AcDbEntity
  8
GAIKEI
  6
Continuous
 62
     1
100
AcDbLine
 10
50.46392100662996
 20
13.3061441288026
 30
0.0
 11
50.63392100662998
 21
13.3061441288026
 31
0.0
  0
LINE
  5
1CC
330
2
100
AcDbEntity
  8
GAIKEI
  6
Continuous
 62
     1
100
AcDbLine
 10
50.46392100662996
 20
13.40614412880256
 30
0.0
 11
50.63392100662998
 21
13.40614412880256
 31
0.0
  0
LINE
  5
1CD
330
2
100
AcDbEntity
  8
GAIKEI
  6
Continuous
 62
     1
100
AcDbLine
 10
20.48492261908996
 20
12.46941713652256
 30
0.0
 11
20.42750282874994
 21
12.4674119932626
 31
0.0
  0
LINE
  5
1CE
330
2
100
AcDbEntity
  8
GAIKEI
  6
Continuous
 62
     1
100
AcDbLine
 10
51.58392100662997
 20
14.90614412880256
 30
0.0
 11
51.24572440550998
 21
14.90614412880256
 31
0.0
  0
LINE
  5
1CF
330
2
100
AcDbEntity
  8
GAIKEI
  6
Continuous
 62
     1
100
AcDbLine
 10
51.24572440550998
 20
15.00614412880259
 30
0.0
 11
51.63392100662997
 21
15.00614412880259
 31
0.0
  0
LINE
  5
1D0
330
2
100
AcDbEntity
  8
GAIKEI
  6
Continuous
 62
     1
100
AcDbLine
 10
50.92211760776996
 20
15.0561441288026
 30
0.0
 11
50.63392100662998
 21
15.0561441288026
 31
0.0
  0
LINE
  5
1D1
330
2
100
AcDbEntity
  8
GAIKEI
  6
Continuous
 62
     1
100
AcDbLine
 10
50.92211760776996
 20
15.15614412880256
 30
0.0
 11
50.63392100662998
 21
15.15614412880256
 31
0.0
  0
LINE
  5
1D2
330
2
100
AcDbEntity
  8
GAIKEI
  6
Continuous
 62
     1
100
AcDbLine
 10
24.11392100662999
 20
15.3061441288026
 30
0.0
 11
24.01392100662997
 21
15.3061441288026
 31
0.0
  0
LINE
  5
1D3
330
2
100
AcDbEntity
  8
GAIKEI
  6
Continuous
 62
     1
100
AcDbLine
 10
24.01392100662997
 20
15.45614412880258
 30
0.0
 11
23.86392100663
 21
15.45614412880258
 31
0.0
  0
LINE
  5
1D4
330
2
100
AcDbEntity
  8
GAIKEI
  6
Continuous
 62
     1
100
AcDbLine
 10
24.26392100662997
 20
15.45614412880258
 30
0.0
 11
24.11392100662999
 21
15.45614412880258
 31
0.0
  0
LINE
  5
1D5
330
2
100
AcDbEntity
  8
GAIKEI
  6
Continuous
 62
     1
100
AcDbLine
 10
24.11392100662999
 20
15.5561441288026
 30
0.0
 11
24.26392100662997
 21
15.5561441288026
 31
0.0
  0
LINE
  5
1D6
330
2
100
AcDbEntity
  8
GAIKEI
  6
Continuous
 62
     1
100
AcDbLine
 10
23.86392100663
 20
15.5561441288026
 30
0.0
 11
24.01392100662997
 21
15.5561441288026
 31
0.0
  0
LINE
  5
1D7
330
2
100
AcDbEntity
  8
GAIKEI
  6
Continuous
 62
     1
100
AcDbLine
 10
24.01392100662997
 20
15.70614412880258
 30
0.0
 11
24.11392100662999
 21
15.70614412880258
 31
0.0
  0
LINE
  5
1D8
330
2
100
AcDbEntity
  8
GAIKEI
  6
Continuous
 62
     1
100
AcDbLine
 10
50.92211760776996
 20
16.0561441288026
 30
0.0
 11
50.63392100662998
 21
16.0561441288026
 31
0.0
  0
LINE
  5
1D9
330
2
100
AcDbEntity
  8
GAIKEI
  6
Continuous
 62
     1
100
AcDbLine
 10
50.46392100662996
 20
16.4725176550624
 30
0.0
 11
50.47693550056999
 21
16.47365627574237
 31
0.0
  0
LINE
  5
1DA
330
2
100
AcDbEntity
  8
GAIKEI
  6
Continuous
 62
     1
100
AcDbLine
 10
50.51441716142995
 20
16.91556196990257
 30
0.0
 11
50.60693550056999
 21
16.92365627574236
 31
0.0
  0
LINE
  5
1DB
330
2
100
AcDbEntity
  8
GAIKEI
  6
Continuous
 62
     1
100
AcDbLine
 10
50.92211760776996
 20
16.15614412880256
 30
0.0
 11
50.63392100662998
 21
16.15614412880256
 31
0.0
  0
LINE
  5
1DC
330
2
100
AcDbEntity
  8
GAIKEI
  6
Continuous
 62
     1
100
AcDbLine
 10
51.24572440550998
 20
16.20614412880257
 30
0.0
 11
51.63392100662997
 21
16.20614412880257
 31
0.0
  0
LINE
  5
1DD
330
2
100
AcDbEntity
  8
GAIKEI
  6
Continuous
 62
     1
100
AcDbLine
 10
51.58392100662997
 20
16.3061441288026
 30
0.0
 11
51.24572440550998
 21
16.3061441288026
 31
0.0
  0
LINE
  5
1DE
330
2
100
AcDbEntity
  8
GAIKEI
  6
Continuous
 62
     1
100
AcDbLine
 10
50.46392100662996
 20
16.40614412880256
 30
0.0
 11
50.63392100662998
 21
16.40614412880256
 31
0.0
  0
LINE
  5
1DF
330
2
100
AcDbEntity
  8
GAIKEI
  6
Continuous
 62
     1
100
AcDbLine
 10
50.49203001724993
 20
16.50614412880259
 30
0.0
 11
50.63392100662998
 21
16.50614412880259
 31
0.0
  0
LINE
  5
1E0
330
2
100
AcDbEntity
  8
GAIKEI
  6
Continuous
 62
     1
100
AcDbLine
 10
50.50653615512999
 20
16.57614412880258
 30
0.0
 11
50.50544080419001
 21
16.57614412880258
 31
0.0
  0
LINE
  5
1E1
330
2
100
AcDbEntity
  8
GAIKEI
  6
Continuous
 62
     1
100
AcDbLine
 10
50.52176218630996
 20
16.72614412880261
 30
0.0
 11
50.50544080419001
 21
16.72614412880261
 31
0.0
  0
LINE
  5
1E2
330
2
100
AcDbEntity
  8
GAIKEI
  6
Continuous
 62
     1
100
AcDbLine
 10
50.50544080419001
 20
16.82614412880258
 30
0.0
 11
50.52176218630996
 21
16.82614412880258
 31
0.0
  0
LINE
  5
1E3
330
2
100
AcDbEntity
  8
GAIKEI
  6
Continuous
 62
     1
100
AcDbLine
 10
50.50544080419001
 20
16.97614412880261
 30
0.0
 11
50.50653615512999
 21
16.97614412880261
 31
0.0
  0
LINE
  5
1E4
330
2
100
AcDbEntity
  8
GAIKEI
  6
Continuous
 62
     1
100
AcDbLine
 10
50.63653615512999
 20
17.02614412880257
 30
0.0
 11
50.63544080418996
 21
17.02614412880257
 31
0.0
  0
LINE
  5
1E5
330
2
100
AcDbEntity
  8
GAIKEI
  6
Continuous
 62
     1
100
AcDbLine
 10
50.65176218631001
 20
17.1761441288026
 30
0.0
 11
50.63544080418996
 21
17.1761441288026
 31
0.0
  0
LINE
  5
1E6
330
2
100
AcDbEntity
  8
GAIKEI
  6
Continuous
 62
     1
100
AcDbLine
 10
50.63544080418996
 20
17.27614412880257
 30
0.0
 11
50.65176218631001
 21
17.27614412880257
 31
0.0
  0
LINE
  5
1E7
330
2
100
AcDbEntity
  8
GAIKEI
  6
Continuous
 62
     1
100
AcDbLine
 10
50.63544080418996
 20
17.4261441288026
 30
0.0
 11
50.63653615512999
 21
17.4261441288026
 31
0.0
  0
LINE
  5
1E8
330
2
100
AcDbEntity
  8
GAIKEI
  6
Continuous
 62
     1
100
AcDbLine
 10
50.28392100662995
 20
17.6761441288026
 30
0.0
 11
50.46392100662996
 21
17.6761441288026
 31
0.0
  0
LINE
  5
1E9
330
2
100
AcDbEntity
  8
GAIKEI
  6
Continuous
 62
     1
100
AcDbLine
 10
50.38392100662997
 20
17.76956998340262
 30
0.0
 11
50.46392100662996
 21
17.76956998340262
 31
0.0
  0
LINE
  5
1EA
330
2
100
AcDbEntity
  8
GAIKEI
  6
Continuous
 62
     1
100
AcDbLine
 10
50.38392100662997
 20
17.77614412880257
 30
0.0
 11
50.28392100662995
 21
17.77614412880257
 31
0.0
  0
LINE
  5
1EB
330
2
100
AcDbEntity
  8
GAIKEI
  6
Continuous
 62
     1
100
AcDbLine
 10
50.46392100662996
 20
17.07977060254257
 30
0.0
 11
50.47693550056999
 21
17.07863198186237
 31
0.0
  0
LINE
  5
1EC
330
2
100
AcDbEntity
  8
GAIKEI
  6
Continuous
 62
     1
100
AcDbLine
 10
50.46392100662996
 20
17.54114412880239
 30
0.0
 11
50.60693550056999
 21
17.52863198186236
 31
0.0
  0
LINE
  5
1ED
330
2
100
AcDbEntity
  8
GAIKEI
  6
Continuous
 62
     7
100
AcDbLine
 10
22.46392100662996
 20
17.85614412880261
 30
0.0
 11
50.38392100662997
 21
17.85614412880261
 31
0.0
  0
LINE
  5
1EE
330
2
100
AcDbEntity
  8
GAIKEI
  6
Continuous
 62
     1
100
AcDbLine
 10
22.46392100662996
 20
17.90614412880256
 30
0.0
 11
25.26392100662997
 21
17.90614412880256
 31
0.0
  0
LINE
  5
1EF
330
2
100
AcDbEntity
  8
GAIKEI
  6
Continuous
 62
     7
100
AcDbLine
 10
22.46392100662996
 20
17.90614412880256
 30
0.0
 11
21.03544911308995
 21
17.8562607910826
 31
0.0
  0
LINE
  5
1F0
330
2
100
AcDbEntity
  8
GAIKEI
  6
Continuous
 62
     1
100
AcDbLine
 10
51.22336372572994
 20
14.91142276926257
 30
0.0
 11
50.94447828752993
 21
15.0508654883626
 31
0.0
  0
LINE
  5
1F1
330
2
100
AcDbEntity
  8
GAIKEI
  6
Continuous
 62
     1
100
AcDbLine
 10
51.22336372572994
 20
15.00086548836259
 30
0.0
 11
50.94447828752993
 21
15.14030820746256
 31
0.0
  0
LINE
  5
1F2
330
2
100
AcDbEntity
  8
GAIKEI
  6
Continuous
 62
     1
100
AcDbLine
 10
21.03549778546994
 20
17.85626249076256
 30
0.0
 11
21.02288099043
 21
17.85124002596262
 31
0.0
  0
LINE
  5
1F3
330
2
100
AcDbEntity
  8
GAIKEI
  6
Continuous
 62
     1
100
AcDbLine
 10
50.96392100662995
 20
11.0286441288024
 30
0.0
 11
50.96095154576994
 21
11.03161358968236
 31
0.0
  0
LINE
  5
1F4
330
2
100
AcDbEntity
  8
GAIKEI
  6
Continuous
 62
     1
100
AcDbLine
 10
52.78066126716999
 20
12.96960061044257
 30
0.0
 11
50.46392100662996
 21
14.57491508438261
 31
0.0
  0
LINE
  5
1F5
330
2
100
AcDbEntity
  8
GAIKEI
  6
Continuous
 62
     1
100
AcDbLine
 10
52.88318024372995
 20
13.11755283058238
 30
0.0
 11
50.46392100662996
 21
14.7939047012224
 31
0.0
  0
LINE
  5
1F6
330
2
100
AcDbEntity
  8
GAIKEI
  6
Continuous
 62
     1
100
AcDbLine
 10
26.86392100662999
 20
10.77614412880257
 30
0.0
 11
26.86392100662999
 21
10.6761441288026
 31
0.0
  0
LINE
  5
1F7
330
2
100
AcDbEntity
  8
GAIKEI
  6
Continuous
 62
     1
100
AcDbLine
 10
26.71392100662996
 20
10.6761441288026
 30
0.0
 11
26.71392100662996
 21
10.52614412880257
 31
0.0
  0
LINE
  5
1F8
330
2
100
AcDbEntity
  8
GAIKEI
  6
Continuous
 62
     1
100
AcDbLine
 10
26.71392100662996
 20
10.9261441288026
 30
0.0
 11
26.71392100662996
 21
10.77614412880257
 31
0.0
  0
LINE
  5
1F9
330
2
100
AcDbEntity
  8
GAIKEI
  6
Continuous
 62
     1
100
AcDbLine
 10
26.61392100662999
 20
10.77614412880257
 30
0.0
 11
26.61392100662999
 21
10.9261441288026
 31
0.0
  0
LINE
  5
1FA
330
2
100
AcDbEntity
  8
GAIKEI
  6
Continuous
 62
     1
100
AcDbLine
 10
26.61392100662999
 20
10.52614412880257
 30
0.0
 11
26.61392100662999
 21
10.6761441288026
 31
0.0
  0
LINE
  5
1FB
330
2
100
AcDbEntity
  8
GAIKEI
  6
Continuous
 62
     1
100
AcDbLine
 10
26.46392100662996
 20
10.6761441288026
 30
0.0
 11
26.46392100662996
 21
10.77614412880257
 31
0.0
  0
LINE
  5
1FC
330
2
100
AcDbEntity
  8
GAIKEI
  6
Continuous
 62
     7
100
AcDbLine
 10
20.80189731518993
 20
17.65632896946238
 30
0.0
 11
21.02291751516998
 21
17.8512722413626
 31
0.0
  0
LINE
  5
1FD
330
2
100
AcDbEntity
  8
GAIKEI
  6
Continuous
 62
     7
100
AcDbLine
 10
25.36392100664921
 20
9.206144128802577
 30
0.0
 11
25.27186335780999
 21
8.147481167162368
 31
0.0
  0
LINE
  5
1FE
330
2
100
AcDbEntity
  8
GAIKEI
  6
Continuous
 62
     1
100
AcDbLine
 10
25.46392100662996
 20
9.3061441288026
 30
0.0
 11
25.46392100662996
 21
17.70614412880258
 31
0.0
  0
LINE
  5
1FF
330
2
100
AcDbEntity
  8
GAIKEI
  6
Continuous
 62
     1
100
AcDbLine
 10
24.97392100662995
 20
15.45614412880258
 30
0.0
 11
24.97392100662995
 21
15.5561441288026
 31
0.0
  0
LINE
  5
200
330
2
100
AcDbEntity
  8
GAIKEI
  6
Continuous
 62
     1
100
AcDbLine
 10
24.55392100662999
 20
15.5561441288026
 30
0.0
 11
24.55392100662999
 21
15.45614412880258
 31
0.0
  0
LINE
  5
201
330
2
100
AcDbEntity
  8
GAIKEI
  6
Continuous
 62
     1
100
AcDbLine
 10
24.26392100662997
 20
11.5561441288026
 30
0.0
 11
24.26392100662997
 21
11.45614412880258
 31
0.0
  0
LINE
  5
202
330
2
100
AcDbEntity
  8
GAIKEI
  6
Continuous
 62
     1
100
AcDbLine
 10
24.26392100662997
 20
15.5561441288026
 30
0.0
 11
24.26392100662997
 21
15.45614412880258
 31
0.0
  0
LINE
  5
203
330
2
100
AcDbEntity
  8
GAIKEI
  6
Continuous
 62
     1
100
AcDbLine
 10
24.11392100662999
 20
11.45614412880258
 30
0.0
 11
24.11392100662999
 21
11.3061441288026
 31
0.0
  0
LINE
  5
204
330
2
100
AcDbEntity
  8
GAIKEI
  6
Continuous
 62
     1
100
AcDbLine
 10
24.11392100662999
 20
11.70614412880258
 30
0.0
 11
24.11392100662999
 21
11.5561441288026
 31
0.0
  0
LINE
  5
205
330
2
100
AcDbEntity
  8
GAIKEI
  6
Continuous
 62
     1
100
AcDbLine
 10
24.11392100662999
 20
15.45614412880258
 30
0.0
 11
24.11392100662999
 21
15.3061441288026
 31
0.0
  0
LINE
  5
206
330
2
100
AcDbEntity
  8
GAIKEI
  6
Continuous
 62
     1
100
AcDbLine
 10
24.11392100662999
 20
15.70614412880258
 30
0.0
 11
24.11392100662999
 21
15.5561441288026
 31
0.0
  0
LINE
  5
207
330
2
100
AcDbEntity
  8
GAIKEI
  6
Continuous
 62
     1
100
AcDbLine
 10
24.01392100662997
 20
15.5561441288026
 30
0.0
 11
24.01392100662997
 21
15.70614412880258
 31
0.0
  0
LINE
  5
208
330
2
100
AcDbEntity
  8
GAIKEI
  6
Continuous
 62
     1
100
AcDbLine
 10
24.01392100662997
 20
15.3061441288026
 30
0.0
 11
24.01392100662997
 21
15.45614412880258
 31
0.0
  0
LINE
  5
209
330
2
100
AcDbEntity
  8
GAIKEI
  6
Continuous
 62
     1
100
AcDbLine
 10
24.01392100662997
 20
11.5561441288026
 30
0.0
 11
24.01392100662997
 21
11.70614412880258
 31
0.0
  0
LINE
  5
20A
330
2
100
AcDbEntity
  8
GAIKEI
  6
Continuous
 62
     1
100
AcDbLine
 10
24.01392100662997
 20
11.3061441288026
 30
0.0
 11
24.01392100662997
 21
11.45614412880258
 31
0.0
  0
LINE
  5
20B
330
2
100
AcDbEntity
  8
GAIKEI
  6
Continuous
 62
     1
100
AcDbLine
 10
23.86392100663
 20
15.45614412880258
 30
0.0
 11
23.86392100663
 21
15.5561441288026
 31
0.0
  0
LINE
  5
20C
330
2
100
AcDbEntity
  8
GAIKEI
  6
Continuous
 62
     1
100
AcDbLine
 10
23.86392100663
 20
11.45614412880258
 30
0.0
 11
23.86392100663
 21
11.5561441288026
 31
0.0
  0
LINE
  5
20D
330
2
100
AcDbEntity
  8
GAIKEI
  6
Continuous
 62
     1
100
AcDbLine
 10
22.69392100662998
 20
17.90614412880256
 30
0.0
 11
22.69392100662998
 21
9.106144128802611
 31
0.0
  0
LINE
  5
20E
330
2
100
AcDbEntity
  8
GAIKEI
  6
Continuous
 62
     1
100
AcDbLine
 10
22.46392100662996
 20
9.106144128802611
 30
0.0
 11
22.46392100662996
 21
17.90614412880256
 31
0.0
  0
LINE
  5
20F
330
2
100
AcDbEntity
  8
GAIKEI
  6
Continuous
 62
     7
100
AcDbLine
 10
23.16392100663648
 20
9.206144128802577
 30
0.0
 11
23.25597865546996
 21
8.147481167162368
 31
0.0
  0
LINE
  5
210
330
2
100
AcDbEntity
  8
GAIKEI
  6
Continuous
 62
     1
100
AcDbLine
 10
20.47176375566994
 20
12.86981319030258
 30
0.0
 11
20.46880674524993
 21
12.97567579996257
 31
0.0
  0
LINE
  5
211
330
2
100
AcDbEntity
  8
GAIKEI
  6
Continuous
 62
     1
100
AcDbLine
 10
20.47716729080997
 20
12.67636364280258
 30
0.0
 11
20.47714641938995
 21
12.67711085136261
 31
0.0
  0
ARC
  5
212
330
2
100
AcDbEntity
  8
GAIKEI
  6
Continuous
 62
     7
100
AcDbCircle
 10
50.38392100662997
 20
17.77614412880257
 30
0.0
 40
0.0800000000000182
100
AcDbArc
 50
0.0
 51
89.99999999999998
  0
ARC
  5
213
330
2
100
AcDbEntity
  8
GAIKEI
  6
Continuous
 62
     1
100
AcDbCircle
 10
24.76392100662997
 20
15.5561441288026
 30
0.0
 40
0.2099999999999909
100
AcDbArc
 50
0.0
 51
180.0
  0
ARC
  5
214
330
2
100
AcDbEntity
  8
GAIKEI
  6
Continuous
 62
     1
100
AcDbCircle
 10
24.76392100662997
 20
15.45614412880258
 30
0.0
 40
0.2099999999999909
100
AcDbArc
 50
180.0
 51
0.0
  0
ARC
  5
215
330
2
100
AcDbEntity
  8
GAIKEI
  6
Continuous
 62
     1
100
AcDbCircle
 10
25.26392100662997
 20
17.70614412880258
 30
0.0
 40
0.2
100
AcDbArc
 50
0.0
 51
89.99999999999998
  0
ARC
  5
216
330
2
100
AcDbEntity
  8
GAIKEI
  6
Continuous
 62
     7
100
AcDbCircle
 10
25.26392100662997
 20
9.306144128802543
 30
0.0
 40
0.2
100
AcDbArc
 50
270.0
 51
0.0
  0
ARC
  5
217
330
2
100
AcDbEntity
  8
GAIKEI
  6
Continuous
 62
     7
100
AcDbCircle
 10
46.46392100662995
 20
13.50614412880259
 30
0.0
 40
26.00000000000009
100
AcDbArc
 50
180.0
 51
184.8539083529
  0
ARC
  5
218
330
2
100
AcDbEntity
  8
GAIKEI
  6
Continuous
 62
     1
100
AcDbCircle
 10
16.06392542502999
 20
9.112791228622597
 30
0.0
 40
4.970000000000043
100
AcDbArc
 50
3.84212692430041
 51
7.317623211101511
  0
ARC
  5
219
330
2
100
AcDbEntity
  8
GAIKEI
  6
Continuous
 62
     1
100
AcDbCircle
 10
21.07766454240999
 20
9.363430536902569
 30
0.0
 40
0.0200000000000306
100
AcDbArc
 50
182.8616976508214
 51
225.3863783494586
  0
ARC
  5
21A
330
2
100
AcDbEntity
  8
GAIKEI
  6
Continuous
 62
     7
100
AcDbCircle
 10
20.81512687346998
 20
17.6413296765624
 30
0.0
 40
0.020000000000183
100
AcDbArc
 50
131.4127974882475
 51
170.8413555678423
  0
ARC
  5
21B
330
2
100
AcDbEntity
  8
GAIKEI
  6
Continuous
 62
     1
100
AcDbCircle
 10
21.03614710302998
 20
17.83627297454257
 30
0.0
 40
0.0200000000000178
100
AcDbArc
 50
91.99999999984401
 51
131.4127974889813
  0
ARC
  5
21C
330
2
100
AcDbEntity
  8
GAIKEI
  6
Continuous
 62
     7
100
AcDbCircle
 10
16.06392542502999
 20
9.112791228622597
 30
0.0
 40
5.000000000000009
100
AcDbArc
 50
2.861862736396442
 51
26.01908964109675
  0
ARC
  5
21D
330
2
100
AcDbEntity
  8
GAIKEI
  6
Continuous
 62
     1
100
AcDbCircle
 10
50.23392100662994
 20
9.186144128802538
 30
0.0
 40
0.1
100
AcDbArc
 50
270.0
 51
0.0
  0
ARC
  5
21E
330
2
100
AcDbEntity
  8
GAIKEI
  6
Continuous
 62
     1
100
AcDbCircle
 10
52.83192075544997
 20
13.04357672052259
 30
0.0
 40
0.089999999999964
100
AcDbArc
 50
235.2811572347372
 51
55.28115723473716
  0
ARC
  5
21F
330
2
100
AcDbEntity
  8
GAIKEI
  6
Continuous
 62
     1
100
AcDbCircle
 10
53.37135424996995
 20
14.37872147110261
 30
0.0
 40
0.0900000000000542
100
AcDbArc
 50
337.9999999998934
 51
158.0000000000198
  0
ARC
  5
220
330
2
100
AcDbEntity
  8
GAIKEI
  6
Continuous
 62
     7
100
AcDbCircle
 10
44.35560271428994
 20
8.156144128802566
 30
0.0
 40
0.1000000000000232
100
AcDbArc
 50
184.9697407322075
 51
270.0
  0
ARC
  5
221
330
2
100
AcDbEntity
  8
GAIKEI
  6
Continuous
 62
     7
100
AcDbCircle
 10
46.17223929898995
 20
8.156144128802566
 30
0.0
 40
0.1
100
AcDbArc
 50
270.0
 51
355.0302592677989
  0
ARC
  5
222
330
2
100
AcDbEntity
  8
GAIKEI
  6
Continuous
 62
     7
100
AcDbCircle
 10
23.35560271428994
 20
8.156144128802566
 30
0.0
 40
0.1000000000000232
100
AcDbArc
 50
184.9697407322075
 51
270.0
  0
ARC
  5
223
330
2
100
AcDbEntity
  8
GAIKEI
  6
Continuous
 62
     7
100
AcDbCircle
 10
25.17223929899001
 20
8.156144128802566
 30
0.0
 40
0.1
100
AcDbArc
 50
270.0
 51
355.0302592677989
  0
ARC
  5
224
330
2
100
AcDbEntity
  8
GAIKEI
  6
Continuous
 62
     1
100
AcDbCircle
 10
16.06392542502999
 20
9.112791228622597
 30
0.0
 40
4.970000000000045
100
AcDbArc
 50
16.16119288820211
 51
18.94245080060006
  0
ARC
  5
225
330
2
100
AcDbEntity
  8
GAIKEI
  6
Continuous
 62
     1
100
AcDbCircle
 10
20.42607502100998
 20
11.15099517584258
 30
0.0
 40
0.0200000000000782
100
AcDbArc
 50
91.00000000010275
 51
226.3254724459296
  0
ARC
  5
226
330
2
100
AcDbEntity
  8
GAIKEI
  6
Continuous
 62
     1
100
AcDbCircle
 10
51.24572440550998
 20
14.95614412880257
 30
0.0
 40
0.0500000000000085
100
AcDbArc
 50
243.4349488229103
 51
270.0
  0
ARC
  5
227
330
2
100
AcDbEntity
  8
GAIKEI
  6
Continuous
 62
     1
100
AcDbCircle
 10
50.92211760776996
 20
15.00614412880259
 30
0.0
 40
0.0500000000000085
100
AcDbArc
 50
63.43494882291034
 51
89.99999999999998
  0
ARC
  5
228
330
2
100
AcDbEntity
  8
GAIKEI
  6
Continuous
 62
     1
100
AcDbCircle
 10
51.58392100662997
 20
14.95614412880257
 30
0.0
 40
0.05
100
AcDbArc
 50
270.0
 51
0.0
  0
ARC
  5
229
330
2
100
AcDbEntity
  8
GAIKEI
  6
Continuous
 62
     1
100
AcDbCircle
 10
51.24572440550998
 20
16.25614412880259
 30
0.0
 40
0.05
100
AcDbArc
 50
89.99999999999998
 51
116.5650511770896
  0
ARC
  5
22A
330
2
100
AcDbEntity
  8
GAIKEI
  6
Continuous
 62
     1
100
AcDbCircle
 10
50.92211760776996
 20
16.20614412880257
 30
0.0
 40
0.05
100
AcDbArc
 50
270.0
 51
296.5650511770896
  0
ARC
  5
22B
330
2
100
AcDbEntity
  8
GAIKEI
  6
Continuous
 62
     1
100
AcDbCircle
 10
51.58392100662997
 20
16.25614412880259
 30
0.0
 40
0.05
100
AcDbArc
 50
0.0
 51
89.99999999999998
  0
ARC
  5
22C
330
2
100
AcDbEntity
  8
GAIKEI
  6
Continuous
 62
     1
100
AcDbCircle
 10
20.96392100663002
 20
12.1761441288026
 30
0.0
 40
0.6366006433799503
100
AcDbArc
 50
155.7103161491003
 51
204.2896838509142
  0
ARC
  5
22D
330
2
100
AcDbEntity
  8
GAIKEI
  6
Continuous
 62
     1
100
AcDbCircle
 10
20.42924780356998
 20
11.93484580570259
 30
0.0
 40
0.0500000000001697
100
AcDbArc
 50
204.289683851071
 51
267.9999999999018
  0
ARC
  5
22E
330
2
100
AcDbEntity
  8
GAIKEI
  6
Continuous
 62
     1
100
AcDbCircle
 10
20.42924780356998
 20
12.41744245190261
 30
0.0
 40
0.0500000000000411
100
AcDbArc
 50
92.0000000001046
 51
155.7103161491433
  0
ARC
  5
22F
330
2
100
AcDbEntity
  8
GAIKEI
  6
Continuous
 62
     1
100
AcDbCircle
 10
50.60606394314993
 20
10.69867003488252
 30
0.0
 40
0.0099999999999119
100
AcDbArc
 50
14.74782897697205
 51
84.99999996357981
  0
ARC
  5
230
330
2
100
AcDbEntity
  8
GAIKEI
  6
Continuous
 62
     1
100
AcDbCircle
 10
50.60606394314993
 20
10.1136182227226
 30
0.0
 40
0.0100000000002289
100
AcDbArc
 50
275.0000000363187
 51
345.2521710230279
  0
ARC
  5
231
330
2
100
AcDbEntity
  8
GAIKEI
  6
Continuous
 62
     1
100
AcDbCircle
 10
49.49480172804999
 20
10.40614412880256
 30
0.0
 40
1.159119278600031
100
AcDbArc
 50
345.2521707055009
 51
350.0641880113834
  0
ARC
  5
232
330
2
100
AcDbEntity
  8
GAIKEI
  6
Continuous
 62
     1
100
AcDbCircle
 10
49.49480172804999
 20
10.40614412880256
 30
0.0
 40
1.159119278599958
100
AcDbArc
 50
9.935811988603447
 51
14.74782929449905
  0
ARC
  5
233
330
2
100
AcDbEntity
  8
GAIKEI
  6
Continuous
 62
     1
100
AcDbCircle
 10
50.47606394315
 20
17.06867003488241
 30
0.0
 40
0.0099999999998679
100
AcDbArc
 50
14.74782897703959
 51
84.99999996497924
  0
ARC
  5
234
330
2
100
AcDbEntity
  8
GAIKEI
  6
Continuous
 62
     1
100
AcDbCircle
 10
50.47606394315
 20
16.48361822272238
 30
0.0
 40
0.009999999999824
100
AcDbArc
 50
275.0000000352139
 51
345.2521710229603
  0
ARC
  5
235
330
2
100
AcDbEntity
  8
GAIKEI
  6
Continuous
 62
     1
100
AcDbCircle
 10
49.36480172805
 20
16.77614412880257
 30
0.0
 40
1.159119278600084
100
AcDbArc
 50
345.2521707054875
 51
350.0641880113834
  0
ARC
  5
236
330
2
100
AcDbEntity
  8
GAIKEI
  6
Continuous
 62
     1
100
AcDbCircle
 10
49.36480172805
 20
16.77614412880257
 30
0.0
 40
1.159119278599878
100
AcDbArc
 50
9.935811988596741
 51
14.74782929449193
  0
ARC
  5
237
330
2
100
AcDbEntity
  8
GAIKEI
  6
Continuous
 62
     1
100
AcDbCircle
 10
50.47606394315
 20
10.81867003488241
 30
0.0
 40
0.0099999999998679
100
AcDbArc
 50
14.74782897703959
 51
84.99999996497924
  0
ARC
  5
238
330
2
100
AcDbEntity
  8
GAIKEI
  6
Continuous
 62
     1
100
AcDbCircle
 10
49.36480172805
 20
10.52614412880257
 30
0.0
 40
1.159119278599878
100
AcDbArc
 50
9.935811988596741
 51
14.74782929449193
  0
ARC
  5
239
330
2
100
AcDbEntity
  8
GAIKEI
  6
Continuous
 62
     1
100
AcDbCircle
 10
50.47606394315
 20
12.79867003488255
 30
0.0
 40
0.0099999999998679
100
AcDbArc
 50
14.74782897703959
 51
84.99999996487781
  0
ARC
  5
23A
330
2
100
AcDbEntity
  8
GAIKEI
  6
Continuous
 62
     1
100
AcDbCircle
 10
50.47606394315
 20
12.21361822272257
 30
0.0
 40
0.0100000000002091
100
AcDbArc
 50
275.0000000350207
 51
345.2521710229603
  0
ARC
  5
23B
330
2
100
AcDbEntity
  8
GAIKEI
  6
Continuous
 62
     1
100
AcDbCircle
 10
49.36480172805
 20
12.50614412880259
 30
0.0
 40
1.159119278600031
100
AcDbArc
 50
345.2521707055009
 51
350.0641880113834
  0
ARC
  5
23C
330
2
100
AcDbEntity
  8
GAIKEI
  6
Continuous
 62
     1
100
AcDbCircle
 10
49.36480172805
 20
12.50614412880259
 30
0.0
 40
1.159119278599914
100
AcDbArc
 50
9.935811988603447
 51
14.74782929449905
  0
ARC
  5
23D
330
2
100
AcDbEntity
  8
GAIKEI
  6
Continuous
 62
     1
100
AcDbCircle
 10
50.47606394315
 20
9.998670034882593
 30
0.0
 40
0.0099999999998679
100
AcDbArc
 50
14.74782897703959
 51
84.99999996487781
  0
ARC
  5
23E
330
2
100
AcDbEntity
  8
GAIKEI
  6
Continuous
 62
     1
100
AcDbCircle
 10
50.47606394315
 20
9.413618222722561
 30
0.0
 40
0.0100000000002091
100
AcDbArc
 50
275.0000000350207
 51
345.2521710229603
  0
ARC
  5
23F
330
2
100
AcDbEntity
  8
GAIKEI
  6
Continuous
 62
     1
100
AcDbCircle
 10
49.36480172805
 20
9.706144128802577
 30
0.0
 40
1.159119278600031
100
AcDbArc
 50
345.2521707055009
 51
350.0641880113834
  0
ARC
  5
240
330
2
100
AcDbEntity
  8
GAIKEI
  6
Continuous
 62
     1
100
AcDbCircle
 10
49.36480172805
 20
9.706144128802577
 30
0.0
 40
1.159119278599914
100
AcDbArc
 50
9.935811988603447
 51
14.74782929449905
  0
ARC
  5
241
330
2
100
AcDbEntity
  8
GAIKEI
  6
Continuous
 62
     1
100
AcDbCircle
 10
50.60606394314993
 20
17.51867003488235
 30
0.0
 40
0.0099999999999119
100
AcDbArc
 50
14.74782897697205
 51
84.99999996368122
  0
ARC
  5
242
330
2
100
AcDbEntity
  8
GAIKEI
  6
Continuous
 62
     1
100
AcDbCircle
 10
50.60606394314993
 20
16.93361822272237
 30
0.0
 40
0.0099999999998438
100
AcDbArc
 50
275.0000000365116
 51
345.2521710230279
  0
ARC
  5
243
330
2
100
AcDbEntity
  8
GAIKEI
  6
Continuous
 62
     1
100
AcDbCircle
 10
49.49480172804999
 20
17.22614412880261
 30
0.0
 40
1.159119278600084
100
AcDbArc
 50
345.2521707054875
 51
350.0641880113834
  0
ARC
  5
244
330
2
100
AcDbEntity
  8
GAIKEI
  6
Continuous
 62
     1
100
AcDbCircle
 10
49.49480172804999
 20
17.22614412880261
 30
0.0
 40
1.159119278599924
100
AcDbArc
 50
9.935811988596741
 51
14.74782929449193
  0
ARC
  5
245
330
2
100
AcDbEntity
  8
GAIKEI
  6
Continuous
 62
     1
100
AcDbCircle
 10
50.47606394315
 20
11.87361822272237
 30
0.0
 40
0.0100000000000279
100
AcDbArc
 50
275.0000000351124
 51
345.2521710239707
  0
ARC
  5
246
330
2
100
AcDbEntity
  8
GAIKEI
  6
Continuous
 62
     1
100
AcDbCircle
 10
49.36480172805
 20
12.16614412880233
 30
0.0
 40
1.159119278599985
100
AcDbArc
 50
345.252170705508
 51
350.0641880114032
  0
ARC
  5
247
330
2
100
AcDbEntity
  8
GAIKEI
  6
Continuous
 62
     1
100
AcDbCircle
 10
49.36480172805
 20
11.66614412880233
 30
0.0
 40
1.159119278599918
100
AcDbArc
 50
348.4282321968086
 51
350.0641880114032
  0
ARC
  5
248
330
2
100
AcDbEntity
  8
GAIKEI
  6
Continuous
 62
     1
100
AcDbCircle
 10
49.36480172805
 20
11.66614412880233
 30
0.0
 40
1.159119278599914
100
AcDbArc
 50
9.935811988603447
 51
12.45591011541195
  0
ARC
  5
249
330
2
100
AcDbEntity
  8
GAIKEI
  6
Continuous
 62
     7
100
AcDbCircle
 10
46.46392100662995
 20
13.50614412880259
 30
0.0
 40
26.00000000000009
100
AcDbArc
 50
170.8413906680007
 51
180.0
  0
CIRCLE
  5
24A
330
2
100
AcDbEntity
  8
GAIKEI
  6
Continuous
 62
     1
100
AcDbCircle
 10
26.66392100663001
 20
10.72614412880261
 30
0.0
 40
0.9143194516202131
  0
CIRCLE
  5
24B
330
2
100
AcDbEntity
  8
GAIKEI
  6
Continuous
 62
     1
100
AcDbCircle
 10
47.93392100662993
 20
10.72614412880261
 30
0.0
 40
0.9143194516202131
  0
CIRCLE
  5
24C
330
2
100
AcDbEntity
  8
GAIKEI
  6
Continuous
 62
     1
100
AcDbCircle
 10
26.66392100663001
 20
10.72614412880261
 30
0.0
 40
0.6000000000000001
  0
CIRCLE
  5
24D
330
2
100
AcDbEntity
  8
GAIKEI
  6
Continuous
 62
     1
100
AcDbCircle
 10
47.93392100662993
 20
10.72614412880261
 30
0.0
 40
0.6000000000000001
  0
CIRCLE
  5
24E
330
2
100
AcDbEntity
  8
GAIKEI
  6
Continuous
 62
     1
100
AcDbCircle
 10
24.76392100662997
 20
11.50614412880259
 30
0.0
 40
0.2100000000001955
  0
CIRCLE
  5
24F
330
2
100
AcDbEntity
  8
GAIKEI
  6
Continuous
 62
     1
100
AcDbCircle
 10
51.08992100662994
 20
10.96614412880239
 30
0.0
 40
0.0990000000000009
  0
CIRCLE
  5
250
330
2
100
AcDbEntity
  8
GAIKEI
  6
Continuous
 62
     1
100
AcDbCircle
 10
24.06392100662998
 20
11.50614412880259
 30
0.0
 40
0.415000000000191
  0
CIRCLE
  5
251
330
2
100
AcDbEntity
  8
GAIKEI
  6
Continuous
 62
     1
100
AcDbCircle
 10
24.06392100662998
 20
15.50614412880259
 30
0.0
 40
0.415000000000191
  0
CIRCLE
  5
252
330
2
100
AcDbEntity
  8
GAIKEI
  6
Continuous
 62
     1
100
AcDbCircle
 10
47.93392100662993
 20
10.72614412880261
 30
0.0
 40
0.3150000000000092
  0
CIRCLE
  5
253
330
2
100
AcDbEntity
  8
GAIKEI
  6
Continuous
 62
     1
100
AcDbCircle
 10
26.66392100663001
 20
10.72614412880261
 30
0.0
 40
0.3150000000000092
  0
CIRCLE
  5
254
330
2
100
AcDbEntity
  8
GAIKEI
  6
Continuous
 62
     1
100
AcDbCircle
 10
24.06392100662998
 20
11.50614412880259
 30
0.0
 40
0.25
  0
CIRCLE
  5
255
330
2
100
AcDbEntity
  8
GAIKEI
  6
Continuous
 62
     1
100
AcDbCircle
 10
24.06392100662998
 20
15.50614412880259
 30
0.0
 40
0.25
  0
SPLINE
  5
256
330
2
100
AcDbEntity
  8
GAIKEI
  6
Continuous
 62
     1
100
AcDbSpline
210
0.0
220
0.0
230
1.0
 70
     8
 71
     3
 72
    51
 73
    47
 74
    45
 42
0.0000000001
 43
0.0000000001
 44
0.00000001
 40
0.0
 40
0.0
 40
0.0
 40
0.0
 40
0.0069608826480089
 40
0.0139217641794327
 40
0.0185557801185624
 40
0.0231897960836812
 40
0.028253214694352
 40
0.0333166333337426
 40
0.0386057920486251
 40
0.0438949507999515
 40
0.0492655157861927
 40
0.0546360808220368
 40
0.0600063154431944
 40
0.0653765501360512
 40
0.0707050931617321
 40
0.0760336362983753
 40
0.0812816671475445
 40
0.0865296981873216
 40
0.0916511473958136
 40
0.0967725971038676
 40
0.1017323390655669
 40
0.1066920841179074
 40
0.111475821459054
 40
0.1162595594425802
 40
0.1208649603405584
 40
0.1254703620265924
 40
0.1298836007184098
 40
0.1342968397320753
 40
0.1384819571440021
 40
0.142667074795156
 40
0.1466089754056401
 40
0.1505508762168647
 40
0.154299520182704
 40
0.1580481643493135
 40
0.1616965396091513
 40
0.1653449151029734
 40
0.1689903096386719
 40
0.1726357043258918
 40
0.1763716601444539
 40
0.1801076161795318
 40
0.1840333228406752
 40
0.1879590283416709
 40
0.1921765960746491
 40
0.1963941641122922
 40
0.2033855849630916
 40
0.210377013298014
 40
0.210377013298014
 40
0.210377013298014
 40
0.210377013298014
 10
20.41479804074999
 20
11.13657777476237
 30
0.0
 10
20.41711792067662
 20
11.13662161993159
 30
0.0
 10
20.42175767988162
 20
11.1367093249022
 30
0.0
 10
20.42794186086091
 20
11.13682485855861
 30
0.0
 10
20.43335056981707
 20
11.13692510230714
 30
0.0
 10
20.43812691313769
 20
11.13701290005997
 30
0.0
 10
20.44304638154017
 20
11.13710250764666
 30
0.0
 10
20.44818421197348
 20
11.13719513627313
 30
0.0
 10
20.45339729662982
 20
11.13728802077804
 30
0.0
 10
20.45871276896689
 20
11.1373814974587
 30
0.0
 10
20.46405539669297
 20
11.13747406889558
 30
0.0
 10
20.46942507158255
 20
11.13756560059107
 30
0.0
 10
20.47479466466899
 20
11.13765545703836
 30
0.0
 10
20.48015028227961
 20
11.13774327536043
 30
0.0
 10
20.48549203686551
 20
11.13782887647124
 30
0.0
 10
20.49079309577695
 20
11.13791169627029
 30
0.0
 10
20.49606735662998
 20
11.13799176129038
 30
0.0
 10
20.50127263126569
 20
11.13806829539425
 30
0.0
 10
20.5064357557269
 20
11.13814151194088
 30
0.0
 10
20.51150283298716
 20
11.13821052808344
 30
0.0
 10
20.51651605467784
 20
11.13827574670188
 30
0.0
 10
20.52141675580231
 20
11.13833629745642
 30
0.0
 10
20.52625883497137
 20
11.13839266205383
 30
0.0
 10
20.53098284781178
 20
11.13844407282181
 30
0.0
 10
20.53564745955613
 20
11.13849096360343
 30
0.0
 10
20.54018861693748
 20
11.13853254562053
 30
0.0
 10
20.54466575978182
 20
11.13856931236847
 30
0.0
 10
20.54900284598729
 20
11.13860061317132
 30
0.0
 10
20.55326392358864
 20
11.13862691916165
 30
0.0
 10
20.55736791665367
 20
11.13864778437681
 30
0.0
 10
20.56139085914137
 20
11.13866367820981
 30
0.0
 10
20.56526832700555
 20
11.13867442514686
 30
0.0
 10
20.5690813863196
 20
11.13868035512502
 30
0.0
 10
20.57279660832652
 20
11.13868144467551
 30
0.0
 10
20.57647840583268
 20
11.13867773943707
 30
0.0
 10
20.58012577859174
 20
11.13866913915672
 30
0.0
 10
20.5837721425286
 20
11.13865549316057
 30
0.0
 10
20.58744767597469
 20
11.13863641931073
 30
0.0
 10
20.59115336465197
 20
11.13861183413672
 30
0.0
 10
20.59495244661125
 20
11.13858095490684
 30
0.0
 10
20.59881472743618
 20
11.13854399760509
 30
0.0
 10
20.60283747293215
 20
11.13849923259261
 30
0.0
 10
20.6069574450789
 20
11.1384487885723
 30
0.0
 10
20.61209920950298
 20
11.1383830058208
 30
0.0
 10
20.61816541793192
 20
11.13829733595798
 30
0.0
 10
20.6228256984068
 20
11.13821823600375
 30
0.0
 10
20.62515583976995
 20
11.13817867864236
 30
0.0
 11
20.41479804074999
 21
11.13657777476237
 31
0.0
 11
20.42175768431673
 21
11.1367090589282
 31
0.0
 11
20.42871735063852
 21
11.1368391297612
 31
0.0
 11
20.43335057138057
 21
11.13692497501
 31
0.0
 11
20.43798380475658
 21
11.13701013632499
 31
0.0
 11
20.44304638377275
 21
11.13710234065047
 31
0.0
 11
20.44810898001026
 21
11.13719359567028
 31
0.0
 11
20.45339729958812
 21
11.13728780655731
 31
0.0
 11
20.45868564102426
 21
11.13738078404532
 31
0.0
 11
20.46405540027933
 21
11.13747380759321
 31
0.0
 11
20.46942518564919
 21
11.13756531358251
 31
0.0
 11
20.47479466880969
 21
11.13765514566677
 31
0.0
 11
20.48016418215036
 21
11.13774315866561
 31
0.0
 11
20.48549204146241
 21
11.13782850995505
 31
0.0
 11
20.49081993488903
 21
11.13791170936196
 31
0.0
 11
20.49606736147001
 21
11.1379913341716
 31
0.0
 11
20.50131482572033
 21
11.13806844337926
 31
0.0
 11
20.50643576016279
 21
11.13814102414858
 31
0.0
 11
20.51155673477172
 21
11.13821072269849
 31
0.0
 11
20.51651605582617
 21
11.1382751975442
 31
0.0
 11
20.52147541828867
 21
11.13833641762949
 31
0.0
 11
20.52625883538206
 21
11.1383920658975
 31
0.0
 11
20.53104229387412
 21
11.1384440546592
 31
0.0
 11
20.53564746383898
 21
11.1384902859296
 31
0.0
 11
20.54025267352228
 21
11.13853240160006
 31
0.0
 11
20.54466576417047
 21
11.13856859043687
 31
0.0
 11
20.54907888888727
 21
11.13860038408307
 31
0.0
 11
20.55326392702335
 21
11.138626169269
 31
0.0
 11
20.55744899098426
 21
11.13864739238056
 31
0.0
 11
20.56139086112995
 21
11.1386629135178
 31
0.0
 11
20.56533274700001
 21
11.13867379440717
 31
0.0
 11
20.56908138656741
 21
11.1386795767084
 31
0.0
 11
20.5728300306352
 21
11.13868064148647
 31
0.0
 11
20.576478404049
 21
11.13867692759481
 31
0.0
 11
20.5801267693912
 21
11.13866830466367
 31
0.0
 11
20.58377213828959
 21
11.13865462400372
 31
0.0
 11
20.58741748398387
 21
11.13863571882405
 31
0.0
 11
20.59115335748237
 21
11.1386109141851
 31
0.0
 11
20.59488919058299
 21
11.1385806042449
 31
0.0
 11
20.59881471703136
 21
11.13854298760458
 31
0.0
 11
20.60274018300231
 21
11.13849962139608
 31
0.0
 11
20.60695743983587
 21
11.13844841203189
 31
0.0
 11
20.6111746587228
 21
11.13839414158127
 31
0.0
 11
20.6181653628314
 21
11.13829402542188
 31
0.0
 11
20.62515583976995
 21
11.13817867864236
 31
0.0
  0
SPLINE
  5
257
330
2
100
AcDbEntity
  8
GAIKEI
  6
Continuous
 62
     1
100
AcDbSpline
210
0.0
220
0.0
230
1.0
 70
     8
 71
     3
 72
    11
 73
     7
 74
     5
 42
0.0000000001
 43
0.0000000001
 44
0.00000001
 40
0.0
 40
0.0
 40
0.0
 40
0.0
 40
0.0056502950055821
 40
0.0113093372158295
 40
0.0172350355575037
 40
0.0231955720827012
 40
0.0231955720827012
 40
0.0231955720827012
 40
0.0231955720827012
 10
51.24572440550998
 20
15.00614412880259
 30
0.0
 10
51.24384269751598
 20
15.00604230112515
 30
0.0
 10
51.24007636960488
 20
15.00583847326447
 30
0.0
 10
51.23438707611737
 20
15.00501534501893
 30
0.0
 10
51.22868057581269
 20
15.00357190860495
 30
0.0
 10
51.22513946666874
 20
15.00176939401689
 30
0.0
 10
51.22336372572994
 20
15.00086548836259
 30
0.0
 11
51.24572440550998
 21
15.00614412880259
 31
0.0
 11
51.24008754709837
 21
15.0057546971887
 31
0.0
 11
51.23448852248481
 21
15.00493269038441
 31
0.0
 11
51.22877263337802
 21
15.00336983014995
 31
0.0
 11
51.22336372572994
 21
15.00086548836259
 31
0.0
  0
SPLINE
  5
258
330
2
100
AcDbEntity
  8
GAIKEI
  6
Continuous
 62
     1
100
AcDbSpline
210
0.0
220
0.0
230
1.0
 70
     8
 71
     3
 72
    13
 73
     9
 74
     7
 42
0.0000000001
 43
0.0000000001
 44
0.00000001
 40
0.0
 40
0.0
 40
0.0
 40
0.0
 40
0.0062126085907533
 40
0.0124134010239036
 40
0.0159710748827932
 40
0.0195431190481887
 40
0.023993075000202
 40
0.0284819722205929
 40
0.0284819722205929
 40
0.0284819722205929
 40
0.0284819722205929
 10
50.94447828752993
 20
15.14030820746256
 30
0.0
 10
50.94329533589851
 20
15.14201084103456
 30
0.0
 10
50.94093167160685
 20
15.14541286171095
 30
0.0
 10
50.93722361456535
 20
15.14926833788718
 30
0.0
 10
50.93377858400754
 20
15.15208867778034
 30
0.0
 10
50.93050227624741
 20
15.15413802482749
 30
0.0
 10
50.92660411898148
 20
15.15578089573228
 30
0.0
 10
50.92361744921053
 20
15.15602270469344
 30
0.0
 10
50.92211760776996
 20
15.15614412880256
 30
0.0
 11
50.94447828752993
 21
15.14030820746256
 31
0.0
 11
50.94079958556211
 21
15.14531456437714
 31
0.0
 11
50.93650649933517
 21
15.14978885118359
 31
0.0
 11
50.9337388057063
 21
15.15202423196768
 31
0.0
 11
50.93070511507534
 21
15.15391003105867
 31
0.0
 11
50.9265663211458
 21
15.15554481730748
 31
0.0
 11
50.92211760776996
 21
15.15614412880256
 31
0.0
  0
SPLINE
  5
259
330
2
100
AcDbEntity
  8
GAIKEI
  6
Continuous
 62
     1
100
AcDbSpline
210
0.0
220
0.0
230
1.0
 70
     8
 71
     3
 72
    11
 73
     7
 74
     5
 42
0.0000000001
 43
0.0000000001
 44
0.00000001
 40
0.0
 40
0.0
 40
0.0
 40
0.0
 40
0.0056561975233595
 40
0.01130602569997
 40
0.0172321552604205
 40
0.0231702521816372
 40
0.0231702521816372
 40
0.0231702521816372
 40
0.0231702521816372
 10
51.24572440550998
 20
16.20614412880257
 30
0.0
 10
51.24383787073759
 20
16.20620780886923
 30
0.0
 10
51.24006692655594
 20
16.20633511217386
 30
0.0
 10
51.23439696808597
 20
16.20734315067636
 30
0.0
 10
51.22876021505684
 20
16.20893478729158
 30
0.0
 10
51.22516376281244
 20
16.21059287983127
 30
0.0
 10
51.22336372572994
 20
16.21142276926258
 30
0.0
 11
51.24572440550998
 21
16.20614412880257
 31
0.0
 11
51.24007753578218
 21
16.20646884224811
 31
0.0
 11
51.23450770994242
 21
16.20741626583679
 31
0.0
 11
51.22881943898994
 21
16.20907837279839
 31
0.0
 11
51.22336372572994
 21
16.21142276926258
 31
0.0
  0
SPLINE
  5
25A
330
2
100
AcDbEntity
  8
GAIKEI
  6
Continuous
 62
     1
100
AcDbSpline
210
0.0
220
0.0
230
1.0
 70
     8
 71
     3
 72
    13
 73
     9
 74
     7
 42
0.0000000001
 43
0.0000000001
 44
0.00000001
 40
0.0
 40
0.0
 40
0.0
 40
0.0
 40
0.0062823373817884
 40
0.0125541792999712
 40
0.0160885138707398
 40
0.0196361519319856
 40
0.0240418902803958
 40
0.0284832001941482
 40
0.0284832001941482
 40
0.0284832001941482
 40
0.0284832001941482
 10
50.94447828752993
 20
16.07198005016238
 30
0.0
 10
50.94328003211782
 20
16.07025977676409
 30
0.0
 10
50.94088551216464
 20
16.06682211204656
 30
0.0
 10
50.93714864184889
 20
16.0629396923004
 30
0.0
 10
50.93369217853522
 20
16.06012019126746
 30
0.0
 10
50.93042582234393
 20
16.05811109079434
 30
0.0
 10
50.92655564906706
 20
16.05651021232762
 30
0.0
 10
50.92360091558333
 20
16.05626647858895
 30
0.0
 10
50.92211760776996
 20
16.0561441288026
 30
0.0
 11
50.94447828752993
 21
16.07198005016238
 31
0.0
 11
50.94075294384237
 21
16.06692144062089
 31
0.0
 11
50.93640623967235
 21
16.06240013860758
 31
0.0
 11
50.93365065668002
 21
16.06018692935407
 31
0.0
 11
50.93062565190263
 21
16.05833352757861
 31
0.0
 11
50.92651907341053
 21
16.05673772840328
 31
0.0
 11
50.92211760776996
 21
16.0561441288026
 31
0.0
  0
SPLINE
  5
25B
330
2
100
AcDbEntity
  8
GAIKEI
  6
Continuous
 62
     1
100
AcDbSpline
210
0.0
220
0.0
230
1.0
 70
    24
 71
     3
 72
     9
 73
     5
 74
     3
 42
0.0000000001
 43
0.0000000001
 44
0.00000001
 40
0.0
 40
0.0
 40
0.0
 40
0.0
 40
0.0013648297196822
 40
0.0027296594395335
 40
0.0027296594395335
 40
0.0027296594395335
 40
0.0027296594395335
 10
50.65164111546994
 20
10.35341715566238
 30
0.0
 10
50.65166129394329
 20
10.35387165118573
 30
0.0
 10
50.65170165089
 20
10.35478064223252
 30
0.0
 10
50.65174200783667
 20
10.35568963327915
 30
0.0
 10
50.65176218631001
 20
10.35614412880261
 30
0.0
 11
50.65164111546994
 21
10.35341715566238
 31
0.0
 11
50.65170165089
 21
10.35478064223241
 31
0.0
 11
50.65176218631001
 21
10.35614412880261
 31
0.0
  0
SPLINE
  5
25C
330
2
100
AcDbEntity
  8
GAIKEI
  6
Continuous
 62
     1
100
AcDbSpline
210
0.0
220
0.0
230
1.0
 70
     8
 71
     3
 72
    27
 73
    23
 74
    21
 42
0.0000000001
 43
0.0000000001
 44
0.00000001
 40
0.0
 40
0.0
 40
0.0
 40
0.0
 40
0.0102611001428278
 40
0.0205221864273554
 40
0.0289969710970346
 40
0.0374717346345737
 40
0.0456088749447211
 40
0.0537460076088468
 40
0.0614514450613494
 40
0.0691568718947057
 40
0.0763749996306821
 40
0.0835931174937332
 40
0.0902810294893374
 40
0.0969689322926671
 40
0.1031300863170125
 40
0.1092912332983262
 40
0.1149926747943066
 40
0.1206941107588971
 40
0.1259767356229258
 40
0.1312593586561034
 40
0.1369826049943148
 40
0.1427058489769908
 40
0.1427058489769908
 40
0.1427058489769908
 40
0.1427058489769908
 10
50.63638731058995
 20
10.21161942822238
 30
0.0
 10
50.63695324106801
 20
10.21499267327226
 30
0.0
 10
50.63808508678258
 20
10.22173916121721
 30
0.0
 10
50.63957704078402
 20
10.23128917810061
 30
0.0
 10
50.64091022618929
 20
10.24026093023502
 30
0.0
 10
50.64207750977207
 20
10.2485413730958
 30
0.0
 10
50.64317079857033
 20
10.25671835199796
 30
0.0
 10
50.64417431863572
 20
10.26464841255222
 30
0.0
 10
50.64510650567043
 20
10.27244225227775
 30
0.0
 10
50.64595245046817
 20
10.27993772024319
 30
0.0
 10
50.64673290620831
 20
10.28727694435974
 30
0.0
 10
50.64743383706164
 20
10.29428340313427
 30
0.0
 10
50.64807615095649
 20
10.30111796872097
 30
0.0
 10
50.64864804247901
 20
10.30760516925716
 30
0.0
 10
50.64916948801244
 20
10.31392044211742
 30
0.0
 10
50.64963200885978
 20
10.31991055507563
 30
0.0
 10
50.65005283972396
 20
10.32575010922755
 30
0.0
 10
50.65042526649193
 20
10.33129948252582
 30
0.0
 10
50.65076281575014
 20
10.33671121392518
 30
0.0
 10
50.65107560217822
 20
10.34213170882805
 30
0.0
 10
50.6513723609143
 20
10.34770021293968
 30
0.0
 10
50.65155153550975
 20
10.35151150811515
 30
0.0
 10
50.65164111546994
 20
10.35341715566238
 30
0.0
 11
50.63638731058995
 21
10.21161942822238
 31
0.0
 11
50.63806611316966
 21
10.22174226370538
 31
0.0
 11
50.63965515169042
 21
10.23187956361539
 31
0.0
 11
50.6408997918594
 21
10.24026245374057
 31
0.0
 11
50.64208304744636
 21
10.24865420707897
 31
0.0
 11
50.64316134412945
 21
10.25671958552817
 31
0.0
 11
50.64418294041513
 21
10.26479233412539
 31
0.0
 11
50.64509802671984
 21
10.27244324153781
 31
0.0
 11
50.64596218324908
 21
10.28010005791759
 31
0.0
 11
50.64672545729365
 21
10.28727771642008
 31
0.0
 11
50.64744397662195
 21
10.29445998321705
 31
0.0
 11
50.64806975015613
 21
10.30111855477162
 31
0.0
 11
50.64865705773695
 21
10.30778062010927
 31
0.0
 11
50.64916405164502
 21
10.3139208788051
 31
0.0
 11
50.64963836955922
 21
10.32006374095977
 31
0.0
 11
50.65004817623708
 21
10.32575043546097
 31
0.0
 11
50.65042997991304
 21
10.33143907315258
 31
0.0
 11
50.65075873687766
 21
10.33671145828771
 31
0.0
 11
50.65106343923083
 21
10.34198528643492
 31
0.0
 11
50.65136640209477
 21
10.3477005084847
 31
0.0
 11
50.65164111546994
 21
10.35341715566238
 31
0.0
  0
SPLINE
  5
25D
330
2
100
AcDbEntity
  8
GAIKEI
  6
Continuous
 62
     1
100
AcDbSpline
210
0.0
220
0.0
230
1.0
 70
    24
 71
     3
 72
     9
 73
     5
 74
     3
 42
0.0000000001
 43
0.0000000001
 44
0.00000001
 40
0.0
 40
0.0
 40
0.0
 40
0.0
 40
0.002778253862723
 40
0.0055565077253341
 40
0.0055565077253341
 40
0.0055565077253341
 40
0.0055565077253341
 10
50.63544080418996
 20
10.20614412880258
 30
0.0
 10
50.63559855525662
 20
10.20705667870589
 30
0.0
 10
50.63591405738995
 20
10.20888177851247
 30
0.0
 10
50.63622955952329
 20
10.21070687831911
 30
0.0
 10
50.63638731058995
 20
10.21161942822238
 30
0.0
 11
50.63544080418996
 21
10.20614412880258
 31
0.0
 11
50.63591405738998
 21
10.20888177851259
 31
0.0
 11
50.63638731058995
 21
10.21161942822238
 31
0.0
  0
SPLINE
  5
25E
330
2
100
AcDbEntity
  8
GAIKEI
  6
Continuous
 62
     1
100
AcDbSpline
210
0.0
220
0.0
230
1.0
 70
     8
 71
     3
 72
    11
 73
     7
 74
     5
 42
0.0000000001
 43
0.0000000001
 44
0.00000001
 40
0.0
 40
0.0
 40
0.0
 40
0.0
 40
0.0125040894474512
 40
0.0250080121929602
 40
0.0375117954630355
 40
0.0500157454203066
 40
0.0500157454203066
 40
0.0500157454203066
 40
0.0500157454203066
 10
50.63544080418996
 20
10.35614412880261
 30
0.0
 10
50.63561030624929
 20
10.36030875783461
 30
0.0
 10
50.63594929311927
 20
10.36863796093962
 30
0.0
 10
50.63628183577444
 20
10.38113779526293
 30
0.0
 10
50.63649701445092
 20
10.39364015415111
 30
0.0
 10
50.63652311317873
 20
10.4019761186999
 30
0.0
 10
50.63653615512999
 20
10.40614412880256
 30
0.0
 11
50.63544080418996
 21
10.35614412880261
 31
0.0
 11
50.63591998237012
 21
10.36863903346386
 31
0.0
 11
50.63626228638383
 21
10.38113827003189
 31
0.0
 11
50.63646768550814
 21
10.39364036625852
 31
0.0
 11
50.63653615512999
 21
10.40614412880256
 31
0.0
  0
SPLINE
  5
25F
330
2
100
AcDbEntity
  8
GAIKEI
  6
Continuous
 62
     1
100
AcDbSpline
210
0.0
220
0.0
230
1.0
 70
     8
 71
     3
 72
    11
 73
     7
 74
     5
 42
0.0000000001
 43
0.0000000001
 44
0.00000001
 40
0.0
 40
0.0
 40
0.0
 40
0.0
 40
0.0125039595398915
 40
0.0250077523912274
 40
0.0375116655552151
 40
0.0500157454207361
 40
0.0500157454207361
 40
0.0500157454207361
 40
0.0500157454207361
 10
50.63653615512999
 20
10.40614412880256
 30
0.0
 10
50.63652311316447
 20
10.41031214209954
 30
0.0
 10
50.63649701440819
 20
10.41864811303645
 30
0.0
 10
50.63628183550922
 20
10.43115047511622
 30
0.0
 10
50.63594929276558
 20
10.44365030624124
 30
0.0
 10
50.63561030613138
 20
10.4519795029625
 30
0.0
 10
50.63544080418996
 20
10.45614412880258
 30
0.0
 11
50.63653615512999
 21
10.40614412880256
 31
0.0
 11
50.63646768541713
 21
10.41864790092887
 31
0.0
 11
50.63626228597775
 21
10.43115000673288
 31
0.0
 11
50.63591998206181
 21
10.44364923371847
 31
0.0
 11
50.63544080418996
 21
10.45614412880258
 31
0.0
  0
SPLINE
  5
260
330
2
100
AcDbEntity
  8
GAIKEI
  6
Continuous
 62
     1
100
AcDbSpline
210
0.0
220
0.0
230
1.0
 70
    24
 71
     3
 72
     9
 73
     5
 74
     3
 42
0.0000000001
 43
0.0000000001
 44
0.00000001
 40
0.0
 40
0.0
 40
0.0
 40
0.0
 40
0.0027782538679963
 40
0.0055565077359512
 40
0.0055565077359512
 40
0.0055565077359512
 40
0.0055565077359512
 10
50.63638731064997
 20
10.60066882938241
 30
0.0
 10
50.63622955957334
 20
10.60158137928579
 30
0.0
 10
50.63591405742002
 20
10.60340647909254
 30
0.0
 10
50.63559855526666
 20
10.60523157889929
 30
0.0
 10
50.63544080418996
 20
10.60614412880261
 30
0.0
 11
50.63638731064997
 21
10.60066882938241
 31
0.0
 11
50.63591405741999
 21
10.6034064790926
 31
0.0
 11
50.63544080418996
 21
10.60614412880261
 31
0.0
  0
SPLINE
  5
261
330
2
100
AcDbEntity
  8
GAIKEI
  6
Continuous
 62
     1
100
AcDbSpline
210
0.0
220
0.0
230
1.0
 70
     8
 71
     3
 72
    29
 73
    25
 74
    23
 42
0.0000000001
 43
0.0000000001
 44
0.00000001
 40
0.0
 40
0.0
 40
0.0
 40
0.0
 40
0.0051770951550773
 40
0.0103541932200082
 40
0.0152110966957783
 40
0.0200680016238062
 40
0.0252883078437921
 40
0.0305086179407725
 40
0.0360935525414115
 40
0.0416784915414048
 40
0.0476643760986292
 40
0.0536502662542901
 40
0.0600427145465953
 40
0.0664351688669548
 40
0.0732061613392702
 40
0.0799771599599832
 40
0.0870945530878063
 40
0.0942119527247587
 40
0.1016401048385427
 40
0.1090682613431209
 40
0.1167613502310081
 40
0.1244544541549111
 40
0.1335801741723191
 40
0.142705897002474
 40
0.142705897002474
 40
0.142705897002474
 40
0.142705897002474
 10
50.65164111546994
 20
10.4588711019424
 30
0.0
 10
50.65156031823514
 20
10.46059491069036
 30
0.0
 10
50.65139870908463
 20
10.46404252845525
 30
0.0
 10
50.65113260069373
 20
10.46910593202437
 30
0.0
 10
50.65085220581221
 20
10.47406165233838
 30
0.0
 10
50.65054974360278
 20
10.47903050912168
 30
0.0
 10
50.65021789198983
 20
10.48411889013829
 30
0.0
 10
50.64984618812374
 20
10.48944781054359
 30
0.0
 10
50.64944061342457
 20
10.49489615194034
 30
0.0
 10
50.64898859329111
 20
10.50059686711756
 30
0.0
 10
50.64849686992676
 20
10.50642843694629
 30
0.0
 10
50.64795100661339
 20
10.51252548485627
 30
0.0
 10
50.64735975949059
 20
10.51875445068282
 30
0.0
 10
50.64670796937106
 20
10.52524044744103
 30
0.0
 10
50.64600599691923
 20
10.53184811821319
 30
0.0
 10
50.64523846815524
 20
10.53869171255422
 30
0.0
 10
50.64441636005861
 20
10.54564525797548
 30
0.0
 10
50.64352446902439
 20
10.55281099259599
 30
0.0
 10
50.64257417298311
 20
10.56007370606448
 30
0.0
 10
50.64155112017198
 20
10.56752027303355
 30
0.0
 10
50.64046715923872
 20
10.57504747082993
 30
0.0
 10
50.63924772620651
 20
10.58312663981803
 30
0.0
 10
50.63789976945169
 20
10.59166926720468
 30
0.0
 10
50.63689146845984
 20
10.59766897581744
 30
0.0
 10
50.63638731064997
 20
10.60066882938241
 30
0.0
 11
50.65164111546994
 21
10.4588711019424
 31
0.0
 11
50.65139383641213
 21
10.4640422882552
 31
0.0
 11
50.6511234415359
 21
10.46921232033833
 31
0.0
 11
50.65084875972821
 21
10.47406145035359
 31
0.0
 11
50.65055374258452
 21
10.47890938712737
 31
0.0
 11
50.65021398344902
 21
10.48411862521169
 31
0.0
 11
50.64985074481445
 21
10.48932628263401
 31
0.0
 11
50.64943614706527
 21
10.4948958071991
 31
0.0
 11
50.64899469330282
 21
10.50046327186948
 31
0.0
 11
50.64849174243971
 21
10.50642798938742
 31
0.0
 11
50.64795796619205
 21
10.51239003304238
 31
0.0
 11
50.64735391621923
 21
10.5187538777551
 31
0.0
 11
50.64671474590892
 21
10.5251142971
 31
0.0
 11
50.64599944754196
 21
10.53184740099368
 31
0.0
 11
50.64524479248376
 21
10.53857621357571
 31
0.0
 11
50.64440913161366
 21
10.5456443785838
 31
0.0
 11
50.64353004407422
 21
10.55270728049362
 31
0.0
 11
50.64256630013017
 21
10.56007264824819
 31
0.0
 11
50.64155533066321
 21
10.56743168694089
 31
0.0
 11
50.64045856764898
 21
10.5750461946879
 31
0.0
 11
50.63931124148763
 21
10.58265326319849
 31
0.0
 11
50.63788476902516
 21
10.59166680540238
 31
0.0
 11
50.63638731064997
 21
10.60066882938241
 31
0.0
  0
SPLINE
  5
262
330
2
100
AcDbEntity
  8
GAIKEI
  6
Continuous
 62
     1
100
AcDbSpline
210
0.0
220
0.0
230
1.0
 70
    24
 71
     3
 72
     9
 73
     5
 74
     3
 42
0.0000000001
 43
0.0000000001
 44
0.00000001
 40
0.0
 40
0.0
 40
0.0
 40
0.0
 40
0.0013648297195093
 40
0.002729659439136
 40
0.002729659439136
 40
0.002729659439136
 40
0.002729659439136
 10
50.65176218631001
 20
10.45614412880258
 30
0.0
 10
50.65174200783667
 20
10.45659862432586
 30
0.0
 10
50.65170165089003
 20
10.45750761537249
 30
0.0
 10
50.65166129394332
 20
10.45841660641912
 30
0.0
 10
50.65164111546994
 20
10.4588711019424
 30
0.0
 11
50.65176218631001
 21
10.45614412880258
 31
0.0
 11
50.65170165089
 21
10.45750761537249
 31
0.0
 11
50.65164111546994
 21
10.4588711019424
 31
0.0
  0
SPLINE
  5
263
330
2
100
AcDbEntity
  8
GAIKEI
  6
Continuous
 62
     1
100
AcDbSpline
210
0.0
220
0.0
230
1.0
 70
    24
 71
     3
 72
     9
 73
     5
 74
     3
 42
0.0000000001
 43
0.0000000001
 44
0.00000001
 40
0.0
 40
0.0
 40
0.0
 40
0.0
 40
0.0013648297196803
 40
0.002729659439531
 40
0.002729659439531
 40
0.002729659439531
 40
0.002729659439531
 10
50.52164111546995
 20
16.72341715566239
 30
0.0
 10
50.52166129394328
 20
16.72387165118573
 30
0.0
 10
50.52170165088995
 20
16.72478064223253
 30
0.0
 10
50.52174200783664
 20
16.72568963327921
 30
0.0
 10
50.52176218630996
 20
16.72614412880261
 30
0.0
 11
50.52164111546995
 21
16.72341715566239
 31
0.0
 11
50.52170165088995
 21
16.72478064223247
 31
0.0
 11
50.52176218630996
 21
16.72614412880261
 31
0.0
  0
SPLINE
  5
264
330
2
100
AcDbEntity
  8
GAIKEI
  6
Continuous
 62
     1
100
AcDbSpline
210
0.0
220
0.0
230
1.0
 70
     8
 71
     3
 72
    27
 73
    23
 74
    21
 42
0.0000000001
 43
0.0000000001
 44
0.00000001
 40
0.0
 40
0.0
 40
0.0
 40
0.0
 40
0.0102611001428371
 40
0.0205221864273559
 40
0.0289969710971392
 40
0.0374717346348068
 40
0.0456088749449541
 40
0.0537460076088472
 40
0.0614514450614061
 40
0.0691568718947123
 40
0.0763749996306827
 40
0.0835931174938526
 40
0.0902810294893949
 40
0.096968932292668
 40
0.1031300863167915
 40
0.1092912332981095
 40
0.1149926747941466
 40
0.1206941107587372
 40
0.1259767356228155
 40
0.1312593586560465
 40
0.1369826049943178
 40
0.1427058489769937
 40
0.1427058489769937
 40
0.1427058489769937
 40
0.1427058489769937
 10
50.50638731058995
 20
16.58161942822238
 30
0.0
 10
50.50695324106808
 20
16.58499267327227
 30
0.0
 10
50.50808508678264
 20
16.59173916121716
 30
0.0
 10
50.50957704078405
 20
16.60128917810067
 30
0.0
 10
50.51091022618919
 20
16.61026093023497
 30
0.0
 10
50.51207750977216
 20
16.61854137309609
 30
0.0
 10
50.51317079857035
 20
16.62671835199785
 30
0.0
 10
50.51417431863575
 20
16.63464841255245
 30
0.0
 10
50.51510650567042
 20
16.6424422522777
 30
0.0
 10
50.51595245046832
 20
16.64993772024331
 30
0.0
 10
50.51673290620823
 20
16.65727694435964
 30
0.0
 10
50.51743383706174
 20
16.6642834031345
 30
0.0
 10
50.51807615095649
 20
16.67111796872098
 30
0.0
 10
50.51864804247895
 20
16.67760516925716
 30
0.0
 10
50.51916948801255
 20
16.68392044211737
 30
0.0
 10
50.51963200885987
 20
16.68991055507524
 30
0.0
 10
50.52005283972412
 20
16.69575010922744
 30
0.0
 10
50.52042526649208
 20
16.70129948252554
 30
0.0
 10
50.52076281575017
 20
16.70671121392524
 30
0.0
 10
50.52107560217817
 20
16.71213170882805
 30
0.0
 10
50.5213723609143
 20
16.71770021293957
 30
0.0
 10
50.52155153550974
 20
16.7215115081151
 30
0.0
 10
50.52164111546995
 20
16.72341715566239
 30
0.0
 11
50.50638731058995
 21
16.58161942822238
 31
0.0
 11
50.50806611316971
 21
16.59174226370538
 31
0.0
 11
50.50965515169043
 21
16.60187956361539
 31
0.0
 11
50.51089979185935
 21
16.61026245374069
 31
0.0
 11
50.51208304744642
 21
16.6186542070792
 31
0.0
 11
50.51316134412951
 21
16.6267195855284
 31
0.0
 11
50.51418294041514
 21
16.63479233412539
 31
0.0
 11
50.51509802671984
 21
16.64244324153787
 31
0.0
 11
50.51596218324914
 21
16.6501000579176
 31
0.0
 11
50.51672545729366
 21
16.65727771642008
 31
0.0
 11
50.51744397662202
 21
16.66445998321717
 31
0.0
 11
50.51806975015614
 21
16.67111855477168
 31
0.0
 11
50.51865705773696
 21
16.67778062010927
 31
0.0
 11
50.51916405164508
 21
16.68392087880488
 31
0.0
 11
50.51963836955934
 21
16.69006374095954
 31
0.0
 11
50.5200481762372
 21
16.69575043546081
 31
0.0
 11
50.52042997991316
 21
16.70143907315241
 31
0.0
 11
50.52075873687766
 21
16.7067114582876
 31
0.0
 11
50.52106343923077
 21
16.71198528643486
 31
0.0
 11
50.52136640209477
 21
16.71770050848471
 31
0.0
 11
50.52164111546995
 21
16.72341715566239
 31
0.0
  0
SPLINE
  5
265
330
2
100
AcDbEntity
  8
GAIKEI
  6
Continuous
 62
     1
100
AcDbSpline
210
0.0
220
0.0
230
1.0
 70
    24
 71
     3
 72
     9
 73
     5
 74
     3
 42
0.0000000001
 43
0.0000000001
 44
0.00000001
 40
0.0
 40
0.0
 40
0.0
 40
0.0
 40
0.0027782538625502
 40
0.0055565077253244
 40
0.0055565077253244
 40
0.0055565077253244
 40
0.0055565077253244
 10
50.50544080419001
 20
16.57614412880258
 30
0.0
 10
50.50559855525668
 20
16.57705667870584
 30
0.0
 10
50.50591405739002
 20
16.57888177851248
 30
0.0
 10
50.50622955952331
 20
16.580706878319
 30
0.0
 10
50.50638731058995
 20
16.58161942822238
 30
0.0
 11
50.50544080419001
 21
16.57614412880258
 31
0.0
 11
50.50591405738998
 21
16.57888177851237
 31
0.0
 11
50.50638731058995
 21
16.58161942822238
 31
0.0
  0
SPLINE
  5
266
330
2
100
AcDbEntity
  8
GAIKEI
  6
Continuous
 62
     1
100
AcDbSpline
210
0.0
220
0.0
230
1.0
 70
     8
 71
     3
 72
    11
 73
     7
 74
     5
 42
0.0000000001
 43
0.0000000001
 44
0.00000001
 40
0.0
 40
0.0
 40
0.0
 40
0.0
 40
0.012504089447449
 40
0.0250080121928444
 40
0.0375117954629197
 40
0.0500157454203045
 40
0.0500157454203045
 40
0.0500157454203045
 40
0.0500157454203045
 10
50.50544080419001
 20
16.72614412880261
 30
0.0
 10
50.50561030624933
 20
16.73030875783462
 30
0.0
 10
50.50594929311924
 20
16.73863796093951
 30
0.0
 10
50.50628183577444
 20
16.75113779526282
 30
0.0
 10
50.50649701445088
 20
16.763640154151
 30
0.0
 10
50.50652311317873
 20
16.7719761186998
 30
0.0
 10
50.50653615512999
 20
16.77614412880257
 30
0.0
 11
50.50544080419001
 21
16.72614412880261
 31
0.0
 11
50.50591998237013
 21
16.73863903346387
 31
0.0
 11
50.50626228638384
 21
16.75113827003179
 31
0.0
 11
50.50646768550814
 21
16.76364036625841
 31
0.0
 11
50.50653615512999
 21
16.77614412880257
 31
0.0
  0
SPLINE
  5
267
330
2
100
AcDbEntity
  8
GAIKEI
  6
Continuous
 62
     1
100
AcDbSpline
210
0.0
220
0.0
230
1.0
 70
     8
 71
     3
 72
    11
 73
     7
 74
     5
 42
0.0000000001
 43
0.0000000001
 44
0.00000001
 40
0.0
 40
0.0
 40
0.0
 40
0.0
 40
0.0125039595400055
 40
0.0250077523913414
 40
0.0375116655553275
 40
0.0500157454207327
 40
0.0500157454207327
 40
0.0500157454207327
 40
0.0500157454207327
 10
50.50653615512999
 20
16.77614412880257
 30
0.0
 10
50.50652311316446
 20
16.78031214209954
 30
0.0
 10
50.50649701440814
 20
16.78864811303663
 30
0.0
 10
50.50628183550916
 20
16.80115047511623
 30
0.0
 10
50.5059492927656
 20
16.81365030624135
 30
0.0
 10
50.50561030613142
 20
16.8219795029625
 30
0.0
 10
50.50544080419001
 20
16.82614412880258
 30
0.0
 11
50.50653615512999
 21
16.77614412880257
 31
0.0
 11
50.50646768541708
 21
16.78864790092899
 31
0.0
 11
50.5062622859777
 21
16.80115000673299
 31
0.0
 11
50.50591998206181
 21
16.81364923371859
 31
0.0
 11
50.50544080419001
 21
16.82614412880258
 31
0.0
  0
SPLINE
  5
268
330
2
100
AcDbEntity
  8
GAIKEI
  6
Continuous
 62
     1
100
AcDbSpline
210
0.0
220
0.0
230
1.0
 70
    24
 71
     3
 72
     9
 73
     5
 74
     3
 42
0.0000000001
 43
0.0000000001
 44
0.00000001
 40
0.0
 40
0.0
 40
0.0
 40
0.0
 40
0.0027782538678867
 40
0.0055565077357735
 40
0.0055565077357735
 40
0.0055565077357735
 40
0.0055565077357735
 10
50.50638731064998
 20
16.97066882938259
 30
0.0
 10
50.50622955957331
 20
16.97158137928596
 30
0.0
 10
50.50591405742001
 20
16.97340647909254
 30
0.0
 10
50.50559855526667
 20
16.9752315788993
 30
0.0
 10
50.50544080419001
 20
16.97614412880261
 30
0.0
 11
50.50638731064998
 21
16.97066882938259
 31
0.0
 11
50.50591405742
 21
16.9734064790926
 31
0.0
 11
50.50544080419001
 21
16.97614412880261
 31
0.0
  0
SPLINE
  5
269
330
2
100
AcDbEntity
  8
GAIKEI
  6
Continuous
 62
     1
100
AcDbSpline
210
0.0
220
0.0
230
1.0
 70
     8
 71
     3
 72
    29
 73
    25
 74
    23
 42
0.0000000001
 43
0.0000000001
 44
0.00000001
 40
0.0
 40
0.0
 40
0.0
 40
0.0
 40
0.005177095154907
 40
0.0103541932196675
 40
0.0152110966954944
 40
0.0200680016235791
 40
0.0252883078436217
 40
0.0305086179403792
 40
0.0360935525410098
 40
0.0416784915412387
 40
0.0476643760985198
 40
0.053650266254119
 40
0.060042714546311
 40
0.0664351688665574
 40
0.0732061613388727
 40
0.0799771599597051
 40
0.0870945530875215
 40
0.0942119527244175
 40
0.1016401048383706
 40
0.1090682613429565
 40
0.1167613502307794
 40
0.1244544541546346
 40
0.1335801741721461
 40
0.1427058970024691
 40
0.1427058970024691
 40
0.1427058970024691
 40
0.1427058970024691
 10
50.52164111546995
 20
16.82887110194258
 30
0.0
 10
50.52156031823513
 20
16.83059491069048
 30
0.0
 10
50.52139870908462
 20
16.83404252845526
 30
0.0
 10
50.52113260069379
 20
16.83910593202438
 30
0.0
 10
50.52085220581222
 20
16.84406165233815
 30
0.0
 10
50.52054974360277
 20
16.84903050912169
 30
0.0
 10
50.52021789198987
 20
16.85411889013812
 30
0.0
 10
50.51984618812361
 20
16.85944781054337
 30
0.0
 10
50.51944061342472
 20
16.86489615194023
 30
0.0
 10
50.51898859329106
 20
16.87059686711757
 30
0.0
 10
50.51849686992667
 20
16.87642843694613
 30
0.0
 10
50.51795100661347
 20
16.88252548485644
 30
0.0
 10
50.51735975949057
 20
16.8887544506826
 30
0.0
 10
50.51670796937106
 20
16.89524044744087
 30
0.0
 10
50.51600599691923
 20
16.90184811821302
 30
0.0
 10
50.51523846815516
 20
16.90869171255406
 30
0.0
 10
50.51441636005861
 20
16.91564525797537
 30
0.0
 10
50.51352446902438
 20
16.92281099259583
 30
0.0
 10
50.51257417298316
 20
16.93007370606449
 30
0.0
 10
50.51155112017184
 20
16.93752027303344
 30
0.0
 10
50.51046715923884
 20
16.94504747082999
 30
0.0
 10
50.50924772620638
 20
16.95312663981792
 30
0.0
 10
50.50789976945172
 20
16.96166926720468
 30
0.0
 10
50.50689146845987
 20
16.9676689758175
 30
0.0
 10
50.50638731064998
 20
16.97066882938259
 30
0.0
 11
50.52164111546995
 21
16.82887110194258
 31
0.0
 11
50.52139383641213
 21
16.8340422882552
 31
0.0
 11
50.52112344153591
 21
16.83921232033816
 31
0.0
 11
50.52084875972821
 21
16.84406145035348
 31
0.0
 11
50.52055374258452
 21
16.84890938712732
 31
0.0
 11
50.52021398344902
 21
16.8541186252117
 31
0.0
 11
50.51985074481439
 21
16.85932628263379
 31
0.0
 11
50.51943614706534
 21
16.86489580719888
 31
0.0
 11
50.51899469330277
 21
16.87046327186948
 31
0.0
 11
50.51849174243966
 21
16.87642798938748
 31
0.0
 11
50.51795796619206
 21
16.88239003304238
 31
0.0
 11
50.51735391621924
 21
16.88875387775499
 31
0.0
 11
50.51671474590893
 21
16.89511429709978
 31
0.0
 11
50.51599944754196
 21
16.90184740099346
 31
0.0
 11
50.51524479248371
 21
16.9085762135756
 31
0.0
 11
50.51440913161366
 21
16.91564437858369
 31
0.0
 11
50.51353004407423
 21
16.92270728049345
 31
0.0
 11
50.51256630013018
 21
16.9300726482482
 31
0.0
 11
50.51155533066316
 21
16.9374316869409
 31
0.0
 11
50.51045856764898
 21
16.94504619468785
 31
0.0
 11
50.50931124148758
 21
16.95265326319838
 31
0.0
 11
50.50788476902517
 21
16.96166680540239
 31
0.0
 11
50.50638731064998
 21
16.97066882938259
 31
0.0
  0
SPLINE
  5
26A
330
2
100
AcDbEntity
  8
GAIKEI
  6
Continuous
 62
     1
100
AcDbSpline
210
0.0
220
0.0
230
1.0
 70
    24
 71
     3
 72
     9
 73
     5
 74
     3
 42
0.0000000001
 43
0.0000000001
 44
0.00000001
 40
0.0
 40
0.0
 40
0.0
 40
0.0
 40
0.0013648297196229
 40
0.0027296594393038
 40
0.0027296594393038
 40
0.0027296594393038
 40
0.0027296594393038
 10
50.52176218630996
 20
16.82614412880258
 30
0.0
 10
50.52174200783662
 20
16.82659862432586
 30
0.0
 10
50.52170165089001
 20
16.82750761537266
 30
0.0
 10
50.52166129394329
 20
16.82841660641924
 30
0.0
 10
50.52164111546995
 20
16.82887110194258
 30
0.0
 11
50.52176218630996
 21
16.82614412880258
 31
0.0
 11
50.52170165088995
 21
16.82750761537249
 31
0.0
 11
50.52164111546995
 21
16.82887110194258
 31
0.0
  0
SPLINE
  5
26B
330
2
100
AcDbEntity
  8
GAIKEI
  6
Continuous
 62
     1
100
AcDbSpline
210
0.0
220
0.0
230
1.0
 70
    24
 71
     3
 72
     9
 73
     5
 74
     3
 42
0.0000000001
 43
0.0000000001
 44
0.00000001
 40
0.0
 40
0.0
 40
0.0
 40
0.0
 40
0.0027782538678307
 40
0.0055565077357735
 40
0.0055565077357735
 40
0.0055565077357735
 40
0.0055565077357735
 10
50.50638731064998
 20
10.72066882938259
 30
0.0
 10
50.50622955957331
 20
10.72158137928591
 30
0.0
 10
50.50591405741997
 20
10.72340647909254
 30
0.0
 10
50.50559855526667
 20
10.72523157889924
 30
0.0
 10
50.50544080419001
 20
10.72614412880261
 30
0.0
 11
50.50638731064998
 21
10.72066882938259
 31
0.0
 11
50.50591405742
 21
10.7234064790926
 31
0.0
 11
50.50544080419001
 21
10.72614412880261
 31
0.0
  0
SPLINE
  5
26C
330
2
100
AcDbEntity
  8
GAIKEI
  6
Continuous
 62
     1
100
AcDbSpline
210
0.0
220
0.0
230
1.0
 70
    24
 71
     3
 72
     9
 73
     5
 74
     3
 42
0.0000000001
 43
0.0000000001
 44
0.00000001
 40
0.0
 40
0.0
 40
0.0
 40
0.0
 40
0.001667142427859
 40
0.0033342848557646
 40
0.0033342848557646
 40
0.0033342848557646
 40
0.0033342848557646
 10
50.50694266286996
 20
10.7173811190226
 30
0.0
 10
50.5068501041666
 20
10.71792907074922
 30
0.0
 10
50.50666498675991
 20
10.71902497420251
 30
0.0
 10
50.5064798693533
 20
10.72012087765591
 30
0.0
 10
50.50638731064998
 20
10.72066882938259
 30
0.0
 11
50.50694266286996
 21
10.7173811190226
 31
0.0
 11
50.50666498675997
 21
10.71902497420257
 31
0.0
 11
50.50638731064998
 21
10.72066882938259
 31
0.0
  0
SPLINE
  5
26D
330
2
100
AcDbEntity
  8
GAIKEI
  6
Continuous
 62
     1
100
AcDbSpline
210
0.0
220
0.0
230
1.0
 70
    24
 71
     3
 72
     9
 73
     5
 74
     3
 42
0.0000000001
 43
0.0000000001
 44
0.00000001
 40
0.0
 40
0.0
 40
0.0
 40
0.0
 40
0.0013648297196803
 40
0.0027296594394742
 40
0.0027296594394742
 40
0.0027296594394742
 40
0.0027296594394742
 10
50.52164111546995
 20
12.4534171556624
 30
0.0
 10
50.52166129394328
 20
12.45387165118575
 30
0.0
 10
50.52170165089001
 20
12.45478064223255
 30
0.0
 10
50.52174200783662
 20
12.45568963327918
 30
0.0
 10
50.52176218630996
 20
12.45614412880257
 30
0.0
 11
50.52164111546995
 21
12.4534171556624
 31
0.0
 11
50.52170165088995
 21
12.45478064223243
 31
0.0
 11
50.52176218630996
 21
12.45614412880257
 31
0.0
  0
SPLINE
  5
26E
330
2
100
AcDbEntity
  8
GAIKEI
  6
Continuous
 62
     1
100
AcDbSpline
210
0.0
220
0.0
230
1.0
 70
     8
 71
     3
 72
    27
 73
    23
 74
    21
 42
0.0000000001
 43
0.0000000001
 44
0.00000001
 40
0.0
 40
0.0
 40
0.0
 40
0.0
 40
0.0102611001428371
 40
0.0205221864273559
 40
0.0289969710970351
 40
0.0374717346345821
 40
0.0456088749447295
 40
0.0537460076087353
 40
0.0614514450613011
 40
0.0691568718947139
 40
0.0763749996306842
 40
0.083593117493741
 40
0.0902810294892833
 40
0.0969689322926697
 40
0.1031300863170197
 40
0.1092912332983378
 40
0.1149926747943182
 40
0.1206941107589088
 40
0.1259767356229303
 40
0.1312593586560478
 40
0.1369826049942624
 40
0.1427058489769951
 40
0.1427058489769951
 40
0.1427058489769951
 40
0.1427058489769951
 10
50.50638731058995
 20
12.3116194282224
 30
0.0
 10
50.50695324106808
 20
12.31499267327228
 30
0.0
 10
50.50808508678265
 20
12.32173916121712
 30
0.0
 10
50.50957704078399
 20
12.33128917810063
 30
0.0
 10
50.51091022618931
 20
12.34026093023499
 30
0.0
 10
50.51207750977212
 20
12.34854137309594
 30
0.0
 10
50.51317079857037
 20
12.35671835199764
 30
0.0
 10
50.51417431863574
 20
12.36464841255241
 30
0.0
 10
50.5151065056705
 20
12.37244225227755
 30
0.0
 10
50.51595245046829
 20
12.37993772024327
 30
0.0
 10
50.51673290620826
 20
12.38727694435977
 30
0.0
 10
50.51743383706174
 20
12.39428340313441
 30
0.0
 10
50.51807615095646
 20
12.40111796872082
 30
0.0
 10
50.51864804247898
 20
12.40760516925718
 30
0.0
 10
50.51916948801249
 20
12.4139204421175
 30
0.0
 10
50.51963200885989
 20
12.41991055507549
 30
0.0
 10
50.52005283972412
 20
12.42575010922758
 30
0.0
 10
50.52042526649208
 20
12.43129948252584
 30
0.0
 10
50.52076281575015
 20
12.43671121392532
 30
0.0
 10
50.5210756021782
 20
12.44213170882813
 30
0.0
 10
50.5213723609143
 20
12.44770021293959
 30
0.0
 10
50.52155153550974
 20
12.45151150811512
 30
0.0
 10
50.52164111546995
 20
12.4534171556624
 30
0.0
 11
50.50638731058995
 21
12.3116194282224
 31
0.0
 11
50.50806611316971
 21
12.3217422637054
 31
0.0
 11
50.50965515169043
 21
12.33187956361541
 31
0.0
 11
50.5108997918594
 21
12.34026245374059
 31
0.0
 11
50.51208304744642
 21
12.34865420707899
 31
0.0
 11
50.51316134412951
 21
12.35671958552819
 31
0.0
 11
50.51418294041514
 21
12.3647923341253
 31
0.0
 11
50.5150980267199
 21
12.37244324153778
 31
0.0
 11
50.51596218324914
 21
12.38010005791762
 31
0.0
 11
50.51672545729366
 21
12.3872777164201
 31
0.0
 11
50.51744397662202
 21
12.39445998321707
 31
0.0
 11
50.51806975015614
 21
12.40111855477158
 31
0.0
 11
50.51865705773696
 21
12.40778062010929
 31
0.0
 11
50.51916405164508
 21
12.41392087880513
 31
0.0
 11
50.51963836955934
 21
12.42006374095979
 31
0.0
 11
50.5200481762372
 21
12.425750435461
 31
0.0
 11
50.52042997991316
 21
12.4314390731526
 31
0.0
 11
50.52075873687766
 21
12.43671145828773
 31
0.0
 11
50.52106343923077
 21
12.44198528643488
 31
0.0
 11
50.52136640209477
 21
12.44770050848467
 31
0.0
 11
50.52164111546995
 21
12.4534171556624
 31
0.0
  0
SPLINE
  5
26F
330
2
100
AcDbEntity
  8
GAIKEI
  6
Continuous
 62
     1
100
AcDbSpline
210
0.0
220
0.0
230
1.0
 70
    24
 71
     3
 72
     9
 73
     5
 74
     3
 42
0.0000000001
 43
0.0000000001
 44
0.00000001
 40
0.0
 40
0.0
 40
0.0
 40
0.0
 40
0.0027782538627158
 40
0.0055565077253244
 40
0.0055565077253244
 40
0.0055565077253244
 40
0.0055565077253244
 10
50.50544080419001
 20
12.3061441288026
 30
0.0
 10
50.50559855525666
 20
12.30705667870592
 30
0.0
 10
50.50591405738996
 20
12.3088817785125
 30
0.0
 10
50.50622955952329
 20
12.31070687831914
 30
0.0
 10
50.50638731058995
 20
12.3116194282224
 30
0.0
 11
50.50544080419001
 21
12.3061441288026
 31
0.0
 11
50.50591405738998
 21
12.30888177851261
 31
0.0
 11
50.50638731058995
 21
12.3116194282224
 31
0.0
  0
SPLINE
  5
270
330
2
100
AcDbEntity
  8
GAIKEI
  6
Continuous
 62
     1
100
AcDbSpline
210
0.0
220
0.0
230
1.0
 70
     8
 71
     3
 72
    11
 73
     7
 74
     5
 42
0.0000000001
 43
0.0000000001
 44
0.00000001
 40
0.0
 40
0.0
 40
0.0
 40
0.0
 40
0.0125040894476195
 40
0.0250080121930716
 40
0.0375117954630332
 40
0.0500157454203612
 40
0.0500157454203612
 40
0.0500157454203612
 40
0.0500157454203612
 10
50.50544080419001
 20
12.45614412880257
 30
0.0
 10
50.50561030624931
 20
12.46030875783458
 30
0.0
 10
50.50594929311928
 20
12.46863796093976
 30
0.0
 10
50.50628183577441
 20
12.48113779526301
 30
0.0
 10
50.50649701445092
 20
12.49364015415113
 30
0.0
 10
50.50652311317873
 20
12.50197611869987
 30
0.0
 10
50.50653615512999
 20
12.50614412880259
 30
0.0
 11
50.50544080419001
 21
12.45614412880257
 31
0.0
 11
50.50591998237013
 21
12.468639033464
 31
0.0
 11
50.50626228638384
 21
12.48113827003197
 31
0.0
 11
50.50646768550814
 21
12.49364036625849
 31
0.0
 11
50.50653615512999
 21
12.50614412880259
 31
0.0
  0
SPLINE
  5
271
330
2
100
AcDbEntity
  8
GAIKEI
  6
Continuous
 62
     1
100
AcDbSpline
210
0.0
220
0.0
230
1.0
 70
     8
 71
     3
 72
    11
 73
     7
 74
     5
 42
0.0000000001
 43
0.0000000001
 44
0.00000001
 40
0.0
 40
0.0
 40
0.0
 40
0.0
 40
0.0125039595398918
 40
0.0250077523912278
 40
0.0375116655552138
 40
0.0500157454207326
 40
0.0500157454207326
 40
0.0500157454207326
 40
0.0500157454207326
 10
50.50653615512999
 20
12.50614412880259
 30
0.0
 10
50.50652311316446
 20
12.51031214209956
 30
0.0
 10
50.50649701440812
 20
12.51864811303647
 30
0.0
 10
50.50628183550917
 20
12.53115047511619
 30
0.0
 10
50.50594929276558
 20
12.54365030624126
 30
0.0
 10
50.50561030613143
 20
12.55197950296252
 30
0.0
 10
50.50544080419001
 20
12.5561441288026
 30
0.0
 11
50.50653615512999
 21
12.50614412880259
 31
0.0
 11
50.50646768541708
 21
12.5186479009289
 31
0.0
 11
50.5062622859777
 21
12.5311500067329
 31
0.0
 11
50.50591998206181
 21
12.5436492337185
 31
0.0
 11
50.50544080419001
 21
12.5561441288026
 31
0.0
  0
SPLINE
  5
272
330
2
100
AcDbEntity
  8
GAIKEI
  6
Continuous
 62
     1
100
AcDbSpline
210
0.0
220
0.0
230
1.0
 70
    24
 71
     3
 72
     9
 73
     5
 74
     3
 42
0.0000000001
 43
0.0000000001
 44
0.00000001
 40
0.0
 40
0.0
 40
0.0
 40
0.0
 40
0.0027782538681156
 40
0.0055565077359415
 40
0.0055565077359415
 40
0.0055565077359415
 40
0.0055565077359415
 10
50.50638731064998
 20
12.70066882938238
 30
0.0
 10
50.50622955957331
 20
12.70158137928575
 30
0.0
 10
50.50591405741997
 20
12.70340647909256
 30
0.0
 10
50.50559855526666
 20
12.70523157889926
 30
0.0
 10
50.50544080419001
 20
12.70614412880258
 30
0.0
 11
50.50638731064998
 21
12.70066882938238
 31
0.0
 11
50.50591405742
 21
12.70340647909262
 31
0.0
 11
50.50544080419001
 21
12.70614412880258
 31
0.0
  0
SPLINE
  5
273
330
2
100
AcDbEntity
  8
GAIKEI
  6
Continuous
 62
     1
100
AcDbSpline
210
0.0
220
0.0
230
1.0
 70
     8
 71
     3
 72
    29
 73
    25
 74
    23
 42
0.0000000001
 43
0.0000000001
 44
0.00000001
 40
0.0
 40
0.0
 40
0.0
 40
0.0
 40
0.0051770951551341
 40
0.0103541932200082
 40
0.015211096695835
 40
0.020068001623863
 40
0.0252883078439056
 40
0.0305086179407765
 40
0.0360935525413547
 40
0.0416784915414658
 40
0.0476643760986335
 40
0.0536502662543459
 40
0.0600427145465946
 40
0.0664351688668975
 40
0.0732061613392129
 40
0.0799771599599322
 40
0.087094553087805
 40
0.0942119527247575
 40
0.1016401048385489
 40
0.1090682613431833
 40
0.1167613502311268
 40
0.1244544541549736
 40
0.1335801741723728
 40
0.1427058970024715
 40
0.1427058970024715
 40
0.1427058970024715
 40
0.1427058970024715
 10
50.52164111546995
 20
12.55887110194237
 30
0.0
 10
50.52156031823511
 20
12.56059491069033
 30
0.0
 10
50.52139870908465
 20
12.56404252845522
 30
0.0
 10
50.52113260069372
 20
12.56910593202446
 30
0.0
 10
50.5208522058122
 20
12.57406165233829
 30
0.0
 10
50.5205497436028
 20
12.57903050912182
 30
0.0
 10
50.52021789198987
 20
12.58411889013826
 30
0.0
 10
50.51984618812362
 20
12.58944781054356
 30
0.0
 10
50.51944061342465
 20
12.59489615194036
 30
0.0
 10
50.51898859329106
 20
12.60059686711753
 30
0.0
 10
50.51849686992667
 20
12.6064284369462
 30
0.0
 10
50.51795100661343
 20
12.61252548485635
 30
0.0
 10
50.51735975949064
 20
12.61875445068273
 30
0.0
 10
50.51670796937101
 20
12.62524044744094
 30
0.0
 10
50.51600599691927
 20
12.63184811821316
 30
0.0
 10
50.51523846815513
 20
12.63869171255419
 30
0.0
 10
50.51441636005865
 20
12.64564525797533
 30
0.0
 10
50.51352446902445
 20
12.65281099259607
 30
0.0
 10
50.51257417298304
 20
12.66007370606451
 30
0.0
 10
50.5115511201719
 20
12.66752027303352
 30
0.0
 10
50.5104671592387
 20
12.67504747083012
 30
0.0
 10
50.50924772620644
 20
12.68312663981805
 30
0.0
 10
50.5078997694517
 20
12.69166926720464
 30
0.0
 10
50.50689146845984
 20
12.69766897581741
 30
0.0
 10
50.50638731064998
 20
12.70066882938238
 30
0.0
 11
50.52164111546995
 21
12.55887110194237
 31
0.0
 11
50.52139383641213
 21
12.56404228825522
 31
0.0
 11
50.52112344153591
 21
12.56921232033829
 31
0.0
 11
50.52084875972821
 21
12.57406145035361
 31
0.0
 11
50.52055374258452
 21
12.57890938712739
 31
0.0
 11
50.52021398344902
 21
12.58411862521177
 31
0.0
 11
50.51985074481439
 21
12.58932628263397
 31
0.0
 11
50.51943614706527
 21
12.59489580719901
 31
0.0
 11
50.51899469330277
 21
12.6004632718695
 31
0.0
 11
50.51849174243966
 21
12.60642798938738
 31
0.0
 11
50.51795796619206
 21
12.6123900330424
 31
0.0
 11
50.51735391621924
 21
12.61875387775507
 31
0.0
 11
50.51671474590893
 21
12.62511429709991
 31
0.0
 11
50.51599944754196
 21
12.63184740099359
 31
0.0
 11
50.51524479248371
 21
12.63857621357562
 31
0.0
 11
50.51440913161366
 21
12.64564437858377
 31
0.0
 11
50.51353004407423
 21
12.65270728049358
 31
0.0
 11
50.51256630013011
 21
12.66007264824816
 31
0.0
 11
50.51155533066316
 21
12.66743168694091
 31
0.0
 11
50.51045856764893
 21
12.67504619468798
 31
0.0
 11
50.50931124148758
 21
12.68265326319852
 31
0.0
 11
50.50788476902517
 21
12.6916668054024
 31
0.0
 11
50.50638731064998
 21
12.70066882938238
 31
0.0
  0
SPLINE
  5
274
330
2
100
AcDbEntity
  8
GAIKEI
  6
Continuous
 62
     1
100
AcDbSpline
210
0.0
220
0.0
230
1.0
 70
    24
 71
     3
 72
     9
 73
     5
 74
     3
 42
0.0000000001
 43
0.0000000001
 44
0.00000001
 40
0.0
 40
0.0
 40
0.0
 40
0.0
 40
0.0013648297195667
 40
0.0027296594390767
 40
0.0027296594390767
 40
0.0027296594390767
 40
0.0027296594390767
 10
50.52176218630996
 20
12.5561441288026
 30
0.0
 10
50.52174200783662
 20
12.55659862432594
 30
0.0
 10
50.52170165088995
 20
12.55750761537246
 30
0.0
 10
50.52166129394326
 20
12.55841660641908
 30
0.0
 10
50.52164111546995
 20
12.55887110194237
 30
0.0
 11
50.52176218630996
 21
12.5561441288026
 31
0.0
 11
50.52170165088995
 21
12.55750761537246
 31
0.0
 11
50.52164111546995
 21
12.55887110194237
 31
0.0
  0
SPLINE
  5
275
330
2
100
AcDbEntity
  8
GAIKEI
  6
Continuous
 62
     1
100
AcDbSpline
210
0.0
220
0.0
230
1.0
 70
     8
 71
     3
 72
    15
 73
    11
 74
     9
 42
0.0000000001
 43
0.0000000001
 44
0.00000001
 40
0.0
 40
0.0
 40
0.0
 40
0.0
 40
0.0396089899723966
 40
0.07914015623918
 40
0.1027751387767411
 40
0.1264288113206329
 40
0.1500771737312264
 40
0.1737069280787186
 40
0.2132985681173639
 40
0.2529694542287514
 40
0.2529694542287514
 40
0.2529694542287514
 40
0.2529694542287514
 10
50.92544757796997
 20
10.79114412880239
 30
0.0
 10
50.93183067661069
 20
10.80272409612621
 30
0.0
 10
50.94458431940899
 20
10.82586128511639
 30
0.0
 10
50.95561818684105
 20
10.85850274186191
 30
0.0
 10
50.96141260442085
 20
10.88691273878544
 30
0.0
 10
50.96286868103486
 20
10.91058617883686
 30
0.0
 10
50.96142794543272
 20
10.93425885875069
 30
0.0
 10
50.95564692295821
 20
10.96268857662738
 30
0.0
 10
50.94461423848028
 20
10.99537288912717
 30
0.0
 10
50.93184072609054
 20
11.01854599503133
 30
0.0
 10
50.92544757796997
 20
11.03014412880259
 30
0.0
 11
50.92544757796997
 21
10.79114412880239
 31
0.0
 11
50.94353047352234
 21
10.82638446224598
 31
0.0
 11
50.95631990741225
 21
10.86378959033448
 31
0.0
 11
50.960865444675
 21
10.88698335087531
 31
0.0
 11
50.96238576272532
 21
10.91058811515068
 31
0.0
 11
50.96088065237717
 21
10.93418853307457
 31
0.0
 11
50.95634990787823
 21
10.9573798608132
 31
0.0
 11
50.94355624544824
 21
10.99484745058237
 31
0.0
 11
50.92544757796997
 21
11.03014412880259
 31
0.0
  0
SPLINE
  5
276
330
2
100
AcDbEntity
  8
GAIKEI
  6
Continuous
 62
     1
100
AcDbSpline
210
0.0
220
0.0
230
1.0
 70
     8
 71
     3
 72
    15
 73
    11
 74
     9
 42
0.0000000001
 43
0.0000000001
 44
0.00000001
 40
0.0
 40
0.0
 40
0.0
 40
0.0
 40
0.0396433116570241
 40
0.079208308913557
 40
0.1028467620773412
 40
0.1265037554125896
 40
0.150145946571443
 40
0.1737694152747607
 40
0.2133300176483217
 40
0.2529694585176516
 40
0.2529694585176516
 40
0.2529694585176516
 40
0.2529694585176516
 10
50.92544757796997
 20
10.55214412880258
 30
0.0
 10
50.93183620028428
 20
10.56373419494377
 30
0.0
 10
50.94460081136728
 20
10.58689143798244
 30
0.0
 10
50.95563480077311
 20
10.61955873809319
 30
0.0
 10
50.96142231429516
 20
10.64798401311202
 30
0.0
 10
50.96286865340402
 20
10.67165834096437
 30
0.0
 10
50.96141850091729
 20
10.6953272884985
 30
0.0
 10
50.9556313617913
 20
10.7237408926307
 30
0.0
 10
50.94459914782842
 20
10.75640054105099
 30
0.0
 10
50.93183567398907
 20
10.77955525210109
 30
0.0
 10
50.92544757796997
 20
10.79114412880239
 30
0.0
 11
50.92544757796997
 21
10.55214412880258
 31
0.0
 11
50.94354465855747
 21
10.58741575989046
 31
0.0
 11
50.95633656299714
 21
10.6248557960692
 31
0.0
 11
50.96087476862869
 21
10.64805452868802
 31
0.0
 11
50.9623857874509
 21
10.67166321764887
 31
0.0
 11
50.96087171815918
 21
10.6952568785685
 31
0.0
 11
50.95633465620142
 21
10.71844056636439
 31
0.0
 11
50.94354326678052
 21
10.75587613417326
 31
0.0
 11
50.92544757796997
 21
10.79114412880239
 31
0.0
  0
SPLINE
  5
277
330
2
100
AcDbEntity
  8
GAIKEI
  6
Continuous
 62
     1
100
AcDbSpline
210
0.0
220
0.0
230
1.0
 70
    24
 71
     3
 72
     9
 73
     5
 74
     3
 42
0.0000000001
 43
0.0000000001
 44
0.00000001
 40
0.0
 40
0.0
 40
0.0
 40
0.0
 40
0.0013648297196803
 40
0.0027296594394742
 40
0.0027296594394742
 40
0.0027296594394742
 40
0.0027296594394742
 10
50.52164111546995
 20
9.653417155662395
 30
0.0
 10
50.52166129394328
 20
9.653871651185738
 30
0.0
 10
50.52170165089001
 20
9.654780642232594
 30
0.0
 10
50.52174200783662
 20
9.655689633279166
 30
0.0
 10
50.52176218630996
 20
9.656144128802566
 30
0.0
 11
50.52164111546995
 21
9.653417155662395
 31
0.0
 11
50.52170165088995
 21
9.654780642232424
 31
0.0
 11
50.52176218630996
 21
9.656144128802566
 31
0.0
  0
SPLINE
  5
278
330
2
100
AcDbEntity
  8
GAIKEI
  6
Continuous
 62
     1
100
AcDbSpline
210
0.0
220
0.0
230
1.0
 70
     8
 71
     3
 72
    27
 73
    23
 74
    21
 42
0.0000000001
 43
0.0000000001
 44
0.00000001
 40
0.0
 40
0.0
 40
0.0
 40
0.0
 40
0.0102611001428371
 40
0.0205221864273559
 40
0.0289969710970351
 40
0.0374717346345821
 40
0.0456088749447295
 40
0.0537460076087353
 40
0.0614514450613575
 40
0.0691568718947138
 40
0.0763749996306842
 40
0.083593117493741
 40
0.0902810294892833
 40
0.0969689322926696
 40
0.1031300863170197
 40
0.1092912332983377
 40
0.1149926747943182
 40
0.1206941107589087
 40
0.1259767356229303
 40
0.1312593586560478
 40
0.1369826049943191
 40
0.142705848976995
 40
0.142705848976995
 40
0.142705848976995
 40
0.142705848976995
 10
50.50638731058995
 20
9.511619428222388
 30
0.0
 10
50.50695324106808
 20
9.514992673272274
 30
0.0
 10
50.50808508678265
 20
9.521739161217112
 30
0.0
 10
50.50957704078399
 20
9.531289178100678
 30
0.0
 10
50.51091022618931
 20
9.540260930234921
 30
0.0
 10
50.51207750977212
 20
9.548541373095815
 30
0.0
 10
50.51317079857039
 20
9.556718351997801
 30
0.0
 10
50.51417431863576
 20
9.564648412552344
 30
0.0
 10
50.5151065056705
 20
9.572442252277596
 30
0.0
 10
50.51595245046826
 20
9.579937720243265
 30
0.0
 10
50.51673290620826
 20
9.5872769443597
 30
0.0
 10
50.51743383706176
 20
9.594283403134397
 30
0.0
 10
50.51807615095644
 20
9.601117968720757
 30
0.0
 10
50.51864804247898
 20
9.60760516925734
 30
0.0
 10
50.51916948801249
 20
9.613920442117432
 30
0.0
 10
50.51963200885989
 20
9.619910555075477
 30
0.0
 10
50.52005283972412
 20
9.625750109227681
 30
0.0
 10
50.52042526649208
 20
9.631299482525776
 30
0.0
 10
50.52076281575015
 20
9.636711213925309
 30
0.0
 10
50.52107560217817
 20
9.64213170882806
 30
0.0
 10
50.5213723609143
 20
9.647700212939639
 30
0.0
 10
50.52155153550974
 20
9.651511508115163
 30
0.0
 10
50.52164111546995
 20
9.653417155662395
 30
0.0
 11
50.50638731058995
 21
9.511619428222388
 31
0.0
 11
50.50806611316971
 21
9.521742263705391
 31
0.0
 11
50.50965515169043
 21
9.531879563615405
 31
0.0
 11
50.5108997918594
 21
9.540262453740581
 31
0.0
 11
50.51208304744642
 21
9.548654207078982
 31
0.0
 11
50.51316134412951
 21
9.556719585528185
 31
0.0
 11
50.51418294041514
 21
9.564792334125286
 31
0.0
 11
50.5150980267199
 21
9.572443241537825
 31
0.0
 11
50.51596218324914
 21
9.580100057917604
 31
0.0
 11
50.51672545729366
 21
9.587277716420089
 31
0.0
 11
50.51744397662202
 21
9.594459983217063
 31
0.0
 11
50.51806975015614
 21
9.601118554771574
 31
0.0
 11
50.51865705773696
 21
9.607780620109281
 31
0.0
 11
50.51916405164508
 21
9.613920878805117
 31
0.0
 11
50.51963836955934
 21
9.620063740959778
 31
0.0
 11
50.5200481762372
 21
9.625750435460986
 31
0.0
 11
50.52042997991316
 21
9.631439073152591
 31
0.0
 11
50.52075873687766
 21
9.63671145828772
 31
0.0
 11
50.52106343923077
 21
9.641985286434874
 31
0.0
 11
50.52136640209477
 21
9.647700508484717
 31
0.0
 11
50.52164111546995
 21
9.653417155662395
 31
0.0
  0
SPLINE
  5
279
330
2
100
AcDbEntity
  8
GAIKEI
  6
Continuous
 62
     1
100
AcDbSpline
210
0.0
220
0.0
230
1.0
 70
    24
 71
     3
 72
     9
 73
     5
 74
     3
 42
0.0000000001
 43
0.0000000001
 44
0.00000001
 40
0.0
 40
0.0
 40
0.0
 40
0.0
 40
0.0027782538627158
 40
0.0055565077253244
 40
0.0055565077253244
 40
0.0055565077253244
 40
0.0055565077253244
 10
50.50544080419001
 20
9.506144128802588
 30
0.0
 10
50.50559855525666
 20
9.507056678705907
 30
0.0
 10
50.50591405738996
 20
9.508881778512545
 30
0.0
 10
50.50622955952329
 20
9.510706878319069
 30
0.0
 10
50.50638731058995
 20
9.511619428222388
 30
0.0
 11
50.50544080419001
 21
9.506144128802588
 31
0.0
 11
50.50591405738998
 21
9.508881778512602
 31
0.0
 11
50.50638731058995
 21
9.511619428222388
 31
0.0
  0
SPLINE
  5
27A
330
2
100
AcDbEntity
  8
GAIKEI
  6
Continuous
 62
     1
100
AcDbSpline
210
0.0
220
0.0
230
1.0
 70
     8
 71
     3
 72
    11
 73
     7
 74
     5
 42
0.0000000001
 43
0.0000000001
 44
0.00000001
 40
0.0
 40
0.0
 40
0.0
 40
0.0
 40
0.0125040894476195
 40
0.0250080121930716
 40
0.0375117954630332
 40
0.0500157454203612
 40
0.0500157454203612
 40
0.0500157454203612
 40
0.0500157454203612
 10
50.50544080419001
 20
9.656144128802566
 30
0.0
 10
50.50561030624931
 20
9.66030875783457
 30
0.0
 10
50.50594929311928
 20
9.668637960939747
 30
0.0
 10
50.50628183577441
 20
9.681137795262941
 30
0.0
 10
50.50649701445092
 20
9.693640154151125
 30
0.0
 10
50.50652311317873
 20
9.70197611869986
 30
0.0
 10
50.50653615512999
 20
9.706144128802577
 30
0.0
 11
50.50544080419001
 21
9.656144128802566
 31
0.0
 11
50.50591998237013
 21
9.668639033463989
 31
0.0
 11
50.50626228638384
 21
9.681138270031965
 31
0.0
 11
50.50646768550814
 21
9.693640366258478
 31
0.0
 11
50.50653615512999
 21
9.706144128802577
 31
0.0
  0
SPLINE
  5
27B
330
2
100
AcDbEntity
  8
GAIKEI
  6
Continuous
 62
     1
100
AcDbSpline
210
0.0
220
0.0
230
1.0
 70
     8
 71
     3
 72
    11
 73
     7
 74
     5
 42
0.0000000001
 43
0.0000000001
 44
0.00000001
 40
0.0
 40
0.0
 40
0.0
 40
0.0
 40
0.0125039595398918
 40
0.0250077523912278
 40
0.0375116655552138
 40
0.0500157454207326
 40
0.0500157454207326
 40
0.0500157454207326
 40
0.0500157454207326
 10
50.50653615512999
 20
9.706144128802577
 30
0.0
 10
50.50652311316446
 20
9.710312142099496
 30
0.0
 10
50.50649701440812
 20
9.718648113036465
 30
0.0
 10
50.50628183550917
 20
9.73115047511618
 30
0.0
 10
50.50594929276558
 20
9.743650306241249
 30
0.0
 10
50.50561030613143
 20
9.751979502962456
 30
0.0
 10
50.50544080419001
 20
9.756144128802588
 30
0.0
 11
50.50653615512999
 21
9.706144128802577
 31
0.0
 11
50.50646768541708
 21
9.718647900928885
 31
0.0
 11
50.5062622859777
 21
9.731150006732889
 31
0.0
 11
50.50591998206181
 21
9.743649233718485
 31
0.0
 11
50.50544080419001
 21
9.756144128802588
 31
0.0
  0
SPLINE
  5
27C
330
2
100
AcDbEntity
  8
GAIKEI
  6
Continuous
 62
     1
100
AcDbSpline
210
0.0
220
0.0
230
1.0
 70
    24
 71
     3
 72
     9
 73
     5
 74
     3
 42
0.0000000001
 43
0.0000000001
 44
0.00000001
 40
0.0
 40
0.0
 40
0.0
 40
0.0
 40
0.0027782538680596
 40
0.0055565077358855
 40
0.0055565077358855
 40
0.0055565077358855
 40
0.0055565077358855
 10
50.50638731064998
 20
9.900668829382425
 30
0.0
 10
50.50622955957331
 20
9.901581379285858
 30
0.0
 10
50.50591405741997
 20
9.903406479092495
 30
0.0
 10
50.50559855526667
 20
9.905231578899247
 30
0.0
 10
50.50544080419001
 20
9.906144128802566
 30
0.0
 11
50.50638731064998
 21
9.900668829382425
 31
0.0
 11
50.50591405742
 21
9.903406479092609
 31
0.0
 11
50.50544080419001
 21
9.906144128802566
 31
0.0
  0
SPLINE
  5
27D
330
2
100
AcDbEntity
  8
GAIKEI
  6
Continuous
 62
     1
100
AcDbSpline
210
0.0
220
0.0
230
1.0
 70
     8
 71
     3
 72
    29
 73
    25
 74
    23
 42
0.0000000001
 43
0.0000000001
 44
0.00000001
 40
0.0
 40
0.0
 40
0.0
 40
0.0
 40
0.0051770951550773
 40
0.0103541932199514
 40
0.0152110966957783
 40
0.0200680016238062
 40
0.0252883078439055
 40
0.0305086179407197
 40
0.0360935525412979
 40
0.041678491541409
 40
0.0476643760986334
 40
0.0536502662542892
 40
0.0600427145465378
 40
0.0664351688668973
 40
0.0732061613392692
 40
0.0799771599599886
 40
0.0870945530879179
 40
0.0942119527247575
 40
0.1016401048385489
 40
0.109068261343127
 40
0.1167613502311268
 40
0.1244544541549174
 40
0.1335801741723165
 40
0.1427058970024714
 40
0.1427058970024714
 40
0.1427058970024714
 40
0.1427058970024714
 10
50.52164111546995
 20
9.758871101942418
 30
0.0
 10
50.52156031823513
 20
9.760594910690372
 30
0.0
 10
50.52139870908463
 20
9.764042528455263
 30
0.0
 10
50.52113260069373
 20
9.769105932024444
 30
0.0
 10
50.52085220581227
 20
9.774061652338332
 30
0.0
 10
50.52054974360274
 20
9.77903050912181
 30
0.0
 10
50.52021789198988
 20
9.784118890138245
 30
0.0
 10
50.51984618812364
 20
9.789447810543606
 30
0.0
 10
50.51944061342466
 20
9.794896151940406
 30
0.0
 10
50.51898859329106
 20
9.800596867117462
 30
0.0
 10
50.51849686992671
 20
9.806428436946305
 30
0.0
 10
50.5179510066134
 20
9.812525484856223
 30
0.0
 10
50.5173597594906
 20
9.818754450682718
 30
0.0
 10
50.51670796937106
 20
9.82524044744099
 30
0.0
 10
50.51600599691927
 20
9.831848118213315
 30
0.0
 10
50.51523846815513
 20
9.838691712554236
 30
0.0
 10
50.51441636005863
 20
9.845645257975547
 30
0.0
 10
50.5135244690244
 20
9.852810992596005
 30
0.0
 10
50.51257417298302
 20
9.86007370606444
 30
0.0
 10
50.5115511201719
 20
9.867520273033505
 30
0.0
 10
50.51046715923871
 20
9.87504747082994
 30
0.0
 10
50.50924772620641
 20
9.883126639818044
 30
0.0
 10
50.50789976945168
 20
9.891669267204633
 30
0.0
 10
50.50689146845986
 20
9.897668975817396
 30
0.0
 10
50.50638731064998
 20
9.900668829382425
 30
0.0
 11
50.52164111546995
 21
9.758871101942418
 31
0.0
 11
50.52139383641213
 21
9.764042288255211
 31
0.0
 11
50.52112344153591
 21
9.769212320338283
 31
0.0
 11
50.52084875972821
 21
9.774061450353599
 31
0.0
 11
50.52055374258452
 21
9.778909387127384
 31
0.0
 11
50.52021398344902
 21
9.784118625211817
 31
0.0
 11
50.51985074481439
 21
9.789326282633965
 31
0.0
 11
50.51943614706527
 21
9.794895807198997
 31
0.0
 11
50.51899469330277
 21
9.800463271869489
 31
0.0
 11
50.51849174243966
 21
9.806427989387429
 31
0.0
 11
50.51795796619206
 21
9.81239003304239
 31
0.0
 11
50.51735391621924
 21
9.818753877755057
 31
0.0
 11
50.51671474590893
 21
9.825114297099958
 31
0.0
 11
50.51599944754196
 21
9.831847400993694
 31
0.0
 11
50.51524479248371
 21
9.83857621357572
 31
0.0
 11
50.51440913161366
 21
9.845644378583926
 31
0.0
 11
50.51353004407423
 21
9.852707280493632
 31
0.0
 11
50.51256630013011
 21
9.860072648248205
 31
0.0
 11
50.51155533066316
 21
9.867431686940904
 31
0.0
 11
50.51045856764893
 21
9.875046194688025
 31
0.0
 11
50.50931124148758
 21
9.882653263198506
 31
0.0
 11
50.50788476902517
 21
9.891666805402394
 31
0.0
 11
50.50638731064998
 21
9.900668829382425
 31
0.0
  0
SPLINE
  5
27E
330
2
100
AcDbEntity
  8
GAIKEI
  6
Continuous
 62
     1
100
AcDbSpline
210
0.0
220
0.0
230
1.0
 70
    24
 71
     3
 72
     9
 73
     5
 74
     3
 42
0.0000000001
 43
0.0000000001
 44
0.00000001
 40
0.0
 40
0.0
 40
0.0
 40
0.0
 40
0.0013648297195667
 40
0.0027296594391335
 40
0.0027296594391335
 40
0.0027296594391335
 40
0.0027296594391335
 10
50.52176218630996
 20
9.756144128802588
 30
0.0
 10
50.52174200783659
 20
9.756598624325874
 30
0.0
 10
50.52170165088994
 20
9.757507615372446
 30
0.0
 10
50.52166129394331
 20
9.758416606419189
 30
0.0
 10
50.52164111546995
 20
9.758871101942418
 30
0.0
 11
50.52176218630996
 21
9.756144128802588
 31
0.0
 11
50.52170165088995
 21
9.757507615372446
 31
0.0
 11
50.52164111546995
 21
9.758871101942418
 31
0.0
  0
SPLINE
  5
27F
330
2
100
AcDbEntity
  8
GAIKEI
  6
Continuous
 62
     1
100
AcDbSpline
210
0.0
220
0.0
230
1.0
 70
    24
 71
     3
 72
     9
 73
     5
 74
     3
 42
0.0000000001
 43
0.0000000001
 44
0.00000001
 40
0.0
 40
0.0
 40
0.0
 40
0.0
 40
0.0013648297197964
 40
0.0027296594395335
 40
0.0027296594395335
 40
0.0027296594395335
 40
0.0027296594395335
 10
50.65164111546994
 20
17.17341715566238
 30
0.0
 10
50.65166129394331
 20
17.17387165118572
 30
0.0
 10
50.65170165089
 20
17.17478064223246
 30
0.0
 10
50.65174200783669
 20
17.17568963327926
 30
0.0
 10
50.65176218631001
 20
17.1761441288026
 30
0.0
 11
50.65164111546994
 21
17.17341715566238
 31
0.0
 11
50.65170165089
 21
17.17478064223246
 31
0.0
 11
50.65176218631001
 21
17.1761441288026
 31
0.0
  0
SPLINE
  5
280
330
2
100
AcDbEntity
  8
GAIKEI
  6
Continuous
 62
     1
100
AcDbSpline
210
0.0
220
0.0
230
1.0
 70
     8
 71
     3
 72
    27
 73
    23
 74
    21
 42
0.0000000001
 43
0.0000000001
 44
0.00000001
 40
0.0
 40
0.0
 40
0.0
 40
0.0
 40
0.0102611001427717
 40
0.0205221864272431
 40
0.0289969710970348
 40
0.0374717346346865
 40
0.0456088749448339
 40
0.0537460076088468
 40
0.0614514450614058
 40
0.0691568718947057
 40
0.076374999630682
 40
0.0835931174938519
 40
0.0902810294893889
 40
0.0969689322927236
 40
0.1031300863167857
 40
0.1092912332981605
 40
0.114992674794145
 40
0.120694110758849
 40
0.1259767356228137
 40
0.1312593586560481
 40
0.1369826049943163
 40
0.1427058489769923
 40
0.1427058489769923
 40
0.1427058489769923
 40
0.1427058489769923
 10
50.63638731058995
 20
17.03161942822237
 30
0.0
 10
50.63695324106801
 20
17.03499267327226
 30
0.0
 10
50.63808508678258
 20
17.04173916121709
 30
0.0
 10
50.63957704078404
 20
17.05128917810055
 30
0.0
 10
50.64091022618928
 20
17.0602609302349
 30
0.0
 10
50.64207750977207
 20
17.06854137309597
 30
0.0
 10
50.64317079857026
 20
17.07671835199789
 30
0.0
 10
50.64417431863574
 20
17.08464841255232
 30
0.0
 10
50.64510650567043
 20
17.09244225227769
 30
0.0
 10
50.64595245046817
 20
17.09993772024319
 30
0.0
 10
50.64673290620828
 20
17.10727694435979
 30
0.0
 10
50.64743383706172
 20
17.11428340313438
 30
0.0
 10
50.64807615095637
 20
17.12111796872102
 30
0.0
 10
50.64864804247905
 20
17.12760516925721
 30
0.0
 10
50.64916948801242
 20
17.13392044211736
 30
0.0
 10
50.6496320088598
 20
17.13991055507523
 30
0.0
 10
50.65005283972411
 20
17.14575010922749
 30
0.0
 10
50.65042526649207
 20
17.1512994825257
 30
0.0
 10
50.65076281575014
 20
17.15671121392517
 30
0.0
 10
50.65107560217825
 20
17.16213170882804
 30
0.0
 10
50.65137236091428
 20
17.16770021293956
 30
0.0
 10
50.65155153550974
 20
17.17151150811514
 30
0.0
 10
50.65164111546994
 20
17.17341715566238
 30
0.0
 11
50.63638731058995
 21
17.03161942822237
 31
0.0
 11
50.63806611316966
 21
17.04174226370531
 31
0.0
 11
50.63965515169042
 21
17.05187956361527
 31
0.0
 11
50.6408997918594
 21
17.06026245374056
 31
0.0
 11
50.64208304744636
 21
17.06865420707908
 31
0.0
 11
50.64316134412945
 21
17.07671958552828
 31
0.0
 11
50.64418294041513
 21
17.08479233412538
 31
0.0
 11
50.64509802671984
 21
17.09244324153786
 31
0.0
 11
50.64596218324908
 21
17.10010005791758
 31
0.0
 11
50.64672545729365
 21
17.10727771642007
 31
0.0
 11
50.64744397662201
 21
17.11445998321716
 31
0.0
 11
50.64806975015608
 21
17.12111855477167
 31
0.0
 11
50.64865705773695
 21
17.12778062010932
 31
0.0
 11
50.64916405164502
 21
17.13392087880487
 31
0.0
 11
50.64963836955929
 21
17.14006374095959
 31
0.0
 11
50.65004817623719
 21
17.1457504354608
 31
0.0
 11
50.65042997991316
 21
17.15143907315251
 31
0.0
 11
50.65075873687766
 21
17.15671145828759
 31
0.0
 11
50.65106343923083
 21
17.16198528643485
 31
0.0
 11
50.65136640209477
 21
17.1677005084847
 31
0.0
 11
50.65164111546994
 21
17.17341715566238
 31
0.0
  0
SPLINE
  5
281
330
2
100
AcDbEntity
  8
GAIKEI
  6
Continuous
 62
     1
100
AcDbSpline
210
0.0
220
0.0
230
1.0
 70
    24
 71
     3
 72
     9
 73
     5
 74
     3
 42
0.0000000001
 43
0.0000000001
 44
0.00000001
 40
0.0
 40
0.0
 40
0.0
 40
0.0
 40
0.0027782538625526
 40
0.0055565077253341
 40
0.0055565077253341
 40
0.0055565077253341
 40
0.0055565077253341
 10
50.63544080418996
 20
17.02614412880257
 30
0.0
 10
50.63559855525662
 20
17.02705667870583
 30
0.0
 10
50.63591405738995
 20
17.02888177851235
 30
0.0
 10
50.63622955952327
 20
17.03070687831905
 30
0.0
 10
50.63638731058995
 20
17.03161942822237
 30
0.0
 11
50.63544080418996
 21
17.02614412880257
 31
0.0
 11
50.63591405738998
 21
17.02888177851241
 31
0.0
 11
50.63638731058995
 21
17.03161942822237
 31
0.0
  0
SPLINE
  5
282
330
2
100
AcDbEntity
  8
GAIKEI
  6
Continuous
 62
     1
100
AcDbSpline
210
0.0
220
0.0
230
1.0
 70
     8
 71
     3
 72
    11
 73
     7
 74
     5
 42
0.0000000001
 43
0.0000000001
 44
0.00000001
 40
0.0
 40
0.0
 40
0.0
 40
0.0
 40
0.0125040894474512
 40
0.0250080121928466
 40
0.0375117954629218
 40
0.0500157454203635
 40
0.0500157454203635
 40
0.0500157454203635
 40
0.0500157454203635
 10
50.63544080418996
 20
17.1761441288026
 30
0.0
 10
50.63561030624928
 20
17.18030875783466
 30
0.0
 10
50.63594929311927
 20
17.18863796093956
 30
0.0
 10
50.63628183577444
 20
17.20113779526286
 30
0.0
 10
50.63649701445086
 20
17.21364015415099
 30
0.0
 10
50.63652311317873
 20
17.22197611869984
 30
0.0
 10
50.63653615512999
 20
17.22614412880261
 30
0.0
 11
50.63544080418996
 21
17.1761441288026
 31
0.0
 11
50.63591998237012
 21
17.18863903346386
 31
0.0
 11
50.63626228638383
 21
17.20113827003177
 31
0.0
 11
50.63646768550814
 21
17.2136403662584
 31
0.0
 11
50.63653615512999
 21
17.22614412880261
 31
0.0
  0
SPLINE
  5
283
330
2
100
AcDbEntity
  8
GAIKEI
  6
Continuous
 62
     1
100
AcDbSpline
210
0.0
220
0.0
230
1.0
 70
     8
 71
     3
 72
    11
 73
     7
 74
     5
 42
0.0000000001
 43
0.0000000001
 44
0.00000001
 40
0.0
 40
0.0
 40
0.0
 40
0.0
 40
0.0125039595399483
 40
0.0250077523912852
 40
0.0375116655552713
 40
0.0500157454206787
 40
0.0500157454206787
 40
0.0500157454206787
 40
0.0500157454206787
 10
50.63653615512999
 20
17.22614412880261
 30
0.0
 10
50.63652311316449
 20
17.23031214209959
 30
0.0
 10
50.63649701440823
 20
17.23864811303662
 30
0.0
 10
50.6362818355091
 20
17.25115047511627
 30
0.0
 10
50.63594929276561
 20
17.26365030624134
 30
0.0
 10
50.63561030613138
 20
17.27197950296249
 30
0.0
 10
50.63544080418996
 20
17.27614412880257
 30
0.0
 11
50.63653615512999
 21
17.22614412880261
 31
0.0
 11
50.63646768541713
 21
17.23864790092898
 31
0.0
 11
50.63626228597769
 21
17.25115000673298
 31
0.0
 11
50.63591998206181
 21
17.26364923371858
 31
0.0
 11
50.63544080418996
 21
17.27614412880257
 31
0.0
  0
SPLINE
  5
284
330
2
100
AcDbEntity
  8
GAIKEI
  6
Continuous
 62
     1
100
AcDbSpline
210
0.0
220
0.0
230
1.0
 70
    24
 71
     3
 72
     9
 73
     5
 74
     3
 42
0.0000000001
 43
0.0000000001
 44
0.00000001
 40
0.0
 40
0.0
 40
0.0
 40
0.0
 40
0.0027782538677796
 40
0.0055565077357832
 40
0.0055565077357832
 40
0.0055565077357832
 40
0.0055565077357832
 10
50.63638731064997
 20
17.42066882938258
 30
0.0
 10
50.63622955957331
 20
17.42158137928578
 30
0.0
 10
50.63591405741995
 20
17.42340647909265
 30
0.0
 10
50.63559855526662
 20
17.42523157889917
 30
0.0
 10
50.63544080418996
 20
17.4261441288026
 30
0.0
 11
50.63638731064997
 21
17.42066882938258
 31
0.0
 11
50.63591405741999
 21
17.42340647909259
 31
0.0
 11
50.63544080418996
 21
17.4261441288026
 31
0.0
  0
SPLINE
  5
285
330
2
100
AcDbEntity
  8
GAIKEI
  6
Continuous
 62
     1
100
AcDbSpline
210
0.0
220
0.0
230
1.0
 70
     8
 71
     3
 72
    29
 73
    25
 74
    23
 42
0.0000000001
 43
0.0000000001
 44
0.00000001
 40
0.0
 40
0.0
 40
0.0
 40
0.0
 40
0.0051770951549043
 40
0.0103541932196678
 40
0.0152110966955514
 40
0.0200680016235794
 40
0.025288307843622
 40
0.0305086179404362
 40
0.0360935525411277
 40
0.0416784915412343
 40
0.047664376098572
 40
0.0536502662543461
 40
0.0600427145465947
 40
0.0664351688667845
 40
0.0732061613390434
 40
0.079977159959587
 40
0.0870945530875162
 40
0.0942119527244757
 40
0.1016401048383724
 40
0.1090682613429506
 40
0.1167613502308378
 40
0.1244544541546199
 40
0.1335801741721491
 40
0.1427058970024722
 40
0.1427058970024722
 40
0.1427058970024722
 40
0.1427058970024722
 10
50.65164111546994
 20
17.27887110194257
 30
0.0
 10
50.65156031823516
 20
17.28059491069046
 30
0.0
 10
50.6513987090847
 20
17.28404252845519
 30
0.0
 10
50.6511326006937
 20
17.28910593202437
 30
0.0
 10
50.65085220581223
 20
17.29406165233814
 30
0.0
 10
50.65054974360279
 20
17.29903050912173
 30
0.0
 10
50.65021789198986
 20
17.30411889013817
 30
0.0
 10
50.64984618812364
 20
17.30944781054359
 30
0.0
 10
50.6494406134246
 20
17.31489615194027
 30
0.0
 10
50.64898859329113
 20
17.32059686711756
 30
0.0
 10
50.64849686992676
 20
17.32642843694629
 30
0.0
 10
50.64795100661346
 20
17.33252548485666
 30
0.0
 10
50.64735975949059
 20
17.33875445068281
 30
0.0
 10
50.64670796937105
 20
17.34524044744114
 30
0.0
 10
50.64600599691925
 20
17.35184811821307
 30
0.0
 10
50.64523846815515
 20
17.35869171255405
 30
0.0
 10
50.64441636005871
 20
17.3656452579753
 30
0.0
 10
50.64352446902439
 20
17.37281099259599
 30
0.0
 10
50.64257417298313
 20
17.38007370606442
 30
0.0
 10
50.64155112017195
 20
17.38752027303354
 30
0.0
 10
50.64046715923876
 20
17.39504747082992
 30
0.0
 10
50.63924772620656
 20
17.40312663981797
 30
0.0
 10
50.63789976945165
 20
17.41166926720461
 30
0.0
 10
50.63689146845985
 20
17.4176689758176
 30
0.0
 10
50.63638731064997
 20
17.42066882938258
 30
0.0
 11
50.65164111546994
 21
17.27887110194257
 31
0.0
 11
50.65139383641218
 21
17.28404228825519
 31
0.0
 11
50.6511234415359
 21
17.28921232033815
 31
0.0
 11
50.65084875972821
 21
17.29406145035352
 31
0.0
 11
50.65055374258452
 21
17.29890938712731
 31
0.0
 11
50.65021398344902
 21
17.30411862521168
 31
0.0
 11
50.64985074481438
 21
17.30932628263383
 31
0.0
 11
50.64943614706527
 21
17.31489580719898
 31
0.0
 11
50.64899469330282
 21
17.32046327186947
 31
0.0
 11
50.64849174243971
 21
17.32642798938752
 31
0.0
 11
50.64795796619205
 21
17.3323900330426
 31
0.0
 11
50.64735391621923
 21
17.33875387775526
 31
0.0
 11
50.64671474590892
 21
17.34511429709999
 31
0.0
 11
50.64599944754196
 21
17.35184740099362
 31
0.0
 11
50.64524479248376
 21
17.35857621357547
 31
0.0
 11
50.64440913161371
 21
17.36564437858368
 31
0.0
 11
50.64353004407422
 21
17.3727072804935
 31
0.0
 11
50.64256630013017
 21
17.38007264824819
 31
0.0
 11
50.64155533066321
 21
17.38743168694088
 31
0.0
 11
50.64045856764898
 21
17.39504619468789
 31
0.0
 11
50.63931124148769
 21
17.40265326319837
 31
0.0
 11
50.63788476902516
 21
17.41166680540237
 31
0.0
 11
50.63638731064997
 21
17.42066882938258
 31
0.0
  0
SPLINE
  5
286
330
2
100
AcDbEntity
  8
GAIKEI
  6
Continuous
 62
     1
100
AcDbSpline
210
0.0
220
0.0
230
1.0
 70
    24
 71
     3
 72
     9
 73
     5
 74
     3
 42
0.0000000001
 43
0.0000000001
 44
0.00000001
 40
0.0
 40
0.0
 40
0.0
 40
0.0
 40
0.0013648297195667
 40
0.0027296594393063
 40
0.0027296594393063
 40
0.0027296594393063
 40
0.0027296594393063
 10
50.65176218631001
 20
17.27614412880257
 30
0.0
 10
50.65174200783667
 20
17.27659862432591
 30
0.0
 10
50.65170165089002
 20
17.27750761537248
 30
0.0
 10
50.65166129394331
 20
17.27841660641923
 30
0.0
 10
50.65164111546994
 20
17.27887110194257
 30
0.0
 11
50.65176218631001
 21
17.27614412880257
 31
0.0
 11
50.65170165089
 21
17.27750761537248
 31
0.0
 11
50.65164111546994
 21
17.27887110194257
 31
0.0
  0
SPLINE
  5
287
330
2
100
AcDbEntity
  8
GAIKEI
  6
Continuous
 62
     1
100
AcDbSpline
210
0.0
220
0.0
230
1.0
 70
    24
 71
     3
 72
     9
 73
     5
 74
     3
 42
0.0000000001
 43
0.0000000001
 44
0.00000001
 40
0.0
 40
0.0
 40
0.0
 40
0.0
 40
0.0013648297196235
 40
0.0027296594391335
 40
0.0027296594391335
 40
0.0027296594391335
 40
0.0027296594391335
 10
50.52164111546995
 20
12.11341715566254
 30
0.0
 10
50.52166129394328
 20
12.11387165118589
 30
0.0
 10
50.52170165088995
 20
12.11478064223246
 30
0.0
 10
50.52174200783662
 20
12.11568963327903
 30
0.0
 10
50.52176218630996
 20
12.11614412880237
 30
0.0
 11
50.52164111546995
 21
12.11341715566254
 31
0.0
 11
50.52170165088995
 21
12.11478064223257
 31
0.0
 11
50.52176218630996
 21
12.11614412880237
 31
0.0
  0
SPLINE
  5
288
330
2
100
AcDbEntity
  8
GAIKEI
  6
Continuous
 62
     1
100
AcDbSpline
210
0.0
220
0.0
230
1.0
 70
     8
 71
     3
 72
    27
 73
    23
 74
    21
 42
0.0000000001
 43
0.0000000001
 44
0.00000001
 40
0.0
 40
0.0
 40
0.0
 40
0.0
 40
0.0102611001427249
 40
0.0205221864269068
 40
0.0289969710967463
 40
0.0374717346343013
 40
0.0456088749444487
 40
0.0537460076086237
 40
0.0614514450611262
 40
0.0691568718944889
 40
0.0763749996304593
 40
0.0835931174936292
 40
0.0902810294892847
 40
0.0969689322925012
 40
0.1031300863165633
 40
0.1092912332979292
 40
0.1149926747939097
 40
0.120694110758504
 40
0.1259767356224724
 40
0.131259358655877
 40
0.1369826049942618
 40
0.1427058489769377
 40
0.1427058489769377
 40
0.1427058489769377
 40
0.1427058489769377
 10
50.50638731058995
 20
11.97161942822259
 30
0.0
 10
50.50695324106804
 20
11.97499267327242
 30
0.0
 10
50.50808508678264
 20
11.9817391612172
 30
0.0
 10
50.50957704078408
 20
11.99128917810054
 30
0.0
 10
50.51091022618916
 20
12.00026093023479
 30
0.0
 10
50.51207750977214
 20
12.00854137309568
 30
0.0
 10
50.51317079857039
 20
12.01671835199784
 30
0.0
 10
50.51417431863573
 20
12.02464841255221
 30
0.0
 10
50.51510650567045
 20
12.03244225227775
 30
0.0
 10
50.51595245046827
 20
12.03993772024319
 30
0.0
 10
50.51673290620826
 20
12.04727694435973
 30
0.0
 10
50.5174338370617
 20
12.05428340313432
 30
0.0
 10
50.51807615095647
 20
12.06111796872119
 30
0.0
 10
50.51864804247895
 20
12.06760516925703
 30
0.0
 10
50.51916948801252
 20
12.07392044211747
 30
0.0
 10
50.51963200885964
 20
12.07991055507517
 30
0.0
 10
50.52005283972397
 20
12.08575010922755
 30
0.0
 10
50.52042526649195
 20
12.09129948252553
 30
0.0
 10
50.52076281575008
 20
12.09671121392517
 30
0.0
 10
50.5210756021782
 20
12.10213170882804
 30
0.0
 10
50.52137236091427
 20
12.10770021293973
 30
0.0
 10
50.52155153550974
 20
12.11151150811531
 30
0.0
 10
50.52164111546995
 20
12.11341715566254
 30
0.0
 11
50.50638731058995
 21
11.97161942822259
 31
0.0
 11
50.50806611316971
 21
11.98174226370548
 31
0.0
 11
50.50965515169043
 21
11.99187956361515
 31
0.0
 11
50.51089979185935
 21
12.0002624537405
 31
0.0
 11
50.51208304744642
 21
12.0086542070789
 31
0.0
 11
50.51316134412951
 21
12.01671958552811
 31
0.0
 11
50.51418294041514
 21
12.02479233412538
 31
0.0
 11
50.51509802671984
 21
12.0324432415378
 31
0.0
 11
50.51596218324914
 21
12.04010005791758
 31
0.0
 11
50.51672545729366
 21
12.04727771642007
 31
0.0
 11
50.51744397662202
 21
12.05445998321716
 31
0.0
 11
50.51806975015614
 21
12.06111855477178
 31
0.0
 11
50.51865705773696
 21
12.06778062010932
 31
0.0
 11
50.51916405164502
 21
12.07392087880487
 31
0.0
 11
50.51963836955917
 21
12.08006374095959
 31
0.0
 11
50.52004817623703
 21
12.08575043546079
 31
0.0
 11
50.52042997991304
 21
12.0914390731524
 31
0.0
 11
50.52075873687761
 21
12.09671145828747
 31
0.0
 11
50.52106343923077
 21
12.10198528643491
 31
0.0
 11
50.52136640209477
 21
12.10770050848487
 31
0.0
 11
50.52164111546995
 21
12.11341715566254
 31
0.0
  0
SPLINE
  5
289
330
2
100
AcDbEntity
  8
GAIKEI
  6
Continuous
 62
     1
100
AcDbSpline
210
0.0
220
0.0
230
1.0
 70
    24
 71
     3
 72
     9
 73
     5
 74
     3
 42
0.0000000001
 43
0.0000000001
 44
0.00000001
 40
0.0
 40
0.0
 40
0.0
 40
0.0
 40
0.0027782538628862
 40
0.0055565077257165
 40
0.0055565077257165
 40
0.0055565077257165
 40
0.0055565077257165
 10
50.50544080419001
 20
11.9661441288024
 30
0.0
 10
50.50559855525668
 20
11.96705667870577
 30
0.0
 10
50.50591405738998
 20
11.96888177851258
 30
0.0
 10
50.50622955952331
 20
11.97070687831922
 30
0.0
 10
50.50638731058995
 20
11.97161942822259
 30
0.0
 11
50.50544080419001
 21
11.9661441288024
 31
0.0
 11
50.50591405738998
 21
11.96888177851247
 31
0.0
 11
50.50638731058995
 21
11.97161942822259
 31
0.0
  0
SPLINE
  5
28A
330
2
100
AcDbEntity
  8
GAIKEI
  6
Continuous
 62
     1
100
AcDbSpline
210
0.0
220
0.0
230
1.0
 70
     8
 71
     3
 72
    11
 73
     7
 74
     5
 42
0.0000000001
 43
0.0000000001
 44
0.00000001
 40
0.0
 40
0.0
 40
0.0
 40
0.0
 40
0.0125040894476195
 40
0.0250080121930716
 40
0.0375117954630332
 40
0.0500157454203612
 40
0.0500157454203612
 40
0.0500157454203612
 40
0.0500157454203612
 10
50.50544080419001
 20
12.11614412880237
 30
0.0
 10
50.50561030624931
 20
12.12030875783438
 30
0.0
 10
50.50594929311928
 20
12.1286379609395
 30
0.0
 10
50.50628183577441
 20
12.14113779526281
 30
0.0
 10
50.50649701445092
 20
12.15364015415088
 30
0.0
 10
50.50652311317873
 20
12.16197611869967
 30
0.0
 10
50.50653615512999
 20
12.16614412880238
 30
0.0
 11
50.50544080419001
 21
12.11614412880237
 31
0.0
 11
50.50591998237013
 21
12.1286390334638
 31
0.0
 11
50.50626228638384
 21
12.14113827003177
 31
0.0
 11
50.50646768550814
 21
12.15364036625828
 31
0.0
 11
50.50653615512999
 21
12.16614412880238
 31
0.0
  0
SPLINE
  5
28B
330
2
100
AcDbEntity
  8
GAIKEI
  6
Continuous
 62
     1
100
AcDbSpline
210
0.0
220
0.0
230
1.0
 70
     8
 71
     3
 72
    11
 73
     7
 74
     5
 42
0.0000000001
 43
0.0000000001
 44
0.00000001
 40
0.0
 40
0.0
 40
0.0
 40
0.0
 40
0.012503959540176
 40
0.0250077523913983
 40
0.0375116655553276
 40
0.0500157454207328
 40
0.0500157454207328
 40
0.0500157454207328
 40
0.0500157454207328
 10
50.50653615512999
 20
12.16614412880238
 30
0.0
 10
50.50652311316447
 20
12.17031214209947
 30
0.0
 10
50.50649701440812
 20
12.1786481130365
 30
0.0
 10
50.50628183550912
 20
12.19115047511605
 30
0.0
 10
50.50594929276558
 20
12.20365030624111
 30
0.0
 10
50.5056103061314
 20
12.21197950296238
 30
0.0
 10
50.50544080419001
 20
12.2161441288024
 30
0.0
 11
50.50653615512999
 21
12.16614412880238
 31
0.0
 11
50.50646768541708
 21
12.17864790092898
 31
0.0
 11
50.5062622859777
 21
12.19115000673287
 31
0.0
 11
50.50591998206181
 21
12.20364923371841
 31
0.0
 11
50.50544080419001
 21
12.2161441288024
 31
0.0
  0
SPLINE
  5
28C
330
2
100
AcDbEntity
  8
GAIKEI
  6
Continuous
 62
     1
100
AcDbSpline
210
0.0
220
0.0
230
1.0
 70
     8
 71
     3
 72
    27
 73
    23
 74
    21
 42
0.0000000001
 43
0.0000000001
 44
0.00000001
 40
0.0
 40
0.0
 40
0.0
 40
0.0
 40
0.0051770951938385
 40
0.0103541932928282
 40
0.0152110967965827
 40
0.0200680017493096
 40
0.0252883079921884
 40
0.0305086181079841
 40
0.0360935527251061
 40
0.0416784917380799
 40
0.0476643763056779
 40
0.053650266469094
 40
0.0600427147626491
 40
0.066435169073218
 40
0.0732061615503166
 40
0.0799771602188481
 40
0.0870945532708048
 40
0.0942119525345463
 40
0.1016401050097288
 40
0.1090682636872436
 40
0.1134714099512006
 40
0.1178745099405253
 40
0.1178745099405253
 40
0.1178745099405253
 40
0.1178745099405253
 10
50.52164111546995
 20
12.21887110194257
 30
0.0
 10
50.52156031823455
 20
12.22059491070337
 30
0.0
 10
50.52139870908273
 20
12.22404252849253
 30
0.0
 10
50.52113260068978
 20
12.22910593209536
 30
0.0
 10
50.52085220580607
 20
12.23406165243796
 30
0.0
 10
50.5205497435944
 20
12.2390305092465
 30
0.0
 10
50.52021789197931
 20
12.24411889028499
 30
0.0
 10
50.51984618811077
 20
12.24944781070974
 30
0.0
 10
50.51944061340982
 20
12.25489615212251
 30
0.0
 10
50.51898859327343
 20
12.26059686731275
 30
0.0
 10
50.51849686990934
 20
12.26642843715194
 30
0.0
 10
50.51795100658494
 20
12.27252548506709
 30
0.0
 10
50.51735975949782
 20
12.27875445089813
 30
0.0
 10
50.51670796923568
 20
12.28524044763566
 30
0.0
 10
50.51600599734445
 20
12.29184811849904
 30
0.0
 10
50.51523846641096
 20
12.29869171253563
 30
0.0
 10
50.51441636679652
 20
12.30564525898216
 30
0.0
 10
50.51352444341393
 20
12.31281098914826
 30
0.0
 10
50.51257427321917
 20
12.32007372055597
 30
0.0
 10
50.51170007310912
 20
12.32643378295506
 30
0.0
 10
50.51093726474707
 20
12.33179123612842
 30
0.0
 10
50.5105095480119
 20
12.33469532700752
 30
0.0
 10
50.51029568357001
 20
12.33614736376256
 30
0.0
 11
50.52164111546995
 21
12.21887110194257
 31
0.0
 11
50.52139383641213
 21
12.2240422882553
 31
0.0
 11
50.52112344153591
 21
12.22921232033832
 31
0.0
 11
50.52084875972821
 21
12.23406145035346
 31
0.0
 11
50.52055374258452
 21
12.23890938712736
 31
0.0
 11
50.52021398344902
 21
12.24411862521191
 31
0.0
 11
50.51985074481439
 21
12.249326282634
 31
0.0
 11
50.51943614706534
 21
12.25489580719897
 31
0.0
 11
50.51899469330277
 21
12.2604632718693
 31
0.0
 11
50.51849174243955
 21
12.26642798938746
 31
0.0
 11
50.51795796619171
 21
12.27239003304379
 31
0.0
 11
50.51735391621912
 21
12.27875387775486
 31
0.0
 11
50.51671474591052
 21
12.2851142970909
 31
0.0
 11
50.51599944754173
 21
12.29184740099424
 31
0.0
 11
50.51524479247274
 21
12.29857621363209
 31
0.0
 11
50.51440913161457
 21
12.3056443785789
 31
0.0
 11
50.51353004414295
 21
12.31270728013908
 31
0.0
 11
50.5125663001254
 21
12.32007264827257
 31
0.0
 11
50.5115553302383
 21
12.32743168913208
 31
0.0
 11
50.51093378834593
 21
12.33179074672307
 31
0.0
 11
50.51029568357001
 21
12.33614736376256
 31
0.0
  0
SPLINE
  5
28D
330
2
100
AcDbEntity
  8
GAIKEI
  6
Continuous
 62
     1
100
AcDbSpline
210
0.0
220
0.0
230
1.0
 70
    24
 71
     3
 72
     9
 73
     5
 74
     3
 42
0.0000000001
 43
0.0000000001
 44
0.00000001
 40
0.0
 40
0.0
 40
0.0
 40
0.0
 40
0.0013648297196235
 40
0.0027296594394742
 40
0.0027296594394742
 40
0.0027296594394742
 40
0.0027296594394742
 10
50.52176218630996
 20
12.2161441288024
 30
0.0
 10
50.52174200783662
 20
12.21659862432568
 30
0.0
 10
50.52170165088994
 20
12.21750761537248
 30
0.0
 10
50.52166129394328
 20
12.21841660641917
 30
0.0
 10
50.52164111546995
 20
12.21887110194257
 30
0.0
 11
50.52176218630996
 21
12.2161441288024
 31
0.0
 11
50.52170165088995
 21
12.21750761537237
 31
0.0
 11
50.52164111546995
 21
12.21887110194257
 31
0.0
  0
SPLINE
  5
28E
330
2
100
AcDbEntity
  8
GAIKEI
  6
Continuous
 62
     1
100
AcDbSpline
210
0.0
220
0.0
230
1.0
 70
    24
 71
     3
 72
     9
 73
     5
 74
     3
 42
0.0000000001
 43
0.0000000001
 44
0.00000001
 40
0.0
 40
0.0
 40
0.0
 40
0.0
 40
0.0013648297196803
 40
0.0027296594391335
 40
0.0027296594391335
 40
0.0027296594391335
 40
0.0027296594391335
 10
50.52164111546995
 20
11.61341715566254
 30
0.0
 10
50.52166129394328
 20
11.61387165118589
 30
0.0
 10
50.52170165088995
 20
11.61478064223252
 30
0.0
 10
50.52174200783662
 20
11.61568963327909
 30
0.0
 10
50.52176218630996
 20
11.61614412880237
 30
0.0
 11
50.52164111546995
 21
11.61341715566254
 31
0.0
 11
50.52170165088995
 21
11.61478064223257
 31
0.0
 11
50.52176218630996
 21
11.61614412880237
 31
0.0
  0
SPLINE
  5
28F
330
2
100
AcDbEntity
  8
GAIKEI
  6
Continuous
 62
     1
100
AcDbSpline
210
0.0
220
0.0
230
1.0
 70
     8
 71
     3
 72
    27
 73
    23
 74
    21
 42
0.0000000001
 43
0.0000000001
 44
0.00000001
 40
0.0
 40
0.0
 40
0.0
 40
0.0
 40
0.0102611001427249
 40
0.0205221864271314
 40
0.0289969710968023
 40
0.0374717346343573
 40
0.0456088749445046
 40
0.0537460076086232
 40
0.0614514450611258
 40
0.0691568718944885
 40
0.0763749996304588
 40
0.0835931174936288
 40
0.090281029489171
 40
0.0969689322925008
 40
0.1031300863165629
 40
0.1092912332979289
 40
0.1149926747939093
 40
0.1206941107585037
 40
0.125976735622472
 40
0.1312593586558766
 40
0.1369826049942614
 40
0.1427058489769374
 40
0.1427058489769374
 40
0.1427058489769374
 40
0.1427058489769374
 10
50.50638731058995
 20
11.47161942822259
 30
0.0
 10
50.50695324106808
 20
11.47499267327242
 30
0.0
 10
50.50808508678267
 20
11.48173916121732
 30
0.0
 10
50.50957704078403
 20
11.4912891781006
 30
0.0
 10
50.51091022618918
 20
11.50026093023496
 30
0.0
 10
50.51207750977216
 20
11.50854137309579
 30
0.0
 10
50.51317079857035
 20
11.51671835199778
 30
0.0
 10
50.51417431863578
 20
11.52464841255238
 30
0.0
 10
50.51510650567038
 20
11.53244225227763
 30
0.0
 10
50.51595245046832
 20
11.53993772024324
 30
0.0
 10
50.51673290620823
 20
11.54727694435968
 30
0.0
 10
50.5174338370617
 20
11.55428340313437
 30
0.0
 10
50.51807615095649
 20
11.56111796872107
 30
0.0
 10
50.51864804247895
 20
11.56760516925709
 30
0.0
 10
50.51916948801251
 20
11.57392044211735
 30
0.0
 10
50.51963200885966
 20
11.57991055507534
 30
0.0
 10
50.52005283972395
 20
11.58575010922743
 30
0.0
 10
50.52042526649197
 20
11.59129948252552
 30
0.0
 10
50.52076281575008
 20
11.59671121392512
 30
0.0
 10
50.5210756021782
 20
11.60213170882809
 30
0.0
 10
50.52137236091427
 20
11.60770021293967
 30
0.0
 10
50.52155153550974
 20
11.61151150811525
 30
0.0
 10
50.52164111546995
 20
11.61341715566254
 30
0.0
 11
50.50638731058995
 21
11.47161942822259
 31
0.0
 11
50.50806611316971
 21
11.48174226370548
 31
0.0
 11
50.50965515169043
 21
11.49187956361538
 31
0.0
 11
50.51089979185935
 21
11.50026245374056
 31
0.0
 11
50.51208304744642
 21
11.50865420707896
 31
0.0
 11
50.51316134412951
 21
11.51671958552816
 31
0.0
 11
50.51418294041514
 21
11.52479233412538
 31
0.0
 11
50.51509802671984
 21
11.5324432415378
 31
0.0
 11
50.51596218324914
 21
11.54010005791758
 31
0.0
 11
50.51672545729366
 21
11.54727771642007
 31
0.0
 11
50.51744397662202
 21
11.55445998321716
 31
0.0
 11
50.51806975015614
 21
11.56111855477166
 31
0.0
 11
50.51865705773696
 21
11.56778062010932
 31
0.0
 11
50.51916405164502
 21
11.57392087880487
 31
0.0
 11
50.51963836955917
 21
11.58006374095958
 31
0.0
 11
50.52004817623703
 21
11.58575043546079
 31
0.0
 11
50.52042997991304
 21
11.5914390731524
 31
0.0
 11
50.52075873687761
 21
11.59671145828747
 31
0.0
 11
50.52106343923077
 21
11.60198528643491
 31
0.0
 11
50.52136640209477
 21
11.60770050848487
 31
0.0
 11
50.52164111546995
 21
11.61341715566254
 31
0.0
  0
SPLINE
  5
290
330
2
100
AcDbEntity
  8
GAIKEI
  6
Continuous
 62
     1
100
AcDbSpline
210
0.0
220
0.0
230
1.0
 70
    24
 71
     3
 72
     9
 73
     5
 74
     3
 42
0.0000000001
 43
0.0000000001
 44
0.00000001
 40
0.0
 40
0.0
 40
0.0
 40
0.0
 40
0.0027782538628862
 40
0.0055565077257165
 40
0.0055565077257165
 40
0.0055565077257165
 40
0.0055565077257165
 10
50.50544080419001
 20
11.4661441288024
 30
0.0
 10
50.50559855525668
 20
11.46705667870577
 30
0.0
 10
50.50591405738998
 20
11.46888177851247
 30
0.0
 10
50.50622955952331
 20
11.47070687831927
 30
0.0
 10
50.50638731058995
 20
11.47161942822259
 30
0.0
 11
50.50544080419001
 21
11.4661441288024
 31
0.0
 11
50.50591405738998
 21
11.46888177851247
 31
0.0
 11
50.50638731058995
 21
11.47161942822259
 31
0.0
  0
SPLINE
  5
291
330
2
100
AcDbEntity
  8
GAIKEI
  6
Continuous
 62
     1
100
AcDbSpline
210
0.0
220
0.0
230
1.0
 70
     8
 71
     3
 72
    11
 73
     7
 74
     5
 42
0.0000000001
 43
0.0000000001
 44
0.00000001
 40
0.0
 40
0.0
 40
0.0
 40
0.0
 40
0.0125040894476195
 40
0.0250080121930716
 40
0.0375117954630332
 40
0.0500157454203612
 40
0.0500157454203612
 40
0.0500157454203612
 40
0.0500157454203612
 10
50.50544080419001
 20
11.61614412880237
 30
0.0
 10
50.50561030624931
 20
11.62030875783438
 30
0.0
 10
50.50594929311928
 20
11.6286379609395
 30
0.0
 10
50.50628183577441
 20
11.64113779526275
 30
0.0
 10
50.50649701445092
 20
11.65364015415093
 30
0.0
 10
50.50652311317873
 20
11.66197611869961
 30
0.0
 10
50.50653615512999
 20
11.66614412880238
 30
0.0
 11
50.50544080419001
 21
11.61614412880237
 31
0.0
 11
50.50591998237013
 21
11.6286390334638
 31
0.0
 11
50.50626228638384
 21
11.64113827003177
 31
0.0
 11
50.50646768550814
 21
11.65364036625828
 31
0.0
 11
50.50653615512999
 21
11.66614412880238
 31
0.0
  0
SPLINE
  5
292
330
2
100
AcDbEntity
  8
GAIKEI
  6
Continuous
 62
     1
100
AcDbSpline
210
0.0
220
0.0
230
1.0
 70
     8
 71
     3
 72
    11
 73
     7
 74
     5
 42
0.0000000001
 43
0.0000000001
 44
0.00000001
 40
0.0
 40
0.0
 40
0.0
 40
0.0
 40
0.012503959540176
 40
0.0250077523913983
 40
0.0375116655553276
 40
0.0500157454207328
 40
0.0500157454207328
 40
0.0500157454207328
 40
0.0500157454207328
 10
50.50653615512999
 20
11.66614412880238
 30
0.0
 10
50.50652311316447
 20
11.67031214209947
 30
0.0
 10
50.50649701440812
 20
11.6786481130365
 30
0.0
 10
50.50628183550912
 20
11.6911504751161
 30
0.0
 10
50.50594929276558
 20
11.70365030624117
 30
0.0
 10
50.5056103061314
 20
11.71197950296226
 30
0.0
 10
50.50544080419001
 20
11.7161441288024
 30
0.0
 11
50.50653615512999
 21
11.66614412880238
 31
0.0
 11
50.50646768541708
 21
11.67864790092898
 31
0.0
 11
50.5062622859777
 21
11.69115000673287
 31
0.0
 11
50.50591998206181
 21
11.70364923371841
 31
0.0
 11
50.50544080419001
 21
11.7161441288024
 31
0.0
  0
SPLINE
  5
293
330
2
100
AcDbEntity
  8
GAIKEI
  6
Continuous
 62
     1
100
AcDbSpline
210
0.0
220
0.0
230
1.0
 70
    24
 71
     3
 72
     9
 73
     5
 74
     3
 42
0.0000000001
 43
0.0000000001
 44
0.00000001
 40
0.0
 40
0.0
 40
0.0
 40
0.0
 40
0.0027782538677211
 40
0.0055565077355494
 40
0.0055565077355494
 40
0.0055565077355494
 40
0.0055565077355494
 10
50.50638731064998
 20
11.86066882938257
 30
0.0
 10
50.50622955957331
 20
11.86158137928583
 30
0.0
 10
50.50591405741997
 20
11.86340647909242
 30
0.0
 10
50.50559855526667
 20
11.86523157889905
 30
0.0
 10
50.50544080419001
 20
11.86614412880237
 30
0.0
 11
50.50638731064998
 21
11.86066882938257
 31
0.0
 11
50.50591405742
 21
11.86340647909247
 31
0.0
 11
50.50544080419001
 21
11.86614412880237
 31
0.0
  0
SPLINE
  5
294
330
2
100
AcDbEntity
  8
GAIKEI
  6
Continuous
 62
     1
100
AcDbSpline
210
0.0
220
0.0
230
1.0
 70
     8
 71
     3
 72
    29
 73
    25
 74
    23
 42
0.0000000001
 43
0.0000000001
 44
0.00000001
 40
0.0
 40
0.0
 40
0.0
 40
0.0
 40
0.0051770951547934
 40
0.0103541932196107
 40
0.0152110966954944
 40
0.0200680016236358
 40
0.0252883078438486
 40
0.030508617940606
 40
0.0360935525412367
 40
0.0416784915412389
 40
0.0476643760984634
 40
0.0536502662541191
 40
0.0600427145464244
 40
0.0664351688667838
 40
0.0732061613390992
 40
0.0799771599596866
 40
0.087094553087503
 40
0.0942119527244624
 40
0.1016401048383739
 40
0.1090682613430725
 40
0.1167613502310159
 40
0.1244544541548628
 40
0.1335801741722619
 40
0.1427058970024728
 40
0.1427058970024728
 40
0.1427058970024728
 40
0.1427058970024728
 10
50.52164111546995
 20
11.71887110194257
 30
0.0
 10
50.52156031823513
 20
11.72059491069046
 30
0.0
 10
50.52139870908459
 20
11.72404252845507
 30
0.0
 10
50.52113260069377
 20
11.72910593202437
 30
0.0
 10
50.52085220581223
 20
11.73406165233814
 30
0.0
 10
50.52054974360277
 20
11.73903050912179
 30
0.0
 10
50.5202178919899
 20
11.74411889013828
 30
0.0
 10
50.51984618812361
 20
11.74944781054364
 30
0.0
 10
50.51944061342474
 20
11.75489615194038
 30
0.0
 10
50.51898859329106
 20
11.76059686711761
 30
0.0
 10
50.51849686992667
 20
11.76642843694623
 30
0.0
 10
50.51795100661343
 20
11.77252548485631
 30
0.0
 10
50.51735975949059
 20
11.7787544506827
 30
0.0
 10
50.51670796937108
 20
11.78524044744108
 30
0.0
 10
50.51600599691917
 20
11.79184811821312
 30
0.0
 10
50.51523846815539
 20
11.79869171255421
 30
0.0
 10
50.51441636005877
 20
11.80564525797524
 30
0.0
 10
50.51352446902457
 20
11.81281099259604
 30
0.0
 10
50.51257417298308
 20
11.82007370606436
 30
0.0
 10
50.5115511201719
 20
11.82752027303371
 30
0.0
 10
50.51046715923873
 20
11.83504747083003
 30
0.0
 10
50.50924772620641
 20
11.84312663981802
 30
0.0
 10
50.50789976945171
 20
11.8516692672049
 30
0.0
 10
50.50689146845987
 20
11.85766897581754
 30
0.0
 10
50.50638731064998
 20
11.86066882938257
 30
0.0
 11
50.52164111546995
 21
11.71887110194257
 31
0.0
 11
50.52139383641213
 21
11.72404228825508
 31
0.0
 11
50.52112344153591
 21
11.72921232033809
 31
0.0
 11
50.52084875972821
 21
11.73406145035346
 31
0.0
 11
50.52055374258452
 21
11.73890938712736
 31
0.0
 11
50.52021398344902
 21
11.74411862521191
 31
0.0
 11
50.51985074481439
 21
11.749326282634
 31
0.0
 11
50.51943614706534
 21
11.75489580719909
 31
0.0
 11
50.51899469330277
 21
11.76046327186947
 31
0.0
 11
50.51849174243966
 21
11.76642798938741
 31
0.0
 11
50.51795796619206
 21
11.77239003304237
 31
0.0
 11
50.51735391621924
 21
11.77875387775509
 31
0.0
 11
50.51671474590893
 21
11.78511429709999
 31
0.0
 11
50.51599944754196
 21
11.79184740099367
 31
0.0
 11
50.51524479248389
 21
11.79857621357558
 31
0.0
 11
50.51440913161383
 21
11.80564437858368
 31
0.0
 11
50.51353004407435
 21
11.8127072804935
 31
0.0
 11
50.51256630013018
 21
11.82007264824818
 31
0.0
 11
50.51155533066316
 21
11.82743168694099
 31
0.0
 11
50.51045856764893
 21
11.83504619468806
 31
0.0
 11
50.50931124148758
 21
11.8426532631986
 31
0.0
 11
50.50788476902517
 21
11.85166680540248
 31
0.0
 11
50.50638731064998
 21
11.86066882938257
 31
0.0
  0
SPLINE
  5
295
330
2
100
AcDbEntity
  8
GAIKEI
  6
Continuous
 62
     1
100
AcDbSpline
210
0.0
220
0.0
230
1.0
 70
    24
 71
     3
 72
     9
 73
     5
 74
     3
 42
0.0000000001
 43
0.0000000001
 44
0.00000001
 40
0.0
 40
0.0
 40
0.0
 40
0.0
 40
0.0013648297196235
 40
0.0027296594394742
 40
0.0027296594394742
 40
0.0027296594394742
 40
0.0027296594394742
 10
50.52176218630996
 20
11.7161441288024
 30
0.0
 10
50.52174200783662
 20
11.71659862432568
 30
0.0
 10
50.52170165088994
 20
11.71750761537248
 30
0.0
 10
50.52166129394328
 20
11.71841660641917
 30
0.0
 10
50.52164111546995
 20
11.71887110194257
 30
0.0
 11
50.52176218630996
 21
11.7161441288024
 31
0.0
 11
50.52170165088995
 21
11.71750761537237
 31
0.0
 11
50.52164111546995
 21
11.71887110194257
 31
0.0
  0
SPLINE
  5
296
330
2
100
AcDbEntity
  8
GAIKEI
  6
Continuous
 62
     1
100
AcDbSpline
210
0.0
220
0.0
230
1.0
 70
    24
 71
     3
 72
     9
 73
     5
 74
     3
 42
0.0000000001
 43
0.0000000001
 44
0.00000001
 40
0.0
 40
0.0
 40
0.0
 40
0.0
 40
0.0062545519851232
 40
0.0125091039701874
 40
0.0125091039701874
 40
0.0125091039701874
 40
0.0125091039701874
 10
50.50592014658997
 20
11.43364421228261
 30
0.0
 10
50.50584025618997
 20
11.43572753170258
 30
0.0
 10
50.50568047538996
 20
11.43989417054251
 30
0.0
 10
50.50552069458999
 20
11.44406080938239
 30
0.0
 10
50.50544080419001
 20
11.44614412880236
 30
0.0
 11
50.50592014658997
 21
11.43364421228261
 31
0.0
 11
50.50568047538996
 21
11.43989417054251
 31
0.0
 11
50.50544080419001
 21
11.44614412880236
 31
0.0
  0
SPLINE
  5
297
330
2
100
AcDbEntity
  8
GAIKEI
  6
Continuous
 62
     1
100
AcDbSpline
210
0.0
220
0.0
230
1.0
 70
     8
 71
     3
 72
    21
 73
    17
 74
    15
 42
0.0000000001
 43
0.0000000001
 44
0.00000001
 40
0.0
 40
0.0
 40
0.0
 40
0.0
 40
0.0051770951648143
 40
0.0103541932389724
 40
0.0152110967251172
 40
0.0200680016675261
 40
0.0252883078928169
 40
0.0305086179705282
 40
0.03609355261577
 40
0.0416784918169706
 40
0.0476643761669724
 40
0.0536502651024146
 40
0.0600427148042716
 40
0.066435177042765
 40
0.0745034623110055
 40
0.082571760698879
 40
0.082571760698879
 40
0.082571760698879
 40
0.082571760698879
 10
50.52164111546995
 20
11.44887110194258
 30
0.0
 10
50.52156031823503
 20
11.45059491069384
 30
0.0
 10
50.52139870908419
 20
11.45404252846504
 30
0.0
 10
50.52113260069194
 20
11.45910593204382
 30
0.0
 10
50.52085220581244
 20
11.46406165236942
 30
0.0
 10
50.52054974359112
 20
11.46903050916148
 30
0.0
 10
50.52021789202044
 20
11.47411889018315
 30
0.0
 10
50.51984618799011
 20
11.47944781057913
 30
0.0
 10
50.51944061394277
 20
11.48489615212975
 30
0.0
 10
50.51898859124759
 20
11.49059686701451
 30
0.0
 10
50.51849687809171
 20
11.49642843765048
 30
0.0
 10
50.51795097545883
 20
11.50252548085888
 30
0.0
 10
50.51735988462907
 20
11.50875446806503
 30
0.0
 10
50.516664211885
 20
11.51567065703909
 30
0.0
 10
50.51586971481902
 20
11.52313828936792
 30
0.0
 10
50.51525336890939
 20
11.52848174290989
 30
0.0
 10
50.51494518840996
 20
11.5311534710226
 30
0.0
 11
50.52164111546995
 21
11.44887110194258
 31
0.0
 11
50.52139383641208
 21
11.45404228825521
 31
0.0
 11
50.52112344153591
 21
11.45921232033748
 31
0.0
 11
50.52084875972815
 21
11.46406145035359
 31
0.0
 11
50.52055374258396
 21
11.4689093871321
 31
0.0
 11
50.52021398344902
 21
11.47411862521136
 31
0.0
 11
50.51985074481786
 21
11.47932628260429
 31
0.0
 11
50.51943614706477
 21
11.4848958072028
 31
0.0
 11
50.5189946932802
 21
11.4904632720623
 31
0.0
 11
50.51849174244257
 21
11.49642798936281
 31
0.0
 11
50.51795796633825
 21
11.50239003179388
 31
0.0
 11
50.51735391620287
 21
11.50875387789477
 31
0.0
 11
50.51671474497317
 21
11.51511430509271
 31
0.0
 11
50.51585790475406
 21
11.52313696380588
 31
0.0
 11
50.51494518840996
 21
11.5311534710226
 31
0.0
  0
SPLINE
  5
298
330
2
100
AcDbEntity
  8
GAIKEI
  6
Continuous
 62
     1
100
AcDbSpline
210
0.0
220
0.0
230
1.0
 70
    24
 71
     3
 72
     9
 73
     5
 74
     3
 42
0.0000000001
 43
0.0000000001
 44
0.00000001
 40
0.0
 40
0.0
 40
0.0
 40
0.0
 40
0.0013648297199075
 40
0.002729659439531
 40
0.002729659439531
 40
0.002729659439531
 40
0.002729659439531
 10
50.52176218630996
 20
11.44614412880236
 30
0.0
 10
50.52174200783665
 20
11.44659862432581
 30
0.0
 10
50.52170165088995
 20
11.4475076153725
 30
0.0
 10
50.52166129394326
 20
11.44841660641924
 30
0.0
 10
50.52164111546995
 20
11.44887110194258
 30
0.0
 11
50.52176218630996
 21
11.44614412880236
 31
0.0
 11
50.52170165088995
 21
11.44750761537261
 31
0.0
 11
50.52164111546995
 21
11.44887110194258
 31
0.0
  0
LINE
  5
299
330
2
100
AcDbEntity
  8
GAIKEI
  6
Continuous
 62
     7
100
AcDbLine
 10
-5.976652898144038
 20
9.056144128802543
 30
0.0
 11
-6.060014894823893
 21
8.097481167162584
 31
0.0
  0
LINE
  5
29A
330
2
100
AcDbEntity
  8
GAIKEI
  6
Continuous
 62
   251
100
AcDbLine
 10
-8.007957245984073
 20
10.48707828290253
 30
0.0
 11
-8.007957245984073
 21
10.40513866430262
 31
0.0
  0
LINE
  5
29B
330
2
100
AcDbEntity
  8
GAIKEI
  6
Continuous
 62
     7
100
AcDbLine
 10
-8.159261593804046
 20
9.056144128802543
 30
0.0
 11
-8.075899597143859
 21
8.097481167162584
 31
0.0
  0
LINE
  5
29C
330
2
100
AcDbEntity
  8
GAIKEI
  6
Continuous
 62
   251
100
AcDbLine
 10
-12.90795724598405
 20
10.40522324928258
 30
0.0
 11
-12.90795724598405
 21
10.48715817076254
 31
0.0
  0
LINE
  5
29D
330
2
100
AcDbEntity
  8
GAIKEI
  6
Continuous
 62
   251
100
AcDbLine
 10
-14.90795724598405
 20
10.48707828290253
 30
0.0
 11
-14.90795724598405
 21
10.40513866430262
 31
0.0
  0
LINE
  5
29E
330
2
100
AcDbEntity
  8
GAIKEI
  6
Continuous
 62
     1
100
AcDbLine
 10
-17.81795724598385
 20
9.056144128802543
 30
0.0
 11
-17.81795724598385
 21
9.036144128802561
 31
0.0
  0
LINE
  5
29F
330
2
100
AcDbEntity
  8
GAIKEI
  6
Continuous
 62
     1
100
AcDbLine
 10
-17.91795724598387
 20
9.056144128802543
 30
0.0
 11
-17.91795724598387
 21
9.036144128802561
 31
0.0
  0
LINE
  5
2A0
330
2
100
AcDbEntity
  8
GAIKEI
  6
Continuous
 62
     1
100
AcDbLine
 10
-18.01795724598389
 20
9.056144128802543
 30
0.0
 11
-18.01795724598389
 21
9.036144128802561
 31
0.0
  0
LINE
  5
2A1
330
2
100
AcDbEntity
  8
GAIKEI
  6
Continuous
 62
     1
100
AcDbLine
 10
-18.11795724598386
 20
9.036144128802561
 30
0.0
 11
-18.11795724598386
 21
9.056144128802543
 31
0.0
  0
LINE
  5
2A2
330
2
100
AcDbEntity
  8
GAIKEI
  6
Continuous
 62
     1
100
AcDbLine
 10
-18.21795724598388
 20
9.036144128802561
 30
0.0
 11
-18.21795724598388
 21
9.056144128802543
 31
0.0
  0
LINE
  5
2A3
330
2
100
AcDbEntity
  8
GAIKEI
  6
Continuous
 62
     7
100
AcDbLine
 10
-43.81802403160389
 20
17.85614412880261
 30
0.0
 11
-1.917890460364048
 21
17.85614412880261
 31
0.0
  0
LINE
  5
2A4
330
2
100
AcDbEntity
  8
GAIKEI
  6
Continuous
 62
     1
100
AcDbLine
 10
-43.79036789616407
 20
17.59451304934259
 30
0.0
 11
-1.945546595783866
 21
17.59451304934259
 31
0.0
  0
LINE
  5
2A5
330
2
100
AcDbEntity
  8
GAIKEI
  6
Continuous
 62
     1
100
AcDbLine
 10
-2.847046802563852
 20
15.99605178466254
 30
0.0
 11
-42.88892672981211
 21
15.99605178466254
 31
0.0
  0
LINE
  5
2A6
330
2
100
AcDbEntity
  8
GAIKEI
  6
Continuous
 62
     1
100
AcDbLine
 10
-2.867957245983859
 20
13.39365135260254
 30
0.0
 11
-42.89317699124729
 21
13.39365135260254
 31
0.0
  0
LINE
  5
2A7
330
2
100
AcDbEntity
  8
GAIKEI
  6
Continuous
 62
     1
100
AcDbLine
 10
-42.8934327603381
 20
13.23704602312261
 30
0.0
 11
-2.842739095544061
 21
13.23704602312261
 31
0.0
  0
LINE
  5
2A8
330
2
100
AcDbEntity
  8
GAIKEI
  6
Continuous
 62
     1
100
AcDbLine
 10
-43.78198787862408
 20
11.25614412880259
 30
0.0
 11
-1.953926613323858
 21
11.25614412880259
 31
0.0
  0
LINE
  5
2A9
330
2
100
AcDbEntity
  8
GAIKEI
  6
Continuous
 62
     1
100
AcDbLine
 10
-39.13341910378404
 20
11.20212484026251
 30
0.0
 11
-41.6024953880439
 21
11.20212484026251
 31
0.0
  0
LINE
  5
2AA
330
2
100
AcDbEntity
  8
GAIKEI
  6
Continuous
 62
     1
100
AcDbLine
 10
-28.9154572161039
 20
11.20009484596255
 30
0.0
 11
-37.02045727290408
 21
11.20009484596255
 31
0.0
  0
LINE
  5
2AB
330
2
100
AcDbEntity
  8
GAIKEI
  6
Continuous
 62
     1
100
AcDbLine
 10
-29.00295724598391
 20
11.12489715968257
 30
0.0
 11
-36.93295724598409
 21
11.12489715968257
 31
0.0
  0
LINE
  5
2AC
330
2
100
AcDbEntity
  8
GAIKEI
  6
Continuous
 62
     1
100
AcDbLine
 10
-39.53533898624391
 20
10.98876238854257
 30
0.0
 11
-41.20057550572392
 21
10.98876238854257
 31
0.0
  0
LINE
  5
2AD
330
2
100
AcDbEntity
  8
GAIKEI
  6
Continuous
 62
     1
100
AcDbLine
 10
-40.99295724598391
 20
10.78514412880258
 30
0.0
 11
-39.74295724598391
 21
10.78514412880258
 31
0.0
  0
LINE
  5
2AE
330
2
100
AcDbEntity
  8
GAIKEI
  6
Continuous
 62
     1
100
AcDbLine
 10
-40.92295724598409
 20
10.68914412880258
 30
0.0
 11
-39.81295724598402
 21
10.68914412880258
 31
0.0
  0
LINE
  5
2AF
330
2
100
AcDbEntity
  8
GAIKEI
  6
Continuous
 62
     1
100
AcDbLine
 10
-36.11795724598392
 20
10.67614412880255
 30
0.0
 11
-35.65795724598405
 21
10.67614412880255
 31
0.0
  0
LINE
  5
2B0
330
2
100
AcDbEntity
  8
GAIKEI
  6
Continuous
 62
     1
100
AcDbLine
 10
-40.92295724598409
 20
10.52914412880261
 30
0.0
 11
-39.81295724598402
 21
10.52914412880261
 31
0.0
  0
LINE
  5
2B1
330
2
100
AcDbEntity
  8
GAIKEI
  6
Continuous
 62
     1
100
AcDbLine
 10
-40.99295724598391
 20
10.27314412880258
 30
0.0
 11
-39.74295724598391
 21
10.27314412880258
 31
0.0
  0
LINE
  5
2B2
330
2
100
AcDbEntity
  8
GAIKEI
  6
Continuous
 62
   251
100
AcDbLine
 10
-20.26737918990409
 20
10.06614412880253
 30
0.0
 11
-20.42849164686407
 21
10.06614412880253
 31
0.0
  0
LINE
  5
2B3
330
2
100
AcDbEntity
  8
GAIKEI
  6
Continuous
 62
     1
100
AcDbLine
 10
-41.20057550572392
 20
10.06352586906257
 30
0.0
 11
-39.53533898624391
 21
10.06352586906257
 31
0.0
  0
LINE
  5
2B4
330
2
100
AcDbEntity
  8
GAIKEI
  6
Continuous
 62
   251
100
AcDbLine
 10
-20.28115968068386
 20
9.966144128802568
 30
0.0
 11
-20.41477661158404
 21
9.966144128802568
 31
0.0
  0
LINE
  5
2B5
330
2
100
AcDbEntity
  8
GAIKEI
  6
Continuous
 62
   251
100
AcDbLine
 10
-20.40444035700409
 20
9.956144128802577
 30
0.0
 11
-20.29149946246406
 21
9.956144128802577
 31
0.0
  0
LINE
  5
2B6
330
2
100
AcDbEntity
  8
GAIKEI
  6
Continuous
 62
     1
100
AcDbLine
 10
-41.6024953880439
 20
9.845818600402594
 30
0.0
 11
-39.13341910378404
 21
9.845818600402594
 31
0.0
  0
LINE
  5
2B7
330
2
100
AcDbEntity
  8
GAIKEI
  6
Continuous
 62
     1
100
AcDbLine
 10
-28.9154572161039
 20
9.312432790564969
 30
0.0
 11
-1.867957245983831
 21
9.31243202931688
 31
0.0
  0
LINE
  5
2B8
330
2
100
AcDbEntity
  8
GAIKEI
  6
Continuous
 62
     1
100
AcDbLine
 10
-36.93295724598409
 20
9.301927835962601
 30
0.0
 11
-29.00295724598391
 21
9.301927835962601
 31
0.0
  0
LINE
  5
2B9
330
2
100
AcDbEntity
  8
GAIKEI
  6
Continuous
 62
     1
100
AcDbLine
 10
-43.86795724598392
 20
9.299193355002557
 30
0.0
 11
-37.01215748912387
 21
9.299193355002557
 31
0.0
  0
LINE
  5
2BA
330
2
100
AcDbEntity
  8
GAIKEI
  6
Continuous
 62
     1
100
AcDbLine
 10
-35.88795724598401
 20
10.44614412880259
 30
0.0
 11
-35.65795724598405
 21
10.67614412880255
 31
0.0
  0
LINE
  5
2BB
330
2
100
AcDbEntity
  8
GAIKEI
  6
Continuous
 62
     1
100
AcDbLine
 10
-28.9154572161039
 20
9.097919712222562
 30
0.0
 11
-1.868716017068294
 21
9.097919712222562
 31
0.0
  0
LINE
  5
2BC
330
2
100
AcDbEntity
  8
GAIKEI
  6
Continuous
 62
     1
100
AcDbLine
 10
-36.93295724598409
 20
9.097006233822582
 30
0.0
 11
-29.00295724598391
 21
9.097006233822582
 31
0.0
  0
LINE
  5
2BD
330
2
100
AcDbEntity
  8
GAIKEI
  6
Continuous
 62
     7
100
AcDbLine
 10
-43.81803129294405
 20
9.056144128802543
 30
0.0
 11
-1.917883199004052
 21
9.056144128802543
 31
0.0
  0
LINE
  5
2BE
330
2
100
AcDbEntity
  8
GAIKEI
  6
Continuous
 62
     7
100
AcDbLine
 10
-7.976275538323875
 20
8.006144128802588
 30
0.0
 11
-6.159638953644048
 21
8.006144128802588
 31
0.0
  0
LINE
  5
2BF
330
2
100
AcDbEntity
  8
GAIKEI
  6
Continuous
 62
     1
100
AcDbLine
 10
-39.5762755383239
 20
8.006144128802588
 30
0.0
 11
-37.75963895364407
 21
8.006144128802588
 31
0.0
  0
LINE
  5
2C0
330
2
100
AcDbEntity
  8
GAIKEI
  6
Continuous
 62
     1
100
AcDbLine
 10
-29.00295724598391
 20
9.097006233822582
 30
0.0
 11
-29.00295724598391
 21
11.12489715968257
 31
0.0
  0
LINE
  5
2C1
330
2
100
AcDbEntity
  8
GAIKEI
  6
Continuous
 62
     1
100
AcDbLine
 10
-35.88795724598401
 20
10.44614412880259
 30
0.0
 11
-36.11795724598392
 21
10.67614412880255
 31
0.0
  0
LINE
  5
2C2
330
2
100
AcDbEntity
  8
GAIKEI
  6
Continuous
 62
     1
100
AcDbLine
 10
-37.57665289814401
 20
9.056144128802543
 30
0.0
 11
-37.66001489482386
 21
8.097481167162584
 31
0.0
  0
LINE
  5
2C3
330
2
100
AcDbEntity
  8
GAIKEI
  6
Continuous
 62
     1
100
AcDbLine
 10
-36.93295724598409
 20
9.100658914302584
 30
0.0
 11
-36.93295724598409
 21
11.12489715968257
 31
0.0
  0
LINE
  5
2C4
330
2
100
AcDbEntity
  8
GAIKEI
  6
Continuous
 62
     1
100
AcDbLine
 10
-36.93295724598409
 20
9.097783596982594
 30
0.0
 11
-36.93295724598409
 21
9.097006233822582
 31
0.0
  0
LINE
  5
2C5
330
2
100
AcDbEntity
  8
GAIKEI
  6
Continuous
 62
     1
100
AcDbLine
 10
-36.93295724598409
 20
9.100658914302584
 30
0.0
 11
-36.93295724598409
 21
9.097783596982594
 31
0.0
  0
LINE
  5
2C6
330
2
100
AcDbEntity
  8
GAIKEI
  6
Continuous
 62
     1
100
AcDbLine
 10
-37.01215752366409
 20
9.312432748582523
 30
0.0
 11
-37.01215748912387
 21
9.299193355002557
 31
0.0
  0
LINE
  5
2C7
330
2
100
AcDbEntity
  8
GAIKEI
  6
Continuous
 62
     1
100
AcDbLine
 10
-37.00785744133691
 20
9.056144128802543
 30
0.0
 11
-37.01215748912387
 21
9.299193355002557
 31
0.0
  0
LINE
  5
2C8
330
2
100
AcDbEntity
  8
GAIKEI
  6
Continuous
 62
     1
100
AcDbLine
 10
-39.53533898624391
 20
10.06352586906257
 30
0.0
 11
-39.53533898624391
 21
10.98876238854257
 31
0.0
  0
LINE
  5
2C9
330
2
100
AcDbEntity
  8
GAIKEI
  6
Continuous
 62
     1
100
AcDbLine
 10
-39.74295724598391
 20
10.27314412880258
 30
0.0
 11
-39.74295724598391
 21
10.78514412880258
 31
0.0
  0
LINE
  5
2CA
330
2
100
AcDbEntity
  8
GAIKEI
  6
Continuous
 62
     1
100
AcDbLine
 10
-39.81295724598402
 20
10.68914412880258
 30
0.0
 11
-39.81295724598402
 21
10.52914412880261
 31
0.0
  0
LINE
  5
2CB
330
2
100
AcDbEntity
  8
GAIKEI
  6
Continuous
 62
     1
100
AcDbLine
 10
-39.75926159380407
 20
9.056144128802543
 30
0.0
 11
-39.67589959714388
 21
8.097481167162584
 31
0.0
  0
LINE
  5
2CC
330
2
100
AcDbEntity
  8
GAIKEI
  6
Continuous
 62
     1
100
AcDbLine
 10
-40.92295724598409
 20
10.68914412880258
 30
0.0
 11
-40.92295724598409
 21
10.52914412880261
 31
0.0
  0
LINE
  5
2CD
330
2
100
AcDbEntity
  8
GAIKEI
  6
Continuous
 62
     1
100
AcDbLine
 10
-40.99295724598391
 20
10.27314412880258
 30
0.0
 11
-40.99295724598391
 21
10.78514412880258
 31
0.0
  0
LINE
  5
2CE
330
2
100
AcDbEntity
  8
GAIKEI
  6
Continuous
 62
     1
100
AcDbLine
 10
-41.20057550572392
 20
10.98876238854257
 30
0.0
 11
-41.20057550572392
 21
10.06352586906257
 31
0.0
  0
LINE
  5
2CF
330
2
100
AcDbEntity
  8
GAIKEI
  6
Continuous
 62
     1
100
AcDbLine
 10
-42.88892672981211
 20
15.99605178466254
 30
0.0
 11
-42.8934327603381
 21
13.23704602312261
 31
0.0
  0
LINE
  5
2D0
330
2
100
AcDbEntity
  8
GAIKEI
  6
Continuous
 62
     7
100
AcDbLine
 10
-43.40795724598405
 20
9.036144128802561
 30
0.0
 11
-43.40795724598405
 21
9.056144128802543
 31
0.0
  0
LINE
  5
2D1
330
2
100
AcDbEntity
  8
GAIKEI
  6
Continuous
 62
     7
100
AcDbLine
 10
-43.86795724598392
 20
17.80621091442253
 30
0.0
 11
-43.86795724598392
 21
9.106070081822508
 31
0.0
  0
ARC
  5
2D2
330
2
100
AcDbEntity
  8
GAIKEI
  6
Continuous
 62
   251
100
AcDbCircle
 10
-18.16795724598387
 20
9.496144128802598
 30
0.0
 40
0.0871779788800211
100
AcDbArc
 50
19.29015321190804
 51
65.70602076585572
  0
ARC
  5
2D3
330
2
100
AcDbEntity
  8
GAIKEI
  6
Continuous
 62
   251
100
AcDbCircle
 10
-15.16795724598387
 20
9.496144128802598
 30
0.0
 40
0.0871779788801676
100
AcDbArc
 50
114.2837254804129
 51
160.6908756631838
  0
ARC
  5
2D4
330
2
100
AcDbEntity
  8
GAIKEI
  6
Continuous
 62
   251
100
AcDbCircle
 10
-12.16795724598387
 20
9.496144128802598
 30
0.0
 40
0.0871779788798001
100
AcDbArc
 50
14.47004851974715
 51
80.99007775520218
  0
ARC
  5
2D5
330
2
100
AcDbEntity
  8
GAIKEI
  6
Continuous
 62
     7
100
AcDbCircle
 10
-6.159638953644048
 20
8.106144128802611
 30
0.0
 40
0.1
100
AcDbArc
 50
270.0
 51
355.0302592719344
  0
ARC
  5
2D6
330
2
100
AcDbEntity
  8
GAIKEI
  6
Continuous
 62
     7
100
AcDbCircle
 10
-7.976275538323875
 20
8.106144128802611
 30
0.0
 40
0.1000000000000114
100
AcDbArc
 50
184.9697407280688
 51
270.0
  0
ARC
  5
2D7
330
2
100
AcDbEntity
  8
GAIKEI
  6
Continuous
 62
     1
100
AcDbCircle
 10
-37.75963895364407
 20
8.106144128802611
 30
0.0
 40
0.1
100
AcDbArc
 50
270.0
 51
355.0302592719344
  0
ARC
  5
2D8
330
2
100
AcDbEntity
  8
GAIKEI
  6
Continuous
 62
     1
100
AcDbCircle
 10
-39.5762755383239
 20
8.106144128802611
 30
0.0
 40
0.1000000000000341
100
AcDbArc
 50
184.9697407280656
 51
270.0
  0
CIRCLE
  5
2D9
330
2
100
AcDbEntity
  8
GAIKEI
  6
Continuous
 62
   251
100
AcDbCircle
 10
-2.867957245983859
 20
10.8661441288026
 30
0.0
 40
0.0900000000000091
  0
CIRCLE
  5
2DA
330
2
100
AcDbEntity
  8
GAIKEI
  6
Continuous
 62
   251
100
AcDbCircle
 10
-2.867957245983859
 20
10.44614412880259
 30
0.0
 40
0.0900000000000091
  0
CIRCLE
  5
2DB
330
2
100
AcDbEntity
  8
GAIKEI
  6
Continuous
 62
   251
100
AcDbCircle
 10
-2.867957245983859
 20
10.02614412880257
 30
0.0
 40
0.0900000000000091
  0
CIRCLE
  5
2DC
330
2
100
AcDbEntity
  8
GAIKEI
  6
Continuous
 62
   251
100
AcDbCircle
 10
-2.867957245983859
 20
9.606144128802611
 30
0.0
 40
0.0900000000000091
  0
CIRCLE
  5
2DD
330
2
100
AcDbEntity
  8
GAIKEI
  6
Continuous
 62
   251
100
AcDbCircle
 10
-3.327957245983839
 20
9.606144128802611
 30
0.0
 40
0.0899999999998045
  0
CIRCLE
  5
2DE
330
2
100
AcDbEntity
  8
GAIKEI
  6
Continuous
 62
   251
100
AcDbCircle
 10
-3.327957245983839
 20
10.02614412880257
 30
0.0
 40
0.0899999999998045
  0
CIRCLE
  5
2DF
330
2
100
AcDbEntity
  8
GAIKEI
  6
Continuous
 62
   251
100
AcDbCircle
 10
-3.327957245983839
 20
10.44614412880259
 30
0.0
 40
0.0899999999998045
  0
CIRCLE
  5
2E0
330
2
100
AcDbEntity
  8
GAIKEI
  6
Continuous
 62
   251
100
AcDbCircle
 10
-3.327957245983839
 20
10.8661441288026
 30
0.0
 40
0.0899999999998045
  0
CIRCLE
  5
2E1
330
2
100
AcDbEntity
  8
GAIKEI
  6
Continuous
 62
   251
100
AcDbCircle
 10
-3.787957245984046
 20
9.606144128802611
 30
0.0
 40
0.0899999999999864
  0
CIRCLE
  5
2E2
330
2
100
AcDbEntity
  8
GAIKEI
  6
Continuous
 62
   251
100
AcDbCircle
 10
-3.787957245984046
 20
10.02614412880257
 30
0.0
 40
0.0899999999999864
  0
CIRCLE
  5
2E3
330
2
100
AcDbEntity
  8
GAIKEI
  6
Continuous
 62
   251
100
AcDbCircle
 10
-3.787957245984046
 20
10.44614412880259
 30
0.0
 40
0.0899999999999864
  0
CIRCLE
  5
2E4
330
2
100
AcDbEntity
  8
GAIKEI
  6
Continuous
 62
   251
100
AcDbCircle
 10
-3.787957245984046
 20
10.8661441288026
 30
0.0
 40
0.0899999999999864
  0
CIRCLE
  5
2E5
330
2
100
AcDbEntity
  8
GAIKEI
  6
Continuous
 62
   251
100
AcDbCircle
 10
-4.247957245984082
 20
9.606144128802611
 30
0.0
 40
0.0900000000000091
  0
CIRCLE
  5
2E6
330
2
100
AcDbEntity
  8
GAIKEI
  6
Continuous
 62
   251
100
AcDbCircle
 10
-4.247957245984082
 20
10.02614412880257
 30
0.0
 40
0.0900000000000091
  0
CIRCLE
  5
2E7
330
2
100
AcDbEntity
  8
GAIKEI
  6
Continuous
 62
   251
100
AcDbCircle
 10
-4.247957245984082
 20
10.44614412880259
 30
0.0
 40
0.0900000000000091
  0
CIRCLE
  5
2E8
330
2
100
AcDbEntity
  8
GAIKEI
  6
Continuous
 62
   251
100
AcDbCircle
 10
-4.247957245984082
 20
10.8661441288026
 30
0.0
 40
0.0900000000000091
  0
CIRCLE
  5
2E9
330
2
100
AcDbEntity
  8
GAIKEI
  6
Continuous
 62
   251
100
AcDbCircle
 10
-4.707957245984061
 20
9.606144128802611
 30
0.0
 40
0.090000000000191
  0
CIRCLE
  5
2EA
330
2
100
AcDbEntity
  8
GAIKEI
  6
Continuous
 62
   251
100
AcDbCircle
 10
-4.707957245984061
 20
10.02614412880257
 30
0.0
 40
0.090000000000191
  0
CIRCLE
  5
2EB
330
2
100
AcDbEntity
  8
GAIKEI
  6
Continuous
 62
   251
100
AcDbCircle
 10
-4.707957245984061
 20
10.44614412880259
 30
0.0
 40
0.090000000000191
  0
CIRCLE
  5
2EC
330
2
100
AcDbEntity
  8
GAIKEI
  6
Continuous
 62
   251
100
AcDbCircle
 10
-4.707957245984061
 20
10.8661441288026
 30
0.0
 40
0.090000000000191
  0
CIRCLE
  5
2ED
330
2
100
AcDbEntity
  8
GAIKEI
  6
Continuous
 62
   251
100
AcDbCircle
 10
-5.16795724598387
 20
9.606144128802611
 30
0.0
 40
0.0900000000000091
  0
CIRCLE
  5
2EE
330
2
100
AcDbEntity
  8
GAIKEI
  6
Continuous
 62
   251
100
AcDbCircle
 10
-5.16795724598387
 20
10.02614412880257
 30
0.0
 40
0.0900000000000091
  0
CIRCLE
  5
2EF
330
2
100
AcDbEntity
  8
GAIKEI
  6
Continuous
 62
   251
100
AcDbCircle
 10
-5.16795724598387
 20
10.44614412880259
 30
0.0
 40
0.0900000000000091
  0
CIRCLE
  5
2F0
330
2
100
AcDbEntity
  8
GAIKEI
  6
Continuous
 62
   251
100
AcDbCircle
 10
-5.16795724598387
 20
10.8661441288026
 30
0.0
 40
0.0900000000000091
  0
CIRCLE
  5
2F1
330
2
100
AcDbEntity
  8
GAIKEI
  6
Continuous
 62
   251
100
AcDbCircle
 10
-5.62795724598385
 20
9.606144128802611
 30
0.0
 40
0.0899999999998045
  0
CIRCLE
  5
2F2
330
2
100
AcDbEntity
  8
GAIKEI
  6
Continuous
 62
   251
100
AcDbCircle
 10
-5.62795724598385
 20
10.02614412880257
 30
0.0
 40
0.0899999999998045
  0
CIRCLE
  5
2F3
330
2
100
AcDbEntity
  8
GAIKEI
  6
Continuous
 62
   251
100
AcDbCircle
 10
-5.62795724598385
 20
10.44614412880259
 30
0.0
 40
0.0899999999998045
  0
CIRCLE
  5
2F4
330
2
100
AcDbEntity
  8
GAIKEI
  6
Continuous
 62
   251
100
AcDbCircle
 10
-5.62795724598385
 20
10.8661441288026
 30
0.0
 40
0.0899999999998045
  0
CIRCLE
  5
2F5
330
2
100
AcDbEntity
  8
GAIKEI
  6
Continuous
 62
   251
100
AcDbCircle
 10
-6.087957245984057
 20
9.606144128802611
 30
0.0
 40
0.0899999999999864
  0
CIRCLE
  5
2F6
330
2
100
AcDbEntity
  8
GAIKEI
  6
Continuous
 62
   251
100
AcDbCircle
 10
-6.087957245984057
 20
10.02614412880257
 30
0.0
 40
0.0899999999999864
  0
CIRCLE
  5
2F7
330
2
100
AcDbEntity
  8
GAIKEI
  6
Continuous
 62
   251
100
AcDbCircle
 10
-6.087957245984057
 20
10.44614412880259
 30
0.0
 40
0.0899999999999864
  0
CIRCLE
  5
2F8
330
2
100
AcDbEntity
  8
GAIKEI
  6
Continuous
 62
   251
100
AcDbCircle
 10
-6.087957245984057
 20
10.8661441288026
 30
0.0
 40
0.0899999999999864
  0
CIRCLE
  5
2F9
330
2
100
AcDbEntity
  8
GAIKEI
  6
Continuous
 62
   251
100
AcDbCircle
 10
-6.547957245984093
 20
9.606144128802611
 30
0.0
 40
0.0900000000000091
  0
CIRCLE
  5
2FA
330
2
100
AcDbEntity
  8
GAIKEI
  6
Continuous
 62
   251
100
AcDbCircle
 10
-6.547957245984093
 20
10.02614412880257
 30
0.0
 40
0.0900000000000091
  0
CIRCLE
  5
2FB
330
2
100
AcDbEntity
  8
GAIKEI
  6
Continuous
 62
   251
100
AcDbCircle
 10
-6.547957245984093
 20
10.44614412880259
 30
0.0
 40
0.0900000000000091
  0
CIRCLE
  5
2FC
330
2
100
AcDbEntity
  8
GAIKEI
  6
Continuous
 62
   251
100
AcDbCircle
 10
-6.547957245984093
 20
10.8661441288026
 30
0.0
 40
0.0900000000000091
  0
CIRCLE
  5
2FD
330
2
100
AcDbEntity
  8
GAIKEI
  6
Continuous
 62
   251
100
AcDbCircle
 10
-7.007957245984073
 20
9.606144128802611
 30
0.0
 40
0.090000000000191
  0
CIRCLE
  5
2FE
330
2
100
AcDbEntity
  8
GAIKEI
  6
Continuous
 62
   251
100
AcDbCircle
 10
-7.007957245984073
 20
10.02614412880257
 30
0.0
 40
0.090000000000191
  0
CIRCLE
  5
2FF
330
2
100
AcDbEntity
  8
GAIKEI
  6
Continuous
 62
   251
100
AcDbCircle
 10
-7.007957245984073
 20
10.44614412880259
 30
0.0
 40
0.090000000000191
  0
CIRCLE
  5
300
330
2
100
AcDbEntity
  8
GAIKEI
  6
Continuous
 62
   251
100
AcDbCircle
 10
-7.007957245984073
 20
10.8661441288026
 30
0.0
 40
0.090000000000191
  0
CIRCLE
  5
301
330
2
100
AcDbEntity
  8
GAIKEI
  6
Continuous
 62
   251
100
AcDbCircle
 10
-7.467957245983882
 20
9.606144128802611
 30
0.0
 40
0.0900000000000091
  0
CIRCLE
  5
302
330
2
100
AcDbEntity
  8
GAIKEI
  6
Continuous
 62
   251
100
AcDbCircle
 10
-7.467957245983882
 20
10.02614412880257
 30
0.0
 40
0.0900000000000091
  0
CIRCLE
  5
303
330
2
100
AcDbEntity
  8
GAIKEI
  6
Continuous
 62
   251
100
AcDbCircle
 10
-7.467957245983882
 20
10.44614412880259
 30
0.0
 40
0.0900000000000091
  0
CIRCLE
  5
304
330
2
100
AcDbEntity
  8
GAIKEI
  6
Continuous
 62
   251
100
AcDbCircle
 10
-7.467957245983882
 20
10.8661441288026
 30
0.0
 40
0.0900000000000091
  0
CIRCLE
  5
305
330
2
100
AcDbEntity
  8
GAIKEI
  6
Continuous
 62
   251
100
AcDbCircle
 10
-7.927957245983861
 20
9.606144128802611
 30
0.0
 40
0.0899999999998045
  0
CIRCLE
  5
306
330
2
100
AcDbEntity
  8
GAIKEI
  6
Continuous
 62
   251
100
AcDbCircle
 10
-7.927957245983861
 20
10.02614412880257
 30
0.0
 40
0.0899999999998045
  0
CIRCLE
  5
307
330
2
100
AcDbEntity
  8
GAIKEI
  6
Continuous
 62
   251
100
AcDbCircle
 10
-7.927957245983861
 20
10.44614412880259
 30
0.0
 40
0.0899999999998045
  0
CIRCLE
  5
308
330
2
100
AcDbEntity
  8
GAIKEI
  6
Continuous
 62
   251
100
AcDbCircle
 10
-7.927957245983861
 20
10.8661441288026
 30
0.0
 40
0.0899999999998045
  0
CIRCLE
  5
309
330
2
100
AcDbEntity
  8
GAIKEI
  6
Continuous
 62
   251
100
AcDbCircle
 10
-8.387957245984068
 20
9.606144128802611
 30
0.0
 40
0.0899999999999864
  0
CIRCLE
  5
30A
330
2
100
AcDbEntity
  8
GAIKEI
  6
Continuous
 62
   251
100
AcDbCircle
 10
-8.387957245984068
 20
10.02614412880257
 30
0.0
 40
0.0899999999999864
  0
CIRCLE
  5
30B
330
2
100
AcDbEntity
  8
GAIKEI
  6
Continuous
 62
   251
100
AcDbCircle
 10
-8.387957245984068
 20
10.44614412880259
 30
0.0
 40
0.0899999999999864
  0
CIRCLE
  5
30C
330
2
100
AcDbEntity
  8
GAIKEI
  6
Continuous
 62
   251
100
AcDbCircle
 10
-8.387957245984068
 20
10.8661441288026
 30
0.0
 40
0.0899999999999864
  0
CIRCLE
  5
30D
330
2
100
AcDbEntity
  8
GAIKEI
  6
Continuous
 62
   251
100
AcDbCircle
 10
-8.847957245984048
 20
9.606144128802611
 30
0.0
 40
0.0900000000000091
  0
CIRCLE
  5
30E
330
2
100
AcDbEntity
  8
GAIKEI
  6
Continuous
 62
   251
100
AcDbCircle
 10
-8.847957245984048
 20
10.02614412880257
 30
0.0
 40
0.0900000000000091
  0
CIRCLE
  5
30F
330
2
100
AcDbEntity
  8
GAIKEI
  6
Continuous
 62
   251
100
AcDbCircle
 10
-8.847957245984048
 20
10.44614412880259
 30
0.0
 40
0.0900000000000091
  0
CIRCLE
  5
310
330
2
100
AcDbEntity
  8
GAIKEI
  6
Continuous
 62
   251
100
AcDbCircle
 10
-8.847957245984048
 20
10.8661441288026
 30
0.0
 40
0.0900000000000091
  0
CIRCLE
  5
311
330
2
100
AcDbEntity
  8
GAIKEI
  6
Continuous
 62
   251
100
AcDbCircle
 10
-9.307957245984084
 20
9.606144128802611
 30
0.0
 40
0.090000000000191
  0
CIRCLE
  5
312
330
2
100
AcDbEntity
  8
GAIKEI
  6
Continuous
 62
   251
100
AcDbCircle
 10
-9.307957245984084
 20
10.02614412880257
 30
0.0
 40
0.090000000000191
  0
CIRCLE
  5
313
330
2
100
AcDbEntity
  8
GAIKEI
  6
Continuous
 62
   251
100
AcDbCircle
 10
-9.307957245984084
 20
10.44614412880259
 30
0.0
 40
0.090000000000191
  0
CIRCLE
  5
314
330
2
100
AcDbEntity
  8
GAIKEI
  6
Continuous
 62
   251
100
AcDbCircle
 10
-9.307957245984084
 20
10.8661441288026
 30
0.0
 40
0.090000000000191
  0
CIRCLE
  5
315
330
2
100
AcDbEntity
  8
GAIKEI
  6
Continuous
 62
   251
100
AcDbCircle
 10
-9.767957245983893
 20
9.606144128802611
 30
0.0
 40
0.0900000000000091
  0
CIRCLE
  5
316
330
2
100
AcDbEntity
  8
GAIKEI
  6
Continuous
 62
   251
100
AcDbCircle
 10
-9.767957245983893
 20
10.02614412880257
 30
0.0
 40
0.0900000000000091
  0
CIRCLE
  5
317
330
2
100
AcDbEntity
  8
GAIKEI
  6
Continuous
 62
   251
100
AcDbCircle
 10
-9.767957245983893
 20
10.44614412880259
 30
0.0
 40
0.0900000000000091
  0
CIRCLE
  5
318
330
2
100
AcDbEntity
  8
GAIKEI
  6
Continuous
 62
   251
100
AcDbCircle
 10
-9.767957245983893
 20
10.8661441288026
 30
0.0
 40
0.0900000000000091
  0
CIRCLE
  5
319
330
2
100
AcDbEntity
  8
GAIKEI
  6
Continuous
 62
   251
100
AcDbCircle
 10
-10.22795724598387
 20
9.606144128802611
 30
0.0
 40
0.0899999999998045
  0
CIRCLE
  5
31A
330
2
100
AcDbEntity
  8
GAIKEI
  6
Continuous
 62
   251
100
AcDbCircle
 10
-10.22795724598387
 20
10.02614412880257
 30
0.0
 40
0.0899999999998045
  0
CIRCLE
  5
31B
330
2
100
AcDbEntity
  8
GAIKEI
  6
Continuous
 62
   251
100
AcDbCircle
 10
-10.22795724598387
 20
10.44614412880259
 30
0.0
 40
0.0899999999998045
  0
CIRCLE
  5
31C
330
2
100
AcDbEntity
  8
GAIKEI
  6
Continuous
 62
   251
100
AcDbCircle
 10
-10.22795724598387
 20
10.8661441288026
 30
0.0
 40
0.0899999999998045
  0
CIRCLE
  5
31D
330
2
100
AcDbEntity
  8
GAIKEI
  6
Continuous
 62
   251
100
AcDbCircle
 10
-10.68795724598408
 20
9.606144128802611
 30
0.0
 40
0.0899999999999864
  0
CIRCLE
  5
31E
330
2
100
AcDbEntity
  8
GAIKEI
  6
Continuous
 62
   251
100
AcDbCircle
 10
-10.68795724598408
 20
10.02614412880257
 30
0.0
 40
0.0899999999999864
  0
CIRCLE
  5
31F
330
2
100
AcDbEntity
  8
GAIKEI
  6
Continuous
 62
   251
100
AcDbCircle
 10
-10.68795724598408
 20
10.44614412880259
 30
0.0
 40
0.0899999999999864
  0
CIRCLE
  5
320
330
2
100
AcDbEntity
  8
GAIKEI
  6
Continuous
 62
   251
100
AcDbCircle
 10
-10.68795724598408
 20
10.8661441288026
 30
0.0
 40
0.0899999999999864
  0
CIRCLE
  5
321
330
2
100
AcDbEntity
  8
GAIKEI
  6
Continuous
 62
   251
100
AcDbCircle
 10
-11.14795724598406
 20
9.606144128802611
 30
0.0
 40
0.0900000000000091
  0
CIRCLE
  5
322
330
2
100
AcDbEntity
  8
GAIKEI
  6
Continuous
 62
   251
100
AcDbCircle
 10
-11.14795724598406
 20
10.02614412880257
 30
0.0
 40
0.0900000000000091
  0
CIRCLE
  5
323
330
2
100
AcDbEntity
  8
GAIKEI
  6
Continuous
 62
   251
100
AcDbCircle
 10
-11.14795724598406
 20
10.44614412880259
 30
0.0
 40
0.0900000000000091
  0
CIRCLE
  5
324
330
2
100
AcDbEntity
  8
GAIKEI
  6
Continuous
 62
   251
100
AcDbCircle
 10
-11.14795724598406
 20
10.8661441288026
 30
0.0
 40
0.0900000000000091
  0
CIRCLE
  5
325
330
2
100
AcDbEntity
  8
GAIKEI
  6
Continuous
 62
   251
100
AcDbCircle
 10
-11.60795724598404
 20
9.606144128802611
 30
0.0
 40
0.090000000000191
  0
CIRCLE
  5
326
330
2
100
AcDbEntity
  8
GAIKEI
  6
Continuous
 62
   251
100
AcDbCircle
 10
-11.60795724598404
 20
10.02614412880257
 30
0.0
 40
0.090000000000191
  0
CIRCLE
  5
327
330
2
100
AcDbEntity
  8
GAIKEI
  6
Continuous
 62
   251
100
AcDbCircle
 10
-11.60795724598404
 20
10.44614412880259
 30
0.0
 40
0.090000000000191
  0
CIRCLE
  5
328
330
2
100
AcDbEntity
  8
GAIKEI
  6
Continuous
 62
   251
100
AcDbCircle
 10
-11.60795724598404
 20
10.8661441288026
 30
0.0
 40
0.090000000000191
  0
CIRCLE
  5
329
330
2
100
AcDbEntity
  8
GAIKEI
  6
Continuous
 62
   251
100
AcDbCircle
 10
-12.06795724598385
 20
9.606144128802611
 30
0.0
 40
0.0900000000000091
  0
CIRCLE
  5
32A
330
2
100
AcDbEntity
  8
GAIKEI
  6
Continuous
 62
   251
100
AcDbCircle
 10
-12.06795724598385
 20
10.02614412880257
 30
0.0
 40
0.0900000000000091
  0
CIRCLE
  5
32B
330
2
100
AcDbEntity
  8
GAIKEI
  6
Continuous
 62
   251
100
AcDbCircle
 10
-12.06795724598385
 20
10.44614412880259
 30
0.0
 40
0.0900000000000091
  0
CIRCLE
  5
32C
330
2
100
AcDbEntity
  8
GAIKEI
  6
Continuous
 62
   251
100
AcDbCircle
 10
-12.06795724598385
 20
10.8661441288026
 30
0.0
 40
0.0900000000000091
  0
CIRCLE
  5
32D
330
2
100
AcDbEntity
  8
GAIKEI
  6
Continuous
 62
   251
100
AcDbCircle
 10
-12.52795724598388
 20
9.606144128802611
 30
0.0
 40
0.0899999999998045
  0
CIRCLE
  5
32E
330
2
100
AcDbEntity
  8
GAIKEI
  6
Continuous
 62
   251
100
AcDbCircle
 10
-12.52795724598388
 20
10.02614412880257
 30
0.0
 40
0.0899999999998045
  0
CIRCLE
  5
32F
330
2
100
AcDbEntity
  8
GAIKEI
  6
Continuous
 62
   251
100
AcDbCircle
 10
-12.52795724598388
 20
10.44614412880259
 30
0.0
 40
0.0899999999998045
  0
CIRCLE
  5
330
330
2
100
AcDbEntity
  8
GAIKEI
  6
Continuous
 62
   251
100
AcDbCircle
 10
-12.52795724598388
 20
10.8661441288026
 30
0.0
 40
0.0899999999998045
  0
CIRCLE
  5
331
330
2
100
AcDbEntity
  8
GAIKEI
  6
Continuous
 62
   251
100
AcDbCircle
 10
-12.98795724598403
 20
9.606144128802611
 30
0.0
 40
0.0899999999999864
  0
CIRCLE
  5
332
330
2
100
AcDbEntity
  8
GAIKEI
  6
Continuous
 62
   251
100
AcDbCircle
 10
-12.98795724598403
 20
10.02614412880257
 30
0.0
 40
0.0899999999999864
  0
CIRCLE
  5
333
330
2
100
AcDbEntity
  8
GAIKEI
  6
Continuous
 62
   251
100
AcDbCircle
 10
-12.98795724598403
 20
10.44614412880259
 30
0.0
 40
0.0899999999999864
  0
CIRCLE
  5
334
330
2
100
AcDbEntity
  8
GAIKEI
  6
Continuous
 62
   251
100
AcDbCircle
 10
-12.98795724598403
 20
10.8661441288026
 30
0.0
 40
0.0899999999999864
  0
CIRCLE
  5
335
330
2
100
AcDbEntity
  8
GAIKEI
  6
Continuous
 62
   251
100
AcDbCircle
 10
-13.44795724598407
 20
9.606144128802611
 30
0.0
 40
0.0900000000000091
  0
CIRCLE
  5
336
330
2
100
AcDbEntity
  8
GAIKEI
  6
Continuous
 62
   251
100
AcDbCircle
 10
-13.44795724598407
 20
10.02614412880257
 30
0.0
 40
0.0900000000000091
  0
CIRCLE
  5
337
330
2
100
AcDbEntity
  8
GAIKEI
  6
Continuous
 62
   251
100
AcDbCircle
 10
-13.44795724598407
 20
10.44614412880259
 30
0.0
 40
0.0900000000000091
  0
CIRCLE
  5
338
330
2
100
AcDbEntity
  8
GAIKEI
  6
Continuous
 62
   251
100
AcDbCircle
 10
-13.44795724598407
 20
10.8661441288026
 30
0.0
 40
0.0900000000000091
  0
CIRCLE
  5
339
330
2
100
AcDbEntity
  8
GAIKEI
  6
Continuous
 62
   251
100
AcDbCircle
 10
-13.90795724598405
 20
9.606144128802611
 30
0.0
 40
0.090000000000191
  0
CIRCLE
  5
33A
330
2
100
AcDbEntity
  8
GAIKEI
  6
Continuous
 62
   251
100
AcDbCircle
 10
-13.90795724598405
 20
10.02614412880257
 30
0.0
 40
0.090000000000191
  0
CIRCLE
  5
33B
330
2
100
AcDbEntity
  8
GAIKEI
  6
Continuous
 62
   251
100
AcDbCircle
 10
-13.90795724598405
 20
10.44614412880259
 30
0.0
 40
0.090000000000191
  0
CIRCLE
  5
33C
330
2
100
AcDbEntity
  8
GAIKEI
  6
Continuous
 62
   251
100
AcDbCircle
 10
-13.90795724598405
 20
10.8661441288026
 30
0.0
 40
0.090000000000191
  0
CIRCLE
  5
33D
330
2
100
AcDbEntity
  8
GAIKEI
  6
Continuous
 62
   251
100
AcDbCircle
 10
-14.36795724598386
 20
9.606144128802611
 30
0.0
 40
0.0900000000000091
  0
CIRCLE
  5
33E
330
2
100
AcDbEntity
  8
GAIKEI
  6
Continuous
 62
   251
100
AcDbCircle
 10
-14.36795724598386
 20
10.02614412880257
 30
0.0
 40
0.0900000000000091
  0
CIRCLE
  5
33F
330
2
100
AcDbEntity
  8
GAIKEI
  6
Continuous
 62
   251
100
AcDbCircle
 10
-14.36795724598386
 20
10.44614412880259
 30
0.0
 40
0.0900000000000091
  0
CIRCLE
  5
340
330
2
100
AcDbEntity
  8
GAIKEI
  6
Continuous
 62
   251
100
AcDbCircle
 10
-14.36795724598386
 20
10.8661441288026
 30
0.0
 40
0.0900000000000091
  0
CIRCLE
  5
341
330
2
100
AcDbEntity
  8
GAIKEI
  6
Continuous
 62
   251
100
AcDbCircle
 10
-14.82795724598384
 20
9.606144128802611
 30
0.0
 40
0.0899999999998045
  0
CIRCLE
  5
342
330
2
100
AcDbEntity
  8
GAIKEI
  6
Continuous
 62
   251
100
AcDbCircle
 10
-14.82795724598384
 20
10.02614412880257
 30
0.0
 40
0.0899999999998045
  0
CIRCLE
  5
343
330
2
100
AcDbEntity
  8
GAIKEI
  6
Continuous
 62
   251
100
AcDbCircle
 10
-14.82795724598384
 20
10.44614412880259
 30
0.0
 40
0.0899999999998045
  0
CIRCLE
  5
344
330
2
100
AcDbEntity
  8
GAIKEI
  6
Continuous
 62
   251
100
AcDbCircle
 10
-14.82795724598384
 20
10.8661441288026
 30
0.0
 40
0.0899999999998045
  0
CIRCLE
  5
345
330
2
100
AcDbEntity
  8
GAIKEI
  6
Continuous
 62
   251
100
AcDbCircle
 10
-15.28795724598404
 20
9.606144128802611
 30
0.0
 40
0.0899999999999864
  0
CIRCLE
  5
346
330
2
100
AcDbEntity
  8
GAIKEI
  6
Continuous
 62
   251
100
AcDbCircle
 10
-15.28795724598404
 20
10.02614412880257
 30
0.0
 40
0.0899999999999864
  0
CIRCLE
  5
347
330
2
100
AcDbEntity
  8
GAIKEI
  6
Continuous
 62
   251
100
AcDbCircle
 10
-15.28795724598404
 20
10.44614412880259
 30
0.0
 40
0.0899999999999864
  0
CIRCLE
  5
348
330
2
100
AcDbEntity
  8
GAIKEI
  6
Continuous
 62
   251
100
AcDbCircle
 10
-15.28795724598404
 20
10.8661441288026
 30
0.0
 40
0.0899999999999864
  0
CIRCLE
  5
349
330
2
100
AcDbEntity
  8
GAIKEI
  6
Continuous
 62
   251
100
AcDbCircle
 10
-15.74795724598408
 20
9.606144128802611
 30
0.0
 40
0.0900000000000091
  0
CIRCLE
  5
34A
330
2
100
AcDbEntity
  8
GAIKEI
  6
Continuous
 62
   251
100
AcDbCircle
 10
-15.74795724598408
 20
10.02614412880257
 30
0.0
 40
0.0900000000000091
  0
CIRCLE
  5
34B
330
2
100
AcDbEntity
  8
GAIKEI
  6
Continuous
 62
   251
100
AcDbCircle
 10
-15.74795724598408
 20
10.44614412880259
 30
0.0
 40
0.0900000000000091
  0
CIRCLE
  5
34C
330
2
100
AcDbEntity
  8
GAIKEI
  6
Continuous
 62
   251
100
AcDbCircle
 10
-15.74795724598408
 20
10.8661441288026
 30
0.0
 40
0.0900000000000091
  0
CIRCLE
  5
34D
330
2
100
AcDbEntity
  8
GAIKEI
  6
Continuous
 62
   251
100
AcDbCircle
 10
-16.20795724598406
 20
9.606144128802611
 30
0.0
 40
0.090000000000191
  0
CIRCLE
  5
34E
330
2
100
AcDbEntity
  8
GAIKEI
  6
Continuous
 62
   251
100
AcDbCircle
 10
-16.20795724598406
 20
10.02614412880257
 30
0.0
 40
0.090000000000191
  0
CIRCLE
  5
34F
330
2
100
AcDbEntity
  8
GAIKEI
  6
Continuous
 62
   251
100
AcDbCircle
 10
-16.20795724598406
 20
10.44614412880259
 30
0.0
 40
0.090000000000191
  0
CIRCLE
  5
350
330
2
100
AcDbEntity
  8
GAIKEI
  6
Continuous
 62
   251
100
AcDbCircle
 10
-16.20795724598406
 20
10.8661441288026
 30
0.0
 40
0.090000000000191
  0
CIRCLE
  5
351
330
2
100
AcDbEntity
  8
GAIKEI
  6
Continuous
 62
   251
100
AcDbCircle
 10
-16.66795724598387
 20
9.606144128802611
 30
0.0
 40
0.0900000000000091
  0
CIRCLE
  5
352
330
2
100
AcDbEntity
  8
GAIKEI
  6
Continuous
 62
   251
100
AcDbCircle
 10
-16.66795724598387
 20
10.02614412880257
 30
0.0
 40
0.0900000000000091
  0
CIRCLE
  5
353
330
2
100
AcDbEntity
  8
GAIKEI
  6
Continuous
 62
   251
100
AcDbCircle
 10
-16.66795724598387
 20
10.44614412880259
 30
0.0
 40
0.0900000000000091
  0
CIRCLE
  5
354
330
2
100
AcDbEntity
  8
GAIKEI
  6
Continuous
 62
   251
100
AcDbCircle
 10
-16.66795724598387
 20
10.8661441288026
 30
0.0
 40
0.0900000000000091
  0
CIRCLE
  5
355
330
2
100
AcDbEntity
  8
GAIKEI
  6
Continuous
 62
   251
100
AcDbCircle
 10
-17.12795724598385
 20
9.606144128802611
 30
0.0
 40
0.0899999999998045
  0
CIRCLE
  5
356
330
2
100
AcDbEntity
  8
GAIKEI
  6
Continuous
 62
   251
100
AcDbCircle
 10
-17.12795724598385
 20
10.02614412880257
 30
0.0
 40
0.0899999999998045
  0
CIRCLE
  5
357
330
2
100
AcDbEntity
  8
GAIKEI
  6
Continuous
 62
   251
100
AcDbCircle
 10
-17.12795724598385
 20
10.44614412880259
 30
0.0
 40
0.0899999999998045
  0
CIRCLE
  5
358
330
2
100
AcDbEntity
  8
GAIKEI
  6
Continuous
 62
   251
100
AcDbCircle
 10
-17.12795724598385
 20
10.8661441288026
 30
0.0
 40
0.0899999999998045
  0
CIRCLE
  5
359
330
2
100
AcDbEntity
  8
GAIKEI
  6
Continuous
 62
   251
100
AcDbCircle
 10
-17.58795724598406
 20
9.606144128802611
 30
0.0
 40
0.0899999999999864
  0
CIRCLE
  5
35A
330
2
100
AcDbEntity
  8
GAIKEI
  6
Continuous
 62
   251
100
AcDbCircle
 10
-17.58795724598406
 20
10.02614412880257
 30
0.0
 40
0.0899999999999864
  0
CIRCLE
  5
35B
330
2
100
AcDbEntity
  8
GAIKEI
  6
Continuous
 62
   251
100
AcDbCircle
 10
-17.58795724598406
 20
10.44614412880259
 30
0.0
 40
0.0899999999999864
  0
CIRCLE
  5
35C
330
2
100
AcDbEntity
  8
GAIKEI
  6
Continuous
 62
   251
100
AcDbCircle
 10
-17.58795724598406
 20
10.8661441288026
 30
0.0
 40
0.0899999999999864
  0
CIRCLE
  5
35D
330
2
100
AcDbEntity
  8
GAIKEI
  6
Continuous
 62
   251
100
AcDbCircle
 10
-18.04795724598409
 20
9.606144128802611
 30
0.0
 40
0.0900000000000091
  0
CIRCLE
  5
35E
330
2
100
AcDbEntity
  8
GAIKEI
  6
Continuous
 62
   251
100
AcDbCircle
 10
-18.04795724598409
 20
10.02614412880257
 30
0.0
 40
0.0900000000000091
  0
CIRCLE
  5
35F
330
2
100
AcDbEntity
  8
GAIKEI
  6
Continuous
 62
   251
100
AcDbCircle
 10
-18.04795724598409
 20
10.44614412880259
 30
0.0
 40
0.0900000000000091
  0
CIRCLE
  5
360
330
2
100
AcDbEntity
  8
GAIKEI
  6
Continuous
 62
   251
100
AcDbCircle
 10
-18.04795724598409
 20
10.8661441288026
 30
0.0
 40
0.0900000000000091
  0
CIRCLE
  5
361
330
2
100
AcDbEntity
  8
GAIKEI
  6
Continuous
 62
   251
100
AcDbCircle
 10
-18.50795724598407
 20
9.606144128802611
 30
0.0
 40
0.090000000000191
  0
CIRCLE
  5
362
330
2
100
AcDbEntity
  8
GAIKEI
  6
Continuous
 62
   251
100
AcDbCircle
 10
-18.50795724598407
 20
10.02614412880257
 30
0.0
 40
0.090000000000191
  0
CIRCLE
  5
363
330
2
100
AcDbEntity
  8
GAIKEI
  6
Continuous
 62
   251
100
AcDbCircle
 10
-18.50795724598407
 20
10.44614412880259
 30
0.0
 40
0.090000000000191
  0
CIRCLE
  5
364
330
2
100
AcDbEntity
  8
GAIKEI
  6
Continuous
 62
   251
100
AcDbCircle
 10
-18.50795724598407
 20
10.8661441288026
 30
0.0
 40
0.090000000000191
  0
CIRCLE
  5
365
330
2
100
AcDbEntity
  8
GAIKEI
  6
Continuous
 62
   251
100
AcDbCircle
 10
-18.96795724598388
 20
9.606144128802611
 30
0.0
 40
0.0900000000000091
  0
CIRCLE
  5
366
330
2
100
AcDbEntity
  8
GAIKEI
  6
Continuous
 62
   251
100
AcDbCircle
 10
-18.96795724598388
 20
10.02614412880257
 30
0.0
 40
0.0900000000000091
  0
CIRCLE
  5
367
330
2
100
AcDbEntity
  8
GAIKEI
  6
Continuous
 62
   251
100
AcDbCircle
 10
-18.96795724598388
 20
10.44614412880259
 30
0.0
 40
0.0900000000000091
  0
CIRCLE
  5
368
330
2
100
AcDbEntity
  8
GAIKEI
  6
Continuous
 62
   251
100
AcDbCircle
 10
-18.96795724598388
 20
10.8661441288026
 30
0.0
 40
0.0900000000000091
  0
CIRCLE
  5
369
330
2
100
AcDbEntity
  8
GAIKEI
  6
Continuous
 62
   251
100
AcDbCircle
 10
-19.42795724598386
 20
9.606144128802611
 30
0.0
 40
0.0899999999998045
  0
CIRCLE
  5
36A
330
2
100
AcDbEntity
  8
GAIKEI
  6
Continuous
 62
   251
100
AcDbCircle
 10
-19.42795724598386
 20
10.02614412880257
 30
0.0
 40
0.0899999999998045
  0
CIRCLE
  5
36B
330
2
100
AcDbEntity
  8
GAIKEI
  6
Continuous
 62
   251
100
AcDbCircle
 10
-19.42795724598386
 20
10.44614412880259
 30
0.0
 40
0.0899999999998045
  0
CIRCLE
  5
36C
330
2
100
AcDbEntity
  8
GAIKEI
  6
Continuous
 62
   251
100
AcDbCircle
 10
-19.42795724598386
 20
10.8661441288026
 30
0.0
 40
0.0899999999998045
  0
CIRCLE
  5
36D
330
2
100
AcDbEntity
  8
GAIKEI
  6
Continuous
 62
   251
100
AcDbCircle
 10
-19.88795724598407
 20
9.606144128802611
 30
0.0
 40
0.0899999999999864
  0
CIRCLE
  5
36E
330
2
100
AcDbEntity
  8
GAIKEI
  6
Continuous
 62
   251
100
AcDbCircle
 10
-19.88795724598407
 20
10.02614412880257
 30
0.0
 40
0.0899999999999864
  0
CIRCLE
  5
36F
330
2
100
AcDbEntity
  8
GAIKEI
  6
Continuous
 62
   251
100
AcDbCircle
 10
-19.88795724598407
 20
10.44614412880259
 30
0.0
 40
0.0899999999999864
  0
CIRCLE
  5
370
330
2
100
AcDbEntity
  8
GAIKEI
  6
Continuous
 62
   251
100
AcDbCircle
 10
-19.88795724598407
 20
10.8661441288026
 30
0.0
 40
0.0899999999999864
  0
CIRCLE
  5
371
330
2
100
AcDbEntity
  8
GAIKEI
  6
Continuous
 62
   251
100
AcDbCircle
 10
-20.34795724598405
 20
9.606144128802611
 30
0.0
 40
0.0900000000000091
  0
CIRCLE
  5
372
330
2
100
AcDbEntity
  8
GAIKEI
  6
Continuous
 62
   251
100
AcDbCircle
 10
-20.34795724598405
 20
10.02614412880257
 30
0.0
 40
0.0900000000000091
  0
CIRCLE
  5
373
330
2
100
AcDbEntity
  8
GAIKEI
  6
Continuous
 62
   251
100
AcDbCircle
 10
-20.34795724598405
 20
10.44614412880259
 30
0.0
 40
0.0900000000000091
  0
CIRCLE
  5
374
330
2
100
AcDbEntity
  8
GAIKEI
  6
Continuous
 62
   251
100
AcDbCircle
 10
-20.34795724598405
 20
10.8661441288026
 30
0.0
 40
0.0900000000000091
  0
CIRCLE
  5
375
330
2
100
AcDbEntity
  8
GAIKEI
  6
Continuous
 62
   251
100
AcDbCircle
 10
-20.80795724598409
 20
9.606144128802611
 30
0.0
 40
0.090000000000191
  0
CIRCLE
  5
376
330
2
100
AcDbEntity
  8
GAIKEI
  6
Continuous
 62
   251
100
AcDbCircle
 10
-20.80795724598409
 20
10.02614412880257
 30
0.0
 40
0.090000000000191
  0
CIRCLE
  5
377
330
2
100
AcDbEntity
  8
GAIKEI
  6
Continuous
 62
   251
100
AcDbCircle
 10
-20.80795724598409
 20
10.44614412880259
 30
0.0
 40
0.090000000000191
  0
CIRCLE
  5
378
330
2
100
AcDbEntity
  8
GAIKEI
  6
Continuous
 62
   251
100
AcDbCircle
 10
-20.80795724598409
 20
10.8661441288026
 30
0.0
 40
0.090000000000191
  0
CIRCLE
  5
379
330
2
100
AcDbEntity
  8
GAIKEI
  6
Continuous
 62
   251
100
AcDbCircle
 10
-21.26795724598384
 20
9.606144128802611
 30
0.0
 40
0.0900000000000091
  0
CIRCLE
  5
37A
330
2
100
AcDbEntity
  8
GAIKEI
  6
Continuous
 62
   251
100
AcDbCircle
 10
-21.26795724598384
 20
10.02614412880257
 30
0.0
 40
0.0900000000000091
  0
CIRCLE
  5
37B
330
2
100
AcDbEntity
  8
GAIKEI
  6
Continuous
 62
   251
100
AcDbCircle
 10
-21.26795724598384
 20
10.44614412880259
 30
0.0
 40
0.0900000000000091
  0
CIRCLE
  5
37C
330
2
100
AcDbEntity
  8
GAIKEI
  6
Continuous
 62
   251
100
AcDbCircle
 10
-21.26795724598384
 20
10.8661441288026
 30
0.0
 40
0.0900000000000091
  0
CIRCLE
  5
37D
330
2
100
AcDbEntity
  8
GAIKEI
  6
Continuous
 62
   251
100
AcDbCircle
 10
-21.72795724598387
 20
9.606144128802611
 30
0.0
 40
0.0899999999997931
  0
CIRCLE
  5
37E
330
2
100
AcDbEntity
  8
GAIKEI
  6
Continuous
 62
   251
100
AcDbCircle
 10
-21.72795724598387
 20
10.02614412880257
 30
0.0
 40
0.0899999999997931
  0
CIRCLE
  5
37F
330
2
100
AcDbEntity
  8
GAIKEI
  6
Continuous
 62
   251
100
AcDbCircle
 10
-21.72795724598387
 20
10.44614412880259
 30
0.0
 40
0.0899999999997931
  0
CIRCLE
  5
380
330
2
100
AcDbEntity
  8
GAIKEI
  6
Continuous
 62
   251
100
AcDbCircle
 10
-21.72795724598387
 20
10.8661441288026
 30
0.0
 40
0.0899999999997931
  0
CIRCLE
  5
381
330
2
100
AcDbEntity
  8
GAIKEI
  6
Continuous
 62
   251
100
AcDbCircle
 10
-22.18795724598408
 20
9.606144128802611
 30
0.0
 40
0.0899999999999978
  0
CIRCLE
  5
382
330
2
100
AcDbEntity
  8
GAIKEI
  6
Continuous
 62
   251
100
AcDbCircle
 10
-22.18795724598408
 20
10.02614412880257
 30
0.0
 40
0.0899999999999978
  0
CIRCLE
  5
383
330
2
100
AcDbEntity
  8
GAIKEI
  6
Continuous
 62
   251
100
AcDbCircle
 10
-22.18795724598408
 20
10.44614412880259
 30
0.0
 40
0.0899999999999978
  0
CIRCLE
  5
384
330
2
100
AcDbEntity
  8
GAIKEI
  6
Continuous
 62
   251
100
AcDbCircle
 10
-22.18795724598408
 20
10.8661441288026
 30
0.0
 40
0.0899999999999978
  0
CIRCLE
  5
385
330
2
100
AcDbEntity
  8
GAIKEI
  6
Continuous
 62
   251
100
AcDbCircle
 10
-22.64795724598406
 20
9.606144128802611
 30
0.0
 40
0.0900000000000091
  0
CIRCLE
  5
386
330
2
100
AcDbEntity
  8
GAIKEI
  6
Continuous
 62
   251
100
AcDbCircle
 10
-22.64795724598406
 20
10.02614412880257
 30
0.0
 40
0.0900000000000091
  0
CIRCLE
  5
387
330
2
100
AcDbEntity
  8
GAIKEI
  6
Continuous
 62
   251
100
AcDbCircle
 10
-22.64795724598406
 20
10.44614412880259
 30
0.0
 40
0.0900000000000091
  0
CIRCLE
  5
388
330
2
100
AcDbEntity
  8
GAIKEI
  6
Continuous
 62
   251
100
AcDbCircle
 10
-22.64795724598406
 20
10.8661441288026
 30
0.0
 40
0.0900000000000091
  0
CIRCLE
  5
389
330
2
100
AcDbEntity
  8
GAIKEI
  6
Continuous
 62
   251
100
AcDbCircle
 10
-23.10795724598404
 20
9.606144128802611
 30
0.0
 40
0.090000000000191
  0
CIRCLE
  5
38A
330
2
100
AcDbEntity
  8
GAIKEI
  6
Continuous
 62
   251
100
AcDbCircle
 10
-23.10795724598404
 20
10.02614412880257
 30
0.0
 40
0.090000000000191
  0
CIRCLE
  5
38B
330
2
100
AcDbEntity
  8
GAIKEI
  6
Continuous
 62
   251
100
AcDbCircle
 10
-23.10795724598404
 20
10.44614412880259
 30
0.0
 40
0.090000000000191
  0
CIRCLE
  5
38C
330
2
100
AcDbEntity
  8
GAIKEI
  6
Continuous
 62
   251
100
AcDbCircle
 10
-23.10795724598404
 20
10.8661441288026
 30
0.0
 40
0.090000000000191
  0
CIRCLE
  5
38D
330
2
100
AcDbEntity
  8
GAIKEI
  6
Continuous
 62
   251
100
AcDbCircle
 10
-23.56795724598385
 20
9.606144128802611
 30
0.0
 40
0.0899999999999978
  0
CIRCLE
  5
38E
330
2
100
AcDbEntity
  8
GAIKEI
  6
Continuous
 62
   251
100
AcDbCircle
 10
-23.56795724598391
 20
10.02614412880257
 30
0.0
 40
0.0900000000000091
  0
CIRCLE
  5
38F
330
2
100
AcDbEntity
  8
GAIKEI
  6
Continuous
 62
   251
100
AcDbCircle
 10
-23.56795724598391
 20
10.44614412880259
 30
0.0
 40
0.0900000000000091
  0
CIRCLE
  5
390
330
2
100
AcDbEntity
  8
GAIKEI
  6
Continuous
 62
   251
100
AcDbCircle
 10
-23.56795724598385
 20
10.8661441288026
 30
0.0
 40
0.0899999999999978
  0
CIRCLE
  5
391
330
2
100
AcDbEntity
  8
GAIKEI
  6
Continuous
 62
   251
100
AcDbCircle
 10
-24.02795724598389
 20
9.606144128802611
 30
0.0
 40
0.08999999999985
  0
CIRCLE
  5
392
330
2
100
AcDbEntity
  8
GAIKEI
  6
Continuous
 62
   251
100
AcDbCircle
 10
-24.02795724598389
 20
10.02614412880257
 30
0.0
 40
0.08999999999985
  0
CIRCLE
  5
393
330
2
100
AcDbEntity
  8
GAIKEI
  6
Continuous
 62
   251
100
AcDbCircle
 10
-24.02795724598389
 20
10.44614412880259
 30
0.0
 40
0.08999999999985
  0
CIRCLE
  5
394
330
2
100
AcDbEntity
  8
GAIKEI
  6
Continuous
 62
   251
100
AcDbCircle
 10
-24.02795724598389
 20
10.8661441288026
 30
0.0
 40
0.08999999999985
  0
CIRCLE
  5
395
330
2
100
AcDbEntity
  8
GAIKEI
  6
Continuous
 62
   251
100
AcDbCircle
 10
-24.48795724598404
 20
9.606144128802611
 30
0.0
 40
0.0899999999999523
  0
CIRCLE
  5
396
330
2
100
AcDbEntity
  8
GAIKEI
  6
Continuous
 62
   251
100
AcDbCircle
 10
-24.48795724598404
 20
10.02614412880257
 30
0.0
 40
0.0899999999999409
  0
CIRCLE
  5
397
330
2
100
AcDbEntity
  8
GAIKEI
  6
Continuous
 62
   251
100
AcDbCircle
 10
-24.48795724598404
 20
10.44614412880259
 30
0.0
 40
0.0899999999999409
  0
CIRCLE
  5
398
330
2
100
AcDbEntity
  8
GAIKEI
  6
Continuous
 62
   251
100
AcDbCircle
 10
-24.48795724598404
 20
10.8661441288026
 30
0.0
 40
0.0899999999999409
  0
CIRCLE
  5
399
330
2
100
AcDbEntity
  8
GAIKEI
  6
Continuous
 62
   251
100
AcDbCircle
 10
-24.94795724598407
 20
9.606144128802611
 30
0.0
 40
0.0900000000000091
  0
CIRCLE
  5
39A
330
2
100
AcDbEntity
  8
GAIKEI
  6
Continuous
 62
   251
100
AcDbCircle
 10
-24.94795724598407
 20
10.02614412880257
 30
0.0
 40
0.0899999999999978
  0
CIRCLE
  5
39B
330
2
100
AcDbEntity
  8
GAIKEI
  6
Continuous
 62
   251
100
AcDbCircle
 10
-24.94795724598407
 20
10.44614412880259
 30
0.0
 40
0.0900000000000091
  0
CIRCLE
  5
39C
330
2
100
AcDbEntity
  8
GAIKEI
  6
Continuous
 62
   251
100
AcDbCircle
 10
-24.94795724598407
 20
10.8661441288026
 30
0.0
 40
0.0900000000000091
  0
CIRCLE
  5
39D
330
2
100
AcDbEntity
  8
GAIKEI
  6
Continuous
 62
   251
100
AcDbCircle
 10
-25.40795724598411
 20
9.606144128802611
 30
0.0
 40
0.090000000000191
  0
CIRCLE
  5
39E
330
2
100
AcDbEntity
  8
GAIKEI
  6
Continuous
 62
   251
100
AcDbCircle
 10
-25.40795724598411
 20
10.02614412880257
 30
0.0
 40
0.0900000000002024
  0
CIRCLE
  5
39F
330
2
100
AcDbEntity
  8
GAIKEI
  6
Continuous
 62
   251
100
AcDbCircle
 10
-25.40795724598411
 20
10.44614412880259
 30
0.0
 40
0.090000000000191
  0
CIRCLE
  5
3A0
330
2
100
AcDbEntity
  8
GAIKEI
  6
Continuous
 62
   251
100
AcDbCircle
 10
-25.40795724598411
 20
10.8661441288026
 30
0.0
 40
0.090000000000191
  0
CIRCLE
  5
3A1
330
2
100
AcDbEntity
  8
GAIKEI
  6
Continuous
 62
   251
100
AcDbCircle
 10
-25.86795724598392
 20
9.606144128802611
 30
0.0
 40
0.0900000000000091
  0
CIRCLE
  5
3A2
330
2
100
AcDbEntity
  8
GAIKEI
  6
Continuous
 62
   251
100
AcDbCircle
 10
-25.86795724598386
 20
10.02614412880257
 30
0.0
 40
0.0899999999999978
  0
CIRCLE
  5
3A3
330
2
100
AcDbEntity
  8
GAIKEI
  6
Continuous
 62
   251
100
AcDbCircle
 10
-25.86795724598392
 20
10.44614412880259
 30
0.0
 40
0.0900000000000091
  0
CIRCLE
  5
3A4
330
2
100
AcDbEntity
  8
GAIKEI
  6
Continuous
 62
   251
100
AcDbCircle
 10
-25.86795724598392
 20
10.8661441288026
 30
0.0
 40
0.0900000000000091
  0
CIRCLE
  5
3A5
330
2
100
AcDbEntity
  8
GAIKEI
  6
Continuous
 62
   251
100
AcDbCircle
 10
-26.3279572459839
 20
9.606144128802611
 30
0.0
 40
0.08999999999985
  0
CIRCLE
  5
3A6
330
2
100
AcDbEntity
  8
GAIKEI
  6
Continuous
 62
   251
100
AcDbCircle
 10
-26.3279572459839
 20
10.02614412880257
 30
0.0
 40
0.08999999999985
  0
CIRCLE
  5
3A7
330
2
100
AcDbEntity
  8
GAIKEI
  6
Continuous
 62
   251
100
AcDbCircle
 10
-26.3279572459839
 20
10.44614412880259
 30
0.0
 40
0.08999999999985
  0
CIRCLE
  5
3A8
330
2
100
AcDbEntity
  8
GAIKEI
  6
Continuous
 62
   251
100
AcDbCircle
 10
-26.3279572459839
 20
10.8661441288026
 30
0.0
 40
0.08999999999985
  0
CIRCLE
  5
3A9
330
2
100
AcDbEntity
  8
GAIKEI
  6
Continuous
 62
   251
100
AcDbCircle
 10
-26.78795724598405
 20
9.606144128802611
 30
0.0
 40
0.0899999999999409
  0
CIRCLE
  5
3AA
330
2
100
AcDbEntity
  8
GAIKEI
  6
Continuous
 62
   251
100
AcDbCircle
 10
-26.78795724598405
 20
10.02614412880257
 30
0.0
 40
0.0899999999999523
  0
CIRCLE
  5
3AB
330
2
100
AcDbEntity
  8
GAIKEI
  6
Continuous
 62
   251
100
AcDbCircle
 10
-26.78795724598405
 20
10.44614412880259
 30
0.0
 40
0.0899999999999409
  0
CIRCLE
  5
3AC
330
2
100
AcDbEntity
  8
GAIKEI
  6
Continuous
 62
   251
100
AcDbCircle
 10
-26.78795724598405
 20
10.8661441288026
 30
0.0
 40
0.0899999999999409
  0
CIRCLE
  5
3AD
330
2
100
AcDbEntity
  8
GAIKEI
  6
Continuous
 62
   251
100
AcDbCircle
 10
-27.24795724598408
 20
9.606144128802611
 30
0.0
 40
0.0900000000000091
  0
CIRCLE
  5
3AE
330
2
100
AcDbEntity
  8
GAIKEI
  6
Continuous
 62
   251
100
AcDbCircle
 10
-27.24795724598408
 20
10.02614412880257
 30
0.0
 40
0.0899999999999978
  0
CIRCLE
  5
3AF
330
2
100
AcDbEntity
  8
GAIKEI
  6
Continuous
 62
   251
100
AcDbCircle
 10
-27.24795724598408
 20
10.44614412880259
 30
0.0
 40
0.0900000000000091
  0
CIRCLE
  5
3B0
330
2
100
AcDbEntity
  8
GAIKEI
  6
Continuous
 62
   251
100
AcDbCircle
 10
-27.24795724598408
 20
10.8661441288026
 30
0.0
 40
0.0900000000000091
  0
CIRCLE
  5
3B1
330
2
100
AcDbEntity
  8
GAIKEI
  6
Continuous
 62
   251
100
AcDbCircle
 10
-27.70795724598406
 20
9.606144128802611
 30
0.0
 40
0.090000000000191
  0
CIRCLE
  5
3B2
330
2
100
AcDbEntity
  8
GAIKEI
  6
Continuous
 62
   251
100
AcDbCircle
 10
-27.70795724598406
 20
10.02614412880257
 30
0.0
 40
0.0900000000002024
  0
CIRCLE
  5
3B3
330
2
100
AcDbEntity
  8
GAIKEI
  6
Continuous
 62
   251
100
AcDbCircle
 10
-27.70795724598406
 20
10.44614412880259
 30
0.0
 40
0.090000000000191
  0
CIRCLE
  5
3B4
330
2
100
AcDbEntity
  8
GAIKEI
  6
Continuous
 62
   251
100
AcDbCircle
 10
-27.70795724598406
 20
10.8661441288026
 30
0.0
 40
0.090000000000191
  0
CIRCLE
  5
3B5
330
2
100
AcDbEntity
  8
GAIKEI
  6
Continuous
 62
   251
100
AcDbCircle
 10
-28.16795724598387
 20
9.606144128802611
 30
0.0
 40
0.0900000000000091
  0
CIRCLE
  5
3B6
330
2
100
AcDbEntity
  8
GAIKEI
  6
Continuous
 62
   251
100
AcDbCircle
 10
-28.16795724598387
 20
10.02614412880257
 30
0.0
 40
0.0899999999999978
  0
CIRCLE
  5
3B7
330
2
100
AcDbEntity
  8
GAIKEI
  6
Continuous
 62
   251
100
AcDbCircle
 10
-28.16795724598387
 20
10.44614412880259
 30
0.0
 40
0.0900000000000091
  0
CIRCLE
  5
3B8
330
2
100
AcDbEntity
  8
GAIKEI
  6
Continuous
 62
   251
100
AcDbCircle
 10
-28.16795724598387
 20
10.8661441288026
 30
0.0
 40
0.0900000000000091
  0
SPLINE
  5
3B9
330
2
100
AcDbEntity
  8
GAIKEI
  6
Continuous
 62
     1
100
AcDbSpline
210
0.0
220
0.0
230
1.0
 70
     8
 71
     3
 72
    13
 73
     9
 74
     7
 42
0.0000000001
 43
0.0000000001
 44
0.00000001
 40
0.0
 40
0.0
 40
0.0
 40
0.0
 40
0.3431457057118634
 40
0.6862913128763902
 40
0.9235796815295435
 40
1.160868027675253
 40
1.524276344621877
 40
1.887684698164938
 40
1.887684698164938
 40
1.887684698164938
 40
1.887684698164938
 10
-37.02045727290408
 20
11.20009484596255
 30
0.0
 10
-37.01956482021034
 20
11.08571640509478
 30
0.0
 10
-37.01777992980725
 20
10.85695955609731
 30
0.0
 10
-37.01595309138919
 20
10.54910491259949
 30
0.0
 10
-37.01462945819719
 20
10.27653399251801
 30
0.0
 10
-37.01355317271221
 20
9.997207689338779
 30
0.0
 10
-37.01260972870995
 20
9.675840638873353
 30
0.0
 10
-37.01221549683829
 20
9.433568716101603
 30
0.0
 10
-37.01201838826387
 20
9.312432748602532
 30
0.0
 11
-37.02045727290408
 21
11.20009484596255
 31
0.0
 11
-37.01788677153559
 21
10.85695876817328
 31
0.0
 11
-37.01581658787745
 21
10.51381940571633
 31
0.0
 11
-37.01466911207649
 21
10.27653381154391
 31
0.0
 11
-37.01374381202487
 21
10.03924726948912
 31
0.0
 11
-37.01268897097123
 21
9.675840483444062
 31
0.0
 11
-37.01201838826387
 21
9.312432748602532
 31
0.0
  0
SPLINE
  5
3BA
330
2
100
AcDbEntity
  8
GAIKEI
  6
Continuous
 62
     1
100
AcDbSpline
210
0.0
220
0.0
230
1.0
 70
     8
 71
     3
 72
    21
 73
    17
 74
    15
 42
0.0000000001
 43
0.0000000001
 44
0.00000001
 40
0.0
 40
0.0
 40
0.0
 40
0.0
 40
0.5949914731516339
 40
1.189982893289416
 40
1.587224733100116
 40
1.984466567058542
 40
2.381813503299778
 40
2.779160440532375
 40
3.176243593550697
 40
3.573326746709405
 40
3.969764396359911
 40
4.366202045229103
 40
4.76162454138767
 40
5.15704704388417
 40
5.74772030653817
 40
6.338393623559555
 40
6.338393623559555
 40
6.338393623559555
 40
6.338393623559555
 10
-43.78205552620409
 20
11.25614412880259
 30
0.0
 10
-43.78151404668517
 20
11.45447389106795
 30
0.0
 10
-43.78043110240781
 20
11.85113339796487
 30
0.0
 10
-43.77952676242876
 20
12.38020762733407
 30
0.0
 10
-43.77901783924932
 20
12.84336572392362
 30
0.0
 10
-43.77879798707771
 20
13.24064255487047
 30
0.0
 10
-43.77878876490667
 20
13.63795447513394
 30
0.0
 10
-43.77899164489867
 20
14.03521345128342
 30
0.0
 10
-43.77940636512396
 20
14.43238433467775
 30
0.0
 10
-43.7800326337471
 20
14.82925184465807
 30
0.0
 10
-43.78087065983327
 20
15.22590379581641
 30
0.0
 10
-43.78191998302283
 20
15.62200168886943
 30
0.0
 10
-43.78317967870346
 20
16.01776058861946
 30
0.0
 10
-43.78489883599299
 20
16.47826347840163
 30
0.0
 10
-43.78718566487401
 20
17.0038482906462
 30
0.0
 10
-43.78930714746431
 20
17.39762479042866
 30
0.0
 10
-43.79036789616407
 20
17.59451304934259
 30
0.0
 11
-43.78205552620409
 21
11.25614412880259
 31
0.0
 11
-43.78053232674699
 21
11.85113365223174
 31
0.0
 11
-43.77948668522805
 21
12.44612415356789
 31
0.0
 11
-43.77905393935367
 21
12.8433657576719
 31
0.0
 11
-43.77883309386215
 21
13.24060753024616
 31
0.0
 11
-43.77882411288675
 21
13.63795446639108
 31
0.0
 11
-43.77902702136026
 21
14.03530135182058
 31
0.0
 11
-43.77944168508252
 21
14.43238428833291
 31
0.0
 11
-43.78006837992677
 21
14.82946694695749
 31
0.0
 11
-43.78090609118834
 21
15.22590371152989
 31
0.0
 11
-43.78195618636721
 21
15.62233996964147
 31
0.0
 11
-43.78321593022843
 21
16.01776045914357
 31
0.0
 11
-43.78468850932944
 21
16.41318021964599
 31
0.0
 11
-43.78728769107754
 21
17.0038477635984
 31
0.0
 11
-43.79036789616407
 21
17.59451304934259
 31
0.0
  0
SPLINE
  5
3BB
330
2
100
AcDbEntity
  8
GAIKEI
  6
Continuous
 62
     7
100
AcDbSpline
210
0.0
220
0.0
230
1.0
 70
    24
 71
     3
 72
     9
 73
     5
 74
     3
 42
0.0000000001
 43
0.0000000001
 44
0.00000001
 40
0.0
 40
0.0
 40
0.0
 40
0.0
 40
0.0088202390835518
 40
0.0176404781672155
 40
0.0176404781672155
 40
0.0176404781672155
 40
0.0176404781672155
 10
-43.83538340712408
 20
17.85300748226257
 30
0.0
 10
-43.83249017787074
 20
17.85353025668598
 30
0.0
 10
-43.82670371936401
 20
17.85457580553259
 30
0.0
 10
-43.82091726085728
 20
17.85562135437925
 30
0.0
 10
-43.81802403160389
 20
17.85614412880261
 30
0.0
 11
-43.83538340712408
 21
17.85300748226257
 31
0.0
 11
-43.82670371936405
 21
17.85457580553259
 31
0.0
 11
-43.81802403160389
 21
17.85614412880261
 31
0.0
  0
SPLINE
  5
3BC
330
2
100
AcDbEntity
  8
GAIKEI
  6
Continuous
 62
     7
100
AcDbSpline
210
0.0
220
0.0
230
1.0
 70
    24
 71
     3
 72
     9
 73
     5
 74
     3
 42
0.0000000001
 43
0.0000000001
 44
0.00000001
 40
0.0
 40
0.0
 40
0.0
 40
0.0
 40
0.004179445729647
 40
0.0083588914592911
 40
0.0083588914592911
 40
0.0083588914592911
 40
0.0083588914592911
 10
-43.84295855392406
 20
17.84947361506261
 30
0.0
 10
-43.8416960294574
 20
17.85006259292925
 30
0.0
 10
-43.83917098052412
 20
17.8512405486627
 30
0.0
 10
-43.83664593159075
 20
17.85241850439598
 30
0.0
 10
-43.83538340712408
 20
17.85300748226257
 30
0.0
 11
-43.84295855392406
 21
17.84947361506261
 31
0.0
 11
-43.8391709805241
 21
17.85124054866258
 31
0.0
 11
-43.83538340712408
 21
17.85300748226257
 31
0.0
  0
SPLINE
  5
3BD
330
2
100
AcDbEntity
  8
GAIKEI
  6
Continuous
 62
     7
100
AcDbSpline
210
0.0
220
0.0
230
1.0
 70
     8
 71
     3
 72
     9
 73
     5
 74
     3
 42
0.0000000001
 43
0.0000000001
 44
0.00000001
 40
0.0
 40
0.0
 40
0.0
 40
0.0
 40
0.0258597097346221
 40
0.0517313154234812
 40
0.0517313154234812
 40
0.0517313154234812
 40
0.0517313154234812
 10
-43.86795724598392
 20
17.80621091442253
 30
0.0
 10
-43.86669177789904
 20
17.81509520072876
 30
0.0
 10
-43.86416024218224
 20
17.83286785311361
 30
0.0
 10
-43.85002687166649
 20
17.84393751639959
 30
0.0
 10
-43.84295855392406
 20
17.84947361506261
 30
0.0
 11
-43.86795724598392
 21
17.80621091442253
 31
0.0
 11
-43.86126170808995
 21
17.83118879451331
 31
0.0
 11
-43.84295855392406
 21
17.84947361506261
 31
0.0
  0
SPLINE
  5
3BE
330
2
100
AcDbEntity
  8
GAIKEI
  6
Continuous
 62
     7
100
AcDbSpline
210
0.0
220
0.0
230
1.0
 70
    24
 71
     3
 72
     9
 73
     5
 74
     3
 42
0.0000000001
 43
0.0000000001
 44
0.00000001
 40
0.0
 40
0.0
 40
0.0
 40
0.0
 40
0.0045274871126831
 40
0.0090549742252609
 40
0.0090549742252609
 40
0.0090549742252609
 40
0.0090549742252609
 10
-43.86711788884406
 20
9.097054093922565
 30
0.0
 10
-43.86725778170068
 20
9.098556758572499
 30
0.0
 10
-43.86753756741393
 20
9.101562087872594
 30
0.0
 10
-43.86781735312723
 20
9.104567417172575
 30
0.0
 10
-43.86795724598392
 20
9.106070081822508
 30
0.0
 11
-43.86711788884406
 21
9.097054093922565
 31
0.0
 11
-43.86753756741393
 21
9.101562087872594
 31
0.0
 11
-43.86795724598392
 21
9.106070081822508
 31
0.0
  0
SPLINE
  5
3BF
330
2
100
AcDbEntity
  8
GAIKEI
  6
Continuous
 62
     7
100
AcDbSpline
210
0.0
220
0.0
230
1.0
 70
     8
 71
     3
 72
    11
 73
     7
 74
     5
 42
0.0000000001
 43
0.0000000001
 44
0.00000001
 40
0.0
 40
0.0
 40
0.0
 40
0.0
 40
0.0196440508789127
 40
0.0389149682855762
 40
0.053967713457067
 40
0.0689667954924701
 40
0.0689667954924701
 40
0.0689667954924701
 40
0.0689667954924701
 10
-43.81803129294405
 20
9.056144128802543
 30
0.0
 10
-43.82463742779463
 20
9.056888262402196
 30
0.0
 10
-43.83772421248134
 20
9.058362409154142
 30
0.0
 10
-43.85284661254772
 20
9.069231429889498
 30
0.0
 10
-43.86314394077359
 20
9.082421176435502
 30
0.0
 10
-43.86579482188678
 20
9.09218226321326
 30
0.0
 10
-43.86711788884406
 20
9.097054093922565
 30
0.0
 11
-43.81803129294405
 21
9.056144128802543
 31
0.0
 11
-43.83729359865333
 21
9.059998005747047
 31
0.0
 11
-43.85325567582867
 21
9.070795250342939
 31
0.0
 11
-43.86224612198122
 21
9.082868241395658
 31
0.0
 11
-43.86711788884406
 21
9.097054093922565
 31
0.0
  0
SPLINE
  5
3C0
330
2
100
AcDbEntity
  8
GAIKEI
  6
Continuous
 62
     1
100
AcDbSpline
210
0.0
220
0.0
230
1.0
 70
     8
 71
     3
 72
    83
 73
    79
 74
    77
 42
0.0000000001
 43
0.0000000001
 44
0.00000001
 40
0.0
 40
0.0
 40
0.0
 40
0.0
 40
0.0141177075361097
 40
0.0282351724034341
 40
0.038599803404442
 40
0.048964422100538
 40
0.060207724311132
 40
0.0714510675231597
 40
0.0836729015594562
 40
0.0958947822263553
 40
0.109236535568385
 40
0.1225783578907546
 40
0.1371961919455003
 40
0.1518141227856855
 40
0.1678412071299074
 40
0.1838684107659473
 40
0.2013952794541724
 40
0.2189222804778578
 40
0.2380375641369095
 40
0.2571530115615192
 40
0.2779974594383315
 40
0.2988421260095806
 40
0.3215903324407122
 40
0.34433882646973
 40
0.3691450938463979
 40
0.3939517348685032
 40
0.4209698656796271
 40
0.4479884950829219
 40
0.47742506505444
 40
0.506862328442423
 40
0.5390250764719151
 40
0.5711888302144045
 40
0.6066365205552509
 40
0.6420859415042929
 40
0.6807920690743586
 40
0.7194999048612196
 40
0.7588848321734126
 40
0.7982687231584082
 40
0.834511574169258
 40
0.8707521074888544
 40
0.9026466398926864
 40
0.934539871283807
 40
0.9629200786742215
 40
0.991299499480487
 40
1.016809146558404
 40
1.042318281431126
 40
1.065401093233959
 40
1.088483560789169
 40
1.109450716084826
 40
1.13041761995706
 40
1.149457035330644
 40
1.168496260836221
 40
1.185786926555976
 40
1.203077452512254
 40
1.218801643023753
 40
1.23452572919809
 40
1.248844707973181
 40
1.263163608449721
 40
1.276235435599593
 40
1.289307199731521
 40
1.301286008914138
 40
1.313264769019337
 40
1.324258481847504
 40
1.335252157033296
 40
1.345223650726823
 40
1.355195109488854
 40
1.364037306848158
 40
1.372879475034516
 40
1.380689193069708
 40
1.388498893756105
 40
1.395595597696788
 40
1.40269229402476
 40
1.409401758978818
 40
1.416111219473324
 40
1.422618851517344
 40
1.429126493304062
 40
1.438670034642838
 40
1.448213664855497
 40
1.448213664855497
 40
1.448213664855497
 40
1.448213664855497
 10
-36.57333414220409
 20
11.07569595550256
 30
0.0
 10
-36.56937719191065
 20
11.0731486834394
 30
0.0
 10
-36.56146335142591
 20
11.06805419546106
 30
0.0
 10
-36.55053842835704
 20
11.06125653486287
 30
0.0
 10
-36.54061851197903
 20
11.05521346480248
 30
0.0
 10
-36.53146862985516
 20
11.04974853728288
 30
0.0
 10
-36.52201806593573
 20
11.04421664057855
 30
0.0
 10
-36.51197998088131
 20
11.03846392585069
 30
0.0
 10
-36.50160290858897
 20
11.03264770440046
 30
0.0
 10
-36.49055526963723
 20
11.02659851531223
 30
0.0
 10
-36.47911633889719
 20
11.02048793996471
 30
0.0
 10
-36.46690381474254
 20
11.01413219773542
 30
0.0
 10
-36.45424068023068
 20
11.007722635753
 30
0.0
 10
-36.44069938563364
 20
11.00106832625835
 30
0.0
 10
-36.42665245180543
 20
10.99438024391867
 30
0.0
 10
-36.41163898726961
 20
10.98746979751178
 30
0.0
 10
-36.39607644592019
 20
10.98055991305409
 30
0.0
 10
-36.37947152038815
 20
10.97346551972555
 30
0.0
 10
-36.36227464164611
 20
10.96641352813662
 30
0.0
 10
-36.34394348229591
 20
10.95921897686702
 30
0.0
 10
-36.32496115354341
 20
10.95211206099287
 30
0.0
 10
-36.30472417975892
 20
10.94491087744251
 30
0.0
 10
-36.28376569008768
 20
10.93785298664272
 30
0.0
 10
-36.26142669299544
 20
10.93076830554412
 30
0.0
 10
-36.23830261820842
 20
10.9239019110924
 30
0.0
 10
-36.21367903359637
 20
10.91710212688224
 30
0.0
 10
-36.18820905897651
 20
10.91061515144423
 30
0.0
 10
-36.16110605011865
 20
10.90431145342467
 30
0.0
 10
-36.13308213332402
 20
10.89843535140068
 30
0.0
 10
-36.10324583463338
 20
10.89288535023348
 30
0.0
 10
-36.07238707789051
 20
10.88790593503143
 30
0.0
 10
-36.03942792869724
 20
10.88343148630031
 30
0.0
 10
-36.00527140624774
 20
10.87971447024483
 30
0.0
 10
-35.96885044813324
 20
10.87677847769259
 30
0.0
 10
-35.93127166994678
 20
10.87486709809855
 30
0.0
 10
-35.89233968841394
 20
10.87411207500344
 30
0.0
 10
-35.85317701637836
 20
10.87458828125847
 30
0.0
 10
-35.81487075298847
 20
10.87628506398357
 30
0.0
 10
-35.77768017690157
 20
10.87906207299733
 30
0.0
 10
-35.74306765354773
 20
10.88264522514572
 30
0.0
 10
-35.7100026228593
 20
10.88696578805457
 30
0.0
 10
-35.67964410049345
 20
10.89170299434789
 30
0.0
 10
-35.65055897543345
 20
10.89694238263547
 30
0.0
 10
-35.62368136503367
 20
10.90239619116954
 30
0.0
 10
-35.59785759403963
 20
10.90819911022902
 30
0.0
 10
-35.57386780543433
 20
10.91408869621602
 30
0.0
 10
-35.55077523203539
 20
10.92022013409087
 30
0.0
 10
-35.52925195679241
 20
10.92634832585821
 30
0.0
 10
-35.50851167498455
 20
10.93263834427728
 30
0.0
 10
-35.4891597550237
 20
10.9388532982623
 30
0.0
 10
-35.47051599685146
 20
10.94516307223324
 30
0.0
 10
-35.45312300955251
 20
10.95133962896511
 30
0.0
 10
-35.43636650874395
 20
10.95756055356082
 30
0.0
 10
-35.4207269350822
 20
10.9636105860614
 30
0.0
 10
-35.40565235830299
 20
10.96966960388965
 30
0.0
 10
-35.39156907625841
 20
10.97553574275321
 30
0.0
 10
-35.37798749976309
 20
10.98138510485387
 30
0.0
 10
-35.36528203991871
 20
10.98703134161644
 30
0.0
 10
-35.35301774965414
 20
10.99264439646145
 30
0.0
 10
-35.34151943185421
 20
10.99805499434228
 30
0.0
 10
-35.33040464310579
 20
11.00342328221688
 30
0.0
 10
-35.31996316117336
 20
11.00859167126987
 30
0.0
 10
-35.30986305803131
 20
11.01370831153639
 30
0.0
 10
-35.30040291782818
 20
11.01860671595119
 30
0.0
 10
-35.29128587709765
 20
11.02342578917336
 30
0.0
 10
-35.28283926683989
 20
11.02797791036607
 30
0.0
 10
-35.27475758236228
 20
11.03241305602932
 30
0.0
 10
-35.26733707035192
 20
11.03655476488126
 30
0.0
 10
-35.26024412402982
 20
11.04057676039127
 30
0.0
 10
-35.253681155218
 20
11.04435353632459
 30
0.0
 10
-35.24734657558421
 20
11.04805037691005
 30
0.0
 10
-35.24134926184106
 20
11.05159728213556
 30
0.0
 10
-35.23548293727671
 20
11.0551118734611
 30
0.0
 10
-35.2298041196684
 20
11.05855717488742
 30
0.0
 10
-35.22420158725215
 20
11.06199833487687
 30
0.0
 10
-35.21781615766351
 20
11.06596961289529
 30
0.0
 10
-35.21059958979073
 20
11.07052066221621
 30
0.0
 10
-35.20525383196857
 20
11.07397078338692
 30
0.0
 10
-35.20258094458404
 20
11.0756958581826
 30
0.0
 11
-36.57333414220409
 21
11.07569595550256
 31
0.0
 11
-36.56144389400663
 21
11.06808466894722
 31
0.0
 11
-36.54946289564276
 21
11.06061750673837
 31
0.0
 11
-36.54061070585908
 21
11.05522637319421
 31
0.0
 11
-36.53171264669584
 21
11.04991131235061
 31
0.0
 11
-36.52200945729731
 21
11.04423152642812
 31
0.0
 11
-36.51225452498375
 21
11.03864099255742
 31
0.0
 11
-36.50159315776182
 21
11.03266533502199
 31
0.0
 11
-36.49087311108587
 21
11.02679549924608
 31
0.0
 11
-36.47910519425693
 21
11.02050912338029
 31
0.0
 11
-36.46727017053985
 21
11.01434986681784
 31
0.0
 11
-36.45422786882955
 21
11.00774839398161
 31
0.0
 11
-36.44110841451464
 21
11.00130139274699
 31
0.0
 11
-36.42663777679434
 21
10.99441168439358
 31
0.0
 11
-36.41207887438304
 21
10.98771022029098
 31
0.0
 11
-36.3960600573543
 21
10.98059765173895
 31
0.0
 11
-36.37994260447238
 21
10.9737111808472
 31
0.0
 11
-36.3622567170724
 21
10.9664583565559
 31
0.0
 11
-36.34446277084072
 21
10.95947438840795
 31
0.0
 11
-36.32494172484996
 21
10.95216550518063
 31
0.0
 11
-36.30530343947055
 21
10.94517709516583
 31
0.0
 11
-36.28374491716056
 21
10.93791686002851
 31
0.0
 11
-36.26206085680832
 21
10.93103968696914
 31
0.0
 11
-36.23828087343151
 21
10.92397829237006
 31
0.0
 11
-36.21436923779197
 21
10.91737502641058
 31
0.0
 11
-36.18818699106333
 21
10.91070649207665
 31
0.0
 11
-36.16187074362097
 21
10.90458591559184
 31
0.0
 11
-36.13306069210569
 21
10.89854500634453
 31
0.0
 11
-36.10411978280001
 21
10.89316204754732
 31
0.0
 11
-36.07236769910497
 21
10.88803881193223
 31
0.0
 11
-36.04049615845139
 21
10.88371308047715
 31
0.0
 11
-36.00525643115691
 21
10.87987897396834
 31
0.0
 11
-35.96992146313898
 21
10.8770326635414
 31
0.0
 11
-35.93126513996776
 21
10.87506975922736
 31
0.0
 11
-35.89256460026508
 21
10.87431824001959
 31
0.0
 11
-35.85318260700086
 21
10.87479897795992
 31
0.0
 11
-35.81383712628861
 21
10.87653794868572
 31
0.0
 11
-35.77769471891435
 21
10.87923436114943
 31
0.0
 11
-35.7416467444699
 21
10.88296528527189
 31
0.0
 11
-35.7100209187031
 21
10.88709667029832
 31
0.0
 11
-35.67850897386461
 21
10.89201353323847
 31
0.0
 11
-35.65057824219179
 21
10.89704447744685
 31
0.0
 11
-35.62276560887438
 21
10.9026879651139
 31
0.0
 11
-35.59787658424744
 21
10.90828068779427
 31
0.0
 11
-35.57310312347727
 21
10.91436276008329
 31
0.0
 11
-35.55079333300091
 21
10.92028639491968
 31
0.0
 11
-35.52859323038587
 21
10.92660745120634
 31
0.0
 11
-35.50852855268664
 21
10.93269270473109
 31
0.0
 11
-35.48856591998663
 21
10.93910397250045
 31
0.0
 11
-35.4705314092468
 21
10.9452077222528
 31
0.0
 11
-35.45258995017167
 21
10.95157923348193
 31
0.0
 11
-35.43638038058714
 21
10.95759728767285
 31
0.0
 11
-35.42025445719037
 21
10.96383562752555
 31
0.0
 11
-35.40566473145418
 21
10.96969993241782
 31
0.0
 11
-35.39114955481585
 21
10.97574613247889
 31
0.0
 11
-35.3779984814272
 21
10.98141026734754
 31
0.0
 11
-35.36491349118188
 21
10.98722524312631
 31
0.0
 11
-35.35302744844478
 21
10.99266534010155
 31
0.0
 11
-35.34119969705142
 21
10.99823088739714
 31
0.0
 11
-35.33041311979707
 21
11.00344064963951
 31
0.0
 11
-35.31967754064112
 21
11.00875459696368
 31
0.0
 11
-35.30987045678114
 21
11.01372277873918
 31
0.0
 11
-35.30010788854094
 21
11.01877779190113
 31
0.0
 11
-35.29129216846139
 21
11.02343759538411
 31
0.0
 11
-35.28251430876168
 21
11.02816825833531
 31
0.0
 11
-35.27476268141481
 21
11.03242228354065
 31
0.0
 11
-35.26704174542181
 21
11.03673170217973
 31
0.0
 11
-35.26024821832698
 21
11.04058393381001
 31
0.0
 11
-35.2534793228279
 21
11.04447924923232
 31
0.0
 11
-35.2473500533381
 21
11.04805629633017
 31
0.0
 11
-35.24124169283044
 21
11.0516689179376
 31
0.0
 11
-35.23548614312961
 21
11.0551171888016
 31
0.0
 11
-35.22974983856017
 21
11.05859737198403
 31
0.0
 11
-35.22420477156539
 21
11.06200347123678
 31
0.0
 11
-35.21867839525544
 21
11.06543983157314
 31
0.0
 11
-35.21060859809154
 21
11.07053468866729
 31
0.0
 11
-35.20258094458404
 21
11.0756958581826
 31
0.0
  0
TEXT
  5
3C1
330
2
100
AcDbEntity
  8
TOUROKU
100
AcDbText
 10
43.70840890481509
 20
42.36790310558069
 30
0.0
 40
2.0
  1
ＤＧＮＶ２００１Ｌ
 72
     2
 11
64.50840890481508
 21
42.36790310558069
 31
0.0
100
AcDbText
  0
TEXT
  5
3C3
330
2
100
AcDbEntity
  8
MOJI1
100
AcDbText
 10
-33.49154112811209
 20
48.36790310558104
 30
0.0
 40
4.0
  1
ネットワークレコーダー
  7
KANJI
100
AcDbText
  0
ENDSEC
  0
SECTION
  2
OBJECTS
  0
DICTIONARY
  5
7
330
0
100
AcDbDictionary
281
     1
  3
ACAD_COLOR
350
2C
  3
ACAD_GROUP
350
28
  3
ACAD_LAYOUT
350
B
  3
ACAD_MATERIAL
350
2B
  3
ACAD_MLINESTYLE
350
29
  3
ACAD_PLOTSETTINGS
350
2A
  3
ACAD_PLOTSTYLENAME
350
6
  3
ACDBHEADERROUNDTRIPXREC
350
3F5
  3
AcDbVariableDictionary
350
3F0
  0
DICTIONARY
  5
11
330
10
100
AcDbDictionary
280
     1
281
     1
  3
ACAD_LAYERSTATES
360
12
  0
DICTIONARY
  5
2C
102
{ACAD_REACTORS
330
7
102
}
330
7
100
AcDbDictionary
281
     1
  0
DICTIONARY
  5
28
102
{ACAD_REACTORS
330
7
102
}
330
7
100
AcDbDictionary
281
     1
  0
DICTIONARY
  5
B
102
{ACAD_REACTORS
330
7
102
}
330
7
100
AcDbDictionary
281
     1
  3
Model
350
A
  3
レイアウト1
350
F
  0
DICTIONARY
  5
2B
102
{ACAD_REACTORS
330
7
102
}
330
7
100
AcDbDictionary
281
     1
  0
DICTIONARY
  5
29
102
{ACAD_REACTORS
330
7
102
}
330
7
100
AcDbDictionary
281
     1
  3
Standard
350
2E
  0
DICTIONARY
  5
2A
102
{ACAD_REACTORS
330
7
102
}
330
7
100
AcDbDictionary
281
     1
  0
ACDBDICTIONARYWDFLT
  5
6
102
{ACAD_REACTORS
330
7
102
}
330
7
100
AcDbDictionary
281
     1
  3
Normal
350
5
100
AcDbDictionaryWithDefault
340
5
  0
DICTIONARY
  5
3F5
102
{ACAD_REACTORS
330
7
102
}
330
7
100
AcDbDictionary
281
     1
  3
COLORDICT
350
3F7
  3
MATERIALDICT
350
3F6
  0
DICTIONARY
  5
3F0
102
{ACAD_REACTORS
330
7
102
}
330
7
100
AcDbDictionary
281
     1
  3
DIMASSOC
350
3F2
  3
HIDETEXT
350
3F1
  3
PROJECTNAME
350
3F3
  0
DICTIONARY
  5
12
102
{ACAD_REACTORS
330
11
102
}
330
11
100
AcDbDictionary
281
     1
  0
LAYOUT
  5
A
102
{ACAD_XDICTIONARY
360
3F8
102
}
102
{ACAD_REACTORS
330
B
102
}
330
B
100
AcDbPlotSettings
  1

  2
いきなりPDF Professional
  4
A4
  6

 40
3.174999952316284
 41
3.174999952316284
 42
3.175003051757812
 43
3.17498779296875
 44
209.9733276367187
 45
297.0106506347656
 46
6.32
 47
0.0
 48
0.0
 49
0.0
140
0.0
141
0.0
142
1.0
143
1.35643967871148
 70
 11956
 72
     1
 73
     0
 74
     1
  7
tmsacad.ctb
 75
     0
147
0.7372240842658981
148
0.0256332569354072
149
0.0240599051811614
100
AcDbLayout
  1
Model
 70
     1
 71
     0
 10
0.0
 20
0.0
 11
12.0
 21
9.0
 12
0.0
 22
0.0
 32
0.0
 14
0.0
 24
0.0
 34
0.0
 15
0.0
 25
0.0
 35
0.0
146
0.0
 13
0.0
 23
0.0
 33
0.0
 16
1.0
 26
0.0
 36
0.0
 17
0.0
 27
1.0
 37
0.0
 76
     0
330
2
  0
LAYOUT
  5
F
102
{ACAD_XDICTIONARY
360
3FA
102
}
102
{ACAD_REACTORS
330
B
102
}
330
B
100
AcDbPlotSettings
  1

  2
None
  4

  6

 40
0.0
 41
0.0
 42
0.0
 43
0.0
 44
0.0
 45
0.0
 46
0.0
 47
0.0
 48
0.0
 49
0.0
140
0.0
141
0.0
142
1.0
143
1.0
 70
   688
 72
     0
 73
     0
 74
     5
  7
tmsacad.ctb
 75
    16
147
1.0
148
0.0
149
0.0
100
AcDbLayout
  1
レイアウト1
 70
     1
 71
     1
 10
0.0
 20
0.0
 11
12.0
 21
9.0
 12
0.0
 22
0.0
 32
0.0
 14
0.0
 24
0.0
 34
0.0
 15
0.0
 25
0.0
 35
0.0
146
0.0
 13
0.0
 23
0.0
 33
0.0
 16
1.0
 26
0.0
 36
0.0
 17
0.0
 27
1.0
 37
0.0
 76
     0
330
C
  0
MLINESTYLE
  5
2E
102
{ACAD_REACTORS
330
29
102
}
330
29
100
AcDbMlineStyle
  2
STANDARD
 70
     0
  3

 62
   256
 51
90.0
 52
90.0
 71
     2
 49
0.5
 62
   256
  6
BYLAYER
 49
-0.5
 62
   256
  6
BYLAYER
  0
ACDBPLACEHOLDER
  5
5
102
{ACAD_REACTORS
330
6
102
}
330
6
  0
XRECORD
  5
3F7
102
{ACAD_REACTORS
330
3F5
102
}
330
3F5
100
AcDbXrecord
280
     1
340
2C
  0
XRECORD
  5
3F6
102
{ACAD_REACTORS
330
3F5
102
}
330
3F5
100
AcDbXrecord
280
     1
340
2B
  0
DICTIONARYVAR
  5
3F2
102
{ACAD_REACTORS
330
3F0
102
}
330
3F0
100
DictionaryVariables
280
     0
  1
1
  0
DICTIONARYVAR
  5
3F1
102
{ACAD_REACTORS
330
3F0
102
}
330
3F0
100
DictionaryVariables
280
     0
  1
1
  0
DICTIONARYVAR
  5
3F3
102
{ACAD_REACTORS
330
3F0
102
}
330
3F0
100
DictionaryVariables
280
     0
  1

  0
DICTIONARY
  5
3F8
330
A
100
AcDbDictionary
280
     1
281
     1
  3
ACAD_XREC_ROUNDTRIP
360
3F9
  0
DICTIONARY
  5
3FA
330
F
100
AcDbDictionary
280
     1
281
     1
  3
ACAD_XREC_ROUNDTRIP
360
3FB
  0
XRECORD
  5
3F9
102
{ACAD_REACTORS
330
3F8
102
}
330
3F8
100
AcDbXrecord
280
     1
102
SHADEPLOT
 70
     0
102
SHADEPLOTRESLEVEL
 70
     2
102
SHADEPLOTCUSTOMDPI
 70
   150
  0
XRECORD
  5
3FB
102
{ACAD_REACTORS
330
3FA
102
}
330
3FA
100
AcDbXrecord
280
     1
102
SHADEPLOT
 70
     0
102
SHADEPLOTRESLEVEL
 70
     2
102
SHADEPLOTCUSTOMDPI
 70
   300
  0
ENDSEC
  0
EOF
