  0
SECTION
  2
HEADER
  9
$ACADVER
  1
AC1015
  9
$ACADMAINTVER
 70
    20
  9
$DWGCODEPAGE
  3
ANSI_932
  9
$INSBASE
 10
0.4999999440410648
 20
120.5008351249346
 30
0.0
  9
$EXTMIN
 10
-67.27203279183243
 20
-63.84031615527385
 30
-0.0015258207003583
  9
$EXTMAX
 10
57.76153620071887
 20
49.16162149673517
 30
0.0000000349246037
  9
$LIMMIN
 10
0.0
 20
0.0
  9
$LIMMAX
 10
420.0
 20
297.0
  9
$ORTHOMODE
 70
     1
  9
$REGENMODE
 70
     0
  9
$FILLMODE
 70
     1
  9
$QTEXTMODE
 70
     0
  9
$MIRRTEXT
 70
     0
  9
$LTSCALE
 40
1.0
  9
$ATTMODE
 70
     1
  9
$TEXTSIZE
 40
2.5
  9
$TRACEWID
 40
1.0
  9
$TEXTSTYLE
  7
Standard
  9
$CLAYER
  8
GAIKEI
  9
$CELTYPE
  6
ByLayer
  9
$CECOLOR
 62
   256
  9
$CELTSCALE
 40
1.0
  9
$DISPSILH
 70
     0
  9
$DIMSCALE
 40
1.0
  9
$DIMASZ
 40
2.0
  9
$DIMEXO
 40
2.0
  9
$DIMDLI
 40
8.0
  9
$DIMRND
 40
0.0
  9
$DIMDLE
 40
0.0
  9
$DIMEXE
 40
2.0
  9
$DIMTP
 40
0.0
  9
$DIMTM
 40
0.0
  9
$DIMTXT
 40
2.5
  9
$DIMCEN
 40
0.0
  9
$DIMTSZ
 40
0.0
  9
$DIMTOL
 70
     0
  9
$DIMLIM
 70
     0
  9
$DIMTIH
 70
     0
  9
$DIMTOH
 70
     0
  9
$DIMSE1
 70
     0
  9
$DIMSE2
 70
     0
  9
$DIMTAD
 70
     3
  9
$DIMZIN
 70
     0
  9
$DIMBLK
  1

  9
$DIMASO
 70
     1
  9
$DIMSHO
 70
     1
  9
$DIMPOST
  1

  9
$DIMAPOST
  1

  9
$DIMALT
 70
     0
  9
$DIMALTD
 70
     2
  9
$DIMALTF
 40
25.4
  9
$DIMLFAC
 40
1.0
  9
$DIMTOFL
 70
     1
  9
$DIMTVP
 40
0.0
  9
$DIMTIX
 70
     0
  9
$DIMSOXD
 70
     0
  9
$DIMSAH
 70
     1
  9
$DIMBLK1
  1
OPEN30
  9
$DIMBLK2
  1
OPEN30
  9
$DIMSTYLE
  2
STANDARD
  9
$DIMCLRD
 70
     0
  9
$DIMCLRE
 70
     0
  9
$DIMCLRT
 70
     0
  9
$DIMTFAC
 40
1.0
  9
$DIMGAP
 40
0.5
  9
$DIMJUST
 70
     0
  9
$DIMSD1
 70
     0
  9
$DIMSD2
 70
     0
  9
$DIMTOLJ
 70
     1
  9
$DIMTZIN
 70
     0
  9
$DIMALTZ
 70
     0
  9
$DIMALTTZ
 70
     0
  9
$DIMUPT
 70
     0
  9
$DIMDEC
 70
     4
  9
$DIMTDEC
 70
     4
  9
$DIMALTU
 70
     2
  9
$DIMALTTD
 70
     2
  9
$DIMTXSTY
  7
Standard
  9
$DIMAUNIT
 70
     0
  9
$DIMADEC
 70
     0
  9
$DIMALTRND
 40
0.0
  9
$DIMAZIN
 70
     0
  9
$DIMDSEP
 70
    46
  9
$DIMATFIT
 70
     3
  9
$DIMFRAC
 70
     0
  9
$DIMLDRBLK
  1
OPEN30
  9
$DIMLUNIT
 70
     2
  9
$DIMLWD
 70
    -2
  9
$DIMLWE
 70
    -2
  9
$DIMTMOVE
 70
     0
  9
$LUNITS
 70
     2
  9
$LUPREC
 70
     4
  9
$SKETCHINC
 40
1.0
  9
$FILLETRAD
 40
0.0
  9
$AUNITS
 70
     0
  9
$AUPREC
 70
     0
  9
$MENU
  1
.
  9
$ELEVATION
 40
0.0
  9
$PELEVATION
 40
0.0
  9
$THICKNESS
 40
0.0
  9
$LIMCHECK
 70
     0
  9
$CHAMFERA
 40
0.0
  9
$CHAMFERB
 40
0.0
  9
$CHAMFERC
 40
0.0
  9
$CHAMFERD
 40
0.0
  9
$SKPOLY
 70
     0
  9
$TDCREATE
 40
2454349.434269746
  9
$TDUCREATE
 40
2454349.059269746
  9
$TDUPDATE
 40
2455456.635769491
  9
$TDUUPDATE
 40
2455456.260769491
  9
$TDINDWG
 40
0.1962304167
  9
$TDUSRTIMER
 40
0.1962304167
  9
$USRTIMER
 70
     1
  9
$ANGBASE
 50
0.0
  9
$ANGDIR
 70
     0
  9
$PDMODE
 70
     0
  9
$PDSIZE
 40
0.0
  9
$PLINEWID
 40
0.0
  9
$SPLFRAME
 70
     0
  9
$SPLINETYPE
 70
     6
  9
$SPLINESEGS
 70
     8
  9
$HANDSEED
  5
3FC
  9
$SURFTAB1
 70
     6
  9
$SURFTAB2
 70
     6
  9
$SURFTYPE
 70
     6
  9
$SURFU
 70
     6
  9
$SURFV
 70
     6
  9
$UCSBASE
  2

  9
$UCSNAME
  2

  9
$UCSORG
 10
0.0
 20
0.0
 30
0.0
  9
$UCSXDIR
 10
1.0
 20
0.0
 30
0.0
  9
$UCSYDIR
 10
0.0
 20
1.0
 30
0.0
  9
$UCSORTHOREF
  2

  9
$UCSORTHOVIEW
 70
     0
  9
$UCSORGTOP
 10
0.0
 20
0.0
 30
0.0
  9
$UCSORGBOTTOM
 10
0.0
 20
0.0
 30
0.0
  9
$UCSORGLEFT
 10
0.0
 20
0.0
 30
0.0
  9
$UCSORGRIGHT
 10
0.0
 20
0.0
 30
0.0
  9
$UCSORGFRONT
 10
0.0
 20
0.0
 30
0.0
  9
$UCSORGBACK
 10
0.0
 20
0.0
 30
0.0
  9
$PUCSBASE
  2

  9
$PUCSNAME
  2

  9
$PUCSORG
 10
0.0
 20
0.0
 30
0.0
  9
$PUCSXDIR
 10
1.0
 20
0.0
 30
0.0
  9
$PUCSYDIR
 10
0.0
 20
1.0
 30
0.0
  9
$PUCSORTHOREF
  2

  9
$PUCSORTHOVIEW
 70
     0
  9
$PUCSORGTOP
 10
0.0
 20
0.0
 30
0.0
  9
$PUCSORGBOTTOM
 10
0.0
 20
0.0
 30
0.0
  9
$PUCSORGLEFT
 10
0.0
 20
0.0
 30
0.0
  9
$PUCSORGRIGHT
 10
0.0
 20
0.0
 30
0.0
  9
$PUCSORGFRONT
 10
0.0
 20
0.0
 30
0.0
  9
$PUCSORGBACK
 10
0.0
 20
0.0
 30
0.0
  9
$USERI1
 70
     0
  9
$USERI2
 70
     0
  9
$USERI3
 70
     0
  9
$USERI4
 70
     0
  9
$USERI5
 70
     0
  9
$USERR1
 40
0.0
  9
$USERR2
 40
0.0
  9
$USERR3
 40
0.0
  9
$USERR4
 40
0.0
  9
$USERR5
 40
0.0
  9
$WORLDVIEW
 70
     1
  9
$SHADEDGE
 70
     3
  9
$SHADEDIF
 70
    70
  9
$TILEMODE
 70
     1
  9
$MAXACTVP
 70
    64
  9
$PINSBASE
 10
0.0
 20
0.0
 30
0.0
  9
$PLIMCHECK
 70
     0
  9
$PEXTMIN
 10
0.0
 20
0.0
 30
0.0
  9
$PEXTMAX
 10
0.0
 20
0.0
 30
0.0
  9
$PLIMMIN
 10
0.0
 20
0.0
  9
$PLIMMAX
 10
12.0
 20
9.0
  9
$UNITMODE
 70
     0
  9
$VISRETAIN
 70
     1
  9
$PLINEGEN
 70
     0
  9
$PSLTSCALE
 70
     1
  9
$TREEDEPTH
 70
  3020
  9
$CMLSTYLE
  2
Standard
  9
$CMLJUST
 70
     0
  9
$CMLSCALE
 40
20.0
  9
$PROXYGRAPHICS
 70
     1
  9
$MEASUREMENT
 70
     1
  9
$CELWEIGHT
370
    -1
  9
$ENDCAPS
280
     0
  9
$JOINSTYLE
280
     0
  9
$LWDISPLAY
290
     0
  9
$INSUNITS
 70
     4
  9
$HYPERLINKBASE
  1

  9
$STYLESHEET
  1

  9
$XEDIT
290
     1
  9
$CEPSNTYPE
380
     0
  9
$PSTYLEMODE
290
     1
  9
$FINGERPRINTGUID
  2
{FDEAD578-A652-11D2-9A35-0060089B3A3F}
  9
$VERSIONGUID
  2
{8AB7BEDE-5E13-484C-8C64-34D24CFE4D3A}
  9
$EXTNAMES
290
     1
  9
$PSVPSCALE
 40
0.0
  9
$OLESTARTUP
290
     0
  0
ENDSEC
  0
SECTION
  2
CLASSES
  0
CLASS
  1
ACDBDICTIONARYWDFLT
  2
AcDbDictionaryWithDefault
  3
ObjectDBX Classes
 90
        0
280
     0
281
     0
  0
CLASS
  1
ACDBPLACEHOLDER
  2
AcDbPlaceHolder
  3
ObjectDBX Classes
 90
        0
280
     0
281
     0
  0
CLASS
  1
LAYOUT
  2
AcDbLayout
  3
ObjectDBX Classes
 90
        0
280
     0
281
     0
  0
CLASS
  1
DICTIONARYVAR
  2
AcDbDictionaryVar
  3
ObjectDBX Classes
 90
        0
280
     0
281
     0
  0
ENDSEC
  0
SECTION
  2
TABLES
  0
TABLE
  2
VPORT
  5
1B
330
0
100
AcDbSymbolTable
 70
     2
  0
VPORT
  5
3F4
330
1B
100
AcDbSymbolTableRecord
100
AcDbViewportTableRecord
  2
*Active
 70
     0
 10
0.0
 20
0.0
 11
1.0
 21
1.0
 12
-4.755248295556786
 22
-7.339347329269344
 13
0.0
 23
0.0
 14
10.0
 24
10.0
 15
10.0
 25
10.0
 16
0.0
 26
0.0
 36
1.0
 17
0.0
 27
0.0
 37
0.0
 40
113.8987784270249
 41
1.451655629139072
 42
50.0
 43
0.0
 44
0.0
 50
0.0
 51
0.0
 71
     0
 72
  1000
 73
     1
 74
     2
 75
     0
 76
     0
 77
     0
 78
     0
281
     0
 65
     1
110
0.0
120
0.0
130
0.0
111
1.0
121
0.0
131
0.0
112
0.0
122
1.0
132
0.0
 79
     0
146
0.0
  0
ENDTAB
  0
TABLE
  2
LTYPE
  5
16
330
0
100
AcDbSymbolTable
 70
     1
  0
LTYPE
  5
17
330
16
100
AcDbSymbolTableRecord
100
AcDbLinetypeTableRecord
  2
ByBlock
 70
     0
  3

 72
    65
 73
     0
 40
0.0
  0
LTYPE
  5
18
330
16
100
AcDbSymbolTableRecord
100
AcDbLinetypeTableRecord
  2
ByLayer
 70
     0
  3

 72
    65
 73
     0
 40
0.0
  0
LTYPE
  5
8
330
16
100
AcDbSymbolTableRecord
100
AcDbLinetypeTableRecord
  2
Continuous
 70
     0
  3
Solid line
 72
    65
 73
     0
 40
0.0
  0
ENDTAB
  0
TABLE
  2
LAYER
  5
10
102
{ACAD_XDICTIONARY
360
11
102
}
330
0
100
AcDbSymbolTable
 70
     7
  0
LAYER
  5
4
330
10
100
AcDbSymbolTableRecord
100
AcDbLayerTableRecord
  2
0
 70
     0
 62
     7
  6
Continuous
370
    -3
390
5
  0
LAYER
  5
3AC
330
10
100
AcDbSymbolTableRecord
100
AcDbLayerTableRecord
  2
WAKU
 70
     0
 62
     4
  6
Continuous
370
    -3
390
5
  0
LAYER
  5
3A2
330
10
100
AcDbSymbolTableRecord
100
AcDbLayerTableRecord
  2
MOJI1
 70
     0
 62
     2
  6
Continuous
370
    -3
390
5
  0
LAYER
  5
3A0
330
10
100
AcDbSymbolTableRecord
100
AcDbLayerTableRecord
  2
TOUROKU
 70
     0
 62
     1
  6
Continuous
370
    -3
390
5
  0
LAYER
  5
3A
330
10
100
AcDbSymbolTableRecord
100
AcDbLayerTableRecord
  2
Defpoints
 70
     0
 62
     7
  6
Continuous
290
     0
370
    -3
390
5
  0
LAYER
  5
2D
330
10
100
AcDbSymbolTableRecord
100
AcDbLayerTableRecord
  2
GAIKEI
 70
     0
 62
     7
  6
Continuous
370
    -3
390
5
  0
LAYER
  5
30
330
10
100
AcDbSymbolTableRecord
100
AcDbLayerTableRecord
  2
SUNPO
 70
     0
 62
     3
  6
Continuous
370
    -3
390
5
  0
ENDTAB
  0
TABLE
  2
STYLE
  5
13
330
0
100
AcDbSymbolTable
 70
     2
  0
STYLE
  5
14
330
13
100
AcDbSymbolTableRecord
100
AcDbTextStyleTableRecord
  2
Standard
 70
     0
 40
0.0
 41
1.0
 50
0.0
 71
     0
 42
2.5
  3
MONOTXT.shx
  4
BIGFONT.shx
  0
STYLE
  5
3A3
330
13
100
AcDbSymbolTableRecord
100
AcDbTextStyleTableRecord
  2
KANJI
 70
     0
 40
0.0
 41
1.0
 50
0.0
 71
     0
 42
3.5
  3
MONOTXT
  4
BIGFONT
  0
ENDTAB
  0
TABLE
  2
VIEW
  5
19
330
0
100
AcDbSymbolTable
 70
     0
  0
ENDTAB
  0
TABLE
  2
UCS
  5
1A
330
0
100
AcDbSymbolTable
 70
     0
  0
ENDTAB
  0
TABLE
  2
APPID
  5
1D
330
0
100
AcDbSymbolTable
 70
     1
  0
APPID
  5
1E
330
1D
100
AcDbSymbolTableRecord
100
AcDbRegAppTableRecord
  2
ACAD
 70
     0
  0
ENDTAB
  0
TABLE
  2
DIMSTYLE
  5
1F
330
0
100
AcDbSymbolTable
 70
     1
100
AcDbDimStyleTable
 71
     1
340
20
  0
DIMSTYLE
105
20
102
{ACAD_REACTORS
330
2F
330
3E
330
4B
102
}
330
1F
100
AcDbSymbolTableRecord
100
AcDbDimStyleTableRecord
  2
STANDARD
 70
     0
 40
0.0
 41
2.0
 42
2.0
 43
8.0
 44
2.0
 73
     0
 74
     0
 77
     3
140
3.0
141
0.0
173
     1
279
     2
288
     1
340
14
341
21
343
21
344
21
  0
ENDTAB
  0
TABLE
  2
BLOCK_RECORD
  5
1
330
0
100
AcDbSymbolTable
 70
     7
  0
BLOCK_RECORD
  5
2
330
1
100
AcDbSymbolTableRecord
100
AcDbBlockTableRecord
  2
*Model_Space
340
A
  0
BLOCK_RECORD
  5
C
330
1
100
AcDbSymbolTableRecord
100
AcDbBlockTableRecord
  2
*Paper_Space
340
F
  0
BLOCK_RECORD
  5
21
330
1
100
AcDbSymbolTableRecord
100
AcDbBlockTableRecord
  2
_OPEN30
340
0
102
{BLKREFS
331
36
331
37
331
44
331
45
331
51
331
52
331
3D0
331
3D1
331
3DC
331
3DD
331
3E8
331
3E9
102
}
  0
BLOCK_RECORD
  5
31
330
1
100
AcDbSymbolTableRecord
100
AcDbBlockTableRecord
  2
*D1
340
0
  0
BLOCK_RECORD
  5
3F
330
1
100
AcDbSymbolTableRecord
100
AcDbBlockTableRecord
  2
*D2
340
0
  0
BLOCK_RECORD
  5
4C
330
1
100
AcDbSymbolTableRecord
100
AcDbBlockTableRecord
  2
*D3
340
0
  0
BLOCK_RECORD
  5
3CC
330
1
100
AcDbSymbolTableRecord
100
AcDbBlockTableRecord
  2
*D4
340
0
  0
BLOCK_RECORD
  5
3D8
330
1
100
AcDbSymbolTableRecord
100
AcDbBlockTableRecord
  2
*D5
340
0
  0
BLOCK_RECORD
  5
3E4
330
1
100
AcDbSymbolTableRecord
100
AcDbBlockTableRecord
  2
*D6
340
0
  0
ENDTAB
  0
ENDSEC
  0
SECTION
  2
BLOCKS
  0
BLOCK
  5
3
330
2
100
AcDbEntity
  8
0
100
AcDbBlockBegin
  2
*Model_Space
 70
     0
 10
0.0
 20
0.0
 30
0.0
  3
*Model_Space
  1

  0
ENDBLK
  5
9
330
2
100
AcDbEntity
  8
0
100
AcDbBlockEnd
  0
BLOCK
  5
D
330
C
100
AcDbEntity
 67
     1
  8
0
100
AcDbBlockBegin
  2
*Paper_Space
 70
     0
 10
0.0
 20
0.0
 30
0.0
  3
*Paper_Space
  1

  0
ENDBLK
  5
E
330
C
100
AcDbEntity
 67
     1
  8
0
100
AcDbBlockEnd
  0
BLOCK
  5
22
330
21
100
AcDbEntity
  8
0
100
AcDbBlockBegin
  2
_OPEN30
 70
     0
 10
0.0
 20
0.0
 30
0.0
  3
_OPEN30
  1

  0
LINE
  5
23
330
21
100
AcDbEntity
  8
0
  6
ByBlock
 62
     0
100
AcDbLine
 10
-1.0
 20
0.26794919
 30
0.0
 11
0.0
 21
0.0
 31
0.0
  0
LINE
  5
24
330
21
100
AcDbEntity
  8
0
  6
ByBlock
 62
     0
100
AcDbLine
 10
0.0
 20
0.0
 30
0.0
 11
-1.0
 21
-0.26794919
 31
0.0
  0
LINE
  5
25
330
21
100
AcDbEntity
  8
0
  6
ByBlock
 62
     0
100
AcDbLine
 10
0.0
 20
0.0
 30
0.0
 11
-1.0
 21
0.0
 31
0.0
  0
ENDBLK
  5
26
330
21
100
AcDbEntity
  8
0
100
AcDbBlockEnd
  0
BLOCK
  5
32
330
31
100
AcDbEntity
  8
0
100
AcDbBlockBegin
  2
*D1
 70
     1
 10
0.0
 20
0.0
 30
0.0
  3
*D1
  1

  0
LINE
  5
33
330
31
100
AcDbEntity
  8
SUNPO
 62
     0
370
    -2
100
AcDbLine
 10
83.45546207878351
 20
85.95887459988835
 30
0.0
 11
83.45546207878351
 21
93.95887459988834
 31
0.0
  0
LINE
  5
34
330
31
100
AcDbEntity
  8
SUNPO
 62
     0
370
    -2
100
AcDbLine
 10
113.4554620787834
 20
85.95887459988835
 30
0.0
 11
113.4554620787834
 21
93.95887459988834
 31
0.0
  0
LINE
  5
35
330
31
100
AcDbEntity
  8
SUNPO
 62
     0
370
    -2
100
AcDbLine
 10
85.4554620787835
 20
91.95887459988835
 30
0.0
 11
111.4554620787834
 21
91.95887459988835
 31
0.0
  0
INSERT
  5
36
330
31
100
AcDbEntity
  8
SUNPO
 62
     0
370
    -2
100
AcDbBlockReference
  2
_OPEN30
 10
83.45546207878351
 20
91.95887459988835
 30
0.0
 41
2.0
 42
2.0
 43
2.0
 50
180.0
  0
INSERT
  5
37
330
31
100
AcDbEntity
  8
SUNPO
 62
     0
370
    -2
100
AcDbBlockReference
  2
_OPEN30
 10
113.4554620787834
 20
91.95887459988835
 30
0.0
 41
2.0
 42
2.0
 43
2.0
  0
MTEXT
  5
38
330
31
100
AcDbEntity
  8
SUNPO
 62
     0
100
AcDbMText
 10
98.45546207878349
 20
93.70887459988834
 30
0.0
 40
2.5
 41
0.0
 71
     5
 72
     1
  1
\A1;300
 73
     1
 44
1.0
1001
ACAD
1000
MTEXTBEGIN
1070
    73
1070
     1
1070
    44
1040
1.0
1070
    74
1070
     0
1000
MTEXTEND
  0
POINT
  5
39
330
31
100
AcDbEntity
  8
Defpoints
 62
     0
100
AcDbPoint
 10
83.45546207878351
 20
83.95887459988834
 30
0.0
  0
POINT
  5
3B
330
31
100
AcDbEntity
  8
Defpoints
 62
     0
100
AcDbPoint
 10
113.4554620787834
 20
83.95887459988834
 30
0.0
  0
POINT
  5
3C
330
31
100
AcDbEntity
  8
Defpoints
 62
     0
100
AcDbPoint
 10
113.4554620787834
 20
91.95887459988835
 30
0.0
  0
ENDBLK
  5
3D
330
31
100
AcDbEntity
  8
0
100
AcDbBlockEnd
  0
BLOCK
  5
40
330
3F
100
AcDbEntity
  8
0
100
AcDbBlockBegin
  2
*D2
 70
     1
 10
0.0
 20
0.0
 30
0.0
  3
*D2
  1

  0
LINE
  5
41
330
3F
100
AcDbEntity
  8
SUNPO
 62
     0
370
    -2
100
AcDbLine
 10
63.12260458605084
 20
83.98907614815634
 30
0.0
 11
71.12260458605084
 21
83.98907614815634
 31
0.0
  0
LINE
  5
42
330
3F
100
AcDbEntity
  8
SUNPO
 62
     0
370
    -2
100
AcDbLine
 10
63.12260458605084
 20
75.18907614815628
 30
0.0
 11
71.12260458605084
 21
75.18907614815628
 31
0.0
  0
LINE
  5
43
330
3F
100
AcDbEntity
  8
SUNPO
 62
     0
370
    -2
100
AcDbLine
 10
69.12260458605084
 20
81.98907614815635
 30
0.0
 11
69.12260458605084
 21
77.18907614815627
 31
0.0
  0
INSERT
  5
44
330
3F
100
AcDbEntity
  8
SUNPO
 62
     0
370
    -2
100
AcDbBlockReference
  2
_OPEN30
 10
69.12260458605084
 20
83.98907614815634
 30
0.0
 41
2.0
 42
2.0
 43
2.0
 50
90.0
  0
INSERT
  5
45
330
3F
100
AcDbEntity
  8
SUNPO
 62
     0
370
    -2
100
AcDbBlockReference
  2
_OPEN30
 10
69.12260458605084
 20
75.18907614815628
 30
0.0
 41
2.0
 42
2.0
 43
2.0
 50
270.0
  0
MTEXT
  5
46
330
3F
100
AcDbEntity
  8
SUNPO
 62
     0
100
AcDbMText
 10
67.37260458605082
 20
79.58907614815633
 30
0.0
 40
2.5
 41
0.0
 71
     5
 72
     1
  1
\A1;88
 11
0.0000000000000001
 21
1.0
 31
0.0
 73
     1
 44
1.0
1001
ACAD
1000
MTEXTBEGIN
1070
    73
1070
     1
1070
    44
1040
1.0
1070
    74
1070
     0
1000
MTEXTEND
  0
POINT
  5
47
330
3F
100
AcDbEntity
  8
Defpoints
 62
     0
100
AcDbPoint
 10
61.12260458605084
 20
83.98907614815634
 30
0.0
  0
POINT
  5
48
330
3F
100
AcDbEntity
  8
Defpoints
 62
     0
100
AcDbPoint
 10
61.12260458605084
 20
75.18907614815628
 30
0.0
  0
POINT
  5
49
330
3F
100
AcDbEntity
  8
Defpoints
 62
     0
100
AcDbPoint
 10
69.12260458605084
 20
75.18907614815628
 30
0.0
  0
ENDBLK
  5
4A
330
3F
100
AcDbEntity
  8
0
100
AcDbBlockEnd
  0
BLOCK
  5
4D
330
4C
100
AcDbEntity
  8
0
100
AcDbBlockBegin
  2
*D3
 70
     1
 10
0.0
 20
0.0
 30
0.0
  3
*D3
  1

  0
LINE
  5
4E
330
4C
100
AcDbEntity
  8
SUNPO
 62
     0
370
    -2
100
AcDbLine
 10
19.12358382616959
 20
85.95887459988841
 30
0.0
 11
19.12358382616959
 21
93.9588745998884
 31
0.0
  0
LINE
  5
4F
330
4C
100
AcDbEntity
  8
SUNPO
 62
     0
370
    -2
100
AcDbLine
 10
61.12358382616965
 20
85.95887459988841
 30
0.0
 11
61.12358382616965
 21
93.9588745998884
 31
0.0
  0
LINE
  5
50
330
4C
100
AcDbEntity
  8
SUNPO
 62
     0
370
    -2
100
AcDbLine
 10
21.12358382616959
 20
91.9588745998884
 30
0.0
 11
59.12358382616965
 21
91.9588745998884
 31
0.0
  0
INSERT
  5
51
330
4C
100
AcDbEntity
  8
SUNPO
 62
     0
370
    -2
100
AcDbBlockReference
  2
_OPEN30
 10
19.12358382616959
 20
91.9588745998884
 30
0.0
 41
2.0
 42
2.0
 43
2.0
 50
180.0
  0
INSERT
  5
52
330
4C
100
AcDbEntity
  8
SUNPO
 62
     0
370
    -2
100
AcDbBlockReference
  2
_OPEN30
 10
61.12358382616965
 20
91.9588745998884
 30
0.0
 41
2.0
 42
2.0
 43
2.0
  0
MTEXT
  5
53
330
4C
100
AcDbEntity
  8
SUNPO
 62
     0
100
AcDbMText
 10
40.12358382616961
 20
93.70887459988841
 30
0.0
 40
2.5
 41
0.0
 71
     5
 72
     1
  1
\A1;420
 73
     1
 44
1.0
1001
ACAD
1000
MTEXTBEGIN
1070
    73
1070
     1
1070
    44
1040
1.0
1070
    74
1070
     0
1000
MTEXTEND
  0
POINT
  5
54
330
4C
100
AcDbEntity
  8
Defpoints
 62
     0
100
AcDbPoint
 10
19.12358382616959
 20
83.9588745998884
 30
0.0
  0
POINT
  5
55
330
4C
100
AcDbEntity
  8
Defpoints
 62
     0
100
AcDbPoint
 10
61.12358382616965
 20
83.9588745998884
 30
0.0
  0
POINT
  5
56
330
4C
100
AcDbEntity
  8
Defpoints
 62
     0
100
AcDbPoint
 10
61.12358382616965
 20
91.9588745998884
 30
0.0
  0
ENDBLK
  5
57
330
4C
100
AcDbEntity
  8
0
100
AcDbBlockEnd
  0
BLOCK
  5
3D6
330
3CC
100
AcDbEntity
  8
0
100
AcDbBlockBegin
  2
*D4
 70
     1
 10
0.0
 20
0.0
 30
0.0
  3
*D4
  1

  0
LINE
  5
3CD
330
3CC
100
AcDbEntity
  8
SUNPO
 62
     0
370
    -2
100
AcDbLine
 10
-50.62619571077958
 20
16.6184683633496
 30
0.0
 11
-50.62619571077958
 21
24.61846836334961
 31
0.0
  0
LINE
  5
3CE
330
3CC
100
AcDbEntity
  8
SUNPO
 62
     0
370
    -2
100
AcDbLine
 10
-8.626195710779526
 20
16.6184683633496
 30
0.0
 11
-8.626195710779526
 21
24.61846836334961
 31
0.0
  0
LINE
  5
3CF
330
3CC
100
AcDbEntity
  8
SUNPO
 62
     0
370
    -2
100
AcDbLine
 10
-48.62619571077958
 20
22.61846836334961
 30
0.0
 11
-10.62619571077952
 21
22.61846836334961
 31
0.0
  0
INSERT
  5
3D0
330
3CC
100
AcDbEntity
  8
SUNPO
 62
     0
370
    -2
100
AcDbBlockReference
  2
_OPEN30
 10
-50.62619571077958
 20
22.61846836334961
 30
0.0
 41
2.0
 42
2.0
 43
2.0
 50
180.0
  0
INSERT
  5
3D1
330
3CC
100
AcDbEntity
  8
SUNPO
 62
     0
370
    -2
100
AcDbBlockReference
  2
_OPEN30
 10
-8.626195710779526
 20
22.61846836334961
 30
0.0
 41
2.0
 42
2.0
 43
2.0
  0
MTEXT
  5
3D2
330
3CC
100
AcDbEntity
  8
SUNPO
 62
     0
100
AcDbMText
 10
-29.62619571077956
 20
24.36846836334961
 30
0.0
 40
2.5
 41
0.0
 71
     5
 72
     1
  1
\A1;420
 73
     1
 44
1.0
1001
ACAD
1000
MTEXTBEGIN
1070
    73
1070
     1
1070
    44
1040
1.0
1070
    74
1070
     0
1000
MTEXTEND
  0
POINT
  5
3D3
330
3CC
100
AcDbEntity
  8
Defpoints
 62
     0
100
AcDbPoint
 10
-50.62619571077958
 20
14.6184683633496
 30
0.0
  0
POINT
  5
3D4
330
3CC
100
AcDbEntity
  8
Defpoints
 62
     0
100
AcDbPoint
 10
-8.626195710779526
 20
14.6184683633496
 30
0.0
  0
POINT
  5
3D5
330
3CC
100
AcDbEntity
  8
Defpoints
 62
     0
100
AcDbPoint
 10
-8.626195710779526
 20
22.61846836334961
 30
0.0
  0
ENDBLK
  5
3D7
330
3CC
100
AcDbEntity
  8
0
100
AcDbBlockEnd
  0
BLOCK
  5
3E2
330
3D8
100
AcDbEntity
  8
0
100
AcDbBlockBegin
  2
*D5
 70
     1
 10
0.0
 20
0.0
 30
0.0
  3
*D5
  1

  0
LINE
  5
3D9
330
3D8
100
AcDbEntity
  8
SUNPO
 62
     0
370
    -2
100
AcDbLine
 10
-6.627174950898336
 20
14.64866991161754
 30
0.0
 11
1.372825049101665
 21
14.64866991161754
 31
0.0
  0
LINE
  5
3DA
330
3D8
100
AcDbEntity
  8
SUNPO
 62
     0
370
    -2
100
AcDbLine
 10
-6.627174950898337
 20
5.848669911617477
 30
0.0
 11
1.372825049101663
 21
5.848669911617474
 31
0.0
  0
LINE
  5
3DB
330
3D8
100
AcDbEntity
  8
SUNPO
 62
     0
370
    -2
100
AcDbLine
 10
-0.6271749508983348
 20
12.64866991161754
 30
0.0
 11
-0.6271749508983358
 21
7.848669911617474
 31
0.0
  0
INSERT
  5
3DC
330
3D8
100
AcDbEntity
  8
SUNPO
 62
     0
370
    -2
100
AcDbBlockReference
  2
_OPEN30
 10
-0.6271749508983344
 20
14.64866991161754
 30
0.0
 41
2.0
 42
2.0
 43
2.0
 50
90.0
  0
INSERT
  5
3DD
330
3D8
100
AcDbEntity
  8
SUNPO
 62
     0
370
    -2
100
AcDbBlockReference
  2
_OPEN30
 10
-0.6271749508983362
 20
5.848669911617474
 30
0.0
 41
2.0
 42
2.0
 43
2.0
 50
270.0
  0
MTEXT
  5
3DE
330
3D8
100
AcDbEntity
  8
SUNPO
 62
     0
100
AcDbMText
 10
-2.377174950898337
 20
10.24866991161751
 30
0.0
 40
2.5
 41
0.0
 71
     5
 72
     1
  1
\A1;88
 11
0.0000000000000001
 21
1.0
 31
0.0
 73
     1
 44
1.0
1001
ACAD
1000
MTEXTBEGIN
1070
    73
1070
     1
1070
    44
1040
1.0
1070
    74
1070
     0
1000
MTEXTEND
  0
POINT
  5
3DF
330
3D8
100
AcDbEntity
  8
Defpoints
 62
     0
100
AcDbPoint
 10
-8.627174950898336
 20
14.64866991161754
 30
0.0
  0
POINT
  5
3E0
330
3D8
100
AcDbEntity
  8
Defpoints
 62
     0
100
AcDbPoint
 10
-8.627174950898336
 20
5.848669911617477
 30
0.0
  0
POINT
  5
3E1
330
3D8
100
AcDbEntity
  8
Defpoints
 62
     0
100
AcDbPoint
 10
-0.6271749508983362
 20
5.848669911617474
 30
0.0
  0
ENDBLK
  5
3E3
330
3D8
100
AcDbEntity
  8
0
100
AcDbBlockEnd
  0
BLOCK
  5
3EE
330
3E4
100
AcDbEntity
  8
0
100
AcDbBlockBegin
  2
*D6
 70
     1
 10
0.0
 20
0.0
 30
0.0
  3
*D6
  1

  0
LINE
  5
3E5
330
3E4
100
AcDbEntity
  8
SUNPO
 62
     0
370
    -2
100
AcDbLine
 10
13.70568254183433
 20
16.61846836334955
 30
0.0
 11
13.70568254183433
 21
24.61846836334955
 31
0.0
  0
LINE
  5
3E6
330
3E4
100
AcDbEntity
  8
SUNPO
 62
     0
370
    -2
100
AcDbLine
 10
43.70568254183427
 20
16.61846836334955
 30
0.0
 11
43.70568254183427
 21
24.61846836334955
 31
0.0
  0
LINE
  5
3E7
330
3E4
100
AcDbEntity
  8
SUNPO
 62
     0
370
    -2
100
AcDbLine
 10
15.70568254183433
 20
22.61846836334955
 30
0.0
 11
41.70568254183428
 21
22.61846836334955
 31
0.0
  0
INSERT
  5
3E8
330
3E4
100
AcDbEntity
  8
SUNPO
 62
     0
370
    -2
100
AcDbBlockReference
  2
_OPEN30
 10
13.70568254183433
 20
22.61846836334955
 30
0.0
 41
2.0
 42
2.0
 43
2.0
 50
180.0
  0
INSERT
  5
3E9
330
3E4
100
AcDbEntity
  8
SUNPO
 62
     0
370
    -2
100
AcDbBlockReference
  2
_OPEN30
 10
43.70568254183427
 20
22.61846836334955
 30
0.0
 41
2.0
 42
2.0
 43
2.0
  0
MTEXT
  5
3EA
330
3E4
100
AcDbEntity
  8
SUNPO
 62
     0
100
AcDbMText
 10
28.70568254183431
 20
24.36846836334955
 30
0.0
 40
2.5
 41
0.0
 71
     5
 72
     1
  1
\A1;300
 73
     1
 44
1.0
1001
ACAD
1000
MTEXTBEGIN
1070
    73
1070
     1
1070
    44
1040
1.0
1070
    74
1070
     0
1000
MTEXTEND
  0
POINT
  5
3EB
330
3E4
100
AcDbEntity
  8
Defpoints
 62
     0
100
AcDbPoint
 10
13.70568254183433
 20
14.61846836334955
 30
0.0
  0
POINT
  5
3EC
330
3E4
100
AcDbEntity
  8
Defpoints
 62
     0
100
AcDbPoint
 10
43.70568254183427
 20
14.61846836334955
 30
0.0
  0
POINT
  5
3ED
330
3E4
100
AcDbEntity
  8
Defpoints
 62
     0
100
AcDbPoint
 10
43.70568254183427
 20
22.61846836334955
 30
0.0
  0
ENDBLK
  5
3EF
330
3E4
100
AcDbEntity
  8
0
100
AcDbBlockEnd
  0
ENDSEC
  0
SECTION
  2
ENTITIES
  0
DIMENSION
  5
2F
330
2
100
AcDbEntity
  8
SUNPO
 62
     3
100
AcDbDimension
  2
*D6
 10
43.70568254183427
 20
22.61846836334955
 30
0.0
 11
28.70568254183431
 21
24.36846836334955
 31
0.0
 70
    33
  1
300
 71
     5
 42
29.99999999999995
  3
STANDARD
100
AcDbAlignedDimension
 13
13.70568254183433
 23
14.61846836334955
 33
0.0
 14
43.70568254183427
 24
14.61846836334955
 34
0.0
1001
ACAD
1000
DSTYLE
1002
{
1070
    40
1040
1.0
1070
   140
1040
2.5
1070
   147
1040
0.5
1070
   172
1070
     1
1070
   279
1070
     0
1070
   288
1070
     0
1002
}
  0
DIMENSION
  5
3E
330
2
100
AcDbEntity
  8
SUNPO
100
AcDbDimension
  2
*D5
 10
-0.6271749508983362
 20
5.848669911617474
 30
0.0
 11
-2.377174950898337
 21
10.24866991161751
 31
0.0
 70
    33
  1
88
 71
     5
 42
8.800000000000068
  3
STANDARD
100
AcDbAlignedDimension
 13
-8.627174950898336
 23
14.64866991161754
 33
0.0
 14
-8.627174950898336
 24
5.848669911617477
 34
0.0
1001
ACAD
1000
DSTYLE
1002
{
1070
    40
1040
1.0
1070
   140
1040
2.5
1070
   147
1040
0.5
1070
   172
1070
     1
1070
   279
1070
     0
1070
   288
1070
     0
1002
}
  0
DIMENSION
  5
4B
330
2
100
AcDbEntity
  8
SUNPO
 62
     3
100
AcDbDimension
  2
*D4
 10
-8.626195710779526
 20
22.61846836334961
 30
0.0
 11
-29.62619571077956
 21
24.36846836334961
 31
0.0
 70
    33
  1
420
 71
     5
 42
42.00000000000005
  3
STANDARD
100
AcDbAlignedDimension
 13
-50.62619571077958
 23
14.6184683633496
 33
0.0
 14
-8.626195710779526
 24
14.6184683633496
 34
0.0
1001
ACAD
1000
DSTYLE
1002
{
1070
    40
1040
1.0
1070
   140
1040
2.5
1070
   147
1040
0.5
1070
   172
1070
     1
1070
   279
1070
     0
1070
   288
1070
     0
1002
}
  0
LINE
  5
58
330
2
100
AcDbEntity
  8
GAIKEI
  6
Continuous
 62
     1
100
AcDbLine
 10
-45.89165756857972
 20
6.638344383217585
 30
0.0
 11
-45.89165756857972
 21
7.994650623077504
 31
0.0
  0
LINE
  5
59
330
2
100
AcDbEntity
  8
GAIKEI
  6
Continuous
 62
     1
100
AcDbLine
 10
-48.36073385283959
 20
7.994650623077504
 30
0.0
 11
-48.36073385283959
 21
6.638344383217585
 31
0.0
  0
ARC
  5
5A
330
2
100
AcDbEntity
  8
GAIKEI
 62
     1
100
AcDbCircle
 10
14.34484259229384
 20
8.652712213797073
 30
0.0
 40
1.000453675170747
100
AcDbArc
 50
226.3299826965488
 51
247.4618688776137
  0
LINE
  5
5B
330
2
100
AcDbEntity
  8
GAIKEI
  6
Continuous
 62
     1
100
AcDbLine
 10
-9.605285267359533
 20
12.78857756747753
 30
0.0
 11
-9.600779236833545
 21
10.0295718059376
 31
0.0
  0
LINE
  5
5C
330
2
100
AcDbEntity
  8
GAIKEI
  6
Continuous
 62
   251
100
AcDbLine
 10
-10.84570371617644
 20
13.45661735551668
 30
0.0
 11
-10.8453143511565
 21
13.45700672053662
 31
0.0
  0
LINE
  5
5D
330
2
100
AcDbEntity
  8
GAIKEI
  6
Continuous
 62
   251
100
AcDbLine
 10
-11.23936513104485
 20
13.54378855185511
 30
0.0
 11
-11.22974063549676
 21
13.55341304740322
 31
0.0
  0
SPLINE
  5
5E
330
2
100
AcDbEntity
  8
GAIKEI
  6
Continuous
 62
     7
100
AcDbSpline
210
0.0
220
0.0
230
1.0
 70
     8
 71
     3
 72
    11
 73
     7
 74
     5
 42
0.0000000001
 43
0.0000000001
 44
0.00000001
 40
0.0
 40
0.0
 40
0.0
 40
0.0
 40
0.0196440508789099
 40
0.0389149682855764
 40
0.0539677134570764
 40
0.0689667954924795
 40
0.0689667954924795
 40
0.0689667954924795
 40
0.0689667954924795
 10
-8.676121663819401
 20
5.848669911617534
 30
0.0
 10
-8.66951552896883
 20
5.849414045217187
 30
0.0
 10
-8.656428744282138
 20
5.850888191969161
 30
0.0
 10
-8.641306344215706
 20
5.861757212704475
 30
0.0
 10
-8.631009015989874
 20
5.874946959250522
 30
0.0
 10
-8.628358134876677
 20
5.884708046028222
 30
0.0
 10
-8.627035067919393
 20
5.889579876737556
 30
0.0
 11
-8.676121663819401
 21
5.848669911617534
 31
0.0
 11
-8.656859358110125
 21
5.852523788562038
 31
0.0
 11
-8.64089728093478
 21
5.86332103315793
 31
0.0
 11
-8.631906834782228
 21
5.875394024210649
 31
0.0
 11
-8.627035067919393
 21
5.889579876737556
 31
0.0
  0
SPLINE
  5
5F
330
2
100
AcDbEntity
  8
GAIKEI
  6
Continuous
 62
     7
100
AcDbSpline
210
0.0
220
0.0
230
1.0
 70
    24
 71
     3
 72
     9
 73
     5
 74
     3
 42
0.0000000001
 43
0.0000000001
 44
0.00000001
 40
0.0
 40
0.0
 40
0.0
 40
0.0
 40
0.0045274871126838
 40
0.0090549742252609
 40
0.0090549742252609
 40
0.0090549742252609
 40
0.0090549742252609
 10
-8.627035067919393
 20
5.889579876737556
 30
0.0
 10
-8.626895175062792
 20
5.891082541387561
 30
0.0
 10
-8.62661538934951
 20
5.894087870687542
 30
0.0
 10
-8.626335603636199
 20
5.897093199987537
 30
0.0
 10
-8.626195710779541
 20
5.898595864637499
 30
0.0
 11
-8.627035067919393
 21
5.889579876737556
 31
0.0
 11
-8.626615389349524
 21
5.894087870687584
 31
0.0
 11
-8.626195710779541
 21
5.898595864637499
 31
0.0
  0
SPLINE
  5
60
330
2
100
AcDbEntity
  8
GAIKEI
  6
Continuous
 62
     7
100
AcDbSpline
210
0.0
220
0.0
230
1.0
 70
     8
 71
     3
 72
     9
 73
     5
 74
     3
 42
0.0000000001
 43
0.0000000001
 44
0.00000001
 40
0.0
 40
0.0
 40
0.0
 40
0.0
 40
0.0258597097346221
 40
0.0517313154234812
 40
0.0517313154234812
 40
0.0517313154234812
 40
0.0517313154234812
 10
-8.626195710779541
 20
14.59873669723753
 30
0.0
 10
-8.627461178864407
 20
14.60762098354371
 30
0.0
 10
-8.629992714581184
 20
14.62539363592849
 30
0.0
 10
-8.644126085096971
 20
14.63646329921466
 30
0.0
 10
-8.651194402839394
 20
14.6419993978776
 30
0.0
 11
-8.626195710779541
 21
14.59873669723753
 31
0.0
 11
-8.632891248673502
 21
14.6237145773283
 31
0.0
 11
-8.651194402839394
 21
14.6419993978776
 31
0.0
  0
SPLINE
  5
61
330
2
100
AcDbEntity
  8
GAIKEI
  6
Continuous
 62
     7
100
AcDbSpline
210
0.0
220
0.0
230
1.0
 70
    24
 71
     3
 72
     9
 73
     5
 74
     3
 42
0.0000000001
 43
0.0000000001
 44
0.00000001
 40
0.0
 40
0.0
 40
0.0
 40
0.0
 40
0.0041794457296133
 40
0.0083588914592911
 40
0.0083588914592911
 40
0.0083588914592911
 40
0.0083588914592911
 10
-8.651194402839394
 20
14.6419993978776
 30
0.0
 10
-8.652456927306047
 20
14.64258837574425
 30
0.0
 10
-8.654981976239348
 20
14.64376633147761
 30
0.0
 10
-8.657507025172684
 20
14.64494428721092
 30
0.0
 10
-8.658769549639373
 20
14.64553326507756
 30
0.0
 11
-8.651194402839394
 21
14.6419993978776
 31
0.0
 11
-8.654981976239355
 21
14.64376633147758
 31
0.0
 11
-8.658769549639373
 21
14.64553326507756
 31
0.0
  0
SPLINE
  5
62
330
2
100
AcDbEntity
  8
GAIKEI
  6
Continuous
 62
     7
100
AcDbSpline
210
0.0
220
0.0
230
1.0
 70
    24
 71
     3
 72
     9
 73
     5
 74
     3
 42
0.0000000001
 43
0.0000000001
 44
0.00000001
 40
0.0
 40
0.0
 40
0.0
 40
0.0
 40
0.0088202390835543
 40
0.0176404781672155
 40
0.0176404781672155
 40
0.0176404781672155
 40
0.0176404781672155
 10
-8.658769549639373
 20
14.64553326507756
 30
0.0
 10
-8.661662778892718
 20
14.6460560395009
 30
0.0
 10
-8.667449237399452
 20
14.64710158834759
 30
0.0
 10
-8.673235695906171
 20
14.64814713719427
 30
0.0
 10
-8.676128925159559
 20
14.6486699116176
 30
0.0
 11
-8.658769549639373
 21
14.64553326507756
 31
0.0
 11
-8.667449237399409
 21
14.64710158834758
 31
0.0
 11
-8.676128925159559
 21
14.6486699116176
 31
0.0
  0
SPLINE
  5
63
330
2
100
AcDbEntity
  8
GAIKEI
  6
Continuous
 62
     1
100
AcDbSpline
210
0.0
220
0.0
230
1.0
 70
     8
 71
     3
 72
    21
 73
    17
 74
    15
 42
0.0000000001
 43
0.0000000001
 44
0.00000001
 40
0.0
 40
0.0
 40
0.0
 40
0.0
 40
0.5949914731516339
 40
1.189982893289387
 40
1.58722473310013
 40
1.984466567058556
 40
2.381813503299764
 40
2.77916044053239
 40
3.176243593550712
 40
3.573326746709405
 40
3.969764396359883
 40
4.366202045229131
 40
4.761624541387684
 40
5.157047043884184
 40
5.747720306538141
 40
6.338393623559555
 40
6.338393623559555
 40
6.338393623559555
 40
6.338393623559555
 10
-8.712097430559367
 20
8.048669911617579
 30
0.0
 10
-8.712638910078283
 20
8.246999673882882
 30
0.0
 10
-8.713721854355625
 20
8.643659180779891
 30
0.0
 10
-8.714626194334712
 20
9.172733410149078
 30
0.0
 10
-8.715135117514144
 20
9.635891506738644
 30
0.0
 10
-8.715354969685748
 20
10.03316833768542
 30
0.0
 10
-8.715364191856785
 20
10.43048025794894
 30
0.0
 10
-8.715161311864775
 20
10.82773923409843
 30
0.0
 10
-8.714746591639503
 20
11.22491011749285
 30
0.0
 10
-8.714120323016359
 20
11.62177762747305
 30
0.0
 10
-8.713282296930195
 20
12.01842957863141
 30
0.0
 10
-8.712232973740626
 20
12.41452747168442
 30
0.0
 10
-8.710973278059981
 20
12.81028637143454
 30
0.0
 10
-8.709254120770481
 20
13.27078926121666
 30
0.0
 10
-8.706967291889434
 20
13.79637407346126
 30
0.0
 10
-8.70484580929915
 20
14.19015057324363
 30
0.0
 10
-8.703785060599386
 20
14.38703883215758
 30
0.0
 11
-8.712097430559367
 21
8.048669911617579
 31
0.0
 11
-8.713620630016464
 21
8.643659435046728
 31
0.0
 11
-8.714666271535406
 21
9.238649936382884
 31
0.0
 11
-8.715099017409784
 21
9.635891540486895
 31
0.0
 11
-8.71531986290131
 21
10.03313331306115
 31
0.0
 11
-8.715328843876704
 21
10.43048024920607
 31
0.0
 11
-8.715125935403193
 21
10.82782713463557
 31
0.0
 11
-8.714711271680926
 21
11.2249100711479
 31
0.0
 11
-8.714084576836683
 21
11.62199272977249
 31
0.0
 11
-8.713246865575115
 21
12.01842949434488
 31
0.0
 11
-8.712196770396246
 21
12.41486575245646
 31
0.0
 11
-8.71093702653502
 21
12.81028624195856
 31
0.0
 11
-8.709464447434015
 21
13.20570600246098
 31
0.0
 11
-8.706865265685905
 21
13.79637354641339
 31
0.0
 11
-8.703785060599386
 21
14.38703883215758
 31
0.0
  0
LINE
  5
64
330
2
100
AcDbEntity
  8
GAIKEI
  6
Continuous
 62
     7
100
AcDbLine
 10
-8.626195710779541
 20
14.59873669723753
 30
0.0
 11
-8.626195710779541
 21
5.898595864637499
 31
0.0
  0
LINE
  5
65
330
2
100
AcDbEntity
  8
GAIKEI
  6
Continuous
 62
     1
100
AcDbLine
 10
-35.67369568089958
 20
5.890445495037553
 30
0.0
 11
-35.67369568089958
 21
7.992620628777544
 31
0.0
  0
CIRCLE
  5
66
330
2
100
AcDbEntity
  8
GAIKEI
 62
     1
100
AcDbCircle
 10
-42.64619571077969
 20
8.918669911617584
 30
0.0
 40
0.3698958003777232
  0
ELLIPSE
  5
67
330
2
100
AcDbEntity
  8
GAIKEI
 62
     1
100
AcDbEllipse
 10
-42.63804342464851
 20
10.78816805965759
 30
0.0
 11
0.3149938999998994
 21
0.0
 31
0.0
210
0.0
220
0.0
230
1.0
 40
0.3650569226601744
 41
0.0
 42
6.283185307179586
  0
ELLIPSE
  5
68
330
2
100
AcDbEntity
  8
GAIKEI
 62
     1
100
AcDbEllipse
 10
-42.63804342464851
 20
11.74685302126549
 30
0.0
 11
0.3149938999998994
 21
0.0
 31
0.0
210
0.0
220
0.0
230
1.0
 40
0.3650569226601744
 41
0.0
 42
6.283185307179586
  0
ELLIPSE
  5
69
330
2
100
AcDbEntity
  8
GAIKEI
 62
     1
100
AcDbEllipse
 10
-44.87870674887097
 20
11.74685302126549
 30
0.0
 11
0.3149938999998994
 21
0.0
 31
0.0
210
0.0
220
0.0
230
1.0
 40
0.3650569226601744
 41
0.0
 42
6.283185307179586
  0
ELLIPSE
  5
6A
330
2
100
AcDbEntity
  8
GAIKEI
 62
     1
100
AcDbEllipse
 10
-44.87870674887097
 20
10.78816805965759
 30
0.0
 11
0.3149938999998994
 21
0.0
 31
0.0
210
0.0
220
0.0
230
1.0
 40
0.3650569226601744
 41
0.0
 42
6.283185307179586
  0
ELLIPSE
  5
6B
330
2
100
AcDbEntity
  8
GAIKEI
 62
     1
100
AcDbEllipse
 10
-47.12117766077966
 20
11.74685302126549
 30
0.0
 11
0.3149938999998994
 21
0.0
 31
0.0
210
0.0
220
0.0
230
1.0
 40
0.3650569226601744
 41
0.0
 42
6.283185307179586
  0
ELLIPSE
  5
6C
330
2
100
AcDbEntity
  8
GAIKEI
 62
     1
100
AcDbEllipse
 10
-47.12117766077966
 20
10.78816805965759
 30
0.0
 11
0.3149938999998994
 21
0.0
 31
0.0
210
0.0
220
0.0
230
1.0
 40
0.3650569226601744
 41
0.0
 42
6.283185307179586
  0
LINE
  5
6D
330
2
100
AcDbEntity
  8
GAIKEI
  6
Continuous
 62
     1
100
AcDbLine
 10
-11.71228566237954
 20
12.2508264814226
 30
0.0
 11
-10.11228566237957
 21
12.2508264814226
 31
0.0
  0
LINE
  5
6E
330
2
100
AcDbEntity
  8
GAIKEI
  6
Continuous
 62
     1
100
AcDbLine
 10
-10.11228566237957
 20
12.2508264814226
 30
0.0
 11
-10.11228566237957
 21
10.65082648142264
 31
0.0
  0
LINE
  5
6F
330
2
100
AcDbEntity
  8
GAIKEI
  6
Continuous
 62
     1
100
AcDbLine
 10
-10.11228566237957
 20
10.65082648142264
 30
0.0
 11
-11.71228566237954
 21
10.65082648142264
 31
0.0
  0
LINE
  5
70
330
2
100
AcDbEntity
  8
GAIKEI
  6
Continuous
 62
     1
100
AcDbLine
 10
-11.71228566237954
 20
10.65082648142264
 30
0.0
 11
-11.71228566237954
 21
12.2508264814226
 31
0.0
  0
LINE
  5
71
330
2
100
AcDbEntity
  8
GAIKEI
  6
Continuous
 62
   251
100
AcDbLine
 10
-12.72128001077976
 20
13.39601511161758
 30
0.0
 11
-12.72235571077976
 21
13.39346981161758
 31
0.0
  0
LINE
  5
72
330
2
100
AcDbEntity
  8
GAIKEI
  6
Continuous
 62
   251
100
AcDbLine
 10
-12.72235571077976
 20
13.39346981161758
 30
0.0
 11
-12.72314191077953
 21
13.39096261161761
 31
0.0
  0
LINE
  5
73
330
2
100
AcDbEntity
  8
GAIKEI
  6
Continuous
 62
   251
100
AcDbLine
 10
-12.72314191077953
 20
13.39096261161761
 30
0.0
 11
-12.72343031077957
 21
13.38972301161753
 31
0.0
  0
LINE
  5
74
330
2
100
AcDbEntity
  8
GAIKEI
  6
Continuous
 62
   251
100
AcDbLine
 10
-12.72343031077957
 20
13.38972301161753
 30
0.0
 11
-12.72365031077953
 21
13.38849381161752
 31
0.0
  0
LINE
  5
75
330
2
100
AcDbEntity
  8
GAIKEI
  6
Continuous
 62
   251
100
AcDbLine
 10
-12.72365031077953
 20
13.38849381161752
 30
0.0
 11
-12.72389021077953
 21
13.3860682116176
 31
0.0
  0
LINE
  5
76
330
2
100
AcDbEntity
  8
GAIKEI
  6
Continuous
 62
   251
100
AcDbLine
 10
-12.72389021077953
 20
13.3860682116176
 30
0.0
 11
-12.72386971077975
 21
13.38368471161753
 31
0.0
  0
LINE
  5
77
330
2
100
AcDbEntity
  8
GAIKEI
  6
Continuous
 62
   251
100
AcDbLine
 10
-12.72386971077975
 20
13.38368471161753
 30
0.0
 11
-12.72359391077953
 21
13.38134261161757
 31
0.0
  0
LINE
  5
78
330
2
100
AcDbEntity
  8
GAIKEI
  6
Continuous
 62
   251
100
AcDbLine
 10
-12.72359391077953
 20
13.38134261161757
 30
0.0
 11
-12.72306491077955
 21
13.37904211161758
 31
0.0
  0
LINE
  5
79
330
2
100
AcDbEntity
  8
GAIKEI
  6
Continuous
 62
   251
100
AcDbLine
 10
-12.72306491077955
 20
13.37904211161758
 30
0.0
 11
-12.72228231077952
 21
13.37678471161756
 31
0.0
  0
LINE
  5
7A
330
2
100
AcDbEntity
  8
GAIKEI
  6
Continuous
 62
   251
100
AcDbLine
 10
-12.72228231077952
 20
13.37678471161756
 30
0.0
 11
-12.72124331077953
 21
13.37457441161756
 31
0.0
  0
LINE
  5
7B
330
2
100
AcDbEntity
  8
GAIKEI
  6
Continuous
 62
   251
100
AcDbLine
 10
-12.72124331077953
 20
13.37457441161756
 30
0.0
 11
-12.71994411077975
 21
13.37241731161758
 31
0.0
  0
LINE
  5
7C
330
2
100
AcDbEntity
  8
GAIKEI
  6
Continuous
 62
   251
100
AcDbLine
 10
-12.71994411077975
 20
13.37241731161758
 30
0.0
 11
-12.71838051077952
 21
13.37032281161758
 31
0.0
  0
LINE
  5
7D
330
2
100
AcDbEntity
  8
GAIKEI
  6
Continuous
 62
   251
100
AcDbLine
 10
-12.71838051077952
 20
13.37032281161758
 30
0.0
 11
-12.71654931077973
 21
13.36830311161758
 31
0.0
  0
LINE
  5
7E
330
2
100
AcDbEntity
  8
GAIKEI
  6
Continuous
 62
   251
100
AcDbLine
 10
-12.71654931077973
 20
13.36830311161758
 30
0.0
 11
-12.71444901077956
 21
13.36637341161757
 31
0.0
  0
LINE
  5
7F
330
2
100
AcDbEntity
  8
GAIKEI
  6
Continuous
 62
   251
100
AcDbLine
 10
-12.71444901077956
 20
13.36637341161757
 30
0.0
 11
-12.71208151077974
 21
13.36455151161759
 31
0.0
  0
LINE
  5
80
330
2
100
AcDbEntity
  8
GAIKEI
  6
Continuous
 62
   251
100
AcDbLine
 10
-12.71208151077974
 20
13.36455151161759
 30
0.0
 11
-12.70945241077953
 21
13.36285701161761
 31
0.0
  0
LINE
  5
81
330
2
100
AcDbEntity
  8
GAIKEI
  6
Continuous
 62
   251
100
AcDbLine
 10
-12.70945241077953
 20
13.36285701161761
 30
0.0
 11
-12.70657171077971
 21
13.36131101161759
 31
0.0
  0
LINE
  5
82
330
2
100
AcDbEntity
  8
GAIKEI
  6
Continuous
 62
   251
100
AcDbLine
 10
-12.70657171077971
 20
13.36131101161759
 30
0.0
 11
-12.70345411077971
 21
13.35993441161757
 31
0.0
  0
LINE
  5
83
330
2
100
AcDbEntity
  8
GAIKEI
  6
Continuous
 62
   251
100
AcDbLine
 10
-12.70345411077971
 20
13.35993441161757
 30
0.0
 11
-12.70011881077954
 21
13.35874791161755
 31
0.0
  0
LINE
  5
84
330
2
100
AcDbEntity
  8
GAIKEI
  6
Continuous
 62
   251
100
AcDbLine
 10
-12.70011881077954
 20
13.35874791161755
 30
0.0
 11
-12.69658881077953
 21
13.35777021161759
 31
0.0
  0
LINE
  5
85
330
2
100
AcDbEntity
  8
GAIKEI
  6
Continuous
 62
   251
100
AcDbLine
 10
-12.69658881077953
 20
13.35777021161759
 30
0.0
 11
-12.69463221077973
 21
13.35733941161753
 31
0.0
  0
LINE
  5
86
330
2
100
AcDbEntity
  8
GAIKEI
  6
Continuous
 62
   251
100
AcDbLine
 10
-12.69463221077973
 20
13.35733941161753
 30
0.0
 11
-12.69086331077972
 21
13.35671471161758
 31
0.0
  0
LINE
  5
87
330
2
100
AcDbEntity
  8
GAIKEI
  6
Continuous
 62
   251
100
AcDbLine
 10
-12.69086331077972
 20
13.35671471161758
 30
0.0
 11
-12.68697871077955
 21
13.35633481161754
 31
0.0
  0
LINE
  5
88
330
2
100
AcDbEntity
  8
GAIKEI
  6
Continuous
 62
   251
100
AcDbLine
 10
-12.68697871077955
 20
13.35633481161754
 30
0.0
 11
-12.68300501077976
 21
13.35620701161757
 31
0.0
  0
LINE
  5
89
330
2
100
AcDbEntity
  8
GAIKEI
  6
Continuous
 62
   251
100
AcDbLine
 10
-12.68300501077976
 20
13.35620701161757
 30
0.0
 11
-12.62762501077975
 21
13.35619191161758
 31
0.0
  0
LINE
  5
8A
330
2
100
AcDbEntity
  8
GAIKEI
  6
Continuous
 62
   251
100
AcDbLine
 10
-12.62762501077975
 20
13.35619191161758
 30
0.0
 11
-12.53751851077976
 21
13.35639651161754
 31
0.0
  0
LINE
  5
8B
330
2
100
AcDbEntity
  8
GAIKEI
  6
Continuous
 62
   251
100
AcDbLine
 10
-12.62430051077973
 20
13.59719161161756
 30
0.0
 11
-12.64224951077972
 21
13.55893381161762
 31
0.0
  0
LINE
  5
8C
330
2
100
AcDbEntity
  8
GAIKEI
  6
Continuous
 62
   251
100
AcDbLine
 10
-12.44050461077973
 20
13.55893381161762
 30
0.0
 11
-12.42241781077973
 21
13.59719161161756
 31
0.0
  0
LINE
  5
8D
330
2
100
AcDbEntity
  8
GAIKEI
  6
Continuous
 62
   251
100
AcDbLine
 10
-12.53751851077976
 20
13.35639651161754
 30
0.0
 11
-12.45428491077973
 21
13.53018451161755
 31
0.0
  0
LINE
  5
8E
330
2
100
AcDbEntity
  8
GAIKEI
  6
Continuous
 62
   251
100
AcDbLine
 10
-12.23176611077952
 20
13.44037081161763
 30
0.0
 11
-12.21815791077955
 21
13.46863781161754
 31
0.0
  0
LINE
  5
8F
330
2
100
AcDbEntity
  8
GAIKEI
  6
Continuous
 62
   251
100
AcDbLine
 10
-9.692866810779719
 20
13.37951311161758
 30
0.0
 11
-9.628099010779749
 21
13.51399251161756
 31
0.0
  0
LINE
  5
90
330
2
100
AcDbEntity
  8
GAIKEI
  6
Continuous
 62
   251
100
AcDbLine
 10
-9.628099010779749
 20
13.51399251161756
 30
0.0
 11
-9.625901110779523
 21
13.5192559116176
 31
0.0
  0
LINE
  5
91
330
2
100
AcDbEntity
  8
GAIKEI
  6
Continuous
 62
   251
100
AcDbLine
 10
-9.625901110779523
 20
13.5192559116176
 30
0.0
 11
-9.624544110779766
 21
13.52411251161753
 31
0.0
  0
LINE
  5
92
330
2
100
AcDbEntity
  8
GAIKEI
  6
Continuous
 62
   251
100
AcDbLine
 10
-9.624544110779766
 20
13.52411251161753
 30
0.0
 11
-9.623940110779756
 21
13.52861091161758
 31
0.0
  0
LINE
  5
93
330
2
100
AcDbEntity
  8
GAIKEI
  6
Continuous
 62
   251
100
AcDbLine
 10
-9.623940110779756
 20
13.52861091161758
 30
0.0
 11
-9.62389971077971
 21
13.53074171161755
 31
0.0
  0
LINE
  5
94
330
2
100
AcDbEntity
  8
GAIKEI
  6
Continuous
 62
   251
100
AcDbLine
 10
-9.62389971077971
 20
13.53074171161755
 30
0.0
 11
-9.624025410779722
 21
13.53279391161759
 31
0.0
  0
LINE
  5
95
330
2
100
AcDbEntity
  8
GAIKEI
  6
Continuous
 62
   251
100
AcDbLine
 10
-9.624025410779722
 20
13.53279391161759
 30
0.0
 11
-9.624751710779719
 21
13.53666971161753
 31
0.0
  0
LINE
  5
96
330
2
100
AcDbEntity
  8
GAIKEI
  6
Continuous
 62
   251
100
AcDbLine
 10
-9.624751710779719
 20
13.53666971161753
 30
0.0
 11
-9.626090310779773
 21
13.54028001161758
 31
0.0
  0
LINE
  5
97
330
2
100
AcDbEntity
  8
GAIKEI
  6
Continuous
 62
   251
100
AcDbLine
 10
-9.626090310779773
 20
13.54028001161758
 30
0.0
 11
-9.628040010779557
 21
13.5436563116176
 31
0.0
  0
LINE
  5
98
330
2
100
AcDbEntity
  8
GAIKEI
  6
Continuous
 62
   251
100
AcDbLine
 10
-9.628040010779557
 20
13.5436563116176
 30
0.0
 11
-9.63062291077972
 21
13.54681471161756
 31
0.0
  0
LINE
  5
99
330
2
100
AcDbEntity
  8
GAIKEI
  6
Continuous
 62
   251
100
AcDbLine
 10
-9.63062291077972
 20
13.54681471161756
 30
0.0
 11
-9.633876110779738
 21
13.54975131161755
 31
0.0
  0
LINE
  5
9A
330
2
100
AcDbEntity
  8
GAIKEI
  6
Continuous
 62
   251
100
AcDbLine
 10
-9.633876110779738
 20
13.54975131161755
 30
0.0
 11
-9.637840710779528
 21
13.55244051161757
 31
0.0
  0
LINE
  5
9B
330
2
100
AcDbEntity
  8
GAIKEI
  6
Continuous
 62
   251
100
AcDbLine
 10
-9.637840710779528
 20
13.55244051161757
 30
0.0
 11
-9.642545510779541
 21
13.55483351161756
 31
0.0
  0
LINE
  5
9C
330
2
100
AcDbEntity
  8
GAIKEI
  6
Continuous
 62
   251
100
AcDbLine
 10
-9.642545510779541
 20
13.55483351161756
 30
0.0
 11
-9.647987410779535
 21
13.55686101161756
 31
0.0
  0
LINE
  5
9D
330
2
100
AcDbEntity
  8
GAIKEI
  6
Continuous
 62
   251
100
AcDbLine
 10
-9.647987410779535
 20
13.55686101161756
 30
0.0
 11
-9.654108710779553
 21
13.55843771161754
 31
0.0
  0
LINE
  5
9E
330
2
100
AcDbEntity
  8
GAIKEI
  6
Continuous
 62
   251
100
AcDbLine
 10
-9.654108710779553
 20
13.55843771161754
 30
0.0
 11
-9.66077341077954
 21
13.55947391161758
 31
0.0
  0
LINE
  5
9F
330
2
100
AcDbEntity
  8
GAIKEI
  6
Continuous
 62
   251
100
AcDbLine
 10
-9.66077341077954
 20
13.55947391161758
 30
0.0
 11
-9.667753810779743
 21
13.55989221161756
 31
0.0
  0
LINE
  5
A0
330
2
100
AcDbEntity
  8
GAIKEI
  6
Continuous
 62
   251
100
AcDbLine
 10
-9.667753810779743
 20
13.55989221161756
 30
0.0
 11
-9.668716710779563
 21
13.55989841161759
 31
0.0
  0
LINE
  5
A1
330
2
100
AcDbEntity
  8
GAIKEI
  6
Continuous
 62
   251
100
AcDbLine
 10
-9.668716710779563
 20
13.55989841161759
 30
0.0
 11
-10.32300971077956
 21
13.55989841161759
 31
0.0
  0
LINE
  5
A2
330
2
100
AcDbEntity
  8
GAIKEI
  6
Continuous
 62
   251
100
AcDbLine
 10
-12.36640051077955
 20
13.46863781161754
 30
0.0
 11
-12.38007751077953
 21
13.44037081161763
 31
0.0
  0
LINE
  5
A3
330
2
100
AcDbEntity
  8
GAIKEI
  6
Continuous
 62
   251
100
AcDbLine
 10
-10.32300971077956
 20
13.55989841161759
 30
0.0
 11
-10.32773571077973
 21
13.55970171161759
 31
0.0
  0
LINE
  5
A4
330
2
100
AcDbEntity
  8
GAIKEI
  6
Continuous
 62
   251
100
AcDbLine
 10
-10.32773571077973
 20
13.55970171161759
 30
0.0
 11
-10.33343601077973
 21
13.55890531161758
 31
0.0
  0
LINE
  5
A5
330
2
100
AcDbEntity
  8
GAIKEI
  6
Continuous
 62
   251
100
AcDbLine
 10
-10.33343601077973
 20
13.55890531161758
 30
0.0
 11
-10.33872551077957
 21
13.55753811161757
 31
0.0
  0
LINE
  5
A6
330
2
100
AcDbEntity
  8
GAIKEI
  6
Continuous
 62
   251
100
AcDbLine
 10
-10.33872551077957
 20
13.55753811161757
 30
0.0
 11
-10.34356711077953
 21
13.55564271161755
 31
0.0
  0
LINE
  5
A7
330
2
100
AcDbEntity
  8
GAIKEI
  6
Continuous
 62
   251
100
AcDbLine
 10
-10.34356711077953
 20
13.55564271161755
 30
0.0
 11
-10.34794801077976
 21
13.55325261161759
 31
0.0
  0
LINE
  5
A8
330
2
100
AcDbEntity
  8
GAIKEI
  6
Continuous
 62
   251
100
AcDbLine
 10
-10.34794801077976
 20
13.55325261161759
 30
0.0
 11
-10.35186911077971
 21
13.55038841161762
 31
0.0
  0
LINE
  5
A9
330
2
100
AcDbEntity
  8
GAIKEI
  6
Continuous
 62
   251
100
AcDbLine
 10
-10.35186911077971
 20
13.55038841161762
 30
0.0
 11
-10.35533561077972
 21
13.54705591161756
 31
0.0
  0
LINE
  5
AA
330
2
100
AcDbEntity
  8
GAIKEI
  6
Continuous
 62
   251
100
AcDbLine
 10
-10.35533561077972
 20
13.54705591161756
 30
0.0
 11
-10.35834971077952
 21
13.54324581161755
 31
0.0
  0
LINE
  5
AB
330
2
100
AcDbEntity
  8
GAIKEI
  6
Continuous
 62
   251
100
AcDbLine
 10
-10.35834971077952
 20
13.54324581161755
 30
0.0
 11
-10.36090571077955
 21
13.53893501161756
 31
0.0
  0
LINE
  5
AC
330
2
100
AcDbEntity
  8
GAIKEI
  6
Continuous
 62
   251
100
AcDbLine
 10
-10.36090571077955
 20
13.53893501161756
 30
0.0
 11
-10.36224561077955
 21
13.53611411161755
 31
0.0
  0
LINE
  5
AD
330
2
100
AcDbEntity
  8
GAIKEI
  6
Continuous
 62
   251
100
AcDbLine
 10
-10.36224561077955
 20
13.53611411161755
 30
0.0
 11
-10.41045701077973
 21
13.43485461161752
 31
0.0
  0
LINE
  5
AE
330
2
100
AcDbEntity
  8
GAIKEI
  6
Continuous
 62
   251
100
AcDbLine
 10
-10.41045701077973
 20
13.43485461161752
 30
0.0
 11
-10.43232261077975
 21
13.38931441161757
 31
0.0
  0
LINE
  5
AF
330
2
100
AcDbEntity
  8
GAIKEI
  6
Continuous
 62
   251
100
AcDbLine
 10
-10.43232261077975
 20
13.38931441161757
 30
0.0
 11
-10.43397041077975
 21
13.38518801161761
 31
0.0
  0
LINE
  5
B0
330
2
100
AcDbEntity
  8
GAIKEI
  6
Continuous
 62
   251
100
AcDbLine
 10
-10.43397041077975
 20
13.38518801161761
 30
0.0
 11
-10.43485641077973
 21
13.38126841161759
 31
0.0
  0
LINE
  5
B1
330
2
100
AcDbEntity
  8
GAIKEI
  6
Continuous
 62
   251
100
AcDbLine
 10
-10.43485641077973
 20
13.38126841161759
 30
0.0
 11
-10.43503271077952
 21
13.37938221161754
 31
0.0
  0
LINE
  5
B2
330
2
100
AcDbEntity
  8
GAIKEI
  6
Continuous
 62
   251
100
AcDbLine
 10
-10.43503271077952
 20
13.37938221161754
 30
0.0
 11
-10.43503851077952
 21
13.37754891161761
 31
0.0
  0
LINE
  5
B3
330
2
100
AcDbEntity
  8
GAIKEI
  6
Continuous
 62
   251
100
AcDbLine
 10
-10.43503851077952
 20
13.37754891161761
 30
0.0
 11
-10.43456011077973
 21
13.37404871161753
 31
0.0
  0
LINE
  5
B4
330
2
100
AcDbEntity
  8
GAIKEI
  6
Continuous
 62
   251
100
AcDbLine
 10
-10.43456011077973
 20
13.37404871161753
 30
0.0
 11
-10.43345061077957
 21
13.37076111161762
 31
0.0
  0
LINE
  5
B5
330
2
100
AcDbEntity
  8
GAIKEI
  6
Continuous
 62
   251
100
AcDbLine
 10
-10.43345061077957
 20
13.37076111161762
 30
0.0
 11
-10.43171801077972
 21
13.36768931161758
 31
0.0
  0
LINE
  5
B6
330
2
100
AcDbEntity
  8
GAIKEI
  6
Continuous
 62
   251
100
AcDbLine
 10
-10.43171801077972
 20
13.36768931161758
 30
0.0
 11
-10.42935591077952
 21
13.36485321161761
 31
0.0
  0
LINE
  5
B7
330
2
100
AcDbEntity
  8
GAIKEI
  6
Continuous
 62
   251
100
AcDbLine
 10
-10.42935591077952
 20
13.36485321161761
 30
0.0
 11
-10.42635411077975
 21
13.36229371161754
 31
0.0
  0
LINE
  5
B8
330
2
100
AcDbEntity
  8
GAIKEI
  6
Continuous
 62
   251
100
AcDbLine
 10
-10.42635411077975
 20
13.36229371161754
 30
0.0
 11
-10.42271291077975
 21
13.36007251161759
 31
0.0
  0
LINE
  5
B9
330
2
100
AcDbEntity
  8
GAIKEI
  6
Continuous
 62
   251
100
AcDbLine
 10
-10.42271291077975
 20
13.36007251161759
 30
0.0
 11
-10.41845611077974
 21
13.35826731161755
 31
0.0
  0
LINE
  5
BA
330
2
100
AcDbEntity
  8
GAIKEI
  6
Continuous
 62
   251
100
AcDbLine
 10
-10.41845611077974
 20
13.35826731161755
 30
0.0
 11
-10.41363951077971
 21
13.35696191161763
 31
0.0
  0
LINE
  5
BB
330
2
100
AcDbEntity
  8
GAIKEI
  6
Continuous
 62
   251
100
AcDbLine
 10
-10.41363951077971
 20
13.35696191161763
 30
0.0
 11
-10.40835191077974
 21
13.35623521161754
 31
0.0
  0
LINE
  5
BC
330
2
100
AcDbEntity
  8
GAIKEI
  6
Continuous
 62
   251
100
AcDbLine
 10
-10.40835191077974
 20
13.35623521161754
 30
0.0
 11
-10.40483071077972
 21
13.35610371161753
 31
0.0
  0
LINE
  5
BD
330
2
100
AcDbEntity
  8
GAIKEI
  6
Continuous
 62
   251
100
AcDbLine
 10
-10.40483071077972
 20
13.35610371161753
 30
0.0
 11
-10.30926951077975
 21
13.35627451161757
 31
0.0
  0
LINE
  5
BE
330
2
100
AcDbEntity
  8
GAIKEI
  6
Continuous
 62
   251
100
AcDbLine
 10
-10.30926951077975
 20
13.35627451161757
 30
0.0
 11
-10.29310621077957
 21
13.35631041161763
 31
0.0
  0
LINE
  5
BF
330
2
100
AcDbEntity
  8
GAIKEI
  6
Continuous
 62
   251
100
AcDbLine
 10
-10.29310621077957
 20
13.35631041161763
 30
0.0
 11
-10.21032051077975
 21
13.52903031161757
 31
0.0
  0
LINE
  5
C0
330
2
100
AcDbEntity
  8
GAIKEI
  6
Continuous
 62
   251
100
AcDbLine
 10
-10.21032051077975
 20
13.52903031161757
 30
0.0
 11
-9.856922410779759
 21
13.52903031161757
 31
0.0
  0
LINE
  5
C1
330
2
100
AcDbEntity
  8
GAIKEI
  6
Continuous
 62
   251
100
AcDbLine
 10
-9.856922410779759
 20
13.52903031161757
 30
0.0
 11
-9.926754510779574
 21
13.38399171161755
 31
0.0
  0
LINE
  5
C2
330
2
100
AcDbEntity
  8
GAIKEI
  6
Continuous
 62
   251
100
AcDbLine
 10
-9.926754510779574
 20
13.38399171161755
 30
0.0
 11
-10.18468901077972
 21
13.38399171161755
 31
0.0
  0
LINE
  5
C3
330
2
100
AcDbEntity
  8
GAIKEI
  6
Continuous
 62
   251
100
AcDbLine
 10
-10.18468901077972
 20
13.38399171161755
 30
0.0
 11
-10.15371761077972
 21
13.35601751161753
 31
0.0
  0
LINE
  5
C4
330
2
100
AcDbEntity
  8
GAIKEI
  6
Continuous
 62
   251
100
AcDbLine
 10
-10.15371761077972
 20
13.35601751161753
 30
0.0
 11
-9.740719210779559
 21
13.35601751161753
 31
0.0
  0
LINE
  5
C5
330
2
100
AcDbEntity
  8
GAIKEI
  6
Continuous
 62
   251
100
AcDbLine
 10
-9.698254410779725
 20
13.37141951161753
 30
0.0
 11
-9.695292510779552
 21
13.37526671161758
 31
0.0
  0
LINE
  5
C6
330
2
100
AcDbEntity
  8
GAIKEI
  6
Continuous
 62
   251
100
AcDbLine
 10
-9.695292510779552
 20
13.37526671161758
 30
0.0
 11
-9.692866810779719
 21
13.37951311161758
 31
0.0
  0
LINE
  5
C7
330
2
100
AcDbEntity
  8
GAIKEI
  6
Continuous
 62
   251
100
AcDbLine
 10
-11.20368001077975
 20
13.55960561161758
 30
0.0
 11
-11.21081501077975
 21
13.55931081161758
 31
0.0
  0
LINE
  5
C8
330
2
100
AcDbEntity
  8
GAIKEI
  6
Continuous
 62
   251
100
AcDbLine
 10
-11.21081501077975
 20
13.55931081161758
 30
0.0
 11
-11.21680401077975
 21
13.55847521161762
 31
0.0
  0
LINE
  5
C9
330
2
100
AcDbEntity
  8
GAIKEI
  6
Continuous
 62
   251
100
AcDbLine
 10
-11.21680401077975
 20
13.55847521161762
 30
0.0
 11
-11.22193631077954
 21
13.55714211161761
 31
0.0
  0
LINE
  5
CA
330
2
100
AcDbEntity
  8
GAIKEI
  6
Continuous
 62
   251
100
AcDbLine
 10
-11.22193631077954
 20
13.55714211161761
 30
0.0
 11
-11.22643111077974
 21
13.5553153116176
 31
0.0
  0
LINE
  5
CB
330
2
100
AcDbEntity
  8
GAIKEI
  6
Continuous
 62
   251
100
AcDbLine
 10
-11.22643111077974
 20
13.5553153116176
 30
0.0
 11
-11.22849911077975
 21
13.55420351161756
 31
0.0
  0
LINE
  5
CC
330
2
100
AcDbEntity
  8
GAIKEI
  6
Continuous
 62
   251
100
AcDbLine
 10
-11.22849911077975
 20
13.55420351161756
 30
0.0
 11
-11.23045941077953
 21
13.55295541161761
 31
0.0
  0
LINE
  5
CD
330
2
100
AcDbEntity
  8
GAIKEI
  6
Continuous
 62
   251
100
AcDbLine
 10
-11.23045941077953
 20
13.55295541161761
 30
0.0
 11
-11.23408431077973
 21
13.55004061161757
 31
0.0
  0
LINE
  5
CE
330
2
100
AcDbEntity
  8
GAIKEI
  6
Continuous
 62
   251
100
AcDbLine
 10
-11.23408431077973
 20
13.55004061161757
 30
0.0
 11
-11.23742941077955
 21
13.54646951161759
 31
0.0
  0
LINE
  5
CF
330
2
100
AcDbEntity
  8
GAIKEI
  6
Continuous
 62
   251
100
AcDbLine
 10
-11.23742941077955
 20
13.54646951161759
 30
0.0
 11
-11.24060401077975
 21
13.54207271161759
 31
0.0
  0
LINE
  5
D0
330
2
100
AcDbEntity
  8
GAIKEI
  6
Continuous
 62
   251
100
AcDbLine
 10
-11.24060401077975
 20
13.54207271161759
 30
0.0
 11
-11.24371181077975
 21
13.53659071161756
 31
0.0
  0
LINE
  5
D1
330
2
100
AcDbEntity
  8
GAIKEI
  6
Continuous
 62
   251
100
AcDbLine
 10
-11.24371181077975
 20
13.53659071161756
 30
0.0
 11
-11.24395321077975
 21
13.53611001161754
 31
0.0
  0
LINE
  5
D2
330
2
100
AcDbEntity
  8
GAIKEI
  6
Continuous
 62
   251
100
AcDbLine
 10
-11.24395321077975
 20
13.53611001161754
 30
0.0
 11
-11.33070081077971
 21
13.35620701161757
 31
0.0
  0
LINE
  5
D3
330
2
100
AcDbEntity
  8
GAIKEI
  6
Continuous
 62
   251
100
AcDbLine
 10
-11.33070081077971
 20
13.35620701161757
 30
0.0
 11
-11.17522351077974
 21
13.35631041161763
 31
0.0
  0
LINE
  5
D4
330
2
100
AcDbEntity
  8
GAIKEI
  6
Continuous
 62
   251
100
AcDbLine
 10
-11.17522351077974
 20
13.35631041161763
 30
0.0
 11
-11.08892381077976
 21
13.53514541161756
 31
0.0
  0
LINE
  5
D5
330
2
100
AcDbEntity
  8
GAIKEI
  6
Continuous
 62
   251
100
AcDbLine
 10
-11.08892381077976
 20
13.53514541161756
 30
0.0
 11
-10.75337131077975
 21
13.53514541161756
 31
0.0
  0
LINE
  5
D6
330
2
100
AcDbEntity
  8
GAIKEI
  6
Continuous
 62
   251
100
AcDbLine
 10
-10.75337131077975
 20
13.53514541161756
 30
0.0
 11
-10.76563281077972
 21
13.52435521161759
 31
0.0
  0
LINE
  5
D7
330
2
100
AcDbEntity
  8
GAIKEI
  6
Continuous
 62
   251
100
AcDbLine
 10
-10.76563281077972
 20
13.52435521161759
 30
0.0
 11
-10.79587991077971
 21
13.49853781161754
 31
0.0
  0
LINE
  5
D8
330
2
100
AcDbEntity
  8
GAIKEI
  6
Continuous
 62
   251
100
AcDbLine
 10
-10.79587991077971
 20
13.49853781161754
 30
0.0
 11
-10.84108351077953
 21
13.46086911161755
 31
0.0
  0
LINE
  5
D9
330
2
100
AcDbEntity
  8
GAIKEI
  6
Continuous
 62
   251
100
AcDbLine
 10
-10.84108351077953
 20
13.46086911161755
 30
0.0
 11
-10.84556411077972
 21
13.45677871161756
 31
0.0
  0
LINE
  5
DA
330
2
100
AcDbEntity
  8
GAIKEI
  6
Continuous
 62
   251
100
AcDbLine
 10
-10.84556411077972
 20
13.45677871161756
 30
0.0
 11
-10.84874701077973
 21
13.45309991161757
 31
0.0
  0
LINE
  5
DB
330
2
100
AcDbEntity
  8
GAIKEI
  6
Continuous
 62
   251
100
AcDbLine
 10
-10.84874701077973
 20
13.45309991161757
 30
0.0
 11
-10.85089951077953
 21
13.44971261161758
 31
0.0
  0
LINE
  5
DC
330
2
100
AcDbEntity
  8
GAIKEI
  6
Continuous
 62
   251
100
AcDbLine
 10
-10.85089951077953
 20
13.44971261161758
 30
0.0
 11
-10.85221001077957
 21
13.44650201161754
 31
0.0
  0
LINE
  5
DD
330
2
100
AcDbEntity
  8
GAIKEI
  6
Continuous
 62
   251
100
AcDbLine
 10
-10.85221001077957
 20
13.44650201161754
 30
0.0
 11
-10.85258831077976
 21
13.44492001161755
 31
0.0
  0
LINE
  5
DE
330
2
100
AcDbEntity
  8
GAIKEI
  6
Continuous
 62
   251
100
AcDbLine
 10
-10.85258831077976
 20
13.44492001161755
 30
0.0
 11
-10.85278881077954
 21
13.4433495116176
 31
0.0
  0
LINE
  5
DF
330
2
100
AcDbEntity
  8
GAIKEI
  6
Continuous
 62
   251
100
AcDbLine
 10
-10.85278881077954
 20
13.4433495116176
 30
0.0
 11
-10.85267771077951
 21
13.44022921161762
 31
0.0
  0
LINE
  5
E0
330
2
100
AcDbEntity
  8
GAIKEI
  6
Continuous
 62
   251
100
AcDbLine
 10
-10.85267771077951
 20
13.44022921161762
 30
0.0
 11
-10.85188281077972
 21
13.43701021161756
 31
0.0
  0
LINE
  5
E1
330
2
100
AcDbEntity
  8
GAIKEI
  6
Continuous
 62
   251
100
AcDbLine
 10
-10.85188281077972
 20
13.43701021161756
 30
0.0
 11
-10.85032301077973
 21
13.43354661161753
 31
0.0
  0
LINE
  5
E2
330
2
100
AcDbEntity
  8
GAIKEI
  6
Continuous
 62
   251
100
AcDbLine
 10
-10.85032301077973
 20
13.43354661161753
 30
0.0
 11
-10.84782251077973
 21
13.42965931161755
 31
0.0
  0
LINE
  5
E3
330
2
100
AcDbEntity
  8
GAIKEI
  6
Continuous
 62
   251
100
AcDbLine
 10
-10.84782251077973
 20
13.42965931161755
 30
0.0
 11
-10.84407391077957
 21
13.42508501161755
 31
0.0
  0
LINE
  5
E4
330
2
100
AcDbEntity
  8
GAIKEI
  6
Continuous
 62
   251
100
AcDbLine
 10
-10.84407391077957
 20
13.42508501161755
 30
0.0
 11
-10.83850241077954
 21
13.41933131161759
 31
0.0
  0
LINE
  5
E5
330
2
100
AcDbEntity
  8
GAIKEI
  6
Continuous
 62
   251
100
AcDbLine
 10
-10.83850241077954
 20
13.41933131161759
 30
0.0
 11
-10.83450331077955
 21
13.41553161161754
 31
0.0
  0
LINE
  5
E6
330
2
100
AcDbEntity
  8
GAIKEI
  6
Continuous
 62
   251
100
AcDbLine
 10
-10.83450331077955
 20
13.41553161161754
 30
0.0
 11
-10.77111351077974
 21
13.35631041161763
 31
0.0
  0
LINE
  5
E7
330
2
100
AcDbEntity
  8
GAIKEI
  6
Continuous
 62
   251
100
AcDbLine
 10
-10.77111351077974
 20
13.35631041161763
 30
0.0
 11
-10.51025071077953
 21
13.35631041161763
 31
0.0
  0
LINE
  5
E8
330
2
100
AcDbEntity
  8
GAIKEI
  6
Continuous
 62
   251
100
AcDbLine
 10
-10.51025071077953
 20
13.35631041161763
 30
0.0
 11
-10.57552181077972
 21
13.41729431161757
 31
0.0
  0
LINE
  5
E9
330
2
100
AcDbEntity
  8
GAIKEI
  6
Continuous
 62
   251
100
AcDbLine
 10
-10.57552181077972
 20
13.41729431161757
 30
0.0
 11
-10.60678241077954
 21
13.44639971161756
 31
0.0
  0
LINE
  5
EA
330
2
100
AcDbEntity
  8
GAIKEI
  6
Continuous
 62
   251
100
AcDbLine
 10
-10.60678241077954
 20
13.44639971161756
 30
0.0
 11
-10.60918741077955
 21
13.44883231161758
 31
0.0
  0
LINE
  5
EB
330
2
100
AcDbEntity
  8
GAIKEI
  6
Continuous
 62
   251
100
AcDbLine
 10
-10.60918741077955
 20
13.44883231161758
 30
0.0
 11
-10.61043491077953
 21
13.45064931161754
 31
0.0
  0
LINE
  5
EC
330
2
100
AcDbEntity
  8
GAIKEI
  6
Continuous
 62
   251
100
AcDbLine
 10
-10.61043491077953
 20
13.45064931161754
 30
0.0
 11
-10.61087761077954
 21
13.45218961161753
 31
0.0
  0
LINE
  5
ED
330
2
100
AcDbEntity
  8
GAIKEI
  6
Continuous
 62
   251
100
AcDbLine
 10
-10.61087761077954
 20
13.45218961161753
 30
0.0
 11
-10.61063031077975
 21
13.45366971161756
 31
0.0
  0
LINE
  5
EE
330
2
100
AcDbEntity
  8
GAIKEI
  6
Continuous
 62
   251
100
AcDbLine
 10
-10.61063031077975
 20
13.45366971161756
 30
0.0
 11
-10.60963441077956
 21
13.45529391161754
 31
0.0
  0
LINE
  5
EF
330
2
100
AcDbEntity
  8
GAIKEI
  6
Continuous
 62
   251
100
AcDbLine
 10
-10.60963441077956
 20
13.45529391161754
 30
0.0
 11
-10.60742451077976
 21
13.45753541161757
 31
0.0
  0
LINE
  5
F0
330
2
100
AcDbEntity
  8
GAIKEI
  6
Continuous
 62
   251
100
AcDbLine
 10
-10.60742451077976
 20
13.45753541161757
 30
0.0
 11
-10.60533541077956
 21
13.45931881161759
 31
0.0
  0
LINE
  5
F1
330
2
100
AcDbEntity
  8
GAIKEI
  6
Continuous
 62
   251
100
AcDbLine
 10
-10.60533541077956
 20
13.45931881161759
 30
0.0
 11
-10.57610481077972
 21
13.48355411161752
 31
0.0
  0
LINE
  5
F2
330
2
100
AcDbEntity
  8
GAIKEI
  6
Continuous
 62
   251
100
AcDbLine
 10
-10.57610481077972
 20
13.48355411161752
 30
0.0
 11
-10.57177981077956
 21
13.48710121161757
 31
0.0
  0
LINE
  5
F3
330
2
100
AcDbEntity
  8
GAIKEI
  6
Continuous
 62
   251
100
AcDbLine
 10
-10.57177981077956
 20
13.48710121161757
 30
0.0
 11
-10.54494291077975
 21
13.50932441161761
 31
0.0
  0
LINE
  5
F4
330
2
100
AcDbEntity
  8
GAIKEI
  6
Continuous
 62
   251
100
AcDbLine
 10
-10.54494291077975
 20
13.50932441161761
 30
0.0
 11
-10.54132051077977
 21
13.51279651161756
 31
0.0
  0
LINE
  5
F5
330
2
100
AcDbEntity
  8
GAIKEI
  6
Continuous
 62
   251
100
AcDbLine
 10
-10.54132051077977
 20
13.51279651161756
 30
0.0
 11
-10.53846151077971
 21
13.51644511161758
 31
0.0
  0
LINE
  5
F6
330
2
100
AcDbEntity
  8
GAIKEI
  6
Continuous
 62
   251
100
AcDbLine
 10
-10.53846151077971
 20
13.51644511161758
 30
0.0
 11
-10.53730871077971
 21
13.5183231116175
 31
0.0
  0
LINE
  5
F7
330
2
100
AcDbEntity
  8
GAIKEI
  6
Continuous
 62
   251
100
AcDbLine
 10
-10.53730871077971
 20
13.5183231116175
 30
0.0
 11
-10.53633711077975
 21
13.52022881161757
 31
0.0
  0
LINE
  5
F8
330
2
100
AcDbEntity
  8
GAIKEI
  6
Continuous
 62
   251
100
AcDbLine
 10
-10.53633711077975
 20
13.52022881161757
 30
0.0
 11
-10.53492791077974
 21
13.52409831161758
 31
0.0
  0
LINE
  5
F9
330
2
100
AcDbEntity
  8
GAIKEI
  6
Continuous
 62
   251
100
AcDbLine
 10
-10.53492791077974
 20
13.52409831161758
 30
0.0
 11
-10.53421391077972
 21
13.52801611161759
 31
0.0
  0
LINE
  5
FA
330
2
100
AcDbEntity
  8
GAIKEI
  6
Continuous
 62
   251
100
AcDbLine
 10
-10.53421391077972
 20
13.52801611161759
 30
0.0
 11
-10.53418341077974
 21
13.53194441161757
 31
0.0
  0
LINE
  5
FB
330
2
100
AcDbEntity
  8
GAIKEI
  6
Continuous
 62
   251
100
AcDbLine
 10
-10.53418341077974
 20
13.53194441161757
 30
0.0
 11
-10.53483211077974
 21
13.53584161161755
 31
0.0
  0
LINE
  5
FC
330
2
100
AcDbEntity
  8
GAIKEI
  6
Continuous
 62
   251
100
AcDbLine
 10
-10.53483211077974
 20
13.53584161161755
 30
0.0
 11
-10.53616091077953
 21
13.53965951161761
 31
0.0
  0
LINE
  5
FD
330
2
100
AcDbEntity
  8
GAIKEI
  6
Continuous
 62
   251
100
AcDbLine
 10
-10.53616091077953
 20
13.53965951161761
 30
0.0
 11
-10.53817111077973
 21
13.54334071161757
 31
0.0
  0
LINE
  5
FE
330
2
100
AcDbEntity
  8
GAIKEI
  6
Continuous
 62
   251
100
AcDbLine
 10
-10.53817111077973
 20
13.54334071161757
 30
0.0
 11
-10.54086051077956
 21
13.54681971161754
 31
0.0
  0
LINE
  5
FF
330
2
100
AcDbEntity
  8
GAIKEI
  6
Continuous
 62
   251
100
AcDbLine
 10
-10.54086051077956
 20
13.54681971161754
 30
0.0
 11
-10.54421891077976
 21
13.55002431161755
 31
0.0
  0
LINE
  5
100
330
2
100
AcDbEntity
  8
GAIKEI
  6
Continuous
 62
   251
100
AcDbLine
 10
-10.54421891077976
 20
13.55002431161755
 30
0.0
 11
-10.54822691077953
 21
13.55288051161754
 31
0.0
  0
LINE
  5
101
330
2
100
AcDbEntity
  8
GAIKEI
  6
Continuous
 62
   251
100
AcDbLine
 10
-10.54822691077953
 20
13.55288051161754
 30
0.0
 11
-10.55145221077975
 21
13.55465691161758
 31
0.0
  0
LINE
  5
102
330
2
100
AcDbEntity
  8
GAIKEI
  6
Continuous
 62
   251
100
AcDbLine
 10
-10.55145221077975
 20
13.55465691161758
 30
0.0
 11
-10.55649051077955
 21
13.55674681161757
 31
0.0
  0
LINE
  5
103
330
2
100
AcDbEntity
  8
GAIKEI
  6
Continuous
 62
   251
100
AcDbLine
 10
-10.55649051077955
 20
13.55674681161757
 30
0.0
 11
-10.56207611077957
 21
13.55830311161758
 31
0.0
  0
LINE
  5
104
330
2
100
AcDbEntity
  8
GAIKEI
  6
Continuous
 62
   251
100
AcDbLine
 10
-10.56207611077957
 20
13.55830311161758
 30
0.0
 11
-10.56817191077954
 21
13.55927231161762
 31
0.0
  0
LINE
  5
105
330
2
100
AcDbEntity
  8
GAIKEI
  6
Continuous
 62
   251
100
AcDbLine
 10
-10.56817191077954
 20
13.55927231161762
 30
0.0
 11
-10.57474301077974
 21
13.55960561161758
 31
0.0
  0
LINE
  5
106
330
2
100
AcDbEntity
  8
GAIKEI
  6
Continuous
 62
   251
100
AcDbLine
 10
-10.57474301077974
 20
13.55960561161758
 30
0.0
 11
-11.20368001077975
 21
13.55960561161758
 31
0.0
  0
LINE
  5
107
330
2
100
AcDbEntity
  8
GAIKEI
  6
Continuous
 62
   251
100
AcDbLine
 10
-12.45428491077973
 20
13.53018451161755
 30
0.0
 11
-12.65661973004472
 21
13.52990880586837
 31
0.0
  0
LINE
  5
108
330
2
100
AcDbEntity
  8
GAIKEI
  6
Continuous
 62
   251
100
AcDbLine
 10
-12.65661973004472
 20
13.52990880586837
 30
0.0
 11
-12.69865821077974
 21
13.44295881161751
 31
0.0
  0
LINE
  5
109
330
2
100
AcDbEntity
  8
GAIKEI
  6
Continuous
 62
   251
100
AcDbLine
 10
-12.69865821077974
 20
13.44295881161751
 30
0.0
 11
-12.72128001077976
 21
13.39601511161758
 31
0.0
  0
LINE
  5
10A
330
2
100
AcDbEntity
  8
GAIKEI
  6
Continuous
 62
   251
100
AcDbLine
 10
-12.38007751077953
 20
13.44037081161763
 30
0.0
 11
-12.23176611077952
 21
13.44037081161763
 31
0.0
  0
LINE
  5
10B
330
2
100
AcDbEntity
  8
GAIKEI
  6
Continuous
 62
   251
100
AcDbLine
 10
-12.21815791077955
 20
13.46863781161754
 30
0.0
 11
-12.36640051077955
 21
13.46863781161754
 31
0.0
  0
LINE
  5
10C
330
2
100
AcDbEntity
  8
GAIKEI
  6
Continuous
 62
   251
100
AcDbLine
 10
-12.64224951077972
 20
13.55893381161762
 30
0.0
 11
-12.44050461077973
 21
13.55893381161762
 31
0.0
  0
LINE
  5
10D
330
2
100
AcDbEntity
  8
GAIKEI
  6
Continuous
 62
   251
100
AcDbLine
 10
-11.37851871077976
 20
13.55989841161759
 30
0.0
 11
-12.01599961077977
 21
13.55989841161759
 31
0.0
  0
LINE
  5
10E
330
2
100
AcDbEntity
  8
GAIKEI
  6
Continuous
 62
   251
100
AcDbLine
 10
-12.01599961077977
 20
13.55989841161759
 30
0.0
 11
-12.02354901077973
 21
13.55957931161752
 31
0.0
  0
LINE
  5
10F
330
2
100
AcDbEntity
  8
GAIKEI
  6
Continuous
 62
   251
100
AcDbLine
 10
-12.02354901077973
 20
13.55957931161752
 30
0.0
 11
-12.03036531077976
 21
13.55866191161759
 31
0.0
  0
LINE
  5
110
330
2
100
AcDbEntity
  8
GAIKEI
  6
Continuous
 62
   251
100
AcDbLine
 10
-12.03036531077976
 20
13.55866191161759
 30
0.0
 11
-12.03648481077954
 21
13.55720151161755
 31
0.0
  0
LINE
  5
111
330
2
100
AcDbEntity
  8
GAIKEI
  6
Continuous
 62
   251
100
AcDbLine
 10
-12.03648481077954
 20
13.55720151161755
 30
0.0
 11
-12.04194281077957
 21
13.55524631161755
 31
0.0
  0
LINE
  5
112
330
2
100
AcDbEntity
  8
GAIKEI
  6
Continuous
 62
   251
100
AcDbLine
 10
-12.04194281077957
 20
13.55524631161755
 30
0.0
 11
-12.04677211077973
 21
13.55283691161757
 31
0.0
  0
LINE
  5
113
330
2
100
AcDbEntity
  8
GAIKEI
  6
Continuous
 62
   251
100
AcDbLine
 10
-12.04677211077973
 20
13.55283691161757
 30
0.0
 11
-12.05099391077977
 21
13.5500102116175
 31
0.0
  0
LINE
  5
114
330
2
100
AcDbEntity
  8
GAIKEI
  6
Continuous
 62
   251
100
AcDbLine
 10
-12.05099391077977
 20
13.5500102116175
 30
0.0
 11
-12.05462301077972
 21
13.54680131161761
 31
0.0
  0
LINE
  5
115
330
2
100
AcDbEntity
  8
GAIKEI
  6
Continuous
 62
   251
100
AcDbLine
 10
-12.05462301077972
 20
13.54680131161761
 30
0.0
 11
-12.05767761077976
 21
13.54323281161758
 31
0.0
  0
LINE
  5
116
330
2
100
AcDbEntity
  8
GAIKEI
  6
Continuous
 62
   251
100
AcDbLine
 10
-12.05767761077976
 20
13.54323281161758
 30
0.0
 11
-12.06016651077954
 21
13.53932181161757
 31
0.0
  0
LINE
  5
117
330
2
100
AcDbEntity
  8
GAIKEI
  6
Continuous
 62
   251
100
AcDbLine
 10
-12.06016651077954
 20
13.53932181161757
 30
0.0
 11
-12.06037251077975
 21
13.53893501161756
 31
0.0
  0
LINE
  5
118
330
2
100
AcDbEntity
  8
GAIKEI
  6
Continuous
 62
   251
100
AcDbLine
 10
-12.06037251077975
 20
13.53893501161756
 30
0.0
 11
-12.14794691077975
 21
13.35631041161763
 31
0.0
  0
LINE
  5
119
330
2
100
AcDbEntity
  8
GAIKEI
  6
Continuous
 62
   251
100
AcDbLine
 10
-12.14794691077975
 20
13.35631041161763
 30
0.0
 11
-11.99257291077953
 21
13.35601751161753
 31
0.0
  0
LINE
  5
11A
330
2
100
AcDbEntity
  8
GAIKEI
  6
Continuous
 62
   251
100
AcDbLine
 10
-11.99257291077953
 20
13.35601751161753
 30
0.0
 11
-11.90861591077976
 21
13.5300811116176
 31
0.0
  0
LINE
  5
11B
330
2
100
AcDbEntity
  8
GAIKEI
  6
Continuous
 62
   251
100
AcDbLine
 10
-11.90861591077976
 20
13.5300811116176
 30
0.0
 11
-11.57592281077973
 21
13.53018451161755
 31
0.0
  0
LINE
  5
11C
330
2
100
AcDbEntity
  8
GAIKEI
  6
Continuous
 62
   251
100
AcDbLine
 10
-11.57592281077973
 20
13.53018451161755
 30
0.0
 11
-11.66866491077974
 21
13.42864021161755
 31
0.0
  0
LINE
  5
11D
330
2
100
AcDbEntity
  8
GAIKEI
  6
Continuous
 62
   251
100
AcDbLine
 10
-11.66866491077974
 20
13.42864021161755
 30
0.0
 11
-11.84798221077972
 21
13.42864021161755
 31
0.0
  0
LINE
  5
11E
330
2
100
AcDbEntity
  8
GAIKEI
  6
Continuous
 62
   251
100
AcDbLine
 10
-11.84798221077972
 20
13.42864021161755
 30
0.0
 11
-11.81783761077975
 21
13.40097611161751
 31
0.0
  0
LINE
  5
11F
330
2
100
AcDbEntity
  8
GAIKEI
  6
Continuous
 62
   251
100
AcDbLine
 10
-11.81783761077975
 20
13.40097611161751
 30
0.0
 11
-11.71114291077953
 21
13.40097611161751
 31
0.0
  0
LINE
  5
120
330
2
100
AcDbEntity
  8
GAIKEI
  6
Continuous
 62
   251
100
AcDbLine
 10
-11.71114291077953
 20
13.40097611161751
 30
0.0
 11
-11.71128071077976
 21
13.40087271161756
 31
0.0
  0
LINE
  5
121
330
2
100
AcDbEntity
  8
GAIKEI
  6
Continuous
 62
   251
100
AcDbLine
 10
-11.71128071077976
 20
13.40087271161756
 30
0.0
 11
-11.47511931077952
 21
13.40087271161756
 31
0.0
  0
LINE
  5
122
330
2
100
AcDbEntity
  8
GAIKEI
  6
Continuous
 62
   251
100
AcDbLine
 10
-11.47511931077952
 20
13.40087271161756
 30
0.0
 11
-11.47019621077953
 21
13.40096481161753
 31
0.0
  0
LINE
  5
123
330
2
100
AcDbEntity
  8
GAIKEI
  6
Continuous
 62
   251
100
AcDbLine
 10
-11.47019621077953
 20
13.40096481161753
 30
0.0
 11
-11.46361071077973
 21
13.40148991161759
 31
0.0
  0
LINE
  5
124
330
2
100
AcDbEntity
  8
GAIKEI
  6
Continuous
 62
   251
100
AcDbLine
 10
-11.46361071077973
 20
13.40148991161759
 30
0.0
 11
-11.45773401077974
 21
13.40250621161759
 31
0.0
  0
LINE
  5
125
330
2
100
AcDbEntity
  8
GAIKEI
  6
Continuous
 62
   251
100
AcDbLine
 10
-11.45773401077974
 20
13.40250621161759
 30
0.0
 11
-11.45232101077977
 21
13.40403701161754
 31
0.0
  0
LINE
  5
126
330
2
100
AcDbEntity
  8
GAIKEI
  6
Continuous
 62
   251
100
AcDbLine
 10
-11.45232101077977
 20
13.40403701161754
 30
0.0
 11
-11.44723701077976
 21
13.40611241161763
 31
0.0
  0
LINE
  5
127
330
2
100
AcDbEntity
  8
GAIKEI
  6
Continuous
 62
   251
100
AcDbLine
 10
-11.44723701077976
 20
13.40611241161763
 30
0.0
 11
-11.44239591077951
 21
13.40877571161762
 31
0.0
  0
LINE
  5
128
330
2
100
AcDbEntity
  8
GAIKEI
  6
Continuous
 62
   251
100
AcDbLine
 10
-11.44239591077951
 20
13.40877571161762
 30
0.0
 11
-11.43773911077971
 21
13.41208571161756
 31
0.0
  0
LINE
  5
129
330
2
100
AcDbEntity
  8
GAIKEI
  6
Continuous
 62
   251
100
AcDbLine
 10
-11.43773911077971
 20
13.41208571161756
 30
0.0
 11
-11.43322691077975
 21
13.41611731161753
 31
0.0
  0
LINE
  5
12A
330
2
100
AcDbEntity
  8
GAIKEI
  6
Continuous
 62
   251
100
AcDbLine
 10
-11.43322691077975
 20
13.41611731161753
 30
0.0
 11
-11.42328711077954
 21
13.42653141161757
 31
0.0
  0
LINE
  5
12B
330
2
100
AcDbEntity
  8
GAIKEI
  6
Continuous
 62
   251
100
AcDbLine
 10
-11.42328711077954
 20
13.42653141161757
 30
0.0
 11
-11.39443981077954
 21
13.45766051161762
 31
0.0
  0
LINE
  5
12C
330
2
100
AcDbEntity
  8
GAIKEI
  6
Continuous
 62
   251
100
AcDbLine
 10
-11.39443981077954
 20
13.45766051161762
 30
0.0
 11
-11.34902711077956
 21
13.50723231161758
 31
0.0
  0
LINE
  5
12D
330
2
100
AcDbEntity
  8
GAIKEI
  6
Continuous
 62
   251
100
AcDbLine
 10
-11.34902711077956
 20
13.50723231161758
 30
0.0
 11
-11.34606591077977
 21
13.51047851161756
 31
0.0
  0
LINE
  5
12E
330
2
100
AcDbEntity
  8
GAIKEI
  6
Continuous
 62
   251
100
AcDbLine
 10
-11.34606591077977
 20
13.51047851161756
 30
0.0
 11
-11.34283231077955
 21
13.51417331161757
 31
0.0
  0
LINE
  5
12F
330
2
100
AcDbEntity
  8
GAIKEI
  6
Continuous
 62
   251
100
AcDbLine
 10
-11.34283231077955
 20
13.51417331161757
 30
0.0
 11
-11.34036761077971
 21
13.51795211161753
 31
0.0
  0
LINE
  5
130
330
2
100
AcDbEntity
  8
GAIKEI
  6
Continuous
 62
   251
100
AcDbLine
 10
-11.34036761077971
 20
13.51795211161753
 30
0.0
 11
-11.33940961077974
 21
13.51986621161755
 31
0.0
  0
LINE
  5
131
330
2
100
AcDbEntity
  8
GAIKEI
  6
Continuous
 62
   251
100
AcDbLine
 10
-11.33940961077974
 20
13.51986621161755
 30
0.0
 11
-11.33862991077973
 21
13.52179021161758
 31
0.0
  0
LINE
  5
132
330
2
100
AcDbEntity
  8
GAIKEI
  6
Continuous
 62
   251
100
AcDbLine
 10
-11.33862991077973
 20
13.52179021161758
 30
0.0
 11
-11.33759171077975
 21
13.52564961161748
 31
0.0
  0
LINE
  5
133
330
2
100
AcDbEntity
  8
GAIKEI
  6
Continuous
 62
   251
100
AcDbLine
 10
-11.33759171077975
 20
13.52564961161748
 30
0.0
 11
-11.33722601077954
 21
13.52951071161759
 31
0.0
  0
LINE
  5
134
330
2
100
AcDbEntity
  8
GAIKEI
  6
Continuous
 62
   251
100
AcDbLine
 10
-11.33722601077954
 20
13.52951071161759
 30
0.0
 11
-11.33751891077975
 21
13.53335341161754
 31
0.0
  0
LINE
  5
135
330
2
100
AcDbEntity
  8
GAIKEI
  6
Continuous
 62
   251
100
AcDbLine
 10
-11.33751891077975
 20
13.53335341161754
 30
0.0
 11
-11.33846871077975
 21
13.53715141161756
 31
0.0
  0
LINE
  5
136
330
2
100
AcDbEntity
  8
GAIKEI
  6
Continuous
 62
   251
100
AcDbLine
 10
-11.33846871077975
 20
13.53715141161756
 30
0.0
 11
-11.34008111077975
 21
13.54086821161762
 31
0.0
  0
LINE
  5
137
330
2
100
AcDbEntity
  8
GAIKEI
  6
Continuous
 62
   251
100
AcDbLine
 10
-11.34008111077975
 20
13.54086821161762
 30
0.0
 11
-11.34236291077974
 21
13.54445351161756
 31
0.0
  0
LINE
  5
138
330
2
100
AcDbEntity
  8
GAIKEI
  6
Continuous
 62
   251
100
AcDbLine
 10
-11.34236291077974
 20
13.54445351161756
 30
0.0
 11
-11.34531471077957
 21
13.54784311161755
 31
0.0
  0
LINE
  5
139
330
2
100
AcDbEntity
  8
GAIKEI
  6
Continuous
 62
   251
100
AcDbLine
 10
-11.34531471077957
 20
13.54784311161755
 30
0.0
 11
-11.34892391077972
 21
13.55096181161757
 31
0.0
  0
LINE
  5
13A
330
2
100
AcDbEntity
  8
GAIKEI
  6
Continuous
 62
   251
100
AcDbLine
 10
-11.34892391077972
 20
13.55096181161757
 30
0.0
 11
-11.35316131077957
 21
13.55372911161758
 31
0.0
  0
LINE
  5
13B
330
2
100
AcDbEntity
  8
GAIKEI
  6
Continuous
 62
   251
100
AcDbLine
 10
-11.35316131077957
 20
13.55372911161758
 30
0.0
 11
-11.35560511077972
 21
13.55500581161759
 31
0.0
  0
LINE
  5
13C
330
2
100
AcDbEntity
  8
GAIKEI
  6
Continuous
 62
   251
100
AcDbLine
 10
-11.35560511077972
 20
13.55500581161759
 30
0.0
 11
-11.36069761077976
 21
13.55708491161759
 31
0.0
  0
LINE
  5
13D
330
2
100
AcDbEntity
  8
GAIKEI
  6
Continuous
 62
   251
100
AcDbLine
 10
-11.36069761077976
 20
13.55708491161759
 30
0.0
 11
-11.36625641077972
 21
13.55862361161756
 31
0.0
  0
LINE
  5
13E
330
2
100
AcDbEntity
  8
GAIKEI
  6
Continuous
 62
   251
100
AcDbLine
 10
-11.36625641077972
 20
13.55862361161756
 30
0.0
 11
-11.37221691077957
 21
13.55957431161759
 31
0.0
  0
LINE
  5
13F
330
2
100
AcDbEntity
  8
GAIKEI
  6
Continuous
 62
   251
100
AcDbLine
 10
-11.37221691077957
 20
13.55957431161759
 30
0.0
 11
-11.37851871077976
 21
13.55989841161759
 31
0.0
  0
LINE
  5
140
330
2
100
AcDbEntity
  8
GAIKEI
  6
Continuous
 62
   251
100
AcDbLine
 10
-12.42241781077973
 20
13.59719161161756
 30
0.0
 11
-12.62430051077973
 21
13.59719161161756
 31
0.0
  0
LINE
  5
141
330
2
100
AcDbEntity
  8
GAIKEI
  6
Continuous
 62
     1
100
AcDbLine
 10
46.69656233207433
 20
11.13753266049757
 30
0.0
 11
46.15712883755429
 21
9.802387909917555
 31
0.0
  0
LINE
  5
142
330
2
100
AcDbEntity
  8
GAIKEI
  6
Continuous
 62
     1
100
AcDbLine
 10
46.52966923825431
 20
11.20496184731739
 30
0.0
 11
46.03240799315426
 21
9.974197076817389
 31
0.0
  0
LINE
  5
143
330
2
100
AcDbEntity
  8
GAIKEI
  6
Continuous
 62
     1
100
AcDbLine
 10
44.87568254183429
 20
11.74866991161757
 30
0.0
 11
44.87568254183429
 21
13.04866991161758
 31
0.0
  0
LINE
  5
144
330
2
100
AcDbEntity
  8
GAIKEI
  6
Continuous
 62
     1
100
AcDbLine
 10
44.75568254183428
 20
8.226169911617361
 30
0.0
 11
44.75568254183428
 21
7.291169911617586
 31
0.0
  0
LINE
  5
145
330
2
100
AcDbEntity
  8
GAIKEI
  6
Continuous
 62
     1
100
AcDbLine
 10
44.46512526093425
 20
13.00394855207757
 30
0.0
 11
44.46512526093425
 21
11.79339127117758
 31
0.0
  0
LINE
  5
146
330
2
100
AcDbEntity
  8
GAIKEI
  6
Continuous
 62
     1
100
AcDbLine
 10
44.20568254183428
 20
7.821088103957364
 30
0.0
 11
44.20568254183428
 21
7.34625171927756
 31
0.0
  0
LINE
  5
147
330
2
100
AcDbEntity
  8
GAIKEI
  6
Continuous
 62
     1
100
AcDbLine
 10
44.16387914297428
 20
12.94866991161756
 30
0.0
 11
44.16387914297428
 21
11.84866991161759
 31
0.0
  0
LINE
  5
148
330
2
100
AcDbEntity
  8
GAIKEI
  6
Continuous
 62
     1
100
AcDbLine
 10
44.08768254183428
 20
7.82266991161758
 30
0.0
 11
44.08768254183428
 21
7.978669911617586
 31
0.0
  0
LINE
  5
149
330
2
100
AcDbEntity
  8
GAIKEI
  6
Continuous
 62
     1
100
AcDbLine
 10
44.08768254183428
 20
7.188669911617338
 30
0.0
 11
44.08768254183428
 21
7.344669911617572
 31
0.0
  0
LINE
  5
14A
330
2
100
AcDbEntity
  8
GAIKEI
  6
Continuous
 62
     7
100
AcDbLine
 10
14.50938635387433
 20
5.940445495037565
 30
0.0
 11
14.30537963137431
 21
6.141719137837398
 31
0.0
  0
LINE
  5
14B
330
2
100
AcDbEntity
  8
GAIKEI
  6
Continuous
 62
     1
100
AcDbLine
 10
44.20568254183428
 20
7.346169911617366
 30
0.0
 11
44.20271308097426
 21
7.343200450737569
 31
0.0
  0
LINE
  5
14C
330
2
100
AcDbEntity
  8
GAIKEI
  6
Continuous
 62
     1
100
AcDbLine
 10
43.87568254183429
 20
11.24964455433739
 30
0.0
 11
43.87568254183429
 21
10.09866991161759
 31
0.0
  0
LINE
  5
14D
330
2
100
AcDbEntity
  8
GAIKEI
  6
Continuous
 62
     1
100
AcDbLine
 10
43.87568254183429
 20
13.29866991161758
 30
0.0
 11
43.87568254183429
 21
11.46863417117735
 31
0.0
  0
LINE
  5
14E
330
2
100
AcDbEntity
  8
GAIKEI
  6
Continuous
 62
     1
100
AcDbLine
 10
43.84869703577431
 20
13.71618205855735
 30
0.0
 11
43.84869703577431
 21
14.32115776467735
 31
0.0
  0
LINE
  5
14F
330
2
100
AcDbEntity
  8
GAIKEI
  6
Continuous
 62
     7
100
AcDbLine
 10
43.70568254183427
 20
14.56866991161756
 30
0.0
 11
43.70568254183427
 21
6.098669911617591
 31
0.0
  0
LINE
  5
150
330
2
100
AcDbEntity
  8
GAIKEI
  6
Continuous
 62
     1
100
AcDbLine
 10
43.62568254183429
 20
14.46866991161759
 30
0.0
 11
43.62568254183429
 21
6.098669911617591
 31
0.0
  0
LINE
  5
151
330
2
100
AcDbEntity
  8
GAIKEI
  6
Continuous
 62
     1
100
AcDbLine
 10
43.62568254183429
 20
14.56866991161756
 30
0.0
 11
43.62568254183429
 21
14.46866991161759
 31
0.0
  0
LINE
  5
152
330
2
100
AcDbEntity
  8
GAIKEI
  6
Continuous
 62
     1
100
AcDbLine
 10
43.59568254183431
 20
6.098669911617591
 30
0.0
 11
43.59568254183431
 21
5.998669911617568
 31
0.0
  0
LINE
  5
153
330
2
100
AcDbEntity
  8
GAIKEI
  6
Continuous
 62
     1
100
AcDbLine
 10
43.57568254183428
 20
6.098669911617591
 30
0.0
 11
43.57568254183428
 21
5.978669911617586
 31
0.0
  0
LINE
  5
154
330
2
100
AcDbEntity
  8
GAIKEI
  6
Continuous
 62
     1
100
AcDbLine
 10
43.52568254183426
 20
14.6486699116176
 30
0.0
 11
43.52568254183426
 21
14.46866991161759
 31
0.0
  0
LINE
  5
155
330
2
100
AcDbEntity
  8
GAIKEI
  6
Continuous
 62
     7
100
AcDbLine
 10
43.47568254183426
 20
5.978669911617586
 30
0.0
 11
43.47568254183426
 21
6.098669911617591
 31
0.0
  0
LINE
  5
156
330
2
100
AcDbEntity
  8
GAIKEI
  6
Continuous
 62
     1
100
AcDbLine
 10
43.37568254183429
 20
6.098669911617591
 30
0.0
 11
43.37568254183429
 21
5.998669911617568
 31
0.0
  0
LINE
  5
157
330
2
100
AcDbEntity
  8
GAIKEI
  6
Continuous
 62
     1
100
AcDbLine
 10
41.97568254183425
 20
5.978669911617586
 30
0.0
 11
41.97568254183425
 21
5.878669911617564
 31
0.0
  0
LINE
  5
158
330
2
100
AcDbEntity
  8
GAIKEI
  6
Continuous
 62
     1
100
AcDbLine
 10
41.37568254183429
 20
7.568669911617561
 30
0.0
 11
41.37568254183429
 21
7.468669911617595
 31
0.0
  0
LINE
  5
159
330
2
100
AcDbEntity
  8
GAIKEI
  6
Continuous
 62
     1
100
AcDbLine
 10
41.22568254183426
 20
7.468669911617595
 30
0.0
 11
41.22568254183426
 21
7.318669911617561
 31
0.0
  0
LINE
  5
15A
330
2
100
AcDbEntity
  8
GAIKEI
  6
Continuous
 62
     1
100
AcDbLine
 10
41.22568254183426
 20
7.718669911617595
 30
0.0
 11
41.22568254183426
 21
7.568669911617561
 31
0.0
  0
LINE
  5
15B
330
2
100
AcDbEntity
  8
GAIKEI
  6
Continuous
 62
     1
100
AcDbLine
 10
41.12568254183429
 20
7.568669911617561
 30
0.0
 11
41.12568254183429
 21
7.718669911617595
 31
0.0
  0
LINE
  5
15C
330
2
100
AcDbEntity
  8
GAIKEI
  6
Continuous
 62
     1
100
AcDbLine
 10
41.12568254183429
 20
7.318669911617561
 30
0.0
 11
41.12568254183429
 21
7.468669911617595
 31
0.0
  0
LINE
  5
15D
330
2
100
AcDbEntity
  8
GAIKEI
  6
Continuous
 62
     1
100
AcDbLine
 10
40.97568254183426
 20
7.468669911617595
 30
0.0
 11
40.97568254183426
 21
7.568669911617561
 31
0.0
  0
LINE
  5
15E
330
2
100
AcDbEntity
  8
GAIKEI
  6
Continuous
 62
     7
100
AcDbLine
 10
39.60568254183431
 20
5.998669911617568
 30
0.0
 11
39.51362489301431
 21
4.940006949977359
 31
0.0
  0
LINE
  5
15F
330
2
100
AcDbEntity
  8
GAIKEI
  6
Continuous
 62
     1
100
AcDbLine
 10
44.46512526093425
 20
13.00394855207757
 30
0.0
 11
44.18623982273425
 21
12.86450583297737
 31
0.0
  0
LINE
  5
160
330
2
100
AcDbEntity
  8
GAIKEI
  6
Continuous
 62
     1
100
AcDbLine
 10
44.46512526093425
 20
13.09339127117759
 30
0.0
 11
44.18623982273425
 21
12.95394855207756
 31
0.0
  0
LINE
  5
161
330
2
100
AcDbEntity
  8
GAIKEI
  6
Continuous
 62
     7
100
AcDbLine
 10
37.40568254183427
 20
5.998669911617568
 30
0.0
 11
37.49774019067428
 21
4.940006949977359
 31
0.0
  0
LINE
  5
162
330
2
100
AcDbEntity
  8
GAIKEI
  6
Continuous
 62
     7
100
AcDbLine
 10
14.50938635387433
 20
5.940445495037565
 30
0.0
 11
15.70568254183428
 21
5.898669911617602
 31
0.0
  0
LINE
  5
163
330
2
100
AcDbEntity
  8
GAIKEI
  6
Continuous
 62
     7
100
AcDbLine
 10
37.5973717983743
 20
4.848669911617591
 30
0.0
 11
39.41400083419427
 21
4.848669911617591
 31
0.0
  0
LINE
  5
164
330
2
100
AcDbEntity
  8
GAIKEI
  6
Continuous
 62
     7
100
AcDbLine
 10
16.5973717983743
 20
4.848669911617591
 30
0.0
 11
18.41400083419432
 21
4.848669911617591
 31
0.0
  0
LINE
  5
165
330
2
100
AcDbEntity
  8
GAIKEI
  6
Continuous
 62
     1
100
AcDbLine
 10
43.47568254183426
 20
5.878669911617564
 30
0.0
 11
41.97568254183425
 21
5.878669911617564
 31
0.0
  0
LINE
  5
166
330
2
100
AcDbEntity
  8
GAIKEI
  6
Continuous
 62
     7
100
AcDbLine
 10
15.70568254183428
 20
5.898669911617602
 30
0.0
 11
18.50568254183429
 21
5.898669911617602
 31
0.0
  0
LINE
  5
167
330
2
100
AcDbEntity
  8
GAIKEI
  6
Continuous
 62
     1
100
AcDbLine
 10
41.97568254183425
 20
5.978669911617586
 30
0.0
 11
43.47568254183426
 21
5.978669911617586
 31
0.0
  0
LINE
  5
168
330
2
100
AcDbEntity
  8
GAIKEI
  6
Continuous
 62
     7
100
AcDbLine
 10
15.70568254183428
 20
5.998669911617568
 30
0.0
 11
43.47568254183426
 21
5.998669911617568
 31
0.0
  0
LINE
  5
169
330
2
100
AcDbEntity
  8
GAIKEI
  6
Continuous
 62
     1
100
AcDbLine
 10
43.59568254183431
 20
5.998669911617568
 30
0.0
 11
43.57568254183428
 21
5.998669911617568
 31
0.0
  0
LINE
  5
16A
330
2
100
AcDbEntity
  8
GAIKEI
  6
Continuous
 62
     1
100
AcDbLine
 10
15.93568254183429
 20
6.098669911617591
 30
0.0
 11
15.70568254183428
 21
6.098669911617591
 31
0.0
  0
LINE
  5
16B
330
2
100
AcDbEntity
  8
GAIKEI
  6
Continuous
 62
     7
100
AcDbLine
 10
43.70568254183427
 20
6.098669911617591
 30
0.0
 11
43.37568254183429
 21
6.098669911617591
 31
0.0
  0
LINE
  5
16C
330
2
100
AcDbEntity
  8
GAIKEI
  6
Continuous
 62
     1
100
AcDbLine
 10
14.26451673849425
 20
6.238344383217381
 30
0.0
 11
14.29458390943432
 21
6.238344383217381
 31
0.0
  0
LINE
  5
16D
330
2
100
AcDbEntity
  8
GAIKEI
  6
Continuous
 62
     1
100
AcDbLine
 10
43.74829769033431
 20
6.298669911617579
 30
0.0
 11
43.74720233939433
 21
6.298669911617579
 31
0.0
  0
LINE
  5
16E
330
2
100
AcDbEntity
  8
GAIKEI
  6
Continuous
 62
     1
100
AcDbLine
 10
43.76352372151427
 20
6.448669911617557
 30
0.0
 11
43.74720233939433
 21
6.448669911617557
 31
0.0
  0
LINE
  5
16F
330
2
100
AcDbEntity
  8
GAIKEI
  6
Continuous
 62
     1
100
AcDbLine
 10
43.70568254183427
 20
6.195043437877401
 30
0.0
 11
43.71869703577431
 21
6.196182058557596
 31
0.0
  0
LINE
  5
170
330
2
100
AcDbEntity
  8
GAIKEI
  6
Continuous
 62
     1
100
AcDbLine
 10
43.70568254183427
 20
6.883669911617388
 30
0.0
 11
43.84869703577431
 21
6.896182058557585
 31
0.0
  0
LINE
  5
171
330
2
100
AcDbEntity
  8
GAIKEI
  6
Continuous
 62
     1
100
AcDbLine
 10
14.23520786459426
 20
6.538344383217392
 30
0.0
 11
14.26545271545433
 21
6.538344383217392
 31
0.0
  0
LINE
  5
172
330
2
100
AcDbEntity
  8
GAIKEI
  6
Continuous
 62
     1
100
AcDbLine
 10
43.74720233939433
 20
6.548669911617579
 30
0.0
 11
43.76352372151427
 21
6.548669911617579
 31
0.0
  0
LINE
  5
173
330
2
100
AcDbEntity
  8
GAIKEI
  6
Continuous
 62
     1
100
AcDbLine
 10
43.74720233939433
 20
6.698669911617557
 30
0.0
 11
43.74829769033431
 21
6.698669911617557
 31
0.0
  0
LINE
  5
174
330
2
100
AcDbEntity
  8
GAIKEI
  6
Continuous
 62
     1
100
AcDbLine
 10
43.8782976903343
 20
6.998669911617568
 30
0.0
 11
43.87720233939427
 21
6.998669911617568
 31
0.0
  0
LINE
  5
175
330
2
100
AcDbEntity
  8
GAIKEI
  6
Continuous
 62
     1
100
AcDbLine
 10
43.89352372151432
 20
7.148669911617602
 30
0.0
 11
43.87720233939427
 21
7.148669911617602
 31
0.0
  0
LINE
  5
176
330
2
100
AcDbEntity
  8
GAIKEI
  6
Continuous
 62
     1
100
AcDbLine
 10
44.08768254183428
 20
7.188669911617338
 30
0.0
 11
43.87825172867429
 21
7.188669911617338
 31
0.0
  0
LINE
  5
177
330
2
100
AcDbEntity
  8
GAIKEI
  6
Continuous
 62
     1
100
AcDbLine
 10
43.87720233939427
 20
7.248669911617568
 30
0.0
 11
43.89352372151432
 21
7.248669911617568
 31
0.0
  0
LINE
  5
178
330
2
100
AcDbEntity
  8
GAIKEI
  6
Continuous
 62
     1
100
AcDbLine
 10
43.89242765655427
 20
7.269603180037378
 30
0.0
 11
44.08768254183428
 21
7.269603180037378
 31
0.0
  0
LINE
  5
179
330
2
100
AcDbEntity
  8
GAIKEI
  6
Continuous
 62
     1
100
AcDbLine
 10
14.07928463427424
 20
7.288669911617361
 30
0.0
 11
14.11051107289432
 21
7.288669911617361
 31
0.0
  0
LINE
  5
17A
330
2
100
AcDbEntity
  8
GAIKEI
  6
Continuous
 62
     1
100
AcDbLine
 10
44.75568254183428
 20
7.291169911617586
 30
0.0
 11
44.08768254183428
 21
7.291169911617586
 31
0.0
  0
LINE
  5
17B
330
2
100
AcDbEntity
  8
GAIKEI
  6
Continuous
 62
     1
100
AcDbLine
 10
19.95568254183428
 20
7.318669911617561
 30
0.0
 11
19.85568254183431
 21
7.318669911617561
 31
0.0
  0
LINE
  5
17C
330
2
100
AcDbEntity
  8
GAIKEI
  6
Continuous
 62
     1
100
AcDbLine
 10
41.22568254183426
 20
7.318669911617561
 30
0.0
 11
41.12568254183429
 21
7.318669911617561
 31
0.0
  0
LINE
  5
17D
330
2
100
AcDbEntity
  8
GAIKEI
  6
Continuous
 62
     1
100
AcDbLine
 10
44.20419046669429
 20
7.344669911617572
 30
0.0
 11
43.8853604756543
 21
7.344669911617572
 31
0.0
  0
LINE
  5
17E
330
2
100
AcDbEntity
  8
GAIKEI
  6
Continuous
 62
     1
100
AcDbLine
 10
43.87720233939427
 20
7.398669911617602
 30
0.0
 11
43.8782976903343
 21
7.398669911617602
 31
0.0
  0
LINE
  5
17F
330
2
100
AcDbEntity
  8
GAIKEI
  6
Continuous
 62
     1
100
AcDbLine
 10
19.85568254183431
 20
7.468669911617595
 30
0.0
 11
19.70568254183428
 21
7.468669911617595
 31
0.0
  0
LINE
  5
180
330
2
100
AcDbEntity
  8
GAIKEI
  6
Continuous
 62
     1
100
AcDbLine
 10
20.10568254183431
 20
7.468669911617595
 30
0.0
 11
19.95568254183428
 21
7.468669911617595
 31
0.0
  0
LINE
  5
181
330
2
100
AcDbEntity
  8
GAIKEI
  6
Continuous
 62
     1
100
AcDbLine
 10
41.12568254183429
 20
7.468669911617595
 30
0.0
 11
40.97568254183426
 21
7.468669911617595
 31
0.0
  0
LINE
  5
182
330
2
100
AcDbEntity
  8
GAIKEI
  6
Continuous
 62
     1
100
AcDbLine
 10
41.37568254183429
 20
7.468669911617595
 30
0.0
 11
41.22568254183426
 21
7.468669911617595
 31
0.0
  0
LINE
  5
183
330
2
100
AcDbEntity
  8
GAIKEI
  6
Continuous
 62
     1
100
AcDbLine
 10
43.74720233939433
 20
7.518669911617607
 30
0.0
 11
43.74829769033431
 21
7.518669911617607
 31
0.0
  0
LINE
  5
184
330
2
100
AcDbEntity
  8
GAIKEI
  6
Continuous
 62
     1
100
AcDbLine
 10
14.00653714073428
 20
7.518669911617607
 30
0.0
 11
14.03824360749434
 21
7.518669911617607
 31
0.0
  0
LINE
  5
185
330
2
100
AcDbEntity
  8
GAIKEI
  6
Continuous
 62
     1
100
AcDbLine
 10
41.22568254183426
 20
7.568669911617561
 30
0.0
 11
41.37568254183429
 21
7.568669911617561
 31
0.0
  0
LINE
  5
186
330
2
100
AcDbEntity
  8
GAIKEI
  6
Continuous
 62
     1
100
AcDbLine
 10
40.97568254183426
 20
7.568669911617561
 30
0.0
 11
41.12568254183429
 21
7.568669911617561
 31
0.0
  0
LINE
  5
187
330
2
100
AcDbEntity
  8
GAIKEI
  6
Continuous
 62
     1
100
AcDbLine
 10
19.95568254183428
 20
7.568669911617561
 30
0.0
 11
20.10568254183431
 21
7.568669911617561
 31
0.0
  0
LINE
  5
188
330
2
100
AcDbEntity
  8
GAIKEI
  6
Continuous
 62
     1
100
AcDbLine
 10
19.70568254183428
 20
7.568669911617561
 30
0.0
 11
19.85568254183431
 21
7.568669911617561
 31
0.0
  0
LINE
  5
189
330
2
100
AcDbEntity
  8
GAIKEI
  6
Continuous
 62
     1
100
AcDbLine
 10
44.16720911317429
 20
7.583669911617377
 30
0.0
 11
43.73493420409431
 21
7.583669911617377
 31
0.0
  0
LINE
  5
18A
330
2
100
AcDbEntity
  8
GAIKEI
  6
Continuous
 62
     1
100
AcDbLine
 10
41.12568254183429
 20
7.718669911617595
 30
0.0
 11
41.22568254183426
 21
7.718669911617595
 31
0.0
  0
LINE
  5
18B
330
2
100
AcDbEntity
  8
GAIKEI
  6
Continuous
 62
     1
100
AcDbLine
 10
19.85568254183431
 20
7.718669911617595
 30
0.0
 11
19.95568254183428
 21
7.718669911617595
 31
0.0
  0
LINE
  5
18C
330
2
100
AcDbEntity
  8
GAIKEI
  6
Continuous
 62
     1
100
AcDbLine
 10
43.70568254183427
 20
7.82266991161758
 30
0.0
 11
44.20419046669429
 21
7.82266991161758
 31
0.0
  0
LINE
  5
18D
330
2
100
AcDbEntity
  8
GAIKEI
  6
Continuous
 62
     1
100
AcDbLine
 10
43.70568254183427
 20
7.978669911617586
 30
0.0
 11
44.08768254183428
 21
7.978669911617586
 31
0.0
  0
LINE
  5
18E
330
2
100
AcDbEntity
  8
GAIKEI
  6
Continuous
 62
     1
100
AcDbLine
 10
43.70568254183427
 20
8.655043437877608
 30
0.0
 11
43.71869703577431
 21
8.656182058557405
 31
0.0
  0
LINE
  5
18F
330
2
100
AcDbEntity
  8
GAIKEI
  6
Continuous
 62
     1
100
AcDbLine
 10
43.70568254183427
 20
8.995043437877356
 30
0.0
 11
43.71869703577431
 21
8.996182058557607
 31
0.0
  0
LINE
  5
190
330
2
100
AcDbEntity
  8
GAIKEI
  6
Continuous
 62
     1
100
AcDbLine
 10
43.70568254183427
 20
6.802296385357394
 30
0.0
 11
43.71869703577431
 21
6.80115776467737
 31
0.0
  0
LINE
  5
191
330
2
100
AcDbEntity
  8
GAIKEI
  6
Continuous
 62
     1
100
AcDbLine
 10
43.70568254183427
 20
7.513669911617384
 30
0.0
 11
43.84869703577431
 21
7.501157764677358
 31
0.0
  0
LINE
  5
192
330
2
100
AcDbEntity
  8
GAIKEI
  6
Continuous
 62
     1
100
AcDbLine
 10
43.70568254183427
 20
7.622296385357557
 30
0.0
 11
43.71869703577431
 21
7.621157764677363
 31
0.0
  0
LINE
  5
193
330
2
100
AcDbEntity
  8
GAIKEI
  6
Continuous
 62
     1
100
AcDbLine
 10
13.66926436395425
 20
8.677402047157372
 30
0.0
 11
13.75666946599426
 21
8.674349793737391
 31
0.0
  0
LINE
  5
194
330
2
100
AcDbEntity
  8
GAIKEI
  6
Continuous
 62
     1
100
AcDbLine
 10
17.35568254183431
 20
8.098669911617591
 30
0.0
 11
17.25568254183429
 21
8.098669911617591
 31
0.0
  0
LINE
  5
195
330
2
100
AcDbEntity
  8
GAIKEI
  6
Continuous
 62
     1
100
AcDbLine
 10
44.75568254183428
 20
8.226169911617361
 30
0.0
 11
43.70568254183427
 21
8.226169911617361
 31
0.0
  0
LINE
  5
196
330
2
100
AcDbEntity
  8
GAIKEI
  6
Continuous
 62
     1
100
AcDbLine
 10
43.74720233939433
 20
8.23866991161735
 30
0.0
 11
43.76352372151427
 21
8.23866991161735
 31
0.0
  0
LINE
  5
197
330
2
100
AcDbEntity
  8
GAIKEI
  6
Continuous
 62
     1
100
AcDbLine
 10
17.25568254183429
 20
8.248669911617568
 30
0.0
 11
17.10568254183431
 21
8.248669911617568
 31
0.0
  0
LINE
  5
198
330
2
100
AcDbEntity
  8
GAIKEI
  6
Continuous
 62
     1
100
AcDbLine
 10
17.50568254183429
 20
8.248669911617568
 30
0.0
 11
17.35568254183431
 21
8.248669911617568
 31
0.0
  0
LINE
  5
199
330
2
100
AcDbEntity
  8
GAIKEI
  6
Continuous
 62
     1
100
AcDbLine
 10
43.74829769033431
 20
8.258669911617388
 30
0.0
 11
43.74720233939433
 21
8.258669911617388
 31
0.0
  0
LINE
  5
19A
330
2
100
AcDbEntity
  8
GAIKEI
  6
Continuous
 62
     1
100
AcDbLine
 10
17.35568254183431
 20
8.348669911617591
 30
0.0
 11
17.50568254183429
 21
8.348669911617591
 31
0.0
  0
LINE
  5
19B
330
2
100
AcDbEntity
  8
GAIKEI
  6
Continuous
 62
     1
100
AcDbLine
 10
17.10568254183431
 20
8.348669911617591
 30
0.0
 11
17.25568254183429
 21
8.348669911617591
 31
0.0
  0
LINE
  5
19C
330
2
100
AcDbEntity
  8
GAIKEI
  6
Continuous
 62
     1
100
AcDbLine
 10
43.76352372151427
 20
8.408669911617366
 30
0.0
 11
43.74720233939433
 21
8.408669911617366
 31
0.0
  0
LINE
  5
19D
330
2
100
AcDbEntity
  8
GAIKEI
  6
Continuous
 62
     1
100
AcDbLine
 10
17.25568254183429
 20
8.498669911617568
 30
0.0
 11
17.35568254183431
 21
8.498669911617568
 31
0.0
  0
LINE
  5
19E
330
2
100
AcDbEntity
  8
GAIKEI
  6
Continuous
 62
     1
100
AcDbLine
 10
43.74720233939433
 20
8.508669911617388
 30
0.0
 11
43.76352372151427
 21
8.508669911617388
 31
0.0
  0
LINE
  5
19F
330
2
100
AcDbEntity
  8
GAIKEI
  6
Continuous
 62
     1
100
AcDbLine
 10
43.74720233939433
 20
8.658669911617366
 30
0.0
 11
43.74829769033431
 21
8.658669911617366
 31
0.0
  0
LINE
  5
1A0
330
2
100
AcDbEntity
  8
GAIKEI
  6
Continuous
 62
     1
100
AcDbLine
 10
43.74829769033431
 20
8.758669911617388
 30
0.0
 11
43.74720233939433
 21
8.758669911617388
 31
0.0
  0
LINE
  5
1A1
330
2
100
AcDbEntity
  8
GAIKEI
  6
Continuous
 62
     1
100
AcDbLine
 10
43.76352372151427
 20
8.908669911617366
 30
0.0
 11
43.74720233939433
 21
8.908669911617366
 31
0.0
  0
LINE
  5
1A2
330
2
100
AcDbEntity
  8
GAIKEI
  6
Continuous
 62
     1
100
AcDbLine
 10
43.74720233939433
 20
9.008669911617388
 30
0.0
 11
43.76352372151427
 21
9.008669911617388
 31
0.0
  0
LINE
  5
1A3
330
2
100
AcDbEntity
  8
GAIKEI
  6
Continuous
 62
     1
100
AcDbLine
 10
43.74829769033431
 20
9.098669911617591
 30
0.0
 11
43.74720233939433
 21
9.098669911617591
 31
0.0
  0
LINE
  5
1A4
330
2
100
AcDbEntity
  8
GAIKEI
  6
Continuous
 62
     1
100
AcDbLine
 10
43.76352372151427
 20
9.248669911617568
 30
0.0
 11
43.74720233939433
 21
9.248669911617568
 31
0.0
  0
LINE
  5
1A5
330
2
100
AcDbEntity
  8
GAIKEI
  6
Continuous
 62
     1
100
AcDbLine
 10
43.74720233939433
 20
9.348669911617591
 30
0.0
 11
43.76352372151427
 21
9.348669911617591
 31
0.0
  0
LINE
  5
1A6
330
2
100
AcDbEntity
  8
GAIKEI
  6
Continuous
 62
     1
100
AcDbLine
 10
43.74720233939433
 20
9.498669911617568
 30
0.0
 11
43.74829769033431
 21
9.498669911617568
 31
0.0
  0
LINE
  5
1A7
330
2
100
AcDbEntity
  8
GAIKEI
  6
Continuous
 62
     1
100
AcDbLine
 10
13.66748996471426
 20
7.963517955437609
 30
0.0
 11
13.86086152669429
 21
7.966893268617567
 31
0.0
  0
LINE
  5
1A8
330
2
100
AcDbEntity
  8
GAIKEI
  6
Continuous
 62
     1
100
AcDbLine
 10
43.70568254183427
 20
9.602296385357405
 30
0.0
 11
43.71869703577431
 21
9.601157764677381
 31
0.0
  0
LINE
  5
1A9
330
2
100
AcDbEntity
  8
GAIKEI
  6
Continuous
 62
     1
100
AcDbLine
 10
43.70568254183427
 20
10.09866991161759
 30
0.0
 11
43.87568254183429
 21
10.09866991161759
 31
0.0
  0
LINE
  5
1AA
330
2
100
AcDbEntity
  8
GAIKEI
  6
Continuous
 62
     1
100
AcDbLine
 10
43.70568254183427
 20
10.19866991161755
 30
0.0
 11
43.87568254183429
 21
10.19866991161755
 31
0.0
  0
LINE
  5
1AB
330
2
100
AcDbEntity
  8
GAIKEI
  6
Continuous
 62
     1
100
AcDbLine
 10
13.72668415429427
 20
9.261942919337556
 30
0.0
 11
13.66926436395425
 21
9.259937776077592
 31
0.0
  0
LINE
  5
1AC
330
2
100
AcDbEntity
  8
GAIKEI
  6
Continuous
 62
     1
100
AcDbLine
 10
44.82568254183428
 20
11.69866991161756
 30
0.0
 11
44.48748594071429
 21
11.69866991161756
 31
0.0
  0
LINE
  5
1AD
330
2
100
AcDbEntity
  8
GAIKEI
  6
Continuous
 62
     1
100
AcDbLine
 10
44.48748594071429
 20
11.79866991161758
 30
0.0
 11
44.87568254183429
 21
11.79866991161758
 31
0.0
  0
LINE
  5
1AE
330
2
100
AcDbEntity
  8
GAIKEI
  6
Continuous
 62
     1
100
AcDbLine
 10
44.16387914297428
 20
11.84866991161759
 30
0.0
 11
43.87568254183429
 21
11.84866991161759
 31
0.0
  0
LINE
  5
1AF
330
2
100
AcDbEntity
  8
GAIKEI
  6
Continuous
 62
     1
100
AcDbLine
 10
44.16387914297428
 20
11.94866991161755
 30
0.0
 11
43.87568254183429
 21
11.94866991161755
 31
0.0
  0
LINE
  5
1B0
330
2
100
AcDbEntity
  8
GAIKEI
  6
Continuous
 62
     1
100
AcDbLine
 10
17.35568254183431
 20
12.09866991161759
 30
0.0
 11
17.25568254183429
 21
12.09866991161759
 31
0.0
  0
LINE
  5
1B1
330
2
100
AcDbEntity
  8
GAIKEI
  6
Continuous
 62
     1
100
AcDbLine
 10
17.25568254183429
 20
12.24866991161757
 30
0.0
 11
17.10568254183431
 21
12.24866991161757
 31
0.0
  0
LINE
  5
1B2
330
2
100
AcDbEntity
  8
GAIKEI
  6
Continuous
 62
     1
100
AcDbLine
 10
17.50568254183429
 20
12.24866991161757
 30
0.0
 11
17.35568254183431
 21
12.24866991161757
 31
0.0
  0
LINE
  5
1B3
330
2
100
AcDbEntity
  8
GAIKEI
  6
Continuous
 62
     1
100
AcDbLine
 10
17.35568254183431
 20
12.34866991161759
 30
0.0
 11
17.50568254183429
 21
12.34866991161759
 31
0.0
  0
LINE
  5
1B4
330
2
100
AcDbEntity
  8
GAIKEI
  6
Continuous
 62
     1
100
AcDbLine
 10
17.10568254183431
 20
12.34866991161759
 30
0.0
 11
17.25568254183429
 21
12.34866991161759
 31
0.0
  0
LINE
  5
1B5
330
2
100
AcDbEntity
  8
GAIKEI
  6
Continuous
 62
     1
100
AcDbLine
 10
17.25568254183429
 20
12.49866991161757
 30
0.0
 11
17.35568254183431
 21
12.49866991161757
 31
0.0
  0
LINE
  5
1B6
330
2
100
AcDbEntity
  8
GAIKEI
  6
Continuous
 62
     1
100
AcDbLine
 10
44.16387914297428
 20
12.84866991161759
 30
0.0
 11
43.87568254183429
 21
12.84866991161759
 31
0.0
  0
LINE
  5
1B7
330
2
100
AcDbEntity
  8
GAIKEI
  6
Continuous
 62
     1
100
AcDbLine
 10
43.70568254183427
 20
13.26504343787739
 30
0.0
 11
43.71869703577431
 21
13.26618205855736
 31
0.0
  0
LINE
  5
1B8
330
2
100
AcDbEntity
  8
GAIKEI
  6
Continuous
 62
     1
100
AcDbLine
 10
43.75617869663426
 20
13.70808775271756
 30
0.0
 11
43.84869703577431
 21
13.71618205855735
 31
0.0
  0
LINE
  5
1B9
330
2
100
AcDbEntity
  8
GAIKEI
  6
Continuous
 62
     1
100
AcDbLine
 10
44.16387914297428
 20
12.94866991161756
 30
0.0
 11
43.87568254183429
 21
12.94866991161756
 31
0.0
  0
LINE
  5
1BA
330
2
100
AcDbEntity
  8
GAIKEI
  6
Continuous
 62
     1
100
AcDbLine
 10
44.48748594071429
 20
12.99866991161757
 30
0.0
 11
44.87568254183429
 21
12.99866991161757
 31
0.0
  0
LINE
  5
1BB
330
2
100
AcDbEntity
  8
GAIKEI
  6
Continuous
 62
     1
100
AcDbLine
 10
44.82568254183428
 20
13.09866991161759
 30
0.0
 11
44.48748594071429
 21
13.09866991161759
 31
0.0
  0
LINE
  5
1BC
330
2
100
AcDbEntity
  8
GAIKEI
  6
Continuous
 62
     1
100
AcDbLine
 10
43.70568254183427
 20
13.19866991161755
 30
0.0
 11
43.87568254183429
 21
13.19866991161755
 31
0.0
  0
LINE
  5
1BD
330
2
100
AcDbEntity
  8
GAIKEI
  6
Continuous
 62
     1
100
AcDbLine
 10
43.73379155245425
 20
13.29866991161758
 30
0.0
 11
43.87568254183429
 21
13.29866991161758
 31
0.0
  0
LINE
  5
1BE
330
2
100
AcDbEntity
  8
GAIKEI
  6
Continuous
 62
     1
100
AcDbLine
 10
43.74829769033431
 20
13.36866991161757
 30
0.0
 11
43.74720233939433
 21
13.36866991161757
 31
0.0
  0
LINE
  5
1BF
330
2
100
AcDbEntity
  8
GAIKEI
  6
Continuous
 62
     1
100
AcDbLine
 10
43.76352372151427
 20
13.51866991161761
 30
0.0
 11
43.74720233939433
 21
13.51866991161761
 31
0.0
  0
LINE
  5
1C0
330
2
100
AcDbEntity
  8
GAIKEI
  6
Continuous
 62
     1
100
AcDbLine
 10
43.74720233939433
 20
13.61866991161757
 30
0.0
 11
43.76352372151427
 21
13.61866991161757
 31
0.0
  0
LINE
  5
1C1
330
2
100
AcDbEntity
  8
GAIKEI
  6
Continuous
 62
     1
100
AcDbLine
 10
43.74720233939433
 20
13.76866991161761
 30
0.0
 11
43.74829769033431
 21
13.76866991161761
 31
0.0
  0
LINE
  5
1C2
330
2
100
AcDbEntity
  8
GAIKEI
  6
Continuous
 62
     1
100
AcDbLine
 10
43.8782976903343
 20
13.81866991161756
 30
0.0
 11
43.87720233939427
 21
13.81866991161756
 31
0.0
  0
LINE
  5
1C3
330
2
100
AcDbEntity
  8
GAIKEI
  6
Continuous
 62
     1
100
AcDbLine
 10
43.89352372151432
 20
13.96866991161759
 30
0.0
 11
43.87720233939427
 21
13.96866991161759
 31
0.0
  0
LINE
  5
1C4
330
2
100
AcDbEntity
  8
GAIKEI
  6
Continuous
 62
     1
100
AcDbLine
 10
43.87720233939427
 20
14.06866991161756
 30
0.0
 11
43.89352372151432
 21
14.06866991161756
 31
0.0
  0
LINE
  5
1C5
330
2
100
AcDbEntity
  8
GAIKEI
  6
Continuous
 62
     1
100
AcDbLine
 10
43.87720233939427
 20
14.21866991161759
 30
0.0
 11
43.8782976903343
 21
14.21866991161759
 31
0.0
  0
LINE
  5
1C6
330
2
100
AcDbEntity
  8
GAIKEI
  6
Continuous
 62
     1
100
AcDbLine
 10
43.52568254183426
 20
14.46866991161759
 30
0.0
 11
43.70568254183427
 21
14.46866991161759
 31
0.0
  0
LINE
  5
1C7
330
2
100
AcDbEntity
  8
GAIKEI
  6
Continuous
 62
     1
100
AcDbLine
 10
43.62568254183429
 20
14.56209576621761
 30
0.0
 11
43.70568254183427
 21
14.56209576621761
 31
0.0
  0
LINE
  5
1C8
330
2
100
AcDbEntity
  8
GAIKEI
  6
Continuous
 62
     1
100
AcDbLine
 10
43.62568254183429
 20
14.56866991161756
 30
0.0
 11
43.52568254183426
 21
14.56866991161756
 31
0.0
  0
LINE
  5
1C9
330
2
100
AcDbEntity
  8
GAIKEI
  6
Continuous
 62
     1
100
AcDbLine
 10
43.70568254183427
 20
13.87229638535756
 30
0.0
 11
43.71869703577431
 21
13.87115776467736
 31
0.0
  0
LINE
  5
1CA
330
2
100
AcDbEntity
  8
GAIKEI
  6
Continuous
 62
     1
100
AcDbLine
 10
43.70568254183427
 20
14.33366991161738
 30
0.0
 11
43.84869703577431
 21
14.32115776467735
 31
0.0
  0
LINE
  5
1CB
330
2
100
AcDbEntity
  8
GAIKEI
  6
Continuous
 62
     7
100
AcDbLine
 10
15.70568254183428
 20
14.6486699116176
 30
0.0
 11
43.62568254183429
 21
14.6486699116176
 31
0.0
  0
LINE
  5
1CC
330
2
100
AcDbEntity
  8
GAIKEI
  6
Continuous
 62
     1
100
AcDbLine
 10
15.70568254183428
 20
14.69866991161756
 30
0.0
 11
18.50568254183429
 21
14.69866991161756
 31
0.0
  0
LINE
  5
1CD
330
2
100
AcDbEntity
  8
GAIKEI
  6
Continuous
 62
     7
100
AcDbLine
 10
15.70568254183428
 20
14.69866991161756
 30
0.0
 11
14.27721064829427
 21
14.64878657389759
 31
0.0
  0
LINE
  5
1CE
330
2
100
AcDbEntity
  8
GAIKEI
  6
Continuous
 62
     1
100
AcDbLine
 10
44.46512526093425
 20
11.70394855207756
 30
0.0
 11
44.18623982273425
 21
11.84339127117759
 31
0.0
  0
LINE
  5
1CF
330
2
100
AcDbEntity
  8
GAIKEI
  6
Continuous
 62
     1
100
AcDbLine
 10
44.46512526093425
 20
11.79339127117758
 30
0.0
 11
44.18623982273425
 21
11.93283399027756
 31
0.0
  0
LINE
  5
1D0
330
2
100
AcDbEntity
  8
GAIKEI
  6
Continuous
 62
     1
100
AcDbLine
 10
14.27725932067426
 20
14.64878827357755
 30
0.0
 11
14.26464252563431
 21
14.64376580877761
 31
0.0
  0
LINE
  5
1D1
330
2
100
AcDbEntity
  8
GAIKEI
  6
Continuous
 62
     1
100
AcDbLine
 10
44.20568254183428
 20
7.821169911617388
 30
0.0
 11
44.20271308097426
 21
7.824139372497356
 31
0.0
  0
LINE
  5
1D2
330
2
100
AcDbEntity
  8
GAIKEI
  6
Continuous
 62
     1
100
AcDbLine
 10
46.0224228023743
 20
9.76212639325756
 30
0.0
 11
43.70568254183427
 21
11.3674408671976
 31
0.0
  0
LINE
  5
1D3
330
2
100
AcDbEntity
  8
GAIKEI
  6
Continuous
 62
     1
100
AcDbLine
 10
46.12494177893426
 20
9.910078613397374
 30
0.0
 11
43.70568254183427
 21
11.58643048403739
 31
0.0
  0
LINE
  5
1D4
330
2
100
AcDbEntity
  8
GAIKEI
  6
Continuous
 62
     1
100
AcDbLine
 10
20.10568254183431
 20
7.568669911617561
 30
0.0
 11
20.10568254183431
 21
7.468669911617595
 31
0.0
  0
LINE
  5
1D5
330
2
100
AcDbEntity
  8
GAIKEI
  6
Continuous
 62
     1
100
AcDbLine
 10
19.95568254183428
 20
7.468669911617595
 30
0.0
 11
19.95568254183428
 21
7.318669911617561
 31
0.0
  0
LINE
  5
1D6
330
2
100
AcDbEntity
  8
GAIKEI
  6
Continuous
 62
     1
100
AcDbLine
 10
19.95568254183428
 20
7.718669911617595
 30
0.0
 11
19.95568254183428
 21
7.568669911617561
 31
0.0
  0
LINE
  5
1D7
330
2
100
AcDbEntity
  8
GAIKEI
  6
Continuous
 62
     1
100
AcDbLine
 10
19.85568254183431
 20
7.568669911617561
 30
0.0
 11
19.85568254183431
 21
7.718669911617595
 31
0.0
  0
LINE
  5
1D8
330
2
100
AcDbEntity
  8
GAIKEI
  6
Continuous
 62
     1
100
AcDbLine
 10
19.85568254183431
 20
7.318669911617561
 30
0.0
 11
19.85568254183431
 21
7.468669911617595
 31
0.0
  0
LINE
  5
1D9
330
2
100
AcDbEntity
  8
GAIKEI
  6
Continuous
 62
     1
100
AcDbLine
 10
19.70568254183428
 20
7.468669911617595
 30
0.0
 11
19.70568254183428
 21
7.568669911617561
 31
0.0
  0
LINE
  5
1DA
330
2
100
AcDbEntity
  8
GAIKEI
  6
Continuous
 62
     7
100
AcDbLine
 10
14.04365885039425
 20
14.44885475227737
 30
0.0
 11
14.2646790503743
 21
14.6437980241776
 31
0.0
  0
LINE
  5
1DB
330
2
100
AcDbEntity
  8
GAIKEI
  6
Continuous
 62
     7
100
AcDbLine
 10
18.60568254185352
 20
5.998669911617568
 30
0.0
 11
18.51362489301431
 21
4.940006949977359
 31
0.0
  0
LINE
  5
1DC
330
2
100
AcDbEntity
  8
GAIKEI
  6
Continuous
 62
     1
100
AcDbLine
 10
18.70568254183428
 20
6.098669911617591
 30
0.0
 11
18.70568254183428
 21
14.49866991161757
 31
0.0
  0
LINE
  5
1DD
330
2
100
AcDbEntity
  8
GAIKEI
  6
Continuous
 62
     1
100
AcDbLine
 10
18.21568254183427
 20
12.24866991161757
 30
0.0
 11
18.21568254183427
 21
12.34866991161759
 31
0.0
  0
LINE
  5
1DE
330
2
100
AcDbEntity
  8
GAIKEI
  6
Continuous
 62
     1
100
AcDbLine
 10
17.79568254183431
 20
12.34866991161759
 30
0.0
 11
17.79568254183431
 21
12.24866991161757
 31
0.0
  0
LINE
  5
1DF
330
2
100
AcDbEntity
  8
GAIKEI
  6
Continuous
 62
     1
100
AcDbLine
 10
17.50568254183429
 20
8.348669911617591
 30
0.0
 11
17.50568254183429
 21
8.248669911617568
 31
0.0
  0
LINE
  5
1E0
330
2
100
AcDbEntity
  8
GAIKEI
  6
Continuous
 62
     1
100
AcDbLine
 10
17.50568254183429
 20
12.34866991161759
 30
0.0
 11
17.50568254183429
 21
12.24866991161757
 31
0.0
  0
LINE
  5
1E1
330
2
100
AcDbEntity
  8
GAIKEI
  6
Continuous
 62
     1
100
AcDbLine
 10
17.35568254183431
 20
8.248669911617568
 30
0.0
 11
17.35568254183431
 21
8.098669911617591
 31
0.0
  0
LINE
  5
1E2
330
2
100
AcDbEntity
  8
GAIKEI
  6
Continuous
 62
     1
100
AcDbLine
 10
17.35568254183431
 20
8.498669911617568
 30
0.0
 11
17.35568254183431
 21
8.348669911617591
 31
0.0
  0
LINE
  5
1E3
330
2
100
AcDbEntity
  8
GAIKEI
  6
Continuous
 62
     1
100
AcDbLine
 10
17.35568254183431
 20
12.24866991161757
 30
0.0
 11
17.35568254183431
 21
12.09866991161759
 31
0.0
  0
LINE
  5
1E4
330
2
100
AcDbEntity
  8
GAIKEI
  6
Continuous
 62
     1
100
AcDbLine
 10
17.35568254183431
 20
12.49866991161757
 30
0.0
 11
17.35568254183431
 21
12.34866991161759
 31
0.0
  0
LINE
  5
1E5
330
2
100
AcDbEntity
  8
GAIKEI
  6
Continuous
 62
     1
100
AcDbLine
 10
17.25568254183429
 20
12.34866991161759
 30
0.0
 11
17.25568254183429
 21
12.49866991161757
 31
0.0
  0
LINE
  5
1E6
330
2
100
AcDbEntity
  8
GAIKEI
  6
Continuous
 62
     1
100
AcDbLine
 10
17.25568254183429
 20
12.09866991161759
 30
0.0
 11
17.25568254183429
 21
12.24866991161757
 31
0.0
  0
LINE
  5
1E7
330
2
100
AcDbEntity
  8
GAIKEI
  6
Continuous
 62
     1
100
AcDbLine
 10
17.25568254183429
 20
8.348669911617591
 30
0.0
 11
17.25568254183429
 21
8.498669911617568
 31
0.0
  0
LINE
  5
1E8
330
2
100
AcDbEntity
  8
GAIKEI
  6
Continuous
 62
     1
100
AcDbLine
 10
17.25568254183429
 20
8.098669911617591
 30
0.0
 11
17.25568254183429
 21
8.248669911617568
 31
0.0
  0
LINE
  5
1E9
330
2
100
AcDbEntity
  8
GAIKEI
  6
Continuous
 62
     1
100
AcDbLine
 10
17.10568254183431
 20
12.24866991161757
 30
0.0
 11
17.10568254183431
 21
12.34866991161759
 31
0.0
  0
LINE
  5
1EA
330
2
100
AcDbEntity
  8
GAIKEI
  6
Continuous
 62
     1
100
AcDbLine
 10
17.10568254183431
 20
8.248669911617568
 30
0.0
 11
17.10568254183431
 21
8.348669911617591
 31
0.0
  0
LINE
  5
1EB
330
2
100
AcDbEntity
  8
GAIKEI
  6
Continuous
 62
     1
100
AcDbLine
 10
15.93568254183429
 20
14.69866991161756
 30
0.0
 11
15.93568254183429
 21
5.898669911617602
 31
0.0
  0
LINE
  5
1EC
330
2
100
AcDbEntity
  8
GAIKEI
  6
Continuous
 62
     1
100
AcDbLine
 10
15.70568254183428
 20
5.898669911617602
 30
0.0
 11
15.70568254183428
 21
14.69866991161756
 31
0.0
  0
LINE
  5
1ED
330
2
100
AcDbEntity
  8
GAIKEI
  6
Continuous
 62
     7
100
AcDbLine
 10
16.4056825418408
 20
5.998669911617568
 30
0.0
 11
16.49774019067428
 21
4.940006949977359
 31
0.0
  0
LINE
  5
1EE
330
2
100
AcDbEntity
  8
GAIKEI
  6
Continuous
 62
     1
100
AcDbLine
 10
13.71352529087426
 20
9.66233897311757
 30
0.0
 11
13.71056828045425
 21
9.768201582777564
 31
0.0
  0
LINE
  5
1EF
330
2
100
AcDbEntity
  8
GAIKEI
  6
Continuous
 62
     1
100
AcDbLine
 10
13.71892882601429
 20
9.468889425617575
 30
0.0
 11
13.71890795459427
 21
9.469636634177604
 31
0.0
  0
ARC
  5
1F0
330
2
100
AcDbEntity
  8
GAIKEI
  6
Continuous
 62
     7
100
AcDbCircle
 10
43.62568254183429
 20
14.56866991161756
 30
0.0
 40
0.0800000000000182
100
AcDbArc
 50
0.0
 51
89.99999999999998
  0
ARC
  5
1F1
330
2
100
AcDbEntity
  8
GAIKEI
  6
Continuous
 62
     1
100
AcDbCircle
 10
18.00568254183429
 20
12.34866991161759
 30
0.0
 40
0.2099999999999909
100
AcDbArc
 50
0.0
 51
180.0
  0
ARC
  5
1F2
330
2
100
AcDbEntity
  8
GAIKEI
  6
Continuous
 62
     1
100
AcDbCircle
 10
18.00568254183429
 20
12.24866991161757
 30
0.0
 40
0.2099999999999909
100
AcDbArc
 50
180.0
 51
0.0
  0
ARC
  5
1F3
330
2
100
AcDbEntity
  8
GAIKEI
  6
Continuous
 62
     1
100
AcDbCircle
 10
18.50568254183429
 20
14.49866991161757
 30
0.0
 40
0.2
100
AcDbArc
 50
0.0
 51
89.99999999999998
  0
ARC
  5
1F4
330
2
100
AcDbEntity
  8
GAIKEI
  6
Continuous
 62
     7
100
AcDbCircle
 10
18.50568254183429
 20
6.098669911617534
 30
0.0
 40
0.2
100
AcDbArc
 50
270.0
 51
0.0
  0
ARC
  5
1F5
330
2
100
AcDbEntity
  8
GAIKEI
  6
Continuous
 62
     7
100
AcDbCircle
 10
39.70568254183428
 20
10.29866991161758
 30
0.0
 40
26.00000000000009
100
AcDbArc
 50
180.0
 51
184.8539083529
  0
ARC
  5
1F6
330
2
100
AcDbEntity
  8
GAIKEI
  6
Continuous
 62
     1
100
AcDbCircle
 10
9.305686960234311
 20
5.905317011437588
 30
0.0
 40
4.970000000000043
100
AcDbArc
 50
3.84212692430041
 51
7.317623211101511
  0
ARC
  5
1F7
330
2
100
AcDbEntity
  8
GAIKEI
  6
Continuous
 62
     1
100
AcDbCircle
 10
14.31942607761431
 20
6.15595631971756
 30
0.0
 40
0.0200000000000306
100
AcDbArc
 50
182.8616976508214
 51
225.3863783494586
  0
ARC
  5
1F8
330
2
100
AcDbEntity
  8
GAIKEI
  6
Continuous
 62
     7
100
AcDbCircle
 10
14.05688840867429
 20
14.4338554593774
 30
0.0
 40
0.020000000000183
100
AcDbArc
 50
131.4127974882475
 51
170.8413555678423
  0
ARC
  5
1F9
330
2
100
AcDbEntity
  8
GAIKEI
  6
Continuous
 62
     1
100
AcDbCircle
 10
14.27790863823429
 20
14.62879875735756
 30
0.0
 40
0.0200000000000178
100
AcDbArc
 50
91.99999999984401
 51
131.4127974889813
  0
ARC
  5
1FA
330
2
100
AcDbEntity
  8
GAIKEI
  6
Continuous
 62
     7
100
AcDbCircle
 10
9.305686960234311
 20
5.905317011437588
 30
0.0
 40
5.000000000000009
100
AcDbArc
 50
2.861862736396442
 51
26.01908964109675
  0
ARC
  5
1FB
330
2
100
AcDbEntity
  8
GAIKEI
  6
Continuous
 62
     1
100
AcDbCircle
 10
43.47568254183426
 20
5.978669911617529
 30
0.0
 40
0.1
100
AcDbArc
 50
270.0
 51
0.0
  0
ARC
  5
1FC
330
2
100
AcDbEntity
  8
GAIKEI
  6
Continuous
 62
     1
100
AcDbCircle
 10
46.07368229065428
 20
9.836102503337585
 30
0.0
 40
0.089999999999964
100
AcDbArc
 50
235.2811572347372
 51
55.28115723473716
  0
ARC
  5
1FD
330
2
100
AcDbEntity
  8
GAIKEI
  6
Continuous
 62
     1
100
AcDbCircle
 10
46.61311578517427
 20
11.1712472539176
 30
0.0
 40
0.0900000000000542
100
AcDbArc
 50
337.9999999998934
 51
158.0000000000198
  0
ARC
  5
1FE
330
2
100
AcDbEntity
  8
GAIKEI
  6
Continuous
 62
     7
100
AcDbCircle
 10
37.59736424949426
 20
4.948669911617557
 30
0.0
 40
0.1000000000000232
100
AcDbArc
 50
184.9697407322075
 51
270.0
  0
ARC
  5
1FF
330
2
100
AcDbEntity
  8
GAIKEI
  6
Continuous
 62
     7
100
AcDbCircle
 10
39.41400083419427
 20
4.948669911617557
 30
0.0
 40
0.1
100
AcDbArc
 50
270.0
 51
355.0302592677989
  0
ARC
  5
200
330
2
100
AcDbEntity
  8
GAIKEI
  6
Continuous
 62
     7
100
AcDbCircle
 10
16.59736424949426
 20
4.948669911617557
 30
0.0
 40
0.1000000000000232
100
AcDbArc
 50
184.9697407322075
 51
270.0
  0
ARC
  5
201
330
2
100
AcDbEntity
  8
GAIKEI
  6
Continuous
 62
     7
100
AcDbCircle
 10
18.41400083419432
 20
4.948669911617557
 30
0.0
 40
0.1
100
AcDbArc
 50
270.0
 51
355.0302592677989
  0
ARC
  5
202
330
2
100
AcDbEntity
  8
GAIKEI
  6
Continuous
 62
     1
100
AcDbCircle
 10
9.305686960234311
 20
5.905317011437588
 30
0.0
 40
4.970000000000045
100
AcDbArc
 50
16.16119288820211
 51
18.94245080060006
  0
ARC
  5
203
330
2
100
AcDbEntity
  8
GAIKEI
  6
Continuous
 62
     1
100
AcDbCircle
 10
13.6678365562143
 20
7.943520958657572
 30
0.0
 40
0.0200000000000782
100
AcDbArc
 50
91.00000000010275
 51
226.3254724459296
  0
ARC
  5
204
330
2
100
AcDbEntity
  8
GAIKEI
  6
Continuous
 62
     1
100
AcDbCircle
 10
44.48748594071429
 20
11.74866991161757
 30
0.0
 40
0.0500000000000085
100
AcDbArc
 50
243.4349488229103
 51
270.0
  0
ARC
  5
205
330
2
100
AcDbEntity
  8
GAIKEI
  6
Continuous
 62
     1
100
AcDbCircle
 10
44.16387914297428
 20
11.79866991161758
 30
0.0
 40
0.0500000000000085
100
AcDbArc
 50
63.43494882291034
 51
89.99999999999998
  0
ARC
  5
206
330
2
100
AcDbEntity
  8
GAIKEI
  6
Continuous
 62
     1
100
AcDbCircle
 10
44.82568254183428
 20
11.74866991161757
 30
0.0
 40
0.05
100
AcDbArc
 50
270.0
 51
0.0
  0
ARC
  5
207
330
2
100
AcDbEntity
  8
GAIKEI
  6
Continuous
 62
     1
100
AcDbCircle
 10
44.48748594071429
 20
13.04866991161758
 30
0.0
 40
0.05
100
AcDbArc
 50
89.99999999999998
 51
116.5650511770896
  0
ARC
  5
208
330
2
100
AcDbEntity
  8
GAIKEI
  6
Continuous
 62
     1
100
AcDbCircle
 10
44.16387914297428
 20
12.99866991161757
 30
0.0
 40
0.05
100
AcDbArc
 50
270.0
 51
296.5650511770896
  0
ARC
  5
209
330
2
100
AcDbEntity
  8
GAIKEI
  6
Continuous
 62
     1
100
AcDbCircle
 10
44.82568254183428
 20
13.04866991161758
 30
0.0
 40
0.05
100
AcDbArc
 50
0.0
 51
89.99999999999998
  0
ARC
  5
20A
330
2
100
AcDbEntity
  8
GAIKEI
  6
Continuous
 62
     1
100
AcDbCircle
 10
14.20568254183433
 20
8.968669911617595
 30
0.0
 40
0.6366006433799503
100
AcDbArc
 50
155.7103161491003
 51
204.2896838509142
  0
ARC
  5
20B
330
2
100
AcDbEntity
  8
GAIKEI
  6
Continuous
 62
     1
100
AcDbCircle
 10
13.6710093387743
 20
8.727371588517584
 30
0.0
 40
0.0500000000001697
100
AcDbArc
 50
204.289683851071
 51
267.9999999999018
  0
ARC
  5
20C
330
2
100
AcDbEntity
  8
GAIKEI
  6
Continuous
 62
     1
100
AcDbCircle
 10
13.6710093387743
 20
9.209968234717607
 30
0.0
 40
0.0500000000000411
100
AcDbArc
 50
92.0000000001046
 51
155.7103161491433
  0
ARC
  5
20D
330
2
100
AcDbEntity
  8
GAIKEI
  6
Continuous
 62
     1
100
AcDbCircle
 10
43.84782547835425
 20
7.491195817697516
 30
0.0
 40
0.0099999999999119
100
AcDbArc
 50
14.74782897697205
 51
84.99999996357981
  0
ARC
  5
20E
330
2
100
AcDbEntity
  8
GAIKEI
  6
Continuous
 62
     1
100
AcDbCircle
 10
43.84782547835425
 20
6.906144005537598
 30
0.0
 40
0.0100000000002289
100
AcDbArc
 50
275.0000000363187
 51
345.2521710230279
  0
ARC
  5
20F
330
2
100
AcDbEntity
  8
GAIKEI
  6
Continuous
 62
     1
100
AcDbCircle
 10
42.73656326325431
 20
7.198669911617557
 30
0.0
 40
1.159119278600031
100
AcDbArc
 50
345.2521707055009
 51
350.0641880113834
  0
ARC
  5
210
330
2
100
AcDbEntity
  8
GAIKEI
  6
Continuous
 62
     1
100
AcDbCircle
 10
42.73656326325431
 20
7.198669911617557
 30
0.0
 40
1.159119278599958
100
AcDbArc
 50
9.935811988603447
 51
14.74782929449905
  0
ARC
  5
211
330
2
100
AcDbEntity
  8
GAIKEI
  6
Continuous
 62
     1
100
AcDbCircle
 10
43.71782547835431
 20
13.8611958176974
 30
0.0
 40
0.0099999999998679
100
AcDbArc
 50
14.74782897703959
 51
84.99999996497924
  0
ARC
  5
212
330
2
100
AcDbEntity
  8
GAIKEI
  6
Continuous
 62
     1
100
AcDbCircle
 10
43.71782547835431
 20
13.27614400553737
 30
0.0
 40
0.009999999999824
100
AcDbArc
 50
275.0000000352139
 51
345.2521710229603
  0
ARC
  5
213
330
2
100
AcDbEntity
  8
GAIKEI
  6
Continuous
 62
     1
100
AcDbCircle
 10
42.60656326325431
 20
13.56866991161756
 30
0.0
 40
1.159119278600084
100
AcDbArc
 50
345.2521707054875
 51
350.0641880113834
  0
ARC
  5
214
330
2
100
AcDbEntity
  8
GAIKEI
  6
Continuous
 62
     1
100
AcDbCircle
 10
42.60656326325431
 20
13.56866991161756
 30
0.0
 40
1.159119278599878
100
AcDbArc
 50
9.935811988596741
 51
14.74782929449193
  0
ARC
  5
215
330
2
100
AcDbEntity
  8
GAIKEI
  6
Continuous
 62
     1
100
AcDbCircle
 10
43.71782547835431
 20
7.611195817697407
 30
0.0
 40
0.0099999999998679
100
AcDbArc
 50
14.74782897703959
 51
84.99999996497924
  0
ARC
  5
216
330
2
100
AcDbEntity
  8
GAIKEI
  6
Continuous
 62
     1
100
AcDbCircle
 10
42.60656326325431
 20
7.318669911617561
 30
0.0
 40
1.159119278599878
100
AcDbArc
 50
9.935811988596741
 51
14.74782929449193
  0
ARC
  5
217
330
2
100
AcDbEntity
  8
GAIKEI
  6
Continuous
 62
     1
100
AcDbCircle
 10
43.71782547835431
 20
9.591195817697538
 30
0.0
 40
0.0099999999998679
100
AcDbArc
 50
14.74782897703959
 51
84.99999996487781
  0
ARC
  5
218
330
2
100
AcDbEntity
  8
GAIKEI
  6
Continuous
 62
     1
100
AcDbCircle
 10
43.71782547835431
 20
9.006144005537564
 30
0.0
 40
0.0100000000002091
100
AcDbArc
 50
275.0000000350207
 51
345.2521710229603
  0
ARC
  5
219
330
2
100
AcDbEntity
  8
GAIKEI
  6
Continuous
 62
     1
100
AcDbCircle
 10
42.60656326325431
 20
9.298669911617579
 30
0.0
 40
1.159119278600031
100
AcDbArc
 50
345.2521707055009
 51
350.0641880113834
  0
ARC
  5
21A
330
2
100
AcDbEntity
  8
GAIKEI
  6
Continuous
 62
     1
100
AcDbCircle
 10
42.60656326325431
 20
9.298669911617579
 30
0.0
 40
1.159119278599914
100
AcDbArc
 50
9.935811988603447
 51
14.74782929449905
  0
ARC
  5
21B
330
2
100
AcDbEntity
  8
GAIKEI
  6
Continuous
 62
     1
100
AcDbCircle
 10
43.71782547835431
 20
6.791195817697584
 30
0.0
 40
0.0099999999998679
100
AcDbArc
 50
14.74782897703959
 51
84.99999996487781
  0
ARC
  5
21C
330
2
100
AcDbEntity
  8
GAIKEI
  6
Continuous
 62
     1
100
AcDbCircle
 10
43.71782547835431
 20
6.206144005537552
 30
0.0
 40
0.0100000000002091
100
AcDbArc
 50
275.0000000350207
 51
345.2521710229603
  0
ARC
  5
21D
330
2
100
AcDbEntity
  8
GAIKEI
  6
Continuous
 62
     1
100
AcDbCircle
 10
42.60656326325431
 20
6.498669911617568
 30
0.0
 40
1.159119278600031
100
AcDbArc
 50
345.2521707055009
 51
350.0641880113834
  0
ARC
  5
21E
330
2
100
AcDbEntity
  8
GAIKEI
  6
Continuous
 62
     1
100
AcDbCircle
 10
42.60656326325431
 20
6.498669911617568
 30
0.0
 40
1.159119278599914
100
AcDbArc
 50
9.935811988603447
 51
14.74782929449905
  0
ARC
  5
21F
330
2
100
AcDbEntity
  8
GAIKEI
  6
Continuous
 62
     1
100
AcDbCircle
 10
43.84782547835425
 20
14.31119581769734
 30
0.0
 40
0.0099999999999119
100
AcDbArc
 50
14.74782897697205
 51
84.99999996368122
  0
ARC
  5
220
330
2
100
AcDbEntity
  8
GAIKEI
  6
Continuous
 62
     1
100
AcDbCircle
 10
43.84782547835425
 20
13.72614400553736
 30
0.0
 40
0.0099999999998438
100
AcDbArc
 50
275.0000000365116
 51
345.2521710230279
  0
ARC
  5
221
330
2
100
AcDbEntity
  8
GAIKEI
  6
Continuous
 62
     1
100
AcDbCircle
 10
42.73656326325431
 20
14.0186699116176
 30
0.0
 40
1.159119278600084
100
AcDbArc
 50
345.2521707054875
 51
350.0641880113834
  0
ARC
  5
222
330
2
100
AcDbEntity
  8
GAIKEI
  6
Continuous
 62
     1
100
AcDbCircle
 10
42.73656326325431
 20
14.0186699116176
 30
0.0
 40
1.159119278599924
100
AcDbArc
 50
9.935811988596741
 51
14.74782929449193
  0
ARC
  5
223
330
2
100
AcDbEntity
  8
GAIKEI
  6
Continuous
 62
     1
100
AcDbCircle
 10
43.71782547835431
 20
8.666144005537361
 30
0.0
 40
0.0100000000000279
100
AcDbArc
 50
275.0000000351124
 51
345.2521710239707
  0
ARC
  5
224
330
2
100
AcDbEntity
  8
GAIKEI
  6
Continuous
 62
     1
100
AcDbCircle
 10
42.60656326325431
 20
8.95866991161732
 30
0.0
 40
1.159119278599985
100
AcDbArc
 50
345.252170705508
 51
350.0641880114032
  0
ARC
  5
225
330
2
100
AcDbEntity
  8
GAIKEI
  6
Continuous
 62
     1
100
AcDbCircle
 10
42.60656326325431
 20
8.45866991161732
 30
0.0
 40
1.159119278599918
100
AcDbArc
 50
348.4282321968086
 51
350.0641880114032
  0
ARC
  5
226
330
2
100
AcDbEntity
  8
GAIKEI
  6
Continuous
 62
     1
100
AcDbCircle
 10
42.60656326325431
 20
8.45866991161732
 30
0.0
 40
1.159119278599914
100
AcDbArc
 50
9.935811988603447
 51
12.45591011541195
  0
ARC
  5
227
330
2
100
AcDbEntity
  8
GAIKEI
  6
Continuous
 62
     7
100
AcDbCircle
 10
39.70568254183428
 20
10.29866991161758
 30
0.0
 40
26.00000000000009
100
AcDbArc
 50
170.8413906680007
 51
180.0
  0
CIRCLE
  5
228
330
2
100
AcDbEntity
  8
GAIKEI
  6
Continuous
 62
     1
100
AcDbCircle
 10
19.90568254183432
 20
7.518669911617607
 30
0.0
 40
0.9143194516202131
  0
CIRCLE
  5
229
330
2
100
AcDbEntity
  8
GAIKEI
  6
Continuous
 62
     1
100
AcDbCircle
 10
41.17568254183424
 20
7.518669911617607
 30
0.0
 40
0.9143194516202131
  0
CIRCLE
  5
22A
330
2
100
AcDbEntity
  8
GAIKEI
  6
Continuous
 62
     1
100
AcDbCircle
 10
19.90568254183432
 20
7.518669911617607
 30
0.0
 40
0.6000000000000001
  0
CIRCLE
  5
22B
330
2
100
AcDbEntity
  8
GAIKEI
  6
Continuous
 62
     1
100
AcDbCircle
 10
41.17568254183424
 20
7.518669911617607
 30
0.0
 40
0.6000000000000001
  0
CIRCLE
  5
22C
330
2
100
AcDbEntity
  8
GAIKEI
  6
Continuous
 62
     1
100
AcDbCircle
 10
18.00568254183429
 20
8.298669911617579
 30
0.0
 40
0.2100000000001955
  0
CIRCLE
  5
22D
330
2
100
AcDbEntity
  8
GAIKEI
  6
Continuous
 62
     1
100
AcDbCircle
 10
44.33168254183425
 20
7.758669911617388
 30
0.0
 40
0.0990000000000009
  0
CIRCLE
  5
22E
330
2
100
AcDbEntity
  8
GAIKEI
  6
Continuous
 62
     1
100
AcDbCircle
 10
17.3056825418343
 20
8.298669911617579
 30
0.0
 40
0.415000000000191
  0
CIRCLE
  5
22F
330
2
100
AcDbEntity
  8
GAIKEI
  6
Continuous
 62
     1
100
AcDbCircle
 10
17.3056825418343
 20
12.29866991161758
 30
0.0
 40
0.415000000000191
  0
CIRCLE
  5
230
330
2
100
AcDbEntity
  8
GAIKEI
  6
Continuous
 62
     1
100
AcDbCircle
 10
41.17568254183424
 20
7.518669911617607
 30
0.0
 40
0.3150000000000092
  0
CIRCLE
  5
231
330
2
100
AcDbEntity
  8
GAIKEI
  6
Continuous
 62
     1
100
AcDbCircle
 10
19.90568254183432
 20
7.518669911617607
 30
0.0
 40
0.3150000000000092
  0
CIRCLE
  5
232
330
2
100
AcDbEntity
  8
GAIKEI
  6
Continuous
 62
     1
100
AcDbCircle
 10
17.3056825418343
 20
8.298669911617579
 30
0.0
 40
0.25
  0
CIRCLE
  5
233
330
2
100
AcDbEntity
  8
GAIKEI
  6
Continuous
 62
     1
100
AcDbCircle
 10
17.3056825418343
 20
12.29866991161758
 30
0.0
 40
0.25
  0
SPLINE
  5
234
330
2
100
AcDbEntity
  8
GAIKEI
  6
Continuous
 62
     1
100
AcDbSpline
210
0.0
220
0.0
230
1.0
 70
     8
 71
     3
 72
    51
 73
    47
 74
    45
 42
0.0000000001
 43
0.0000000001
 44
0.00000001
 40
0.0
 40
0.0
 40
0.0
 40
0.0
 40
0.0069608826480094
 40
0.0139217641794325
 40
0.0185557801185626
 40
0.0231897960836817
 40
0.0282532146943515
 40
0.0333166333337423
 40
0.0386057920486251
 40
0.0438949507999513
 40
0.0492655157861927
 40
0.0546360808220365
 40
0.0600063154431946
 40
0.0653765501360512
 40
0.0707050931617317
 40
0.0760336362983755
 40
0.081281667147544
 40
0.0865296981873216
 40
0.0916511473958132
 40
0.0967725971038678
 40
0.101732339065567
 40
0.1066920841179074
 40
0.1114758214590541
 40
0.1162595594425804
 40
0.1208649603405582
 40
0.1254703620265924
 40
0.1298836007184096
 40
0.1342968397320752
 40
0.1384819571440019
 40
0.1426670747951561
 40
0.1466089754056401
 40
0.1505508762168647
 40
0.154299520182704
 40
0.1580481643493135
 40
0.1616965396091513
 40
0.1653449151029733
 40
0.168990309638672
 40
0.1726357043258918
 40
0.1763716601444538
 40
0.1801076161795318
 40
0.1840333228406752
 40
0.187959028341671
 40
0.1921765960746491
 40
0.1963941641122918
 40
0.2033855849630913
 40
0.2103770132980141
 40
0.2103770132980141
 40
0.2103770132980141
 40
0.2103770132980141
 10
13.6565595759543
 20
7.929103557577363
 30
0.0
 10
13.65887945588093
 20
7.929147402746536
 30
0.0
 10
13.66351921508593
 20
7.929235107717332
 30
0.0
 10
13.66970339606524
 20
7.929350641373503
 30
0.0
 10
13.67511210502138
 20
7.929450885122307
 30
0.0
 10
13.67988844834201
 20
7.92953868287492
 30
0.0
 10
13.68480791674446
 20
7.929628290461494
 30
0.0
 10
13.68994574717786
 20
7.929720919088254
 30
0.0
 10
13.69515883183408
 20
7.929813803592935
 30
0.0
 10
13.70047430417122
 20
7.929907280273624
 30
0.0
 10
13.70581693189729
 20
7.929999851710647
 30
0.0
 10
13.71118660678689
 20
7.93009138340605
 30
0.0
 10
13.71655619987329
 20
7.930181239853268
 30
0.0
 10
13.72191181748393
 20
7.930269058175497
 30
0.0
 10
13.72725357206984
 20
7.930354659286223
 30
0.0
 10
13.73255463098127
 20
7.930437479085284
 30
0.0
 10
13.73782889183427
 20
7.930517544105171
 30
0.0
 10
13.74303416647002
 20
7.930594078209253
 30
0.0
 10
13.74819729093123
 20
7.930667294755878
 30
0.0
 10
13.75326436819148
 20
7.930736310898467
 30
0.0
 10
13.75827758988214
 20
7.930801529516841
 30
0.0
 10
13.76317829100662
 20
7.930862080271381
 30
0.0
 10
13.76802037017566
 20
7.930918444868893
 30
0.0
 10
13.77274438301612
 20
7.930969855636774
 30
0.0
 10
13.77740899476043
 20
7.931016746418379
 30
0.0
 10
13.78195015214177
 20
7.931058328435511
 30
0.0
 10
13.78642729498617
 20
7.931095095183451
 30
0.0
 10
13.79076438119159
 20
7.931126395986339
 30
0.0
 10
13.79502545879297
 20
7.931152701976486
 30
0.0
 10
13.79912945185798
 20
7.931173567191919
 30
0.0
 10
13.80315239434569
 20
7.931189461024757
 30
0.0
 10
13.80702986220988
 20
7.931200207961893
 30
0.0
 10
13.8108429215239
 20
7.931206137940023
 30
0.0
 10
13.81455814353081
 20
7.931207227490531
 30
0.0
 10
13.81823994103699
 20
7.93120352225209
 30
0.0
 10
13.82188731379605
 20
7.931194921971751
 30
0.0
 10
13.82553367773292
 20
7.931181275975461
 30
0.0
 10
13.829209211179
 20
7.93116220212579
 30
0.0
 10
13.83291489985629
 20
7.931137616951716
 30
0.0
 10
13.83671398181556
 20
7.931106737721876
 30
0.0
 10
13.84057626264048
 20
7.93106978042006
 30
0.0
 10
13.8445990081365
 20
7.931025015407641
 30
0.0
 10
13.84871898028322
 20
7.930974571387253
 30
0.0
 10
13.8538607447073
 20
7.930908788635875
 30
0.0
 10
13.85992695313625
 20
7.930823118773105
 30
0.0
 10
13.86458723361112
 20
7.930744018818742
 30
0.0
 10
13.86691737497426
 20
7.930704461457352
 30
0.0
 11
13.6565595759543
 21
7.929103557577363
 31
0.0
 11
13.66351921952105
 21
7.929234841743195
 31
0.0
 11
13.67047888584284
 21
7.92936491257619
 31
0.0
 11
13.67511210658489
 21
7.929450757824994
 31
0.0
 11
13.6797453399609
 21
7.929535919139979
 31
0.0
 11
13.68480791897707
 21
7.929628123465462
 31
0.0
 11
13.68987051521458
 21
7.929719378485273
 31
0.0
 11
13.69515883479244
 21
7.929813589372301
 31
0.0
 11
13.70044717622858
 21
7.92990656686031
 31
0.0
 11
13.70581693548365
 21
7.929999590408201
 31
0.0
 11
13.7111867208535
 21
7.930091096397504
 31
0.0
 11
13.71655620401401
 21
7.93018092848176
 31
0.0
 11
13.72192571735468
 21
7.930268941480605
 31
0.0
 11
13.72725357666672
 21
7.930354292770047
 31
0.0
 11
13.73258147009335
 21
7.930437492176949
 31
0.0
 11
13.73782889667433
 21
7.930517116986592
 31
0.0
 11
13.74307636092465
 21
7.930594226194259
 31
0.0
 11
13.7481972953671
 21
7.930666806963571
 31
0.0
 11
13.75331826997603
 21
7.930736505513479
 31
0.0
 11
13.75827759103049
 21
7.930800980359194
 31
0.0
 11
13.76323695349299
 21
7.930862200444479
 31
0.0
 11
13.76802037058638
 21
7.930917848712496
 31
0.0
 11
13.77280382907844
 21
7.930969837474194
 31
0.0
 11
13.7774089990433
 21
7.931016068744597
 31
0.0
 11
13.78201420872659
 21
7.93105818441505
 31
0.0
 11
13.78642729937479
 21
7.931094373251866
 31
0.0
 11
13.79084042409158
 21
7.931126166898067
 31
0.0
 11
13.79502546222767
 21
7.931151952083993
 31
0.0
 11
13.79921052618857
 21
7.931173175195553
 31
0.0
 11
13.80315239633427
 21
7.931188696332796
 31
0.0
 11
13.80709428220433
 21
7.931199577222159
 31
0.0
 11
13.81084292177172
 21
7.931205359523389
 31
0.0
 11
13.81459156583952
 21
7.931206424301464
 31
0.0
 11
13.81823993925332
 21
7.931202710409806
 31
0.0
 11
13.82188830459552
 21
7.931194087478658
 31
0.0
 11
13.82553367349391
 21
7.931180406818711
 31
0.0
 11
13.82917901918819
 21
7.931161501639039
 31
0.0
 11
13.83291489268669
 21
7.931136697000098
 31
0.0
 11
13.83665072578731
 21
7.931106387059898
 31
0.0
 11
13.84057625223568
 21
7.931068770419571
 31
0.0
 11
13.84450171820663
 21
7.931025404211069
 31
0.0
 11
13.84871897504018
 21
7.930974194846882
 31
0.0
 11
13.85293619392712
 21
7.930919924396263
 31
0.0
 11
13.85992689803572
 21
7.930819808236876
 31
0.0
 11
13.86691737497426
 21
7.930704461457352
 31
0.0
  0
SPLINE
  5
235
330
2
100
AcDbEntity
  8
GAIKEI
  6
Continuous
 62
     1
100
AcDbSpline
210
0.0
220
0.0
230
1.0
 70
     8
 71
     3
 72
    11
 73
     7
 74
     5
 42
0.0000000001
 43
0.0000000001
 44
0.00000001
 40
0.0
 40
0.0
 40
0.0
 40
0.0
 40
0.0056502950055831
 40
0.0113093372158305
 40
0.0172350355574935
 40
0.0231955720827029
 40
0.0231955720827029
 40
0.0231955720827029
 40
0.0231955720827029
 10
44.48748594071429
 20
11.79866991161758
 30
0.0
 10
44.4856042327203
 20
11.79856808394017
 30
0.0
 10
44.48183790480918
 20
11.79836425607938
 30
0.0
 10
44.47614861132167
 20
11.79754112783391
 30
0.0
 10
44.470442111017
 20
11.79609769141994
 30
0.0
 10
44.46690100187305
 20
11.79429517683193
 30
0.0
 10
44.46512526093425
 20
11.79339127117758
 30
0.0
 11
44.48748594071429
 21
11.79866991161758
 31
0.0
 11
44.48184908230269
 21
11.79828048000369
 31
0.0
 11
44.47625005768912
 21
11.7974584731994
 31
0.0
 11
44.47053416858233
 21
11.79589561296494
 31
0.0
 11
44.46512526093425
 21
11.79339127117758
 31
0.0
  0
SPLINE
  5
236
330
2
100
AcDbEntity
  8
GAIKEI
  6
Continuous
 62
     1
100
AcDbSpline
210
0.0
220
0.0
230
1.0
 70
     8
 71
     3
 72
    13
 73
     9
 74
     7
 42
0.0000000001
 43
0.0000000001
 44
0.00000001
 40
0.0
 40
0.0
 40
0.0
 40
0.0
 40
0.0062126085907418
 40
0.0124134010238921
 40
0.0159710748827728
 40
0.0195431190481758
 40
0.0239930750002048
 40
0.0284819722205919
 40
0.0284819722205919
 40
0.0284819722205919
 40
0.0284819722205919
 10
44.18623982273425
 20
11.93283399027756
 30
0.0
 10
44.18505687110283
 20
11.93453662384956
 30
0.0
 10
44.18269320681119
 20
11.93793864452593
 30
0.0
 10
44.17898514976968
 20
11.94179412070218
 30
0.0
 10
44.17554011921189
 20
11.94461446059534
 30
0.0
 10
44.17226381145176
 20
11.94666380764248
 30
0.0
 10
44.16836565418577
 20
11.94830667854734
 30
0.0
 10
44.16537898441484
 20
11.94854848750843
 30
0.0
 10
44.16387914297428
 20
11.94866991161755
 30
0.0
 11
44.18623982273425
 21
11.93283399027756
 31
0.0
 11
44.18256112076642
 21
11.93784034719213
 31
0.0
 11
44.17826803453948
 21
11.94231463399858
 31
0.0
 11
44.17550034091061
 21
11.94455001478267
 31
0.0
 11
44.17246665027966
 21
11.94643581387366
 31
0.0
 11
44.16832785635011
 21
11.94807060012248
 31
0.0
 11
44.16387914297428
 21
11.94866991161755
 31
0.0
  0
SPLINE
  5
237
330
2
100
AcDbEntity
  8
GAIKEI
  6
Continuous
 62
     1
100
AcDbSpline
210
0.0
220
0.0
230
1.0
 70
     8
 71
     3
 72
    11
 73
     7
 74
     5
 42
0.0000000001
 43
0.0000000001
 44
0.00000001
 40
0.0
 40
0.0
 40
0.0
 40
0.0
 40
0.0056561975233595
 40
0.0113060256999724
 40
0.0172321552604109
 40
0.0231702521816388
 40
0.0231702521816388
 40
0.0231702521816388
 40
0.0231702521816388
 10
44.48748594071429
 20
12.99866991161757
 30
0.0
 10
44.48559940594191
 20
12.9987335916842
 30
0.0
 10
44.48182846176026
 20
12.99886089498881
 30
0.0
 10
44.47615850329035
 20
12.99986893349148
 30
0.0
 10
44.47052175026108
 20
13.00146057010647
 30
0.0
 10
44.46692529801677
 20
13.0031186626462
 30
0.0
 10
44.46512526093425
 20
13.00394855207757
 30
0.0
 11
44.48748594071429
 21
12.99866991161757
 31
0.0
 11
44.48183907098649
 21
12.9989946250631
 31
0.0
 11
44.47626924514674
 21
12.99994204865179
 31
0.0
 11
44.47058097419426
 21
13.00160415561338
 31
0.0
 11
44.46512526093425
 21
13.00394855207757
 31
0.0
  0
SPLINE
  5
238
330
2
100
AcDbEntity
  8
GAIKEI
  6
Continuous
 62
     1
100
AcDbSpline
210
0.0
220
0.0
230
1.0
 70
     8
 71
     3
 72
    13
 73
     9
 74
     7
 42
0.0000000001
 43
0.0000000001
 44
0.00000001
 40
0.0
 40
0.0
 40
0.0
 40
0.0
 40
0.0062823373817999
 40
0.0125541792999826
 40
0.0160885138707512
 40
0.0196361519319897
 40
0.0240418902803999
 40
0.0284832001941523
 40
0.0284832001941523
 40
0.0284832001941523
 40
0.0284832001941523
 10
44.18623982273425
 20
12.86450583297737
 30
0.0
 10
44.18504156732214
 20
12.86278555957899
 30
0.0
 10
44.18264704736898
 20
12.85934789486151
 30
0.0
 10
44.17891017705318
 20
12.85546547511541
 30
0.0
 10
44.17545371373956
 20
12.85264597408236
 30
0.0
 10
44.17218735754826
 20
12.85063687360942
 30
0.0
 10
44.16831718427135
 20
12.8490359951426
 30
0.0
 10
44.16536245078765
 20
12.8487922614039
 30
0.0
 10
44.16387914297428
 20
12.84866991161759
 30
0.0
 11
44.18623982273425
 21
12.86450583297737
 31
0.0
 11
44.18251447904668
 21
12.85944722343588
 31
0.0
 11
44.17816777487667
 21
12.85492592142257
 31
0.0
 11
44.17541219188433
 21
12.85271271216906
 31
0.0
 11
44.17238718710694
 21
12.8508593103936
 31
0.0
 11
44.16828060861485
 21
12.84926351121827
 31
0.0
 11
44.16387914297428
 21
12.84866991161759
 31
0.0
  0
SPLINE
  5
239
330
2
100
AcDbEntity
  8
GAIKEI
  6
Continuous
 62
     1
100
AcDbSpline
210
0.0
220
0.0
230
1.0
 70
    24
 71
     3
 72
     9
 73
     5
 74
     3
 42
0.0000000001
 43
0.0000000001
 44
0.00000001
 40
0.0
 40
0.0
 40
0.0
 40
0.0
 40
0.0013648297196951
 40
0.0027296594395335
 40
0.0027296594395335
 40
0.0027296594395335
 40
0.0027296594395335
 10
43.89340265067426
 20
7.145942938477375
 30
0.0
 10
43.89342282914761
 20
7.146397434000718
 30
0.0
 10
43.89346318609432
 20
7.147306425047489
 30
0.0
 10
43.89350354304098
 20
7.148215416094217
 30
0.0
 10
43.89352372151432
 20
7.148669911617602
 30
0.0
 11
43.89340265067426
 21
7.145942938477375
 31
0.0
 11
43.89346318609432
 21
7.147306425047403
 31
0.0
 11
43.89352372151432
 21
7.148669911617602
 31
0.0
  0
SPLINE
  5
23A
330
2
100
AcDbEntity
  8
GAIKEI
  6
Continuous
 62
     1
100
AcDbSpline
210
0.0
220
0.0
230
1.0
 70
     8
 71
     3
 72
    27
 73
    23
 74
    21
 42
0.0000000001
 43
0.0000000001
 44
0.00000001
 40
0.0
 40
0.0
 40
0.0
 40
0.0
 40
0.0102611001428418
 40
0.0205221864273273
 40
0.0289969710970205
 40
0.0374717346345737
 40
0.0456088749447211
 40
0.053746007608861
 40
0.0614514450613353
 40
0.0691568718946775
 40
0.0763749996306821
 40
0.083593117493705
 40
0.0902810294893516
 40
0.0969689322926672
 40
0.1031300863169842
 40
0.1092912332983404
 40
0.1149926747942925
 40
0.1206941107588972
 40
0.1259767356229258
 40
0.1312593586560892
 40
0.1369826049943149
 40
0.1427058489769909
 40
0.1427058489769909
 40
0.1427058489769909
 40
0.1427058489769909
 10
43.87814884579427
 20
7.004145211037368
 30
0.0
 10
43.87871477627235
 20
7.007518456087254
 30
0.0
 10
43.87984662198689
 20
7.014264944032177
 30
0.0
 10
43.88133857598832
 20
7.023814960915586
 30
0.0
 10
43.88267176139362
 20
7.032786713049887
 30
0.0
 10
43.88383904497636
 20
7.041067155910837
 30
0.0
 10
43.88493233377462
 20
7.049244134812823
 30
0.0
 10
43.88593585384002
 20
7.057174195367281
 30
0.0
 10
43.88686804087476
 20
7.064968035092675
 30
0.0
 10
43.88771398567249
 20
7.072463503058216
 30
0.0
 10
43.88849444141263
 20
7.079802727174723
 30
0.0
 10
43.88919537226593
 20
7.086809185949263
 30
0.0
 10
43.88983768616083
 20
7.09364375153595
 30
0.0
 10
43.89040957768331
 20
7.100130952072134
 30
0.0
 10
43.89093102321675
 20
7.106446224932497
 30
0.0
 10
43.89139354406405
 20
7.112436337890471
 30
0.0
 10
43.89181437492836
 20
7.118275892042646
 30
0.0
 10
43.89218680169622
 20
7.123825265340741
 30
0.0
 10
43.89252435095452
 20
7.129236996740274
 30
0.0
 10
43.89283713738255
 20
7.134657491643054
 30
0.0
 10
43.89313389611859
 20
7.140225995754647
 30
0.0
 10
43.89331307071407
 20
7.1440372909301
 30
0.0
 10
43.89340265067426
 20
7.145942938477375
 30
0.0
 11
43.87814884579427
 21
7.004145211037368
 31
0.0
 11
43.87982764837397
 21
7.014268046520371
 31
0.0
 11
43.88141668689473
 21
7.024405346430384
 31
0.0
 11
43.88266132706371
 21
7.03278823655556
 31
0.0
 11
43.88384458265067
 21
7.041179989893961
 31
0.0
 11
43.88492287933376
 21
7.049245368343164
 31
0.0
 11
43.88594447561945
 21
7.057318116940379
 31
0.0
 11
43.88685956192415
 21
7.064969024352805
 31
0.0
 11
43.8877237184534
 21
7.072625840732584
 31
0.0
 11
43.88848699249797
 21
7.079803499235069
 31
0.0
 11
43.88920551182628
 21
7.086985766032043
 31
0.0
 11
43.88983128536046
 21
7.09364433758661
 31
0.0
 11
43.89041859294127
 21
7.10030640292426
 31
0.0
 11
43.89092558684933
 21
7.106446661620097
 31
0.0
 11
43.89139990476354
 21
7.112589523774758
 31
0.0
 11
43.89180971144139
 21
7.118276218275966
 31
0.0
 11
43.89219151511736
 21
7.123964855967571
 31
0.0
 11
43.89252027208198
 21
7.1292372411027
 31
0.0
 11
43.89282497443514
 21
7.13451106924991
 31
0.0
 11
43.89312793729908
 21
7.140226291299697
 31
0.0
 11
43.89340265067426
 21
7.145942938477375
 31
0.0
  0
SPLINE
  5
23B
330
2
100
AcDbEntity
  8
GAIKEI
  6
Continuous
 62
     1
100
AcDbSpline
210
0.0
220
0.0
230
1.0
 70
    24
 71
     3
 72
     9
 73
     5
 74
     3
 42
0.0000000001
 43
0.0000000001
 44
0.00000001
 40
0.0
 40
0.0
 40
0.0
 40
0.0
 40
0.0027782538627651
 40
0.0055565077253341
 40
0.0055565077253341
 40
0.0055565077253341
 40
0.0055565077253341
 10
43.87720233939427
 20
6.998669911617568
 30
0.0
 10
43.87736009046093
 20
6.999582461520901
 30
0.0
 10
43.87767559259425
 20
7.001407561327496
 30
0.0
 10
43.8779910947276
 20
7.003232661134106
 30
0.0
 10
43.87814884579427
 20
7.004145211037368
 30
0.0
 11
43.87720233939427
 21
6.998669911617568
 31
0.0
 11
43.8776755925943
 21
7.001407561327582
 31
0.0
 11
43.87814884579427
 21
7.004145211037368
 31
0.0
  0
SPLINE
  5
23C
330
2
100
AcDbEntity
  8
GAIKEI
  6
Continuous
 62
     1
100
AcDbSpline
210
0.0
220
0.0
230
1.0
 70
     8
 71
     3
 72
    11
 73
     7
 74
     5
 42
0.0000000001
 43
0.0000000001
 44
0.00000001
 40
0.0
 40
0.0
 40
0.0
 40
0.0
 40
0.0125040894474512
 40
0.0250080121929602
 40
0.0375117954630071
 40
0.0500157454203066
 40
0.0500157454203066
 40
0.0500157454203066
 40
0.0500157454203066
 10
43.87720233939427
 20
7.148669911617602
 30
0.0
 10
43.87737184145359
 20
7.152834540649564
 30
0.0
 10
43.87771082832361
 20
7.161163743754613
 30
0.0
 10
43.87804337097875
 20
7.173663578077935
 30
0.0
 10
43.87825854965521
 20
7.186165936966062
 30
0.0
 10
43.87828464838304
 20
7.194501901514854
 30
0.0
 10
43.8782976903343
 20
7.198669911617557
 30
0.0
 11
43.87720233939427
 21
7.148669911617602
 31
0.0
 11
43.87768151757444
 21
7.161164816278855
 31
0.0
 11
43.87802382158816
 21
7.173664052846888
 31
0.0
 11
43.87822922071245
 21
7.186166149073514
 31
0.0
 11
43.8782976903343
 21
7.198669911617557
 31
0.0
  0
SPLINE
  5
23D
330
2
100
AcDbEntity
  8
GAIKEI
  6
Continuous
 62
     1
100
AcDbSpline
210
0.0
220
0.0
230
1.0
 70
     8
 71
     3
 72
    11
 73
     7
 74
     5
 42
0.0000000001
 43
0.0000000001
 44
0.00000001
 40
0.0
 40
0.0
 40
0.0
 40
0.0
 40
0.0125039595399199
 40
0.0250077523912275
 40
0.0375116655552151
 40
0.0500157454207361
 40
0.0500157454207361
 40
0.0500157454207361
 40
0.0500157454207361
 10
43.8782976903343
 20
7.198669911617557
 30
0.0
 10
43.8782846483688
 20
7.202837924914547
 30
0.0
 10
43.87825854961252
 20
7.211173895851473
 30
0.0
 10
43.87804337071353
 20
7.223676257931174
 30
0.0
 10
43.87771082796992
 20
7.236176089056215
 30
0.0
 10
43.8773718413357
 20
7.24450528577752
 30
0.0
 10
43.87720233939427
 20
7.248669911617568
 30
0.0
 11
43.8782976903343
 21
7.198669911617557
 31
0.0
 11
43.87822922062144
 21
7.211173683743865
 31
0.0
 11
43.87802382118207
 21
7.223675789547868
 31
0.0
 11
43.87768151726612
 21
7.236175016533465
 31
0.0
 11
43.87720233939427
 21
7.248669911617568
 31
0.0
  0
SPLINE
  5
23E
330
2
100
AcDbEntity
  8
GAIKEI
  6
Continuous
 62
     1
100
AcDbSpline
210
0.0
220
0.0
230
1.0
 70
    24
 71
     3
 72
     9
 73
     5
 74
     3
 42
0.0000000001
 43
0.0000000001
 44
0.00000001
 40
0.0
 40
0.0
 40
0.0
 40
0.0
 40
0.0027782538680664
 40
0.0055565077359512
 40
0.0055565077359512
 40
0.0055565077359512
 40
0.0055565077359512
 10
43.8781488458543
 20
7.393194612197405
 30
0.0
 10
43.87799109477765
 20
7.394107162100809
 30
0.0
 10
43.87767559262435
 20
7.395932261907546
 30
0.0
 10
43.87736009047097
 20
7.397757361714283
 30
0.0
 10
43.87720233939427
 20
7.398669911617602
 30
0.0
 11
43.8781488458543
 21
7.393194612197405
 31
0.0
 11
43.87767559262431
 21
7.395932261907589
 31
0.0
 11
43.87720233939427
 21
7.398669911617602
 31
0.0
  0
SPLINE
  5
23F
330
2
100
AcDbEntity
  8
GAIKEI
  6
Continuous
 62
     1
100
AcDbSpline
210
0.0
220
0.0
230
1.0
 70
     8
 71
     3
 72
    29
 73
    25
 74
    23
 42
0.0000000001
 43
0.0000000001
 44
0.00000001
 40
0.0
 40
0.0
 40
0.0
 40
0.0
 40
0.0051770951550773
 40
0.0103541932200224
 40
0.0152110966957641
 40
0.020068001623792
 40
0.0252883078438063
 40
0.0305086179407725
 40
0.0360935525413974
 40
0.0416784915413765
 40
0.0476643760986151
 40
0.0536502662542759
 40
0.060042714546567
 40
0.0664351688669689
 40
0.0732061613392842
 40
0.0799771599599973
 40
0.0870945530878345
 40
0.0942119527247587
 40
0.1016401048385568
 40
0.1090682613431349
 40
0.1167613502310362
 40
0.1244544541549252
 40
0.1335801741723332
 40
0.142705897002474
 40
0.142705897002474
 40
0.142705897002474
 40
0.142705897002474
 10
43.89340265067426
 20
7.251396884757397
 30
0.0
 10
43.89332185343945
 20
7.253120693505351
 30
0.0
 10
43.8931602442889
 20
7.256568311270243
 30
0.0
 10
43.8928941358981
 20
7.261631714839481
 30
0.0
 10
43.8926137410165
 20
7.26658743515324
 30
0.0
 10
43.89231127880711
 20
7.271556291936732
 30
0.0
 10
43.89197942719414
 20
7.276644672953224
 30
0.0
 10
43.89160772332803
 20
7.281973593358571
 30
0.0
 10
43.89120214862893
 20
7.287421934755386
 30
0.0
 10
43.89075012849548
 20
7.293122649932556
 30
0.0
 10
43.89025840513103
 20
7.298954219761185
 30
0.0
 10
43.88971254181775
 20
7.305051267671316
 30
0.0
 10
43.88912129469491
 20
7.311280233497711
 30
0.0
 10
43.88846950457536
 20
7.31776623025604
 30
0.0
 10
43.88776753212353
 20
7.324373901028224
 30
0.0
 10
43.8870000033596
 20
7.331217495369244
 30
0.0
 10
43.88617789526288
 20
7.338171040790456
 30
0.0
 10
43.88528600422874
 20
7.345336775411013
 30
0.0
 10
43.88433570818742
 20
7.352599488879462
 30
0.0
 10
43.8833126553763
 20
7.360046055848556
 30
0.0
 10
43.88222869444308
 20
7.367573253645019
 30
0.0
 10
43.8810092614108
 20
7.375652422632995
 30
0.0
 10
43.87966130465598
 20
7.38419505001967
 30
0.0
 10
43.87865300366416
 20
7.390194758632446
 30
0.0
 10
43.8781488458543
 20
7.393194612197405
 30
0.0
 11
43.89340265067426
 21
7.251396884757397
 31
0.0
 11
43.89315537161644
 21
7.256568071070191
 31
0.0
 11
43.89288497674022
 21
7.261738103153319
 31
0.0
 11
43.89261029493252
 21
7.266587233168579
 31
0.0
 11
43.89231527778884
 21
7.271435169942364
 31
0.0
 11
43.89197551865334
 21
7.276644408026683
 31
0.0
 11
43.89161228001876
 21
7.281852065449001
 31
0.0
 11
43.89119768226959
 21
7.287421590014091
 31
0.0
 11
43.89075622850714
 21
7.292989054684468
 31
0.0
 11
43.89025327764403
 21
7.298953772202409
 31
0.0
 11
43.88971950139636
 21
7.30491581585737
 31
0.0
 11
43.88911545142355
 21
7.311279660570093
 31
0.0
 11
43.88847628111324
 21
7.317640079914994
 31
0.0
 11
43.88776098274627
 21
7.324373183808674
 31
0.0
 11
43.88700632768808
 21
7.3311019963907
 31
0.0
 11
43.88617066681797
 21
7.338170161398792
 31
0.0
 11
43.88529157927854
 21
7.345233063308612
 31
0.0
 11
43.88432783533448
 21
7.352598431063185
 31
0.0
 11
43.88331686586752
 21
7.359957469755883
 31
0.0
 11
43.88222010285329
 21
7.36757197750289
 31
0.0
 11
43.88107277669194
 21
7.375179046013485
 31
0.0
 11
43.87964630422948
 21
7.384192588217374
 31
0.0
 11
43.8781488458543
 21
7.393194612197405
 31
0.0
  0
SPLINE
  5
240
330
2
100
AcDbEntity
  8
GAIKEI
  6
Continuous
 62
     1
100
AcDbSpline
210
0.0
220
0.0
230
1.0
 70
    24
 71
     3
 72
     9
 73
     5
 74
     3
 42
0.0000000001
 43
0.0000000001
 44
0.00000001
 40
0.0
 40
0.0
 40
0.0
 40
0.0
 40
0.0013648297195519
 40
0.002729659439136
 40
0.002729659439136
 40
0.002729659439136
 40
0.002729659439136
 10
43.89352372151432
 20
7.248669911617568
 30
0.0
 10
43.89350354304099
 20
7.249124407140868
 30
0.0
 10
43.89346318609435
 20
7.250033398187468
 30
0.0
 10
43.89342282914765
 20
7.250942389234097
 30
0.0
 10
43.89340265067426
 20
7.251396884757397
 30
0.0
 11
43.89352372151432
 21
7.248669911617568
 31
0.0
 11
43.89346318609432
 21
7.250033398187483
 31
0.0
 11
43.89340265067426
 21
7.251396884757397
 31
0.0
  0
SPLINE
  5
241
330
2
100
AcDbEntity
  8
GAIKEI
  6
Continuous
 62
     1
100
AcDbSpline
210
0.0
220
0.0
230
1.0
 70
    24
 71
     3
 72
     9
 73
     5
 74
     3
 42
0.0000000001
 43
0.0000000001
 44
0.00000001
 40
0.0
 40
0.0
 40
0.0
 40
0.0
 40
0.0013648297197377
 40
0.002729659439531
 40
0.002729659439531
 40
0.002729659439531
 40
0.002729659439531
 10
43.76340265067426
 20
13.51594293847738
 30
0.0
 10
43.76342282914762
 20
13.51639743400075
 30
0.0
 10
43.76346318609427
 20
13.51730642504748
 30
0.0
 10
43.76350354304094
 20
13.51821541609422
 30
0.0
 10
43.76352372151427
 20
13.51866991161761
 30
0.0
 11
43.76340265067426
 21
13.51594293847738
 31
0.0
 11
43.76346318609427
 21
13.51730642504746
 31
0.0
 11
43.76352372151427
 21
13.51866991161761
 31
0.0
  0
SPLINE
  5
242
330
2
100
AcDbEntity
  8
GAIKEI
  6
Continuous
 62
     1
100
AcDbSpline
210
0.0
220
0.0
230
1.0
 70
     8
 71
     3
 72
    27
 73
    23
 74
    21
 42
0.0000000001
 43
0.0000000001
 44
0.00000001
 40
0.0
 40
0.0
 40
0.0
 40
0.0
 40
0.0102611001428511
 40
0.0205221864273278
 40
0.0289969710971251
 40
0.0374717346348068
 40
0.0456088749449541
 40
0.0537460076088613
 40
0.061451445061392
 40
0.0691568718946841
 40
0.0763749996306828
 40
0.0835931174938244
 40
0.0902810294894091
 40
0.0969689322926681
 40
0.1031300863167632
 40
0.1092912332981238
 40
0.1149926747941325
 40
0.1206941107587373
 40
0.1259767356228155
 40
0.1312593586560324
 40
0.1369826049943179
 40
0.1427058489769938
 40
0.1427058489769938
 40
0.1427058489769938
 40
0.1427058489769938
 10
43.74814884579428
 20
13.37414521103737
 30
0.0
 10
43.74871477627239
 20
13.37751845608726
 30
0.0
 10
43.74984662198698
 20
13.3842649440322
 30
0.0
 10
43.75133857598839
 20
13.39381496091562
 30
0.0
 10
43.7526717613935
 20
13.40278671305005
 30
0.0
 10
43.75383904497648
 20
13.41106715591104
 30
0.0
 10
43.75493233377468
 20
13.41924413481298
 30
0.0
 10
43.75593585384009
 20
13.42717419536741
 30
0.0
 10
43.75686804087473
 20
13.43496803509269
 30
0.0
 10
43.75771398567258
 20
13.44246350305821
 30
0.0
 10
43.75849444141259
 20
13.44980272717477
 30
0.0
 10
43.75919537226605
 20
13.45680918594934
 30
0.0
 10
43.75983768616076
 20
13.463643751536
 30
0.0
 10
43.76040957768327
 20
13.47013095207208
 30
0.0
 10
43.76093102321684
 20
13.47644622493234
 30
0.0
 10
43.7613935440642
 20
13.48243633789025
 30
0.0
 10
43.76181437492843
 20
13.48827589204248
 30
0.0
 10
43.76218680169638
 20
13.4938252653406
 30
0.0
 10
43.76252435095449
 20
13.49923699674018
 30
0.0
 10
43.76283713738246
 20
13.50465749164299
 30
0.0
 10
43.76313389611863
 20
13.51022599575465
 30
0.0
 10
43.76331307071406
 20
13.51403729093007
 30
0.0
 10
43.76340265067426
 20
13.51594293847738
 30
0.0
 11
43.74814884579428
 21
13.37414521103737
 31
0.0
 11
43.74982764837404
 21
13.38426804652037
 31
0.0
 11
43.75141668689474
 21
13.39440534643039
 31
0.0
 11
43.75266132706366
 21
13.40278823655568
 31
0.0
 11
43.75384458265074
 21
13.41117998989419
 31
0.0
 11
43.75492287933383
 21
13.41924536834339
 31
0.0
 11
43.75594447561946
 21
13.42731811694038
 31
0.0
 11
43.75685956192415
 21
13.43496902435286
 31
0.0
 11
43.75772371845346
 21
13.44262584073259
 31
0.0
 11
43.75848699249798
 21
13.44980349923507
 31
0.0
 11
43.75920551182633
 21
13.45698576603216
 31
0.0
 11
43.75983128536046
 21
13.46364433758667
 31
0.0
 11
43.76041859294128
 21
13.47030640292426
 31
0.0
 11
43.76092558684939
 21
13.47644666161987
 31
0.0
 11
43.76139990476366
 21
13.48258952377453
 31
0.0
 11
43.76180971144151
 21
13.4882762182758
 31
0.0
 11
43.76219151511747
 21
13.4939648559674
 31
0.0
 11
43.76252027208198
 21
13.49923724110259
 31
0.0
 11
43.76282497443509
 21
13.50451106924986
 31
0.0
 11
43.76312793729908
 21
13.5102262912997
 31
0.0
 11
43.76340265067426
 21
13.51594293847738
 31
0.0
  0
SPLINE
  5
243
330
2
100
AcDbEntity
  8
GAIKEI
  6
Continuous
 62
     1
100
AcDbSpline
210
0.0
220
0.0
230
1.0
 70
    24
 71
     3
 72
     9
 73
     5
 74
     3
 42
0.0000000001
 43
0.0000000001
 44
0.00000001
 40
0.0
 40
0.0
 40
0.0
 40
0.0
 40
0.0027782538625642
 40
0.0055565077253244
 40
0.0055565077253244
 40
0.0055565077253244
 40
0.0055565077253244
 10
43.74720233939433
 20
13.36866991161757
 30
0.0
 10
43.747360090461
 20
13.36958246152085
 30
0.0
 10
43.74767559259433
 20
13.37140756132744
 30
0.0
 10
43.7479910947276
 20
13.37323266113402
 30
0.0
 10
43.74814884579428
 20
13.37414521103737
 30
0.0
 11
43.74720233939433
 21
13.36866991161757
 31
0.0
 11
43.74767559259431
 21
13.37140756132736
 31
0.0
 11
43.74814884579428
 21
13.37414521103737
 31
0.0
  0
SPLINE
  5
244
330
2
100
AcDbEntity
  8
GAIKEI
  6
Continuous
 62
     1
100
AcDbSpline
210
0.0
220
0.0
230
1.0
 70
     8
 71
     3
 72
    11
 73
     7
 74
     5
 42
0.0000000001
 43
0.0000000001
 44
0.00000001
 40
0.0
 40
0.0
 40
0.0
 40
0.0
 40
0.012504089447449
 40
0.0250080121928444
 40
0.0375117954628912
 40
0.0500157454203045
 40
0.0500157454203045
 40
0.0500157454203045
 40
0.0500157454203045
 10
43.74720233939433
 20
13.51866991161761
 30
0.0
 10
43.74737184145362
 20
13.52283454064957
 30
0.0
 10
43.74771082832359
 20
13.53116374375457
 30
0.0
 10
43.74804337097875
 20
13.54366357807785
 30
0.0
 10
43.74825854965524
 20
13.556165936966
 30
0.0
 10
43.74828464838304
 20
13.5645019015148
 30
0.0
 10
43.74829769033431
 20
13.56866991161756
 30
0.0
 11
43.74720233939433
 21
13.51866991161761
 31
0.0
 11
43.74768151757445
 21
13.53116481627886
 31
0.0
 11
43.74802382158816
 21
13.54366405284678
 31
0.0
 11
43.74822922071246
 21
13.5561661490734
 31
0.0
 11
43.74829769033431
 21
13.56866991161756
 31
0.0
  0
SPLINE
  5
245
330
2
100
AcDbEntity
  8
GAIKEI
  6
Continuous
 62
     1
100
AcDbSpline
210
0.0
220
0.0
230
1.0
 70
     8
 71
     3
 72
    11
 73
     7
 74
     5
 42
0.0000000001
 43
0.0000000001
 44
0.00000001
 40
0.0
 40
0.0
 40
0.0
 40
0.0
 40
0.0125039595400339
 40
0.0250077523913414
 40
0.0375116655553275
 40
0.0500157454207327
 40
0.0500157454207327
 40
0.0500157454207327
 40
0.0500157454207327
 10
43.74829769033431
 20
13.56866991161756
 30
0.0
 10
43.74828464836878
 20
13.57283792491459
 30
0.0
 10
43.74825854961244
 20
13.58117389585155
 30
0.0
 10
43.74804337071347
 20
13.59367625793131
 30
0.0
 10
43.74771082796991
 20
13.60617608905627
 30
0.0
 10
43.74737184133573
 20
13.61450528577757
 30
0.0
 10
43.74720233939433
 20
13.61866991161757
 30
0.0
 11
43.74829769033431
 21
13.56866991161756
 31
0.0
 11
43.74822922062139
 21
13.58117368374398
 31
0.0
 11
43.74802382118201
 21
13.59367578954798
 31
0.0
 11
43.74768151726613
 21
13.60617501653358
 31
0.0
 11
43.74720233939433
 21
13.61866991161757
 31
0.0
  0
SPLINE
  5
246
330
2
100
AcDbEntity
  8
GAIKEI
  6
Continuous
 62
     1
100
AcDbSpline
210
0.0
220
0.0
230
1.0
 70
    24
 71
     3
 72
     9
 73
     5
 74
     3
 42
0.0000000001
 43
0.0000000001
 44
0.00000001
 40
0.0
 40
0.0
 40
0.0
 40
0.0
 40
0.0027782538678703
 40
0.0055565077357735
 40
0.0055565077357735
 40
0.0055565077357735
 40
0.0055565077357735
 10
43.7481488458543
 20
13.76319461219758
 30
0.0
 10
43.74799109477764
 20
13.76410716210091
 30
0.0
 10
43.74767559262434
 20
13.76593226190758
 30
0.0
 10
43.74736009047099
 20
13.76775736171426
 30
0.0
 10
43.74720233939433
 20
13.76866991161761
 30
0.0
 11
43.7481488458543
 21
13.76319461219758
 31
0.0
 11
43.74767559262432
 21
13.76593226190759
 31
0.0
 11
43.74720233939433
 21
13.76866991161761
 31
0.0
  0
SPLINE
  5
247
330
2
100
AcDbEntity
  8
GAIKEI
  6
Continuous
 62
     1
100
AcDbSpline
210
0.0
220
0.0
230
1.0
 70
     8
 71
     3
 72
    29
 73
    25
 74
    23
 42
0.0000000001
 43
0.0000000001
 44
0.00000001
 40
0.0
 40
0.0
 40
0.0
 40
0.0
 40
0.005177095154907
 40
0.0103541932196817
 40
0.0152110966954802
 40
0.0200680016235649
 40
0.0252883078436359
 40
0.0305086179403792
 40
0.0360935525409957
 40
0.0416784915412104
 40
0.0476643760985056
 40
0.0536502662541048
 40
0.0600427145462827
 40
0.0664351688665715
 40
0.0732061613388868
 40
0.0799771599597192
 40
0.0870945530875497
 40
0.0942119527244175
 40
0.1016401048383847
 40
0.1090682613429706
 40
0.1167613502308075
 40
0.1244544541546488
 40
0.1335801741721602
 40
0.1427058970024692
 40
0.1427058970024692
 40
0.1427058970024692
 40
0.1427058970024692
 10
43.76340265067426
 20
13.62139688475757
 30
0.0
 10
43.76332185343946
 20
13.62312069350547
 30
0.0
 10
43.76316024428894
 20
13.62656831127026
 30
0.0
 10
43.76289413589806
 20
13.63163171483936
 30
0.0
 10
43.76261374101656
 20
13.63658743515317
 30
0.0
 10
43.76231127880709
 20
13.64155629193666
 30
0.0
 10
43.76197942719419
 20
13.64664467295313
 30
0.0
 10
43.76160772332794
 20
13.65197359335843
 30
0.0
 10
43.76120214862903
 20
13.65742193475526
 30
0.0
 10
43.76075012849539
 20
13.66312264993249
 30
0.0
 10
43.760258405131
 20
13.66895421976122
 30
0.0
 10
43.75971254181775
 20
13.67505126767129
 30
0.0
 10
43.75912129469489
 20
13.68128023349756
 30
0.0
 10
43.75846950457537
 20
13.68776623025587
 30
0.0
 10
43.75776753212355
 20
13.69437390102803
 30
0.0
 10
43.75700000335948
 20
13.70121749536905
 30
0.0
 10
43.75617789526296
 20
13.70817104079037
 30
0.0
 10
43.75528600422867
 20
13.71533677541087
 30
0.0
 10
43.75433570818749
 20
13.72259948887947
 30
0.0
 10
43.75331265537617
 20
13.73004605584849
 30
0.0
 10
43.75222869444317
 20
13.73757325364501
 30
0.0
 10
43.75100926141072
 20
13.7456524226329
 30
0.0
 10
43.74966130465603
 20
13.75419505001971
 30
0.0
 10
43.74865300366417
 20
13.76019475863256
 30
0.0
 10
43.7481488458543
 20
13.76319461219758
 30
0.0
 11
43.76340265067426
 21
13.62139688475757
 31
0.0
 11
43.76315537161644
 21
13.62656807107019
 31
0.0
 11
43.76288497674022
 21
13.63173810315315
 31
0.0
 11
43.76261029493252
 21
13.63658723316847
 31
0.0
 11
43.76231527778884
 21
13.64143516994231
 31
0.0
 11
43.76197551865334
 21
13.64664440802669
 31
0.0
 11
43.76161228001871
 21
13.65185206544878
 31
0.0
 11
43.76119768226965
 21
13.65742159001387
 31
0.0
 11
43.76075622850708
 21
13.66298905468447
 31
0.0
 11
43.76025327764398
 21
13.66895377220247
 31
0.0
 11
43.75971950139637
 21
13.67491581585737
 31
0.0
 11
43.75911545142355
 21
13.68127966056998
 31
0.0
 11
43.75847628111324
 21
13.68764007991477
 31
0.0
 11
43.75776098274627
 21
13.69437318380845
 31
0.0
 11
43.75700632768803
 21
13.70110199639059
 31
0.0
 11
43.75617066681797
 21
13.70817016139868
 31
0.0
 11
43.75529157927855
 21
13.71523306330844
 31
0.0
 11
43.75432783533449
 21
13.72259843106319
 31
0.0
 11
43.75331686586747
 21
13.72995746975589
 31
0.0
 11
43.75222010285329
 21
13.73757197750284
 31
0.0
 11
43.75107277669189
 21
13.74517904601338
 31
0.0
 11
43.74964630422948
 21
13.75419258821738
 31
0.0
 11
43.7481488458543
 21
13.76319461219758
 31
0.0
  0
SPLINE
  5
248
330
2
100
AcDbEntity
  8
GAIKEI
  6
Continuous
 62
     1
100
AcDbSpline
210
0.0
220
0.0
230
1.0
 70
    24
 71
     3
 72
     9
 73
     5
 74
     3
 42
0.0000000001
 43
0.0000000001
 44
0.00000001
 40
0.0
 40
0.0
 40
0.0
 40
0.0
 40
0.0013648297195525
 40
0.0027296594393038
 40
0.0027296594393038
 40
0.0027296594393038
 40
0.0027296594393038
 10
43.76352372151427
 20
13.61866991161757
 30
0.0
 10
43.76350354304094
 20
13.61912440714087
 30
0.0
 10
43.76346318609425
 20
13.62003339818753
 30
0.0
 10
43.7634228291476
 20
13.6209423892342
 30
0.0
 10
43.76340265067426
 20
13.62139688475757
 30
0.0
 11
43.76352372151427
 21
13.61866991161757
 31
0.0
 11
43.76346318609427
 21
13.62003339818748
 31
0.0
 11
43.76340265067426
 21
13.62139688475757
 31
0.0
  0
SPLINE
  5
249
330
2
100
AcDbEntity
  8
GAIKEI
  6
Continuous
 62
     1
100
AcDbSpline
210
0.0
220
0.0
230
1.0
 70
    24
 71
     3
 72
     9
 73
     5
 74
     3
 42
0.0000000001
 43
0.0000000001
 44
0.00000001
 40
0.0
 40
0.0
 40
0.0
 40
0.0
 40
0.0027782538678703
 40
0.0055565077357735
 40
0.0055565077357735
 40
0.0055565077357735
 40
0.0055565077357735
 10
43.7481488458543
 20
7.51319461219758
 30
0.0
 10
43.74799109477764
 20
7.514107162100913
 30
0.0
 10
43.74767559262434
 20
7.515932261907579
 30
0.0
 10
43.74736009047099
 20
7.517757361714259
 30
0.0
 10
43.74720233939433
 20
7.518669911617607
 30
0.0
 11
43.7481488458543
 21
7.51319461219758
 31
0.0
 11
43.74767559262432
 21
7.515932261907593
 31
0.0
 11
43.74720233939433
 21
7.518669911617607
 31
0.0
  0
SPLINE
  5
24A
330
2
100
AcDbEntity
  8
GAIKEI
  6
Continuous
 62
     1
100
AcDbSpline
210
0.0
220
0.0
230
1.0
 70
    24
 71
     3
 72
     9
 73
     5
 74
     3
 42
0.0000000001
 43
0.0000000001
 44
0.00000001
 40
0.0
 40
0.0
 40
0.0
 40
0.0
 40
0.0016671424278519
 40
0.0033342848557646
 40
0.0033342848557646
 40
0.0033342848557646
 40
0.0033342848557646
 10
43.74870419807428
 20
7.509906901837595
 30
0.0
 10
43.74861163937093
 20
7.51045485356424
 30
0.0
 10
43.74842652196432
 20
7.511550757017573
 30
0.0
 10
43.74824140455764
 20
7.512646660470906
 30
0.0
 10
43.7481488458543
 20
7.51319461219758
 30
0.0
 11
43.74870419807428
 21
7.509906901837595
 31
0.0
 11
43.74842652196429
 21
7.511550757017559
 31
0.0
 11
43.7481488458543
 21
7.51319461219758
 31
0.0
  0
SPLINE
  5
24B
330
2
100
AcDbEntity
  8
GAIKEI
  6
Continuous
 62
     1
100
AcDbSpline
210
0.0
220
0.0
230
1.0
 70
    24
 71
     3
 72
     9
 73
     5
 74
     3
 42
0.0000000001
 43
0.0000000001
 44
0.00000001
 40
0.0
 40
0.0
 40
0.0
 40
0.0
 40
0.0013648297196803
 40
0.0027296594394742
 40
0.0027296594394742
 40
0.0027296594394742
 40
0.0027296594394742
 10
43.76340265067426
 20
9.245942938477398
 30
0.0
 10
43.7634228291476
 20
9.246397434000741
 30
0.0
 10
43.76346318609432
 20
9.247306425047483
 30
0.0
 10
43.76350354304094
 20
9.248215416094197
 30
0.0
 10
43.76352372151427
 20
9.248669911617568
 30
0.0
 11
43.76340265067426
 21
9.245942938477398
 31
0.0
 11
43.76346318609427
 21
9.247306425047426
 31
0.0
 11
43.76352372151427
 21
9.248669911617568
 31
0.0
  0
SPLINE
  5
24C
330
2
100
AcDbEntity
  8
GAIKEI
  6
Continuous
 62
     1
100
AcDbSpline
210
0.0
220
0.0
230
1.0
 70
     8
 71
     3
 72
    27
 73
    23
 74
    21
 42
0.0000000001
 43
0.0000000001
 44
0.00000001
 40
0.0
 40
0.0
 40
0.0
 40
0.0
 40
0.0102611001428511
 40
0.0205221864273278
 40
0.028996971097021
 40
0.0374717346345822
 40
0.0456088749447295
 40
0.0537460076087495
 40
0.061451445061287
 40
0.0691568718946857
 40
0.0763749996306843
 40
0.0835931174937128
 40
0.0902810294892975
 40
0.0969689322926697
 40
0.1031300863169914
 40
0.109291233298352
 40
0.1149926747943041
 40
0.1206941107589088
 40
0.1259767356229304
 40
0.1312593586560337
 40
0.1369826049942624
 40
0.1427058489769952
 40
0.1427058489769952
 40
0.1427058489769952
 40
0.1427058489769952
 10
43.74814884579428
 20
9.104145211037391
 30
0.0
 10
43.74871477627239
 20
9.107518456087277
 30
0.0
 10
43.749846621987
 20
9.114264944032186
 30
0.0
 10
43.75133857598828
 20
9.123814960915595
 30
0.0
 10
43.75267176139362
 20
9.132786713049938
 30
0.0
 10
43.75383904497641
 20
9.141067155910846
 30
0.0
 10
43.75493233377471
 20
9.149244134812818
 30
0.0
 10
43.75593585384004
 20
9.157174195367289
 30
0.0
 10
43.75686804087481
 20
9.164968035092641
 30
0.0
 10
43.75771398567263
 20
9.172463503058239
 30
0.0
 10
43.75849444141258
 20
9.179802727174745
 30
0.0
 10
43.75919537226605
 20
9.186809185949272
 30
0.0
 10
43.7598376861608
 20
9.193643751535958
 30
0.0
 10
43.76040957768331
 20
9.200130952072143
 30
0.0
 10
43.76093102321684
 20
9.20644622493252
 30
0.0
 10
43.76139354406419
 20
9.212436337890494
 30
0.0
 10
43.76181437492841
 20
9.218275892042669
 30
0.0
 10
43.76218680169638
 20
9.223825265340764
 30
0.0
 10
43.76252435095446
 20
9.229236996740297
 30
0.0
 10
43.76283713738248
 20
9.234657491643019
 30
0.0
 10
43.76313389611861
 20
9.240225995754641
 30
0.0
 10
43.76331307071406
 20
9.244037290930094
 30
0.0
 10
43.76340265067426
 20
9.245942938477398
 30
0.0
 11
43.74814884579428
 21
9.104145211037391
 31
0.0
 11
43.74982764837404
 21
9.114268046520393
 31
0.0
 11
43.75141668689474
 21
9.124405346430407
 31
0.0
 11
43.75266132706371
 21
9.132788236555583
 31
0.0
 11
43.75384458265074
 21
9.141179989893984
 31
0.0
 11
43.75492287933383
 21
9.149245368343187
 31
0.0
 11
43.75594447561946
 21
9.157318116940288
 31
0.0
 11
43.75685956192421
 21
9.164969024352771
 31
0.0
 11
43.75772371845346
 21
9.172625840732607
 31
0.0
 11
43.75848699249798
 21
9.179803499235092
 31
0.0
 11
43.75920551182633
 21
9.186985766032066
 31
0.0
 11
43.75983128536046
 21
9.193644337586576
 31
0.0
 11
43.76041859294128
 21
9.200306402924283
 31
0.0
 11
43.76092558684939
 21
9.20644666162012
 31
0.0
 11
43.76139990476366
 21
9.212589523774781
 31
0.0
 11
43.76180971144151
 21
9.218276218275988
 31
0.0
 11
43.76219151511747
 21
9.223964855967594
 31
0.0
 11
43.76252027208198
 21
9.229237241102723
 31
0.0
 11
43.76282497443509
 21
9.234511069249876
 31
0.0
 11
43.76312793729908
 21
9.240226291299663
 31
0.0
 11
43.76340265067426
 21
9.245942938477398
 31
0.0
  0
SPLINE
  5
24D
330
2
100
AcDbEntity
  8
GAIKEI
  6
Continuous
 62
     1
100
AcDbSpline
210
0.0
220
0.0
230
1.0
 70
    24
 71
     3
 72
     9
 73
     5
 74
     3
 42
0.0000000001
 43
0.0000000001
 44
0.00000001
 40
0.0
 40
0.0
 40
0.0
 40
0.0
 40
0.0027782538627578
 40
0.0055565077253244
 40
0.0055565077253244
 40
0.0055565077253244
 40
0.0055565077253244
 10
43.74720233939433
 20
9.098669911617591
 30
0.0
 10
43.74736009046097
 20
9.099582461520924
 30
0.0
 10
43.74767559259427
 20
9.101407561327533
 30
0.0
 10
43.7479910947276
 20
9.103232661134114
 30
0.0
 10
43.74814884579428
 20
9.104145211037391
 30
0.0
 11
43.74720233939433
 21
9.098669911617591
 31
0.0
 11
43.74767559259431
 21
9.101407561327604
 31
0.0
 11
43.74814884579428
 21
9.104145211037391
 31
0.0
  0
SPLINE
  5
24E
330
2
100
AcDbEntity
  8
GAIKEI
  6
Continuous
 62
     1
100
AcDbSpline
210
0.0
220
0.0
230
1.0
 70
     8
 71
     3
 72
    11
 73
     7
 74
     5
 42
0.0000000001
 43
0.0000000001
 44
0.00000001
 40
0.0
 40
0.0
 40
0.0
 40
0.0
 40
0.0125040894476195
 40
0.0250080121930716
 40
0.0375117954630048
 40
0.0500157454203612
 40
0.0500157454203612
 40
0.0500157454203612
 40
0.0500157454203612
 10
43.74720233939433
 20
9.248669911617568
 30
0.0
 10
43.74737184145362
 20
9.252834540649587
 30
0.0
 10
43.74771082832357
 20
9.261163743754664
 30
0.0
 10
43.74804337097873
 20
9.273663578077986
 30
0.0
 10
43.74825854965524
 20
9.286165936966099
 30
0.0
 10
43.74828464838304
 20
9.294501901514848
 30
0.0
 10
43.74829769033431
 20
9.298669911617579
 30
0.0
 11
43.74720233939433
 21
9.248669911617568
 31
0.0
 11
43.74768151757445
 21
9.261164816278991
 31
0.0
 11
43.74802382158816
 21
9.273664052846967
 31
0.0
 11
43.74822922071246
 21
9.28616614907348
 31
0.0
 11
43.74829769033431
 21
9.298669911617579
 31
0.0
  0
SPLINE
  5
24F
330
2
100
AcDbEntity
  8
GAIKEI
  6
Continuous
 62
     1
100
AcDbSpline
210
0.0
220
0.0
230
1.0
 70
     8
 71
     3
 72
    11
 73
     7
 74
     5
 42
0.0000000001
 43
0.0000000001
 44
0.00000001
 40
0.0
 40
0.0
 40
0.0
 40
0.0
 40
0.0125039595399202
 40
0.0250077523912278
 40
0.0375116655552138
 40
0.0500157454207326
 40
0.0500157454207326
 40
0.0500157454207326
 40
0.0500157454207326
 10
43.74829769033431
 20
9.298669911617579
 30
0.0
 10
43.74828464836878
 20
9.30283792491457
 30
0.0
 10
43.74825854961243
 20
9.311173895851467
 30
0.0
 10
43.74804337071352
 20
9.323676257931239
 30
0.0
 10
43.74771082796987
 20
9.336176089056195
 30
0.0
 10
43.74737184133572
 20
9.344505285777543
 30
0.0
 10
43.74720233939433
 20
9.348669911617591
 30
0.0
 11
43.74829769033431
 21
9.298669911617579
 31
0.0
 11
43.74822922062139
 21
9.311173683743888
 31
0.0
 11
43.74802382118201
 21
9.323675789547891
 31
0.0
 11
43.74768151726613
 21
9.336175016533488
 31
0.0
 11
43.74720233939433
 21
9.348669911617591
 31
0.0
  0
SPLINE
  5
250
330
2
100
AcDbEntity
  8
GAIKEI
  6
Continuous
 62
     1
100
AcDbSpline
210
0.0
220
0.0
230
1.0
 70
    24
 71
     3
 72
     9
 73
     5
 74
     3
 42
0.0000000001
 43
0.0000000001
 44
0.00000001
 40
0.0
 40
0.0
 40
0.0
 40
0.0
 40
0.0027782538681156
 40
0.0055565077359415
 40
0.0055565077359415
 40
0.0055565077359415
 40
0.0055565077359415
 10
43.7481488458543
 20
9.49319461219737
 30
0.0
 10
43.74799109477763
 20
9.494107162100775
 30
0.0
 10
43.74767559262429
 20
9.495932261907512
 30
0.0
 10
43.74736009047099
 20
9.497757361714249
 30
0.0
 10
43.74720233939433
 20
9.498669911617568
 30
0.0
 11
43.7481488458543
 21
9.49319461219737
 31
0.0
 11
43.74767559262432
 21
9.495932261907611
 31
0.0
 11
43.74720233939433
 21
9.498669911617568
 31
0.0
  0
SPLINE
  5
251
330
2
100
AcDbEntity
  8
GAIKEI
  6
Continuous
 62
     1
100
AcDbSpline
210
0.0
220
0.0
230
1.0
 70
     8
 71
     3
 72
    29
 73
    25
 74
    23
 42
0.0000000001
 43
0.0000000001
 44
0.00000001
 40
0.0
 40
0.0
 40
0.0
 40
0.0
 40
0.0051770951551341
 40
0.0103541932200224
 40
0.0152110966958209
 40
0.0200680016238488
 40
0.0252883078439198
 40
0.0305086179407765
 40
0.0360935525413405
 40
0.0416784915414374
 40
0.0476643760986194
 40
0.0536502662543318
 40
0.0600427145465663
 40
0.0664351688669116
 40
0.073206161339227
 40
0.0799771599599464
 40
0.0870945530878333
 40
0.0942119527247575
 40
0.101640104838563
 40
0.1090682613431975
 40
0.116761350231155
 40
0.1244544541549878
 40
0.1335801741723869
 40
0.1427058970024717
 40
0.1427058970024717
 40
0.1427058970024717
 40
0.1427058970024717
 10
43.76340265067426
 20
9.351396884757363
 30
0.0
 10
43.76332185343943
 20
9.353120693505331
 30
0.0
 10
43.76316024428899
 20
9.356568311270237
 30
0.0
 10
43.76289413589808
 20
9.361631714839475
 30
0.0
 10
43.76261374101652
 20
9.366587435153263
 30
0.0
 10
43.76231127880709
 20
9.371556291936769
 30
0.0
 10
43.76197942719417
 20
9.376644672953233
 30
0.0
 10
43.76160772332797
 20
9.381973593358594
 30
0.0
 10
43.76120214862896
 20
9.387421934755337
 30
0.0
 10
43.76075012849537
 20
9.393122649932507
 30
0.0
 10
43.760258405131
 20
9.398954219761193
 30
0.0
 10
43.75971254181779
 20
9.405051267671296
 30
0.0
 10
43.75912129469489
 20
9.411280233497663
 30
0.0
 10
43.75846950457537
 20
9.417766230255978
 30
0.0
 10
43.75776753212356
 20
9.424373901028133
 30
0.0
 10
43.75700000335948
 20
9.431217495369139
 30
0.0
 10
43.75617789526294
 20
9.438171040790422
 30
0.0
 10
43.75528600422877
 20
9.445336775410964
 30
0.0
 10
43.75433570818734
 20
9.452599488879471
 30
0.0
 10
43.75331265537623
 20
9.46004605584855
 30
0.0
 10
43.75222869444303
 20
9.46757325364507
 30
0.0
 10
43.75100926141074
 20
9.475652422633018
 30
0.0
 10
43.749661304656
 20
9.484195050019678
 30
0.0
 10
43.74865300366418
 20
9.490194758632426
 30
0.0
 10
43.7481488458543
 20
9.49319461219737
 30
0.0
 11
43.76340265067426
 21
9.351396884757363
 31
0.0
 11
43.76315537161644
 21
9.356568071070213
 31
0.0
 11
43.76288497674022
 21
9.361738103153285
 31
0.0
 11
43.76261029493252
 21
9.366587233168601
 31
0.0
 11
43.76231527778884
 21
9.371435169942387
 31
0.0
 11
43.76197551865334
 21
9.376644408026763
 31
0.0
 11
43.76161228001871
 21
9.381852065448967
 31
0.0
 11
43.76119768226959
 21
9.387421590014
 31
0.0
 11
43.76075622850708
 21
9.392989054684491
 31
0.0
 11
43.76025327764398
 21
9.398953772202375
 31
0.0
 11
43.75971950139637
 21
9.404915815857393
 31
0.0
 11
43.75911545142355
 21
9.411279660570059
 31
0.0
 11
43.75847628111324
 21
9.417640079914903
 31
0.0
 11
43.75776098274627
 21
9.424373183808583
 31
0.0
 11
43.75700632768803
 21
9.431101996390609
 31
0.0
 11
43.75617066681797
 21
9.438170161398758
 31
0.0
 11
43.75529157927855
 21
9.445233063308577
 31
0.0
 11
43.75432783533443
 21
9.452598431063151
 31
0.0
 11
43.75331686586747
 21
9.459957469755906
 31
0.0
 11
43.75222010285324
 21
9.46757197750297
 31
0.0
 11
43.75107277669189
 21
9.475179046013508
 31
0.0
 11
43.74964630422948
 21
9.484192588217396
 31
0.0
 11
43.7481488458543
 21
9.49319461219737
 31
0.0
  0
SPLINE
  5
252
330
2
100
AcDbEntity
  8
GAIKEI
  6
Continuous
 62
     1
100
AcDbSpline
210
0.0
220
0.0
230
1.0
 70
    24
 71
     3
 72
     9
 73
     5
 74
     3
 42
0.0000000001
 43
0.0000000001
 44
0.00000001
 40
0.0
 40
0.0
 40
0.0
 40
0.0
 40
0.0013648297195093
 40
0.0027296594390767
 40
0.0027296594390767
 40
0.0027296594390767
 40
0.0027296594390767
 10
43.76352372151427
 20
9.348669911617591
 30
0.0
 10
43.76350354304095
 20
9.349124407140877
 30
0.0
 10
43.76346318609432
 20
9.350033398187477
 30
0.0
 10
43.7634228291476
 20
9.350942389234063
 30
0.0
 10
43.76340265067426
 20
9.351396884757363
 30
0.0
 11
43.76352372151427
 21
9.348669911617591
 31
0.0
 11
43.76346318609427
 21
9.350033398187449
 31
0.0
 11
43.76340265067426
 21
9.351396884757363
 31
0.0
  0
SPLINE
  5
253
330
2
100
AcDbEntity
  8
GAIKEI
  6
Continuous
 62
     1
100
AcDbSpline
210
0.0
220
0.0
230
1.0
 70
     8
 71
     3
 72
    15
 73
    11
 74
     9
 42
0.0000000001
 43
0.0000000001
 44
0.00000001
 40
0.0
 40
0.0
 40
0.0
 40
0.0
 40
0.0396089899724092
 40
0.0791401562391927
 40
0.1027751387767398
 40
0.1264288113206316
 40
0.1500771737312109
 40
0.1737069280787031
 40
0.2132985681173753
 40
0.2529694542287502
 40
0.2529694542287502
 40
0.2529694542287502
 40
0.2529694542287502
 10
44.16720911317429
 20
7.583669911617377
 30
0.0
 10
44.173592211815
 20
7.595249878941217
 30
0.0
 10
44.18634585461333
 20
7.618387067931422
 30
0.0
 10
44.19737972204536
 20
7.651028524676945
 30
0.0
 10
44.20317413962513
 20
7.679438521600374
 30
0.0
 10
44.20463021623921
 20
7.703111961651899
 30
0.0
 10
44.20318948063701
 20
7.726784641565615
 30
0.0
 10
44.19740845816254
 20
7.755214359442376
 30
0.0
 10
44.18637577368457
 20
7.787898671942215
 30
0.0
 10
44.17360226129484
 20
7.811071777846279
 30
0.0
 10
44.16720911317429
 20
7.82266991161758
 30
0.0
 11
44.16720911317429
 21
7.583669911617377
 31
0.0
 11
44.18529200872666
 21
7.618910245060973
 31
0.0
 11
44.19808144261657
 21
7.656315373149467
 31
0.0
 11
44.20262697987931
 21
7.679509133690302
 31
0.0
 11
44.20414729792963
 21
7.703113897965678
 31
0.0
 11
44.20264218758148
 21
7.726714315889566
 31
0.0
 11
44.19811144308255
 21
7.749905643628196
 31
0.0
 11
44.18531778065255
 21
7.78737323339736
 31
0.0
 11
44.16720911317429
 21
7.82266991161758
 31
0.0
  0
SPLINE
  5
254
330
2
100
AcDbEntity
  8
GAIKEI
  6
Continuous
 62
     1
100
AcDbSpline
210
0.0
220
0.0
230
1.0
 70
     8
 71
     3
 72
    15
 73
    11
 74
     9
 42
0.0000000001
 43
0.0000000001
 44
0.00000001
 40
0.0
 40
0.0
 40
0.0
 40
0.0
 40
0.0396433116570494
 40
0.0792083089135688
 40
0.1028467620773669
 40
0.1265037554125729
 40
0.1501459465714262
 40
0.1737694152747718
 40
0.2133300176483328
 40
0.2529694585176501
 40
0.2529694585176501
 40
0.2529694585176501
 40
0.2529694585176501
 10
44.16720911317429
 20
7.344669911617572
 30
0.0
 10
44.17359773548862
 20
7.356259977758796
 30
0.0
 10
44.18636234657154
 20
7.379417220797449
 30
0.0
 10
44.19739633597745
 20
7.41208452090828
 30
0.0
 10
44.2031838494995
 20
7.440509795927027
 30
0.0
 10
44.20463018860829
 20
7.464184123779332
 30
0.0
 10
44.20318003612162
 20
7.487853071313523
 30
0.0
 10
44.19739289699561
 20
7.516266675445734
 30
0.0
 10
44.1863606830327
 20
7.548926323865856
 30
0.0
 10
44.1735972091934
 20
7.572081034916052
 30
0.0
 10
44.16720911317429
 20
7.583669911617377
 30
0.0
 11
44.16720911317429
 21
7.344669911617572
 31
0.0
 11
44.18530619376179
 21
7.379941542705452
 31
0.0
 11
44.19809809820145
 21
7.417381578884189
 31
0.0
 11
44.202636303833
 21
7.440580311503012
 31
0.0
 11
44.20414732265522
 21
7.464189000463861
 31
0.0
 11
44.2026332533635
 21
7.487782661383491
 31
0.0
 11
44.19809619140574
 21
7.510966349179383
 31
0.0
 11
44.18530480198484
 21
7.548401916988254
 31
0.0
 11
44.16720911317429
 21
7.583669911617377
 31
0.0
  0
SPLINE
  5
255
330
2
100
AcDbEntity
  8
GAIKEI
  6
Continuous
 62
     1
100
AcDbSpline
210
0.0
220
0.0
230
1.0
 70
    24
 71
     3
 72
     9
 73
     5
 74
     3
 42
0.0000000001
 43
0.0000000001
 44
0.00000001
 40
0.0
 40
0.0
 40
0.0
 40
0.0
 40
0.0013648297196945
 40
0.0027296594394742
 40
0.0027296594394742
 40
0.0027296594394742
 40
0.0027296594394742
 10
43.76340265067426
 20
6.445942938477386
 30
0.0
 10
43.7634228291476
 20
6.446397434000743
 30
0.0
 10
43.76346318609427
 20
6.447306425047457
 30
0.0
 10
43.76350354304094
 20
6.448215416094186
 30
0.0
 10
43.76352372151427
 20
6.448669911617557
 30
0.0
 11
43.76340265067426
 21
6.445942938477386
 31
0.0
 11
43.76346318609427
 21
6.447306425047415
 31
0.0
 11
43.76352372151427
 21
6.448669911617557
 31
0.0
  0
SPLINE
  5
256
330
2
100
AcDbEntity
  8
GAIKEI
  6
Continuous
 62
     1
100
AcDbSpline
210
0.0
220
0.0
230
1.0
 70
     8
 71
     3
 72
    27
 73
    23
 74
    21
 42
0.0000000001
 43
0.0000000001
 44
0.00000001
 40
0.0
 40
0.0
 40
0.0
 40
0.0
 40
0.0102611001428511
 40
0.0205221864273278
 40
0.028996971097021
 40
0.0374717346345822
 40
0.0456088749447295
 40
0.0537460076087495
 40
0.0614514450613434
 40
0.0691568718946856
 40
0.0763749996306842
 40
0.0835931174937127
 40
0.0902810294892975
 40
0.0969689322926697
 40
0.1031300863169914
 40
0.109291233298352
 40
0.114992674794304
 40
0.1206941107589088
 40
0.1259767356229303
 40
0.1312593586560337
 40
0.1369826049943192
 40
0.1427058489769951
 40
0.1427058489769951
 40
0.1427058489769951
 40
0.1427058489769951
 10
43.74814884579428
 20
6.304145211037379
 30
0.0
 10
43.74871477627239
 20
6.307518456087265
 30
0.0
 10
43.749846621987
 20
6.314264944032174
 30
0.0
 10
43.75133857598828
 20
6.323814960915598
 30
0.0
 10
43.75267176139362
 20
6.332786713049912
 30
0.0
 10
43.75383904497641
 20
6.341067155910849
 30
0.0
 10
43.75493233377475
 20
6.349244134812806
 30
0.0
 10
43.75593585384004
 20
6.357174195367292
 30
0.0
 10
43.75686804087485
 20
6.364968035092658
 30
0.0
 10
43.75771398567258
 20
6.372463503058199
 30
0.0
 10
43.75849444141261
 20
6.379802727174734
 30
0.0
 10
43.75919537226605
 20
6.38680918594926
 30
0.0
 10
43.75983768616079
 20
6.393643751535947
 30
0.0
 10
43.76040957768331
 20
6.400130952072117
 30
0.0
 10
43.76093102321684
 20
6.406446224932508
 30
0.0
 10
43.76139354406419
 20
6.412436337890483
 30
0.0
 10
43.76181437492843
 20
6.418275892042657
 30
0.0
 10
43.7621868016964
 20
6.423825265340781
 30
0.0
 10
43.76252435095446
 20
6.429236996740257
 30
0.0
 10
43.76283713738252
 20
6.434657491643079
 30
0.0
 10
43.7631338961186
 20
6.44022599575463
 30
0.0
 10
43.76331307071409
 20
6.444037290930111
 30
0.0
 10
43.76340265067426
 20
6.445942938477386
 30
0.0
 11
43.74814884579428
 21
6.304145211037379
 31
0.0
 11
43.74982764837404
 21
6.314268046520382
 31
0.0
 11
43.75141668689474
 21
6.324405346430395
 31
0.0
 11
43.75266132706371
 21
6.332788236555572
 31
0.0
 11
43.75384458265074
 21
6.341179989893973
 31
0.0
 11
43.75492287933383
 21
6.349245368343176
 31
0.0
 11
43.75594447561946
 21
6.357318116940277
 31
0.0
 11
43.75685956192421
 21
6.364969024352816
 31
0.0
 11
43.75772371845346
 21
6.372625840732595
 31
0.0
 11
43.75848699249798
 21
6.37980349923508
 31
0.0
 11
43.75920551182633
 21
6.386985766032054
 31
0.0
 11
43.75983128536046
 21
6.393644337586565
 31
0.0
 11
43.76041859294128
 21
6.400306402924272
 31
0.0
 11
43.76092558684939
 21
6.406446661620108
 31
0.0
 11
43.76139990476366
 21
6.412589523774769
 31
0.0
 11
43.76180971144151
 21
6.418276218275977
 31
0.0
 11
43.76219151511747
 21
6.423964855967582
 31
0.0
 11
43.76252027208198
 21
6.429237241102711
 31
0.0
 11
43.76282497443509
 21
6.434511069249865
 31
0.0
 11
43.76312793729908
 21
6.440226291299708
 31
0.0
 11
43.76340265067426
 21
6.445942938477386
 31
0.0
  0
SPLINE
  5
257
330
2
100
AcDbEntity
  8
GAIKEI
  6
Continuous
 62
     1
100
AcDbSpline
210
0.0
220
0.0
230
1.0
 70
    24
 71
     3
 72
     9
 73
     5
 74
     3
 42
0.0000000001
 43
0.0000000001
 44
0.00000001
 40
0.0
 40
0.0
 40
0.0
 40
0.0
 40
0.0027782538627578
 40
0.0055565077253244
 40
0.0055565077253244
 40
0.0055565077253244
 40
0.0055565077253244
 10
43.74720233939433
 20
6.298669911617579
 30
0.0
 10
43.74736009046097
 20
6.299582461520913
 30
0.0
 10
43.74767559259427
 20
6.301407561327522
 30
0.0
 10
43.7479910947276
 20
6.303232661134103
 30
0.0
 10
43.74814884579428
 20
6.304145211037379
 30
0.0
 11
43.74720233939433
 21
6.298669911617579
 31
0.0
 11
43.74767559259431
 21
6.301407561327593
 31
0.0
 11
43.74814884579428
 21
6.304145211037379
 31
0.0
  0
SPLINE
  5
258
330
2
100
AcDbEntity
  8
GAIKEI
  6
Continuous
 62
     1
100
AcDbSpline
210
0.0
220
0.0
230
1.0
 70
     8
 71
     3
 72
    11
 73
     7
 74
     5
 42
0.0000000001
 43
0.0000000001
 44
0.00000001
 40
0.0
 40
0.0
 40
0.0
 40
0.0
 40
0.0125040894476195
 40
0.0250080121930716
 40
0.0375117954630048
 40
0.0500157454203612
 40
0.0500157454203612
 40
0.0500157454203612
 40
0.0500157454203612
 10
43.74720233939433
 20
6.448669911617557
 30
0.0
 10
43.74737184145362
 20
6.452834540649575
 30
0.0
 10
43.74771082832357
 20
6.461163743754667
 30
0.0
 10
43.74804337097873
 20
6.47366357807796
 30
0.0
 10
43.74825854965524
 20
6.486165936966074
 30
0.0
 10
43.74828464838304
 20
6.494501901514837
 30
0.0
 10
43.74829769033431
 20
6.498669911617568
 30
0.0
 11
43.74720233939433
 21
6.448669911617557
 31
0.0
 11
43.74768151757445
 21
6.46116481627898
 31
0.0
 11
43.74802382158816
 21
6.473664052846956
 31
0.0
 11
43.74822922071246
 21
6.486166149073469
 31
0.0
 11
43.74829769033431
 21
6.498669911617568
 31
0.0
  0
SPLINE
  5
259
330
2
100
AcDbEntity
  8
GAIKEI
  6
Continuous
 62
     1
100
AcDbSpline
210
0.0
220
0.0
230
1.0
 70
     8
 71
     3
 72
    11
 73
     7
 74
     5
 42
0.0000000001
 43
0.0000000001
 44
0.00000001
 40
0.0
 40
0.0
 40
0.0
 40
0.0
 40
0.0125039595399202
 40
0.0250077523912278
 40
0.0375116655552138
 40
0.0500157454207326
 40
0.0500157454207326
 40
0.0500157454207326
 40
0.0500157454207326
 10
43.74829769033431
 20
6.498669911617568
 30
0.0
 10
43.74828464836878
 20
6.502837924914558
 30
0.0
 10
43.74825854961243
 20
6.511173895851456
 30
0.0
 10
43.74804337071352
 20
6.523676257931214
 30
0.0
 10
43.74771082796987
 20
6.536176089056198
 30
0.0
 10
43.74737184133572
 20
6.544505285777532
 30
0.0
 10
43.74720233939433
 20
6.548669911617579
 30
0.0
 11
43.74829769033431
 21
6.498669911617568
 31
0.0
 11
43.74822922062139
 21
6.511173683743876
 31
0.0
 11
43.74802382118201
 21
6.52367578954788
 31
0.0
 11
43.74768151726613
 21
6.536175016533476
 31
0.0
 11
43.74720233939433
 21
6.548669911617579
 31
0.0
  0
SPLINE
  5
25A
330
2
100
AcDbEntity
  8
GAIKEI
  6
Continuous
 62
     1
100
AcDbSpline
210
0.0
220
0.0
230
1.0
 70
    24
 71
     3
 72
     9
 73
     5
 74
     3
 42
0.0000000001
 43
0.0000000001
 44
0.00000001
 40
0.0
 40
0.0
 40
0.0
 40
0.0
 40
0.0027782538680432
 40
0.0055565077358855
 40
0.0055565077358855
 40
0.0055565077358855
 40
0.0055565077358855
 10
43.7481488458543
 20
6.693194612197416
 30
0.0
 10
43.74799109477764
 20
6.694107162100806
 30
0.0
 10
43.74767559262432
 20
6.695932261907529
 30
0.0
 10
43.74736009047099
 20
6.697757361714238
 30
0.0
 10
43.74720233939433
 20
6.698669911617557
 30
0.0
 11
43.7481488458543
 21
6.693194612197416
 31
0.0
 11
43.74767559262432
 21
6.6959322619076
 31
0.0
 11
43.74720233939433
 21
6.698669911617557
 31
0.0
  0
SPLINE
  5
25B
330
2
100
AcDbEntity
  8
GAIKEI
  6
Continuous
 62
     1
100
AcDbSpline
210
0.0
220
0.0
230
1.0
 70
     8
 71
     3
 72
    29
 73
    25
 74
    23
 42
0.0000000001
 43
0.0000000001
 44
0.00000001
 40
0.0
 40
0.0
 40
0.0
 40
0.0
 40
0.0051770951550773
 40
0.0103541932199656
 40
0.0152110966957641
 40
0.020068001623792
 40
0.0252883078439197
 40
0.0305086179407197
 40
0.0360935525412837
 40
0.0416784915413807
 40
0.0476643760986193
 40
0.053650266254275
 40
0.0600427145465095
 40
0.0664351688669114
 40
0.0732061613392833
 40
0.0799771599600027
 40
0.0870945530879461
 40
0.0942119527247575
 40
0.101640104838563
 40
0.1090682613431411
 40
0.1167613502311549
 40
0.1244544541549315
 40
0.1335801741723306
 40
0.1427058970024715
 40
0.1427058970024715
 40
0.1427058970024715
 40
0.1427058970024715
 10
43.76340265067426
 20
6.551396884757409
 30
0.0
 10
43.76332185343946
 20
6.553120693505348
 30
0.0
 10
43.76316024428894
 20
6.556568311270254
 30
0.0
 10
43.76289413589808
 20
6.56163171483945
 30
0.0
 10
43.76261374101654
 20
6.566587435153252
 30
0.0
 10
43.76231127880709
 20
6.571556291936772
 30
0.0
 10
43.76197942719423
 20
6.576644672953278
 30
0.0
 10
43.76160772332792
 20
6.581973593358554
 30
0.0
 10
43.76120214862893
 20
6.587421934755326
 30
0.0
 10
43.76075012849542
 20
6.593122649932524
 30
0.0
 10
43.760258405131
 20
6.598954219761196
 30
0.0
 10
43.75971254181776
 20
6.605051267671314
 30
0.0
 10
43.75912129469488
 20
6.611280233497652
 30
0.0
 10
43.7584695045754
 20
6.617766230256037
 30
0.0
 10
43.75776753212356
 20
6.624373901028207
 30
0.0
 10
43.75700000335945
 20
6.63121749536927
 30
0.0
 10
43.75617789526297
 20
6.638171040790552
 30
0.0
 10
43.75528600422874
 20
6.645336775411038
 30
0.0
 10
43.75433570818737
 20
6.652599488879474
 30
0.0
 10
43.7533126553762
 20
6.660046055848567
 30
0.0
 10
43.75222869444304
 20
6.667573253645088
 30
0.0
 10
43.75100926141074
 20
6.675652422633035
 30
0.0
 10
43.74966130465598
 20
6.684195050019681
 30
0.0
 10
43.74865300366418
 20
6.690194758632472
 30
0.0
 10
43.7481488458543
 20
6.693194612197416
 30
0.0
 11
43.76340265067426
 21
6.551396884757409
 31
0.0
 11
43.76315537161644
 21
6.556568071070202
 31
0.0
 11
43.76288497674022
 21
6.561738103153274
 31
0.0
 11
43.76261029493252
 21
6.56658723316859
 31
0.0
 11
43.76231527778884
 21
6.571435169942375
 31
0.0
 11
43.76197551865334
 21
6.576644408026808
 31
0.0
 11
43.76161228001871
 21
6.581852065448956
 31
0.0
 11
43.76119768226959
 21
6.587421590013988
 31
0.0
 11
43.76075622850708
 21
6.59298905468448
 31
0.0
 11
43.76025327764398
 21
6.59895377220242
 31
0.0
 11
43.75971950139637
 21
6.604915815857381
 31
0.0
 11
43.75911545142355
 21
6.611279660570048
 31
0.0
 11
43.75847628111324
 21
6.617640079914949
 31
0.0
 11
43.75776098274627
 21
6.624373183808685
 31
0.0
 11
43.75700632768803
 21
6.631101996390711
 31
0.0
 11
43.75617066681797
 21
6.638170161398917
 31
0.0
 11
43.75529157927855
 21
6.645233063308623
 31
0.0
 11
43.75432783533443
 21
6.652598431063196
 31
0.0
 11
43.75331686586747
 21
6.659957469755894
 31
0.0
 11
43.75222010285324
 21
6.667571977503016
 31
0.0
 11
43.75107277669189
 21
6.675179046013496
 31
0.0
 11
43.74964630422948
 21
6.684192588217385
 31
0.0
 11
43.7481488458543
 21
6.693194612197416
 31
0.0
  0
SPLINE
  5
25C
330
2
100
AcDbEntity
  8
GAIKEI
  6
Continuous
 62
     1
100
AcDbSpline
210
0.0
220
0.0
230
1.0
 70
    24
 71
     3
 72
     9
 73
     5
 74
     3
 42
0.0000000001
 43
0.0000000001
 44
0.00000001
 40
0.0
 40
0.0
 40
0.0
 40
0.0
 40
0.0013648297195235
 40
0.0027296594391335
 40
0.0027296594391335
 40
0.0027296594391335
 40
0.0027296594391335
 10
43.76352372151427
 20
6.548669911617579
 30
0.0
 10
43.76350354304094
 20
6.549124407140865
 30
0.0
 10
43.76346318609427
 20
6.55003339818748
 30
0.0
 10
43.76342282914762
 20
6.550942389234108
 30
0.0
 10
43.76340265067426
 20
6.551396884757409
 30
0.0
 11
43.76352372151427
 21
6.548669911617579
 31
0.0
 11
43.76346318609427
 21
6.550033398187437
 31
0.0
 11
43.76340265067426
 21
6.551396884757409
 31
0.0
  0
SPLINE
  5
25D
330
2
100
AcDbEntity
  8
GAIKEI
  6
Continuous
 62
     1
100
AcDbSpline
210
0.0
220
0.0
230
1.0
 70
    24
 71
     3
 72
     9
 73
     5
 74
     3
 42
0.0000000001
 43
0.0000000001
 44
0.00000001
 40
0.0
 40
0.0
 40
0.0
 40
0.0
 40
0.0013648297197532
 40
0.0027296594395335
 40
0.0027296594395335
 40
0.0027296594395335
 40
0.0027296594395335
 10
43.89340265067426
 20
13.96594293847737
 30
0.0
 10
43.89342282914762
 20
13.96639743400074
 30
0.0
 10
43.89346318609433
 20
13.96730642504749
 30
0.0
 10
43.89350354304099
 20
13.96821541609422
 30
0.0
 10
43.89352372151432
 20
13.96866991161759
 30
0.0
 11
43.89340265067426
 21
13.96594293847737
 31
0.0
 11
43.89346318609432
 21
13.96730642504745
 31
0.0
 11
43.89352372151432
 21
13.96866991161759
 31
0.0
  0
SPLINE
  5
25E
330
2
100
AcDbEntity
  8
GAIKEI
  6
Continuous
 62
     1
100
AcDbSpline
210
0.0
220
0.0
230
1.0
 70
     8
 71
     3
 72
    27
 73
    23
 74
    21
 42
0.0000000001
 43
0.0000000001
 44
0.00000001
 40
0.0
 40
0.0
 40
0.0
 40
0.0
 40
0.0102611001427857
 40
0.020522186427215
 40
0.0289969710970208
 40
0.0374717346346865
 40
0.0456088749448339
 40
0.053746007608861
 40
0.0614514450613917
 40
0.0691568718946774
 40
0.0763749996306821
 40
0.0835931174938237
 40
0.0902810294894031
 40
0.0969689322927237
 40
0.1031300863167575
 40
0.1092912332981747
 40
0.1149926747941309
 40
0.120694110758849
 40
0.1259767356228139
 40
0.131259358656034
 40
0.1369826049943164
 40
0.1427058489769924
 40
0.1427058489769924
 40
0.1427058489769924
 40
0.1427058489769924
 10
43.87814884579427
 20
13.82414521103736
 30
0.0
 10
43.87871477627236
 20
13.82751845608723
 30
0.0
 10
43.87984662198689
 20
13.83426494403211
 30
0.0
 10
43.88133857598833
 20
13.84381496091552
 30
0.0
 10
43.8826717613936
 20
13.85278671304988
 30
0.0
 10
43.88383904497634
 20
13.8610671559109
 30
0.0
 10
43.88493233377462
 20
13.86924413481289
 30
0.0
 10
43.88593585384008
 20
13.87717419536739
 30
0.0
 10
43.88686804087476
 20
13.88496803509267
 30
0.0
 10
43.88771398567252
 20
13.89246350305822
 30
0.0
 10
43.88849444141257
 20
13.89980272717474
 30
0.0
 10
43.88919537226607
 20
13.90680918594931
 30
0.0
 10
43.88983768616067
 20
13.91364375153601
 30
0.0
 10
43.89040957768331
 20
13.92013095207207
 30
0.0
 10
43.8909310232168
 20
13.9264462249324
 30
0.0
 10
43.89139354406411
 20
13.93243633789026
 30
0.0
 10
43.89181437492841
 20
13.93827589204249
 30
0.0
 10
43.8921868016964
 20
13.94382526534062
 30
0.0
 10
43.89252435095445
 20
13.94923699674018
 30
0.0
 10
43.8928371373826
 20
13.954657491643
 30
0.0
 10
43.89313389611857
 20
13.96022599575462
 30
0.0
 10
43.89331307071407
 20
13.96403729093009
 30
0.0
 10
43.89340265067426
 20
13.96594293847737
 30
0.0
 11
43.87814884579427
 21
13.82414521103736
 31
0.0
 11
43.87982764837397
 21
13.83426804652031
 31
0.0
 11
43.88141668689473
 21
13.84440534643026
 31
0.0
 11
43.88266132706371
 21
13.85278823655555
 31
0.0
 11
43.88384458265067
 21
13.86117998989407
 31
0.0
 11
43.88492287933376
 21
13.86924536834327
 31
0.0
 11
43.88594447561945
 21
13.87731811694037
 31
0.0
 11
43.88685956192415
 21
13.88496902435285
 31
0.0
 11
43.8877237184534
 21
13.89262584073257
 31
0.0
 11
43.88848699249797
 21
13.89980349923506
 31
0.0
 11
43.88920551182633
 21
13.90698576603215
 31
0.0
 11
43.8898312853604
 21
13.91364433758666
 31
0.0
 11
43.89041859294127
 21
13.92030640292431
 31
0.0
 11
43.89092558684933
 21
13.92644666161986
 31
0.0
 11
43.8913999047636
 21
13.93258952377458
 31
0.0
 11
43.89180971144151
 21
13.93827621827579
 31
0.0
 11
43.89219151511747
 21
13.9439648559675
 31
0.0
 11
43.89252027208198
 21
13.94923724110258
 31
0.0
 11
43.89282497443514
 21
13.95451106924985
 31
0.0
 11
43.89312793729908
 21
13.96022629129969
 31
0.0
 11
43.89340265067426
 21
13.96594293847737
 31
0.0
  0
SPLINE
  5
25F
330
2
100
AcDbEntity
  8
GAIKEI
  6
Continuous
 62
     1
100
AcDbSpline
210
0.0
220
0.0
230
1.0
 70
    24
 71
     3
 72
     9
 73
     5
 74
     3
 42
0.0000000001
 43
0.0000000001
 44
0.00000001
 40
0.0
 40
0.0
 40
0.0
 40
0.0
 40
0.002778253862597
 40
0.0055565077253341
 40
0.0055565077253341
 40
0.0055565077253341
 40
0.0055565077253341
 10
43.87720233939427
 20
13.81866991161756
 30
0.0
 10
43.87736009046093
 20
13.81958246152084
 30
0.0
 10
43.87767559259427
 20
13.82140756132745
 30
0.0
 10
43.8779910947276
 20
13.82323266113403
 30
0.0
 10
43.87814884579427
 20
13.82414521103736
 30
0.0
 11
43.87720233939427
 21
13.81866991161756
 31
0.0
 11
43.8776755925943
 21
13.8214075613274
 31
0.0
 11
43.87814884579427
 21
13.82414521103736
 31
0.0
  0
SPLINE
  5
260
330
2
100
AcDbEntity
  8
GAIKEI
  6
Continuous
 62
     1
100
AcDbSpline
210
0.0
220
0.0
230
1.0
 70
     8
 71
     3
 72
    11
 73
     7
 74
     5
 42
0.0000000001
 43
0.0000000001
 44
0.00000001
 40
0.0
 40
0.0
 40
0.0
 40
0.0
 40
0.0125040894474512
 40
0.0250080121928466
 40
0.0375117954628934
 40
0.0500157454203635
 40
0.0500157454203635
 40
0.0500157454203635
 40
0.0500157454203635
 10
43.87720233939427
 20
13.96866991161759
 30
0.0
 10
43.8773718414536
 20
13.97283454064957
 30
0.0
 10
43.8777108283236
 20
13.98116374375456
 30
0.0
 10
43.87804337097875
 20
13.99366357807784
 30
0.0
 10
43.87825854965521
 20
14.00616593696597
 30
0.0
 10
43.87828464838304
 20
14.01450190151485
 30
0.0
 10
43.8782976903343
 20
14.0186699116176
 30
0.0
 11
43.87720233939427
 21
13.96866991161759
 31
0.0
 11
43.87768151757444
 21
13.98116481627885
 31
0.0
 11
43.87802382158816
 21
13.99366405284677
 31
0.0
 11
43.87822922071245
 21
14.00616614907339
 31
0.0
 11
43.8782976903343
 21
14.0186699116176
 31
0.0
  0
SPLINE
  5
261
330
2
100
AcDbEntity
  8
GAIKEI
  6
Continuous
 62
     1
100
AcDbSpline
210
0.0
220
0.0
230
1.0
 70
     8
 71
     3
 72
    11
 73
     7
 74
     5
 42
0.0000000001
 43
0.0000000001
 44
0.00000001
 40
0.0
 40
0.0
 40
0.0
 40
0.0
 40
0.0125039595399768
 40
0.0250077523912852
 40
0.0375116655552713
 40
0.0500157454206787
 40
0.0500157454206787
 40
0.0500157454206787
 40
0.0500157454206787
 10
43.8782976903343
 20
14.0186699116176
 30
0.0
 10
43.8782846483688
 20
14.02283792491462
 30
0.0
 10
43.87825854961249
 20
14.03117389585155
 30
0.0
 10
43.87804337071346
 20
14.04367625793129
 30
0.0
 10
43.87771082796992
 20
14.05617608905626
 30
0.0
 10
43.8773718413357
 20
14.06450528577756
 30
0.0
 10
43.87720233939427
 20
14.06866991161756
 30
0.0
 11
43.8782976903343
 21
14.0186699116176
 31
0.0
 11
43.87822922062144
 21
14.03117368374397
 31
0.0
 11
43.87802382118201
 21
14.04367578954797
 31
0.0
 11
43.87768151726612
 21
14.05617501653357
 31
0.0
 11
43.87720233939427
 21
14.06866991161756
 31
0.0
  0
SPLINE
  5
262
330
2
100
AcDbEntity
  8
GAIKEI
  6
Continuous
 62
     1
100
AcDbSpline
210
0.0
220
0.0
230
1.0
 70
    24
 71
     3
 72
     9
 73
     5
 74
     3
 42
0.0000000001
 43
0.0000000001
 44
0.00000001
 40
0.0
 40
0.0
 40
0.0
 40
0.0
 40
0.0027782538678752
 40
0.0055565077357832
 40
0.0055565077357832
 40
0.0055565077357832
 40
0.0055565077357832
 10
43.8781488458543
 20
14.21319461219757
 30
0.0
 10
43.87799109477763
 20
14.2141071621009
 30
0.0
 10
43.87767559262431
 20
14.21593226190757
 30
0.0
 10
43.87736009047095
 20
14.21775736171425
 30
0.0
 10
43.87720233939427
 20
14.21866991161759
 30
0.0
 11
43.8781488458543
 21
14.21319461219757
 31
0.0
 11
43.87767559262431
 21
14.21593226190758
 31
0.0
 11
43.87720233939427
 21
14.21866991161759
 31
0.0
  0
SPLINE
  5
263
330
2
100
AcDbEntity
  8
GAIKEI
  6
Continuous
 62
     1
100
AcDbSpline
210
0.0
220
0.0
230
1.0
 70
     8
 71
     3
 72
    29
 73
    25
 74
    23
 42
0.0000000001
 43
0.0000000001
 44
0.00000001
 40
0.0
 40
0.0
 40
0.0
 40
0.0
 40
0.0051770951549043
 40
0.010354193219682
 40
0.0152110966955372
 40
0.0200680016235652
 40
0.0252883078436361
 40
0.0305086179404362
 40
0.0360935525411135
 40
0.041678491541206
 40
0.0476643760985578
 40
0.0536502662543319
 40
0.0600427145465664
 40
0.0664351688667986
 40
0.0732061613390575
 40
0.079977159959601
 40
0.0870945530875444
 40
0.0942119527244757
 40
0.1016401048383865
 40
0.1090682613429646
 40
0.116761350230866
 40
0.124454454154634
 40
0.1335801741721632
 40
0.1427058970024723
 40
0.1427058970024723
 40
0.1427058970024723
 40
0.1427058970024723
 10
43.89340265067426
 20
14.07139688475756
 30
0.0
 10
43.89332185343948
 20
14.07312069350544
 30
0.0
 10
43.89316024428903
 20
14.07656831127023
 30
0.0
 10
43.89289413589804
 20
14.08163171483937
 30
0.0
 10
43.89261374101653
 20
14.08658743515316
 30
0.0
 10
43.8923112788071
 20
14.09155629193668
 30
0.0
 10
43.89197942719419
 20
14.09664467295316
 30
0.0
 10
43.89160772332798
 20
14.10197359335849
 30
0.0
 10
43.89120214862894
 20
14.10742193475528
 30
0.0
 10
43.89075012849545
 20
14.11312264993256
 30
0.0
 10
43.89025840513108
 20
14.11895421976131
 30
0.0
 10
43.88971254181773
 20
14.12505126767146
 30
0.0
 10
43.88912129469491
 20
14.13128023349782
 30
0.0
 10
43.88846950457535
 20
14.13776623025606
 30
0.0
 10
43.88776753212357
 20
14.14437390102813
 30
0.0
 10
43.8870000033595
 20
14.15121749536908
 30
0.0
 10
43.88617789526302
 20
14.15817104079035
 30
0.0
 10
43.88528600422868
 20
14.16533677541089
 30
0.0
 10
43.88433570818747
 20
14.17259948887943
 30
0.0
 10
43.88331265537625
 20
14.18004605584852
 30
0.0
 10
43.88222869444307
 20
14.18757325364498
 30
0.0
 10
43.88100926141089
 20
14.19565242263294
 30
0.0
 10
43.87966130465597
 20
14.20419505001966
 30
0.0
 10
43.87865300366415
 20
14.21019475863257
 30
0.0
 10
43.8781488458543
 20
14.21319461219757
 30
0.0
 11
43.89340265067426
 21
14.07139688475756
 31
0.0
 11
43.8931553716165
 21
14.07656807107018
 31
0.0
 11
43.89288497674022
 21
14.08173810315314
 31
0.0
 11
43.89261029493252
 21
14.08658723316851
 31
0.0
 11
43.89231527778884
 21
14.0914351699423
 31
0.0
 11
43.89197551865334
 21
14.09664440802667
 31
0.0
 11
43.8916122800187
 21
14.10185206544882
 31
0.0
 11
43.89119768226959
 21
14.10742159001397
 31
0.0
 11
43.89075622850714
 21
14.11298905468446
 31
0.0
 11
43.89025327764403
 21
14.11895377220252
 31
0.0
 11
43.88971950139636
 21
14.12491581585759
 31
0.0
 11
43.88911545142355
 21
14.13127966057025
 31
0.0
 11
43.88847628111324
 21
14.13764007991499
 31
0.0
 11
43.88776098274627
 21
14.14437318380861
 31
0.0
 11
43.88700632768808
 21
14.15110199639046
 31
0.0
 11
43.88617066681803
 21
14.15817016139867
 31
0.0
 11
43.88529157927854
 21
14.16523306330849
 31
0.0
 11
43.88432783533448
 21
14.17259843106318
 31
0.0
 11
43.88331686586752
 21
14.17995746975587
 31
0.0
 11
43.88222010285329
 21
14.18757197750288
 31
0.0
 11
43.88107277669201
 21
14.19517904601336
 31
0.0
 11
43.87964630422948
 21
14.20419258821737
 31
0.0
 11
43.8781488458543
 21
14.21319461219757
 31
0.0
  0
SPLINE
  5
264
330
2
100
AcDbEntity
  8
GAIKEI
  6
Continuous
 62
     1
100
AcDbSpline
210
0.0
220
0.0
230
1.0
 70
    24
 71
     3
 72
     9
 73
     5
 74
     3
 42
0.0000000001
 43
0.0000000001
 44
0.00000001
 40
0.0
 40
0.0
 40
0.0
 40
0.0
 40
0.0013648297195525
 40
0.0027296594393063
 40
0.0027296594393063
 40
0.0027296594393063
 40
0.0027296594393063
 10
43.89352372151432
 20
14.06866991161756
 30
0.0
 10
43.89350354304101
 20
14.06912440714086
 30
0.0
 10
43.89346318609438
 20
14.07003339818755
 30
0.0
 10
43.89342282914762
 20
14.0709423892342
 30
0.0
 10
43.89340265067426
 20
14.07139688475756
 30
0.0
 11
43.89352372151432
 21
14.06866991161756
 31
0.0
 11
43.89346318609432
 21
14.07003339818747
 31
0.0
 11
43.89340265067426
 21
14.07139688475756
 31
0.0
  0
SPLINE
  5
265
330
2
100
AcDbEntity
  8
GAIKEI
  6
Continuous
 62
     1
100
AcDbSpline
210
0.0
220
0.0
230
1.0
 70
    24
 71
     3
 72
     9
 73
     5
 74
     3
 42
0.0000000001
 43
0.0000000001
 44
0.00000001
 40
0.0
 40
0.0
 40
0.0
 40
0.0
 40
0.0013648297196803
 40
0.0027296594391335
 40
0.0027296594391335
 40
0.0027296594391335
 40
0.0027296594391335
 10
43.76340265067426
 20
8.905942938477537
 30
0.0
 10
43.7634228291476
 20
8.906397434000879
 30
0.0
 10
43.76346318609427
 20
8.907306425047494
 30
0.0
 10
43.76350354304093
 20
8.908215416094094
 30
0.0
 10
43.76352372151427
 20
8.908669911617366
 30
0.0
 11
43.76340265067426
 21
8.905942938477537
 31
0.0
 11
43.76346318609427
 21
8.907306425047565
 31
0.0
 11
43.76352372151427
 21
8.908669911617366
 31
0.0
  0
SPLINE
  5
266
330
2
100
AcDbEntity
  8
GAIKEI
  6
Continuous
 62
     1
100
AcDbSpline
210
0.0
220
0.0
230
1.0
 70
     8
 71
     3
 72
    27
 73
    23
 74
    21
 42
0.0000000001
 43
0.0000000001
 44
0.00000001
 40
0.0
 40
0.0
 40
0.0
 40
0.0
 40
0.010261100142739
 40
0.0205221864268787
 40
0.0289969710967323
 40
0.0374717346343013
 40
0.0456088749444487
 40
0.0537460076086378
 40
0.0614514450611121
 40
0.0691568718944607
 40
0.0763749996304593
 40
0.083593117493601
 40
0.0902810294892989
 40
0.0969689322925012
 40
0.103130086316535
 40
0.1092912332979435
 40
0.1149926747938956
 40
0.1206941107585041
 40
0.1259767356224724
 40
0.1312593586558628
 40
0.1369826049942618
 40
0.1427058489769378
 40
0.1427058489769378
 40
0.1427058489769378
 40
0.1427058489769378
 10
43.74814884579428
 20
8.764145211037586
 30
0.0
 10
43.74871477627237
 20
8.767518456087415
 30
0.0
 10
43.74984662198696
 20
8.774264944032211
 30
0.0
 10
43.75133857598839
 20
8.783814960915506
 30
0.0
 10
43.75267176139352
 20
8.792786713049807
 30
0.0
 10
43.75383904497645
 20
8.801067155910743
 30
0.0
 10
43.75493233377468
 20
8.809244134812786
 30
0.0
 10
43.75593585384005
 20
8.8171741953673
 30
0.0
 10
43.75686804087471
 20
8.824968035092652
 30
0.0
 10
43.75771398567263
 20
8.832463503058193
 30
0.0
 10
43.75849444141259
 20
8.83980272717477
 30
0.0
 10
43.75919537226602
 20
8.846809185949325
 30
0.0
 10
43.7598376861608
 20
8.853643751536054
 30
0.0
 10
43.76040957768327
 20
8.860130952072125
 30
0.0
 10
43.76093102321685
 20
8.866446224932388
 30
0.0
 10
43.76139354406396
 20
8.872436337890249
 30
0.0
 10
43.76181437492824
 20
8.878275892042481
 30
0.0
 10
43.76218680169628
 20
8.883825265340561
 30
0.0
 10
43.76252435095442
 20
8.889236996740123
 30
0.0
 10
43.76283713738252
 20
8.894657491643059
 30
0.0
 10
43.7631338961186
 20
8.900225995754738
 30
0.0
 10
43.76331307071406
 20
8.904037290930247
 30
0.0
 10
43.76340265067426
 20
8.905942938477537
 30
0.0
 11
43.74814884579428
 21
8.764145211037586
 31
0.0
 11
43.74982764837404
 21
8.774268046520475
 31
0.0
 11
43.75141668689474
 21
8.784405346430148
 31
0.0
 11
43.75266132706366
 21
8.792788236555495
 31
0.0
 11
43.75384458265074
 21
8.801179989893896
 31
0.0
 11
43.75492287933383
 21
8.809245368343098
 31
0.0
 11
43.75594447561946
 21
8.81731811694037
 31
0.0
 11
43.75685956192415
 21
8.824969024352796
 31
0.0
 11
43.75772371845346
 21
8.832625840732575
 31
0.0
 11
43.75848699249798
 21
8.83980349923506
 31
0.0
 11
43.75920551182633
 21
8.846985766032148
 31
0.0
 11
43.75983128536046
 21
8.853644337586771
 31
0.0
 11
43.76041859294128
 21
8.860306402924308
 31
0.0
 11
43.76092558684933
 21
8.86644666161986
 31
0.0
 11
43.76139990476349
 21
8.872589523774578
 31
0.0
 11
43.76180971144134
 21
8.878276218275786
 31
0.0
 11
43.76219151511736
 21
8.883964855967391
 31
0.0
 11
43.76252027208193
 21
8.889237241102463
 31
0.0
 11
43.76282497443509
 21
8.894511069249901
 31
0.0
 11
43.76312793729908
 21
8.900226291299858
 31
0.0
 11
43.76340265067426
 21
8.905942938477537
 31
0.0
  0
SPLINE
  5
267
330
2
100
AcDbEntity
  8
GAIKEI
  6
Continuous
 62
     1
100
AcDbSpline
210
0.0
220
0.0
230
1.0
 70
    24
 71
     3
 72
     9
 73
     5
 74
     3
 42
0.0000000001
 43
0.0000000001
 44
0.00000001
 40
0.0
 40
0.0
 40
0.0
 40
0.0
 40
0.0027782538628442
 40
0.0055565077257165
 40
0.0055565077257165
 40
0.0055565077257165
 40
0.0055565077257165
 10
43.74720233939433
 20
8.758669911617388
 30
0.0
 10
43.747360090461
 20
8.75958246152075
 30
0.0
 10
43.74767559259429
 20
8.761407561327473
 30
0.0
 10
43.74799109472762
 20
8.76323266113421
 30
0.0
 10
43.74814884579428
 20
8.764145211037586
 30
0.0
 11
43.74720233939433
 21
8.758669911617388
 31
0.0
 11
43.74767559259431
 21
8.761407561327459
 31
0.0
 11
43.74814884579428
 21
8.764145211037586
 31
0.0
  0
SPLINE
  5
268
330
2
100
AcDbEntity
  8
GAIKEI
  6
Continuous
 62
     1
100
AcDbSpline
210
0.0
220
0.0
230
1.0
 70
     8
 71
     3
 72
    11
 73
     7
 74
     5
 42
0.0000000001
 43
0.0000000001
 44
0.00000001
 40
0.0
 40
0.0
 40
0.0
 40
0.0
 40
0.0125040894476195
 40
0.0250080121930716
 40
0.0375117954630048
 40
0.0500157454203612
 40
0.0500157454203612
 40
0.0500157454203612
 40
0.0500157454203612
 10
43.74720233939433
 20
8.908669911617366
 30
0.0
 10
43.74737184145362
 20
8.91283454064937
 30
0.0
 10
43.74771082832357
 20
8.921163743754462
 30
0.0
 10
43.74804337097873
 20
8.933663578077769
 30
0.0
 10
43.74825854965524
 20
8.946165936965897
 30
0.0
 10
43.74828464838304
 20
8.954501901514646
 30
0.0
 10
43.74829769033431
 20
8.958669911617377
 30
0.0
 11
43.74720233939433
 21
8.908669911617366
 31
0.0
 11
43.74768151757445
 21
8.921164816278789
 31
0.0
 11
43.74802382158816
 21
8.933664052846765
 31
0.0
 11
43.74822922071246
 21
8.946166149073278
 31
0.0
 11
43.74829769033431
 21
8.958669911617377
 31
0.0
  0
SPLINE
  5
269
330
2
100
AcDbEntity
  8
GAIKEI
  6
Continuous
 62
     1
100
AcDbSpline
210
0.0
220
0.0
230
1.0
 70
     8
 71
     3
 72
    11
 73
     7
 74
     5
 42
0.0000000001
 43
0.0000000001
 44
0.00000001
 40
0.0
 40
0.0
 40
0.0
 40
0.0
 40
0.0125039595402044
 40
0.0250077523913983
 40
0.0375116655553276
 40
0.0500157454207328
 40
0.0500157454207328
 40
0.0500157454207328
 40
0.0500157454207328
 10
43.74829769033431
 20
8.958669911617377
 30
0.0
 10
43.7482846483688
 20
8.962837924914481
 30
0.0
 10
43.74825854961243
 20
8.971173895851421
 30
0.0
 10
43.74804337071347
 20
8.983676257931193
 30
0.0
 10
43.74771082796989
 20
8.996176089056106
 30
0.0
 10
43.74737184133573
 20
9.004505285777369
 30
0.0
 10
43.74720233939433
 20
9.008669911617388
 30
0.0
 11
43.74829769033431
 21
8.958669911617377
 31
0.0
 11
43.74822922062139
 21
8.97117368374397
 31
0.0
 11
43.74802382118201
 21
8.983675789547859
 31
0.0
 11
43.74768151726613
 21
8.996175016533399
 31
0.0
 11
43.74720233939433
 21
9.008669911617388
 31
0.0
  0
SPLINE
  5
26A
330
2
100
AcDbEntity
  8
GAIKEI
  6
Continuous
 62
     1
100
AcDbSpline
210
0.0
220
0.0
230
1.0
 70
     8
 71
     3
 72
    27
 73
    23
 74
    21
 42
0.0000000001
 43
0.0000000001
 44
0.00000001
 40
0.0
 40
0.0
 40
0.0
 40
0.0
 40
0.0051770951938527
 40
0.0103541932928282
 40
0.0152110967965827
 40
0.0200680017492954
 40
0.0252883079921884
 40
0.0305086181079983
 40
0.0360935527251345
 40
0.0416784917380799
 40
0.0476643763056496
 40
0.0536502664691081
 40
0.0600427147626491
 40
0.0664351690732039
 40
0.0732061615503307
 40
0.0799771602188481
 40
0.0870945532708048
 40
0.0942119525345463
 40
0.1016401050097429
 40
0.1090682636872154
 40
0.1134714099511725
 40
0.1178745099405253
 40
0.1178745099405253
 40
0.1178745099405253
 40
0.1178745099405253
 10
43.76340265067426
 20
9.011396884757559
 30
0.0
 10
43.76332185343886
 20
9.013120693518416
 30
0.0
 10
43.7631602442871
 20
9.016568311307565
 30
0.0
 10
43.7628941358941
 20
9.021631714910299
 30
0.0
 10
43.7626137410104
 20
9.026587435252949
 30
0.0
 10
43.76231127879876
 20
9.031556292061523
 30
0.0
 10
43.76197942718365
 20
9.036644673100056
 30
0.0
 10
43.76160772331508
 20
9.041973593524716
 30
0.0
 10
43.76120214861413
 20
9.047421934937503
 30
0.0
 10
43.76075012847775
 20
9.053122650127747
 30
0.0
 10
43.76025840511363
 20
9.058954219966935
 30
0.0
 10
43.7597125417893
 20
9.065051267882097
 30
0.0
 10
43.75912129470212
 20
9.071280233713167
 30
0.0
 10
43.75846950444
 20
9.07776623045072
 30
0.0
 10
43.75776753254877
 20
9.084373901313995
 30
0.0
 10
43.75700000161528
 20
9.091217495350647
 30
0.0
 10
43.75617790200084
 20
9.09817104179703
 30
0.0
 10
43.75528597861825
 20
9.105336771963322
 30
0.0
 10
43.75433580842349
 20
9.112599503370873
 30
0.0
 10
43.75346160831347
 20
9.118959565770069
 30
0.0
 10
43.75269879995136
 20
9.124317018943415
 30
0.0
 10
43.75227108321624
 20
9.127221109822443
 30
0.0
 10
43.75205721877432
 20
9.128673146577554
 30
0.0
 11
43.76340265067426
 21
9.011396884757559
 31
0.0
 11
43.76315537161644
 21
9.016568071070295
 31
0.0
 11
43.76288497674022
 21
9.02173810315331
 31
0.0
 11
43.76261029493252
 21
9.026587233168456
 31
0.0
 11
43.76231527778884
 21
9.031435169942355
 31
0.0
 11
43.76197551865334
 21
9.036644408026901
 31
0.0
 11
43.76161228001871
 21
9.041852065448992
 31
0.0
 11
43.76119768226965
 21
9.047421590013968
 31
0.0
 11
43.76075622850708
 21
9.052989054684289
 31
0.0
 11
43.76025327764387
 21
9.058953772202457
 31
0.0
 11
43.75971950139603
 21
9.064915815858782
 31
0.0
 11
43.75911545142344
 21
9.071279660569857
 31
0.0
 11
43.75847628111483
 21
9.07764007990589
 31
0.0
 11
43.75776098274605
 21
9.084373183809233
 31
0.0
 11
43.75700632767705
 21
9.091101996447079
 31
0.0
 11
43.75617066681889
 21
9.098170161393895
 31
0.0
 11
43.75529157934727
 21
9.10523306295407
 31
0.0
 11
43.75432783532971
 21
9.112598431087562
 31
0.0
 11
43.75331686544263
 21
9.119957471947074
 31
0.0
 11
43.75269532355026
 21
9.124316529538063
 31
0.0
 11
43.75205721877432
 21
9.128673146577554
 31
0.0
  0
SPLINE
  5
26B
330
2
100
AcDbEntity
  8
GAIKEI
  6
Continuous
 62
     1
100
AcDbSpline
210
0.0
220
0.0
230
1.0
 70
    24
 71
     3
 72
     9
 73
     5
 74
     3
 42
0.0000000001
 43
0.0000000001
 44
0.00000001
 40
0.0
 40
0.0
 40
0.0
 40
0.0
 40
0.0013648297196235
 40
0.0027296594394742
 40
0.0027296594394742
 40
0.0027296594394742
 40
0.0027296594394742
 10
43.76352372151427
 20
9.008669911617388
 30
0.0
 10
43.76350354304094
 20
9.009124407140703
 30
0.0
 10
43.76346318609425
 20
9.010033398187431
 30
0.0
 10
43.7634228291476
 20
9.010942389234173
 30
0.0
 10
43.76340265067426
 20
9.011396884757559
 30
0.0
 11
43.76352372151427
 21
9.008669911617388
 31
0.0
 11
43.76346318609427
 21
9.01003339818736
 31
0.0
 11
43.76340265067426
 21
9.011396884757559
 31
0.0
  0
SPLINE
  5
26C
330
2
100
AcDbEntity
  8
GAIKEI
  6
Continuous
 62
     1
100
AcDbSpline
210
0.0
220
0.0
230
1.0
 70
    24
 71
     3
 72
     9
 73
     5
 74
     3
 42
0.0000000001
 43
0.0000000001
 44
0.00000001
 40
0.0
 40
0.0
 40
0.0
 40
0.0
 40
0.0013648297196803
 40
0.0027296594391335
 40
0.0027296594391335
 40
0.0027296594391335
 40
0.0027296594391335
 10
43.76340265067426
 20
8.405942938477537
 30
0.0
 10
43.7634228291476
 20
8.406397434000879
 30
0.0
 10
43.76346318609427
 20
8.407306425047494
 30
0.0
 10
43.76350354304093
 20
8.408215416094094
 30
0.0
 10
43.76352372151427
 20
8.408669911617366
 30
0.0
 11
43.76340265067426
 21
8.405942938477537
 31
0.0
 11
43.76346318609427
 21
8.407306425047565
 31
0.0
 11
43.76352372151427
 21
8.408669911617366
 31
0.0
  0
SPLINE
  5
26D
330
2
100
AcDbEntity
  8
GAIKEI
  6
Continuous
 62
     1
100
AcDbSpline
210
0.0
220
0.0
230
1.0
 70
     8
 71
     3
 72
    27
 73
    23
 74
    21
 42
0.0000000001
 43
0.0000000001
 44
0.00000001
 40
0.0
 40
0.0
 40
0.0
 40
0.0
 40
0.010261100142739
 40
0.0205221864271033
 40
0.0289969710967882
 40
0.0374717346343573
 40
0.0456088749445047
 40
0.0537460076086374
 40
0.0614514450611117
 40
0.0691568718944603
 40
0.0763749996304589
 40
0.0835931174936005
 40
0.0902810294891852
 40
0.0969689322925008
 40
0.1031300863165346
 40
0.1092912332979431
 40
0.1149926747938952
 40
0.1206941107585037
 40
0.125976735622472
 40
0.1312593586558624
 40
0.1369826049942614
 40
0.1427058489769374
 40
0.1427058489769374
 40
0.1427058489769374
 40
0.1427058489769374
 10
43.74814884579428
 20
8.264145211037586
 30
0.0
 10
43.74871477627237
 20
8.267518456087444
 30
0.0
 10
43.74984662198696
 20
8.274264944032267
 30
0.0
 10
43.75133857598839
 20
8.283814960915634
 30
0.0
 10
43.7526717613935
 20
8.292786713049878
 30
0.0
 10
43.75383904497647
 20
8.301067155910828
 30
0.0
 10
43.7549323337747
 20
8.309244134812828
 30
0.0
 10
43.75593585384007
 20
8.317174195367286
 30
0.0
 10
43.75686804087476
 20
8.324968035092695
 30
0.0
 10
43.75771398567261
 20
8.332463503058178
 30
0.0
 10
43.75849444141258
 20
8.339802727174742
 30
0.0
 10
43.75919537226607
 20
8.346809185949354
 30
0.0
 10
43.75983768616075
 20
8.353643751535997
 30
0.0
 10
43.76040957768333
 20
8.360130952072125
 30
0.0
 10
43.76093102321684
 20
8.36644622493236
 30
0.0
 10
43.76139354406396
 20
8.372436337890263
 30
0.0
 10
43.76181437492826
 20
8.378275892042481
 30
0.0
 10
43.76218680169628
 20
8.383825265340561
 30
0.0
 10
43.76252435095445
 20
8.389236996740123
 30
0.0
 10
43.76283713738248
 20
8.394657491643044
 30
0.0
 10
43.76313389611861
 20
8.400225995754752
 30
0.0
 10
43.76331307071406
 20
8.404037290930247
 30
0.0
 10
43.76340265067426
 20
8.405942938477537
 30
0.0
 11
43.74814884579428
 21
8.264145211037586
 31
0.0
 11
43.74982764837404
 21
8.274268046520475
 31
0.0
 11
43.75141668689474
 21
8.284405346430375
 31
0.0
 11
43.75266132706366
 21
8.292788236555551
 31
0.0
 11
43.75384458265074
 21
8.301179989893952
 31
0.0
 11
43.75492287933383
 21
8.309245368343155
 31
0.0
 11
43.75594447561946
 21
8.31731811694037
 31
0.0
 11
43.75685956192415
 21
8.324969024352796
 31
0.0
 11
43.75772371845346
 21
8.332625840732575
 31
0.0
 11
43.75848699249798
 21
8.33980349923506
 31
0.0
 11
43.75920551182633
 21
8.346985766032148
 31
0.0
 11
43.75983128536046
 21
8.353644337586658
 31
0.0
 11
43.76041859294128
 21
8.360306402924308
 31
0.0
 11
43.76092558684933
 21
8.36644666161986
 31
0.0
 11
43.76139990476349
 21
8.372589523774578
 31
0.0
 11
43.76180971144134
 21
8.378276218275786
 31
0.0
 11
43.76219151511736
 21
8.383964855967391
 31
0.0
 11
43.76252027208193
 21
8.389237241102463
 31
0.0
 11
43.76282497443509
 21
8.394511069249901
 31
0.0
 11
43.76312793729908
 21
8.400226291299858
 31
0.0
 11
43.76340265067426
 21
8.405942938477537
 31
0.0
  0
SPLINE
  5
26E
330
2
100
AcDbEntity
  8
GAIKEI
  6
Continuous
 62
     1
100
AcDbSpline
210
0.0
220
0.0
230
1.0
 70
    24
 71
     3
 72
     9
 73
     5
 74
     3
 42
0.0000000001
 43
0.0000000001
 44
0.00000001
 40
0.0
 40
0.0
 40
0.0
 40
0.0
 40
0.0027782538628442
 40
0.0055565077257165
 40
0.0055565077257165
 40
0.0055565077257165
 40
0.0055565077257165
 10
43.74720233939433
 20
8.258669911617388
 30
0.0
 10
43.747360090461
 20
8.25958246152075
 30
0.0
 10
43.74767559259429
 20
8.261407561327473
 30
0.0
 10
43.74799109472762
 20
8.26323266113421
 30
0.0
 10
43.74814884579428
 20
8.264145211037586
 30
0.0
 11
43.74720233939433
 21
8.258669911617388
 31
0.0
 11
43.74767559259431
 21
8.261407561327459
 31
0.0
 11
43.74814884579428
 21
8.264145211037586
 31
0.0
  0
SPLINE
  5
26F
330
2
100
AcDbEntity
  8
GAIKEI
  6
Continuous
 62
     1
100
AcDbSpline
210
0.0
220
0.0
230
1.0
 70
     8
 71
     3
 72
    11
 73
     7
 74
     5
 42
0.0000000001
 43
0.0000000001
 44
0.00000001
 40
0.0
 40
0.0
 40
0.0
 40
0.0
 40
0.0125040894476195
 40
0.0250080121930716
 40
0.0375117954630048
 40
0.0500157454203612
 40
0.0500157454203612
 40
0.0500157454203612
 40
0.0500157454203612
 10
43.74720233939433
 20
8.408669911617366
 30
0.0
 10
43.74737184145362
 20
8.41283454064937
 30
0.0
 10
43.74771082832357
 20
8.421163743754476
 30
0.0
 10
43.74804337097873
 20
8.433663578077783
 30
0.0
 10
43.74825854965524
 20
8.446165936965897
 30
0.0
 10
43.74828464838304
 20
8.454501901514632
 30
0.0
 10
43.74829769033431
 20
8.458669911617377
 30
0.0
 11
43.74720233939433
 21
8.408669911617366
 31
0.0
 11
43.74768151757445
 21
8.421164816278789
 31
0.0
 11
43.74802382158816
 21
8.433664052846765
 31
0.0
 11
43.74822922071246
 21
8.446166149073278
 31
0.0
 11
43.74829769033431
 21
8.458669911617377
 31
0.0
  0
SPLINE
  5
270
330
2
100
AcDbEntity
  8
GAIKEI
  6
Continuous
 62
     1
100
AcDbSpline
210
0.0
220
0.0
230
1.0
 70
     8
 71
     3
 72
    11
 73
     7
 74
     5
 42
0.0000000001
 43
0.0000000001
 44
0.00000001
 40
0.0
 40
0.0
 40
0.0
 40
0.0
 40
0.0125039595402044
 40
0.0250077523913983
 40
0.0375116655553276
 40
0.0500157454207328
 40
0.0500157454207328
 40
0.0500157454207328
 40
0.0500157454207328
 10
43.74829769033431
 20
8.458669911617377
 30
0.0
 10
43.7482846483688
 20
8.462837924914481
 30
0.0
 10
43.74825854961243
 20
8.471173895851421
 30
0.0
 10
43.74804337071347
 20
8.483676257931193
 30
0.0
 10
43.74771082796989
 20
8.496176089056106
 30
0.0
 10
43.74737184133573
 20
8.504505285777369
 30
0.0
 10
43.74720233939433
 20
8.508669911617388
 30
0.0
 11
43.74829769033431
 21
8.458669911617377
 31
0.0
 11
43.74822922062139
 21
8.47117368374397
 31
0.0
 11
43.74802382118201
 21
8.483675789547859
 31
0.0
 11
43.74768151726613
 21
8.496175016533399
 31
0.0
 11
43.74720233939433
 21
8.508669911617388
 31
0.0
  0
SPLINE
  5
271
330
2
100
AcDbEntity
  8
GAIKEI
  6
Continuous
 62
     1
100
AcDbSpline
210
0.0
220
0.0
230
1.0
 70
    24
 71
     3
 72
     9
 73
     5
 74
     3
 42
0.0000000001
 43
0.0000000001
 44
0.00000001
 40
0.0
 40
0.0
 40
0.0
 40
0.0
 40
0.0027782538677796
 40
0.0055565077355494
 40
0.0055565077355494
 40
0.0055565077355494
 40
0.0055565077355494
 10
43.7481488458543
 20
8.653194612197566
 30
0.0
 10
43.74799109477763
 20
8.654107162100856
 30
0.0
 10
43.74767559262425
 20
8.655932261907452
 30
0.0
 10
43.74736009047096
 20
8.657757361714075
 30
0.0
 10
43.74720233939433
 20
8.658669911617366
 30
0.0
 11
43.7481488458543
 21
8.653194612197566
 31
0.0
 11
43.74767559262432
 21
8.655932261907466
 31
0.0
 11
43.74720233939433
 21
8.658669911617366
 31
0.0
  0
SPLINE
  5
272
330
2
100
AcDbEntity
  8
GAIKEI
  6
Continuous
 62
     1
100
AcDbSpline
210
0.0
220
0.0
230
1.0
 70
     8
 71
     3
 72
    29
 73
    25
 74
    23
 42
0.0000000001
 43
0.0000000001
 44
0.00000001
 40
0.0
 40
0.0
 40
0.0
 40
0.0
 40
0.0051770951547934
 40
0.0103541932196249
 40
0.0152110966954802
 40
0.0200680016236216
 40
0.0252883078438627
 40
0.030508617940606
 40
0.0360935525412225
 40
0.0416784915412106
 40
0.0476643760984492
 40
0.053650266254105
 40
0.060042714546396
 40
0.0664351688667979
 40
0.0732061613391133
 40
0.0799771599597007
 40
0.0870945530875312
 40
0.0942119527244624
 40
0.101640104838388
 40
0.1090682613430866
 40
0.1167613502310441
 40
0.1244544541548769
 40
0.133580174172276
 40
0.1427058970024729
 40
0.1427058970024729
 40
0.1427058970024729
 40
0.1427058970024729
 10
43.76340265067426
 20
8.511396884757559
 30
0.0
 10
43.76332185343945
 20
8.513120693505413
 30
0.0
 10
43.76316024428894
 20
8.516568311270177
 30
0.0
 10
43.76289413589808
 20
8.521631714839287
 30
0.0
 10
43.76261374101651
 20
8.526587435153146
 30
0.0
 10
43.76231127880712
 20
8.531556291936766
 30
0.0
 10
43.76197942719419
 20
8.5366446729533
 30
0.0
 10
43.7616077233279
 20
8.541973593358619
 30
0.0
 10
43.76120214862908
 20
8.547421934755405
 30
0.0
 10
43.76075012849537
 20
8.553122649932547
 30
0.0
 10
43.760258405131
 20
8.55895421976119
 30
0.0
 10
43.75971254181779
 20
8.565051267671321
 30
0.0
 10
43.7591212946949
 20
8.571280233497674
 30
0.0
 10
43.7584695045754
 20
8.577766230256059
 30
0.0
 10
43.75776753212349
 20
8.584373901028129
 30
0.0
 10
43.75700000335974
 20
8.591217495369178
 30
0.0
 10
43.75617789526311
 20
8.598171040790333
 30
0.0
 10
43.75528600422888
 20
8.605336775410947
 30
0.0
 10
43.75433570818742
 20
8.612599488879453
 30
0.0
 10
43.75331265537622
 20
8.620046055848632
 30
0.0
 10
43.75222869444304
 20
8.627573253645152
 30
0.0
 10
43.75100926141072
 20
8.635652422633086
 30
0.0
 10
43.74966130465604
 20
8.644195050019817
 30
0.0
 10
43.74865300366417
 20
8.650194758632594
 30
0.0
 10
43.7481488458543
 20
8.653194612197566
 30
0.0
 11
43.76340265067426
 21
8.511396884757559
 31
0.0
 11
43.76315537161644
 21
8.516568071070068
 31
0.0
 11
43.76288497674022
 21
8.521738103153083
 31
0.0
 11
43.76261029493252
 21
8.526587233168456
 31
0.0
 11
43.76231527778884
 21
8.531435169942355
 31
0.0
 11
43.76197551865334
 21
8.536644408026901
 31
0.0
 11
43.76161228001871
 21
8.541852065448992
 31
0.0
 11
43.76119768226965
 21
8.547421590014081
 31
0.0
 11
43.76075622850708
 21
8.552989054684459
 31
0.0
 11
43.76025327764398
 21
8.5589537722024
 31
0.0
 11
43.75971950139637
 21
8.564915815857361
 31
0.0
 11
43.75911545142355
 21
8.571279660570084
 31
0.0
 11
43.75847628111324
 21
8.577640079914985
 31
0.0
 11
43.75776098274627
 21
8.584373183808665
 31
0.0
 11
43.7570063276882
 21
8.591101996390577
 31
0.0
 11
43.75617066681814
 21
8.59817016139867
 31
0.0
 11
43.75529157927866
 21
8.605233063308489
 31
0.0
 11
43.75432783533449
 21
8.612598431063176
 31
0.0
 11
43.75331686586747
 21
8.619957469755988
 31
0.0
 11
43.75222010285324
 21
8.627571977503052
 31
0.0
 11
43.75107277669189
 21
8.63517904601359
 31
0.0
 11
43.74964630422948
 21
8.644192588217478
 31
0.0
 11
43.7481488458543
 21
8.653194612197566
 31
0.0
  0
SPLINE
  5
273
330
2
100
AcDbEntity
  8
GAIKEI
  6
Continuous
 62
     1
100
AcDbSpline
210
0.0
220
0.0
230
1.0
 70
    24
 71
     3
 72
     9
 73
     5
 74
     3
 42
0.0000000001
 43
0.0000000001
 44
0.00000001
 40
0.0
 40
0.0
 40
0.0
 40
0.0
 40
0.0013648297196377
 40
0.0027296594394742
 40
0.0027296594394742
 40
0.0027296594394742
 40
0.0027296594394742
 10
43.76352372151427
 20
8.508669911617388
 30
0.0
 10
43.76350354304094
 20
8.509124407140717
 30
0.0
 10
43.76346318609431
 20
8.510033398187459
 30
0.0
 10
43.7634228291476
 20
8.510942389234159
 30
0.0
 10
43.76340265067426
 20
8.511396884757559
 30
0.0
 11
43.76352372151427
 21
8.508669911617388
 31
0.0
 11
43.76346318609427
 21
8.51003339818736
 31
0.0
 11
43.76340265067426
 21
8.511396884757559
 31
0.0
  0
SPLINE
  5
274
330
2
100
AcDbEntity
  8
GAIKEI
  6
Continuous
 62
     1
100
AcDbSpline
210
0.0
220
0.0
230
1.0
 70
    24
 71
     3
 72
     9
 73
     5
 74
     3
 42
0.0000000001
 43
0.0000000001
 44
0.00000001
 40
0.0
 40
0.0
 40
0.0
 40
0.0
 40
0.0062545519851237
 40
0.0125091039701874
 40
0.0125091039701874
 40
0.0125091039701874
 40
0.0125091039701874
 10
43.74768168179429
 20
8.226169995097606
 30
0.0
 10
43.74760179139428
 20
8.228253314517573
 30
0.0
 10
43.74744201059423
 20
8.232419953357492
 30
0.0
 10
43.74728222979429
 20
8.236586592197397
 30
0.0
 10
43.74720233939433
 20
8.23866991161735
 30
0.0
 11
43.74768168179429
 21
8.226169995097606
 31
0.0
 11
43.74744201059428
 21
8.232419953357506
 31
0.0
 11
43.74720233939433
 21
8.23866991161735
 31
0.0
  0
SPLINE
  5
275
330
2
100
AcDbEntity
  8
GAIKEI
  6
Continuous
 62
     1
100
AcDbSpline
210
0.0
220
0.0
230
1.0
 70
     8
 71
     3
 72
    21
 73
    17
 74
    15
 42
0.0000000001
 43
0.0000000001
 44
0.00000001
 40
0.0
 40
0.0
 40
0.0
 40
0.0
 40
0.0051770951648143
 40
0.0103541932389724
 40
0.0152110967251456
 40
0.0200680016675403
 40
0.0252883078927885
 40
0.0305086179705282
 40
0.0360935526157558
 40
0.0416784918169423
 40
0.0476643761669865
 40
0.0536502651023862
 40
0.0600427148042574
 40
0.0664351770427508
 40
0.0745034623109772
 40
0.0825717606988789
 40
0.0825717606988789
 40
0.0825717606988789
 40
0.0825717606988789
 10
43.76340265067426
 20
8.241396884757577
 30
0.0
 10
43.76332185343935
 20
8.243120693508785
 30
0.0
 10
43.76316024428854
 20
8.24656831128
 30
0.0
 10
43.76289413589627
 20
8.251631714858888
 30
0.0
 10
43.76261374101673
 20
8.256587435184343
 30
0.0
 10
43.76231127879548
 20
8.261556291976503
 30
0.0
 10
43.7619794272247
 20
8.266644672998154
 30
0.0
 10
43.76160772319444
 20
8.271973593394122
 30
0.0
 10
43.76120214914708
 20
8.277421934944726
 30
0.0
 10
43.76075012645194
 20
8.283122649829522
 30
0.0
 10
43.76025841329604
 20
8.288954220465356
 30
0.0
 10
43.75971251066315
 20
8.295051263673911
 30
0.0
 10
43.75912141983341
 20
8.30128025088004
 30
0.0
 10
43.7584257470893
 20
8.308196439854057
 30
0.0
 10
43.75763125002338
 20
8.315664072182983
 30
0.0
 10
43.7570149041137
 20
8.321007525724866
 30
0.0
 10
43.75670672361429
 20
8.323679253837596
 30
0.0
 11
43.76340265067426
 21
8.241396884757577
 31
0.0
 11
43.76315537161639
 21
8.2465680710702
 31
0.0
 11
43.76288497674022
 21
8.251738103152476
 31
0.0
 11
43.76261029493247
 21
8.256587233168588
 31
0.0
 11
43.76231527778827
 21
8.261435169947091
 31
0.0
 11
43.76197551865334
 21
8.266644408026351
 31
0.0
 11
43.76161228002217
 21
8.271852065419281
 31
0.0
 11
43.76119768226908
 21
8.277421590017794
 31
0.0
 11
43.76075622848452
 21
8.28298905487729
 31
0.0
 11
43.76025327764688
 21
8.288953772177805
 31
0.0
 11
43.75971950154258
 21
8.29491581460887
 31
0.0
 11
43.75911545140718
 21
8.301279660709766
 31
0.0
 11
43.75847628017749
 21
8.307640087907699
 31
0.0
 11
43.75761943995837
 21
8.315662746620873
 31
0.0
 11
43.75670672361429
 21
8.323679253837596
 31
0.0
  0
SPLINE
  5
276
330
2
100
AcDbEntity
  8
GAIKEI
  6
Continuous
 62
     1
100
AcDbSpline
210
0.0
220
0.0
230
1.0
 70
    24
 71
     3
 72
     9
 73
     5
 74
     3
 42
0.0000000001
 43
0.0000000001
 44
0.00000001
 40
0.0
 40
0.0
 40
0.0
 40
0.0
 40
0.0013648297199075
 40
0.002729659439531
 40
0.002729659439531
 40
0.002729659439531
 40
0.002729659439531
 10
43.76352372151427
 20
8.23866991161735
 30
0.0
 10
43.76350354304096
 20
8.239124407140778
 30
0.0
 10
43.76346318609427
 20
8.240033398187506
 30
0.0
 10
43.76342282914758
 20
8.240942389234248
 30
0.0
 10
43.76340265067426
 20
8.241396884757577
 30
0.0
 11
43.76352372151427
 21
8.23866991161735
 31
0.0
 11
43.76346318609427
 21
8.240033398187605
 31
0.0
 11
43.76340265067426
 21
8.241396884757577
 31
0.0
  0
LINE
  5
277
330
2
100
AcDbEntity
  8
GAIKEI
  6
Continuous
 62
     7
100
AcDbLine
 10
-12.73489136293972
 20
5.848669911617534
 30
0.0
 11
-12.81825335961957
 21
4.890006949977575
 31
0.0
  0
LINE
  5
278
330
2
100
AcDbEntity
  8
GAIKEI
  6
Continuous
 62
   251
100
AcDbLine
 10
-14.76619571077975
 20
7.279604065717521
 30
0.0
 11
-14.76619571077975
 21
7.197664447117617
 31
0.0
  0
LINE
  5
279
330
2
100
AcDbEntity
  8
GAIKEI
  6
Continuous
 62
     7
100
AcDbLine
 10
-14.91750005859973
 20
5.848669911617534
 30
0.0
 11
-14.83413806193954
 21
4.890006949977575
 31
0.0
  0
LINE
  5
27A
330
2
100
AcDbEntity
  8
GAIKEI
  6
Continuous
 62
   251
100
AcDbLine
 10
-19.66619571077973
 20
7.197749032097576
 30
0.0
 11
-19.66619571077973
 21
7.279683953577531
 31
0.0
  0
LINE
  5
27B
330
2
100
AcDbEntity
  8
GAIKEI
  6
Continuous
 62
   251
100
AcDbLine
 10
-21.66619571077973
 20
7.279604065717521
 30
0.0
 11
-21.66619571077973
 21
7.197664447117617
 31
0.0
  0
LINE
  5
27C
330
2
100
AcDbEntity
  8
GAIKEI
  6
Continuous
 62
     1
100
AcDbLine
 10
-24.57619571077953
 20
5.848669911617534
 30
0.0
 11
-24.57619571077953
 21
5.828669911617552
 31
0.0
  0
LINE
  5
27D
330
2
100
AcDbEntity
  8
GAIKEI
  6
Continuous
 62
     1
100
AcDbLine
 10
-24.67619571077956
 20
5.848669911617534
 30
0.0
 11
-24.67619571077956
 21
5.828669911617552
 31
0.0
  0
LINE
  5
27E
330
2
100
AcDbEntity
  8
GAIKEI
  6
Continuous
 62
     1
100
AcDbLine
 10
-24.77619571077958
 20
5.848669911617534
 30
0.0
 11
-24.77619571077958
 21
5.828669911617552
 31
0.0
  0
LINE
  5
27F
330
2
100
AcDbEntity
  8
GAIKEI
  6
Continuous
 62
     1
100
AcDbLine
 10
-24.87619571077954
 20
5.828669911617552
 30
0.0
 11
-24.87619571077954
 21
5.848669911617534
 31
0.0
  0
LINE
  5
280
330
2
100
AcDbEntity
  8
GAIKEI
  6
Continuous
 62
     1
100
AcDbLine
 10
-24.97619571077957
 20
5.828669911617552
 30
0.0
 11
-24.97619571077957
 21
5.848669911617534
 31
0.0
  0
LINE
  5
281
330
2
100
AcDbEntity
  8
GAIKEI
  6
Continuous
 62
     7
100
AcDbLine
 10
-50.57626249639958
 20
14.6486699116176
 30
0.0
 11
-8.67612892515973
 21
14.6486699116176
 31
0.0
  0
LINE
  5
282
330
2
100
AcDbEntity
  8
GAIKEI
  6
Continuous
 62
     1
100
AcDbLine
 10
-50.54860636095975
 20
14.38703883215758
 30
0.0
 11
-8.703785060579548
 21
14.38703883215758
 31
0.0
  0
LINE
  5
283
330
2
100
AcDbEntity
  8
GAIKEI
  6
Continuous
 62
     1
100
AcDbLine
 10
-9.605285267359533
 20
12.78857756747753
 30
0.0
 11
-49.64716519460779
 21
12.78857756747753
 31
0.0
  0
LINE
  5
284
330
2
100
AcDbEntity
  8
GAIKEI
  6
Continuous
 62
     1
100
AcDbLine
 10
-9.626195710779541
 20
10.18617713541754
 30
0.0
 11
-49.65141545604296
 21
10.18617713541754
 31
0.0
  0
LINE
  5
285
330
2
100
AcDbEntity
  8
GAIKEI
  6
Continuous
 62
     1
100
AcDbLine
 10
-49.65167122513378
 20
10.0295718059376
 30
0.0
 11
-9.600977560339742
 21
10.0295718059376
 31
0.0
  0
LINE
  5
286
330
2
100
AcDbEntity
  8
GAIKEI
  6
Continuous
 62
     1
100
AcDbLine
 10
-50.54022634341976
 20
8.048669911617579
 30
0.0
 11
-8.712165078119539
 21
8.048669911617579
 31
0.0
  0
LINE
  5
287
330
2
100
AcDbEntity
  8
GAIKEI
  6
Continuous
 62
     1
100
AcDbLine
 10
-45.89165756857972
 20
7.994650623077504
 30
0.0
 11
-48.36073385283959
 21
7.994650623077504
 31
0.0
  0
LINE
  5
288
330
2
100
AcDbEntity
  8
GAIKEI
  6
Continuous
 62
     1
100
AcDbLine
 10
-35.67369568089958
 20
7.992620628777544
 30
0.0
 11
-43.77869573769976
 21
7.992620628777544
 31
0.0
  0
LINE
  5
289
330
2
100
AcDbEntity
  8
GAIKEI
  6
Continuous
 62
     1
100
AcDbLine
 10
-35.76119571077959
 20
7.917422942497566
 30
0.0
 11
-43.69119571077976
 21
7.917422942497566
 31
0.0
  0
LINE
  5
28A
330
2
100
AcDbEntity
  8
GAIKEI
  6
Continuous
 62
     1
100
AcDbLine
 10
-46.29357745103959
 20
7.781288171357559
 30
0.0
 11
-47.95881397051959
 21
7.781288171357559
 31
0.0
  0
LINE
  5
28B
330
2
100
AcDbEntity
  8
GAIKEI
  6
Continuous
 62
     1
100
AcDbLine
 10
-47.7511957107796
 20
7.577669911617576
 30
0.0
 11
-46.5011957107796
 21
7.577669911617576
 31
0.0
  0
LINE
  5
28C
330
2
100
AcDbEntity
  8
GAIKEI
  6
Continuous
 62
     1
100
AcDbLine
 10
-47.68119571077977
 20
7.481669911617572
 30
0.0
 11
-46.5711957107797
 21
7.481669911617572
 31
0.0
  0
LINE
  5
28D
330
2
100
AcDbEntity
  8
GAIKEI
  6
Continuous
 62
     1
100
AcDbLine
 10
-42.8761957107796
 20
7.468669911617539
 30
0.0
 11
-42.41619571077973
 21
7.468669911617539
 31
0.0
  0
LINE
  5
28E
330
2
100
AcDbEntity
  8
GAIKEI
  6
Continuous
 62
     1
100
AcDbLine
 10
-47.68119571077977
 20
7.321669911617604
 30
0.0
 11
-46.5711957107797
 21
7.321669911617604
 31
0.0
  0
LINE
  5
28F
330
2
100
AcDbEntity
  8
GAIKEI
  6
Continuous
 62
     1
100
AcDbLine
 10
-47.7511957107796
 20
7.065669911617575
 30
0.0
 11
-46.5011957107796
 21
7.065669911617575
 31
0.0
  0
LINE
  5
290
330
2
100
AcDbEntity
  8
GAIKEI
  6
Continuous
 62
   251
100
AcDbLine
 10
-27.02561765469977
 20
6.858669911617525
 30
0.0
 11
-27.18673011165976
 21
6.858669911617525
 31
0.0
  0
LINE
  5
291
330
2
100
AcDbEntity
  8
GAIKEI
  6
Continuous
 62
     1
100
AcDbLine
 10
-47.95881397051959
 20
6.856051651877564
 30
0.0
 11
-46.29357745103959
 21
6.856051651877564
 31
0.0
  0
LINE
  5
292
330
2
100
AcDbEntity
  8
GAIKEI
  6
Continuous
 62
   251
100
AcDbLine
 10
-27.03939814547954
 20
6.758669911617559
 30
0.0
 11
-27.17301507637973
 21
6.758669911617559
 31
0.0
  0
LINE
  5
293
330
2
100
AcDbEntity
  8
GAIKEI
  6
Continuous
 62
   251
100
AcDbLine
 10
-27.16267882179977
 20
6.748669911617568
 30
0.0
 11
-27.04973792725974
 21
6.748669911617568
 31
0.0
  0
LINE
  5
294
330
2
100
AcDbEntity
  8
GAIKEI
  6
Continuous
 62
     1
100
AcDbLine
 10
-48.36073385283959
 20
6.638344383217585
 30
0.0
 11
-45.89165756857972
 21
6.638344383217585
 31
0.0
  0
LINE
  5
295
330
2
100
AcDbEntity
  8
GAIKEI
  6
Continuous
 62
     1
100
AcDbLine
 10
-35.67369568089958
 20
6.10495857337996
 30
0.0
 11
-8.626195710779512
 21
6.104957812131871
 31
0.0
  0
LINE
  5
296
330
2
100
AcDbEntity
  8
GAIKEI
  6
Continuous
 62
     1
100
AcDbLine
 10
-43.69119571077976
 20
6.094453618777592
 30
0.0
 11
-35.76119571077959
 21
6.094453618777592
 31
0.0
  0
LINE
  5
297
330
2
100
AcDbEntity
  8
GAIKEI
  6
Continuous
 62
     1
100
AcDbLine
 10
-50.62619571077959
 20
6.091719137817548
 30
0.0
 11
-43.77039595391955
 21
6.091719137817548
 31
0.0
  0
LINE
  5
298
330
2
100
AcDbEntity
  8
GAIKEI
  6
Continuous
 62
     1
100
AcDbLine
 10
-42.64619571077969
 20
7.238669911617577
 30
0.0
 11
-42.41619571077973
 21
7.468669911617539
 31
0.0
  0
LINE
  5
299
330
2
100
AcDbEntity
  8
GAIKEI
  6
Continuous
 62
     1
100
AcDbLine
 10
-35.67369568089958
 20
5.890445495037553
 30
0.0
 11
-8.626954481863975
 21
5.890445495037553
 31
0.0
  0
LINE
  5
29A
330
2
100
AcDbEntity
  8
GAIKEI
  6
Continuous
 62
     1
100
AcDbLine
 10
-43.69119571077976
 20
5.889532016637573
 30
0.0
 11
-35.76119571077959
 21
5.889532016637573
 31
0.0
  0
LINE
  5
29B
330
2
100
AcDbEntity
  8
GAIKEI
  6
Continuous
 62
     7
100
AcDbLine
 10
-50.57626975773974
 20
5.848669911617534
 30
0.0
 11
-8.676121663799733
 21
5.848669911617534
 31
0.0
  0
LINE
  5
29C
330
2
100
AcDbEntity
  8
GAIKEI
  6
Continuous
 62
     7
100
AcDbLine
 10
-14.73451400311956
 20
4.798669911617579
 30
0.0
 11
-12.91787741843973
 21
4.798669911617579
 31
0.0
  0
LINE
  5
29D
330
2
100
AcDbEntity
  8
GAIKEI
  6
Continuous
 62
     1
100
AcDbLine
 10
-46.33451400311957
 20
4.798669911617579
 30
0.0
 11
-44.51787741843975
 21
4.798669911617579
 31
0.0
  0
LINE
  5
29E
330
2
100
AcDbEntity
  8
GAIKEI
  6
Continuous
 62
     1
100
AcDbLine
 10
-35.76119571077959
 20
5.889532016637573
 30
0.0
 11
-35.76119571077959
 21
7.917422942497566
 31
0.0
  0
LINE
  5
29F
330
2
100
AcDbEntity
  8
GAIKEI
  6
Continuous
 62
     1
100
AcDbLine
 10
-42.64619571077969
 20
7.238669911617577
 30
0.0
 11
-42.8761957107796
 21
7.468669911617539
 31
0.0
  0
LINE
  5
2A0
330
2
100
AcDbEntity
  8
GAIKEI
  6
Continuous
 62
     1
100
AcDbLine
 10
-44.33489136293968
 20
5.848669911617534
 30
0.0
 11
-44.41825335961953
 21
4.890006949977575
 31
0.0
  0
LINE
  5
2A1
330
2
100
AcDbEntity
  8
GAIKEI
  6
Continuous
 62
     1
100
AcDbLine
 10
-43.69119571077976
 20
5.893184697117575
 30
0.0
 11
-43.69119571077976
 21
7.917422942497566
 31
0.0
  0
LINE
  5
2A2
330
2
100
AcDbEntity
  8
GAIKEI
  6
Continuous
 62
     1
100
AcDbLine
 10
-43.69119571077976
 20
5.890309379797585
 30
0.0
 11
-43.69119571077976
 21
5.889532016637573
 31
0.0
  0
LINE
  5
2A3
330
2
100
AcDbEntity
  8
GAIKEI
  6
Continuous
 62
     1
100
AcDbLine
 10
-43.69119571077976
 20
5.893184697117575
 30
0.0
 11
-43.69119571077976
 21
5.890309379797585
 31
0.0
  0
LINE
  5
2A4
330
2
100
AcDbEntity
  8
GAIKEI
  6
Continuous
 62
     1
100
AcDbLine
 10
-43.77039598845977
 20
6.104958531397514
 30
0.0
 11
-43.77039595391955
 21
6.091719137817548
 31
0.0
  0
LINE
  5
2A5
330
2
100
AcDbEntity
  8
GAIKEI
  6
Continuous
 62
     1
100
AcDbLine
 10
-43.76609590613258
 20
5.848669911617534
 30
0.0
 11
-43.77039595391955
 21
6.091719137817548
 31
0.0
  0
LINE
  5
2A6
330
2
100
AcDbEntity
  8
GAIKEI
  6
Continuous
 62
     1
100
AcDbLine
 10
-46.29357745103959
 20
6.856051651877564
 30
0.0
 11
-46.29357745103959
 21
7.781288171357559
 31
0.0
  0
LINE
  5
2A7
330
2
100
AcDbEntity
  8
GAIKEI
  6
Continuous
 62
     1
100
AcDbLine
 10
-46.5011957107796
 20
7.065669911617575
 30
0.0
 11
-46.5011957107796
 21
7.577669911617576
 31
0.0
  0
LINE
  5
2A8
330
2
100
AcDbEntity
  8
GAIKEI
  6
Continuous
 62
     1
100
AcDbLine
 10
-46.5711957107797
 20
7.481669911617572
 30
0.0
 11
-46.5711957107797
 21
7.321669911617604
 31
0.0
  0
LINE
  5
2A9
330
2
100
AcDbEntity
  8
GAIKEI
  6
Continuous
 62
     1
100
AcDbLine
 10
-46.51750005859975
 20
5.848669911617534
 30
0.0
 11
-46.43413806193956
 21
4.890006949977575
 31
0.0
  0
LINE
  5
2AA
330
2
100
AcDbEntity
  8
GAIKEI
  6
Continuous
 62
     1
100
AcDbLine
 10
-47.68119571077977
 20
7.481669911617572
 30
0.0
 11
-47.68119571077977
 21
7.321669911617604
 31
0.0
  0
LINE
  5
2AB
330
2
100
AcDbEntity
  8
GAIKEI
  6
Continuous
 62
     1
100
AcDbLine
 10
-47.7511957107796
 20
7.065669911617575
 30
0.0
 11
-47.7511957107796
 21
7.577669911617576
 31
0.0
  0
LINE
  5
2AC
330
2
100
AcDbEntity
  8
GAIKEI
  6
Continuous
 62
     1
100
AcDbLine
 10
-47.95881397051959
 20
7.781288171357559
 30
0.0
 11
-47.95881397051959
 21
6.856051651877564
 31
0.0
  0
LINE
  5
2AD
330
2
100
AcDbEntity
  8
GAIKEI
  6
Continuous
 62
     1
100
AcDbLine
 10
-49.64716519460779
 20
12.78857756747753
 30
0.0
 11
-49.65167122513378
 21
10.0295718059376
 31
0.0
  0
LINE
  5
2AE
330
2
100
AcDbEntity
  8
GAIKEI
  6
Continuous
 62
     7
100
AcDbLine
 10
-50.16619571077973
 20
5.828669911617552
 30
0.0
 11
-50.16619571077973
 21
5.848669911617534
 31
0.0
  0
LINE
  5
2AF
330
2
100
AcDbEntity
  8
GAIKEI
  6
Continuous
 62
     7
100
AcDbLine
 10
-50.62619571077959
 20
14.59873669723753
 30
0.0
 11
-50.62619571077959
 21
5.898595864637499
 31
0.0
  0
ARC
  5
2B0
330
2
100
AcDbEntity
  8
GAIKEI
  6
Continuous
 62
   251
100
AcDbCircle
 10
-24.92619571077955
 20
6.288669911617589
 30
0.0
 40
0.0871779788800211
100
AcDbArc
 50
19.29015321190804
 51
65.70602076585572
  0
ARC
  5
2B1
330
2
100
AcDbEntity
  8
GAIKEI
  6
Continuous
 62
   251
100
AcDbCircle
 10
-21.92619571077955
 20
6.288669911617589
 30
0.0
 40
0.0871779788801676
100
AcDbArc
 50
114.2837254804129
 51
160.6908756631838
  0
ARC
  5
2B2
330
2
100
AcDbEntity
  8
GAIKEI
  6
Continuous
 62
   251
100
AcDbCircle
 10
-18.92619571077955
 20
6.288669911617589
 30
0.0
 40
0.0871779788798001
100
AcDbArc
 50
14.47004851974715
 51
80.99007775520218
  0
ARC
  5
2B3
330
2
100
AcDbEntity
  8
GAIKEI
  6
Continuous
 62
     7
100
AcDbCircle
 10
-12.91787741843973
 20
4.898669911617602
 30
0.0
 40
0.1
100
AcDbArc
 50
270.0
 51
355.0302592719344
  0
ARC
  5
2B4
330
2
100
AcDbEntity
  8
GAIKEI
  6
Continuous
 62
     7
100
AcDbCircle
 10
-14.73451400311956
 20
4.898669911617602
 30
0.0
 40
0.1000000000000114
100
AcDbArc
 50
184.9697407280688
 51
270.0
  0
ARC
  5
2B5
330
2
100
AcDbEntity
  8
GAIKEI
  6
Continuous
 62
     1
100
AcDbCircle
 10
-44.51787741843975
 20
4.898669911617602
 30
0.0
 40
0.1
100
AcDbArc
 50
270.0
 51
355.0302592719344
  0
ARC
  5
2B6
330
2
100
AcDbEntity
  8
GAIKEI
  6
Continuous
 62
     1
100
AcDbCircle
 10
-46.33451400311957
 20
4.898669911617602
 30
0.0
 40
0.1000000000000341
100
AcDbArc
 50
184.9697407280656
 51
270.0
  0
CIRCLE
  5
2B7
330
2
100
AcDbEntity
  8
GAIKEI
  6
Continuous
 62
   251
100
AcDbCircle
 10
-9.626195710779541
 20
7.658669911617593
 30
0.0
 40
0.0900000000000091
  0
CIRCLE
  5
2B8
330
2
100
AcDbEntity
  8
GAIKEI
  6
Continuous
 62
   251
100
AcDbCircle
 10
-9.626195710779541
 20
7.238669911617577
 30
0.0
 40
0.0900000000000091
  0
CIRCLE
  5
2B9
330
2
100
AcDbEntity
  8
GAIKEI
  6
Continuous
 62
   251
100
AcDbCircle
 10
-9.626195710779541
 20
6.818669911617561
 30
0.0
 40
0.0900000000000091
  0
CIRCLE
  5
2BA
330
2
100
AcDbEntity
  8
GAIKEI
  6
Continuous
 62
   251
100
AcDbCircle
 10
-9.626195710779541
 20
6.398669911617602
 30
0.0
 40
0.0900000000000091
  0
CIRCLE
  5
2BB
330
2
100
AcDbEntity
  8
GAIKEI
  6
Continuous
 62
   251
100
AcDbCircle
 10
-10.08619571077952
 20
6.398669911617602
 30
0.0
 40
0.0899999999998045
  0
CIRCLE
  5
2BC
330
2
100
AcDbEntity
  8
GAIKEI
  6
Continuous
 62
   251
100
AcDbCircle
 10
-10.08619571077952
 20
6.818669911617561
 30
0.0
 40
0.0899999999998045
  0
CIRCLE
  5
2BD
330
2
100
AcDbEntity
  8
GAIKEI
  6
Continuous
 62
   251
100
AcDbCircle
 10
-10.08619571077952
 20
7.238669911617577
 30
0.0
 40
0.0899999999998045
  0
CIRCLE
  5
2BE
330
2
100
AcDbEntity
  8
GAIKEI
  6
Continuous
 62
   251
100
AcDbCircle
 10
-10.08619571077952
 20
7.658669911617593
 30
0.0
 40
0.0899999999998045
  0
CIRCLE
  5
2BF
330
2
100
AcDbEntity
  8
GAIKEI
  6
Continuous
 62
   251
100
AcDbCircle
 10
-10.54619571077973
 20
6.398669911617602
 30
0.0
 40
0.0899999999999864
  0
CIRCLE
  5
2C0
330
2
100
AcDbEntity
  8
GAIKEI
  6
Continuous
 62
   251
100
AcDbCircle
 10
-10.54619571077973
 20
6.818669911617561
 30
0.0
 40
0.0899999999999864
  0
CIRCLE
  5
2C1
330
2
100
AcDbEntity
  8
GAIKEI
  6
Continuous
 62
   251
100
AcDbCircle
 10
-10.54619571077973
 20
7.238669911617577
 30
0.0
 40
0.0899999999999864
  0
CIRCLE
  5
2C2
330
2
100
AcDbEntity
  8
GAIKEI
  6
Continuous
 62
   251
100
AcDbCircle
 10
-10.54619571077973
 20
7.658669911617593
 30
0.0
 40
0.0899999999999864
  0
CIRCLE
  5
2C3
330
2
100
AcDbEntity
  8
GAIKEI
  6
Continuous
 62
   251
100
AcDbCircle
 10
-11.00619571077976
 20
6.398669911617602
 30
0.0
 40
0.0900000000000091
  0
CIRCLE
  5
2C4
330
2
100
AcDbEntity
  8
GAIKEI
  6
Continuous
 62
   251
100
AcDbCircle
 10
-11.00619571077976
 20
6.818669911617561
 30
0.0
 40
0.0900000000000091
  0
CIRCLE
  5
2C5
330
2
100
AcDbEntity
  8
GAIKEI
  6
Continuous
 62
   251
100
AcDbCircle
 10
-11.00619571077976
 20
7.238669911617577
 30
0.0
 40
0.0900000000000091
  0
CIRCLE
  5
2C6
330
2
100
AcDbEntity
  8
GAIKEI
  6
Continuous
 62
   251
100
AcDbCircle
 10
-11.00619571077976
 20
7.658669911617593
 30
0.0
 40
0.0900000000000091
  0
CIRCLE
  5
2C7
330
2
100
AcDbEntity
  8
GAIKEI
  6
Continuous
 62
   251
100
AcDbCircle
 10
-11.46619571077974
 20
6.398669911617602
 30
0.0
 40
0.090000000000191
  0
CIRCLE
  5
2C8
330
2
100
AcDbEntity
  8
GAIKEI
  6
Continuous
 62
   251
100
AcDbCircle
 10
-11.46619571077974
 20
6.818669911617561
 30
0.0
 40
0.090000000000191
  0
CIRCLE
  5
2C9
330
2
100
AcDbEntity
  8
GAIKEI
  6
Continuous
 62
   251
100
AcDbCircle
 10
-11.46619571077974
 20
7.238669911617577
 30
0.0
 40
0.090000000000191
  0
CIRCLE
  5
2CA
330
2
100
AcDbEntity
  8
GAIKEI
  6
Continuous
 62
   251
100
AcDbCircle
 10
-11.46619571077974
 20
7.658669911617593
 30
0.0
 40
0.090000000000191
  0
CIRCLE
  5
2CB
330
2
100
AcDbEntity
  8
GAIKEI
  6
Continuous
 62
   251
100
AcDbCircle
 10
-11.92619571077955
 20
6.398669911617602
 30
0.0
 40
0.0900000000000091
  0
CIRCLE
  5
2CC
330
2
100
AcDbEntity
  8
GAIKEI
  6
Continuous
 62
   251
100
AcDbCircle
 10
-11.92619571077955
 20
6.818669911617561
 30
0.0
 40
0.0900000000000091
  0
CIRCLE
  5
2CD
330
2
100
AcDbEntity
  8
GAIKEI
  6
Continuous
 62
   251
100
AcDbCircle
 10
-11.92619571077955
 20
7.238669911617577
 30
0.0
 40
0.0900000000000091
  0
CIRCLE
  5
2CE
330
2
100
AcDbEntity
  8
GAIKEI
  6
Continuous
 62
   251
100
AcDbCircle
 10
-11.92619571077955
 20
7.658669911617593
 30
0.0
 40
0.0900000000000091
  0
CIRCLE
  5
2CF
330
2
100
AcDbEntity
  8
GAIKEI
  6
Continuous
 62
   251
100
AcDbCircle
 10
-12.38619571077953
 20
6.398669911617602
 30
0.0
 40
0.0899999999998045
  0
CIRCLE
  5
2D0
330
2
100
AcDbEntity
  8
GAIKEI
  6
Continuous
 62
   251
100
AcDbCircle
 10
-12.38619571077953
 20
6.818669911617561
 30
0.0
 40
0.0899999999998045
  0
CIRCLE
  5
2D1
330
2
100
AcDbEntity
  8
GAIKEI
  6
Continuous
 62
   251
100
AcDbCircle
 10
-12.38619571077953
 20
7.238669911617577
 30
0.0
 40
0.0899999999998045
  0
CIRCLE
  5
2D2
330
2
100
AcDbEntity
  8
GAIKEI
  6
Continuous
 62
   251
100
AcDbCircle
 10
-12.38619571077953
 20
7.658669911617593
 30
0.0
 40
0.0899999999998045
  0
CIRCLE
  5
2D3
330
2
100
AcDbEntity
  8
GAIKEI
  6
Continuous
 62
   251
100
AcDbCircle
 10
-12.84619571077974
 20
6.398669911617602
 30
0.0
 40
0.0899999999999864
  0
CIRCLE
  5
2D4
330
2
100
AcDbEntity
  8
GAIKEI
  6
Continuous
 62
   251
100
AcDbCircle
 10
-12.84619571077974
 20
6.818669911617561
 30
0.0
 40
0.0899999999999864
  0
CIRCLE
  5
2D5
330
2
100
AcDbEntity
  8
GAIKEI
  6
Continuous
 62
   251
100
AcDbCircle
 10
-12.84619571077974
 20
7.238669911617577
 30
0.0
 40
0.0899999999999864
  0
CIRCLE
  5
2D6
330
2
100
AcDbEntity
  8
GAIKEI
  6
Continuous
 62
   251
100
AcDbCircle
 10
-12.84619571077974
 20
7.658669911617593
 30
0.0
 40
0.0899999999999864
  0
CIRCLE
  5
2D7
330
2
100
AcDbEntity
  8
GAIKEI
  6
Continuous
 62
   251
100
AcDbCircle
 10
-13.30619571077977
 20
6.398669911617602
 30
0.0
 40
0.0900000000000091
  0
CIRCLE
  5
2D8
330
2
100
AcDbEntity
  8
GAIKEI
  6
Continuous
 62
   251
100
AcDbCircle
 10
-13.30619571077977
 20
6.818669911617561
 30
0.0
 40
0.0900000000000091
  0
CIRCLE
  5
2D9
330
2
100
AcDbEntity
  8
GAIKEI
  6
Continuous
 62
   251
100
AcDbCircle
 10
-13.30619571077977
 20
7.238669911617577
 30
0.0
 40
0.0900000000000091
  0
CIRCLE
  5
2DA
330
2
100
AcDbEntity
  8
GAIKEI
  6
Continuous
 62
   251
100
AcDbCircle
 10
-13.30619571077977
 20
7.658669911617593
 30
0.0
 40
0.0900000000000091
  0
CIRCLE
  5
2DB
330
2
100
AcDbEntity
  8
GAIKEI
  6
Continuous
 62
   251
100
AcDbCircle
 10
-13.76619571077975
 20
6.398669911617602
 30
0.0
 40
0.090000000000191
  0
CIRCLE
  5
2DC
330
2
100
AcDbEntity
  8
GAIKEI
  6
Continuous
 62
   251
100
AcDbCircle
 10
-13.76619571077975
 20
6.818669911617561
 30
0.0
 40
0.090000000000191
  0
CIRCLE
  5
2DD
330
2
100
AcDbEntity
  8
GAIKEI
  6
Continuous
 62
   251
100
AcDbCircle
 10
-13.76619571077975
 20
7.238669911617577
 30
0.0
 40
0.090000000000191
  0
CIRCLE
  5
2DE
330
2
100
AcDbEntity
  8
GAIKEI
  6
Continuous
 62
   251
100
AcDbCircle
 10
-13.76619571077975
 20
7.658669911617593
 30
0.0
 40
0.090000000000191
  0
CIRCLE
  5
2DF
330
2
100
AcDbEntity
  8
GAIKEI
  6
Continuous
 62
   251
100
AcDbCircle
 10
-14.22619571077956
 20
6.398669911617602
 30
0.0
 40
0.0900000000000091
  0
CIRCLE
  5
2E0
330
2
100
AcDbEntity
  8
GAIKEI
  6
Continuous
 62
   251
100
AcDbCircle
 10
-14.22619571077956
 20
6.818669911617561
 30
0.0
 40
0.0900000000000091
  0
CIRCLE
  5
2E1
330
2
100
AcDbEntity
  8
GAIKEI
  6
Continuous
 62
   251
100
AcDbCircle
 10
-14.22619571077956
 20
7.238669911617577
 30
0.0
 40
0.0900000000000091
  0
CIRCLE
  5
2E2
330
2
100
AcDbEntity
  8
GAIKEI
  6
Continuous
 62
   251
100
AcDbCircle
 10
-14.22619571077956
 20
7.658669911617593
 30
0.0
 40
0.0900000000000091
  0
CIRCLE
  5
2E3
330
2
100
AcDbEntity
  8
GAIKEI
  6
Continuous
 62
   251
100
AcDbCircle
 10
-14.68619571077954
 20
6.398669911617602
 30
0.0
 40
0.0899999999998045
  0
CIRCLE
  5
2E4
330
2
100
AcDbEntity
  8
GAIKEI
  6
Continuous
 62
   251
100
AcDbCircle
 10
-14.68619571077954
 20
6.818669911617561
 30
0.0
 40
0.0899999999998045
  0
CIRCLE
  5
2E5
330
2
100
AcDbEntity
  8
GAIKEI
  6
Continuous
 62
   251
100
AcDbCircle
 10
-14.68619571077954
 20
7.238669911617577
 30
0.0
 40
0.0899999999998045
  0
CIRCLE
  5
2E6
330
2
100
AcDbEntity
  8
GAIKEI
  6
Continuous
 62
   251
100
AcDbCircle
 10
-14.68619571077954
 20
7.658669911617593
 30
0.0
 40
0.0899999999998045
  0
CIRCLE
  5
2E7
330
2
100
AcDbEntity
  8
GAIKEI
  6
Continuous
 62
   251
100
AcDbCircle
 10
-15.14619571077975
 20
6.398669911617602
 30
0.0
 40
0.0899999999999864
  0
CIRCLE
  5
2E8
330
2
100
AcDbEntity
  8
GAIKEI
  6
Continuous
 62
   251
100
AcDbCircle
 10
-15.14619571077975
 20
6.818669911617561
 30
0.0
 40
0.0899999999999864
  0
CIRCLE
  5
2E9
330
2
100
AcDbEntity
  8
GAIKEI
  6
Continuous
 62
   251
100
AcDbCircle
 10
-15.14619571077975
 20
7.238669911617577
 30
0.0
 40
0.0899999999999864
  0
CIRCLE
  5
2EA
330
2
100
AcDbEntity
  8
GAIKEI
  6
Continuous
 62
   251
100
AcDbCircle
 10
-15.14619571077975
 20
7.658669911617593
 30
0.0
 40
0.0899999999999864
  0
CIRCLE
  5
2EB
330
2
100
AcDbEntity
  8
GAIKEI
  6
Continuous
 62
   251
100
AcDbCircle
 10
-15.60619571077973
 20
6.398669911617602
 30
0.0
 40
0.0900000000000091
  0
CIRCLE
  5
2EC
330
2
100
AcDbEntity
  8
GAIKEI
  6
Continuous
 62
   251
100
AcDbCircle
 10
-15.60619571077973
 20
6.818669911617561
 30
0.0
 40
0.0900000000000091
  0
CIRCLE
  5
2ED
330
2
100
AcDbEntity
  8
GAIKEI
  6
Continuous
 62
   251
100
AcDbCircle
 10
-15.60619571077973
 20
7.238669911617577
 30
0.0
 40
0.0900000000000091
  0
CIRCLE
  5
2EE
330
2
100
AcDbEntity
  8
GAIKEI
  6
Continuous
 62
   251
100
AcDbCircle
 10
-15.60619571077973
 20
7.658669911617593
 30
0.0
 40
0.0900000000000091
  0
CIRCLE
  5
2EF
330
2
100
AcDbEntity
  8
GAIKEI
  6
Continuous
 62
   251
100
AcDbCircle
 10
-16.06619571077976
 20
6.398669911617602
 30
0.0
 40
0.090000000000191
  0
CIRCLE
  5
2F0
330
2
100
AcDbEntity
  8
GAIKEI
  6
Continuous
 62
   251
100
AcDbCircle
 10
-16.06619571077976
 20
6.818669911617561
 30
0.0
 40
0.090000000000191
  0
CIRCLE
  5
2F1
330
2
100
AcDbEntity
  8
GAIKEI
  6
Continuous
 62
   251
100
AcDbCircle
 10
-16.06619571077976
 20
7.238669911617577
 30
0.0
 40
0.090000000000191
  0
CIRCLE
  5
2F2
330
2
100
AcDbEntity
  8
GAIKEI
  6
Continuous
 62
   251
100
AcDbCircle
 10
-16.06619571077976
 20
7.658669911617593
 30
0.0
 40
0.090000000000191
  0
CIRCLE
  5
2F3
330
2
100
AcDbEntity
  8
GAIKEI
  6
Continuous
 62
   251
100
AcDbCircle
 10
-16.52619571077957
 20
6.398669911617602
 30
0.0
 40
0.0900000000000091
  0
CIRCLE
  5
2F4
330
2
100
AcDbEntity
  8
GAIKEI
  6
Continuous
 62
   251
100
AcDbCircle
 10
-16.52619571077957
 20
6.818669911617561
 30
0.0
 40
0.0900000000000091
  0
CIRCLE
  5
2F5
330
2
100
AcDbEntity
  8
GAIKEI
  6
Continuous
 62
   251
100
AcDbCircle
 10
-16.52619571077957
 20
7.238669911617577
 30
0.0
 40
0.0900000000000091
  0
CIRCLE
  5
2F6
330
2
100
AcDbEntity
  8
GAIKEI
  6
Continuous
 62
   251
100
AcDbCircle
 10
-16.52619571077957
 20
7.658669911617593
 30
0.0
 40
0.0900000000000091
  0
CIRCLE
  5
2F7
330
2
100
AcDbEntity
  8
GAIKEI
  6
Continuous
 62
   251
100
AcDbCircle
 10
-16.98619571077955
 20
6.398669911617602
 30
0.0
 40
0.0899999999998045
  0
CIRCLE
  5
2F8
330
2
100
AcDbEntity
  8
GAIKEI
  6
Continuous
 62
   251
100
AcDbCircle
 10
-16.98619571077955
 20
6.818669911617561
 30
0.0
 40
0.0899999999998045
  0
CIRCLE
  5
2F9
330
2
100
AcDbEntity
  8
GAIKEI
  6
Continuous
 62
   251
100
AcDbCircle
 10
-16.98619571077955
 20
7.238669911617577
 30
0.0
 40
0.0899999999998045
  0
CIRCLE
  5
2FA
330
2
100
AcDbEntity
  8
GAIKEI
  6
Continuous
 62
   251
100
AcDbCircle
 10
-16.98619571077955
 20
7.658669911617593
 30
0.0
 40
0.0899999999998045
  0
CIRCLE
  5
2FB
330
2
100
AcDbEntity
  8
GAIKEI
  6
Continuous
 62
   251
100
AcDbCircle
 10
-17.44619571077976
 20
6.398669911617602
 30
0.0
 40
0.0899999999999864
  0
CIRCLE
  5
2FC
330
2
100
AcDbEntity
  8
GAIKEI
  6
Continuous
 62
   251
100
AcDbCircle
 10
-17.44619571077976
 20
6.818669911617561
 30
0.0
 40
0.0899999999999864
  0
CIRCLE
  5
2FD
330
2
100
AcDbEntity
  8
GAIKEI
  6
Continuous
 62
   251
100
AcDbCircle
 10
-17.44619571077976
 20
7.238669911617577
 30
0.0
 40
0.0899999999999864
  0
CIRCLE
  5
2FE
330
2
100
AcDbEntity
  8
GAIKEI
  6
Continuous
 62
   251
100
AcDbCircle
 10
-17.44619571077976
 20
7.658669911617593
 30
0.0
 40
0.0899999999999864
  0
CIRCLE
  5
2FF
330
2
100
AcDbEntity
  8
GAIKEI
  6
Continuous
 62
   251
100
AcDbCircle
 10
-17.90619571077974
 20
6.398669911617602
 30
0.0
 40
0.0900000000000091
  0
CIRCLE
  5
300
330
2
100
AcDbEntity
  8
GAIKEI
  6
Continuous
 62
   251
100
AcDbCircle
 10
-17.90619571077974
 20
6.818669911617561
 30
0.0
 40
0.0900000000000091
  0
CIRCLE
  5
301
330
2
100
AcDbEntity
  8
GAIKEI
  6
Continuous
 62
   251
100
AcDbCircle
 10
-17.90619571077974
 20
7.238669911617577
 30
0.0
 40
0.0900000000000091
  0
CIRCLE
  5
302
330
2
100
AcDbEntity
  8
GAIKEI
  6
Continuous
 62
   251
100
AcDbCircle
 10
-17.90619571077974
 20
7.658669911617593
 30
0.0
 40
0.0900000000000091
  0
CIRCLE
  5
303
330
2
100
AcDbEntity
  8
GAIKEI
  6
Continuous
 62
   251
100
AcDbCircle
 10
-18.36619571077972
 20
6.398669911617602
 30
0.0
 40
0.090000000000191
  0
CIRCLE
  5
304
330
2
100
AcDbEntity
  8
GAIKEI
  6
Continuous
 62
   251
100
AcDbCircle
 10
-18.36619571077972
 20
6.818669911617561
 30
0.0
 40
0.090000000000191
  0
CIRCLE
  5
305
330
2
100
AcDbEntity
  8
GAIKEI
  6
Continuous
 62
   251
100
AcDbCircle
 10
-18.36619571077972
 20
7.238669911617577
 30
0.0
 40
0.090000000000191
  0
CIRCLE
  5
306
330
2
100
AcDbEntity
  8
GAIKEI
  6
Continuous
 62
   251
100
AcDbCircle
 10
-18.36619571077972
 20
7.658669911617593
 30
0.0
 40
0.090000000000191
  0
CIRCLE
  5
307
330
2
100
AcDbEntity
  8
GAIKEI
  6
Continuous
 62
   251
100
AcDbCircle
 10
-18.82619571077953
 20
6.398669911617602
 30
0.0
 40
0.0900000000000091
  0
CIRCLE
  5
308
330
2
100
AcDbEntity
  8
GAIKEI
  6
Continuous
 62
   251
100
AcDbCircle
 10
-18.82619571077953
 20
6.818669911617561
 30
0.0
 40
0.0900000000000091
  0
CIRCLE
  5
309
330
2
100
AcDbEntity
  8
GAIKEI
  6
Continuous
 62
   251
100
AcDbCircle
 10
-18.82619571077953
 20
7.238669911617577
 30
0.0
 40
0.0900000000000091
  0
CIRCLE
  5
30A
330
2
100
AcDbEntity
  8
GAIKEI
  6
Continuous
 62
   251
100
AcDbCircle
 10
-18.82619571077953
 20
7.658669911617593
 30
0.0
 40
0.0900000000000091
  0
CIRCLE
  5
30B
330
2
100
AcDbEntity
  8
GAIKEI
  6
Continuous
 62
   251
100
AcDbCircle
 10
-19.28619571077956
 20
6.398669911617602
 30
0.0
 40
0.0899999999998045
  0
CIRCLE
  5
30C
330
2
100
AcDbEntity
  8
GAIKEI
  6
Continuous
 62
   251
100
AcDbCircle
 10
-19.28619571077956
 20
6.818669911617561
 30
0.0
 40
0.0899999999998045
  0
CIRCLE
  5
30D
330
2
100
AcDbEntity
  8
GAIKEI
  6
Continuous
 62
   251
100
AcDbCircle
 10
-19.28619571077956
 20
7.238669911617577
 30
0.0
 40
0.0899999999998045
  0
CIRCLE
  5
30E
330
2
100
AcDbEntity
  8
GAIKEI
  6
Continuous
 62
   251
100
AcDbCircle
 10
-19.28619571077956
 20
7.658669911617593
 30
0.0
 40
0.0899999999998045
  0
CIRCLE
  5
30F
330
2
100
AcDbEntity
  8
GAIKEI
  6
Continuous
 62
   251
100
AcDbCircle
 10
-19.74619571077971
 20
6.398669911617602
 30
0.0
 40
0.0899999999999864
  0
CIRCLE
  5
310
330
2
100
AcDbEntity
  8
GAIKEI
  6
Continuous
 62
   251
100
AcDbCircle
 10
-19.74619571077971
 20
6.818669911617561
 30
0.0
 40
0.0899999999999864
  0
CIRCLE
  5
311
330
2
100
AcDbEntity
  8
GAIKEI
  6
Continuous
 62
   251
100
AcDbCircle
 10
-19.74619571077971
 20
7.238669911617577
 30
0.0
 40
0.0899999999999864
  0
CIRCLE
  5
312
330
2
100
AcDbEntity
  8
GAIKEI
  6
Continuous
 62
   251
100
AcDbCircle
 10
-19.74619571077971
 20
7.658669911617593
 30
0.0
 40
0.0899999999999864
  0
CIRCLE
  5
313
330
2
100
AcDbEntity
  8
GAIKEI
  6
Continuous
 62
   251
100
AcDbCircle
 10
-20.20619571077975
 20
6.398669911617602
 30
0.0
 40
0.0900000000000091
  0
CIRCLE
  5
314
330
2
100
AcDbEntity
  8
GAIKEI
  6
Continuous
 62
   251
100
AcDbCircle
 10
-20.20619571077975
 20
6.818669911617561
 30
0.0
 40
0.0900000000000091
  0
CIRCLE
  5
315
330
2
100
AcDbEntity
  8
GAIKEI
  6
Continuous
 62
   251
100
AcDbCircle
 10
-20.20619571077975
 20
7.238669911617577
 30
0.0
 40
0.0900000000000091
  0
CIRCLE
  5
316
330
2
100
AcDbEntity
  8
GAIKEI
  6
Continuous
 62
   251
100
AcDbCircle
 10
-20.20619571077975
 20
7.658669911617593
 30
0.0
 40
0.0900000000000091
  0
CIRCLE
  5
317
330
2
100
AcDbEntity
  8
GAIKEI
  6
Continuous
 62
   251
100
AcDbCircle
 10
-20.66619571077973
 20
6.398669911617602
 30
0.0
 40
0.090000000000191
  0
CIRCLE
  5
318
330
2
100
AcDbEntity
  8
GAIKEI
  6
Continuous
 62
   251
100
AcDbCircle
 10
-20.66619571077973
 20
6.818669911617561
 30
0.0
 40
0.090000000000191
  0
CIRCLE
  5
319
330
2
100
AcDbEntity
  8
GAIKEI
  6
Continuous
 62
   251
100
AcDbCircle
 10
-20.66619571077973
 20
7.238669911617577
 30
0.0
 40
0.090000000000191
  0
CIRCLE
  5
31A
330
2
100
AcDbEntity
  8
GAIKEI
  6
Continuous
 62
   251
100
AcDbCircle
 10
-20.66619571077973
 20
7.658669911617593
 30
0.0
 40
0.090000000000191
  0
CIRCLE
  5
31B
330
2
100
AcDbEntity
  8
GAIKEI
  6
Continuous
 62
   251
100
AcDbCircle
 10
-21.12619571077954
 20
6.398669911617602
 30
0.0
 40
0.0900000000000091
  0
CIRCLE
  5
31C
330
2
100
AcDbEntity
  8
GAIKEI
  6
Continuous
 62
   251
100
AcDbCircle
 10
-21.12619571077954
 20
6.818669911617561
 30
0.0
 40
0.0900000000000091
  0
CIRCLE
  5
31D
330
2
100
AcDbEntity
  8
GAIKEI
  6
Continuous
 62
   251
100
AcDbCircle
 10
-21.12619571077954
 20
7.238669911617577
 30
0.0
 40
0.0900000000000091
  0
CIRCLE
  5
31E
330
2
100
AcDbEntity
  8
GAIKEI
  6
Continuous
 62
   251
100
AcDbCircle
 10
-21.12619571077954
 20
7.658669911617593
 30
0.0
 40
0.0900000000000091
  0
CIRCLE
  5
31F
330
2
100
AcDbEntity
  8
GAIKEI
  6
Continuous
 62
   251
100
AcDbCircle
 10
-21.58619571077952
 20
6.398669911617602
 30
0.0
 40
0.0899999999998045
  0
CIRCLE
  5
320
330
2
100
AcDbEntity
  8
GAIKEI
  6
Continuous
 62
   251
100
AcDbCircle
 10
-21.58619571077952
 20
6.818669911617561
 30
0.0
 40
0.0899999999998045
  0
CIRCLE
  5
321
330
2
100
AcDbEntity
  8
GAIKEI
  6
Continuous
 62
   251
100
AcDbCircle
 10
-21.58619571077952
 20
7.238669911617577
 30
0.0
 40
0.0899999999998045
  0
CIRCLE
  5
322
330
2
100
AcDbEntity
  8
GAIKEI
  6
Continuous
 62
   251
100
AcDbCircle
 10
-21.58619571077952
 20
7.658669911617593
 30
0.0
 40
0.0899999999998045
  0
CIRCLE
  5
323
330
2
100
AcDbEntity
  8
GAIKEI
  6
Continuous
 62
   251
100
AcDbCircle
 10
-22.04619571077973
 20
6.398669911617602
 30
0.0
 40
0.0899999999999864
  0
CIRCLE
  5
324
330
2
100
AcDbEntity
  8
GAIKEI
  6
Continuous
 62
   251
100
AcDbCircle
 10
-22.04619571077973
 20
6.818669911617561
 30
0.0
 40
0.0899999999999864
  0
CIRCLE
  5
325
330
2
100
AcDbEntity
  8
GAIKEI
  6
Continuous
 62
   251
100
AcDbCircle
 10
-22.04619571077973
 20
7.238669911617577
 30
0.0
 40
0.0899999999999864
  0
CIRCLE
  5
326
330
2
100
AcDbEntity
  8
GAIKEI
  6
Continuous
 62
   251
100
AcDbCircle
 10
-22.04619571077973
 20
7.658669911617593
 30
0.0
 40
0.0899999999999864
  0
CIRCLE
  5
327
330
2
100
AcDbEntity
  8
GAIKEI
  6
Continuous
 62
   251
100
AcDbCircle
 10
-22.50619571077976
 20
6.398669911617602
 30
0.0
 40
0.0900000000000091
  0
CIRCLE
  5
328
330
2
100
AcDbEntity
  8
GAIKEI
  6
Continuous
 62
   251
100
AcDbCircle
 10
-22.50619571077976
 20
6.818669911617561
 30
0.0
 40
0.0900000000000091
  0
CIRCLE
  5
329
330
2
100
AcDbEntity
  8
GAIKEI
  6
Continuous
 62
   251
100
AcDbCircle
 10
-22.50619571077976
 20
7.238669911617577
 30
0.0
 40
0.0900000000000091
  0
CIRCLE
  5
32A
330
2
100
AcDbEntity
  8
GAIKEI
  6
Continuous
 62
   251
100
AcDbCircle
 10
-22.50619571077976
 20
7.658669911617593
 30
0.0
 40
0.0900000000000091
  0
CIRCLE
  5
32B
330
2
100
AcDbEntity
  8
GAIKEI
  6
Continuous
 62
   251
100
AcDbCircle
 10
-22.96619571077974
 20
6.398669911617602
 30
0.0
 40
0.090000000000191
  0
CIRCLE
  5
32C
330
2
100
AcDbEntity
  8
GAIKEI
  6
Continuous
 62
   251
100
AcDbCircle
 10
-22.96619571077974
 20
6.818669911617561
 30
0.0
 40
0.090000000000191
  0
CIRCLE
  5
32D
330
2
100
AcDbEntity
  8
GAIKEI
  6
Continuous
 62
   251
100
AcDbCircle
 10
-22.96619571077974
 20
7.238669911617577
 30
0.0
 40
0.090000000000191
  0
CIRCLE
  5
32E
330
2
100
AcDbEntity
  8
GAIKEI
  6
Continuous
 62
   251
100
AcDbCircle
 10
-22.96619571077974
 20
7.658669911617593
 30
0.0
 40
0.090000000000191
  0
CIRCLE
  5
32F
330
2
100
AcDbEntity
  8
GAIKEI
  6
Continuous
 62
   251
100
AcDbCircle
 10
-23.42619571077955
 20
6.398669911617602
 30
0.0
 40
0.0900000000000091
  0
CIRCLE
  5
330
330
2
100
AcDbEntity
  8
GAIKEI
  6
Continuous
 62
   251
100
AcDbCircle
 10
-23.42619571077955
 20
6.818669911617561
 30
0.0
 40
0.0900000000000091
  0
CIRCLE
  5
331
330
2
100
AcDbEntity
  8
GAIKEI
  6
Continuous
 62
   251
100
AcDbCircle
 10
-23.42619571077955
 20
7.238669911617577
 30
0.0
 40
0.0900000000000091
  0
CIRCLE
  5
332
330
2
100
AcDbEntity
  8
GAIKEI
  6
Continuous
 62
   251
100
AcDbCircle
 10
-23.42619571077955
 20
7.658669911617593
 30
0.0
 40
0.0900000000000091
  0
CIRCLE
  5
333
330
2
100
AcDbEntity
  8
GAIKEI
  6
Continuous
 62
   251
100
AcDbCircle
 10
-23.88619571077953
 20
6.398669911617602
 30
0.0
 40
0.0899999999998045
  0
CIRCLE
  5
334
330
2
100
AcDbEntity
  8
GAIKEI
  6
Continuous
 62
   251
100
AcDbCircle
 10
-23.88619571077953
 20
6.818669911617561
 30
0.0
 40
0.0899999999998045
  0
CIRCLE
  5
335
330
2
100
AcDbEntity
  8
GAIKEI
  6
Continuous
 62
   251
100
AcDbCircle
 10
-23.88619571077953
 20
7.238669911617577
 30
0.0
 40
0.0899999999998045
  0
CIRCLE
  5
336
330
2
100
AcDbEntity
  8
GAIKEI
  6
Continuous
 62
   251
100
AcDbCircle
 10
-23.88619571077953
 20
7.658669911617593
 30
0.0
 40
0.0899999999998045
  0
CIRCLE
  5
337
330
2
100
AcDbEntity
  8
GAIKEI
  6
Continuous
 62
   251
100
AcDbCircle
 10
-24.34619571077974
 20
6.398669911617602
 30
0.0
 40
0.0899999999999864
  0
CIRCLE
  5
338
330
2
100
AcDbEntity
  8
GAIKEI
  6
Continuous
 62
   251
100
AcDbCircle
 10
-24.34619571077974
 20
6.818669911617561
 30
0.0
 40
0.0899999999999864
  0
CIRCLE
  5
339
330
2
100
AcDbEntity
  8
GAIKEI
  6
Continuous
 62
   251
100
AcDbCircle
 10
-24.34619571077974
 20
7.238669911617577
 30
0.0
 40
0.0899999999999864
  0
CIRCLE
  5
33A
330
2
100
AcDbEntity
  8
GAIKEI
  6
Continuous
 62
   251
100
AcDbCircle
 10
-24.34619571077974
 20
7.658669911617593
 30
0.0
 40
0.0899999999999864
  0
CIRCLE
  5
33B
330
2
100
AcDbEntity
  8
GAIKEI
  6
Continuous
 62
   251
100
AcDbCircle
 10
-24.80619571077978
 20
6.398669911617602
 30
0.0
 40
0.0900000000000091
  0
CIRCLE
  5
33C
330
2
100
AcDbEntity
  8
GAIKEI
  6
Continuous
 62
   251
100
AcDbCircle
 10
-24.80619571077978
 20
6.818669911617561
 30
0.0
 40
0.0900000000000091
  0
CIRCLE
  5
33D
330
2
100
AcDbEntity
  8
GAIKEI
  6
Continuous
 62
   251
100
AcDbCircle
 10
-24.80619571077978
 20
7.238669911617577
 30
0.0
 40
0.0900000000000091
  0
CIRCLE
  5
33E
330
2
100
AcDbEntity
  8
GAIKEI
  6
Continuous
 62
   251
100
AcDbCircle
 10
-24.80619571077978
 20
7.658669911617593
 30
0.0
 40
0.0900000000000091
  0
CIRCLE
  5
33F
330
2
100
AcDbEntity
  8
GAIKEI
  6
Continuous
 62
   251
100
AcDbCircle
 10
-25.26619571077976
 20
6.398669911617602
 30
0.0
 40
0.090000000000191
  0
CIRCLE
  5
340
330
2
100
AcDbEntity
  8
GAIKEI
  6
Continuous
 62
   251
100
AcDbCircle
 10
-25.26619571077976
 20
6.818669911617561
 30
0.0
 40
0.090000000000191
  0
CIRCLE
  5
341
330
2
100
AcDbEntity
  8
GAIKEI
  6
Continuous
 62
   251
100
AcDbCircle
 10
-25.26619571077976
 20
7.238669911617577
 30
0.0
 40
0.090000000000191
  0
CIRCLE
  5
342
330
2
100
AcDbEntity
  8
GAIKEI
  6
Continuous
 62
   251
100
AcDbCircle
 10
-25.26619571077976
 20
7.658669911617593
 30
0.0
 40
0.090000000000191
  0
CIRCLE
  5
343
330
2
100
AcDbEntity
  8
GAIKEI
  6
Continuous
 62
   251
100
AcDbCircle
 10
-25.72619571077956
 20
6.398669911617602
 30
0.0
 40
0.0900000000000091
  0
CIRCLE
  5
344
330
2
100
AcDbEntity
  8
GAIKEI
  6
Continuous
 62
   251
100
AcDbCircle
 10
-25.72619571077956
 20
6.818669911617561
 30
0.0
 40
0.0900000000000091
  0
CIRCLE
  5
345
330
2
100
AcDbEntity
  8
GAIKEI
  6
Continuous
 62
   251
100
AcDbCircle
 10
-25.72619571077956
 20
7.238669911617577
 30
0.0
 40
0.0900000000000091
  0
CIRCLE
  5
346
330
2
100
AcDbEntity
  8
GAIKEI
  6
Continuous
 62
   251
100
AcDbCircle
 10
-25.72619571077956
 20
7.658669911617593
 30
0.0
 40
0.0900000000000091
  0
CIRCLE
  5
347
330
2
100
AcDbEntity
  8
GAIKEI
  6
Continuous
 62
   251
100
AcDbCircle
 10
-26.18619571077954
 20
6.398669911617602
 30
0.0
 40
0.0899999999998045
  0
CIRCLE
  5
348
330
2
100
AcDbEntity
  8
GAIKEI
  6
Continuous
 62
   251
100
AcDbCircle
 10
-26.18619571077954
 20
6.818669911617561
 30
0.0
 40
0.0899999999998045
  0
CIRCLE
  5
349
330
2
100
AcDbEntity
  8
GAIKEI
  6
Continuous
 62
   251
100
AcDbCircle
 10
-26.18619571077954
 20
7.238669911617577
 30
0.0
 40
0.0899999999998045
  0
CIRCLE
  5
34A
330
2
100
AcDbEntity
  8
GAIKEI
  6
Continuous
 62
   251
100
AcDbCircle
 10
-26.18619571077954
 20
7.658669911617593
 30
0.0
 40
0.0899999999998045
  0
CIRCLE
  5
34B
330
2
100
AcDbEntity
  8
GAIKEI
  6
Continuous
 62
   251
100
AcDbCircle
 10
-26.64619571077975
 20
6.398669911617602
 30
0.0
 40
0.0899999999999864
  0
CIRCLE
  5
34C
330
2
100
AcDbEntity
  8
GAIKEI
  6
Continuous
 62
   251
100
AcDbCircle
 10
-26.64619571077975
 20
6.818669911617561
 30
0.0
 40
0.0899999999999864
  0
CIRCLE
  5
34D
330
2
100
AcDbEntity
  8
GAIKEI
  6
Continuous
 62
   251
100
AcDbCircle
 10
-26.64619571077975
 20
7.238669911617577
 30
0.0
 40
0.0899999999999864
  0
CIRCLE
  5
34E
330
2
100
AcDbEntity
  8
GAIKEI
  6
Continuous
 62
   251
100
AcDbCircle
 10
-26.64619571077975
 20
7.658669911617593
 30
0.0
 40
0.0899999999999864
  0
CIRCLE
  5
34F
330
2
100
AcDbEntity
  8
GAIKEI
  6
Continuous
 62
   251
100
AcDbCircle
 10
-27.10619571077973
 20
6.398669911617602
 30
0.0
 40
0.0900000000000091
  0
CIRCLE
  5
350
330
2
100
AcDbEntity
  8
GAIKEI
  6
Continuous
 62
   251
100
AcDbCircle
 10
-27.10619571077973
 20
6.818669911617561
 30
0.0
 40
0.0900000000000091
  0
CIRCLE
  5
351
330
2
100
AcDbEntity
  8
GAIKEI
  6
Continuous
 62
   251
100
AcDbCircle
 10
-27.10619571077973
 20
7.238669911617577
 30
0.0
 40
0.0900000000000091
  0
CIRCLE
  5
352
330
2
100
AcDbEntity
  8
GAIKEI
  6
Continuous
 62
   251
100
AcDbCircle
 10
-27.10619571077973
 20
7.658669911617593
 30
0.0
 40
0.0900000000000091
  0
CIRCLE
  5
353
330
2
100
AcDbEntity
  8
GAIKEI
  6
Continuous
 62
   251
100
AcDbCircle
 10
-27.56619571077977
 20
6.398669911617602
 30
0.0
 40
0.090000000000191
  0
CIRCLE
  5
354
330
2
100
AcDbEntity
  8
GAIKEI
  6
Continuous
 62
   251
100
AcDbCircle
 10
-27.56619571077977
 20
6.818669911617561
 30
0.0
 40
0.090000000000191
  0
CIRCLE
  5
355
330
2
100
AcDbEntity
  8
GAIKEI
  6
Continuous
 62
   251
100
AcDbCircle
 10
-27.56619571077977
 20
7.238669911617577
 30
0.0
 40
0.090000000000191
  0
CIRCLE
  5
356
330
2
100
AcDbEntity
  8
GAIKEI
  6
Continuous
 62
   251
100
AcDbCircle
 10
-27.56619571077977
 20
7.658669911617593
 30
0.0
 40
0.090000000000191
  0
CIRCLE
  5
357
330
2
100
AcDbEntity
  8
GAIKEI
  6
Continuous
 62
   251
100
AcDbCircle
 10
-28.02619571077952
 20
6.398669911617602
 30
0.0
 40
0.0900000000000091
  0
CIRCLE
  5
358
330
2
100
AcDbEntity
  8
GAIKEI
  6
Continuous
 62
   251
100
AcDbCircle
 10
-28.02619571077952
 20
6.818669911617561
 30
0.0
 40
0.0900000000000091
  0
CIRCLE
  5
359
330
2
100
AcDbEntity
  8
GAIKEI
  6
Continuous
 62
   251
100
AcDbCircle
 10
-28.02619571077952
 20
7.238669911617577
 30
0.0
 40
0.0900000000000091
  0
CIRCLE
  5
35A
330
2
100
AcDbEntity
  8
GAIKEI
  6
Continuous
 62
   251
100
AcDbCircle
 10
-28.02619571077952
 20
7.658669911617593
 30
0.0
 40
0.0900000000000091
  0
CIRCLE
  5
35B
330
2
100
AcDbEntity
  8
GAIKEI
  6
Continuous
 62
   251
100
AcDbCircle
 10
-28.48619571077956
 20
6.398669911617602
 30
0.0
 40
0.0899999999997931
  0
CIRCLE
  5
35C
330
2
100
AcDbEntity
  8
GAIKEI
  6
Continuous
 62
   251
100
AcDbCircle
 10
-28.48619571077956
 20
6.818669911617561
 30
0.0
 40
0.0899999999997931
  0
CIRCLE
  5
35D
330
2
100
AcDbEntity
  8
GAIKEI
  6
Continuous
 62
   251
100
AcDbCircle
 10
-28.48619571077956
 20
7.238669911617577
 30
0.0
 40
0.0899999999997931
  0
CIRCLE
  5
35E
330
2
100
AcDbEntity
  8
GAIKEI
  6
Continuous
 62
   251
100
AcDbCircle
 10
-28.48619571077956
 20
7.658669911617593
 30
0.0
 40
0.0899999999997931
  0
CIRCLE
  5
35F
330
2
100
AcDbEntity
  8
GAIKEI
  6
Continuous
 62
   251
100
AcDbCircle
 10
-28.94619571077976
 20
6.398669911617602
 30
0.0
 40
0.0899999999999978
  0
CIRCLE
  5
360
330
2
100
AcDbEntity
  8
GAIKEI
  6
Continuous
 62
   251
100
AcDbCircle
 10
-28.94619571077976
 20
6.818669911617561
 30
0.0
 40
0.0899999999999978
  0
CIRCLE
  5
361
330
2
100
AcDbEntity
  8
GAIKEI
  6
Continuous
 62
   251
100
AcDbCircle
 10
-28.94619571077976
 20
7.238669911617577
 30
0.0
 40
0.0899999999999978
  0
CIRCLE
  5
362
330
2
100
AcDbEntity
  8
GAIKEI
  6
Continuous
 62
   251
100
AcDbCircle
 10
-28.94619571077976
 20
7.658669911617593
 30
0.0
 40
0.0899999999999978
  0
CIRCLE
  5
363
330
2
100
AcDbEntity
  8
GAIKEI
  6
Continuous
 62
   251
100
AcDbCircle
 10
-29.40619571077974
 20
6.398669911617602
 30
0.0
 40
0.0900000000000091
  0
CIRCLE
  5
364
330
2
100
AcDbEntity
  8
GAIKEI
  6
Continuous
 62
   251
100
AcDbCircle
 10
-29.40619571077974
 20
6.818669911617561
 30
0.0
 40
0.0900000000000091
  0
CIRCLE
  5
365
330
2
100
AcDbEntity
  8
GAIKEI
  6
Continuous
 62
   251
100
AcDbCircle
 10
-29.40619571077974
 20
7.238669911617577
 30
0.0
 40
0.0900000000000091
  0
CIRCLE
  5
366
330
2
100
AcDbEntity
  8
GAIKEI
  6
Continuous
 62
   251
100
AcDbCircle
 10
-29.40619571077974
 20
7.658669911617593
 30
0.0
 40
0.0900000000000091
  0
CIRCLE
  5
367
330
2
100
AcDbEntity
  8
GAIKEI
  6
Continuous
 62
   251
100
AcDbCircle
 10
-29.86619571077972
 20
6.398669911617602
 30
0.0
 40
0.090000000000191
  0
CIRCLE
  5
368
330
2
100
AcDbEntity
  8
GAIKEI
  6
Continuous
 62
   251
100
AcDbCircle
 10
-29.86619571077972
 20
6.818669911617561
 30
0.0
 40
0.090000000000191
  0
CIRCLE
  5
369
330
2
100
AcDbEntity
  8
GAIKEI
  6
Continuous
 62
   251
100
AcDbCircle
 10
-29.86619571077972
 20
7.238669911617577
 30
0.0
 40
0.090000000000191
  0
CIRCLE
  5
36A
330
2
100
AcDbEntity
  8
GAIKEI
  6
Continuous
 62
   251
100
AcDbCircle
 10
-29.86619571077972
 20
7.658669911617593
 30
0.0
 40
0.090000000000191
  0
CIRCLE
  5
36B
330
2
100
AcDbEntity
  8
GAIKEI
  6
Continuous
 62
   251
100
AcDbCircle
 10
-30.32619571077953
 20
6.398669911617602
 30
0.0
 40
0.0899999999999978
  0
CIRCLE
  5
36C
330
2
100
AcDbEntity
  8
GAIKEI
  6
Continuous
 62
   251
100
AcDbCircle
 10
-30.32619571077959
 20
6.818669911617561
 30
0.0
 40
0.0900000000000091
  0
CIRCLE
  5
36D
330
2
100
AcDbEntity
  8
GAIKEI
  6
Continuous
 62
   251
100
AcDbCircle
 10
-30.32619571077959
 20
7.238669911617577
 30
0.0
 40
0.0900000000000091
  0
CIRCLE
  5
36E
330
2
100
AcDbEntity
  8
GAIKEI
  6
Continuous
 62
   251
100
AcDbCircle
 10
-30.32619571077953
 20
7.658669911617593
 30
0.0
 40
0.0899999999999978
  0
CIRCLE
  5
36F
330
2
100
AcDbEntity
  8
GAIKEI
  6
Continuous
 62
   251
100
AcDbCircle
 10
-30.78619571077957
 20
6.398669911617602
 30
0.0
 40
0.08999999999985
  0
CIRCLE
  5
370
330
2
100
AcDbEntity
  8
GAIKEI
  6
Continuous
 62
   251
100
AcDbCircle
 10
-30.78619571077957
 20
6.818669911617561
 30
0.0
 40
0.08999999999985
  0
CIRCLE
  5
371
330
2
100
AcDbEntity
  8
GAIKEI
  6
Continuous
 62
   251
100
AcDbCircle
 10
-30.78619571077957
 20
7.238669911617577
 30
0.0
 40
0.08999999999985
  0
CIRCLE
  5
372
330
2
100
AcDbEntity
  8
GAIKEI
  6
Continuous
 62
   251
100
AcDbCircle
 10
-30.78619571077957
 20
7.658669911617593
 30
0.0
 40
0.08999999999985
  0
CIRCLE
  5
373
330
2
100
AcDbEntity
  8
GAIKEI
  6
Continuous
 62
   251
100
AcDbCircle
 10
-31.24619571077972
 20
6.398669911617602
 30
0.0
 40
0.0899999999999523
  0
CIRCLE
  5
374
330
2
100
AcDbEntity
  8
GAIKEI
  6
Continuous
 62
   251
100
AcDbCircle
 10
-31.24619571077972
 20
6.818669911617561
 30
0.0
 40
0.0899999999999409
  0
CIRCLE
  5
375
330
2
100
AcDbEntity
  8
GAIKEI
  6
Continuous
 62
   251
100
AcDbCircle
 10
-31.24619571077972
 20
7.238669911617577
 30
0.0
 40
0.0899999999999409
  0
CIRCLE
  5
376
330
2
100
AcDbEntity
  8
GAIKEI
  6
Continuous
 62
   251
100
AcDbCircle
 10
-31.24619571077972
 20
7.658669911617593
 30
0.0
 40
0.0899999999999409
  0
CIRCLE
  5
377
330
2
100
AcDbEntity
  8
GAIKEI
  6
Continuous
 62
   251
100
AcDbCircle
 10
-31.70619571077975
 20
6.398669911617602
 30
0.0
 40
0.0900000000000091
  0
CIRCLE
  5
378
330
2
100
AcDbEntity
  8
GAIKEI
  6
Continuous
 62
   251
100
AcDbCircle
 10
-31.70619571077975
 20
6.818669911617561
 30
0.0
 40
0.0899999999999978
  0
CIRCLE
  5
379
330
2
100
AcDbEntity
  8
GAIKEI
  6
Continuous
 62
   251
100
AcDbCircle
 10
-31.70619571077975
 20
7.238669911617577
 30
0.0
 40
0.0900000000000091
  0
CIRCLE
  5
37A
330
2
100
AcDbEntity
  8
GAIKEI
  6
Continuous
 62
   251
100
AcDbCircle
 10
-31.70619571077975
 20
7.658669911617593
 30
0.0
 40
0.0900000000000091
  0
CIRCLE
  5
37B
330
2
100
AcDbEntity
  8
GAIKEI
  6
Continuous
 62
   251
100
AcDbCircle
 10
-32.16619571077979
 20
6.398669911617602
 30
0.0
 40
0.090000000000191
  0
CIRCLE
  5
37C
330
2
100
AcDbEntity
  8
GAIKEI
  6
Continuous
 62
   251
100
AcDbCircle
 10
-32.16619571077979
 20
6.818669911617561
 30
0.0
 40
0.0900000000002024
  0
CIRCLE
  5
37D
330
2
100
AcDbEntity
  8
GAIKEI
  6
Continuous
 62
   251
100
AcDbCircle
 10
-32.16619571077979
 20
7.238669911617577
 30
0.0
 40
0.090000000000191
  0
CIRCLE
  5
37E
330
2
100
AcDbEntity
  8
GAIKEI
  6
Continuous
 62
   251
100
AcDbCircle
 10
-32.16619571077979
 20
7.658669911617593
 30
0.0
 40
0.090000000000191
  0
CIRCLE
  5
37F
330
2
100
AcDbEntity
  8
GAIKEI
  6
Continuous
 62
   251
100
AcDbCircle
 10
-32.6261957107796
 20
6.398669911617602
 30
0.0
 40
0.0900000000000091
  0
CIRCLE
  5
380
330
2
100
AcDbEntity
  8
GAIKEI
  6
Continuous
 62
   251
100
AcDbCircle
 10
-32.62619571077954
 20
6.818669911617561
 30
0.0
 40
0.0899999999999978
  0
CIRCLE
  5
381
330
2
100
AcDbEntity
  8
GAIKEI
  6
Continuous
 62
   251
100
AcDbCircle
 10
-32.6261957107796
 20
7.238669911617577
 30
0.0
 40
0.0900000000000091
  0
CIRCLE
  5
382
330
2
100
AcDbEntity
  8
GAIKEI
  6
Continuous
 62
   251
100
AcDbCircle
 10
-32.6261957107796
 20
7.658669911617593
 30
0.0
 40
0.0900000000000091
  0
CIRCLE
  5
383
330
2
100
AcDbEntity
  8
GAIKEI
  6
Continuous
 62
   251
100
AcDbCircle
 10
-33.08619571077958
 20
6.398669911617602
 30
0.0
 40
0.08999999999985
  0
CIRCLE
  5
384
330
2
100
AcDbEntity
  8
GAIKEI
  6
Continuous
 62
   251
100
AcDbCircle
 10
-33.08619571077958
 20
6.818669911617561
 30
0.0
 40
0.08999999999985
  0
CIRCLE
  5
385
330
2
100
AcDbEntity
  8
GAIKEI
  6
Continuous
 62
   251
100
AcDbCircle
 10
-33.08619571077958
 20
7.238669911617577
 30
0.0
 40
0.08999999999985
  0
CIRCLE
  5
386
330
2
100
AcDbEntity
  8
GAIKEI
  6
Continuous
 62
   251
100
AcDbCircle
 10
-33.08619571077958
 20
7.658669911617593
 30
0.0
 40
0.08999999999985
  0
CIRCLE
  5
387
330
2
100
AcDbEntity
  8
GAIKEI
  6
Continuous
 62
   251
100
AcDbCircle
 10
-33.54619571077973
 20
6.398669911617602
 30
0.0
 40
0.0899999999999409
  0
CIRCLE
  5
388
330
2
100
AcDbEntity
  8
GAIKEI
  6
Continuous
 62
   251
100
AcDbCircle
 10
-33.54619571077973
 20
6.818669911617561
 30
0.0
 40
0.0899999999999523
  0
CIRCLE
  5
389
330
2
100
AcDbEntity
  8
GAIKEI
  6
Continuous
 62
   251
100
AcDbCircle
 10
-33.54619571077973
 20
7.238669911617577
 30
0.0
 40
0.0899999999999409
  0
CIRCLE
  5
38A
330
2
100
AcDbEntity
  8
GAIKEI
  6
Continuous
 62
   251
100
AcDbCircle
 10
-33.54619571077973
 20
7.658669911617593
 30
0.0
 40
0.0899999999999409
  0
CIRCLE
  5
38B
330
2
100
AcDbEntity
  8
GAIKEI
  6
Continuous
 62
   251
100
AcDbCircle
 10
-34.00619571077977
 20
6.398669911617602
 30
0.0
 40
0.0900000000000091
  0
CIRCLE
  5
38C
330
2
100
AcDbEntity
  8
GAIKEI
  6
Continuous
 62
   251
100
AcDbCircle
 10
-34.00619571077977
 20
6.818669911617561
 30
0.0
 40
0.0899999999999978
  0
CIRCLE
  5
38D
330
2
100
AcDbEntity
  8
GAIKEI
  6
Continuous
 62
   251
100
AcDbCircle
 10
-34.00619571077977
 20
7.238669911617577
 30
0.0
 40
0.0900000000000091
  0
CIRCLE
  5
38E
330
2
100
AcDbEntity
  8
GAIKEI
  6
Continuous
 62
   251
100
AcDbCircle
 10
-34.00619571077977
 20
7.658669911617593
 30
0.0
 40
0.0900000000000091
  0
CIRCLE
  5
38F
330
2
100
AcDbEntity
  8
GAIKEI
  6
Continuous
 62
   251
100
AcDbCircle
 10
-34.46619571077974
 20
6.398669911617602
 30
0.0
 40
0.090000000000191
  0
CIRCLE
  5
390
330
2
100
AcDbEntity
  8
GAIKEI
  6
Continuous
 62
   251
100
AcDbCircle
 10
-34.46619571077974
 20
6.818669911617561
 30
0.0
 40
0.0900000000002024
  0
CIRCLE
  5
391
330
2
100
AcDbEntity
  8
GAIKEI
  6
Continuous
 62
   251
100
AcDbCircle
 10
-34.46619571077974
 20
7.238669911617577
 30
0.0
 40
0.090000000000191
  0
CIRCLE
  5
392
330
2
100
AcDbEntity
  8
GAIKEI
  6
Continuous
 62
   251
100
AcDbCircle
 10
-34.46619571077974
 20
7.658669911617593
 30
0.0
 40
0.090000000000191
  0
CIRCLE
  5
393
330
2
100
AcDbEntity
  8
GAIKEI
  6
Continuous
 62
   251
100
AcDbCircle
 10
-34.92619571077955
 20
6.398669911617602
 30
0.0
 40
0.0900000000000091
  0
CIRCLE
  5
394
330
2
100
AcDbEntity
  8
GAIKEI
  6
Continuous
 62
   251
100
AcDbCircle
 10
-34.92619571077955
 20
6.818669911617561
 30
0.0
 40
0.0899999999999978
  0
CIRCLE
  5
395
330
2
100
AcDbEntity
  8
GAIKEI
  6
Continuous
 62
   251
100
AcDbCircle
 10
-34.92619571077955
 20
7.238669911617577
 30
0.0
 40
0.0900000000000091
  0
CIRCLE
  5
396
330
2
100
AcDbEntity
  8
GAIKEI
  6
Continuous
 62
   251
100
AcDbCircle
 10
-34.92619571077955
 20
7.658669911617593
 30
0.0
 40
0.0900000000000091
  0
SPLINE
  5
397
330
2
100
AcDbEntity
  8
GAIKEI
  6
Continuous
 62
     1
100
AcDbSpline
210
0.0
220
0.0
230
1.0
 70
     8
 71
     3
 72
    13
 73
     9
 74
     7
 42
0.0000000001
 43
0.0000000001
 44
0.00000001
 40
0.0
 40
0.0
 40
0.0
 40
0.0
 40
0.3431457057118776
 40
0.6862913128763902
 40
0.9235796815295435
 40
1.160868027675239
 40
1.524276344621863
 40
1.887684698164938
 40
1.887684698164938
 40
1.887684698164938
 40
1.887684698164938
 10
-43.77869573769976
 20
7.992620628777544
 30
0.0
 10
-43.77780328500602
 20
7.878242187909805
 30
0.0
 10
-43.77601839460293
 20
7.649485338912256
 30
0.0
 10
-43.77419155618487
 20
7.341630695414494
 30
0.0
 10
-43.77286792299287
 20
7.069059775333016
 30
0.0
 10
-43.77179163750788
 20
6.789733472153812
 30
0.0
 10
-43.77084819350563
 20
6.468366421688372
 30
0.0
 10
-43.77045396163397
 20
6.226094498916523
 30
0.0
 10
-43.77025685305954
 20
6.104958531417523
 30
0.0
 11
-43.77869573769976
 21
7.992620628777544
 31
0.0
 11
-43.77612523633127
 21
7.649484550988276
 31
0.0
 11
-43.77405505267313
 21
7.306345188531324
 31
0.0
 11
-43.77290757687217
 21
7.069059594358904
 31
0.0
 11
-43.77198227682055
 21
6.831773052304114
 31
0.0
 11
-43.77092743576691
 21
6.468366266259053
 31
0.0
 11
-43.77025685305954
 21
6.104958531417523
 31
0.0
  0
SPLINE
  5
398
330
2
100
AcDbEntity
  8
GAIKEI
  6
Continuous
 62
     1
100
AcDbSpline
210
0.0
220
0.0
230
1.0
 70
     8
 71
     3
 72
    21
 73
    17
 74
    15
 42
0.0000000001
 43
0.0000000001
 44
0.00000001
 40
0.0
 40
0.0
 40
0.0
 40
0.0
 40
0.5949914731516339
 40
1.189982893289387
 40
1.58722473310013
 40
1.984466567058556
 40
2.381813503299764
 40
2.77916044053239
 40
3.176243593550712
 40
3.573326746709405
 40
3.969764396359883
 40
4.366202045229131
 40
4.761624541387684
 40
5.157047043884184
 40
5.747720306538141
 40
6.338393623559555
 40
6.338393623559555
 40
6.338393623559555
 40
6.338393623559555
 10
-50.54029399099977
 20
8.048669911617579
 30
0.0
 10
-50.53975251148085
 20
8.246999673882882
 30
0.0
 10
-50.5386695672035
 20
8.643659180779891
 30
0.0
 10
-50.53776522722444
 20
9.172733410149078
 30
0.0
 10
-50.537256304045
 20
9.635891506738644
 30
0.0
 10
-50.53703645187338
 20
10.03316833768542
 30
0.0
 10
-50.53702722970236
 20
10.43048025794894
 30
0.0
 10
-50.53723010969435
 20
10.82773923409843
 30
0.0
 10
-50.53764482991963
 20
11.22491011749285
 30
0.0
 10
-50.53827109854277
 20
11.62177762747305
 30
0.0
 10
-50.53910912462895
 20
12.01842957863141
 30
0.0
 10
-50.54015844781851
 20
12.41452747168442
 30
0.0
 10
-50.54141814349915
 20
12.81028637143454
 30
0.0
 10
-50.54313730078867
 20
13.27078926121666
 30
0.0
 10
-50.5454241296697
 20
13.79637407346126
 30
0.0
 10
-50.54754561225998
 20
14.19015057324363
 30
0.0
 10
-50.54860636095975
 20
14.38703883215758
 30
0.0
 11
-50.54029399099977
 21
8.048669911617579
 31
0.0
 11
-50.53877079154267
 21
8.643659435046728
 31
0.0
 11
-50.53772515002373
 21
9.238649936382884
 31
0.0
 11
-50.53729240414935
 21
9.635891540486895
 31
0.0
 11
-50.53707155865783
 21
10.03313331306115
 31
0.0
 11
-50.53706257768244
 21
10.43048024920607
 31
0.0
 11
-50.53726548615594
 21
10.82782713463557
 31
0.0
 11
-50.53768014987821
 21
11.2249100711479
 31
0.0
 11
-50.53830684472245
 21
11.62199272977249
 31
0.0
 11
-50.53914455598402
 21
12.01842949434488
 31
0.0
 11
-50.54019465116289
 21
12.41486575245646
 31
0.0
 11
-50.54145439502412
 21
12.81028624195856
 31
0.0
 11
-50.54292697412512
 21
13.20570600246098
 31
0.0
 11
-50.54552615587323
 21
13.79637354641339
 31
0.0
 11
-50.54860636095975
 21
14.38703883215758
 31
0.0
  0
SPLINE
  5
399
330
2
100
AcDbEntity
  8
GAIKEI
  6
Continuous
 62
     7
100
AcDbSpline
210
0.0
220
0.0
230
1.0
 70
    24
 71
     3
 72
     9
 73
     5
 74
     3
 42
0.0000000001
 43
0.0000000001
 44
0.00000001
 40
0.0
 40
0.0
 40
0.0
 40
0.0
 40
0.0088202390835543
 40
0.0176404781672155
 40
0.0176404781672155
 40
0.0176404781672155
 40
0.0176404781672155
 10
-50.59362187191976
 20
14.64553326507756
 30
0.0
 10
-50.59072864266642
 20
14.6460560395009
 30
0.0
 10
-50.5849421841597
 20
14.64710158834759
 30
0.0
 10
-50.57915572565296
 20
14.64814713719427
 30
0.0
 10
-50.57626249639958
 20
14.6486699116176
 30
0.0
 11
-50.59362187191976
 21
14.64553326507756
 31
0.0
 11
-50.58494218415972
 21
14.64710158834758
 31
0.0
 11
-50.57626249639958
 21
14.6486699116176
 31
0.0
  0
SPLINE
  5
39A
330
2
100
AcDbEntity
  8
GAIKEI
  6
Continuous
 62
     7
100
AcDbSpline
210
0.0
220
0.0
230
1.0
 70
    24
 71
     3
 72
     9
 73
     5
 74
     3
 42
0.0000000001
 43
0.0000000001
 44
0.00000001
 40
0.0
 40
0.0
 40
0.0
 40
0.0
 40
0.0041794457296262
 40
0.0083588914592911
 40
0.0083588914592911
 40
0.0083588914592911
 40
0.0083588914592911
 10
-50.60119701871975
 20
14.6419993978776
 30
0.0
 10
-50.59993449425309
 20
14.64258837574425
 30
0.0
 10
-50.59740944531977
 20
14.64376633147756
 30
0.0
 10
-50.59488439638643
 20
14.64494428721092
 30
0.0
 10
-50.59362187191976
 20
14.64553326507756
 30
0.0
 11
-50.60119701871975
 21
14.6419993978776
 31
0.0
 11
-50.59740944531978
 21
14.64376633147758
 31
0.0
 11
-50.59362187191976
 21
14.64553326507756
 31
0.0
  0
SPLINE
  5
39B
330
2
100
AcDbEntity
  8
GAIKEI
  6
Continuous
 62
     7
100
AcDbSpline
210
0.0
220
0.0
230
1.0
 70
     8
 71
     3
 72
     9
 73
     5
 74
     3
 42
0.0000000001
 43
0.0000000001
 44
0.00000001
 40
0.0
 40
0.0
 40
0.0
 40
0.0
 40
0.0258597097346221
 40
0.0517313154234812
 40
0.0517313154234812
 40
0.0517313154234812
 40
0.0517313154234812
 10
-50.62619571077959
 20
14.59873669723753
 30
0.0
 10
-50.62493024269473
 20
14.60762098354371
 30
0.0
 10
-50.62239870697792
 20
14.62539363592849
 30
0.0
 10
-50.60826533646217
 20
14.63646329921466
 30
0.0
 10
-50.60119701871975
 20
14.6419993978776
 30
0.0
 11
-50.62619571077959
 21
14.59873669723753
 31
0.0
 11
-50.61950017288563
 21
14.6237145773283
 31
0.0
 11
-50.60119701871975
 21
14.6419993978776
 31
0.0
  0
SPLINE
  5
39C
330
2
100
AcDbEntity
  8
GAIKEI
  6
Continuous
 62
     7
100
AcDbSpline
210
0.0
220
0.0
230
1.0
 70
    24
 71
     3
 72
     9
 73
     5
 74
     3
 42
0.0000000001
 43
0.0000000001
 44
0.00000001
 40
0.0
 40
0.0
 40
0.0
 40
0.0
 40
0.0045274871126831
 40
0.0090549742252609
 40
0.0090549742252609
 40
0.0090549742252609
 40
0.0090549742252609
 10
-50.62535635363975
 20
5.889579876737556
 30
0.0
 10
-50.62549624649636
 20
5.891082541387561
 30
0.0
 10
-50.62577603220962
 20
5.894087870687542
 30
0.0
 10
-50.62605581792292
 20
5.897093199987537
 30
0.0
 10
-50.62619571077959
 20
5.898595864637499
 30
0.0
 11
-50.62535635363975
 21
5.889579876737556
 31
0.0
 11
-50.62577603220962
 21
5.894087870687584
 31
0.0
 11
-50.62619571077959
 21
5.898595864637499
 31
0.0
  0
SPLINE
  5
39D
330
2
100
AcDbEntity
  8
GAIKEI
  6
Continuous
 62
     7
100
AcDbSpline
210
0.0
220
0.0
230
1.0
 70
     8
 71
     3
 72
    11
 73
     7
 74
     5
 42
0.0000000001
 43
0.0000000001
 44
0.00000001
 40
0.0
 40
0.0
 40
0.0
 40
0.0
 40
0.0196440508789099
 40
0.0389149682855734
 40
0.0539677134570756
 40
0.0689667954924787
 40
0.0689667954924787
 40
0.0689667954924787
 40
0.0689667954924787
 10
-50.57626975773974
 20
5.848669911617534
 30
0.0
 10
-50.5828758925903
 20
5.849414045217187
 30
0.0
 10
-50.59596267727702
 20
5.850888191969175
 30
0.0
 10
-50.61108507734341
 20
5.861757212704475
 30
0.0
 10
-50.62138240556927
 20
5.874946959250536
 30
0.0
 10
-50.62403328668246
 20
5.884708046028222
 30
0.0
 10
-50.62535635363975
 20
5.889579876737556
 30
0.0
 11
-50.57626975773974
 21
5.848669911617534
 31
0.0
 11
-50.59553206344901
 21
5.852523788562038
 31
0.0
 11
-50.61149414062436
 21
5.86332103315793
 31
0.0
 11
-50.62048458677691
 21
5.875394024210649
 31
0.0
 11
-50.62535635363975
 21
5.889579876737556
 31
0.0
  0
SPLINE
  5
39E
330
2
100
AcDbEntity
  8
GAIKEI
  6
Continuous
 62
     1
100
AcDbSpline
210
0.0
220
0.0
230
1.0
 70
     8
 71
     3
 72
    83
 73
    79
 74
    77
 42
0.0000000001
 43
0.0000000001
 44
0.00000001
 40
0.0
 40
0.0
 40
0.0
 40
0.0
 40
0.014117707536125
 40
0.0282351724034193
 40
0.0385998034044421
 40
0.048964422100538
 40
0.0602077243111177
 40
0.0714510675231666
 40
0.0836729015594631
 40
0.0958947822263554
 40
0.1092365355683917
 40
0.1225783578907614
 40
0.1371961919454943
 40
0.1518141227856982
 40
0.1678412071298957
 40
0.1838684107659415
 40
0.2013952794541608
 40
0.2189222804778574
 40
0.23803756413692
 40
0.2571530115615141
 40
0.2779974594383413
 40
0.2988421260095808
 40
0.3215903324407169
 40
0.3443388264697304
 40
0.3691450938463943
 40
0.3939517348685071
 40
0.4209698656796275
 40
0.4479884950829223
 40
0.4774250650544375
 40
0.5068623284424258
 40
0.5390250764719112
 40
0.5711888302144024
 40
0.6066365205552518
 40
0.6420859415042937
 40
0.6807920690743588
 40
0.7194999048612196
 40
0.7588848321734126
 40
0.7982687231584077
 40
0.8345115741692554
 40
0.8707521074888532
 40
0.9026466398926871
 40
0.934539871283812
 40
0.9629200786742215
 40
0.9912994994804899
 40
1.016809146558397
 40
1.042318281431129
 40
1.065401093233963
 40
1.08848356078916
 40
1.109450716084821
 40
1.130417619957055
 40
1.14945703533064
 40
1.168496260836227
 40
1.185786926555966
 40
1.203077452512249
 40
1.218801643023754
 40
1.23452572919808
 40
1.248844707973188
 40
1.263163608449722
 40
1.276235435599587
 40
1.289307199731528
 40
1.301286008914152
 40
1.313264769019343
 40
1.324258481847498
 40
1.335252157033304
 40
1.34522365072683
 40
1.355195109488855
 40
1.364037306848158
 40
1.372879475034523
 40
1.380689193069716
 40
1.388498893756098
 40
1.395595597696796
 40
1.40269229402476
 40
1.409401758978826
 40
1.416111219473309
 40
1.422618851517359
 40
1.429126493304062
 40
1.438670034642831
 40
1.448213664855497
 40
1.448213664855497
 40
1.448213664855497
 40
1.448213664855497
 10
-43.33157260699977
 20
7.868221738317558
 30
0.0
 10
-43.32761565670632
 20
7.86567446625439
 30
0.0
 10
-43.31970181622162
 20
7.860579978276035
 30
0.0
 10
-43.30877689315269
 20
7.853782317677868
 30
0.0
 10
-43.29885697677471
 20
7.847739247617539
 30
0.0
 10
-43.28970709465084
 20
7.842274320097814
 30
0.0
 10
-43.28025653073138
 20
7.836742423393673
 30
0.0
 10
-43.27021844567701
 20
7.830989708665498
 30
0.0
 10
-43.25984137338465
 20
7.82517348721555
 30
0.0
 10
-43.24879373443289
 20
7.819124298127249
 30
0.0
 10
-43.23735480369287
 20
7.813013722779643
 30
0.0
 10
-43.22514227953822
 20
7.806657980550454
 30
0.0
 10
-43.21247914502635
 20
7.800248418568003
 30
0.0
 10
-43.19893785042934
 20
7.793594109073382
 30
0.0
 10
-43.18489091660108
 20
7.786906026733731
 30
0.0
 10
-43.16987745206529
 20
7.779995580326882
 30
0.0
 10
-43.15431491071586
 20
7.77308569586907
 30
0.0
 10
-43.13770998518383
 20
7.765991302540456
 30
0.0
 10
-43.1205131064418
 20
7.758939310951589
 30
0.0
 10
-43.10218194709158
 20
7.751744759681969
 30
0.0
 10
-43.08319961833911
 20
7.744637843807964
 30
0.0
 10
-43.06296264455458
 20
7.737436660257458
 30
0.0
 10
-43.04200415488338
 20
7.730378769457701
 30
0.0
 10
-43.01966515779112
 20
7.723294088359011
 30
0.0
 10
-42.99654108300408
 20
7.71642769390749
 30
0.0
 10
-42.97191749839206
 20
7.709627909697175
 30
0.0
 10
-42.94644752377218
 20
7.70314093425928
 30
0.0
 10
-42.91934451491434
 20
7.696837236239616
 30
0.0
 10
-42.89132059811969
 20
7.690961134215683
 30
0.0
 10
-42.86148429942907
 20
7.685411133048461
 30
0.0
 10
-42.83062554268617
 20
7.680431717846431
 30
0.0
 10
-42.79766639349293
 20
7.675957269115286
 30
0.0
 10
-42.76350987104341
 20
7.672240253059896
 30
0.0
 10
-42.72708891292893
 20
7.669304260507402
 30
0.0
 10
-42.68951013474245
 20
7.667392880913638
 30
0.0
 10
-42.65057815320962
 20
7.666637857818415
 30
0.0
 10
-42.61141548117403
 20
7.667114064073473
 30
0.0
 10
-42.57310921778414
 20
7.668810846798592
 30
0.0
 10
-42.53591864169723
 20
7.671587855812276
 30
0.0
 10
-42.50130611834342
 20
7.675171007960699
 30
0.0
 10
-42.46824108765495
 20
7.679491570869615
 30
0.0
 10
-42.43788256528914
 20
7.684228777162857
 30
0.0
 10
-42.40879744022912
 20
7.689468165450506
 30
0.0
 10
-42.38191982982935
 20
7.694921973984577
 30
0.0
 10
-42.35609605883529
 20
7.700724893043997
 30
0.0
 10
-42.33210627023001
 20
7.706614479030989
 30
0.0
 10
-42.30901369683107
 20
7.712745916905916
 30
0.0
 10
-42.28749042158808
 20
7.718874108673219
 30
0.0
 10
-42.26675013978023
 20
7.725164127092185
 30
0.0
 10
-42.24739821981937
 20
7.731379081077307
 30
0.0
 10
-42.22875446164713
 20
7.737688855048148
 30
0.0
 10
-42.21136147434822
 20
7.743865411780149
 30
0.0
 10
-42.19460497353963
 20
7.750086336375758
 30
0.0
 10
-42.17896539987789
 20
7.756136368876397
 30
0.0
 10
-42.16389082309866
 20
7.762195386704647
 30
0.0
 10
-42.14980754105408
 20
7.768061525568185
 30
0.0
 10
-42.13622596455879
 20
7.773910887668861
 30
0.0
 10
-42.12352050471438
 20
7.77955712443142
 30
0.0
 10
-42.11125621444981
 20
7.785170179276562
 30
0.0
 10
-42.09975789664988
 20
7.790580777157217
 30
0.0
 10
-42.08864310790149
 20
7.795949065031834
 30
0.0
 10
-42.07820162596905
 20
7.801117454084874
 30
0.0
 10
-42.06810152282696
 20
7.806234094351424
 30
0.0
 10
-42.05864138262387
 20
7.811132498766141
 30
0.0
 10
-42.04952434189333
 20
7.815951571988463
 30
0.0
 10
-42.04107773163556
 20
7.820503693181024
 30
0.0
 10
-42.03299604715796
 20
7.824938838844275
 30
0.0
 10
-42.02557553514759
 20
7.829080547696321
 30
0.0
 10
-42.01848258882551
 20
7.83310254320628
 30
0.0
 10
-42.01191962001366
 20
7.83687931913947
 30
0.0
 10
-42.00558504037989
 20
7.840576159725131
 30
0.0
 10
-41.99958772663673
 20
7.844123064950522
 30
0.0
 10
-41.9937214020724
 20
7.847637656276177
 30
0.0
 10
-41.98804258446405
 20
7.851082957702246
 30
0.0
 10
-41.98244005204786
 20
7.854524117691994
 30
0.0
 10
-41.97605462245919
 20
7.858495395710249
 30
0.0
 10
-41.96883805458639
 20
7.863046445031258
 30
0.0
 10
-41.96349229676424
 20
7.866496566201874
 30
0.0
 10
-41.96081940937972
 20
7.868221640997589
 30
0.0
 11
-43.33157260699977
 21
7.868221738317558
 31
0.0
 11
-43.31968235880231
 21
7.860610451762212
 31
0.0
 11
-43.30770136043844
 21
7.853143289553358
 31
0.0
 11
-43.29884917065476
 21
7.847752156009207
 31
0.0
 11
-43.28995111149152
 21
7.842437095165607
 31
0.0
 11
-43.280247922093
 21
7.836757309243111
 31
0.0
 11
-43.27049298977942
 21
7.831166775372409
 31
0.0
 11
-43.2598316225575
 21
7.825191117836979
 31
0.0
 11
-43.24911157588156
 21
7.819321282061068
 31
0.0
 11
-43.23734365905261
 21
7.813034906195284
 31
0.0
 11
-43.22550863533552
 21
7.806875649632829
 31
0.0
 11
-43.21246633362522
 21
7.800274176796605
 31
0.0
 11
-43.19934687931032
 21
7.793827175561986
 31
0.0
 11
-43.18487624159002
 21
7.786937467208574
 31
0.0
 11
-43.17031733917872
 21
7.780236003105969
 31
0.0
 11
-43.15429852214998
 21
7.773123434553937
 31
0.0
 11
-43.13818106926805
 21
7.766236963662194
 31
0.0
 11
-43.12049518186808
 21
7.758984139370895
 31
0.0
 11
-43.1027012356364
 21
7.752000171222945
 31
0.0
 11
-43.08318018964564
 21
7.744691287995621
 31
0.0
 11
-43.06354190426623
 21
7.737702877980822
 31
0.0
 11
-43.04198338195624
 21
7.730442642843499
 31
0.0
 11
-43.020299321604
 21
7.723565469784134
 31
0.0
 11
-42.99651933822718
 21
7.716504075185056
 31
0.0
 11
-42.97260770258765
 21
7.709900809225572
 31
0.0
 11
-42.94642545585901
 21
7.703232274891647
 31
0.0
 11
-42.92010920841664
 21
7.697111698406828
 31
0.0
 11
-42.89129915690137
 21
7.691070789159525
 31
0.0
 11
-42.86235824759569
 21
7.685687830362311
 31
0.0
 11
-42.83060616390065
 21
7.680564594747224
 31
0.0
 11
-42.79873462324707
 21
7.676238863292141
 31
0.0
 11
-42.76349489595259
 21
7.672404756783336
 31
0.0
 11
-42.72815992793465
 21
7.66955844635639
 31
0.0
 11
-42.68950360476345
 21
7.667595542042349
 31
0.0
 11
-42.65080306506075
 21
7.666844022834581
 31
0.0
 11
-42.61142107179654
 21
7.667324760774917
 31
0.0
 11
-42.57207559108429
 21
7.669063731500713
 31
0.0
 11
-42.53593318371002
 21
7.671760143964419
 31
0.0
 11
-42.49988520926558
 21
7.675491068086884
 31
0.0
 11
-42.46825938349878
 21
7.67962245311331
 31
0.0
 11
-42.43674743866029
 21
7.684539316053459
 31
0.0
 11
-42.40881670698747
 21
7.689570260261845
 31
0.0
 11
-42.38100407367006
 21
7.695213747928889
 31
0.0
 11
-42.35611504904312
 21
7.700806470609265
 31
0.0
 11
-42.33134158827295
 21
7.706888542898283
 31
0.0
 11
-42.30903179779659
 21
7.712812177734676
 31
0.0
 11
-42.28683169518155
 21
7.719133234021327
 31
0.0
 11
-42.26676701748232
 21
7.725218487546086
 31
0.0
 11
-42.2468043847823
 21
7.731629755315438
 31
0.0
 11
-42.22876987404248
 21
7.737733505067794
 31
0.0
 11
-42.21082841496735
 21
7.744105016296927
 31
0.0
 11
-42.19461884538282
 21
7.750123070487845
 31
0.0
 11
-42.17849292198605
 21
7.756361410340545
 31
0.0
 11
-42.16390319624986
 21
7.762225715232816
 31
0.0
 11
-42.14938801961153
 21
7.76827191529388
 31
0.0
 11
-42.13623694622287
 21
7.773936050162532
 31
0.0
 11
-42.12315195597756
 21
7.779751025941308
 31
0.0
 11
-42.11126591324045
 21
7.785191122916543
 31
0.0
 11
-42.0994381618471
 21
7.790756670212132
 31
0.0
 11
-42.08865158459275
 21
7.795966432454505
 31
0.0
 11
-42.0779160054368
 21
7.801280379778674
 31
0.0
 11
-42.06810892157682
 21
7.80624856155417
 31
0.0
 11
-42.05834635333661
 21
7.81130357471612
 31
0.0
 11
-42.04953063325706
 21
7.8159633781991
 31
0.0
 11
-42.04075277355736
 21
7.820694041150304
 31
0.0
 11
-42.0330011462105
 21
7.824948066355645
 31
0.0
 11
-42.02528021021748
 21
7.829257484994727
 31
0.0
 11
-42.01848668312265
 21
7.833109716625003
 31
0.0
 11
-42.01171778762358
 21
7.837005032047315
 31
0.0
 11
-42.00558851813378
 21
7.840582079145164
 31
0.0
 11
-41.99948015762612
 21
7.844194700752595
 31
0.0
 11
-41.99372460792528
 21
7.847642971616593
 31
0.0
 11
-41.98798830335585
 21
7.851123154799026
 31
0.0
 11
-41.98244323636106
 21
7.854529254051769
 31
0.0
 11
-41.97691686005112
 21
7.857965614388135
 31
0.0
 11
-41.96884706288722
 21
7.863060471482285
 31
0.0
 11
-41.96081940937972
 21
7.868221640997589
 31
0.0
  0
TEXT
  5
39F
330
2
100
AcDbEntity
  8
TOUROKU
100
AcDbText
 10
36.68350377335274
 20
39.16042888839564
 30
0.0
 40
2.0
  1
ＤＧＮＶ２００２Ｍ
 72
     2
 11
57.7501704400194
 21
39.16042888839564
 31
0.0
100
AcDbText
  0
TEXT
  5
3A1
330
2
100
AcDbEntity
  8
MOJI1
100
AcDbText
 10
-40.24977959290777
 20
45.16042888839598
 30
0.0
 40
4.0
  1
ネットワークレコーダー
  7
KANJI
100
AcDbText
  0
TEXT
  5
3A4
330
2
100
AcDbEntity
  8
MOJI1
100
AcDbText
 10
-64.74977959290789
 20
-62.83957111160413
 30
0.0
 40
3.0
  1
機　能
100
AcDbText
  0
TEXT
  5
3A5
330
2
100
AcDbEntity
  8
MOJI1
100
AcDbText
 10
-64.74977959290789
 20
-57.83957111160413
 30
0.0
 40
3.0
  1
コピー出力
100
AcDbText
  0
TEXT
  5
3A6
330
2
100
AcDbEntity
  8
MOJI1
100
AcDbText
 10
-64.74977959290789
 20
-52.83957111160413
 30
0.0
 40
3.0
  1
スポット出力
100
AcDbText
  0
TEXT
  5
3A7
330
2
100
AcDbEntity
  8
MOJI1
100
AcDbText
 10
-24.74977959290789
 20
-57.83957111160413
 30
0.0
 40
3.0
  1
ＳＤＨＣ／ＳＤメモリーカード
 41
0.85
100
AcDbText
  0
TEXT
  5
3A8
330
2
100
AcDbEntity
  8
MOJI1
100
AcDbText
 10
-24.74977959290789
 20
-62.83957111160413
 30
0.0
 40
3.0
  1
高精細画像監視、かんたん操作・簡単設定、リアルタイム顔照合
 41
0.7800000000000001
100
AcDbText
  0
TEXT
  5
3A9
330
2
100
AcDbEntity
  8
MOJI1
100
AcDbText
 10
-24.74977959290789
 20
-37.83957111160413
 30
0.0
 40
3.0
  1
３．５インチ　ＨＤＤ×２（２ＴＢ）
 41
0.9
100
AcDbText
  0
TEXT
  5
3AA
330
2
100
AcDbEntity
  8
MOJI1
100
AcDbText
 10
-24.74977959290789
 20
-32.83957111160413
 30
0.0
 40
3.0
  1
入力数を９、１２、１６に増設可能
 41
0.9
100
AcDbText
  0
LINE
  5
3AB
330
2
100
AcDbEntity
  8
WAKU
 62
     1
100
AcDbLine
 10
-67.24977959290789
 20
-58.83957111160412
 30
0.0
 11
57.750220407092
 21
-58.83957111160412
 31
0.0
  0
LINE
  5
3AD
330
2
100
AcDbEntity
  8
WAKU
 62
     1
100
AcDbLine
 10
-67.24977959290789
 20
-53.83957111160412
 30
0.0
 11
57.750220407092
 21
-53.83957111160412
 31
0.0
  0
LINE
  5
3AE
330
2
100
AcDbEntity
  8
WAKU
 62
     1
100
AcDbLine
 10
-67.24977959290789
 20
-48.83957111160412
 30
0.0
 11
57.750220407092
 21
-48.83957111160412
 31
0.0
  0
LINE
  5
3AF
330
2
100
AcDbEntity
  8
WAKU
 62
     4
100
AcDbLine
 10
57.750220407092
 20
-63.83957111160412
 30
0.0
 11
-67.24977959290789
 21
-63.83957111160412
 31
0.0
  0
LINE
  5
3B0
330
2
100
AcDbEntity
  8
WAKU
 62
     4
100
AcDbLine
 10
-67.24977959290789
 20
-13.83957111160413
 30
0.0
 11
-67.24977959290789
 21
-63.83957111160412
 31
0.0
  0
LINE
  5
3B1
330
2
100
AcDbEntity
  8
WAKU
 62
     4
100
AcDbLine
 10
-27.24977959290789
 20
-13.83957111160413
 30
0.0
 11
-27.24977959290789
 21
-63.83957111160412
 31
0.0
  0
LINE
  5
3B2
330
2
100
AcDbEntity
  8
WAKU
 62
     4
100
AcDbLine
 10
57.750220407092
 20
-13.83957111160413
 30
0.0
 11
57.750220407092
 21
-63.83957111160412
 31
0.0
  0
TEXT
  5
3B3
330
2
100
AcDbEntity
  8
MOJI1
100
AcDbText
 10
-24.74977959290789
 20
-47.83957111160413
 30
0.0
 40
3.0
  1
ＨＤＭＩ端子×１（ライブ画、再生画）
 41
0.85
100
AcDbText
  0
TEXT
  5
3B4
330
2
100
AcDbEntity
  8
MOJI1
100
AcDbText
 10
-64.74977959290789
 20
-42.83957111160413
 30
0.0
 40
3.0
  1
ネットワークポート
100
AcDbText
  0
TEXT
  5
3B5
330
2
100
AcDbEntity
  8
MOJI1
100
AcDbText
 10
-64.74977959290789
 20
-47.83957111160413
 30
0.0
 40
3.0
  1
モニター出力
100
AcDbText
  0
TEXT
  5
3B6
330
2
100
AcDbEntity
  8
MOJI1
100
AcDbText
 10
-24.74977959290789
 20
-42.83957111160413
 30
0.0
 40
3.0
  1
１０ＢＡＳＥ－Ｔ／１００ＢＡＳＥ－ＴＸ／１０００ＢＡＳＥ－Ｔ（ＲＪ－４５）
 41
0.6200000000000001
100
AcDbText
  0
TEXT
  5
3B7
330
2
100
AcDbEntity
  8
MOJI1
100
AcDbText
 10
-24.74977959290789
 20
-27.83957111160413
 30
0.0
 40
3.0
  1
カメラ拡張キット（ＤＧ－ＮＶＥ２０）により、
 41
0.9
100
AcDbText
  0
TEXT
  5
3B8
330
2
100
AcDbEntity
  8
MOJI1
100
AcDbText
 10
-64.74977959290789
 20
-37.83957111160413
 30
0.0
 40
3.0
  1
ＨＤＤ
100
AcDbText
  0
TEXT
  5
3B9
330
2
100
AcDbEntity
  8
MOJI1
100
AcDbText
 10
-64.74977959290789
 20
-22.83957111160413
 30
0.0
 40
3.0
  1
カメラ入力
100
AcDbText
  0
TEXT
  5
3BA
330
2
100
AcDbEntity
  8
MOJI1
100
AcDbText
 10
-24.74977959290789
 20
-22.83957111160413
 30
0.0
 40
3.0
  1
４台／最大１６台（ネットワーク経由)
 41
0.9
100
AcDbText
  0
LINE
  5
3BB
330
2
100
AcDbEntity
  8
WAKU
 62
     1
100
AcDbLine
 10
-67.24977959290789
 20
-23.83957111160413
 30
0.0
 11
57.750220407092
 21
-23.83957111160413
 31
0.0
  0
LINE
  5
3BC
330
2
100
AcDbEntity
  8
WAKU
 62
     1
100
AcDbLine
 10
-67.24977959290789
 20
-18.83957111160413
 30
0.0
 11
57.750220407092
 21
-18.83957111160413
 31
0.0
  0
LINE
  5
3BD
330
2
100
AcDbEntity
  8
WAKU
 62
     4
100
AcDbLine
 10
-67.24977959290789
 20
-13.83957111160413
 30
0.0
 11
57.750220407092
 21
-13.83957111160413
 31
0.0
  0
LINE
  5
3BE
330
2
100
AcDbEntity
  8
WAKU
 62
     1
100
AcDbLine
 10
-67.24977959290789
 20
-43.83957111160412
 30
0.0
 11
57.750220407092
 21
-43.83957111160412
 31
0.0
  0
LINE
  5
3BF
330
2
100
AcDbEntity
  8
WAKU
 62
     1
100
AcDbLine
 10
-67.24977959290789
 20
-38.83957111160413
 30
0.0
 11
57.750220407092
 21
-38.83957111160413
 31
0.0
  0
LINE
  5
3C0
330
2
100
AcDbEntity
  8
WAKU
 62
     1
100
AcDbLine
 10
-67.24977959290789
 20
-33.83957111160413
 30
0.0
 11
57.750220407092
 21
-33.83957111160413
 31
0.0
  0
LINE
  5
3C1
330
2
100
AcDbEntity
  8
WAKU
 62
     1
100
AcDbLine
 10
-67.24977959290789
 20
-28.83957111160413
 30
0.0
 11
57.750220407092
 21
-28.83957111160413
 31
0.0
  0
TEXT
  5
3C2
330
2
100
AcDbEntity
  8
MOJI1
100
AcDbText
 10
-24.74977959290789
 20
-17.83957111160413
 30
0.0
 40
3.0
  1
ＡＣ１００Ｖ、５０ Ｈｚ／６０ Ｈｚ
 41
0.95
100
AcDbText
  0
TEXT
  5
3C3
330
2
100
AcDbEntity
  8
MOJI1
100
AcDbText
 10
-64.74977959290789
 20
-17.83957111160413
 30
0.0
 40
3.0
  1
電　源
100
AcDbText
  0
TEXT
  5
3C4
330
2
100
AcDbEntity
  8
MOJI1
100
AcDbText
 10
-24.74977959290789
 20
-52.83957111160413
 30
0.0
 40
3.0
  1
ＢＮＣ×１（ライブ画）
100
AcDbText
  0
ENDSEC
  0
SECTION
  2
OBJECTS
  0
DICTIONARY
  5
7
330
0
100
AcDbDictionary
281
     1
  3
ACAD_COLOR
350
2C
  3
ACAD_GROUP
350
28
  3
ACAD_LAYOUT
350
B
  3
ACAD_MATERIAL
350
2B
  3
ACAD_MLINESTYLE
350
29
  3
ACAD_PLOTSETTINGS
350
2A
  3
ACAD_PLOTSTYLENAME
350
6
  3
ACDBHEADERROUNDTRIPXREC
350
3F5
  3
AcDbVariableDictionary
350
3F0
  0
DICTIONARY
  5
11
330
10
100
AcDbDictionary
280
     1
281
     1
  3
ACAD_LAYERSTATES
360
12
  0
DICTIONARY
  5
2C
102
{ACAD_REACTORS
330
7
102
}
330
7
100
AcDbDictionary
281
     1
  0
DICTIONARY
  5
28
102
{ACAD_REACTORS
330
7
102
}
330
7
100
AcDbDictionary
281
     1
  0
DICTIONARY
  5
B
102
{ACAD_REACTORS
330
7
102
}
330
7
100
AcDbDictionary
281
     1
  3
Model
350
A
  3
レイアウト1
350
F
  0
DICTIONARY
  5
2B
102
{ACAD_REACTORS
330
7
102
}
330
7
100
AcDbDictionary
281
     1
  0
DICTIONARY
  5
29
102
{ACAD_REACTORS
330
7
102
}
330
7
100
AcDbDictionary
281
     1
  3
Standard
350
2E
  0
DICTIONARY
  5
2A
102
{ACAD_REACTORS
330
7
102
}
330
7
100
AcDbDictionary
281
     1
  0
ACDBDICTIONARYWDFLT
  5
6
102
{ACAD_REACTORS
330
7
102
}
330
7
100
AcDbDictionary
281
     1
  3
Normal
350
5
100
AcDbDictionaryWithDefault
340
5
  0
DICTIONARY
  5
3F5
102
{ACAD_REACTORS
330
7
102
}
330
7
100
AcDbDictionary
281
     1
  3
COLORDICT
350
3F7
  3
MATERIALDICT
350
3F6
  0
DICTIONARY
  5
3F0
102
{ACAD_REACTORS
330
7
102
}
330
7
100
AcDbDictionary
281
     1
  3
DIMASSOC
350
3F2
  3
HIDETEXT
350
3F1
  3
PROJECTNAME
350
3F3
  0
DICTIONARY
  5
12
102
{ACAD_REACTORS
330
11
102
}
330
11
100
AcDbDictionary
281
     1
  0
LAYOUT
  5
A
102
{ACAD_XDICTIONARY
360
3F8
102
}
102
{ACAD_REACTORS
330
B
102
}
330
B
100
AcDbPlotSettings
  1

  2
いきなりPDF Professional
  4
A4
  6

 40
3.174999952316284
 41
3.174999952316284
 42
3.175003051757812
 43
3.17498779296875
 44
209.9733276367187
 45
297.0106506347656
 46
6.32
 47
0.0
 48
0.0
 49
0.0
140
0.0
141
0.0
142
1.0
143
1.35643967871148
 70
 11956
 72
     1
 73
     0
 74
     1
  7
tmsacad.ctb
 75
     0
147
0.7372240842658981
148
0.0256332569354072
149
0.0240599051811614
100
AcDbLayout
  1
Model
 70
     1
 71
     0
 10
0.0
 20
0.0
 11
12.0
 21
9.0
 12
0.0
 22
0.0
 32
0.0
 14
0.0
 24
0.0
 34
0.0
 15
0.0
 25
0.0
 35
0.0
146
0.0
 13
0.0
 23
0.0
 33
0.0
 16
1.0
 26
0.0
 36
0.0
 17
0.0
 27
1.0
 37
0.0
 76
     0
330
2
  0
LAYOUT
  5
F
102
{ACAD_XDICTIONARY
360
3FA
102
}
102
{ACAD_REACTORS
330
B
102
}
330
B
100
AcDbPlotSettings
  1

  2
None
  4

  6

 40
0.0
 41
0.0
 42
0.0
 43
0.0
 44
0.0
 45
0.0
 46
0.0
 47
0.0
 48
0.0
 49
0.0
140
0.0
141
0.0
142
1.0
143
1.0
 70
   688
 72
     0
 73
     0
 74
     5
  7
tmsacad.ctb
 75
    16
147
1.0
148
0.0
149
0.0
100
AcDbLayout
  1
レイアウト1
 70
     1
 71
     1
 10
0.0
 20
0.0
 11
12.0
 21
9.0
 12
0.0
 22
0.0
 32
0.0
 14
0.0
 24
0.0
 34
0.0
 15
0.0
 25
0.0
 35
0.0
146
0.0
 13
0.0
 23
0.0
 33
0.0
 16
1.0
 26
0.0
 36
0.0
 17
0.0
 27
1.0
 37
0.0
 76
     0
330
C
  0
MLINESTYLE
  5
2E
102
{ACAD_REACTORS
330
29
102
}
330
29
100
AcDbMlineStyle
  2
STANDARD
 70
     0
  3

 62
   256
 51
90.0
 52
90.0
 71
     2
 49
0.5
 62
   256
  6
BYLAYER
 49
-0.5
 62
   256
  6
BYLAYER
  0
ACDBPLACEHOLDER
  5
5
102
{ACAD_REACTORS
330
6
102
}
330
6
  0
XRECORD
  5
3F7
102
{ACAD_REACTORS
330
3F5
102
}
330
3F5
100
AcDbXrecord
280
     1
340
2C
  0
XRECORD
  5
3F6
102
{ACAD_REACTORS
330
3F5
102
}
330
3F5
100
AcDbXrecord
280
     1
340
2B
  0
DICTIONARYVAR
  5
3F2
102
{ACAD_REACTORS
330
3F0
102
}
330
3F0
100
DictionaryVariables
280
     0
  1
1
  0
DICTIONARYVAR
  5
3F1
102
{ACAD_REACTORS
330
3F0
102
}
330
3F0
100
DictionaryVariables
280
     0
  1
1
  0
DICTIONARYVAR
  5
3F3
102
{ACAD_REACTORS
330
3F0
102
}
330
3F0
100
DictionaryVariables
280
     0
  1

  0
DICTIONARY
  5
3F8
330
A
100
AcDbDictionary
280
     1
281
     1
  3
ACAD_XREC_ROUNDTRIP
360
3F9
  0
DICTIONARY
  5
3FA
330
F
100
AcDbDictionary
280
     1
281
     1
  3
ACAD_XREC_ROUNDTRIP
360
3FB
  0
XRECORD
  5
3F9
102
{ACAD_REACTORS
330
3F8
102
}
330
3F8
100
AcDbXrecord
280
     1
102
SHADEPLOT
 70
     0
102
SHADEPLOTRESLEVEL
 70
     2
102
SHADEPLOTCUSTOMDPI
 70
   150
  0
XRECORD
  5
3FB
102
{ACAD_REACTORS
330
3FA
102
}
330
3FA
100
AcDbXrecord
280
     1
102
SHADEPLOT
 70
     0
102
SHADEPLOTRESLEVEL
 70
     2
102
SHADEPLOTCUSTOMDPI
 70
   300
  0
ENDSEC
  0
EOF
